  0
SECTION
  2
HEADER
  9
$ACADVER
  1
AC1018
  9
$ACADMAINTVER
 70
    39
  9
$DWGCODEPAGE
  3
ANSI_932
  9
$INSBASE
 10
0.0
 20
0.0
 30
0.0
  9
$EXTMIN
 10
-484.2519516212073
 20
69.41366682552462
 30
-0.0015258207003583
  9
$EXTMAX
 10
-68.27294791987265
 20
322.9779671712056
 30
0.0000000349246037
  9
$LIMMIN
 10
-592.0
 20
0.0
  9
$LIMMAX
 10
0.0
 20
418.0
  9
$ORTHOMODE
 70
     0
  9
$REGENMODE
 70
     1
  9
$FILLMODE
 70
     1
  9
$QTEXTMODE
 70
     0
  9
$MIRRTEXT
 70
     0
  9
$LTSCALE
 40
1.0
  9
$ATTMODE
 70
     1
  9
$TEXTSIZE
 40
0.2
  9
$TRACEWID
 40
0.05
  9
$TEXTSTYLE
  7
STANDARD
  9
$CLAYER
  8
0
  9
$CELTYPE
  6
CONTINUOUS
  9
$CECOLOR
 62
   256
  9
$CELTSCALE
 40
1.0
  9
$DISPSILH
 70
     0
  9
$DIMSCALE
 40
1.0
  9
$DIMASZ
 40
1.0
  9
$DIMEXO
 40
2.54
  9
$DIMDLI
 40
0.38
  9
$DIMRND
 40
0.0
  9
$DIMDLE
 40
0.0
  9
$DIMEXE
 40
2.54
  9
$DIMTP
 40
0.0
  9
$DIMTM
 40
0.0
  9
$DIMTXT
 40
3.0
  9
$DIMCEN
 40
0.09
  9
$DIMTSZ
 40
0.0
  9
$DIMTOL
 70
     0
  9
$DIMLIM
 70
     0
  9
$DIMTIH
 70
     0
  9
$DIMTOH
 70
     0
  9
$DIMSE1
 70
     0
  9
$DIMSE2
 70
     0
  9
$DIMTAD
 70
     1
  9
$DIMZIN
 70
     0
  9
$DIMBLK
  1

  9
$DIMASO
 70
     1
  9
$DIMSHO
 70
     0
  9
$DIMPOST
  1

  9
$DIMAPOST
  1

  9
$DIMALT
 70
     0
  9
$DIMALTD
 70
     2
  9
$DIMALTF
 40
25.4
  9
$DIMLFAC
 40
1.0
  9
$DIMTOFL
 70
     0
  9
$DIMTVP
 40
1.0
  9
$DIMTIX
 70
     0
  9
$DIMSOXD
 70
     0
  9
$DIMSAH
 70
     1
  9
$DIMBLK1
  1

  9
$DIMBLK2
  1

  9
$DIMSTYLE
  2
DIMSTYLE1
  9
$DIMCLRD
 70
     0
  9
$DIMCLRE
 70
     0
  9
$DIMCLRT
 70
     0
  9
$DIMTFAC
 40
1.0
  9
$DIMGAP
 40
1.5
  9
$DIMJUST
 70
     0
  9
$DIMSD1
 70
     0
  9
$DIMSD2
 70
     0
  9
$DIMTOLJ
 70
     1
  9
$DIMTZIN
 70
     0
  9
$DIMALTZ
 70
     0
  9
$DIMALTTZ
 70
     0
  9
$DIMUPT
 70
     0
  9
$DIMDEC
 70
     4
  9
$DIMTDEC
 70
     4
  9
$DIMALTU
 70
     2
  9
$DIMALTTD
 70
     2
  9
$DIMTXSTY
  7
STANDARD
  9
$DIMAUNIT
 70
     0
  9
$DIMADEC
 70
     0
  9
$DIMALTRND
 40
0.0
  9
$DIMAZIN
 70
     0
  9
$DIMDSEP
 70
    46
  9
$DIMATFIT
 70
     3
  9
$DIMFRAC
 70
     0
  9
$DIMLDRBLK
  1

  9
$DIMLUNIT
 70
     2
  9
$DIMLWD
 70
    -2
  9
$DIMLWE
 70
    -2
  9
$DIMTMOVE
 70
     0
  9
$LUNITS
 70
     2
  9
$LUPREC
 70
     4
  9
$SKETCHINC
 40
0.1
  9
$FILLETRAD
 40
0.0
  9
$AUNITS
 70
     0
  9
$AUPREC
 70
     0
  9
$MENU
  1
.
  9
$ELEVATION
 40
0.0
  9
$PELEVATION
 40
0.0
  9
$THICKNESS
 40
0.0
  9
$LIMCHECK
 70
     0
  9
$CHAMFERA
 40
0.0
  9
$CHAMFERB
 40
0.0
  9
$CHAMFERC
 40
0.0
  9
$CHAMFERD
 40
0.0
  9
$SKPOLY
 70
     0
  9
$TDCREATE
 40
2457843.687422569
  9
$TDUCREATE
 40
2457843.312422570
  9
$TDUPDATE
 40
2457843.687986841
  9
$TDUUPDATE
 40
2457843.312986841
  9
$TDINDWG
 40
0.0005654282
  9
$TDUSRTIMER
 40
0.0005654282
  9
$USRTIMER
 70
     1
  9
$ANGBASE
 50
0.0
  9
$ANGDIR
 70
     0
  9
$PDMODE
 70
     0
  9
$PDSIZE
 40
0.0
  9
$PLINEWID
 40
0.0
  9
$SPLFRAME
 70
     0
  9
$SPLINETYPE
 70
     6
  9
$SPLINESEGS
 70
     8
  9
$HANDSEED
  5
22D
  9
$SURFTAB1
 70
     6
  9
$SURFTAB2
 70
     6
  9
$SURFTYPE
 70
     6
  9
$SURFU
 70
     6
  9
$SURFV
 70
     6
  9
$UCSBASE
  2

  9
$UCSNAME
  2

  9
$UCSORG
 10
0.0
 20
0.0
 30
0.0
  9
$UCSXDIR
 10
1.0
 20
0.0
 30
0.0
  9
$UCSYDIR
 10
0.0
 20
1.0
 30
0.0
  9
$UCSORTHOREF
  2

  9
$UCSORTHOVIEW
 70
     0
  9
$UCSORGTOP
 10
0.0
 20
0.0
 30
0.0
  9
$UCSORGBOTTOM
 10
0.0
 20
0.0
 30
0.0
  9
$UCSORGLEFT
 10
0.0
 20
0.0
 30
0.0
  9
$UCSORGRIGHT
 10
0.0
 20
0.0
 30
0.0
  9
$UCSORGFRONT
 10
0.0
 20
0.0
 30
0.0
  9
$UCSORGBACK
 10
0.0
 20
0.0
 30
0.0
  9
$PUCSBASE
  2

  9
$PUCSNAME
  2

  9
$PUCSORG
 10
0.0
 20
0.0
 30
0.0
  9
$PUCSXDIR
 10
1.0
 20
0.0
 30
0.0
  9
$PUCSYDIR
 10
0.0
 20
1.0
 30
0.0
  9
$PUCSORTHOREF
  2

  9
$PUCSORTHOVIEW
 70
     0
  9
$PUCSORGTOP
 10
0.0
 20
0.0
 30
0.0
  9
$PUCSORGBOTTOM
 10
0.0
 20
0.0
 30
0.0
  9
$PUCSORGLEFT
 10
0.0
 20
0.0
 30
0.0
  9
$PUCSORGRIGHT
 10
0.0
 20
0.0
 30
0.0
  9
$PUCSORGFRONT
 10
0.0
 20
0.0
 30
0.0
  9
$PUCSORGBACK
 10
0.0
 20
0.0
 30
0.0
  9
$USERI1
 70
     0
  9
$USERI2
 70
     0
  9
$USERI3
 70
     0
  9
$USERI4
 70
     0
  9
$USERI5
 70
     0
  9
$USERR1
 40
0.0
  9
$USERR2
 40
0.0
  9
$USERR3
 40
0.0
  9
$USERR4
 40
0.0
  9
$USERR5
 40
0.0
  9
$WORLDVIEW
 70
     1
  9
$SHADEDGE
 70
     3
  9
$SHADEDIF
 70
    70
  9
$TILEMODE
 70
     1
  9
$MAXACTVP
 70
    64
  9
$PINSBASE
 10
0.0
 20
0.0
 30
0.0
  9
$PLIMCHECK
 70
     0
  9
$PEXTMIN
 10
1.000000000000000E+20
 20
1.000000000000000E+20
 30
1.000000000000000E+20
  9
$PEXTMAX
 10
-1.000000000000000E+20
 20
-1.000000000000000E+20
 30
-1.000000000000000E+20
  9
$PLIMMIN
 10
-592.0
 20
0.0
  9
$PLIMMAX
 10
0.0
 20
418.0
  9
$UNITMODE
 70
     0
  9
$VISRETAIN
 70
     1
  9
$PLINEGEN
 70
     0
  9
$PSLTSCALE
 70
     1
  9
$TREEDEPTH
 70
  3020
  9
$CMLSTYLE
  2
Standard
  9
$CMLJUST
 70
     0
  9
$CMLSCALE
 40
1.0
  9
$PROXYGRAPHICS
 70
     1
  9
$MEASUREMENT
 70
     0
  9
$CELWEIGHT
370
    -1
  9
$ENDCAPS
280
     0
  9
$JOINSTYLE
280
     0
  9
$LWDISPLAY
290
     0
  9
$INSUNITS
 70
     0
  9
$HYPERLINKBASE
  1

  9
$STYLESHEET
  1

  9
$XEDIT
290
     1
  9
$CEPSNTYPE
380
     0
  9
$PSTYLEMODE
290
     1
  9
$FINGERPRINTGUID
  2
{5D241E42-7413-4235-ABA0-64A85C0C2BE2}
  9
$VERSIONGUID
  2
{0309C38D-765F-47E9-A6F0-B3170B8E5205}
  9
$EXTNAMES
290
     1
  9
$PSVPSCALE
 40
0.0
  9
$OLESTARTUP
290
     0
  9
$SORTENTS
280
   127
  9
$INDEXCTL
280
     0
  9
$HIDETEXT
280
     0
  9
$XCLIPFRAME
290
     0
  9
$HALOGAP
280
     0
  9
$OBSCOLOR
 70
   257
  9
$OBSLTYPE
280
     0
  9
$INTERSECTIONDISPLAY
280
     0
  9
$INTERSECTIONCOLOR
 70
   257
  9
$DIMASSOC
280
     1
  9
$PROJECTNAME
  1

  0
ENDSEC
  0
SECTION
  2
CLASSES
  0
CLASS
  1
ACDBDICTIONARYWDFLT
  2
AcDbDictionaryWithDefault
  3
ObjectDBX Classes
 90
        0
 91
        1
280
     0
281
     0
  0
CLASS
  1
TABLESTYLE
  2
AcDbTableStyle
  3
ObjectDBX Classes
 90
     2047
 91
        1
280
     0
281
     0
  0
CLASS
  1
DICTIONARYVAR
  2
AcDbDictionaryVar
  3
ObjectDBX Classes
 90
        0
 91
        1
280
     0
281
     0
  0
ENDSEC
  0
SECTION
  2
TABLES
  0
TABLE
  2
VPORT
  5
8
330
0
100
AcDbSymbolTable
 70
     2
  0
VPORT
  5
22C
330
8
100
AcDbSymbolTableRecord
100
AcDbViewportTableRecord
  2
*Active
 70
     0
 10
0.0
 20
0.0
 11
1.0
 21
1.0
 12
-296.0
 22
209.0
 13
0.0
 23
0.0
 14
1.0
 24
1.0
 15
0.0
 25
0.0
 16
0.0
 26
0.0
 36
1.0
 17
0.0
 27
0.0
 37
0.0
 40
421.1155279503105
 41
1.639303482587064
 42
50.0
 43
0.0
 44
0.0
 50
0.0
 51
0.0
 71
     0
 72
   100
 73
     1
 74
     1
 75
     0
 76
     0
 77
     0
 78
     0
281
     0
 65
     1
110
0.0
120
0.0
130
0.0
111
1.0
121
0.0
131
0.0
112
0.0
122
1.0
132
0.0
 79
     0
146
0.0
  0
ENDTAB
  0
TABLE
  2
LTYPE
  5
5
330
0
100
AcDbSymbolTable
 70
     6
  0
LTYPE
  5
13
330
5
100
AcDbSymbolTableRecord
100
AcDbLinetypeTableRecord
  2
ByBlock
 70
     0
  3

 72
    65
 73
     0
 40
0.0
  0
LTYPE
  5
14
330
5
100
AcDbSymbolTableRecord
100
AcDbLinetypeTableRecord
  2
ByLayer
 70
     0
  3

 72
    65
 73
     0
 40
0.0
  0
LTYPE
  5
15
330
5
100
AcDbSymbolTableRecord
100
AcDbLinetypeTableRecord
  2
CONTINUOUS
 70
     0
  3
Solid line
 72
    65
 73
     0
 40
0.0
  0
LTYPE
  5
26
330
5
100
AcDbSymbolTableRecord
100
AcDbLinetypeTableRecord
  2
DASHED
 70
     0
  3
__ __ __ __ __ __ __ __ __ __ __ __ __ __ __
 72
    65
 73
     2
 40
3.5
 49
2.0
 74
     0
 49
-1.5
 74
     0
  0
LTYPE
  5
27
330
5
100
AcDbSymbolTableRecord
100
AcDbLinetypeTableRecord
  2
CENTER
 70
     0
  3
____ _ ____ _ ____ _ ____ _ ____ _ ____ _ ____
 72
    65
 73
     4
 40
17.5
 49
13.0
 74
     0
 49
-1.5
 74
     0
 49
1.5
 74
     0
 49
-1.5
 74
     0
  0
LTYPE
  5
28
330
5
100
AcDbSymbolTableRecord
100
AcDbLinetypeTableRecord
  2
PHANTOM
 70
     0
  3
_____ _ _ _____ _ _ _____ _ _ _____ _ _ ____  
 72
    65
 73
     6
 40
15.5
 49
8.0
 74
     0
 49
-1.5
 74
     0
 49
1.5
 74
     0
 49
-1.5
 74
     0
 49
1.5
 74
     0
 49
-1.5
 74
     0
  0
LTYPE
  5
29
330
5
100
AcDbSymbolTableRecord
100
AcDbLinetypeTableRecord
  2
DOT
 70
     0
  3
. . . . . . . . . . . . . . . . . . . . . . . .
 72
    65
 73
     2
 40
0.25
 49
0.0
 74
     0
 49
-0.25
 74
     0
  0
LTYPE
  5
2A
330
5
100
AcDbSymbolTableRecord
100
AcDbLinetypeTableRecord
  2
HIDDEN
 70
     0
  3
__ __ __ __ __ __ __ __ __ __ __ __ __ __ __
 72
    65
 73
     2
 40
3.5
 49
2.0
 74
     0
 49
-1.5
 74
     0
  0
ENDTAB
  0
TABLE
  2
LAYER
  5
2
330
0
100
AcDbSymbolTable
 70
     2
  0
LAYER
  5
10
330
2
100
AcDbSymbolTableRecord
100
AcDbLayerTableRecord
  2
0
 70
     0
 62
     7
  6
CONTINUOUS
370
    -3
390
F
  0
LAYER
  5
2B
330
2
100
AcDbSymbolTableRecord
100
AcDbLayerTableRecord
  2
DEFPOINTS
 70
     0
 62
     7
  6
CONTINUOUS
290
     0
370
    -3
390
F
  0
ENDTAB
  0
TABLE
  2
STYLE
  5
3
330
0
100
AcDbSymbolTable
 70
     2
  0
STYLE
  5
11
330
3
100
AcDbSymbolTableRecord
100
AcDbTextStyleTableRecord
  2
STANDARD
 70
     0
 40
0.0
 41
1.0
 50
0.0
 71
     0
 42
0.2
  3

  4

1001
ACAD
1000
MS Gothic
1071
    32817
  0
ENDTAB
  0
TABLE
  2
VIEW
  5
6
330
0
100
AcDbSymbolTable
 70
     0
  0
ENDTAB
  0
TABLE
  2
UCS
  5
7
330
0
100
AcDbSymbolTable
 70
     0
  0
ENDTAB
  0
TABLE
  2
APPID
  5
9
330
0
100
AcDbSymbolTable
 70
     2
  0
APPID
  5
12
330
9
100
AcDbSymbolTableRecord
100
AcDbRegAppTableRecord
  2
ACAD
 70
     0
  0
APPID
  5
221
330
9
100
AcDbSymbolTableRecord
100
AcDbRegAppTableRecord
  2
ACAD_PSEXT
 70
     0
  0
ENDTAB
  0
TABLE
  2
DIMSTYLE
  5
A
330
0
100
AcDbSymbolTable
 70
    12
100
AcDbDimStyleTable
 71
     1
340
2C
  0
DIMSTYLE
105
2C
102
{ACAD_REACTORS
330
212
102
}
330
A
100
AcDbSymbolTableRecord
100
AcDbDimStyleTableRecord
  2
DIMSTYLE1
 70
     0
 41
1.0
 42
2.54
 44
2.54
 73
     0
 74
     0
 77
     1
140
3.0
145
1.0
147
1.5
172
     1
173
     1
279
     2
340
11
  0
DIMSTYLE
105
2D
102
{ACAD_REACTORS
330
213
102
}
330
A
100
AcDbSymbolTableRecord
100
AcDbDimStyleTableRecord
  2
DIMSTYLE2
 70
     0
 41
1.0
 42
2.54
 44
2.54
 73
     0
 74
     0
 77
     1
140
3.0
145
1.0
147
1.5
172
     1
173
     1
279
     2
340
11
  0
DIMSTYLE
105
2E
102
{ACAD_REACTORS
330
214
102
}
330
A
100
AcDbSymbolTableRecord
100
AcDbDimStyleTableRecord
  2
DIMSTYLE3
 70
     0
 41
1.0
 42
2.54
 44
2.54
 73
     0
 74
     0
 77
     1
140
3.0
145
1.0
147
1.5
172
     1
173
     1
279
     2
340
11
  0
DIMSTYLE
105
2F
102
{ACAD_REACTORS
330
215
102
}
330
A
100
AcDbSymbolTableRecord
100
AcDbDimStyleTableRecord
  2
DIMSTYLE4
 70
     0
 41
1.0
 42
2.54
 44
2.54
 73
     0
 74
     0
 77
     1
140
3.0
145
1.0
147
1.5
172
     1
173
     1
279
     2
340
11
  0
DIMSTYLE
105
30
102
{ACAD_REACTORS
330
216
102
}
330
A
100
AcDbSymbolTableRecord
100
AcDbDimStyleTableRecord
  2
DIMSTYLE5
 70
     0
 41
1.0
 42
2.54
 44
2.54
 73
     0
 74
     0
 77
     1
140
3.0
145
1.0
147
1.5
172
     1
173
     1
279
     2
340
11
  0
DIMSTYLE
105
31
102
{ACAD_REACTORS
330
217
102
}
330
A
100
AcDbSymbolTableRecord
100
AcDbDimStyleTableRecord
  2
DIMSTYLE6
 70
     0
 41
1.0
 42
2.54
 44
2.54
 73
     0
 74
     0
 75
     1
 76
     1
 77
     1
140
3.0
145
1.0
147
1.5
172
     1
173
     1
279
     2
340
11
  0
DIMSTYLE
105
32
102
{ACAD_REACTORS
330
218
102
}
330
A
100
AcDbSymbolTableRecord
100
AcDbDimStyleTableRecord
  2
DIMSTYLE7
 70
     0
 41
1.0
 42
2.54
 44
2.54
 73
     0
 74
     0
 75
     1
 76
     1
 77
     1
140
3.0
145
1.0
147
1.5
172
     1
173
     1
279
     2
340
11
  0
DIMSTYLE
105
33
102
{ACAD_REACTORS
330
219
102
}
330
A
100
AcDbSymbolTableRecord
100
AcDbDimStyleTableRecord
  2
DIMSTYLE8
 70
     0
 41
1.0
 42
2.54
 44
2.54
 73
     0
 74
     0
 75
     1
 76
     1
 77
     1
140
3.0
145
1.0
147
1.5
172
     1
173
     1
279
     2
340
11
  0
DIMSTYLE
105
34
102
{ACAD_REACTORS
330
21A
102
}
330
A
100
AcDbSymbolTableRecord
100
AcDbDimStyleTableRecord
  2
DIMSTYLE9
 70
     0
 41
1.0
 42
2.54
 44
2.54
 73
     0
 74
     0
 75
     1
 76
     1
 77
     1
140
3.0
145
1.0
147
1.5
172
     1
173
     1
279
     2
340
11
  0
DIMSTYLE
105
35
102
{ACAD_REACTORS
330
21C
102
}
330
A
100
AcDbSymbolTableRecord
100
AcDbDimStyleTableRecord
  2
DIMSTYLE10
 70
     0
 41
1.0
 42
2.54
 44
2.54
 73
     0
 74
     0
 77
     1
140
3.0
145
1.0
147
1.5
172
     1
173
     1
279
     2
340
11
  0
DIMSTYLE
105
36
102
{ACAD_REACTORS
330
21D
102
}
330
A
100
AcDbSymbolTableRecord
100
AcDbDimStyleTableRecord
  2
DIMSTYLE11
 70
     0
 41
1.0
 42
2.54
 44
2.54
 73
     0
 74
     0
 77
     1
140
3.0
145
1.0
147
1.5
172
     1
173
     1
279
     2
340
11
  0
ENDTAB
  0
TABLE
  2
BLOCK_RECORD
  5
1
330
0
100
AcDbSymbolTable
 70
    15
  0
BLOCK_RECORD
  5
22
330
1
100
AcDbSymbolTableRecord
100
AcDbBlockTableRecord
  2
*Model_Space
340
25
  0
BLOCK_RECORD
  5
1E
330
1
100
AcDbSymbolTableRecord
100
AcDbBlockTableRecord
  2
*Paper_Space
340
21
  0
BLOCK_RECORD
  5
3A
330
1
100
AcDbSymbolTableRecord
100
AcDbBlockTableRecord
  2
_OPEN30
340
0
102
{BLKREFS
331
43
331
44
331
50
331
52
331
5D
331
5E
331
68
331
69
331
73
331
74
331
7E
331
7F
331
88
331
89
331
92
331
93
331
9C
331
9D
331
A5
331
A6
331
B1
331
B2
102
}
  0
BLOCK_RECORD
  5
40
330
1
100
AcDbSymbolTableRecord
100
AcDbBlockTableRecord
  2
*D1
340
0
  0
BLOCK_RECORD
  5
4C
330
1
100
AcDbSymbolTableRecord
100
AcDbBlockTableRecord
  2
*D2
340
0
  0
BLOCK_RECORD
  5
5A
330
1
100
AcDbSymbolTableRecord
100
AcDbBlockTableRecord
  2
*D3
340
0
  0
BLOCK_RECORD
  5
65
330
1
100
AcDbSymbolTableRecord
100
AcDbBlockTableRecord
  2
*D4
340
0
  0
BLOCK_RECORD
  5
70
330
1
100
AcDbSymbolTableRecord
100
AcDbBlockTableRecord
  2
*D5
340
0
  0
BLOCK_RECORD
  5
7A
330
1
100
AcDbSymbolTableRecord
100
AcDbBlockTableRecord
  2
*D6
340
0
  0
BLOCK_RECORD
  5
84
330
1
100
AcDbSymbolTableRecord
100
AcDbBlockTableRecord
  2
*D7
340
0
  0
BLOCK_RECORD
  5
8E
330
1
100
AcDbSymbolTableRecord
100
AcDbBlockTableRecord
  2
*D8
340
0
  0
BLOCK_RECORD
  5
98
330
1
100
AcDbSymbolTableRecord
100
AcDbBlockTableRecord
  2
*D9
340
0
  0
BLOCK_RECORD
  5
A2
330
1
100
AcDbSymbolTableRecord
100
AcDbBlockTableRecord
  2
*D10
340
0
  0
BLOCK_RECORD
  5
AE
330
1
100
AcDbSymbolTableRecord
100
AcDbBlockTableRecord
  2
*D11
340
0
  0
BLOCK_RECORD
  5
BA
330
1
100
AcDbSymbolTableRecord
100
AcDbBlockTableRecord
  2
KOZU0001
340
0
102
{BLKREFS
331
21B
102
}
  0
BLOCK_RECORD
  5
C2
330
1
100
AcDbSymbolTableRecord
100
AcDbBlockTableRecord
  2
KOZU0002
340
0
102
{BLKREFS
331
21E
102
}
  0
ENDTAB
  0
ENDSEC
  0
SECTION
  2
BLOCKS
  0
BLOCK
  5
23
330
22
100
AcDbEntity
  8
0
100
AcDbBlockBegin
  2
*Model_Space
 70
     0
 10
0.0
 20
0.0
 30
0.0
  3
*Model_Space
  1

  0
ENDBLK
  5
24
330
22
100
AcDbEntity
  8
0
100
AcDbBlockEnd
  0
BLOCK
  5
1F
330
1E
100
AcDbEntity
 67
     1
  8
0
100
AcDbBlockBegin
  2
*Paper_Space
 70
     0
 10
0.0
 20
0.0
 30
0.0
  3
*Paper_Space
  1

  0
ENDBLK
  5
20
330
1E
100
AcDbEntity
 67
     1
  8
0
100
AcDbBlockEnd
  0
BLOCK
  5
3B
330
3A
100
AcDbEntity
  8
0
100
AcDbBlockBegin
  2
_OPEN30
 70
     0
 10
0.0
 20
0.0
 30
0.0
  3
_OPEN30
  1

  0
LINE
  5
3C
330
3A
100
AcDbEntity
  8
0
  6
ByBlock
 62
     0
100
AcDbLine
 10
0.0
 20
0.0
 30
0.0
 11
-2.999999999999993
 21
-1.000000000000017
 31
0.0
  0
LINE
  5
3D
330
3A
100
AcDbEntity
  8
0
  6
ByBlock
 62
     0
100
AcDbLine
 10
0.0
 20
0.0
 30
0.0
 11
-3.000000000000006
 21
0.9999999999999815
 31
0.0
  0
LINE
  5
3E
330
3A
100
AcDbEntity
  8
0
  6
ByBlock
 62
     0
100
AcDbLine
 10
0.0
 20
0.0
 30
0.0
 11
-3.0
 21
0.0
 31
0.0
  0
ENDBLK
  5
3F
330
3A
100
AcDbEntity
  8
0
100
AcDbBlockEnd
  0
BLOCK
  5
41
330
40
100
AcDbEntity
  8
0
100
AcDbBlockBegin
  2
*D1
 70
     1
 10
0.0
 20
0.0
 30
0.0
  3
*D1
  1

  0
LINE
  5
42
330
40
100
AcDbEntity
  8
0
  6
Continuous
 62
     7
100
AcDbLine
 10
-150.7904510498047
 20
313.6787719726563
 30
0.0
 11
-201.7929534912109
 21
313.6787719726563
 31
0.0
  0
INSERT
  5
43
330
40
100
AcDbEntity
  8
0
  6
Continuous
 62
     7
100
AcDbBlockReference
  2
_OPEN30
 10
-147.7904510498047
 20
313.6787719726563
 30
0.0
  0
INSERT
  5
44
330
40
100
AcDbEntity
  8
0
  6
Continuous
 62
     7
100
AcDbBlockReference
  2
_OPEN30
 10
-204.7929534912109
 20
313.6787719726563
 30
0.0
 50
180.0000000000004
  0
LINE
  5
45
330
40
100
AcDbEntity
  8
0
  6
Continuous
 62
     7
100
AcDbLine
 10
-147.7904510498047
 20
292.9079504394532
 30
0.0
 11
-147.7904510498047
 21
315.9647827148438
 31
0.0
  0
LINE
  5
46
330
40
100
AcDbEntity
  8
0
  6
Continuous
 62
     7
100
AcDbLine
 10
-204.7929534912109
 20
266.4079504394532
 30
0.0
 11
-204.7929534912109
 21
315.9647827148438
 31
0.0
  0
TEXT
  5
47
330
40
100
AcDbEntity
  8
0
  6
Continuous
 62
     7
100
AcDbText
 10
-190.8617028594017
 20
314.4287719726563
 30
0.0
 40
3.0
  1
５７　（４７～６２）
 41
0.8443929326254473
100
AcDbText
  0
POINT
  5
48
330
40
100
AcDbEntity
  8
DEFPOINTS
  6
Continuous
 62
     7
100
AcDbPoint
 10
-147.7904510498047
 20
290.3679504394531
 30
0.0
  0
POINT
  5
49
330
40
100
AcDbEntity
  8
DEFPOINTS
  6
Continuous
 62
     7
100
AcDbPoint
 10
-204.7929534912109
 20
263.8679504394531
 30
0.0
  0
POINT
  5
4A
330
40
100
AcDbEntity
  8
DEFPOINTS
  6
Continuous
 62
     7
100
AcDbPoint
 10
-204.7929534912109
 20
313.6787719726563
 30
0.0
  0
ENDBLK
  5
4B
330
40
100
AcDbEntity
  8
0
100
AcDbBlockEnd
  0
BLOCK
  5
4D
330
4C
100
AcDbEntity
  8
0
100
AcDbBlockBegin
  2
*D2
 70
     1
 10
0.0
 20
0.0
 30
0.0
  3
*D2
  1

  0
LINE
  5
4E
330
4C
100
AcDbEntity
  8
0
  6
Continuous
 62
     7
100
AcDbLine
 10
-144.7904510498046
 20
313.6787719726563
 30
0.0
 11
-137.7913513183594
 21
313.6787719726563
 31
0.0
  0
LINE
  5
4F
330
4C
100
AcDbEntity
  8
0
  6
Continuous
 62
     7
100
AcDbLine
 10
-147.7904510498047
 20
313.6787719726563
 30
0.0
 11
-144.7904510498046
 21
313.6787719726563
 31
0.0
  0
INSERT
  5
50
330
4C
100
AcDbEntity
  8
0
  6
Continuous
 62
     7
100
AcDbBlockReference
  2
_OPEN30
 10
-147.7904510498047
 20
313.6787719726563
 30
0.0
 50
0.0000000000003562
  0
LINE
  5
51
330
4C
100
AcDbEntity
  8
0
  6
Continuous
 62
     7
100
AcDbLine
 10
-150.7904510498047
 20
313.6787719726563
 30
0.0
 11
-154.1404510498047
 21
313.6787719726562
 31
0.0
  0
INSERT
  5
52
330
4C
100
AcDbEntity
  8
0
  6
Continuous
 62
     7
100
AcDbBlockReference
  2
_OPEN30
 10
-144.7904510498046
 20
313.6787719726563
 30
0.0
 50
180.0
  0
LINE
  5
53
330
4C
100
AcDbEntity
  8
0
  6
Continuous
 62
     7
100
AcDbLine
 10
-141.7904510498047
 20
313.6787719726563
 30
0.0
 11
-138.4404510498047
 21
313.6787719726563
 31
0.0
  0
LINE
  5
54
330
4C
100
AcDbEntity
  8
0
  6
Continuous
 62
     7
100
AcDbLine
 10
-144.7904510498046
 20
292.9079504394532
 30
0.0
 11
-144.7904510498046
 21
315.9647827148438
 31
0.0
  0
TEXT
  5
55
330
4C
100
AcDbEntity
  8
0
  6
Continuous
 62
     7
100
AcDbText
 10
-139.9313586950302
 20
314.4287719726563
 30
0.0
 40
3.0
  1
3
100
AcDbText
  0
POINT
  5
56
330
4C
100
AcDbEntity
  8
DEFPOINTS
  6
Continuous
 62
     7
100
AcDbPoint
 10
-147.7904510498047
 20
315.9647827148438
 30
0.0
  0
POINT
  5
57
330
4C
100
AcDbEntity
  8
DEFPOINTS
  6
Continuous
 62
     7
100
AcDbPoint
 10
-144.7904510498046
 20
290.3679504394531
 30
0.0
  0
POINT
  5
58
330
4C
100
AcDbEntity
  8
DEFPOINTS
  6
Continuous
 62
     7
100
AcDbPoint
 10
-144.7904510498046
 20
313.6787719726563
 30
0.0
  0
ENDBLK
  5
59
330
4C
100
AcDbEntity
  8
0
100
AcDbBlockEnd
  0
BLOCK
  5
5B
330
5A
100
AcDbEntity
  8
0
100
AcDbBlockBegin
  2
*D3
 70
     1
 10
0.0
 20
0.0
 30
0.0
  3
*D3
  1

  0
LINE
  5
5C
330
5A
100
AcDbEntity
  8
0
  6
Continuous
 62
     7
100
AcDbLine
 10
-207.7929534912109
 20
313.6787719726563
 30
0.0
 11
-211.7929534912109
 21
313.6787719726563
 31
0.0
  0
INSERT
  5
5D
330
5A
100
AcDbEntity
  8
0
  6
Continuous
 62
     7
100
AcDbBlockReference
  2
_OPEN30
 10
-204.7929534912109
 20
313.6787719726563
 30
0.0
  0
INSERT
  5
5E
330
5A
100
AcDbEntity
  8
0
  6
Continuous
 62
     7
100
AcDbBlockReference
  2
_OPEN30
 10
-214.7929534912109
 20
313.6787719726563
 30
0.0
 50
180.0000000000004
  0
LINE
  5
5F
330
5A
100
AcDbEntity
  8
0
  6
Continuous
 62
     7
100
AcDbLine
 10
-214.7929534912109
 20
254.9079351806641
 30
0.0
 11
-214.7929534912109
 21
315.9647827148438
 31
0.0
  0
TEXT
  5
60
330
5A
100
AcDbEntity
  8
0
  6
Continuous
 62
     7
100
AcDbText
 10
-212.3629536032677
 20
314.4287719726563
 30
0.0
 40
3.0
  1
10
 41
1.40181821042841
100
AcDbText
  0
POINT
  5
61
330
5A
100
AcDbEntity
  8
DEFPOINTS
  6
Continuous
 62
     7
100
AcDbPoint
 10
-204.7929534912109
 20
315.9647827148438
 30
0.0
  0
POINT
  5
62
330
5A
100
AcDbEntity
  8
DEFPOINTS
  6
Continuous
 62
     7
100
AcDbPoint
 10
-214.7929534912109
 20
252.3679351806641
 30
0.0
  0
POINT
  5
63
330
5A
100
AcDbEntity
  8
DEFPOINTS
  6
Continuous
 62
     7
100
AcDbPoint
 10
-214.7929534912109
 20
313.6787719726563
 30
0.0
  0
ENDBLK
  5
64
330
5A
100
AcDbEntity
  8
0
100
AcDbBlockEnd
  0
BLOCK
  5
66
330
65
100
AcDbEntity
  8
0
100
AcDbBlockBegin
  2
*D4
 70
     1
 10
0.0
 20
0.0
 30
0.0
  3
*D4
  1

  0
LINE
  5
67
330
65
100
AcDbEntity
  8
0
  6
Continuous
 62
     7
100
AcDbLine
 10
-150.7904510498047
 20
301.6436157226563
 30
0.0
 11
-166.7929534912109
 21
301.6436157226563
 31
0.0
  0
INSERT
  5
68
330
65
100
AcDbEntity
  8
0
  6
Continuous
 62
     7
100
AcDbBlockReference
  2
_OPEN30
 10
-147.7904510498047
 20
301.6436157226563
 30
0.0
  0
INSERT
  5
69
330
65
100
AcDbEntity
  8
0
  6
Continuous
 62
     7
100
AcDbBlockReference
  2
_OPEN30
 10
-169.7929534912109
 20
301.6436157226563
 30
0.0
 50
180.0000000000004
  0
LINE
  5
6A
330
65
100
AcDbEntity
  8
0
  6
Continuous
 62
     7
100
AcDbLine
 10
-169.7929534912109
 20
243.9079351806641
 30
0.0
 11
-169.7929534912109
 21
303.9296264648438
 31
0.0
  0
TEXT
  5
6B
330
65
100
AcDbEntity
  8
0
  6
Continuous
 62
     7
100
AcDbText
 10
-161.3617023825645
 20
302.3936157226563
 30
0.0
 40
3.0
  1
22
 41
1.028000020980834
100
AcDbText
  0
POINT
  5
6C
330
65
100
AcDbEntity
  8
DEFPOINTS
  6
Continuous
 62
     7
100
AcDbPoint
 10
-147.7904510498047
 20
315.9647827148438
 30
0.0
  0
POINT
  5
6D
330
65
100
AcDbEntity
  8
DEFPOINTS
  6
Continuous
 62
     7
100
AcDbPoint
 10
-169.7929534912109
 20
241.3679351806641
 30
0.0
  0
POINT
  5
6E
330
65
100
AcDbEntity
  8
DEFPOINTS
  6
Continuous
 62
     7
100
AcDbPoint
 10
-169.7929534912109
 20
301.6436157226563
 30
0.0
  0
ENDBLK
  5
6F
330
65
100
AcDbEntity
  8
0
100
AcDbBlockEnd
  0
BLOCK
  5
71
330
70
100
AcDbEntity
  8
0
100
AcDbBlockBegin
  2
*D5
 70
     1
 10
0.0
 20
0.0
 30
0.0
  3
*D5
  1

  0
LINE
  5
72
330
70
100
AcDbEntity
  8
0
  6
Continuous
 62
     7
100
AcDbLine
 10
-211.7929534912109
 20
218.7983551025391
 30
0.0
 11
-157.7929534912109
 21
218.798355102539
 31
0.0
  0
INSERT
  5
73
330
70
100
AcDbEntity
  8
0
  6
Continuous
 62
     7
100
AcDbBlockReference
  2
_OPEN30
 10
-214.7929534912109
 20
218.7983551025391
 30
0.0
 50
180.0000000000004
  0
INSERT
  5
74
330
70
100
AcDbEntity
  8
0
  6
Continuous
 62
     7
100
AcDbBlockReference
  2
_OPEN30
 10
-154.7929534912109
 20
218.7983551025391
 30
0.0
  0
TEXT
  5
75
330
70
100
AcDbEntity
  8
0
  6
Continuous
 62
     7
100
AcDbText
 10
-187.3629536032676
 20
219.5483551025391
 30
0.0
 40
3.0
  1
60
 41
1.101428593908038
100
AcDbText
  0
POINT
  5
76
330
70
100
AcDbEntity
  8
DEFPOINTS
  6
Continuous
 62
     7
100
AcDbPoint
 10
-214.7929534912109
 20
221.5778198242188
 30
0.0
  0
POINT
  5
77
330
70
100
AcDbEntity
  8
DEFPOINTS
  6
Continuous
 62
     7
100
AcDbPoint
 10
-154.7929534912109
 20
223.2429351806641
 30
0.0
  0
POINT
  5
78
330
70
100
AcDbEntity
  8
DEFPOINTS
  6
Continuous
 62
     7
100
AcDbPoint
 10
-154.7929534912109
 20
218.7983551025391
 30
0.0
  0
ENDBLK
  5
79
330
70
100
AcDbEntity
  8
0
100
AcDbBlockEnd
  0
BLOCK
  5
7B
330
7A
100
AcDbEntity
  8
0
100
AcDbBlockBegin
  2
*D6
 70
     1
 10
0.0
 20
0.0
 30
0.0
  3
*D6
  1

  0
LINE
  5
7C
330
7A
100
AcDbEntity
  8
0
  6
Continuous
 62
     7
100
AcDbLine
 10
-362.3022155761719
 20
284.1294250488281
 30
0.0
 11
-347.2904357910156
 21
319.1164855957031
 31
0.0
  0
LINE
  5
7D
330
7A
100
AcDbEntity
  8
0
  6
Continuous
 62
     7
100
AcDbLine
 10
-421.8420827622187
 20
145.3634011307554
 30
0.0
 11
-363.4851267104374
 21
281.3724844893618
 31
0.0
  0
INSERT
  5
7E
330
7A
100
AcDbEntity
  8
0
  6
Continuous
 62
     7
100
AcDbBlockReference
  2
_OPEN30
 10
-423.0249938964844
 20
142.6064605712891
 30
0.0
 50
246.7774445976084
  0
INSERT
  5
7F
330
7A
100
AcDbEntity
  8
0
  6
Continuous
 62
     7
100
AcDbBlockReference
  2
_OPEN30
 10
-362.3022155761719
 20
284.1294250488281
 30
0.0
 50
66.77744459760766
  0
TEXT
  5
80
330
7A
100
AcDbEntity
  8
0
  6
Continuous
 62
     7
100
AcDbText
 10
-360.6468899822977
 20
289.8734309869492
 30
0.0
 40
3.0
  1
%%C１５４（防水皿外径）
 50
66.80000140353341
 41
0.8440126077968535
100
AcDbText
  0
POINT
  5
81
330
7A
100
AcDbEntity
  8
DEFPOINTS
  6
Continuous
 62
     7
100
AcDbPoint
 10
-423.0249938964844
 20
142.6064605712891
 30
0.0
  0
POINT
  5
82
330
7A
100
AcDbEntity
  8
DEFPOINTS
  6
Continuous
 62
     7
100
AcDbPoint
 10
-362.3022155761719
 20
284.1294250488281
 30
0.0
  0
ENDBLK
  5
83
330
7A
100
AcDbEntity
  8
0
100
AcDbBlockEnd
  0
BLOCK
  5
85
330
84
100
AcDbEntity
  8
0
100
AcDbBlockBegin
  2
*D7
 70
     1
 10
0.0
 20
0.0
 30
0.0
  3
*D7
  1

  0
LINE
  5
86
330
84
100
AcDbEntity
  8
0
  6
Continuous
 62
     7
100
AcDbLine
 10
-361.8669738769531
 20
253.2949066162109
 30
0.0
 11
-322.8352355957031
 21
303.6954650878906
 31
0.0
  0
LINE
  5
87
330
84
100
AcDbEntity
  8
0
  6
Continuous
 62
     7
100
AcDbLine
 10
-421.8714116666516
 20
175.8128781689686
 30
0.0
 11
-363.7038446810045
 21
250.9230074511486
 31
0.0
  0
INSERT
  5
88
330
84
100
AcDbEntity
  8
0
  6
Continuous
 62
     7
100
AcDbBlockReference
  2
_OPEN30
 10
-423.7082824707031
 20
173.4409790039063
 30
0.0
 50
232.2447108790023
  0
INSERT
  5
89
330
84
100
AcDbEntity
  8
0
  6
Continuous
 62
     7
100
AcDbBlockReference
  2
_OPEN30
 10
-361.8669738769531
 20
253.2949066162109
 30
0.0
 50
52.2447108790016
  0
TEXT
  5
8A
330
84
100
AcDbEntity
  8
0
  6
Continuous
 62
     7
100
AcDbText
 10
-343.1167764969198
 20
278.751878823069
 30
0.0
 40
3.0
  1
%%C１０１（目皿部外径）
 50
52.20000076957841
 41
0.8440126077968535
100
AcDbText
  0
POINT
  5
8B
330
84
100
AcDbEntity
  8
DEFPOINTS
  6
Continuous
 62
     7
100
AcDbPoint
 10
-423.7082824707031
 20
173.4409790039063
 30
0.0
  0
POINT
  5
8C
330
84
100
AcDbEntity
  8
DEFPOINTS
  6
Continuous
 62
     7
100
AcDbPoint
 10
-361.8669738769531
 20
253.2949066162109
 30
0.0
  0
ENDBLK
  5
8D
330
84
100
AcDbEntity
  8
0
100
AcDbBlockEnd
  0
BLOCK
  5
8F
330
8E
100
AcDbEntity
  8
0
100
AcDbBlockBegin
  2
*D8
 70
     1
 10
0.0
 20
0.0
 30
0.0
  3
*D8
  1

  0
LINE
  5
90
330
8E
100
AcDbEntity
  8
0
  6
Continuous
 62
     7
100
AcDbLine
 10
-362.3473815917969
 20
231.6337890625
 30
0.0
 11
-299.485107421875
 21
269.3546752929688
 31
0.0
  0
LINE
  5
91
330
8E
100
AcDbEntity
  8
0
  6
Continuous
 62
     7
100
AcDbLine
 10
-420.6554595823695
 20
196.64567456624
 30
0.0
 11
-364.9197967652867
 21
230.0901957950881
 31
0.0
  0
INSERT
  5
92
330
8E
100
AcDbEntity
  8
0
  6
Continuous
 62
     7
100
AcDbBlockReference
  2
_OPEN30
 10
-423.2278747558593
 20
195.1020812988281
 30
0.0
 50
210.9661174815487
  0
INSERT
  5
93
330
8E
100
AcDbEntity
  8
0
  6
Continuous
 62
     7
100
AcDbBlockReference
  2
_OPEN30
 10
-362.3473815917969
 20
231.6337890625
 30
0.0
 50
30.96611748154797
  0
TEXT
  5
94
330
8E
100
AcDbEntity
  8
0
  6
Continuous
 62
     7
100
AcDbText
 10
-322.2817165225063
 20
256.5410885920666
 30
0.0
 40
3.0
  1
%%C７１（目皿外径）
 50
30.99999858592387
 41
0.8448610247221777
100
AcDbText
  0
POINT
  5
95
330
8E
100
AcDbEntity
  8
DEFPOINTS
  6
Continuous
 62
     7
100
AcDbPoint
 10
-423.2278747558593
 20
195.1020812988281
 30
0.0
  0
POINT
  5
96
330
8E
100
AcDbEntity
  8
DEFPOINTS
  6
Continuous
 62
     7
100
AcDbPoint
 10
-362.3473815917969
 20
231.6337890625
 30
0.0
  0
ENDBLK
  5
97
330
8E
100
AcDbEntity
  8
0
100
AcDbBlockEnd
  0
BLOCK
  5
99
330
98
100
AcDbEntity
  8
0
100
AcDbBlockBegin
  2
*D9
 70
     1
 10
0.0
 20
0.0
 30
0.0
  3
*D9
  1

  0
LINE
  5
9A
330
98
100
AcDbEntity
  8
0
  6
Continuous
 62
     7
100
AcDbLine
 10
-443.5499572753906
 20
256.9521179199219
 30
0.0
 11
-471.8988342285156
 21
281.2329406738281
 31
0.0
  0
LINE
  5
9B
330
98
100
AcDbEntity
  8
0
  6
Continuous
 62
     7
100
AcDbLine
 10
-344.0557452913294
 20
171.7352976692976
 30
0.0
 11
-441.2714641813269
 21
255.0005879508196
 31
0.0
  0
INSERT
  5
9C
330
98
100
AcDbEntity
  8
0
  6
Continuous
 62
     7
100
AcDbBlockReference
  2
_OPEN30
 10
-341.7772521972656
 20
169.7837677001953
 30
0.0
 50
319.4199360457125
  0
INSERT
  5
9D
330
98
100
AcDbEntity
  8
0
  6
Continuous
 62
     7
100
AcDbBlockReference
  2
_OPEN30
 10
-443.5499572753906
 20
256.9521179199219
 30
0.0
 50
139.4199360457118
  0
TEXT
  5
9E
330
98
100
AcDbEntity
  8
0
  6
Continuous
 62
     7
100
AcDbText
 10
-471.4088282967924
 20
281.8046698282542
 30
0.0
 40
3.0
  1
PCD134
 50
319.399999780894
 41
1.07125000655651
100
AcDbText
  0
POINT
  5
9F
330
98
100
AcDbEntity
  8
DEFPOINTS
  6
Continuous
 62
     7
100
AcDbPoint
 10
-341.7772521972656
 20
169.7837677001953
 30
0.0
  0
POINT
  5
A0
330
98
100
AcDbEntity
  8
DEFPOINTS
  6
Continuous
 62
     7
100
AcDbPoint
 10
-443.5499572753906
 20
256.9521179199219
 30
0.0
  0
ENDBLK
  5
A1
330
98
100
AcDbEntity
  8
0
100
AcDbBlockEnd
  0
BLOCK
  5
A3
330
A2
100
AcDbEntity
  8
0
100
AcDbBlockBegin
  2
*D10
 70
     1
 10
0.0
 20
0.0
 30
0.0
  3
*D10
  1

  0
LINE
  5
A4
330
A2
100
AcDbEntity
  8
0
  6
Continuous
 62
     7
100
AcDbLine
 10
-85.6794891357422
 20
188.3679351806641
 30
0.0
 11
-85.67948913574216
 21
238.3679351806641
 31
0.0
  0
INSERT
  5
A5
330
A2
100
AcDbEntity
  8
0
  6
Continuous
 62
     7
100
AcDbBlockReference
  2
_OPEN30
 10
-85.67948913574218
 20
185.3679351806641
 30
0.0
 50
270.0000000000005
  0
INSERT
  5
A6
330
A2
100
AcDbEntity
  8
0
  6
Continuous
 62
     7
100
AcDbBlockReference
  2
_OPEN30
 10
-85.67948913574218
 20
241.3679351806641
 30
0.0
 50
90.00000000000019
  0
LINE
  5
A7
330
A2
100
AcDbEntity
  8
0
  6
Continuous
 62
     7
100
AcDbLine
 10
-113.2529534912109
 20
185.3679351806641
 30
0.0
 11
-83.39348602294922
 21
185.3679351806641
 31
0.0
  0
LINE
  5
A8
330
A2
100
AcDbEntity
  8
0
  6
Continuous
 62
     7
100
AcDbLine
 10
-113.2529534912109
 20
241.3679351806641
 30
0.0
 11
-83.39348602294922
 21
241.3679351806641
 31
0.0
  0
TEXT
  5
A9
330
A2
100
AcDbEntity
  8
0
  6
Continuous
 62
     7
100
AcDbText
 10
-86.42948895783682
 20
209.2979349762192
 30
0.0
 40
3.0
  1
%%C56
 50
90.00000250447815
 41
0.9498249830693319
100
AcDbText
  0
POINT
  5
AA
330
A2
100
AcDbEntity
  8
DEFPOINTS
  6
Continuous
 62
     7
100
AcDbPoint
 10
-115.7929534912109
 20
185.3679351806641
 30
0.0
  0
POINT
  5
AB
330
A2
100
AcDbEntity
  8
DEFPOINTS
  6
Continuous
 62
     7
100
AcDbPoint
 10
-115.7929534912109
 20
241.3679351806641
 30
0.0
  0
POINT
  5
AC
330
A2
100
AcDbEntity
  8
DEFPOINTS
  6
Continuous
 62
     7
100
AcDbPoint
 10
-85.67948913574218
 20
241.3679351806641
 30
0.0
  0
ENDBLK
  5
AD
330
A2
100
AcDbEntity
  8
0
100
AcDbBlockEnd
  0
BLOCK
  5
AF
330
AE
100
AcDbEntity
  8
0
100
AcDbBlockBegin
  2
*D11
 70
     1
 10
0.0
 20
0.0
 30
0.0
  3
*D11
  1

  0
LINE
  5
B0
330
AE
100
AcDbEntity
  8
0
  6
Continuous
 62
     7
100
AcDbLine
 10
-166.7929534912109
 20
115.686393737793
 30
0.0
 11
-118.7929534912109
 21
115.686393737793
 31
0.0
  0
INSERT
  5
B1
330
AE
100
AcDbEntity
  8
0
  6
Continuous
 62
     7
100
AcDbBlockReference
  2
_OPEN30
 10
-169.7929534912109
 20
115.686393737793
 30
0.0
 50
180.0000000000004
  0
INSERT
  5
B2
330
AE
100
AcDbEntity
  8
0
  6
Continuous
 62
     7
100
AcDbBlockReference
  2
_OPEN30
 10
-115.7929534912109
 20
115.686393737793
 30
0.0
  0
LINE
  5
B3
330
AE
100
AcDbEntity
  8
0
  6
Continuous
 62
     7
100
AcDbLine
 10
-169.7929534912109
 20
182.8279351806641
 30
0.0
 11
-169.7929534912109
 21
113.400390625
 31
0.0
  0
LINE
  5
B4
330
AE
100
AcDbEntity
  8
0
  6
Continuous
 62
     7
100
AcDbLine
 10
-115.7929534912109
 20
182.8279351806641
 30
0.0
 11
-115.7929534912109
 21
113.400390625
 31
0.0
  0
TEXT
  5
B5
330
AE
100
AcDbEntity
  8
0
  6
Continuous
 62
     7
100
AcDbText
 10
-145.3629536032677
 20
116.436393737793
 30
0.0
 40
3.0
  1
54
 41
1.028000020980834
100
AcDbText
  0
POINT
  5
B6
330
AE
100
AcDbEntity
  8
DEFPOINTS
  6
Continuous
 62
     7
100
AcDbPoint
 10
-169.7929534912109
 20
185.3679351806641
 30
0.0
  0
POINT
  5
B7
330
AE
100
AcDbEntity
  8
DEFPOINTS
  6
Continuous
 62
     7
100
AcDbPoint
 10
-115.7929534912109
 20
185.3679351806641
 30
0.0
  0
POINT
  5
B8
330
AE
100
AcDbEntity
  8
DEFPOINTS
  6
Continuous
 62
     7
100
AcDbPoint
 10
-115.7929534912109
 20
115.686393737793
 30
0.0
  0
ENDBLK
  5
B9
330
AE
100
AcDbEntity
  8
0
100
AcDbBlockEnd
  0
BLOCK
  5
BB
330
BA
100
AcDbEntity
  8
0
100
AcDbBlockBegin
  2
KOZU0001
 70
     0
 10
0.0
 20
0.0
 30
0.0
  3
KOZU0001
  1

  0
LINE
  5
BC
330
BA
100
AcDbEntity
  8
0
  6
Continuous
 62
     7
100
AcDbLine
 10
0.0
 20
0.0
 30
0.0
 11
-15.939697265625
 21
21.883056640625
 31
0.0
  0
LINE
  5
BD
330
BA
100
AcDbEntity
  8
0
  6
Continuous
 62
     7
100
AcDbLine
 10
-15.939697265625
 20
21.883056640625
 30
0.0
 11
-39.60867309570313
 21
21.883056640625
 31
0.0
  0
LINE
  5
BE
330
BA
100
AcDbEntity
  8
0
  6
Continuous
 62
     7
100
AcDbLine
 10
0.0
 20
0.0
 30
0.0
 11
-2.574609251733431
 21
1.836133764432378
 31
0.0
  0
LINE
  5
BF
330
BA
100
AcDbEntity
  8
0
  6
Continuous
 62
     7
100
AcDbLine
 10
0.0
 20
0.0
 30
0.0
 11
-0.9580071427273191
 21
3.013672562585961
 31
0.0
  0
TEXT
  5
C0
330
BA
100
AcDbEntity
  8
0
  6
Continuous
 62
     7
100
AcDbText
 10
-37.88867247104646
 20
22.633056640625
 30
0.0
 40
3.0
  1
３－Ｍ５皿穴
 41
0.8472565548642696
100
AcDbText
  0
ENDBLK
  5
C1
330
BA
100
AcDbEntity
  8
0
100
AcDbBlockEnd
  0
BLOCK
  5
C3
330
C2
100
AcDbEntity
  8
0
100
AcDbBlockBegin
  2
KOZU0002
 70
     0
 10
0.0
 20
0.0
 30
0.0
  3
KOZU0002
  1

  0
LINE
  5
C4
330
C2
100
AcDbEntity
  8
0
  6
Continuous
 62
     7
100
AcDbLine
 10
0.0
 20
0.0
 30
0.0
 11
12.07842254638672
 21
21.03913879394531
 31
0.0
  0
LINE
  5
C5
330
C2
100
AcDbEntity
  8
0
  6
Continuous
 62
     7
100
AcDbLine
 10
12.07842254638672
 20
21.03913879394531
 30
0.0
 11
51.58260345458984
 21
21.03913879394531
 31
0.0
  0
LINE
  5
C6
330
C2
100
AcDbEntity
  8
0
  6
Continuous
 62
     7
100
AcDbLine
 10
0.0
 20
0.0
 30
0.0
 11
0.6263936071688066
 21
3.099617887562602
 31
0.0
  0
LINE
  5
C7
330
C2
100
AcDbEntity
  8
0
  6
Continuous
 62
     7
100
AcDbLine
 10
0.0
 20
0.0
 30
0.0
 11
2.360885618272607
 21
2.103858145748799
 31
0.0
  0
TEXT
  5
C8
330
C2
100
AcDbEntity
  8
0
  6
Continuous
 62
     7
100
AcDbText
 10
14.72260212898254
 20
21.78913879394531
 30
0.0
 40
3.0
  1
配管接続口
 41
0.8487395020950888
100
AcDbText
  0
TEXT
  5
C9
330
C2
100
AcDbEntity
  8
0
  6
Continuous
 62
     7
100
AcDbText
 10
14.72260212898254
 20
16.52413879394531
 30
0.0
 40
3.0
  1
Ｒｃ１　１／２（４０Ａ）
 41
0.8436974815103043
100
AcDbText
  0
ENDBLK
  5
CA
330
C2
100
AcDbEntity
  8
0
100
AcDbBlockEnd
  0
ENDSEC
  0
SECTION
  2
ENTITIES
  0
POINT
  5
CB
330
22
100
AcDbEntity
  8
0
  6
Continuous
 62
     7
100
AcDbPoint
 10
-392.6636047363281
 20
213.3679351806641
 30
0.0
  0
POINT
  5
CC
330
22
100
AcDbEntity
  8
0
  6
Continuous
 62
     7
100
AcDbPoint
 10
-144.7929534912109
 20
213.3679351806641
 30
0.0
  0
POINT
  5
CD
330
22
100
AcDbEntity
  8
0
  6
Continuous
 62
     7
100
AcDbPoint
 10
-144.7929534912109
 20
213.3679351806641
 30
0.0
  0
POINT
  5
CE
330
22
100
AcDbEntity
  8
0
  6
Continuous
 62
     7
100
AcDbPoint
 10
-392.6636047363281
 20
213.3679351806641
 30
0.0
  0
LINE
  5
CF
330
22
100
AcDbEntity
  8
0
  6
Continuous
 62
     7
100
AcDbLine
 10
-204.7929534912109
 20
236.3679351806641
 30
0.0
 11
-211.7929534912109
 21
236.3679351806641
 31
0.0
  0
LINE
  5
D0
330
22
100
AcDbEntity
  8
0
  6
Continuous
 62
     7
100
AcDbLine
 10
-211.7929534912109
 20
239.8679351806641
 30
0.0
 11
-204.8231506347656
 21
239.8679351806641
 31
0.0
  0
LINE
  5
D1
330
22
100
AcDbEntity
  8
0
  6
Continuous
 62
     7
100
AcDbLine
 10
-211.7929534912109
 20
243.8679351806641
 30
0.0
 11
-204.8231506347656
 21
243.8679351806641
 31
0.0
  0
LINE
  5
D2
330
22
100
AcDbEntity
  8
0
  6
Continuous
 62
     7
100
AcDbLine
 10
-204.7929534912109
 20
235.2179412841797
 30
0.0
 11
-204.7929534912109
 21
263.8679504394531
 31
0.0
  0
LINE
  5
D3
330
22
100
AcDbEntity
  8
0
  6
Continuous
 62
     7
100
AcDbLine
 10
-204.7929534912109
 20
235.2179412841797
 30
0.0
 11
-205.9429473876953
 21
236.3679351806641
 31
0.0
  0
LINE
  5
D4
330
22
100
AcDbEntity
  8
0
  6
Continuous
 62
     7
100
AcDbLine
 10
-205.6020202636719
 20
240.8679351806641
 30
0.0
 11
-206.6020202636719
 21
239.8679351806641
 31
0.0
  0
LINE
  5
D5
330
22
100
AcDbEntity
  8
0
  6
Continuous
 62
     7
100
AcDbLine
 10
-205.6020202636719
 20
242.8362884521484
 30
0.0
 11
-205.6020202636719
 21
240.8679351806641
 31
0.0
  0
LINE
  5
D6
330
22
100
AcDbEntity
  8
0
  6
Continuous
 62
     7
100
AcDbLine
 10
-205.6020202636719
 20
242.8362884521484
 30
0.0
 11
-206.4320831298828
 21
243.8679351806641
 31
0.0
  0
LINE
  5
D7
330
22
100
AcDbEntity
  8
0
  6
Continuous
 62
     7
100
AcDbLine
 10
-204.7929534912109
 20
263.8679504394531
 30
0.0
 11
-209.4651336669922
 21
263.8679504394531
 31
0.0
  0
LINE
  5
D8
330
22
100
AcDbEntity
  8
0
  6
Continuous
 62
     7
100
AcDbLine
 10
-184.7929534912109
 20
235.7679443359375
 30
0.0
 11
-186.3929443359375
 21
237.3679351806641
 31
0.0
  0
LINE
  5
D9
330
22
100
AcDbEntity
  8
0
  6
Continuous
 62
     7
100
AcDbLine
 10
-156.2929534912109
 20
237.2679443359375
 30
0.0
 11
-186.2929534912109
 21
237.2679443359375
 31
0.0
  0
LINE
  5
DA
330
22
100
AcDbEntity
  8
0
  6
Continuous
 62
     7
100
AcDbLine
 10
-214.7929534912109
 20
220.9044647216797
 30
0.0
 11
-214.7929534912109
 21
215.5656890869141
 31
0.0
  0
LINE
  5
DB
330
22
100
AcDbEntity
  8
0
  6
Continuous
 62
     7
100
AcDbLine
 10
-154.7929534912109
 20
220.9044647216797
 30
0.0
 11
-154.7929534912109
 21
215.5656890869141
 31
0.0
  0
LINE
  5
DC
330
22
100
AcDbEntity
  8
0
  6
Continuous
 62
     7
100
AcDbLine
 10
-211.7929534912109
 20
234.5825042724609
 30
0.0
 11
-211.1575164794922
 21
235.2179412841797
 31
0.0
  0
LINE
  5
DD
330
22
100
AcDbEntity
  8
0
  6
Continuous
 62
     7
100
AcDbLine
 10
-204.7929534912109
 20
237.3398742675781
 30
0.0
 11
-204.7648773193359
 21
237.3679351806641
 31
0.0
  0
LINE
  5
DE
330
22
100
AcDbEntity
  8
0
  6
Continuous
 62
     7
100
AcDbLine
 10
-208.7648773193359
 20
233.3679351806641
 30
0.0
 11
-206.9148864746094
 21
235.2179412841797
 31
0.0
  0
LINE
  5
DF
330
22
100
AcDbEntity
  8
0
  6
Continuous
 62
     7
100
AcDbLine
 10
-204.5222473144531
 20
233.3679351806641
 30
0.0
 11
-200.5222473144531
 21
237.3679351806641
 31
0.0
  0
LINE
  5
E0
330
22
100
AcDbEntity
  8
0
  6
Continuous
 62
     7
100
AcDbLine
 10
-200.2796020507813
 20
233.3679351806641
 30
0.0
 11
-196.2796020507813
 21
237.3679351806641
 31
0.0
  0
LINE
  5
E1
330
22
100
AcDbEntity
  8
0
  6
Continuous
 62
     7
100
AcDbLine
 10
-196.0369567871094
 20
233.3679351806641
 30
0.0
 11
-192.0369567871094
 21
237.3679351806641
 31
0.0
  0
LINE
  5
E2
330
22
100
AcDbEntity
  8
0
  6
Continuous
 62
     7
100
AcDbLine
 10
-191.7943115234375
 20
233.3679351806641
 30
0.0
 11
-187.7943115234375
 21
237.3679351806641
 31
0.0
  0
LINE
  5
E3
330
22
100
AcDbEntity
  8
0
  6
Continuous
 62
     7
100
AcDbLine
 10
-187.5516815185546
 20
233.3679351806641
 30
0.0
 11
-184.9723205566406
 21
235.9472961425781
 31
0.0
  0
LINE
  5
E4
330
22
100
AcDbEntity
  8
0
  6
Continuous
 62
     7
100
AcDbLine
 10
-183.3090362548828
 20
233.3679351806641
 30
0.0
 11
-180.9090423583984
 21
235.7679443359375
 31
0.0
  0
LINE
  5
E5
330
22
100
AcDbEntity
  8
0
  6
Continuous
 62
     7
100
AcDbLine
 10
-179.0663909912109
 20
233.3679351806641
 30
0.0
 11
-176.6663970947266
 21
235.7679443359375
 31
0.0
  0
LINE
  5
E6
330
22
100
AcDbEntity
  8
0
  6
Continuous
 62
     7
100
AcDbLine
 10
-174.8237609863281
 20
233.3679351806641
 30
0.0
 11
-172.4237518310547
 21
235.7679443359375
 31
0.0
  0
LINE
  5
E7
330
22
100
AcDbEntity
  8
0
  6
Continuous
 62
     7
100
AcDbLine
 10
-170.5811157226563
 20
233.3679351806641
 30
0.0
 11
-168.1811218261719
 21
235.7679443359375
 31
0.0
  0
LINE
  5
E8
330
22
100
AcDbEntity
  8
0
  6
Continuous
 62
     7
100
AcDbLine
 10
-166.3384704589844
 20
233.3679351806641
 30
0.0
 11
-163.9384765625
 21
235.7679443359375
 31
0.0
  0
LINE
  5
E9
330
22
100
AcDbEntity
  8
0
  6
Continuous
 62
     7
100
AcDbLine
 10
-162.0958404541016
 20
233.3679351806641
 30
0.0
 11
-159.6958312988281
 21
235.7679443359375
 31
0.0
  0
LINE
  5
EA
330
22
100
AcDbEntity
  8
0
  6
Continuous
 62
     7
100
AcDbLine
 10
-157.8531951904297
 20
233.3679351806641
 30
0.0
 11
-155.4531860351563
 21
235.7679443359375
 31
0.0
  0
LINE
  5
EB
330
22
100
AcDbEntity
  8
0
  6
Continuous
 62
     7
100
AcDbLine
 10
-210.8861999511719
 20
233.3679351806641
 30
0.0
 11
-209.0361938476563
 21
235.2179412841797
 31
0.0
  0
LINE
  5
EC
330
22
100
AcDbEntity
  8
0
  6
Continuous
 62
     7
100
AcDbLine
 10
-204.7929534912109
 20
235.2185516357422
 30
0.0
 11
-202.6435546875
 21
237.3679351806641
 31
0.0
  0
LINE
  5
ED
330
22
100
AcDbEntity
  8
0
  6
Continuous
 62
     7
100
AcDbLine
 10
-206.6435546875
 20
233.3679351806641
 30
0.0
 11
-204.7935638427734
 21
235.2179412841797
 31
0.0
  0
LINE
  5
EE
330
22
100
AcDbEntity
  8
0
  6
Continuous
 62
     7
100
AcDbLine
 10
-202.4009246826172
 20
233.3679351806641
 30
0.0
 11
-198.4009246826172
 21
237.3679351806641
 31
0.0
  0
LINE
  5
EF
330
22
100
AcDbEntity
  8
0
  6
Continuous
 62
     7
100
AcDbLine
 10
-198.1582794189453
 20
233.3679351806641
 30
0.0
 11
-194.1582794189453
 21
237.3679351806641
 31
0.0
  0
LINE
  5
F0
330
22
100
AcDbEntity
  8
0
  6
Continuous
 62
     7
100
AcDbLine
 10
-189.6730041503906
 20
233.3679351806641
 30
0.0
 11
-186.0329742431641
 21
237.0079650878906
 31
0.0
  0
LINE
  5
F1
330
22
100
AcDbEntity
  8
0
  6
Continuous
 62
     7
100
AcDbLine
 10
-185.4303588867188
 20
233.3679351806641
 30
0.0
 11
-183.0303497314453
 21
235.7679443359375
 31
0.0
  0
LINE
  5
F2
330
22
100
AcDbEntity
  8
0
  6
Continuous
 62
     7
100
AcDbLine
 10
-181.1877136230469
 20
233.3679351806641
 30
0.0
 11
-178.7877197265625
 21
235.7679443359375
 31
0.0
  0
LINE
  5
F3
330
22
100
AcDbEntity
  8
0
  6
Continuous
 62
     7
100
AcDbLine
 10
-176.945068359375
 20
233.3679351806641
 30
0.0
 11
-174.5450744628906
 21
235.7679443359375
 31
0.0
  0
LINE
  5
F4
330
22
100
AcDbEntity
  8
0
  6
Continuous
 62
     7
100
AcDbLine
 10
-172.7024383544922
 20
233.3679351806641
 30
0.0
 11
-170.3024291992188
 21
235.7679443359375
 31
0.0
  0
LINE
  5
F5
330
22
100
AcDbEntity
  8
0
  6
Continuous
 62
     7
100
AcDbLine
 10
-168.4597930908203
 20
233.3679351806641
 30
0.0
 11
-166.0597991943359
 21
235.7679443359375
 31
0.0
  0
LINE
  5
F6
330
22
100
AcDbEntity
  8
0
  6
Continuous
 62
     7
100
AcDbLine
 10
-164.2171478271484
 20
233.3679351806641
 30
0.0
 11
-161.8171539306641
 21
235.7679443359375
 31
0.0
  0
LINE
  5
F7
330
22
100
AcDbEntity
  8
0
  6
Continuous
 62
     7
100
AcDbLine
 10
-159.9745178222656
 20
233.3679351806641
 30
0.0
 11
-157.5745086669922
 21
235.7679443359375
 31
0.0
  0
LINE
  5
F8
330
22
100
AcDbEntity
  8
0
  6
Continuous
 62
     7
100
AcDbLine
 10
-155.7318725585938
 20
233.3679351806641
 30
0.0
 11
-154.7929534912109
 21
234.3068542480469
 31
0.0
  0
LINE
  5
F9
330
22
100
AcDbEntity
  8
0
  6
Continuous
 62
     7
100
AcDbLine
 10
-154.7929534912109
 20
233.3679351806641
 30
0.0
 11
-211.7929534912109
 21
233.3679351806641
 31
0.0
  0
LINE
  5
FA
330
22
100
AcDbEntity
  8
0
  6
Continuous
 62
     7
100
AcDbLine
 10
-186.3929443359375
 20
237.3679351806641
 30
0.0
 11
-204.7929534912109
 21
237.3679351806641
 31
0.0
  0
LINE
  5
FB
330
22
100
AcDbEntity
  8
0
  6
Continuous
 62
     7
100
AcDbLine
 10
-154.7929534912109
 20
235.7679443359375
 30
0.0
 11
-184.7929534912109
 21
235.7679443359375
 31
0.0
  0
LINE
  5
FC
330
22
100
AcDbEntity
  8
0
  6
Continuous
 62
     7
100
AcDbLine
 10
-144.7929534912109
 20
235.1890563964844
 30
0.0
 11
-144.7929534912109
 21
213.3679351806641
 31
0.0
  0
LINE
  5
FD
330
22
100
AcDbEntity
  8
0
  6
Continuous
 62
     7
100
AcDbLine
 10
-144.7929534912109
 20
235.1890563964844
 30
0.0
 11
-144.7929534912109
 21
235.7679443359375
 31
0.0
  0
LINE
  5
FE
330
22
100
AcDbEntity
  8
0
  6
Continuous
 62
     7
100
AcDbLine
 10
-134.2929534912109
 20
235.1890563964844
 30
0.0
 11
-144.7929534912109
 21
235.1890563964844
 31
0.0
  0
LINE
  5
FF
330
22
100
AcDbEntity
  8
0
  6
Continuous
 62
     7
100
AcDbLine
 10
-134.2929534912109
 20
235.1890563964844
 30
0.0
 11
-133.2007293701172
 21
236.7239227294922
 31
0.0
  0
LINE
  5
100
330
22
100
AcDbEntity
  8
0
  6
Continuous
 62
     7
100
AcDbLine
 10
-146.2929534912109
 20
237.2679443359375
 30
0.0
 11
-146.2929534912109
 21
213.3679351806641
 31
0.0
  0
LINE
  5
101
330
22
100
AcDbEntity
  8
0
  6
Continuous
 62
     7
100
AcDbLine
 10
-169.7929534912109
 20
237.2679443359375
 30
0.0
 11
-146.2929534912109
 21
237.2679443359375
 31
0.0
  0
LINE
  5
102
330
22
100
AcDbEntity
  8
0
  6
Continuous
 62
     7
100
AcDbLine
 10
-134.2929534912109
 20
235.1890563964844
 30
0.0
 11
-117.3420944213867
 21
235.7187957763672
 31
0.0
  0
LINE
  5
103
330
22
100
AcDbEntity
  8
0
  6
Continuous
 62
     7
100
AcDbLine
 10
-147.7929534912109
 20
241.3679351806641
 30
0.0
 11
-147.7929534912109
 21
290.3679504394531
 31
0.0
  0
LINE
  5
104
330
22
100
AcDbEntity
  8
0
  6
Continuous
 62
     7
100
AcDbLine
 10
-144.7929534912109
 20
241.3679351806641
 30
0.0
 11
-144.7929534912109
 21
290.3679504394531
 31
0.0
  0
LINE
  5
105
330
22
100
AcDbEntity
  8
0
  6
Continuous
 62
     7
100
AcDbLine
 10
-144.7929534912109
 20
283.1179504394531
 30
0.0
 11
-145.5429534912109
 21
283.1179504394531
 31
0.0
  0
LINE
  5
106
330
22
100
AcDbEntity
  8
0
  6
Continuous
 62
     7
100
AcDbLine
 10
-144.7929534912109
 20
277.617950439453
 30
0.0
 11
-145.5429534912109
 21
277.617950439453
 31
0.0
  0
LINE
  5
107
330
22
100
AcDbEntity
  8
0
  6
Continuous
 62
     7
100
AcDbLine
 10
-147.7929534912109
 20
285.3679504394531
 30
0.0
 11
-145.5429534912109
 21
283.1179504394531
 31
0.0
  0
LINE
  5
108
330
22
100
AcDbEntity
  8
0
  6
Continuous
 62
     7
100
AcDbLine
 10
-147.7929534912109
 20
275.3679504394531
 30
0.0
 11
-145.5429534912109
 21
277.617950439453
 31
0.0
  0
LINE
  5
109
330
22
100
AcDbEntity
  8
0
  6
CENTER
 62
     7
100
AcDbLine
 10
-148.9752197265625
 20
280.3679504394531
 30
0.0
 11
-143.5455169677734
 21
280.3679504394531
 31
0.0
  0
LINE
  5
10A
330
22
100
AcDbEntity
  8
0
  6
Continuous
 62
     7
100
AcDbLine
 10
-169.7929534912109
 20
241.3679351806641
 30
0.0
 11
-115.7929534912109
 21
241.3679351806641
 31
0.0
  0
LINE
  5
10B
330
22
100
AcDbEntity
  8
0
  6
Continuous
 62
     7
100
AcDbLine
 10
-144.7929534912109
 20
235.7679443359375
 30
0.0
 11
-146.2929534912109
 21
237.2679443359375
 31
0.0
  0
LINE
  5
10C
330
22
100
AcDbEntity
  8
0
  6
Continuous
 62
     7
100
AcDbLine
 10
-169.7929534912109
 20
235.7679443359375
 30
0.0
 11
-144.7929534912109
 21
235.7679443359375
 31
0.0
  0
LINE
  5
10D
330
22
100
AcDbEntity
  8
0
  6
Continuous
 62
     7
100
AcDbLine
 10
-147.7929534912109
 20
272.3679504394531
 30
0.0
 11
-146.7929534912109
 21
273.3679504394531
 31
0.0
  0
LINE
  5
10E
330
22
100
AcDbEntity
  8
0
  6
Continuous
 62
     7
100
AcDbLine
 10
-211.7929534912109
 20
249.3679351806641
 30
0.0
 11
-211.7929534912109
 21
243.8679351806641
 31
0.0
  0
LINE
  5
10F
330
22
100
AcDbEntity
  8
0
  6
Continuous
 62
     7
100
AcDbLine
 10
-211.7929534912109
 20
239.8679351806641
 30
0.0
 11
-211.7929534912109
 21
213.3679351806641
 31
0.0
  0
LINE
  5
110
330
22
100
AcDbEntity
  8
0
  6
Continuous
 62
     7
100
AcDbLine
 10
-204.7929534912109
 20
235.2179412841797
 30
0.0
 11
-211.7929534912109
 21
235.2179412841797
 31
0.0
  0
LINE
  5
111
330
22
100
AcDbEntity
  8
0
  6
Continuous
 62
     7
100
AcDbLine
 10
-211.7929534912109
 20
235.2179412841797
 30
0.0
 11
-210.7018585205078
 21
236.3679351806641
 31
0.0
  0
LINE
  5
112
330
22
100
AcDbEntity
  8
0
  6
Continuous
 62
     7
100
AcDbLine
 10
-147.7929534912109
 20
185.3679351806641
 30
0.0
 11
-169.7929534912109
 21
185.3679351806641
 31
0.0
  0
LINE
  5
113
330
22
100
AcDbEntity
  8
0
  6
Continuous
 62
     7
100
AcDbLine
 10
-169.7929534912109
 20
185.3679351806641
 30
0.0
 11
-147.7929534912109
 21
185.3679351806641
 31
0.0
  0
LINE
  5
114
330
22
100
AcDbEntity
  8
0
  6
Continuous
 62
     7
100
AcDbLine
 10
-209.4651336669922
 20
162.8679351806641
 30
0.0
 11
-204.7929534912109
 21
162.8679351806641
 31
0.0
  0
LINE
  5
115
330
22
100
AcDbEntity
  8
0
  6
Continuous
 62
     7
100
AcDbLine
 10
-186.3929443359375
 20
189.3679351806641
 30
0.0
 11
-204.7929534912109
 21
189.3679351806641
 31
0.0
  0
LINE
  5
116
330
22
100
AcDbEntity
  8
0
  6
Continuous
 62
     7
100
AcDbLine
 10
-184.7929534912109
 20
190.9679412841797
 30
0.0
 11
-186.3929443359375
 21
189.3679351806641
 31
0.0
  0
LINE
  5
117
330
22
100
AcDbEntity
  8
0
  6
Continuous
 62
     7
100
AcDbLine
 10
-169.7929534912109
 20
189.4679412841797
 30
0.0
 11
-186.2929534912109
 21
189.4679412841797
 31
0.0
  0
LINE
  5
118
330
22
100
AcDbEntity
  8
0
  6
Continuous
 62
     7
100
AcDbLine
 10
-169.7929534912109
 20
190.9679412841797
 30
0.0
 11
-184.7929534912109
 21
190.9679412841797
 31
0.0
  0
LINE
  5
119
330
22
100
AcDbEntity
  8
0
  6
Continuous
 62
     7
100
AcDbLine
 10
-154.7929534912109
 20
235.7679443359375
 30
0.0
 11
-156.2929534912109
 21
237.2679443359375
 31
0.0
  0
LINE
  5
11A
330
22
100
AcDbEntity
  8
0
  6
Continuous
 62
     7
100
AcDbLine
 10
-147.7929534912109
 20
290.3679504394531
 30
0.0
 11
-147.7929534912109
 21
266.1267700195313
 31
0.0
  0
LINE
  5
11B
330
22
100
AcDbEntity
  8
0
  6
Continuous
 62
     7
100
AcDbLine
 10
-154.7929534912109
 20
213.3679351806641
 30
0.0
 11
-154.7929534912109
 21
235.7679443359375
 31
0.0
  0
LINE
  5
11C
330
22
100
AcDbEntity
  8
0
  6
Continuous
 62
     7
100
AcDbLine
 10
-169.7929534912109
 20
237.2679443359375
 30
0.0
 11
-169.7929534912109
 21
241.3679351806641
 31
0.0
  0
LINE
  5
11D
330
22
100
AcDbEntity
  8
0
  6
Continuous
 62
     7
100
AcDbLine
 10
-169.7929534912109
 20
239.8317108154297
 30
0.0
 11
-168.2567291259766
 21
241.3679351806641
 31
0.0
  0
LINE
  5
11E
330
22
100
AcDbEntity
  8
0
  6
Continuous
 62
     7
100
AcDbLine
 10
-169.5283050537109
 20
237.2679443359375
 30
0.0
 11
-165.4282989501953
 21
241.3679351806641
 31
0.0
  0
LINE
  5
11F
330
22
100
AcDbEntity
  8
0
  6
Continuous
 62
     7
100
AcDbLine
 10
-166.6998748779297
 20
237.2679443359375
 30
0.0
 11
-162.5998840332031
 21
241.3679351806641
 31
0.0
  0
LINE
  5
120
330
22
100
AcDbEntity
  8
0
  6
Continuous
 62
     7
100
AcDbLine
 10
-163.8714447021484
 20
237.2679443359375
 30
0.0
 11
-159.7714538574219
 21
241.3679351806641
 31
0.0
  0
LINE
  5
121
330
22
100
AcDbEntity
  8
0
  6
Continuous
 62
     7
100
AcDbLine
 10
-161.0430297851563
 20
237.2679443359375
 30
0.0
 11
-156.9430236816406
 21
241.3679351806641
 31
0.0
  0
LINE
  5
122
330
22
100
AcDbEntity
  8
0
  6
Continuous
 62
     7
100
AcDbLine
 10
-158.214599609375
 20
237.2679443359375
 30
0.0
 11
-154.1145935058594
 21
241.3679351806641
 31
0.0
  0
LINE
  5
123
330
22
100
AcDbEntity
  8
0
  6
Continuous
 62
     7
100
AcDbLine
 10
-155.3861694335938
 20
237.2679443359375
 30
0.0
 11
-151.2861633300781
 21
241.3679351806641
 31
0.0
  0
LINE
  5
124
330
22
100
AcDbEntity
  8
0
  6
Continuous
 62
     7
100
AcDbLine
 10
-152.5577392578125
 20
237.2679443359375
 30
0.0
 11
-148.4577484130859
 21
241.3679351806641
 31
0.0
  0
LINE
  5
125
330
22
100
AcDbEntity
  8
0
  6
Continuous
 62
     7
100
AcDbLine
 10
-149.7293090820313
 20
237.2679443359375
 30
0.0
 11
-145.6293182373047
 21
241.3679351806641
 31
0.0
  0
LINE
  5
126
330
22
100
AcDbEntity
  8
0
  6
Continuous
 62
     7
100
AcDbLine
 10
-146.9008941650391
 20
237.2679443359375
 30
0.0
 11
-142.8008880615234
 21
241.3679351806641
 31
0.0
  0
LINE
  5
127
330
22
100
AcDbEntity
  8
0
  6
Continuous
 62
     7
100
AcDbLine
 10
-145.1827087402344
 20
236.1576843261719
 30
0.0
 11
-139.9724578857422
 21
241.3679351806641
 31
0.0
  0
LINE
  5
128
330
22
100
AcDbEntity
  8
0
  6
Continuous
 62
     7
100
AcDbLine
 10
-143.3229217529297
 20
235.1890563964844
 30
0.0
 11
-137.1440277099609
 21
241.3679351806641
 31
0.0
  0
LINE
  5
129
330
22
100
AcDbEntity
  8
0
  6
Continuous
 62
     7
100
AcDbLine
 10
-140.4944915771484
 20
235.1890563964844
 30
0.0
 11
-134.3156127929687
 21
241.3679351806641
 31
0.0
  0
LINE
  5
12A
330
22
100
AcDbEntity
  8
0
  6
Continuous
 62
     7
100
AcDbLine
 10
-137.6660614013672
 20
235.1890563964844
 30
0.0
 11
-131.4871826171875
 21
241.3679351806641
 31
0.0
  0
LINE
  5
12B
330
22
100
AcDbEntity
  8
0
  6
Continuous
 62
     7
100
AcDbLine
 10
-134.8376312255859
 20
235.1890563964844
 30
0.0
 11
-128.6587524414062
 21
241.3679351806641
 31
0.0
  0
LINE
  5
12C
330
22
100
AcDbEntity
  8
0
  6
Continuous
 62
     7
100
AcDbLine
 10
-130.3863983154297
 20
236.8118743896484
 30
0.0
 11
-125.830322265625
 21
241.3679351806641
 31
0.0
  0
LINE
  5
12D
330
22
100
AcDbEntity
  8
0
  6
Continuous
 62
     7
100
AcDbLine
 10
-127.4667205810547
 20
236.9031066894531
 30
0.0
 11
-123.0018997192383
 21
241.3679351806641
 31
0.0
  0
LINE
  5
12E
330
22
100
AcDbEntity
  8
0
  6
Continuous
 62
     7
100
AcDbLine
 10
-124.5470504760742
 20
236.9943542480469
 30
0.0
 11
-120.173469543457
 21
241.3679351806641
 31
0.0
  0
LINE
  5
12F
330
22
100
AcDbEntity
  8
0
  6
Continuous
 62
     7
100
AcDbLine
 10
-121.6273803710938
 20
237.0856018066406
 30
0.0
 11
-117.3450469970703
 21
241.3679351806641
 31
0.0
  0
LINE
  5
130
330
22
100
AcDbEntity
  8
0
  6
Continuous
 62
     7
100
AcDbLine
 10
-118.7077102661133
 20
237.1768493652344
 30
0.0
 11
-115.7929534912109
 21
240.0915985107422
 31
0.0
  0
LINE
  5
131
330
22
100
AcDbEntity
  8
0
  6
Continuous
 62
     7
100
AcDbLine
 10
-145.1662139892578
 20
290.3679504394531
 30
0.0
 11
-144.7929534912109
 21
289.9946594238281
 31
0.0
  0
LINE
  5
132
330
22
100
AcDbEntity
  8
0
  6
Continuous
 62
     7
100
AcDbLine
 10
-145.8733215332031
 20
290.3679504394531
 30
0.0
 11
-144.7929534912109
 21
289.2875671386719
 31
0.0
  0
LINE
  5
133
330
22
100
AcDbEntity
  8
0
  6
Continuous
 62
     7
100
AcDbLine
 10
-147.7929534912109
 20
290.166259765625
 30
0.0
 11
-144.7929534912109
 21
287.166259765625
 31
0.0
  0
LINE
  5
134
330
22
100
AcDbEntity
  8
0
  6
Continuous
 62
     7
100
AcDbLine
 10
-147.7929534912109
 20
289.4591369628906
 30
0.0
 11
-144.7929534912109
 21
286.4591369628906
 31
0.0
  0
LINE
  5
135
330
22
100
AcDbEntity
  8
0
  6
Continuous
 62
     7
100
AcDbLine
 10
-147.7929534912109
 20
287.3378295898438
 30
0.0
 11
-144.7929534912109
 21
284.3378295898438
 31
0.0
  0
LINE
  5
136
330
22
100
AcDbEntity
  8
0
  6
Continuous
 62
     7
100
AcDbLine
 10
-147.7929534912109
 20
286.6307067871094
 30
0.0
 11
-144.7929534912109
 21
283.6307067871094
 31
0.0
  0
LINE
  5
137
330
22
100
AcDbEntity
  8
0
  6
Continuous
 62
     7
100
AcDbLine
 10
-146.0506439208984
 20
277.1102294921875
 30
0.0
 11
-144.7929534912109
 21
275.8525390625
 31
0.0
  0
LINE
  5
138
330
22
100
AcDbEntity
  8
0
  6
Continuous
 62
     7
100
AcDbLine
 10
-146.4042053222656
 20
276.7566833496094
 30
0.0
 11
-144.7929534912109
 21
275.1454467773438
 31
0.0
  0
LINE
  5
139
330
22
100
AcDbEntity
  8
0
  6
Continuous
 62
     7
100
AcDbLine
 10
-147.4648590087891
 20
275.6960144042969
 30
0.0
 11
-144.7929534912109
 21
273.0241088867188
 31
0.0
  0
LINE
  5
13A
330
22
100
AcDbEntity
  8
0
  6
Continuous
 62
     7
100
AcDbLine
 10
-147.7929534912109
 20
275.3170166015625
 30
0.0
 11
-144.7929534912109
 21
272.3170166015625
 31
0.0
  0
LINE
  5
13B
330
22
100
AcDbEntity
  8
0
  6
Continuous
 62
     7
100
AcDbLine
 10
-147.3790740966797
 20
272.7817993164063
 30
0.0
 11
-144.7929534912109
 21
270.1956787109375
 31
0.0
  0
LINE
  5
13C
330
22
100
AcDbEntity
  8
0
  6
Continuous
 62
     7
100
AcDbLine
 10
-147.7326354980469
 20
272.4282531738281
 30
0.0
 11
-144.7929534912109
 21
269.4885864257813
 31
0.0
  0
LINE
  5
13D
330
22
100
AcDbEntity
  8
0
  6
Continuous
 62
     7
100
AcDbLine
 10
-147.7929534912109
 20
270.3672485351563
 30
0.0
 11
-144.7929534912109
 21
267.3672485351563
 31
0.0
  0
LINE
  5
13E
330
22
100
AcDbEntity
  8
0
  6
Continuous
 62
     7
100
AcDbLine
 10
-147.7929534912109
 20
269.66015625
 30
0.0
 11
-144.7929534912109
 21
266.66015625
 31
0.0
  0
LINE
  5
13F
330
22
100
AcDbEntity
  8
0
  6
Continuous
 62
     7
100
AcDbLine
 10
-147.7929534912109
 20
267.538818359375
 30
0.0
 11
-144.7929534912109
 21
264.538818359375
 31
0.0
  0
LINE
  5
140
330
22
100
AcDbEntity
  8
0
  6
Continuous
 62
     7
100
AcDbLine
 10
-147.7929534912109
 20
266.8317260742188
 30
0.0
 11
-144.7929534912109
 21
263.8317260742188
 31
0.0
  0
LINE
  5
141
330
22
100
AcDbEntity
  8
0
  6
Continuous
 62
     7
100
AcDbLine
 10
-147.7929534912109
 20
264.7103881835938
 30
0.0
 11
-144.7929534912109
 21
261.7103881835938
 31
0.0
  0
LINE
  5
142
330
22
100
AcDbEntity
  8
0
  6
Continuous
 62
     7
100
AcDbLine
 10
-147.7929534912109
 20
264.0032958984375
 30
0.0
 11
-144.7929534912109
 21
261.0032958984375
 31
0.0
  0
LINE
  5
143
330
22
100
AcDbEntity
  8
0
  6
Continuous
 62
     7
100
AcDbLine
 10
-147.7929534912109
 20
261.8819885253905
 30
0.0
 11
-144.7929534912109
 21
258.8819885253906
 31
0.0
  0
LINE
  5
144
330
22
100
AcDbEntity
  8
0
  6
Continuous
 62
     7
100
AcDbLine
 10
-147.7929534912109
 20
261.1748657226563
 30
0.0
 11
-144.7929534912109
 21
258.1748657226563
 31
0.0
  0
LINE
  5
145
330
22
100
AcDbEntity
  8
0
  6
Continuous
 62
     7
100
AcDbLine
 10
-147.7929534912109
 20
259.0535583496095
 30
0.0
 11
-144.7929534912109
 21
256.0535583496094
 31
0.0
  0
LINE
  5
146
330
22
100
AcDbEntity
  8
0
  6
Continuous
 62
     7
100
AcDbLine
 10
-147.7929534912109
 20
258.346435546875
 30
0.0
 11
-144.7929534912109
 21
255.346435546875
 31
0.0
  0
LINE
  5
147
330
22
100
AcDbEntity
  8
0
  6
Continuous
 62
     7
100
AcDbLine
 10
-147.6143646240234
 20
256.0465393066406
 30
0.0
 11
-144.7929534912109
 21
253.2251281738281
 31
0.0
  0
LINE
  5
148
330
22
100
AcDbEntity
  8
0
  6
Continuous
 62
     7
100
AcDbLine
 10
-147.7929534912109
 20
255.5180206298828
 30
0.0
 11
-144.7929534912109
 21
252.5180206298828
 31
0.0
  0
LINE
  5
149
330
22
100
AcDbEntity
  8
0
  6
Continuous
 62
     7
100
AcDbLine
 10
-147.7929534912109
 20
253.3966979980469
 30
0.0
 11
-144.7929534912109
 21
250.3966979980469
 31
0.0
  0
LINE
  5
14A
330
22
100
AcDbEntity
  8
0
  6
Continuous
 62
     7
100
AcDbLine
 10
-147.7929534912109
 20
252.6895904541016
 30
0.0
 11
-144.7929534912109
 21
249.6895904541016
 31
0.0
  0
LINE
  5
14B
330
22
100
AcDbEntity
  8
0
  6
Continuous
 62
     7
100
AcDbLine
 10
-147.7929534912109
 20
250.5682678222656
 30
0.0
 11
-144.7929534912109
 21
247.5682678222656
 31
0.0
  0
LINE
  5
14C
330
22
100
AcDbEntity
  8
0
  6
Continuous
 62
     7
100
AcDbLine
 10
-147.7929534912109
 20
249.8611602783203
 30
0.0
 11
-144.7929534912109
 21
246.8611602783203
 31
0.0
  0
LINE
  5
14D
330
22
100
AcDbEntity
  8
0
  6
Continuous
 62
     7
100
AcDbLine
 10
-147.7929534912109
 20
247.7398376464844
 30
0.0
 11
-144.7929534912109
 21
244.7398376464844
 31
0.0
  0
LINE
  5
14E
330
22
100
AcDbEntity
  8
0
  6
Continuous
 62
     7
100
AcDbLine
 10
-147.7929534912109
 20
247.0327301025391
 30
0.0
 11
-144.7929534912109
 21
244.0327301025391
 31
0.0
  0
LINE
  5
14F
330
22
100
AcDbEntity
  8
0
  6
Continuous
 62
     7
100
AcDbLine
 10
-147.7929534912109
 20
244.9114074707031
 30
0.0
 11
-144.7929534912109
 21
241.9114074707031
 31
0.0
  0
LINE
  5
150
330
22
100
AcDbEntity
  8
0
  6
Continuous
 62
     7
100
AcDbLine
 10
-147.7929534912109
 20
244.2042999267578
 30
0.0
 11
-144.9565887451172
 21
241.3679351806641
 31
0.0
  0
LINE
  5
151
330
22
100
AcDbEntity
  8
0
  6
Continuous
 62
     7
100
AcDbLine
 10
-147.7929534912109
 20
242.0829925537109
 30
0.0
 11
-147.0778961181641
 21
241.3679351806641
 31
0.0
  0
LINE
  5
152
330
22
100
AcDbEntity
  8
0
  6
Continuous
 62
     7
100
AcDbLine
 10
-147.7929534912109
 20
241.3758850097656
 30
0.0
 11
-147.7850036621094
 21
241.3679351806641
 31
0.0
  0
LINE
  5
153
330
22
100
AcDbEntity
  8
0
  6
Continuous
 62
     7
100
AcDbLine
 10
-133.2007293701172
 20
236.7239227294922
 30
0.0
 11
-133.2007293701172
 21
213.3679351806641
 31
0.0
  0
LINE
  5
154
330
22
100
AcDbEntity
  8
0
  6
Continuous
 62
     7
100
AcDbLine
 10
-117.3420944213867
 20
235.7187957763672
 30
0.0
 11
-117.3420944213867
 21
213.3679351806641
 31
0.0
  0
LINE
  5
155
330
22
100
AcDbEntity
  8
0
  6
Continuous
 62
     7
100
AcDbLine
 10
-133.2007293701172
 20
236.7239227294922
 30
0.0
 11
-115.7929534912109
 21
237.2679443359375
 31
0.0
  0
LINE
  5
156
330
22
100
AcDbEntity
  8
0
  6
Continuous
 62
     7
100
AcDbLine
 10
-147.7929534912109
 20
255.8679351806641
 30
0.0
 11
-146.7929534912109
 21
256.867950439453
 31
0.0
  0
LINE
  5
157
330
22
100
AcDbEntity
  8
0
  6
Continuous
 62
     7
100
AcDbLine
 10
-147.7929534912109
 20
257.8679504394531
 30
0.0
 11
-146.7929534912109
 21
256.867950439453
 31
0.0
  0
LINE
  5
158
330
22
100
AcDbEntity
  8
0
  6
Continuous
 62
     7
100
AcDbLine
 10
-147.7929534912109
 20
274.3679504394531
 30
0.0
 11
-146.7929534912109
 21
273.3679504394531
 31
0.0
  0
LINE
  5
159
330
22
100
AcDbEntity
  8
0
  6
Continuous
 62
     7
100
AcDbLine
 10
-147.7929534912109
 20
290.3679504394531
 30
0.0
 11
-144.7929534912109
 21
290.3679504394531
 31
0.0
  0
LINE
  5
15A
330
22
100
AcDbEntity
  8
0
  6
Continuous
 62
     7
100
AcDbLine
 10
-115.7929534912109
 20
237.2679443359375
 30
0.0
 11
-117.3420944213867
 21
235.7187957763672
 31
0.0
  0
LINE
  5
15B
330
22
100
AcDbEntity
  8
0
  6
Continuous
 62
     7
100
AcDbLine
 10
-147.7929534912109
 20
136.3679351806641
 30
0.0
 11
-144.7929534912109
 21
136.3679351806641
 31
0.0
  0
LINE
  5
15C
330
22
100
AcDbEntity
  8
0
  6
Continuous
 62
     7
100
AcDbLine
 10
-115.7929534912109
 20
185.3679351806641
 30
0.0
 11
-144.7929534912109
 21
185.3679351806641
 31
0.0
  0
LINE
  5
15D
330
22
100
AcDbEntity
  8
0
  6
Continuous
 62
     7
100
AcDbLine
 10
-184.7929534912109
 20
190.9679412841797
 30
0.0
 11
-184.7929534912109
 21
213.3679351806641
 31
0.0
  0
LINE
  5
15E
330
22
100
AcDbEntity
  8
0
  6
Continuous
 62
     7
100
AcDbLine
 10
-115.7929534912109
 20
185.3679351806641
 30
0.0
 11
-115.7929534912109
 21
241.3679351806641
 31
0.0
  0
LINE
  5
15F
330
22
100
AcDbEntity
  8
0
  6
Continuous
 62
     7
100
AcDbLine
 10
-147.7929534912109
 20
136.3679351806641
 30
0.0
 11
-147.7929534912109
 21
213.3679351806641
 31
0.0
  0
LINE
  5
160
330
22
100
AcDbEntity
  8
0
  6
Continuous
 62
     7
100
AcDbLine
 10
-144.7929534912109
 20
136.3679351806641
 30
0.0
 11
-144.7929534912109
 21
213.3679351806641
 31
0.0
  0
LINE
  5
161
330
22
100
AcDbEntity
  8
0
  6
Continuous
 62
     7
100
AcDbLine
 10
-209.2929534912109
 20
213.3679351806641
 30
0.0
 11
-209.2929534912109
 21
165.0889739990234
 31
0.0
  0
LINE
  5
162
330
22
100
AcDbEntity
  8
0
  6
Continuous
 62
     7
100
AcDbLine
 10
-204.7929534912109
 20
162.8679351806641
 30
0.0
 11
-204.7929534912109
 21
213.3679351806641
 31
0.0
  0
LINE
  5
163
330
22
100
AcDbEntity
  8
0
  6
Continuous
 62
     7
100
AcDbLine
 10
-169.7929534912109
 20
185.3679351806641
 30
0.0
 11
-169.7929534912109
 21
213.3679351806641
 31
0.0
  0
LINE
  5
164
330
22
100
AcDbEntity
  8
0
  6
Continuous
 62
     7
100
AcDbLine
 10
-214.7929534912109
 20
248.8679351806641
 30
0.0
 11
-211.7929534912109
 21
248.8679351806641
 31
0.0
  0
LINE
  5
165
330
22
100
AcDbEntity
  8
0
  6
Continuous
 62
     7
100
AcDbLine
 10
-214.7929534912109
 20
249.3679351806641
 30
0.0
 11
-211.7929534912109
 21
249.3679351806641
 31
0.0
  0
LINE
  5
166
330
22
100
AcDbEntity
  8
0
  6
Continuous
 62
     7
100
AcDbLine
 10
-214.7929534912109
 20
215.3679351806641
 30
0.0
 11
-211.7929534912109
 21
215.3679351806641
 31
0.0
  0
LINE
  5
167
330
22
100
AcDbEntity
  8
0
  6
Continuous
 62
     7
100
AcDbLine
 10
-214.7929534912109
 20
246.8679351806641
 30
0.0
 11
-211.7929534912109
 21
243.8679351806641
 31
0.0
  0
LINE
  5
168
330
22
100
AcDbEntity
  8
0
  6
Continuous
 62
     7
100
AcDbLine
 10
-214.7929534912109
 20
246.8679351806641
 30
0.0
 11
-214.7929534912109
 21
236.8679351806641
 31
0.0
  0
LINE
  5
169
330
22
100
AcDbEntity
  8
0
  6
Continuous
 62
     7
100
AcDbLine
 10
-214.7929534912109
 20
236.8679351806641
 30
0.0
 11
-211.7929534912109
 21
239.8679351806641
 31
0.0
  0
LINE
  5
16A
330
22
100
AcDbEntity
  8
0
  6
Continuous
 62
     7
100
AcDbLine
 10
-214.7100219726564
 20
252.5586700439453
 30
0.0
 11
-209.9236602783203
 21
263.5672912597656
 31
0.0
  0
LINE
  5
16B
330
22
100
AcDbEntity
  8
0
  6
Continuous
 62
     7
100
AcDbLine
 10
-205.3444061279297
 20
263.8679504394531
 30
0.0
 11
-204.7929534912109
 21
263.3164978027344
 31
0.0
  0
LINE
  5
16C
330
22
100
AcDbEntity
  8
0
  6
Continuous
 62
     7
100
AcDbLine
 10
-207.4657287597656
 20
263.8679504394531
 30
0.0
 11
-204.7929534912109
 21
261.1951599121094
 31
0.0
  0
LINE
  5
16D
330
22
100
AcDbEntity
  8
0
  6
Continuous
 62
     7
100
AcDbLine
 10
-208.1728363037109
 20
263.8679504394531
 30
0.0
 11
-204.7929534912109
 21
260.4880676269531
 31
0.0
  0
LINE
  5
16E
330
22
100
AcDbEntity
  8
0
  6
Continuous
 62
     7
100
AcDbLine
 10
-209.94482421875
 20
263.5186157226563
 30
0.0
 11
-204.7929534912109
 21
258.3667297363281
 31
0.0
  0
LINE
  5
16F
330
22
100
AcDbEntity
  8
0
  6
Continuous
 62
     7
100
AcDbLine
 10
-210.1591033935547
 20
263.0257873535156
 30
0.0
 11
-204.7929534912109
 21
257.6596374511719
 31
0.0
  0
LINE
  5
170
330
22
100
AcDbEntity
  8
0
  6
Continuous
 62
     7
100
AcDbLine
 10
-210.8019256591797
 20
261.5472717285156
 30
0.0
 11
-204.7929534912109
 21
255.5383148193359
 31
0.0
  0
LINE
  5
171
330
22
100
AcDbEntity
  8
0
  6
Continuous
 62
     7
100
AcDbLine
 10
-211.0162048339844
 20
261.054443359375
 30
0.0
 11
-204.7929534912109
 21
254.8312072753906
 31
0.0
  0
LINE
  5
172
330
22
100
AcDbEntity
  8
0
  6
Continuous
 62
     7
100
AcDbLine
 10
-211.6590270996094
 20
259.575958251953
 30
0.0
 11
-204.7929534912109
 21
252.7098846435547
 31
0.0
  0
LINE
  5
173
330
22
100
AcDbEntity
  8
0
  6
Continuous
 62
     7
100
AcDbLine
 10
-211.8733062744141
 20
259.0831298828125
 30
0.0
 11
-204.7929534912109
 21
252.0027770996094
 31
0.0
  0
LINE
  5
174
330
22
100
AcDbEntity
  8
0
  6
Continuous
 62
     7
100
AcDbLine
 10
-212.5161285400391
 20
257.6046447753906
 30
0.0
 11
-204.7929534912109
 21
249.8814544677734
 31
0.0
  0
LINE
  5
175
330
22
100
AcDbEntity
  8
0
  6
Continuous
 62
     7
100
AcDbLine
 10
-212.7304077148438
 20
257.1117858886719
 30
0.0
 11
-204.7929534912109
 21
249.1743469238281
 31
0.0
  0
LINE
  5
176
330
22
100
AcDbEntity
  8
0
  6
Continuous
 62
     7
100
AcDbLine
 10
-213.3732299804688
 20
255.63330078125
 30
0.0
 11
-204.7929534912109
 21
247.0530242919922
 31
0.0
  0
LINE
  5
177
330
22
100
AcDbEntity
  8
0
  6
Continuous
 62
     7
100
AcDbLine
 10
-213.5874938964844
 20
255.1404724121094
 30
0.0
 11
-204.7929534912109
 21
246.3459167480469
 31
0.0
  0
LINE
  5
178
330
22
100
AcDbEntity
  8
0
  6
Continuous
 62
     7
100
AcDbLine
 10
-214.2303314208984
 20
253.6619720458984
 30
0.0
 11
-204.7929534912109
 21
244.2245941162109
 31
0.0
  0
LINE
  5
179
330
22
100
AcDbEntity
  8
0
  6
Continuous
 62
     7
100
AcDbLine
 10
-214.4445953369141
 20
253.1691436767578
 30
0.0
 11
-205.1434020996094
 21
243.8679351806641
 31
0.0
  0
LINE
  5
17A
330
22
100
AcDbEntity
  8
0
  6
Continuous
 62
     7
100
AcDbLine
 10
-211.7929534912109
 20
248.3961791992189
 30
0.0
 11
-207.2647094726563
 21
243.8679351806641
 31
0.0
  0
LINE
  5
17B
330
22
100
AcDbEntity
  8
0
  6
Continuous
 62
     7
100
AcDbLine
 10
-214.7929534912109
 20
251.3961791992188
 30
0.0
 11
-212.7647094726563
 21
249.3679351806641
 31
0.0
  0
LINE
  5
17C
330
22
100
AcDbEntity
  8
0
  6
Continuous
 62
     7
100
AcDbLine
 10
-211.7929534912109
 20
247.6890716552734
 30
0.0
 11
-207.9718170166016
 21
243.8679351806641
 31
0.0
  0
LINE
  5
17D
330
22
100
AcDbEntity
  8
0
  6
Continuous
 62
     7
100
AcDbLine
 10
-214.7929534912109
 20
250.6890716552734
 30
0.0
 11
-213.4718170166016
 21
249.3679351806641
 31
0.0
  0
LINE
  5
17E
330
22
100
AcDbEntity
  8
0
  6
Continuous
 62
     7
100
AcDbLine
 10
-206.0931396484375
 20
239.8679351806641
 30
0.0
 11
-204.7929534912109
 21
238.5677490234375
 31
0.0
  0
LINE
  5
17F
330
22
100
AcDbEntity
  8
0
  6
Continuous
 62
     7
100
AcDbLine
 10
-211.7929534912109
 20
245.5677490234375
 30
0.0
 11
-210.0931396484375
 21
243.8679351806641
 31
0.0
  0
LINE
  5
180
330
22
100
AcDbEntity
  8
0
  6
Continuous
 62
     7
100
AcDbLine
 10
-206.8002471923828
 20
239.8679351806641
 30
0.0
 11
-204.7929534912109
 21
237.8606414794922
 31
0.0
  0
LINE
  5
181
330
22
100
AcDbEntity
  8
0
  6
Continuous
 62
     7
100
AcDbLine
 10
-211.7929534912109
 20
244.8606414794922
 30
0.0
 11
-210.8002471923828
 21
243.8679351806641
 31
0.0
  0
LINE
  5
182
330
22
100
AcDbEntity
  8
0
  6
Continuous
 62
     7
100
AcDbLine
 10
-208.9215698242188
 20
239.8679351806641
 30
0.0
 11
-205.4215698242188
 21
236.3679351806641
 31
0.0
  0
LINE
  5
183
330
22
100
AcDbEntity
  8
0
  6
Continuous
 62
     7
100
AcDbLine
 10
-209.6286773681641
 20
239.8679351806641
 30
0.0
 11
-206.1286773681641
 21
236.3679351806641
 31
0.0
  0
LINE
  5
184
330
22
100
AcDbEntity
  8
0
  6
Continuous
 62
     7
100
AcDbLine
 10
-211.75
 20
239.8679351806641
 30
0.0
 11
-208.25
 21
236.3679351806641
 31
0.0
  0
LINE
  5
185
330
22
100
AcDbEntity
  8
0
  6
Continuous
 62
     7
100
AcDbLine
 10
-211.7929534912109
 20
239.2037811279297
 30
0.0
 11
-208.9571075439453
 21
236.3679351806641
 31
0.0
  0
LINE
  5
186
330
22
100
AcDbEntity
  8
0
  6
Continuous
 62
     7
100
AcDbLine
 10
-211.7929534912109
 20
237.0824584960939
 30
0.0
 11
-211.0784301757813
 21
236.3679351806641
 31
0.0
  0
LINE
  5
187
330
22
100
AcDbEntity
  8
0
  6
Continuous
 62
     7
100
AcDbLine
 10
-211.7929534912109
 20
236.3753509521484
 30
0.0
 11
-211.7855377197266
 21
236.3679351806641
 31
0.0
  0
LINE
  5
188
330
22
100
AcDbEntity
  8
0
  6
Continuous
 62
     7
100
AcDbLine
 10
-214.5158081054688
 20
246.5907897949219
 30
0.0
 11
-212.2386627197266
 21
248.8679351806641
 31
0.0
  0
LINE
  5
189
330
22
100
AcDbEntity
  8
0
  6
Continuous
 62
     7
100
AcDbLine
 10
-213.1015930175781
 20
245.1765747070314
 30
0.0
 11
-211.7929534912109
 21
246.4852294921875
 31
0.0
  0
LINE
  5
18A
330
22
100
AcDbEntity
  8
0
  6
Continuous
 62
     7
100
AcDbLine
 10
-214.7929534912109
 20
234.9999389648438
 30
0.0
 11
-211.7929534912109
 21
237.9999389648439
 31
0.0
  0
LINE
  5
18B
330
22
100
AcDbEntity
  8
0
  6
Continuous
 62
     7
100
AcDbLine
 10
-214.7929534912109
 20
232.1715240478516
 30
0.0
 11
-211.7929534912109
 21
235.1715240478516
 31
0.0
  0
LINE
  5
18C
330
22
100
AcDbEntity
  8
0
  6
Continuous
 62
     7
100
AcDbLine
 10
-214.7929534912109
 20
229.3430938720703
 30
0.0
 11
-211.7929534912109
 21
232.3430938720703
 31
0.0
  0
LINE
  5
18D
330
22
100
AcDbEntity
  8
0
  6
Continuous
 62
     7
100
AcDbLine
 10
-214.7929534912109
 20
226.5146636962891
 30
0.0
 11
-211.7929534912109
 21
229.5146636962891
 31
0.0
  0
LINE
  5
18E
330
22
100
AcDbEntity
  8
0
  6
Continuous
 62
     7
100
AcDbLine
 10
-214.7929534912109
 20
223.6862335205078
 30
0.0
 11
-211.7929534912109
 21
226.6862335205078
 31
0.0
  0
LINE
  5
18F
330
22
100
AcDbEntity
  8
0
  6
Continuous
 62
     7
100
AcDbLine
 10
-214.7929534912109
 20
220.8578033447266
 30
0.0
 11
-211.7929534912109
 21
223.8578033447266
 31
0.0
  0
LINE
  5
190
330
22
100
AcDbEntity
  8
0
  6
Continuous
 62
     7
100
AcDbLine
 10
-214.7929534912109
 20
218.0293884277344
 30
0.0
 11
-211.7929534912109
 21
221.0293884277344
 31
0.0
  0
LINE
  5
191
330
22
100
AcDbEntity
  8
0
  6
Continuous
 62
     7
100
AcDbLine
 10
-214.6259765625
 20
215.3679351806641
 30
0.0
 11
-211.7929534912109
 21
218.2009582519531
 31
0.0
  0
LINE
  5
192
330
22
100
AcDbEntity
  8
0
  6
Continuous
 62
     7
100
AcDbLine
 10
-211.7975463867189
 20
215.3679351806641
 30
0.0
 11
-211.7929534912109
 21
215.3725280761719
 31
0.0
  0
LINE
  5
193
330
22
100
AcDbEntity
  8
0
  6
Continuous
 62
     7
100
AcDbLine
 10
-214.7100219726564
 20
174.1772003173828
 30
0.0
 11
-209.9236602783203
 21
163.1685791015625
 31
0.0
  0
LINE
  5
194
330
22
100
AcDbEntity
  8
0
  6
CENTER
 62
     7
100
AcDbLine
 10
-228.4188690185547
 20
213.3679351806641
 30
0.0
 11
-108.140251159668
 21
213.3679351806641
 31
0.0
  0
LINE
  5
195
330
22
100
AcDbEntity
  8
0
  6
Continuous
 62
     7
100
AcDbLine
 10
-214.7929534912109
 20
252.1599426269531
 30
0.0
 11
-214.7929534912109
 21
174.575927734375
 31
0.0
  0
LINE
  5
196
330
22
100
AcDbEntity
  8
0
  6
Continuous
 62
     7
100
AcDbLine
 10
-393.2506408691406
 20
237.6046905517578
 30
0.0
 11
-393.7080078125
 21
240.9475708007813
 31
0.0
  0
LINE
  5
197
330
22
100
AcDbEntity
  8
0
  6
Continuous
 62
     7
100
AcDbLine
 10
-392.7876281738281
 20
237.6046905517578
 30
0.0
 11
-392.3246154785156
 21
237.6046905517578
 31
0.0
  0
LINE
  5
198
330
22
100
AcDbEntity
  8
0
  6
Continuous
 62
     7
100
AcDbLine
 10
-392.3246154785156
 20
237.6046905517578
 30
0.0
 11
-391.8672485351563
 21
240.9475708007813
 31
0.0
  0
LINE
  5
199
330
22
100
AcDbEntity
  8
0
  6
Continuous
 62
     7
100
AcDbLine
 10
-392.7876281738281
 20
246.1311950683594
 30
0.0
 11
-392.3246154785156
 21
246.1311950683594
 31
0.0
  0
LINE
  5
19A
330
22
100
AcDbEntity
  8
0
  6
Continuous
 62
     7
100
AcDbLine
 10
-392.3246154785156
 20
246.1311950683594
 30
0.0
 11
-391.8672485351563
 21
242.7883148193359
 31
0.0
  0
LINE
  5
19B
330
22
100
AcDbEntity
  8
0
  6
Continuous
 62
     7
100
AcDbLine
 10
-393.2506408691406
 20
246.1311950683594
 30
0.0
 11
-393.7080078125
 21
242.7883148193359
 31
0.0
  0
LINE
  5
19C
330
22
100
AcDbEntity
  8
0
  6
Continuous
 62
     7
100
AcDbLine
 10
-392.7876281738281
 20
246.1311950683594
 30
0.0
 11
-393.2506408691406
 21
246.1311950683594
 31
0.0
  0
LINE
  5
19D
330
22
100
AcDbEntity
  8
0
  6
Continuous
 62
     7
100
AcDbLine
 10
-388.549560546875
 20
242.3305816650391
 30
0.0
 11
-388.549560546875
 21
241.8679351806641
 31
0.0
  0
LINE
  5
19E
330
22
100
AcDbEntity
  8
0
  6
Continuous
 62
     7
100
AcDbLine
 10
-388.2376403808594
 20
217.5776824951172
 30
0.0
 11
-388.2376403808594
 21
231.7781982421875
 31
0.0
  0
LINE
  5
19F
330
22
100
AcDbEntity
  8
0
  6
Continuous
 62
     7
100
AcDbLine
 10
-386.7376403808594
 20
222.4755554199219
 30
0.0
 11
-386.7376403808594
 21
230.1833343505859
 31
0.0
  0
LINE
  5
1A0
330
22
100
AcDbEntity
  8
0
  6
Continuous
 62
     7
100
AcDbLine
 10
-381.4376220703125
 20
216.2215728759766
 30
0.0
 11
-381.4376220703125
 21
226.4215698242189
 31
0.0
  0
LINE
  5
1A1
330
22
100
AcDbEntity
  8
0
  6
Continuous
 62
     7
100
AcDbLine
 10
-382.9376220703125
 20
222.4755554199219
 30
0.0
 11
-382.9376220703125
 21
230.1755676269531
 31
0.0
  0
LINE
  5
1A2
330
22
100
AcDbEntity
  8
0
  6
Continuous
 62
     7
100
AcDbLine
 10
-388.549560546875
 20
241.4052886962891
 30
0.0
 11
-388.549560546875
 21
241.8679351806641
 31
0.0
  0
LINE
  5
1A3
330
22
100
AcDbEntity
  8
0
  6
Continuous
 62
     7
100
AcDbLine
 10
-377.6376342773438
 20
216.2215728759766
 30
0.0
 11
-377.6376342773438
 21
226.4215698242189
 31
0.0
  0
LINE
  5
1A4
330
22
100
AcDbEntity
  8
0
  6
CENTER
 62
     7
100
AcDbLine
 10
-301.3410034179688
 20
213.3679351806641
 30
0.0
 11
-484.2342529296875
 21
213.3679351806641
 31
0.0
  0
LINE
  5
1A5
330
22
100
AcDbEntity
  8
0
  6
Continuous
 62
     7
100
AcDbLine
 10
-402.6376342773438
 20
222.4755554199219
 30
0.0
 11
-402.6376342773438
 21
230.1755676269531
 31
0.0
  0
LINE
  5
1A6
330
22
100
AcDbEntity
  8
0
  6
Continuous
 62
     7
100
AcDbLine
 10
-398.8376159667969
 20
222.4755554199219
 30
0.0
 11
-398.8376159667969
 21
230.1833343505859
 31
0.0
  0
LINE
  5
1A7
330
22
100
AcDbEntity
  8
0
  6
Continuous
 62
     7
100
AcDbLine
 10
-388.549560546875
 20
241.4052886962891
 30
0.0
 11
-391.8672485351563
 21
240.9475708007813
 31
0.0
  0
LINE
  5
1A8
330
22
100
AcDbEntity
  8
0
  6
Continuous
 62
     7
100
AcDbLine
 10
-407.9376220703125
 20
216.2215728759766
 30
0.0
 11
-407.9376220703125
 21
226.4215698242189
 31
0.0
  0
LINE
  5
1A9
330
22
100
AcDbEntity
  8
0
  6
Continuous
 62
     7
100
AcDbLine
 10
-404.1376342773437
 20
216.2215728759766
 30
0.0
 11
-404.1376342773437
 21
226.4215698242189
 31
0.0
  0
LINE
  5
1AA
330
22
100
AcDbEntity
  8
0
  6
Continuous
 62
     7
100
AcDbLine
 10
-397.3376159667969
 20
217.5776824951172
 30
0.0
 11
-397.3376159667969
 21
231.7781982421875
 31
0.0
  0
LINE
  5
1AB
330
22
100
AcDbEntity
  8
0
  6
Continuous
 62
     7
100
AcDbLine
 10
-393.5376281738281
 20
217.5781860351563
 30
0.0
 11
-393.5376281738281
 21
231.7781982421875
 31
0.0
  0
LINE
  5
1AC
330
22
100
AcDbEntity
  8
0
  6
Continuous
 62
     7
100
AcDbLine
 10
-388.549560546875
 20
242.3305816650391
 30
0.0
 11
-391.8672485351563
 21
242.7883148193359
 31
0.0
  0
LINE
  5
1AD
330
22
100
AcDbEntity
  8
0
  6
Continuous
 62
     7
100
AcDbLine
 10
-397.0256958007813
 20
242.3305816650391
 30
0.0
 11
-397.0256958007813
 21
241.8679351806641
 31
0.0
  0
LINE
  5
1AE
330
22
100
AcDbEntity
  8
0
  6
Continuous
 62
     7
100
AcDbLine
 10
-397.0256958007813
 20
241.4052886962891
 30
0.0
 11
-393.7080078125
 21
240.9475708007813
 31
0.0
  0
LINE
  5
1AF
330
22
100
AcDbEntity
  8
0
  6
Continuous
 62
     7
100
AcDbLine
 10
-392.7876281738281
 20
237.6046905517578
 30
0.0
 11
-393.2506408691406
 21
237.6046905517578
 31
0.0
  0
LINE
  5
1B0
330
22
100
AcDbEntity
  8
0
  6
Continuous
 62
     7
100
AcDbLine
 10
-397.0256958007813
 20
242.3305816650391
 30
0.0
 11
-393.7080078125
 21
242.7883148193359
 31
0.0
  0
LINE
  5
1B1
330
22
100
AcDbEntity
  8
0
  6
Continuous
 62
     7
100
AcDbLine
 10
-397.0256958007813
 20
241.4052886962891
 30
0.0
 11
-397.0256958007813
 21
241.8679351806641
 31
0.0
  0
LINE
  5
1B2
330
22
100
AcDbEntity
  8
0
  6
Continuous
 62
     7
100
AcDbLine
 10
-392.3246154785156
 20
189.1311950683594
 30
0.0
 11
-391.8672485351563
 21
185.7883148193359
 31
0.0
  0
LINE
  5
1B3
330
22
100
AcDbEntity
  8
0
  6
Continuous
 62
     7
100
AcDbLine
 10
-392.3246154785156
 20
180.6046905517578
 30
0.0
 11
-391.8672485351563
 21
183.9475708007813
 31
0.0
  0
LINE
  5
1B4
330
22
100
AcDbEntity
  8
0
  6
Continuous
 62
     7
100
AcDbLine
 10
-388.549560546875
 20
184.4052886962891
 30
0.0
 11
-391.8672485351563
 21
183.9475708007813
 31
0.0
  0
LINE
  5
1B5
330
22
100
AcDbEntity
  8
0
  6
Continuous
 62
     7
100
AcDbLine
 10
-388.549560546875
 20
185.330581665039
 30
0.0
 11
-391.8672485351563
 21
185.7883148193359
 31
0.0
  0
LINE
  5
1B6
330
22
100
AcDbEntity
  8
0
  6
Continuous
 62
     7
100
AcDbLine
 10
-397.0256958007813
 20
184.4052886962891
 30
0.0
 11
-393.7080078125
 21
183.9475708007813
 31
0.0
  0
LINE
  5
1B7
330
22
100
AcDbEntity
  8
0
  6
Continuous
 62
     7
100
AcDbLine
 10
-397.0256958007813
 20
185.330581665039
 30
0.0
 11
-393.7080078125
 21
185.7883148193359
 31
0.0
  0
LINE
  5
1B8
330
22
100
AcDbEntity
  8
0
  6
Continuous
 62
     7
100
AcDbLine
 10
-402.6376342773438
 20
204.2603149414063
 30
0.0
 11
-402.6376342773438
 21
196.5603179931641
 31
0.0
  0
LINE
  5
1B9
330
22
100
AcDbEntity
  8
0
  6
Continuous
 62
     7
100
AcDbLine
 10
-398.8376159667969
 20
204.2603149414063
 30
0.0
 11
-398.8376159667969
 21
196.5525360107422
 31
0.0
  0
LINE
  5
1BA
330
22
100
AcDbEntity
  8
0
  6
Continuous
 62
     7
100
AcDbLine
 10
-386.7376403808594
 20
204.2603149414063
 30
0.0
 11
-386.7376403808594
 21
196.5525360107422
 31
0.0
  0
LINE
  5
1BB
330
22
100
AcDbEntity
  8
0
  6
Continuous
 62
     7
100
AcDbLine
 10
-382.9376220703125
 20
204.2603149414063
 30
0.0
 11
-382.9376220703125
 21
196.5603179931641
 31
0.0
  0
LINE
  5
1BC
330
22
100
AcDbEntity
  8
0
  6
Continuous
 62
     7
100
AcDbLine
 10
-392.0376281738281
 20
217.5781860351563
 30
0.0
 11
-392.0376281738281
 21
231.7781982421875
 31
0.0
  0
LINE
  5
1BD
330
22
100
AcDbEntity
  8
0
  6
Continuous
 62
     7
100
AcDbLine
 10
-392.7876281738281
 20
189.1311950683594
 30
0.0
 11
-392.3246154785156
 21
189.1311950683594
 31
0.0
  0
LINE
  5
1BE
330
22
100
AcDbEntity
  8
0
  6
Continuous
 62
     7
100
AcDbLine
 10
-392.7876281738281
 20
189.1311950683594
 30
0.0
 11
-393.2506408691406
 21
189.1311950683594
 31
0.0
  0
LINE
  5
1BF
330
22
100
AcDbEntity
  8
0
  6
Continuous
 62
     7
100
AcDbLine
 10
-393.2506408691406
 20
189.1311950683594
 30
0.0
 11
-393.7080078125
 21
185.7883148193359
 31
0.0
  0
LINE
  5
1C0
330
22
100
AcDbEntity
  8
0
  6
Continuous
 62
     7
100
AcDbLine
 10
-397.0256958007813
 20
185.330581665039
 30
0.0
 11
-397.0256958007813
 21
184.8679351806641
 31
0.0
  0
LINE
  5
1C1
330
22
100
AcDbEntity
  8
0
  6
Continuous
 62
     7
100
AcDbLine
 10
-397.0256958007813
 20
184.4052886962891
 30
0.0
 11
-397.0256958007813
 21
184.8679351806641
 31
0.0
  0
LINE
  5
1C2
330
22
100
AcDbEntity
  8
0
  6
Continuous
 62
     7
100
AcDbLine
 10
-392.7876281738281
 20
180.6046905517578
 30
0.0
 11
-392.3246154785156
 21
180.6046905517578
 31
0.0
  0
LINE
  5
1C3
330
22
100
AcDbEntity
  8
0
  6
Continuous
 62
     7
100
AcDbLine
 10
-392.7876281738281
 20
180.6046905517578
 30
0.0
 11
-393.2506408691406
 21
180.6046905517578
 31
0.0
  0
LINE
  5
1C4
330
22
100
AcDbEntity
  8
0
  6
Continuous
 62
     7
100
AcDbLine
 10
-393.2506408691406
 20
180.6046905517578
 30
0.0
 11
-393.7080078125
 21
183.9475708007813
 31
0.0
  0
LINE
  5
1C5
330
22
100
AcDbEntity
  8
0
  6
Continuous
 62
     7
100
AcDbLine
 10
-388.549560546875
 20
185.330581665039
 30
0.0
 11
-388.549560546875
 21
184.8679351806641
 31
0.0
  0
LINE
  5
1C6
330
22
100
AcDbEntity
  8
0
  6
Continuous
 62
     7
100
AcDbLine
 10
-388.549560546875
 20
184.4052886962891
 30
0.0
 11
-388.549560546875
 21
184.8679351806641
 31
0.0
  0
LINE
  5
1C7
330
22
100
AcDbEntity
  8
0
  6
Continuous
 62
     7
100
AcDbLine
 10
-386.7376403808594
 20
217.2179412841797
 30
0.0
 11
-386.7376403808594
 21
209.5101623535156
 31
0.0
  0
LINE
  5
1C8
330
22
100
AcDbEntity
  8
0
  6
Continuous
 62
     7
100
AcDbLine
 10
-382.9376220703125
 20
217.2179412841797
 30
0.0
 11
-382.9376220703125
 21
209.5179443359375
 31
0.0
  0
LINE
  5
1C9
330
22
100
AcDbEntity
  8
0
  6
Continuous
 62
     7
100
AcDbLine
 10
-393.5376281738281
 20
209.1576843261719
 30
0.0
 11
-393.5376281738281
 21
194.9576873779297
 31
0.0
  0
LINE
  5
1CA
330
22
100
AcDbEntity
  8
0
  6
Continuous
 62
     7
100
AcDbLine
 10
-392.0376281738281
 20
209.1576843261719
 30
0.0
 11
-392.0376281738281
 21
194.9576873779297
 31
0.0
  0
LINE
  5
1CB
330
22
100
AcDbEntity
  8
0
  6
Continuous
 62
     7
100
AcDbLine
 10
-407.9376220703125
 20
210.5142974853516
 30
0.0
 11
-407.9376220703125
 21
200.3143005371094
 31
0.0
  0
LINE
  5
1CC
330
22
100
AcDbEntity
  8
0
  6
Continuous
 62
     7
100
AcDbLine
 10
-404.1376342773437
 20
210.5142974853516
 30
0.0
 11
-404.1376342773437
 21
200.3143005371094
 31
0.0
  0
LINE
  5
1CD
330
22
100
AcDbEntity
  8
0
  6
Continuous
 62
     7
100
AcDbLine
 10
-397.3376159667969
 20
209.1581878662109
 30
0.0
 11
-397.3376159667969
 21
194.9576873779297
 31
0.0
  0
LINE
  5
1CE
330
22
100
AcDbEntity
  8
0
  6
Continuous
 62
     7
100
AcDbLine
 10
-376.1376342773438
 20
202.3798675537109
 30
0.0
 11
-376.1376342773438
 21
224.3560028076172
 31
0.0
  0
LINE
  5
1CF
330
22
100
AcDbEntity
  8
0
  6
Continuous
 62
     7
100
AcDbLine
 10
-409.4376220703124
 20
202.3798675537109
 30
0.0
 11
-409.4376220703124
 21
224.3560028076172
 31
0.0
  0
LINE
  5
1D0
330
22
100
AcDbEntity
  8
0
  6
Continuous
 62
     7
100
AcDbLine
 10
-388.2376403808594
 20
209.1581878662109
 30
0.0
 11
-388.2376403808594
 21
194.9576873779297
 31
0.0
  0
LINE
  5
1D1
330
22
100
AcDbEntity
  8
0
  6
Continuous
 62
     7
100
AcDbLine
 10
-381.4376220703125
 20
210.5142974853516
 30
0.0
 11
-381.4376220703125
 21
200.3143005371094
 31
0.0
  0
LINE
  5
1D2
330
22
100
AcDbEntity
  8
0
  6
Continuous
 62
     7
100
AcDbLine
 10
-377.6376342773438
 20
210.5142974853516
 30
0.0
 11
-377.6376342773438
 21
200.3143005371094
 31
0.0
  0
LINE
  5
1D3
330
22
100
AcDbEntity
  8
0
  6
CENTER
 62
     7
100
AcDbLine
 10
-392.6636047363281
 20
302.3051452636719
 30
0.0
 11
-392.6636047363281
 21
122.5951843261719
 31
0.0
  0
LINE
  5
1D4
330
22
100
AcDbEntity
  8
0
  6
Continuous
 62
     7
100
AcDbLine
 10
-402.6376342773438
 20
217.2179412841797
 30
0.0
 11
-402.6376342773438
 21
209.5179443359375
 31
0.0
  0
LINE
  5
1D5
330
22
100
AcDbEntity
  8
0
  6
Continuous
 62
     7
100
AcDbLine
 10
-398.8376159667969
 20
217.2179412841797
 30
0.0
 11
-398.8376159667969
 21
209.5101623535156
 31
0.0
  0
ARC
  5
1D6
330
22
100
AcDbEntity
  8
0
  6
Continuous
 62
     7
100
AcDbCircle
 10
-209.4651336669922
 20
263.3679504394531
 30
0.0
 40
0.5
100
AcDbArc
 50
90.00000000000019
 51
156.5033865038332
  0
ARC
  5
1D7
330
22
100
AcDbEntity
  8
0
  6
Continuous
 62
     7
100
AcDbCircle
 10
-209.4651336669922
 20
163.3679351806641
 30
0.0
 40
0.5
100
AcDbArc
 50
203.4982170766616
 51
270.0000000000005
  0
ARC
  5
1D8
330
22
100
AcDbEntity
  8
0
  6
Continuous
 62
     7
100
AcDbCircle
 10
-213.7929534912109
 20
252.1599426269531
 30
0.0
 40
1.0
100
AcDbArc
 50
156.5013297463602
 51
180.0000000000004
  0
ARC
  5
1D9
330
22
100
AcDbEntity
  8
0
  6
Continuous
 62
     7
100
AcDbCircle
 10
-213.7929534912109
 20
174.575927734375
 30
0.0
 40
1.0
100
AcDbArc
 50
180.0000000000004
 51
203.4986702536405
  0
ARC
  5
1DA
330
22
100
AcDbEntity
  8
0
  6
Continuous
 62
     7
100
AcDbCircle
 10
-406.0376281738281
 20
226.4215698242189
 30
0.0
 40
1.899999976158141
100
AcDbArc
 50
0.0
 51
180.0000000000004
  0
ARC
  5
1DB
330
22
100
AcDbEntity
  8
0
  6
Continuous
 62
     7
100
AcDbCircle
 10
-384.8376159667969
 20
230.1833343505859
 30
0.0
 40
1.899999976158141
100
AcDbArc
 50
359.7657860087907
 51
180.2342102293229
  0
ARC
  5
1DC
330
22
100
AcDbEntity
  8
0
  6
Continuous
 62
     7
100
AcDbCircle
 10
-379.5376281738281
 20
226.4215698242189
 30
0.0
 40
1.899999976158141
100
AcDbArc
 50
0.0
 51
180.0000000000004
  0
ARC
  5
1DD
330
22
100
AcDbEntity
  8
0
  6
Continuous
 62
     7
100
AcDbCircle
 10
-379.5376281738281
 20
216.2215728759766
 30
0.0
 40
1.899999976158141
100
AcDbArc
 50
180.0000000000004
 51
0.0
  0
ARC
  5
1DE
330
22
100
AcDbEntity
  8
0
  6
Continuous
 62
     7
100
AcDbCircle
 10
-384.8376159667969
 20
230.1833343505859
 30
0.0
 40
1.899999976158141
100
AcDbArc
 50
359.7657860087907
 51
180.2342102293229
  0
ARC
  5
1DF
330
22
100
AcDbEntity
  8
0
  6
Continuous
 62
     7
100
AcDbCircle
 10
-375.8376159667969
 20
224.3560028076172
 30
0.0
 40
0.3000000119209289
100
AcDbArc
 50
32.95691428121468
 51
180.0000000000004
  0
ARC
  5
1E0
330
22
100
AcDbEntity
  8
0
  6
Continuous
 62
     7
100
AcDbCircle
 10
-384.8376159667969
 20
222.4755554199219
 30
0.0
 40
1.899999976158141
100
AcDbArc
 50
180.0000000000004
 51
0.0
  0
ARC
  5
1E1
330
22
100
AcDbEntity
  8
0
  6
Continuous
 62
     7
100
AcDbCircle
 10
-384.8376159667969
 20
217.2179412841797
 30
0.0
 40
1.899999976158141
100
AcDbArc
 50
0.0
 51
180.0000000000004
  0
CIRCLE
  5
1E2
330
22
100
AcDbEntity
  8
0
  6
Continuous
 62
     7
100
AcDbCircle
 10
-392.7876281738281
 20
241.8679351806641
 30
0.0
 40
5.25
  0
CIRCLE
  5
1E3
330
22
100
AcDbEntity
  8
0
  6
Continuous
 62
     7
100
AcDbCircle
 10
-392.7876281738281
 20
241.8679351806641
 30
0.0
 40
5.0
  0
ARC
  5
1E4
330
22
100
AcDbEntity
  8
0
  6
Continuous
 62
     7
100
AcDbCircle
 10
-409.7376403808594
 20
224.3560028076172
 30
0.0
 40
0.3000000119209289
100
AcDbArc
 50
0.0
 51
147.0430857187853
  0
ARC
  5
1E5
330
22
100
AcDbEntity
  8
0
  6
Continuous
 62
     7
100
AcDbCircle
 10
-406.0376281738281
 20
216.2215728759766
 30
0.0
 40
1.899999976158141
100
AcDbArc
 50
180.0000000000004
 51
0.0
  0
ARC
  5
1E6
330
22
100
AcDbEntity
  8
0
  6
Continuous
 62
     7
100
AcDbCircle
 10
-400.7376403808593
 20
230.1833343505859
 30
0.0
 40
1.899999976158141
100
AcDbArc
 50
359.7657897706786
 51
180.2342139912108
  0
ARC
  5
1E7
330
22
100
AcDbEntity
  8
0
  6
Continuous
 62
     7
100
AcDbCircle
 10
-400.7376403808593
 20
222.4755554199219
 30
0.0
 40
1.899999976158141
100
AcDbArc
 50
180.0000000000004
 51
0.0
  0
ARC
  5
1E8
330
22
100
AcDbEntity
  8
0
  6
Continuous
 62
     7
100
AcDbCircle
 10
-395.4376220703125
 20
217.5781860351563
 30
0.0
 40
1.899999976158141
100
AcDbArc
 50
179.9843552220962
 51
0.0
  0
ARC
  5
1E9
330
22
100
AcDbEntity
  8
0
  6
Continuous
 62
     7
100
AcDbCircle
 10
-400.7376403808593
 20
230.1833343505859
 30
0.0
 40
1.899999976158141
100
AcDbArc
 50
359.7657897706786
 51
180.2342139912108
  0
CIRCLE
  5
1EA
330
22
100
AcDbEntity
  8
0
  6
Continuous
 62
     7
100
AcDbCircle
 10
-392.6636047363281
 20
280.3679504394531
 30
0.0
 40
5.0
  0
CIRCLE
  5
1EB
330
22
100
AcDbEntity
  8
0
  6
Continuous
 62
     7
100
AcDbCircle
 10
-392.6636047363281
 20
280.3679504394531
 30
0.0
 40
2.75
  0
ARC
  5
1EC
330
22
100
AcDbEntity
  8
0
  6
Continuous
 62
     7
100
AcDbCircle
 10
-390.1376342773438
 20
231.7781982421875
 30
0.0
 40
1.899999976158141
100
AcDbArc
 50
0.0
 51
180.0000000000004
  0
ARC
  5
1ED
330
22
100
AcDbEntity
  8
0
  6
Continuous
 62
     7
100
AcDbCircle
 10
-390.1376342773438
 20
217.5781860351563
 30
0.0
 40
1.899999976158141
100
AcDbArc
 50
180.0000000000004
 51
0.0156447779038411
  0
CIRCLE
  5
1EE
330
22
100
AcDbEntity
  8
0
  6
Continuous
 62
     7
100
AcDbCircle
 10
-450.6877136230468
 20
179.8681640625
 30
0.0
 40
5.0
  0
CIRCLE
  5
1EF
330
22
100
AcDbEntity
  8
0
  6
Continuous
 62
     7
100
AcDbCircle
 10
-392.7876281738281
 20
184.8679351806641
 30
0.0
 40
5.0
  0
CIRCLE
  5
1F0
330
22
100
AcDbEntity
  8
0
  6
Continuous
 62
     7
100
AcDbCircle
 10
-392.7876281738281
 20
184.8679351806641
 30
0.0
 40
5.25
  0
ARC
  5
1F1
330
22
100
AcDbEntity
  8
0
  6
Continuous
 62
     7
100
AcDbCircle
 10
-406.0376281738281
 20
200.3143005371094
 30
0.0
 40
1.899999976158141
100
AcDbArc
 50
180.0000000000004
 51
0.0
  0
ARC
  5
1F2
330
22
100
AcDbEntity
  8
0
  6
Continuous
 62
     7
100
AcDbCircle
 10
-409.7376403808594
 20
202.3798675537109
 30
0.0
 40
0.3000000119209289
100
AcDbArc
 50
212.9544688095806
 51
0.0
  0
ARC
  5
1F3
330
22
100
AcDbEntity
  8
0
  6
Continuous
 62
     7
100
AcDbCircle
 10
-400.7376403808593
 20
196.5525360107422
 30
0.0
 40
1.899999976158141
100
AcDbArc
 50
179.7653258685652
 51
0.2346703621563089
  0
ARC
  5
1F4
330
22
100
AcDbEntity
  8
0
  6
Continuous
 62
     7
100
AcDbCircle
 10
-395.4376220703125
 20
194.9576873779297
 30
0.0
 40
1.899999976158141
100
AcDbArc
 50
180.0000000000004
 51
0.0
  0
ARC
  5
1F5
330
22
100
AcDbEntity
  8
0
  6
Continuous
 62
     7
100
AcDbCircle
 10
-390.1376342773438
 20
194.9576873779297
 30
0.0
 40
1.899999976158141
100
AcDbArc
 50
180.0000000000004
 51
0.0
  0
ARC
  5
1F6
330
22
100
AcDbEntity
  8
0
  6
Continuous
 62
     7
100
AcDbCircle
 10
-379.5376281738281
 20
200.3143005371094
 30
0.0
 40
1.899999976158141
100
AcDbArc
 50
180.0000000000004
 51
0.0
  0
ARC
  5
1F7
330
22
100
AcDbEntity
  8
0
  6
Continuous
 62
     7
100
AcDbCircle
 10
-375.8376159667969
 20
202.3798675537109
 30
0.0
 40
0.3000000119209289
100
AcDbArc
 50
180.0000000000004
 51
327.0455311904209
  0
ARC
  5
1F8
330
22
100
AcDbEntity
  8
0
  6
Continuous
 62
     7
100
AcDbCircle
 10
-384.8376159667969
 20
196.5525360107422
 30
0.0
 40
1.899999976158141
100
AcDbArc
 50
179.7653296378437
 51
0.2346741314347575
  0
ARC
  5
1F9
330
22
100
AcDbEntity
  8
0
  6
Continuous
 62
     7
100
AcDbCircle
 10
-395.4376220703125
 20
231.7781982421875
 30
0.0
 40
1.899999976158141
100
AcDbArc
 50
0.0
 51
180.0000000000004
  0
ARC
  5
1FA
330
22
100
AcDbEntity
  8
0
  6
Continuous
 62
     7
100
AcDbCircle
 10
-400.7376403808593
 20
217.2179412841797
 30
0.0
 40
1.899999976158141
100
AcDbArc
 50
0.0
 51
180.0000000000004
  0
CIRCLE
  5
1FB
330
22
100
AcDbEntity
  8
0
  6
Continuous
 62
     7
100
AcDbCircle
 10
-392.7876281738281
 20
213.3679351806641
 30
0.0
 40
35.5
  0
CIRCLE
  5
1FC
330
22
100
AcDbEntity
  8
0
  6
Continuous
 62
     7
100
AcDbCircle
 10
-392.7876281738281
 20
213.3679351806641
 30
0.0
 40
36.0
  0
CIRCLE
  5
1FD
330
22
100
AcDbEntity
  8
0
  6
Continuous
 62
     7
100
AcDbCircle
 10
-392.7876281738281
 20
213.3679351806641
 30
0.0
 40
50.5
  0
CIRCLE
  5
1FE
330
22
100
AcDbEntity
  8
0
  6
Continuous
 62
     7
100
AcDbCircle
 10
-334.6403198242188
 20
179.8677062988281
 30
0.0
 40
2.75
  0
CIRCLE
  5
1FF
330
22
100
AcDbEntity
  8
0
  6
Continuous
 62
     7
100
AcDbCircle
 10
-334.6403198242188
 20
179.8677062988281
 30
0.0
 40
5.0
  0
CIRCLE
  5
200
330
22
100
AcDbEntity
  8
0
  6
Continuous
 62
     7
100
AcDbCircle
 10
-450.6877136230468
 20
179.8681640625
 30
0.0
 40
2.75
  0
ARC
  5
201
330
22
100
AcDbEntity
  8
0
  6
Continuous
 62
     7
100
AcDbCircle
 10
-379.5376281738281
 20
210.5142974853516
 30
0.0
 40
1.899999976158141
100
AcDbArc
 50
0.0
 51
180.0000000000004
  0
ARC
  5
202
330
22
100
AcDbEntity
  8
0
  6
Continuous
 62
     7
100
AcDbCircle
 10
-384.8376159667969
 20
204.2603149414063
 30
0.0
 40
1.899999976158141
100
AcDbArc
 50
0.0
 51
180.0000000000004
  0
ARC
  5
203
330
22
100
AcDbEntity
  8
0
  6
Continuous
 62
     7
100
AcDbCircle
 10
-384.8376159667969
 20
209.5101623535156
 30
0.0
 40
1.899999976158141
100
AcDbArc
 50
179.7653296378437
 51
0.2346741314347575
  0
ARC
  5
204
330
22
100
AcDbEntity
  8
0
  6
Continuous
 62
     7
100
AcDbCircle
 10
-392.7876281738281
 20
213.3679351806641
 30
0.0
 40
20.5
100
AcDbArc
 50
147.0461378220998
 51
212.9538621779009
  0
ARC
  5
205
330
22
100
AcDbEntity
  8
0
  6
Continuous
 62
     7
100
AcDbCircle
 10
-392.7876281738281
 20
213.3679351806641
 30
0.0
 40
20.5
100
AcDbArc
 50
327.0461378221005
 51
32.95386217790023
  0
CIRCLE
  5
206
330
22
100
AcDbEntity
  8
0
  6
Continuous
 62
     7
100
AcDbCircle
 10
-392.6636047363281
 20
213.3679351806641
 30
0.0
 40
60.0
  0
CIRCLE
  5
207
330
22
100
AcDbEntity
  8
0
  6
Continuous
 62
     7
100
AcDbCircle
 10
-392.6636047363281
 20
213.3679351806641
 30
0.0
 40
77.0
  0
CIRCLE
  5
208
330
22
100
AcDbEntity
  8
0
  6
CENTER
 62
     7
100
AcDbCircle
 10
-392.6636047363281
 20
213.3679351806641
 30
0.0
 40
67.0
  0
ARC
  5
209
330
22
100
AcDbEntity
  8
0
  6
Continuous
 62
     7
100
AcDbCircle
 10
-400.7376403808593
 20
209.5101623535156
 30
0.0
 40
1.899999976158141
100
AcDbArc
 50
179.7653258685652
 51
0.2346703621563089
  0
ARC
  5
20A
330
22
100
AcDbEntity
  8
0
  6
Continuous
 62
     7
100
AcDbCircle
 10
-400.7376403808593
 20
204.2603149414063
 30
0.0
 40
1.899999976158141
100
AcDbArc
 50
0.0
 51
180.0000000000004
  0
CIRCLE
  5
20B
330
22
100
AcDbEntity
  8
0
  6
Continuous
 62
     7
100
AcDbCircle
 10
-392.7876281738281
 20
213.3679351806641
 30
0.0
 40
2.0
  0
ARC
  5
20C
330
22
100
AcDbEntity
  8
0
  6
Continuous
 62
     7
100
AcDbCircle
 10
-395.4376220703125
 20
209.1576843261719
 30
0.0
 40
1.899999976158141
100
AcDbArc
 50
0.0
 51
180.0156447779045
  0
ARC
  5
20D
330
22
100
AcDbEntity
  8
0
  6
Continuous
 62
     7
100
AcDbCircle
 10
-390.1376342773438
 20
209.1576843261719
 30
0.0
 40
1.899999976158141
100
AcDbArc
 50
359.9843552220968
 51
180.0000000000004
  0
CIRCLE
  5
20E
330
22
100
AcDbEntity
  8
0
  6
Continuous
 62
     7
100
AcDbCircle
 10
-421.2876281738281
 20
213.3679351806641
 30
0.0
 40
3.5
  0
ARC
  5
20F
330
22
100
AcDbEntity
  8
0
  6
Continuous
 62
     7
100
AcDbCircle
 10
-406.0376281738281
 20
210.5142974853516
 30
0.0
 40
1.899999976158141
100
AcDbArc
 50
0.0
 51
180.0000000000004
  0
CIRCLE
  5
210
330
22
100
AcDbEntity
  8
0
  6
Continuous
 62
     7
100
AcDbCircle
 10
-364.2876281738281
 20
213.3679351806641
 30
0.0
 40
3.5
  0
TEXT
  5
211
330
22
100
AcDbEntity
  8
0
  6
Continuous
 62
     7
100
AcDbText
 10
-313.029839515686
 20
70.71831512451172
 30
0.0
 40
7.0
  1
ＤＬ－ＵＰ－４０Ｚ
 41
0.8448610808647003
100
AcDbText
  0
DIMENSION
  5
212
330
22
100
AcDbEntity
  8
0
  6
Continuous
 62
     7
100
AcDbDimension
  2
*D1
 10
-204.7929534912109
 20
313.6787719726563
 30
0.0
 11
-176.2917022705078
 21
313.6787719726563
 31
0.0
 71
     5
 42
-1.0
  3
DIMSTYLE1
100
AcDbAlignedDimension
 13
-147.7904510498047
 23
290.3679504394531
 33
0.0
 14
-204.7929534912109
 24
263.8679504394531
 34
0.0
100
AcDbRotatedDimension
  0
DIMENSION
  5
213
330
22
100
AcDbEntity
  8
0
  6
Continuous
 62
     7
100
AcDbDimension
  2
*D2
 10
-144.7904510498046
 20
313.6787719726563
 30
0.0
 11
-138.8613586425781
 21
313.6787719726563
 31
0.0
 71
     5
 42
-1.0
  3
DIMSTYLE2
100
AcDbAlignedDimension
 13
-147.7904510498047
 23
315.9647827148438
 33
0.0
 14
-144.7904510498046
 24
290.3679504394531
 34
0.0
100
AcDbRotatedDimension
  0
DIMENSION
  5
214
330
22
100
AcDbEntity
  8
0
  6
Continuous
 62
     7
100
AcDbDimension
  2
*D3
 10
-214.7929534912109
 20
313.6787719726563
 30
0.0
 11
-209.7929534912109
 21
313.6787719726563
 31
0.0
 71
     5
 42
-1.0
  3
DIMSTYLE3
100
AcDbAlignedDimension
 13
-204.7929534912109
 23
315.9647827148438
 33
0.0
 14
-214.7929534912109
 24
252.3679351806641
 34
0.0
100
AcDbRotatedDimension
  0
DIMENSION
  5
215
330
22
100
AcDbEntity
  8
0
  6
Continuous
 62
     7
100
AcDbDimension
  2
*D4
 10
-169.7929534912109
 20
301.6436157226563
 30
0.0
 11
-158.7917022705078
 21
301.6436157226563
 31
0.0
 71
     5
 42
-1.0
  3
DIMSTYLE4
100
AcDbAlignedDimension
 13
-147.7904510498047
 23
315.9647827148438
 33
0.0
 14
-169.7929534912109
 24
241.3679351806641
 34
0.0
100
AcDbRotatedDimension
  0
DIMENSION
  5
216
330
22
100
AcDbEntity
  8
0
  6
Continuous
 62
     7
100
AcDbDimension
  2
*D5
 10
-154.7929534912109
 20
218.7983551025391
 30
0.0
 11
-184.7929534912109
 21
218.7983551025391
 31
0.0
 71
     5
 42
-1.0
  3
DIMSTYLE5
100
AcDbAlignedDimension
 13
-214.7929534912109
 23
221.5778198242188
 33
0.0
 14
-154.7929534912109
 24
223.2429351806641
 34
0.0
100
AcDbRotatedDimension
  0
DIMENSION
  5
217
330
22
100
AcDbEntity
  8
0
  6
Continuous
 62
     7
100
AcDbDimension
  2
*D6
 10
-423.0249861669496
 20
142.6064589550771
 30
0.0
 11
-353.6268920898438
 21
304.3484802246094
 31
0.0
 70
     3
 71
     5
 42
-1.0
  3
DIMSTYLE6
100
AcDbDiametricDimension
 15
-362.3022233057067
 25
284.1294114062511
 35
0.0
 40
0.0
  0
DIMENSION
  5
218
330
22
100
AcDbEntity
  8
0
  6
Continuous
 62
     7
100
AcDbDimension
  2
*D7
 10
-423.708293632944
 20
173.4409712644653
 30
0.0
 11
-332.6747436523438
 21
290.989990234375
 31
0.0
 70
     3
 71
     5
 42
-1.0
  3
DIMSTYLE7
100
AcDbDiametricDimension
 15
-361.8669627147123
 25
253.2948990968628
 35
0.0
 40
0.0
  0
DIMENSION
  5
219
330
22
100
AcDbEntity
  8
0
  6
Continuous
 62
     7
100
AcDbDimension
  2
*D8
 10
-423.2278733203495
 20
195.1020797279435
 30
0.0
 11
-310.6922607421875
 21
262.6297607421875
 31
0.0
 70
     3
 71
     5
 42
-1.0
  3
DIMSTYLE8
100
AcDbDiametricDimension
 15
-362.3473830273068
 25
231.6337906333847
 35
0.0
 40
0.0
  0
DIMENSION
  5
21A
330
22
100
AcDbEntity
  8
0
  6
Continuous
 62
     7
100
AcDbDimension
  2
*D9
 10
-341.7772569521492
 20
169.7837682253626
 30
0.0
 11
-465.3899536132812
 21
275.6580810546875
 31
0.0
 70
     3
 71
     5
 42
-1.0
  3
DIMSTYLE9
100
AcDbDiametricDimension
 15
-443.5499525205071
 25
256.9521021359654
 35
0.0
 40
0.0
  0
INSERT
  5
21B
330
22
100
AcDbEntity
  8
0
  6
Continuous
 62
     7
100
AcDbBlockReference
  2
KOZU0001
 10
-394.2006530761719
 20
285.1258239746094
 30
0.0
  0
DIMENSION
  5
21C
330
22
100
AcDbEntity
  8
0
  6
Continuous
 62
     7
100
AcDbDimension
  2
*D10
 10
-85.67948913574218
 20
241.3679351806641
 30
0.0
 11
-85.67948913574218
 21
213.3679351806641
 31
0.0
 71
     5
 42
-1.0
  3
DIMSTYLE10
100
AcDbAlignedDimension
 13
-115.7929534912109
 23
185.3679351806641
 33
0.0
 14
-115.7929534912109
 24
241.3679351806641
 34
0.0
 50
90.0
100
AcDbRotatedDimension
  0
DIMENSION
  5
21D
330
22
100
AcDbEntity
  8
0
  6
Continuous
 62
     7
100
AcDbDimension
  2
*D11
 10
-115.7929534912109
 20
115.686393737793
 30
0.0
 11
-142.7929534912109
 21
115.686393737793
 31
0.0
 71
     5
 42
-1.0
  3
DIMSTYLE11
100
AcDbAlignedDimension
 13
-169.7929534912109
 23
185.3679351806641
 33
0.0
 14
-115.7929534912109
 24
185.3679351806641
 34
0.0
100
AcDbRotatedDimension
  0
INSERT
  5
21E
330
22
100
AcDbEntity
  8
0
  6
Continuous
 62
     7
100
AcDbBlockReference
  2
KOZU0002
 10
-122.4840850830078
 20
237.0588226318359
 30
0.0
  0
ENDSEC
  0
SECTION
  2
OBJECTS
  0
DICTIONARY
  5
C
330
0
100
AcDbDictionary
281
     1
  3
ACAD_COLOR
350
1B
  3
ACAD_GROUP
350
D
  3
ACAD_LAYOUT
350
19
  3
ACAD_MATERIAL
350
1A
  3
ACAD_MLINESTYLE
350
16
  3
ACAD_PLOTSETTINGS
350
18
  3
ACAD_PLOTSTYLENAME
350
E
  3
ACAD_TABLESTYLE
350
1C
  3
AcDbVariableDictionary
350
22A
  0
DICTIONARY
  5
1B
102
{ACAD_REACTORS
330
C
102
}
330
C
100
AcDbDictionary
281
     1
  0
DICTIONARY
  5
D
102
{ACAD_REACTORS
330
C
102
}
330
C
100
AcDbDictionary
281
     1
  0
DICTIONARY
  5
19
102
{ACAD_REACTORS
330
C
102
}
330
C
100
AcDbDictionary
281
     1
  3
Model
350
25
  3
レイアウト1
350
21
  0
DICTIONARY
  5
1A
102
{ACAD_REACTORS
330
C
102
}
330
C
100
AcDbDictionary
281
     1
  0
DICTIONARY
  5
16
102
{ACAD_REACTORS
330
C
102
}
330
C
100
AcDbDictionary
281
     1
  3
Standard
350
17
  0
DICTIONARY
  5
18
102
{ACAD_REACTORS
330
C
102
}
330
C
100
AcDbDictionary
281
     1
  0
ACDBDICTIONARYWDFLT
  5
E
102
{ACAD_REACTORS
330
C
102
}
330
C
100
AcDbDictionary
281
     1
  3
Normal
350
F
100
AcDbDictionaryWithDefault
340
F
  0
DICTIONARY
  5
1C
102
{ACAD_REACTORS
330
C
102
}
330
C
100
AcDbDictionary
281
     1
  3
Standard
350
1D
  0
DICTIONARY
  5
22A
102
{ACAD_REACTORS
330
C
102
}
330
C
100
AcDbDictionary
281
     1
  3
CTABLESTYLE
350
22B
  0
LAYOUT
  5
25
102
{ACAD_REACTORS
330
19
102
}
330
19
100
AcDbPlotSettings
  1

  2
PDF reDirect v2
  4
User66
  6

 40
3.174999952316284
 41
3.174999952316284
 42
3.17498779296875
 43
3.17498779296875
 44
420.0
 45
594.0
 46
0.0
 47
0.0
 48
0.0
 49
0.0
140
0.0
141
0.0
142
1.0
143
1.0
 70
 11952
 72
     1
 73
     1
 74
     2
  7
C:\Users\ck\AppData\Roaming\Autodesk\AutoCAD 2005\R16.1\jpn\Plot Styles\black.ctb
 75
    16
147
1.0
 76
     0
 77
     2
 78
   300
148
592.0
149
0.0
100
AcDbLayout
  1
Model
 70
     1
 71
     0
 10
0.0
 20
0.0
 11
12.0
 21
9.0
 12
0.0
 22
0.0
 32
0.0
 14
0.0
 24
0.0
 34
0.0
 15
0.0
 25
0.0
 35
0.0
146
0.0
 13
0.0
 23
0.0
 33
0.0
 16
1.0
 26
0.0
 36
0.0
 17
0.0
 27
1.0
 37
0.0
 76
     0
330
22
1001
ACAD_PSEXT
1000
PDF reDirect v2
1000
PDF reDirect Pro
1000
PDF_REDIRECT_PORT:
1000
PDF reDirect provided by EXP Systems
1070
     0
  0
LAYOUT
  5
21
102
{ACAD_REACTORS
330
19
102
}
330
19
100
AcDbPlotSettings
  1

  2
PDF reDirect v2
  4

  6

 40
0.0
 41
0.0
 42
0.0
 43
0.0
 44
0.0
 45
0.0
 46
0.0
 47
0.0
 48
0.0
 49
0.0
140
0.0
141
0.0
142
1.0
143
1.0
 70
   688
 72
     0
 73
     0
 74
     5
  7
C:\Users\ck\AppData\Roaming\Autodesk\AutoCAD 2005\R16.1\jpn\Plot Styles\black.ctb
 75
    16
147
1.0
 76
     0
 77
     2
 78
   300
148
0.0
149
0.0
100
AcDbLayout
  1
レイアウト1
 70
     1
 71
     1
 10
-592.0
 20
0.0
 11
0.0
 21
418.0
 12
0.0
 22
0.0
 32
0.0
 14
1.000000000000000E+20
 24
1.000000000000000E+20
 34
1.000000000000000E+20
 15
-1.000000000000000E+20
 25
-1.000000000000000E+20
 35
-1.000000000000000E+20
146
0.0
 13
0.0
 23
0.0
 33
0.0
 16
1.0
 26
0.0
 36
0.0
 17
0.0
 27
1.0
 37
0.0
 76
     0
330
1E
  0
MLINESTYLE
  5
17
102
{ACAD_REACTORS
330
16
102
}
330
16
100
AcDbMlineStyle
  2
STANDARD
 70
     0
  3

 62
   256
 51
90.0
 52
90.0
 71
     2
 49
0.5
 62
   256
  6
BYLAYER
 49
-0.5
 62
   256
  6
BYLAYER
  0
ACDBPLACEHOLDER
  5
F
102
{ACAD_REACTORS
330
E
102
}
330
E
  0
TABLESTYLE
  5
1D
102
{ACAD_REACTORS
330
1C
102
}
330
1C
100
AcDbTableStyle
  3
Standard
 70
     0
 71
     0
 40
0.06
 41
0.06
280
     0
281
     0
  7
STANDARD
140
0.18
170
     2
 62
     0
 63
     7
283
     0
274
    -2
284
     1
 64
     0
275
    -2
285
     1
 65
     0
276
    -2
286
     1
 66
     0
277
    -2
287
     1
 67
     0
278
    -2
288
     1
 68
     0
279
    -2
289
     1
 69
     0
  7
STANDARD
140
0.25
170
     5
 62
     0
 63
     7
283
     0
274
    -2
284
     1
 64
     0
275
    -2
285
     1
 65
     0
276
    -2
286
     1
 66
     0
277
    -2
287
     1
 67
     0
278
    -2
288
     1
 68
     0
279
    -2
289
     1
 69
     0
  7
STANDARD
140
0.18
170
     5
 62
     0
 63
     7
283
     0
274
    -2
284
     1
 64
     0
275
    -2
285
     1
 65
     0
276
    -2
286
     1
 66
     0
277
    -2
287
     1
 67
     0
278
    -2
288
     1
 68
     0
279
    -2
289
     1
 69
     0
  0
DICTIONARYVAR
  5
22B
102
{ACAD_REACTORS
330
22A
102
}
330
22A
100
DictionaryVariables
280
     0
  1
STANDARD
  0
ENDSEC
  0
EOF
