  0
SECTION
  2
HEADER
  9
$ACADVER
  1
AC1018
  9
$ACADMAINTVER
 70
    39
  9
$DWGCODEPAGE
  3
ANSI_932
  9
$INSBASE
 10
0.0
 20
0.0
 30
0.0
  9
$EXTMIN
 10
-520.0234360378508
 20
69.41366682552462
 30
-0.0015258207003583
  9
$EXTMAX
 10
-48.5805650844477
 20
355.5066537325115
 30
0.0000000349246037
  9
$LIMMIN
 10
-592.0
 20
0.0
  9
$LIMMAX
 10
0.0
 20
418.0
  9
$ORTHOMODE
 70
     0
  9
$REGENMODE
 70
     1
  9
$FILLMODE
 70
     1
  9
$QTEXTMODE
 70
     0
  9
$MIRRTEXT
 70
     0
  9
$LTSCALE
 40
1.0
  9
$ATTMODE
 70
     1
  9
$TEXTSIZE
 40
0.2
  9
$TRACEWID
 40
0.05
  9
$TEXTSTYLE
  7
STANDARD
  9
$CLAYER
  8
0
  9
$CELTYPE
  6
CONTINUOUS
  9
$CECOLOR
 62
   256
  9
$CELTSCALE
 40
1.0
  9
$DISPSILH
 70
     0
  9
$DIMSCALE
 40
1.0
  9
$DIMASZ
 40
1.0
  9
$DIMEXO
 40
2.54
  9
$DIMDLI
 40
0.38
  9
$DIMRND
 40
0.0
  9
$DIMDLE
 40
0.0
  9
$DIMEXE
 40
2.54
  9
$DIMTP
 40
0.0
  9
$DIMTM
 40
0.0
  9
$DIMTXT
 40
3.0
  9
$DIMCEN
 40
0.09
  9
$DIMTSZ
 40
0.0
  9
$DIMTOL
 70
     0
  9
$DIMLIM
 70
     0
  9
$DIMTIH
 70
     0
  9
$DIMTOH
 70
     0
  9
$DIMSE1
 70
     0
  9
$DIMSE2
 70
     0
  9
$DIMTAD
 70
     1
  9
$DIMZIN
 70
     0
  9
$DIMBLK
  1

  9
$DIMASO
 70
     1
  9
$DIMSHO
 70
     0
  9
$DIMPOST
  1

  9
$DIMAPOST
  1

  9
$DIMALT
 70
     0
  9
$DIMALTD
 70
     2
  9
$DIMALTF
 40
25.4
  9
$DIMLFAC
 40
1.0
  9
$DIMTOFL
 70
     0
  9
$DIMTVP
 40
1.0
  9
$DIMTIX
 70
     0
  9
$DIMSOXD
 70
     0
  9
$DIMSAH
 70
     1
  9
$DIMBLK1
  1

  9
$DIMBLK2
  1

  9
$DIMSTYLE
  2
DIMSTYLE1
  9
$DIMCLRD
 70
     0
  9
$DIMCLRE
 70
     0
  9
$DIMCLRT
 70
     0
  9
$DIMTFAC
 40
1.0
  9
$DIMGAP
 40
1.5
  9
$DIMJUST
 70
     0
  9
$DIMSD1
 70
     0
  9
$DIMSD2
 70
     0
  9
$DIMTOLJ
 70
     1
  9
$DIMTZIN
 70
     0
  9
$DIMALTZ
 70
     0
  9
$DIMALTTZ
 70
     0
  9
$DIMUPT
 70
     0
  9
$DIMDEC
 70
     4
  9
$DIMTDEC
 70
     4
  9
$DIMALTU
 70
     2
  9
$DIMALTTD
 70
     2
  9
$DIMTXSTY
  7
STANDARD
  9
$DIMAUNIT
 70
     0
  9
$DIMADEC
 70
     0
  9
$DIMALTRND
 40
0.0
  9
$DIMAZIN
 70
     0
  9
$DIMDSEP
 70
    46
  9
$DIMATFIT
 70
     3
  9
$DIMFRAC
 70
     0
  9
$DIMLDRBLK
  1

  9
$DIMLUNIT
 70
     2
  9
$DIMLWD
 70
    -2
  9
$DIMLWE
 70
    -2
  9
$DIMTMOVE
 70
     0
  9
$LUNITS
 70
     2
  9
$LUPREC
 70
     4
  9
$SKETCHINC
 40
0.1
  9
$FILLETRAD
 40
0.0
  9
$AUNITS
 70
     0
  9
$AUPREC
 70
     0
  9
$MENU
  1
.
  9
$ELEVATION
 40
0.0
  9
$PELEVATION
 40
0.0
  9
$THICKNESS
 40
0.0
  9
$LIMCHECK
 70
     0
  9
$CHAMFERA
 40
0.0
  9
$CHAMFERB
 40
0.0
  9
$CHAMFERC
 40
0.0
  9
$CHAMFERD
 40
0.0
  9
$SKPOLY
 70
     0
  9
$TDCREATE
 40
2457843.690267558
  9
$TDUCREATE
 40
2457843.315267558
  9
$TDUPDATE
 40
2457843.690833680
  9
$TDUUPDATE
 40
2457843.315833680
  9
$TDINDWG
 40
0.0005673958
  9
$TDUSRTIMER
 40
0.0005673958
  9
$USRTIMER
 70
     1
  9
$ANGBASE
 50
0.0
  9
$ANGDIR
 70
     0
  9
$PDMODE
 70
     0
  9
$PDSIZE
 40
0.0
  9
$PLINEWID
 40
0.0
  9
$SPLFRAME
 70
     0
  9
$SPLINETYPE
 70
     6
  9
$SPLINESEGS
 70
     8
  9
$HANDSEED
  5
27F
  9
$SURFTAB1
 70
     6
  9
$SURFTAB2
 70
     6
  9
$SURFTYPE
 70
     6
  9
$SURFU
 70
     6
  9
$SURFV
 70
     6
  9
$UCSBASE
  2

  9
$UCSNAME
  2

  9
$UCSORG
 10
0.0
 20
0.0
 30
0.0
  9
$UCSXDIR
 10
1.0
 20
0.0
 30
0.0
  9
$UCSYDIR
 10
0.0
 20
1.0
 30
0.0
  9
$UCSORTHOREF
  2

  9
$UCSORTHOVIEW
 70
     0
  9
$UCSORGTOP
 10
0.0
 20
0.0
 30
0.0
  9
$UCSORGBOTTOM
 10
0.0
 20
0.0
 30
0.0
  9
$UCSORGLEFT
 10
0.0
 20
0.0
 30
0.0
  9
$UCSORGRIGHT
 10
0.0
 20
0.0
 30
0.0
  9
$UCSORGFRONT
 10
0.0
 20
0.0
 30
0.0
  9
$UCSORGBACK
 10
0.0
 20
0.0
 30
0.0
  9
$PUCSBASE
  2

  9
$PUCSNAME
  2

  9
$PUCSORG
 10
0.0
 20
0.0
 30
0.0
  9
$PUCSXDIR
 10
1.0
 20
0.0
 30
0.0
  9
$PUCSYDIR
 10
0.0
 20
1.0
 30
0.0
  9
$PUCSORTHOREF
  2

  9
$PUCSORTHOVIEW
 70
     0
  9
$PUCSORGTOP
 10
0.0
 20
0.0
 30
0.0
  9
$PUCSORGBOTTOM
 10
0.0
 20
0.0
 30
0.0
  9
$PUCSORGLEFT
 10
0.0
 20
0.0
 30
0.0
  9
$PUCSORGRIGHT
 10
0.0
 20
0.0
 30
0.0
  9
$PUCSORGFRONT
 10
0.0
 20
0.0
 30
0.0
  9
$PUCSORGBACK
 10
0.0
 20
0.0
 30
0.0
  9
$USERI1
 70
     0
  9
$USERI2
 70
     0
  9
$USERI3
 70
     0
  9
$USERI4
 70
     0
  9
$USERI5
 70
     0
  9
$USERR1
 40
0.0
  9
$USERR2
 40
0.0
  9
$USERR3
 40
0.0
  9
$USERR4
 40
0.0
  9
$USERR5
 40
0.0
  9
$WORLDVIEW
 70
     1
  9
$SHADEDGE
 70
     3
  9
$SHADEDIF
 70
    70
  9
$TILEMODE
 70
     1
  9
$MAXACTVP
 70
    64
  9
$PINSBASE
 10
0.0
 20
0.0
 30
0.0
  9
$PLIMCHECK
 70
     0
  9
$PEXTMIN
 10
1.000000000000000E+20
 20
1.000000000000000E+20
 30
1.000000000000000E+20
  9
$PEXTMAX
 10
-1.000000000000000E+20
 20
-1.000000000000000E+20
 30
-1.000000000000000E+20
  9
$PLIMMIN
 10
-592.0
 20
0.0
  9
$PLIMMAX
 10
0.0
 20
418.0
  9
$UNITMODE
 70
     0
  9
$VISRETAIN
 70
     1
  9
$PLINEGEN
 70
     0
  9
$PSLTSCALE
 70
     1
  9
$TREEDEPTH
 70
  3020
  9
$CMLSTYLE
  2
Standard
  9
$CMLJUST
 70
     0
  9
$CMLSCALE
 40
1.0
  9
$PROXYGRAPHICS
 70
     1
  9
$MEASUREMENT
 70
     0
  9
$CELWEIGHT
370
    -1
  9
$ENDCAPS
280
     0
  9
$JOINSTYLE
280
     0
  9
$LWDISPLAY
290
     0
  9
$INSUNITS
 70
     0
  9
$HYPERLINKBASE
  1

  9
$STYLESHEET
  1

  9
$XEDIT
290
     1
  9
$CEPSNTYPE
380
     0
  9
$PSTYLEMODE
290
     1
  9
$FINGERPRINTGUID
  2
{09E00B60-0CDA-4ACC-B2E4-EAA8509723C0}
  9
$VERSIONGUID
  2
{83F6CCA5-ED97-451D-8EDD-D977858DC22B}
  9
$EXTNAMES
290
     1
  9
$PSVPSCALE
 40
0.0
  9
$OLESTARTUP
290
     0
  9
$SORTENTS
280
   127
  9
$INDEXCTL
280
     0
  9
$HIDETEXT
280
     0
  9
$XCLIPFRAME
290
     0
  9
$HALOGAP
280
     0
  9
$OBSCOLOR
 70
   257
  9
$OBSLTYPE
280
     0
  9
$INTERSECTIONDISPLAY
280
     0
  9
$INTERSECTIONCOLOR
 70
   257
  9
$DIMASSOC
280
     1
  9
$PROJECTNAME
  1

  0
ENDSEC
  0
SECTION
  2
CLASSES
  0
CLASS
  1
ACDBDICTIONARYWDFLT
  2
AcDbDictionaryWithDefault
  3
ObjectDBX Classes
 90
        0
 91
        1
280
     0
281
     0
  0
CLASS
  1
TABLESTYLE
  2
AcDbTableStyle
  3
ObjectDBX Classes
 90
     2047
 91
        1
280
     0
281
     0
  0
CLASS
  1
DICTIONARYVAR
  2
AcDbDictionaryVar
  3
ObjectDBX Classes
 90
        0
 91
        1
280
     0
281
     0
  0
ENDSEC
  0
SECTION
  2
TABLES
  0
TABLE
  2
VPORT
  5
8
330
0
100
AcDbSymbolTable
 70
     2
  0
VPORT
  5
27E
330
8
100
AcDbSymbolTableRecord
100
AcDbViewportTableRecord
  2
*Active
 70
     0
 10
0.0
 20
0.0
 11
1.0
 21
1.0
 12
-296.0
 22
209.0
 13
0.0
 23
0.0
 14
1.0
 24
1.0
 15
0.0
 25
0.0
 16
0.0
 26
0.0
 36
1.0
 17
0.0
 27
0.0
 37
0.0
 40
421.1155279503105
 41
1.639303482587064
 42
50.0
 43
0.0
 44
0.0
 50
0.0
 51
0.0
 71
     0
 72
   100
 73
     1
 74
     1
 75
     0
 76
     0
 77
     0
 78
     0
281
     0
 65
     1
110
0.0
120
0.0
130
0.0
111
1.0
121
0.0
131
0.0
112
0.0
122
1.0
132
0.0
 79
     0
146
0.0
  0
ENDTAB
  0
TABLE
  2
LTYPE
  5
5
330
0
100
AcDbSymbolTable
 70
     6
  0
LTYPE
  5
13
330
5
100
AcDbSymbolTableRecord
100
AcDbLinetypeTableRecord
  2
ByBlock
 70
     0
  3

 72
    65
 73
     0
 40
0.0
  0
LTYPE
  5
14
330
5
100
AcDbSymbolTableRecord
100
AcDbLinetypeTableRecord
  2
ByLayer
 70
     0
  3

 72
    65
 73
     0
 40
0.0
  0
LTYPE
  5
15
330
5
100
AcDbSymbolTableRecord
100
AcDbLinetypeTableRecord
  2
CONTINUOUS
 70
     0
  3
Solid line
 72
    65
 73
     0
 40
0.0
  0
LTYPE
  5
26
330
5
100
AcDbSymbolTableRecord
100
AcDbLinetypeTableRecord
  2
DASHED
 70
     0
  3
__ __ __ __ __ __ __ __ __ __ __ __ __ __ __
 72
    65
 73
     2
 40
3.5
 49
2.0
 74
     0
 49
-1.5
 74
     0
  0
LTYPE
  5
27
330
5
100
AcDbSymbolTableRecord
100
AcDbLinetypeTableRecord
  2
CENTER
 70
     0
  3
____ _ ____ _ ____ _ ____ _ ____ _ ____ _ ____
 72
    65
 73
     4
 40
17.5
 49
13.0
 74
     0
 49
-1.5
 74
     0
 49
1.5
 74
     0
 49
-1.5
 74
     0
  0
LTYPE
  5
28
330
5
100
AcDbSymbolTableRecord
100
AcDbLinetypeTableRecord
  2
PHANTOM
 70
     0
  3
_____ _ _ _____ _ _ _____ _ _ _____ _ _ ____  
 72
    65
 73
     6
 40
15.5
 49
8.0
 74
     0
 49
-1.5
 74
     0
 49
1.5
 74
     0
 49
-1.5
 74
     0
 49
1.5
 74
     0
 49
-1.5
 74
     0
  0
LTYPE
  5
29
330
5
100
AcDbSymbolTableRecord
100
AcDbLinetypeTableRecord
  2
DOT
 70
     0
  3
. . . . . . . . . . . . . . . . . . . . . . . .
 72
    65
 73
     2
 40
0.25
 49
0.0
 74
     0
 49
-0.25
 74
     0
  0
LTYPE
  5
2A
330
5
100
AcDbSymbolTableRecord
100
AcDbLinetypeTableRecord
  2
HIDDEN
 70
     0
  3
__ __ __ __ __ __ __ __ __ __ __ __ __ __ __
 72
    65
 73
     2
 40
3.5
 49
2.0
 74
     0
 49
-1.5
 74
     0
  0
ENDTAB
  0
TABLE
  2
LAYER
  5
2
330
0
100
AcDbSymbolTable
 70
     2
  0
LAYER
  5
10
330
2
100
AcDbSymbolTableRecord
100
AcDbLayerTableRecord
  2
0
 70
     0
 62
     7
  6
CONTINUOUS
370
    -3
390
F
  0
LAYER
  5
2B
330
2
100
AcDbSymbolTableRecord
100
AcDbLayerTableRecord
  2
DEFPOINTS
 70
     0
 62
     7
  6
CONTINUOUS
290
     0
370
    -3
390
F
  0
ENDTAB
  0
TABLE
  2
STYLE
  5
3
330
0
100
AcDbSymbolTable
 70
     2
  0
STYLE
  5
11
330
3
100
AcDbSymbolTableRecord
100
AcDbTextStyleTableRecord
  2
STANDARD
 70
     0
 40
0.0
 41
1.0
 50
0.0
 71
     0
 42
0.2
  3

  4

1001
ACAD
1000
MS Gothic
1071
    32817
  0
ENDTAB
  0
TABLE
  2
VIEW
  5
6
330
0
100
AcDbSymbolTable
 70
     0
  0
ENDTAB
  0
TABLE
  2
UCS
  5
7
330
0
100
AcDbSymbolTable
 70
     0
  0
ENDTAB
  0
TABLE
  2
APPID
  5
9
330
0
100
AcDbSymbolTable
 70
     2
  0
APPID
  5
12
330
9
100
AcDbSymbolTableRecord
100
AcDbRegAppTableRecord
  2
ACAD
 70
     0
  0
APPID
  5
273
330
9
100
AcDbSymbolTableRecord
100
AcDbRegAppTableRecord
  2
ACAD_PSEXT
 70
     0
  0
ENDTAB
  0
TABLE
  2
DIMSTYLE
  5
A
330
0
100
AcDbSymbolTable
 70
    12
100
AcDbDimStyleTable
 71
     1
340
2C
  0
DIMSTYLE
105
2C
102
{ACAD_REACTORS
330
264
102
}
330
A
100
AcDbSymbolTableRecord
100
AcDbDimStyleTableRecord
  2
DIMSTYLE1
 70
     0
 41
1.0
 42
2.54
 44
2.54
 73
     0
 74
     0
 77
     1
140
3.0
145
1.0
147
1.5
172
     1
173
     1
279
     2
340
11
  0
DIMSTYLE
105
2D
102
{ACAD_REACTORS
330
265
102
}
330
A
100
AcDbSymbolTableRecord
100
AcDbDimStyleTableRecord
  2
DIMSTYLE2
 70
     0
 41
1.0
 42
2.54
 44
2.54
 73
     0
 74
     0
 75
     1
 76
     1
 77
     1
140
3.0
145
1.0
147
1.5
172
     1
173
     1
279
     2
340
11
  0
DIMSTYLE
105
2E
102
{ACAD_REACTORS
330
267
102
}
330
A
100
AcDbSymbolTableRecord
100
AcDbDimStyleTableRecord
  2
DIMSTYLE3
 70
     0
 41
1.0
 42
2.54
 44
2.54
 73
     0
 74
     0
 75
     1
 76
     1
 77
     1
140
3.0
145
1.0
147
1.5
172
     1
173
     1
279
     2
340
11
  0
DIMSTYLE
105
2F
102
{ACAD_REACTORS
330
268
102
}
330
A
100
AcDbSymbolTableRecord
100
AcDbDimStyleTableRecord
  2
DIMSTYLE4
 70
     0
 41
1.0
 42
2.54
 44
2.54
 73
     0
 74
     0
 75
     1
 76
     1
 77
     1
140
3.0
145
1.0
147
1.5
172
     1
173
     1
279
     2
340
11
  0
DIMSTYLE
105
30
102
{ACAD_REACTORS
330
269
102
}
330
A
100
AcDbSymbolTableRecord
100
AcDbDimStyleTableRecord
  2
DIMSTYLE5
 70
     0
 41
1.0
 42
2.54
 44
2.54
 73
     0
 74
     0
 75
     1
 76
     1
 77
     1
140
3.0
145
1.0
147
1.5
172
     1
173
     1
279
     2
340
11
  0
DIMSTYLE
105
31
102
{ACAD_REACTORS
330
26A
102
}
330
A
100
AcDbSymbolTableRecord
100
AcDbDimStyleTableRecord
  2
DIMSTYLE6
 70
     0
 41
1.0
 42
2.54
 44
2.54
 73
     0
 74
     0
 77
     1
140
3.0
145
1.0
147
1.5
172
     1
173
     1
279
     2
340
11
  0
DIMSTYLE
105
32
102
{ACAD_REACTORS
330
26B
102
}
330
A
100
AcDbSymbolTableRecord
100
AcDbDimStyleTableRecord
  2
DIMSTYLE7
 70
     0
 41
1.0
 42
2.54
 44
2.54
 73
     0
 74
     0
 77
     1
140
3.0
145
1.0
147
1.5
172
     1
173
     1
279
     2
340
11
  0
DIMSTYLE
105
33
102
{ACAD_REACTORS
330
26D
102
}
330
A
100
AcDbSymbolTableRecord
100
AcDbDimStyleTableRecord
  2
DIMSTYLE8
 70
     0
 41
1.0
 42
2.54
 44
2.54
 73
     0
 74
     0
 77
     1
140
3.0
145
1.0
147
1.5
172
     1
173
     1
279
     2
340
11
  0
DIMSTYLE
105
34
102
{ACAD_REACTORS
330
26E
102
}
330
A
100
AcDbSymbolTableRecord
100
AcDbDimStyleTableRecord
  2
DIMSTYLE9
 70
     0
 41
1.0
 42
2.54
 44
2.54
 73
     0
 74
     0
 77
     1
140
3.0
145
1.0
147
1.5
172
     1
173
     1
279
     2
340
11
  0
DIMSTYLE
105
35
102
{ACAD_REACTORS
330
26F
102
}
330
A
100
AcDbSymbolTableRecord
100
AcDbDimStyleTableRecord
  2
DIMSTYLE10
 70
     0
 41
1.0
 42
2.54
 44
2.54
 73
     0
 74
     0
 77
     1
140
3.0
145
1.0
147
1.5
172
     1
173
     1
279
     2
340
11
  0
DIMSTYLE
105
36
102
{ACAD_REACTORS
330
270
102
}
330
A
100
AcDbSymbolTableRecord
100
AcDbDimStyleTableRecord
  2
DIMSTYLE11
 70
     0
 41
1.0
 42
2.54
 44
2.54
 73
     0
 74
     0
 77
     1
140
3.0
145
1.0
147
1.5
172
     1
173
     1
279
     2
340
11
  0
ENDTAB
  0
TABLE
  2
BLOCK_RECORD
  5
1
330
0
100
AcDbSymbolTable
 70
    15
  0
BLOCK_RECORD
  5
22
330
1
100
AcDbSymbolTableRecord
100
AcDbBlockTableRecord
  2
*Model_Space
340
25
  0
BLOCK_RECORD
  5
1E
330
1
100
AcDbSymbolTableRecord
100
AcDbBlockTableRecord
  2
*Paper_Space
340
21
  0
BLOCK_RECORD
  5
3A
330
1
100
AcDbSymbolTableRecord
100
AcDbBlockTableRecord
  2
_OPEN30
340
0
102
{BLKREFS
331
44
331
46
331
52
331
53
331
5C
331
5D
331
66
331
67
331
70
331
71
331
79
331
7A
331
85
331
86
331
91
331
92
331
9D
331
9E
331
A8
331
A9
331
B3
331
B4
102
}
  0
BLOCK_RECORD
  5
40
330
1
100
AcDbSymbolTableRecord
100
AcDbBlockTableRecord
  2
*D1
340
0
  0
BLOCK_RECORD
  5
4E
330
1
100
AcDbSymbolTableRecord
100
AcDbBlockTableRecord
  2
*D2
340
0
  0
BLOCK_RECORD
  5
58
330
1
100
AcDbSymbolTableRecord
100
AcDbBlockTableRecord
  2
*D3
340
0
  0
BLOCK_RECORD
  5
62
330
1
100
AcDbSymbolTableRecord
100
AcDbBlockTableRecord
  2
*D4
340
0
  0
BLOCK_RECORD
  5
6C
330
1
100
AcDbSymbolTableRecord
100
AcDbBlockTableRecord
  2
*D5
340
0
  0
BLOCK_RECORD
  5
76
330
1
100
AcDbSymbolTableRecord
100
AcDbBlockTableRecord
  2
*D6
340
0
  0
BLOCK_RECORD
  5
82
330
1
100
AcDbSymbolTableRecord
100
AcDbBlockTableRecord
  2
*D7
340
0
  0
BLOCK_RECORD
  5
8E
330
1
100
AcDbSymbolTableRecord
100
AcDbBlockTableRecord
  2
*D8
340
0
  0
BLOCK_RECORD
  5
9A
330
1
100
AcDbSymbolTableRecord
100
AcDbBlockTableRecord
  2
*D9
340
0
  0
BLOCK_RECORD
  5
A5
330
1
100
AcDbSymbolTableRecord
100
AcDbBlockTableRecord
  2
*D10
340
0
  0
BLOCK_RECORD
  5
B0
330
1
100
AcDbSymbolTableRecord
100
AcDbBlockTableRecord
  2
*D11
340
0
  0
BLOCK_RECORD
  5
BA
330
1
100
AcDbSymbolTableRecord
100
AcDbBlockTableRecord
  2
KOZU0001
340
0
102
{BLKREFS
331
266
102
}
  0
BLOCK_RECORD
  5
C2
330
1
100
AcDbSymbolTableRecord
100
AcDbBlockTableRecord
  2
KOZU0002
340
0
102
{BLKREFS
331
26C
102
}
  0
ENDTAB
  0
ENDSEC
  0
SECTION
  2
BLOCKS
  0
BLOCK
  5
23
330
22
100
AcDbEntity
  8
0
100
AcDbBlockBegin
  2
*Model_Space
 70
     0
 10
0.0
 20
0.0
 30
0.0
  3
*Model_Space
  1

  0
ENDBLK
  5
24
330
22
100
AcDbEntity
  8
0
100
AcDbBlockEnd
  0
BLOCK
  5
1F
330
1E
100
AcDbEntity
 67
     1
  8
0
100
AcDbBlockBegin
  2
*Paper_Space
 70
     0
 10
0.0
 20
0.0
 30
0.0
  3
*Paper_Space
  1

  0
ENDBLK
  5
20
330
1E
100
AcDbEntity
 67
     1
  8
0
100
AcDbBlockEnd
  0
BLOCK
  5
3B
330
3A
100
AcDbEntity
  8
0
100
AcDbBlockBegin
  2
_OPEN30
 70
     0
 10
0.0
 20
0.0
 30
0.0
  3
_OPEN30
  1

  0
LINE
  5
3C
330
3A
100
AcDbEntity
  8
0
  6
ByBlock
 62
     0
100
AcDbLine
 10
0.0
 20
0.0
 30
0.0
 11
-2.999999999999993
 21
-1.000000000000017
 31
0.0
  0
LINE
  5
3D
330
3A
100
AcDbEntity
  8
0
  6
ByBlock
 62
     0
100
AcDbLine
 10
0.0
 20
0.0
 30
0.0
 11
-3.000000000000006
 21
0.9999999999999815
 31
0.0
  0
LINE
  5
3E
330
3A
100
AcDbEntity
  8
0
  6
ByBlock
 62
     0
100
AcDbLine
 10
0.0
 20
0.0
 30
0.0
 11
-3.0
 21
0.0
 31
0.0
  0
ENDBLK
  5
3F
330
3A
100
AcDbEntity
  8
0
100
AcDbBlockEnd
  0
BLOCK
  5
41
330
40
100
AcDbEntity
  8
0
100
AcDbBlockBegin
  2
*D1
 70
     1
 10
0.0
 20
0.0
 30
0.0
  3
*D1
  1

  0
LINE
  5
42
330
40
100
AcDbEntity
  8
0
  6
Continuous
 62
     7
100
AcDbLine
 10
-144.7904510498046
 20
351.023681640625
 30
0.0
 11
-137.7913513183594
 21
351.023681640625
 31
0.0
  0
LINE
  5
43
330
40
100
AcDbEntity
  8
0
  6
Continuous
 62
     7
100
AcDbLine
 10
-147.7904510498047
 20
351.023681640625
 30
0.0
 11
-144.7904510498046
 21
351.023681640625
 31
0.0
  0
INSERT
  5
44
330
40
100
AcDbEntity
  8
0
  6
Continuous
 62
     7
100
AcDbBlockReference
  2
_OPEN30
 10
-147.7904510498047
 20
351.023681640625
 30
0.0
 50
0.0000000000003562
  0
LINE
  5
45
330
40
100
AcDbEntity
  8
0
  6
Continuous
 62
     7
100
AcDbLine
 10
-150.7904510498047
 20
351.023681640625
 30
0.0
 11
-154.1404510498047
 21
351.0236816406248
 31
0.0
  0
INSERT
  5
46
330
40
100
AcDbEntity
  8
0
  6
Continuous
 62
     7
100
AcDbBlockReference
  2
_OPEN30
 10
-144.7904510498046
 20
351.023681640625
 30
0.0
 50
180.0
  0
LINE
  5
47
330
40
100
AcDbEntity
  8
0
  6
Continuous
 62
     7
100
AcDbLine
 10
-141.7904510498047
 20
351.023681640625
 30
0.0
 11
-138.4404510498047
 21
351.023681640625
 31
0.0
  0
LINE
  5
48
330
40
100
AcDbEntity
  8
0
  6
Continuous
 62
     7
100
AcDbLine
 10
-144.7904510498046
 20
326.9079504394532
 30
0.0
 11
-144.7904510498046
 21
353.3096923828125
 31
0.0
  0
TEXT
  5
49
330
40
100
AcDbEntity
  8
0
  6
Continuous
 62
     7
100
AcDbText
 10
-139.9313586950302
 20
351.773681640625
 30
0.0
 40
3.0
  1
3
100
AcDbText
  0
POINT
  5
4A
330
40
100
AcDbEntity
  8
DEFPOINTS
  6
Continuous
 62
     7
100
AcDbPoint
 10
-147.7904510498047
 20
315.9647827148438
 30
0.0
  0
POINT
  5
4B
330
40
100
AcDbEntity
  8
DEFPOINTS
  6
Continuous
 62
     7
100
AcDbPoint
 10
-144.7904510498046
 20
324.3679504394531
 30
0.0
  0
POINT
  5
4C
330
40
100
AcDbEntity
  8
DEFPOINTS
  6
Continuous
 62
     7
100
AcDbPoint
 10
-144.7904510498046
 20
351.023681640625
 30
0.0
  0
ENDBLK
  5
4D
330
40
100
AcDbEntity
  8
0
100
AcDbBlockEnd
  0
BLOCK
  5
4F
330
4E
100
AcDbEntity
  8
0
100
AcDbBlockBegin
  2
*D2
 70
     1
 10
0.0
 20
0.0
 30
0.0
  3
*D2
  1

  0
LINE
  5
50
330
4E
100
AcDbEntity
  8
0
  6
Continuous
 62
     7
100
AcDbLine
 10
-348.8959045410156
 20
315.374755859375
 30
0.0
 11
-333.3291320800781
 21
351.6553344726563
 31
0.0
  0
LINE
  5
51
330
4E
100
AcDbEntity
  8
0
  6
Continuous
 62
     7
100
AcDbLine
 10
-435.2483941870223
 20
114.1180704873931
 30
0.0
 11
-350.0788152856338
 21
312.6178151327241
 31
0.0
  0
INSERT
  5
52
330
4E
100
AcDbEntity
  8
0
  6
Continuous
 62
     7
100
AcDbBlockReference
  2
_OPEN30
 10
-436.4313049316406
 20
111.3611297607422
 30
0.0
 50
246.7774526954052
  0
INSERT
  5
53
330
4E
100
AcDbEntity
  8
0
  6
Continuous
 62
     7
100
AcDbBlockReference
  2
_OPEN30
 10
-348.8959045410156
 20
315.374755859375
 30
0.0
 50
66.77745269540446
  0
TEXT
  5
54
330
4E
100
AcDbEntity
  8
0
  6
Continuous
 62
     7
100
AcDbText
 10
-346.6855862713602
 20
322.4122798639023
 30
0.0
 40
3.0
  1
%%C２２２（防水皿外径）
 50
66.80000140353341
 41
0.8440126077968535
100
AcDbText
  0
POINT
  5
55
330
4E
100
AcDbEntity
  8
DEFPOINTS
  6
Continuous
 62
     7
100
AcDbPoint
 10
-436.4313049316406
 20
111.3611297607422
 30
0.0
  0
POINT
  5
56
330
4E
100
AcDbEntity
  8
DEFPOINTS
  6
Continuous
 62
     7
100
AcDbPoint
 10
-348.8959045410156
 20
315.374755859375
 30
0.0
  0
ENDBLK
  5
57
330
4E
100
AcDbEntity
  8
0
100
AcDbBlockEnd
  0
BLOCK
  5
59
330
58
100
AcDbEntity
  8
0
100
AcDbBlockBegin
  2
*D3
 70
     1
 10
0.0
 20
0.0
 30
0.0
  3
*D3
  1

  0
LINE
  5
5A
330
58
100
AcDbEntity
  8
0
  6
Continuous
 62
     7
100
AcDbLine
 10
-469.3728637695313
 20
279.0694580078125
 30
0.0
 11
-492.8959350585937
 21
299.2169799804688
 31
0.0
  0
LINE
  5
5B
330
58
100
AcDbEntity
  8
0
  6
Continuous
 62
     7
100
AcDbLine
 10
-318.2328385992232
 20
149.61795781254
 30
0.0
 11
-467.0943708734331
 21
277.1179278075773
 31
0.0
  0
INSERT
  5
5C
330
58
100
AcDbEntity
  8
0
  6
Continuous
 62
     7
100
AcDbBlockReference
  2
_OPEN30
 10
-315.954345703125
 20
147.6664276123047
 30
0.0
 50
319.4199302335614
  0
INSERT
  5
5D
330
58
100
AcDbEntity
  8
0
  6
Continuous
 62
     7
100
AcDbBlockReference
  2
_OPEN30
 10
-469.3728637695313
 20
279.0694580078125
 30
0.0
 50
139.4199302335607
  0
TEXT
  5
5E
330
58
100
AcDbEntity
  8
0
  6
Continuous
 62
     7
100
AcDbText
 10
-492.4059291268704
 20
299.7886786173167
 30
0.0
 40
3.0
  1
PCD202
 50
319.399999780894
 41
1.038787885145707
100
AcDbText
  0
POINT
  5
5F
330
58
100
AcDbEntity
  8
DEFPOINTS
  6
Continuous
 62
     7
100
AcDbPoint
 10
-315.954345703125
 20
147.6664276123047
 30
0.0
  0
POINT
  5
60
330
58
100
AcDbEntity
  8
DEFPOINTS
  6
Continuous
 62
     7
100
AcDbPoint
 10
-469.3728637695313
 20
279.0694580078125
 30
0.0
  0
ENDBLK
  5
61
330
58
100
AcDbEntity
  8
0
100
AcDbBlockEnd
  0
BLOCK
  5
63
330
62
100
AcDbEntity
  8
0
100
AcDbBlockBegin
  2
*D4
 70
     1
 10
0.0
 20
0.0
 30
0.0
  3
*D4
  1

  0
LINE
  5
64
330
62
100
AcDbEntity
  8
0
  6
Continuous
 62
     7
100
AcDbLine
 10
-343.3742370605469
 20
277.6004943847656
 30
0.0
 11
-300.6890869140625
 21
332.7185974121094
 31
0.0
  0
LINE
  5
65
330
62
100
AcDbEntity
  8
0
  6
Continuous
 62
     7
100
AcDbLine
 10
-440.1161013909773
 20
152.6804927469485
 30
0.0
 11
-345.2111080816788
 21
275.2285953878171
 31
0.0
  0
INSERT
  5
66
330
62
100
AcDbEntity
  8
0
  6
Continuous
 62
     7
100
AcDbBlockReference
  2
_OPEN30
 10
-441.9529724121093
 20
150.30859375
 30
0.0
 50
232.2447056351856
  0
INSERT
  5
67
330
62
100
AcDbEntity
  8
0
  6
Continuous
 62
     7
100
AcDbBlockReference
  2
_OPEN30
 10
-343.3742370605469
 20
277.6004943847656
 30
0.0
 50
52.24470563518496
  0
TEXT
  5
68
330
62
100
AcDbEntity
  8
0
  6
Continuous
 62
     7
100
AcDbText
 10
-320.9705972977011
 20
307.7750111472878
 30
0.0
 40
3.0
  1
%%C１６１（目皿部外径）
 50
52.20000076957841
 41
0.8440126077968535
100
AcDbText
  0
POINT
  5
69
330
62
100
AcDbEntity
  8
DEFPOINTS
  6
Continuous
 62
     7
100
AcDbPoint
 10
-441.9529724121093
 20
150.30859375
 30
0.0
  0
POINT
  5
6A
330
62
100
AcDbEntity
  8
DEFPOINTS
  6
Continuous
 62
     7
100
AcDbPoint
 10
-343.3742370605469
 20
277.6004943847656
 30
0.0
  0
ENDBLK
  5
6B
330
62
100
AcDbEntity
  8
0
100
AcDbBlockEnd
  0
BLOCK
  5
6D
330
6C
100
AcDbEntity
  8
0
100
AcDbBlockBegin
  2
*D5
 70
     1
 10
0.0
 20
0.0
 30
0.0
  3
*D5
  1

  0
LINE
  5
6E
330
6C
100
AcDbEntity
  8
0
  6
Continuous
 62
     7
100
AcDbLine
 10
-336.4992065429688
 20
247.6563262939453
 30
0.0
 11
-264.5044860839844
 21
290.8572082519531
 31
0.0
  0
LINE
  5
6F
330
6C
100
AcDbEntity
  8
0
  6
Continuous
 62
     7
100
AcDbLine
 10
-446.2555878243807
 20
181.7963399630708
 30
0.0
 11
-339.0716216482756
 21
246.1127329129057
 31
0.0
  0
INSERT
  5
70
330
6C
100
AcDbEntity
  8
0
  6
Continuous
 62
     7
100
AcDbBlockReference
  2
_OPEN30
 10
-448.8280029296874
 20
180.2527465820313
 30
0.0
 50
210.966120012394
  0
INSERT
  5
71
330
6C
100
AcDbEntity
  8
0
  6
Continuous
 62
     7
100
AcDbBlockReference
  2
_OPEN30
 10
-336.4992065429688
 20
247.6563262939453
 30
0.0
 50
30.96612001239327
  0
TEXT
  5
72
330
6C
100
AcDbEntity
  8
0
  6
Continuous
 62
     7
100
AcDbText
 10
-289.8730705710613
 20
276.4992443713606
 30
0.0
 40
3.0
  1
%%C１３１（目皿外径）
 50
30.99999858592387
 41
0.8443929326254473
100
AcDbText
  0
POINT
  5
73
330
6C
100
AcDbEntity
  8
DEFPOINTS
  6
Continuous
 62
     7
100
AcDbPoint
 10
-448.8280029296874
 20
180.2527465820313
 30
0.0
  0
POINT
  5
74
330
6C
100
AcDbEntity
  8
DEFPOINTS
  6
Continuous
 62
     7
100
AcDbPoint
 10
-336.4992065429688
 20
247.6563262939453
 30
0.0
  0
ENDBLK
  5
75
330
6C
100
AcDbEntity
  8
0
100
AcDbBlockEnd
  0
BLOCK
  5
77
330
76
100
AcDbEntity
  8
0
100
AcDbBlockBegin
  2
*D6
 70
     1
 10
0.0
 20
0.0
 30
0.0
  3
*D6
  1

  0
LINE
  5
78
330
76
100
AcDbEntity
  8
0
  6
Continuous
 62
     7
100
AcDbLine
 10
-182.7929534912109
 20
87.24235534667968
 30
0.0
 11
-95.79295349121094
 21
87.24235534667966
 31
0.0
  0
INSERT
  5
79
330
76
100
AcDbEntity
  8
0
  6
Continuous
 62
     7
100
AcDbBlockReference
  2
_OPEN30
 10
-185.7929534912109
 20
87.24235534667968
 30
0.0
 50
180.0000000000004
  0
INSERT
  5
7A
330
76
100
AcDbEntity
  8
0
  6
Continuous
 62
     7
100
AcDbBlockReference
  2
_OPEN30
 10
-92.79295349121094
 20
87.24235534667968
 30
0.0
  0
LINE
  5
7B
330
76
100
AcDbEntity
  8
0
  6
Continuous
 62
     7
100
AcDbLine
 10
-185.7929534912109
 20
148.3279351806641
 30
0.0
 11
-185.7929534912109
 21
84.95635223388672
 31
0.0
  0
LINE
  5
7C
330
76
100
AcDbEntity
  8
0
  6
Continuous
 62
     7
100
AcDbLine
 10
-92.79295349121092
 20
148.3279351806641
 30
0.0
 11
-92.79295349121094
 21
84.95635223388672
 31
0.0
  0
TEXT
  5
7D
330
76
100
AcDbEntity
  8
0
  6
Continuous
 62
     7
100
AcDbText
 10
-141.8629536032677
 20
87.99235534667969
 30
0.0
 40
3.0
  1
93
 41
1.028000020980834
100
AcDbText
  0
POINT
  5
7E
330
76
100
AcDbEntity
  8
DEFPOINTS
  6
Continuous
 62
     7
100
AcDbPoint
 10
-185.7929534912109
 20
150.8679351806641
 30
0.0
  0
POINT
  5
7F
330
76
100
AcDbEntity
  8
DEFPOINTS
  6
Continuous
 62
     7
100
AcDbPoint
 10
-92.79295349121094
 20
150.8679351806641
 30
0.0
  0
POINT
  5
80
330
76
100
AcDbEntity
  8
DEFPOINTS
  6
Continuous
 62
     7
100
AcDbPoint
 10
-92.79295349121094
 20
87.24235534667968
 30
0.0
  0
ENDBLK
  5
81
330
76
100
AcDbEntity
  8
0
100
AcDbBlockEnd
  0
BLOCK
  5
83
330
82
100
AcDbEntity
  8
0
100
AcDbBlockBegin
  2
*D7
 70
     1
 10
0.0
 20
0.0
 30
0.0
  3
*D7
  1

  0
LINE
  5
84
330
82
100
AcDbEntity
  8
0
  6
Continuous
 62
     7
100
AcDbLine
 10
-64.12288665771486
 20
153.8679351806641
 30
0.0
 11
-64.12288665771483
 21
272.8679504394531
 31
0.0
  0
INSERT
  5
85
330
82
100
AcDbEntity
  8
0
  6
Continuous
 62
     7
100
AcDbBlockReference
  2
_OPEN30
 10
-64.12288665771484
 20
150.8679351806641
 30
0.0
 50
270.0000000000005
  0
INSERT
  5
86
330
82
100
AcDbEntity
  8
0
  6
Continuous
 62
     7
100
AcDbBlockReference
  2
_OPEN30
 10
-64.12288665771484
 20
275.8679504394531
 30
0.0
 50
90.00000000000019
  0
LINE
  5
87
330
82
100
AcDbEntity
  8
0
  6
Continuous
 62
     7
100
AcDbLine
 10
-90.25295349121092
 20
150.8679351806641
 30
0.0
 11
-61.8368911743164
 21
150.8679351806641
 31
0.0
  0
LINE
  5
88
330
82
100
AcDbEntity
  8
0
  6
Continuous
 62
     7
100
AcDbLine
 10
-90.25295349121092
 20
275.8679504394531
 30
0.0
 11
-61.8368911743164
 21
275.8679504394531
 31
0.0
  0
TEXT
  5
89
330
82
100
AcDbEntity
  8
0
  6
Continuous
 62
     7
100
AcDbText
 10
-64.87288641424239
 20
207.7979349166145
 30
0.0
 40
3.0
  1
%%C125
 50
90.00000250447815
 41
1.053926216168795
100
AcDbText
  0
POINT
  5
8A
330
82
100
AcDbEntity
  8
DEFPOINTS
  6
Continuous
 62
     7
100
AcDbPoint
 10
-92.79295349121094
 20
150.8679351806641
 30
0.0
  0
POINT
  5
8B
330
82
100
AcDbEntity
  8
DEFPOINTS
  6
Continuous
 62
     7
100
AcDbPoint
 10
-92.79295349121094
 20
275.8679504394531
 30
0.0
  0
POINT
  5
8C
330
82
100
AcDbEntity
  8
DEFPOINTS
  6
Continuous
 62
     7
100
AcDbPoint
 10
-64.12288665771484
 20
275.8679504394531
 30
0.0
  0
ENDBLK
  5
8D
330
82
100
AcDbEntity
  8
0
100
AcDbBlockEnd
  0
BLOCK
  5
8F
330
8E
100
AcDbEntity
  8
0
100
AcDbBlockBegin
  2
*D8
 70
     1
 10
0.0
 20
0.0
 30
0.0
  3
*D8
  1

  0
LINE
  5
90
330
8E
100
AcDbEntity
  8
0
  6
Continuous
 62
     7
100
AcDbLine
 10
-150.7929534912109
 20
351.023681640625
 30
0.0
 11
-212.7929534912109
 21
351.023681640625
 31
0.0
  0
INSERT
  5
91
330
8E
100
AcDbEntity
  8
0
  6
Continuous
 62
     7
100
AcDbBlockReference
  2
_OPEN30
 10
-147.7929534912109
 20
351.023681640625
 30
0.0
  0
INSERT
  5
92
330
8E
100
AcDbEntity
  8
0
  6
Continuous
 62
     7
100
AcDbBlockReference
  2
_OPEN30
 10
-215.7929534912109
 20
351.023681640625
 30
0.0
 50
180.0000000000004
  0
LINE
  5
93
330
8E
100
AcDbEntity
  8
0
  6
Continuous
 62
     7
100
AcDbLine
 10
-147.7929534912109
 20
326.9079504394532
 30
0.0
 11
-147.7929534912109
 21
353.3096923828125
 31
0.0
  0
LINE
  5
94
330
8E
100
AcDbEntity
  8
0
  6
Continuous
 62
     7
100
AcDbLine
 10
-215.7929534912109
 20
296.4079504394532
 30
0.0
 11
-215.7929534912109
 21
353.3096923828125
 31
0.0
  0
TEXT
  5
95
330
8E
100
AcDbEntity
  8
0
  6
Continuous
 62
     7
100
AcDbText
 10
-196.3629540801048
 20
351.773681640625
 30
0.0
 40
3.0
  1
６８　（６３～７８）
 41
0.8443929326254473
100
AcDbText
  0
POINT
  5
96
330
8E
100
AcDbEntity
  8
DEFPOINTS
  6
Continuous
 62
     7
100
AcDbPoint
 10
-147.7929534912109
 20
324.3679504394531
 30
0.0
  0
POINT
  5
97
330
8E
100
AcDbEntity
  8
DEFPOINTS
  6
Continuous
 62
     7
100
AcDbPoint
 10
-215.7929534912109
 20
293.8679504394531
 30
0.0
  0
POINT
  5
98
330
8E
100
AcDbEntity
  8
DEFPOINTS
  6
Continuous
 62
     7
100
AcDbPoint
 10
-215.7929534912109
 20
351.023681640625
 30
0.0
  0
ENDBLK
  5
99
330
8E
100
AcDbEntity
  8
0
100
AcDbBlockEnd
  0
BLOCK
  5
9B
330
9A
100
AcDbEntity
  8
0
100
AcDbBlockBegin
  2
*D9
 70
     1
 10
0.0
 20
0.0
 30
0.0
  3
*D9
  1

  0
LINE
  5
9C
330
9A
100
AcDbEntity
  8
0
  6
Continuous
 62
     7
100
AcDbLine
 10
-218.7929534912109
 20
351.023681640625
 30
0.0
 11
-222.7929534912109
 21
351.023681640625
 31
0.0
  0
INSERT
  5
9D
330
9A
100
AcDbEntity
  8
0
  6
Continuous
 62
     7
100
AcDbBlockReference
  2
_OPEN30
 10
-215.7929534912109
 20
351.023681640625
 30
0.0
  0
INSERT
  5
9E
330
9A
100
AcDbEntity
  8
0
  6
Continuous
 62
     7
100
AcDbBlockReference
  2
_OPEN30
 10
-225.7929534912109
 20
351.023681640625
 30
0.0
 50
180.0000000000004
  0
LINE
  5
9F
330
9A
100
AcDbEntity
  8
0
  6
Continuous
 62
     7
100
AcDbLine
 10
-225.7929534912109
 20
284.4354772949219
 30
0.0
 11
-225.7929534912109
 21
353.3096923828125
 31
0.0
  0
TEXT
  5
A0
330
9A
100
AcDbEntity
  8
0
  6
Continuous
 62
     7
100
AcDbText
 10
-223.3629536032676
 20
351.773681640625
 30
0.0
 40
3.0
  1
10
 41
1.40181821042841
100
AcDbText
  0
POINT
  5
A1
330
9A
100
AcDbEntity
  8
DEFPOINTS
  6
Continuous
 62
     7
100
AcDbPoint
 10
-215.7929534912109
 20
353.3096923828125
 30
0.0
  0
POINT
  5
A2
330
9A
100
AcDbEntity
  8
DEFPOINTS
  6
Continuous
 62
     7
100
AcDbPoint
 10
-225.7929534912109
 20
281.8954772949219
 30
0.0
  0
POINT
  5
A3
330
9A
100
AcDbEntity
  8
DEFPOINTS
  6
Continuous
 62
     7
100
AcDbPoint
 10
-225.7929534912109
 20
351.023681640625
 30
0.0
  0
ENDBLK
  5
A4
330
9A
100
AcDbEntity
  8
0
100
AcDbBlockEnd
  0
BLOCK
  5
A6
330
A5
100
AcDbEntity
  8
0
100
AcDbBlockBegin
  2
*D10
 70
     1
 10
0.0
 20
0.0
 30
0.0
  3
*D10
  1

  0
LINE
  5
A7
330
A5
100
AcDbEntity
  8
0
  6
Continuous
 62
     7
100
AcDbLine
 10
-150.7929534912109
 20
337.4483947753906
 30
0.0
 11
-182.7929534912109
 21
337.4483947753906
 31
0.0
  0
INSERT
  5
A8
330
A5
100
AcDbEntity
  8
0
  6
Continuous
 62
     7
100
AcDbBlockReference
  2
_OPEN30
 10
-147.7929534912109
 20
337.4483947753906
 30
0.0
  0
INSERT
  5
A9
330
A5
100
AcDbEntity
  8
0
  6
Continuous
 62
     7
100
AcDbBlockReference
  2
_OPEN30
 10
-185.7929534912109
 20
337.4483947753906
 30
0.0
 50
180.0000000000004
  0
LINE
  5
AA
330
A5
100
AcDbEntity
  8
0
  6
Continuous
 62
     7
100
AcDbLine
 10
-185.7929534912109
 20
278.4079504394532
 30
0.0
 11
-185.7929534912109
 21
339.734375
 31
0.0
  0
TEXT
  5
AB
330
A5
100
AcDbEntity
  8
0
  6
Continuous
 62
     7
100
AcDbText
 10
-169.3629536032677
 20
338.1983947753906
 30
0.0
 40
3.0
  1
38
 41
1.028000020980834
100
AcDbText
  0
POINT
  5
AC
330
A5
100
AcDbEntity
  8
DEFPOINTS
  6
Continuous
 62
     7
100
AcDbPoint
 10
-147.7929534912109
 20
324.3679504394531
 30
0.0
  0
POINT
  5
AD
330
A5
100
AcDbEntity
  8
DEFPOINTS
  6
Continuous
 62
     7
100
AcDbPoint
 10
-185.7929534912109
 20
275.8679504394531
 30
0.0
  0
POINT
  5
AE
330
A5
100
AcDbEntity
  8
DEFPOINTS
  6
Continuous
 62
     7
100
AcDbPoint
 10
-185.7929534912109
 20
337.4483947753906
 30
0.0
  0
ENDBLK
  5
AF
330
A5
100
AcDbEntity
  8
0
100
AcDbBlockEnd
  0
BLOCK
  5
B1
330
B0
100
AcDbEntity
  8
0
100
AcDbBlockBegin
  2
*D11
 70
     1
 10
0.0
 20
0.0
 30
0.0
  3
*D11
  1

  0
LINE
  5
B2
330
B0
100
AcDbEntity
  8
0
  6
Continuous
 62
     7
100
AcDbLine
 10
-222.7929534912109
 20
226.8426208496094
 30
0.0
 11
-168.7929534912109
 21
226.8426208496094
 31
0.0
  0
INSERT
  5
B3
330
B0
100
AcDbEntity
  8
0
  6
Continuous
 62
     7
100
AcDbBlockReference
  2
_OPEN30
 10
-225.7929534912109
 20
226.8426208496094
 30
0.0
 50
180.0000000000004
  0
INSERT
  5
B4
330
B0
100
AcDbEntity
  8
0
  6
Continuous
 62
     7
100
AcDbBlockReference
  2
_OPEN30
 10
-165.7929534912109
 20
226.8426208496094
 30
0.0
  0
TEXT
  5
B5
330
B0
100
AcDbEntity
  8
0
  6
Continuous
 62
     7
100
AcDbText
 10
-198.3629536032676
 20
227.5926208496094
 30
0.0
 40
3.0
  1
60
 41
1.101428593908038
100
AcDbText
  0
POINT
  5
B6
330
B0
100
AcDbEntity
  8
DEFPOINTS
  6
Continuous
 62
     7
100
AcDbPoint
 10
-225.7929534912109
 20
281.8954772949219
 30
0.0
  0
POINT
  5
B7
330
B0
100
AcDbEntity
  8
DEFPOINTS
  6
Continuous
 62
     7
100
AcDbPoint
 10
-165.7929534912109
 20
213.3679351806641
 30
0.0
  0
POINT
  5
B8
330
B0
100
AcDbEntity
  8
DEFPOINTS
  6
Continuous
 62
     7
100
AcDbPoint
 10
-165.7929534912109
 20
226.8426208496094
 30
0.0
  0
ENDBLK
  5
B9
330
B0
100
AcDbEntity
  8
0
100
AcDbBlockEnd
  0
BLOCK
  5
BB
330
BA
100
AcDbEntity
  8
0
100
AcDbBlockBegin
  2
KOZU0001
 70
     0
 10
0.0
 20
0.0
 30
0.0
  3
KOZU0001
  1

  0
LINE
  5
BC
330
BA
100
AcDbEntity
  8
0
  6
Continuous
 62
     7
100
AcDbLine
 10
0.0
 20
0.0
 30
0.0
 11
-12.7652587890625
 21
19.64950561523438
 31
0.0
  0
LINE
  5
BD
330
BA
100
AcDbEntity
  8
0
  6
Continuous
 62
     7
100
AcDbLine
 10
-12.7652587890625
 20
19.64950561523438
 30
0.0
 11
-38.24105834960938
 21
19.64950561523438
 31
0.0
  0
LINE
  5
BE
330
BA
100
AcDbEntity
  8
0
  6
Continuous
 62
     7
100
AcDbLine
 10
0.0
 20
0.0
 30
0.0
 11
-2.472920721200859
 21
1.970954871795754
 31
0.0
  0
LINE
  5
BF
330
BA
100
AcDbEntity
  8
0
  6
Continuous
 62
     7
100
AcDbLine
 10
0.0
 20
0.0
 30
0.0
 11
-0.7957636538832358
 21
3.06051633015712
 31
0.0
  0
TEXT
  5
C0
330
BA
100
AcDbEntity
  8
0
  6
Continuous
 62
     7
100
AcDbText
 10
-36.52105772495271
 20
20.39950561523438
 30
0.0
 40
3.0
  1
３－Ｍ５皿穴
 41
0.8472565548642696
100
AcDbText
  0
ENDBLK
  5
C1
330
BA
100
AcDbEntity
  8
0
100
AcDbBlockEnd
  0
BLOCK
  5
C3
330
C2
100
AcDbEntity
  8
0
100
AcDbBlockBegin
  2
KOZU0002
 70
     0
 10
0.0
 20
0.0
 30
0.0
  3
KOZU0002
  1

  0
LINE
  5
C4
330
C2
100
AcDbEntity
  8
0
  6
Continuous
 62
     7
100
AcDbLine
 10
0.0
 20
0.0
 30
0.0
 11
26.76222229003906
 21
28.9619140625
 31
0.0
  0
LINE
  5
C5
330
C2
100
AcDbEntity
  8
0
  6
Continuous
 62
     7
100
AcDbLine
 10
26.76222229003906
 20
28.9619140625
 30
0.0
 11
55.48332595825195
 21
28.9619140625
 31
0.0
  0
LINE
  5
C6
330
C2
100
AcDbEntity
  8
0
  6
Continuous
 62
     7
100
AcDbLine
 10
0.0
 20
0.0
 30
0.0
 11
1.30154866717159
 21
2.882008165669184
 31
0.0
  0
LINE
  5
C7
330
C2
100
AcDbEntity
  8
0
  6
Continuous
 62
     7
100
AcDbLine
 10
0.0
 20
0.0
 30
0.0
 11
2.770443833138783
 21
1.524677332232393
 31
0.0
  0
TEXT
  5
C8
330
C2
100
AcDbEntity
  8
0
  6
Continuous
 62
     7
100
AcDbText
 10
28.19531178474426
 20
29.7119140625
 30
0.0
 40
3.0
  1
配管接続口
 41
0.8487395020950888
100
AcDbText
  0
TEXT
  5
C9
330
C2
100
AcDbEntity
  8
0
  6
Continuous
 62
     7
100
AcDbText
 10
28.19531178474426
 20
24.4469140625
 30
0.0
 40
3.0
  1
Ｒｃ４（１００Ａ）
 41
0.8448610247221777
100
AcDbText
  0
ENDBLK
  5
CA
330
C2
100
AcDbEntity
  8
0
100
AcDbBlockEnd
  0
ENDSEC
  0
SECTION
  2
ENTITIES
  0
LINE
  5
CB
330
22
100
AcDbEntity
  8
0
  6
Continuous
 62
     7
100
AcDbLine
 10
-349.2636108398438
 20
239.0214538574219
 30
0.0
 11
-349.2636108398438
 21
227.4214477539064
 31
0.0
  0
LINE
  5
CC
330
22
100
AcDbEntity
  8
0
  6
Continuous
 62
     7
100
AcDbLine
 10
-354.6636047363281
 20
239.0214538574219
 30
0.0
 11
-354.6636047363281
 21
227.4214477539064
 31
0.0
  0
LINE
  5
CD
330
22
100
AcDbEntity
  8
0
  6
Continuous
 62
     7
100
AcDbLine
 10
-406.4635925292968
 20
234.8478698730469
 30
0.0
 11
-406.4635925292968
 21
260.4478759765625
 31
0.0
  0
LINE
  5
CE
330
22
100
AcDbEntity
  8
0
  6
Continuous
 62
     7
100
AcDbLine
 10
-401.0635986328124
 20
234.8478698730469
 30
0.0
 11
-401.0635986328124
 21
260.4478759765625
 31
0.0
  0
LINE
  5
CF
330
22
100
AcDbEntity
  8
0
  6
Continuous
 62
     7
100
AcDbLine
 10
-378.8636169433594
 20
234.8478698730469
 30
0.0
 11
-378.8636169433594
 21
260.4478759765625
 31
0.0
  0
LINE
  5
D0
330
22
100
AcDbEntity
  8
0
  6
Continuous
 62
     7
100
AcDbLine
 10
-384.2636108398438
 20
234.8478698730469
 30
0.0
 11
-384.2636108398438
 21
260.4478759765625
 31
0.0
  0
LINE
  5
D1
330
22
100
AcDbEntity
  8
0
  6
Continuous
 62
     7
100
AcDbLine
 10
-369.4635925292969
 20
232.529541015625
 30
0.0
 11
-369.4635925292969
 21
254.1295318603516
 31
0.0
  0
LINE
  5
D2
330
22
100
AcDbEntity
  8
0
  6
Continuous
 62
     7
100
AcDbLine
 10
-415.8636169433593
 20
232.529541015625
 30
0.0
 11
-415.8636169433593
 21
254.1295318603516
 31
0.0
  0
LINE
  5
D3
330
22
100
AcDbEntity
  8
0
  6
Continuous
 62
     7
100
AcDbLine
 10
-364.0635986328125
 20
232.529541015625
 30
0.0
 11
-364.0635986328125
 21
254.1295318603516
 31
0.0
  0
LINE
  5
D4
330
22
100
AcDbEntity
  8
0
  6
Continuous
 62
     7
100
AcDbLine
 10
-421.2636108398438
 20
232.529541015625
 30
0.0
 11
-421.2636108398438
 21
254.1295318603516
 31
0.0
  0
LINE
  5
D5
330
22
100
AcDbEntity
  8
0
  6
Continuous
 62
     7
100
AcDbLine
 10
-393.1266174316406
 20
277.2178039550781
 30
0.0
 11
-393.583984375
 21
273.8749084472656
 31
0.0
  0
LINE
  5
D6
330
22
100
AcDbEntity
  8
0
  6
Continuous
 62
     7
100
AcDbLine
 10
-388.425537109375
 20
272.4918823242188
 30
0.0
 11
-391.7432250976563
 21
272.0341796875
 31
0.0
  0
LINE
  5
D7
330
22
100
AcDbEntity
  8
0
  6
Continuous
 62
     7
100
AcDbLine
 10
-388.425537109375
 20
273.4172058105469
 30
0.0
 11
-391.7432250976563
 21
273.8749084472656
 31
0.0
  0
LINE
  5
D8
330
22
100
AcDbEntity
  8
0
  6
Continuous
 62
     7
100
AcDbLine
 10
-396.9016723632813
 20
272.4918823242188
 30
0.0
 11
-396.9016723632813
 21
272.9545288085938
 31
0.0
  0
LINE
  5
D9
330
22
100
AcDbEntity
  8
0
  6
Continuous
 62
     7
100
AcDbLine
 10
-393.1266174316406
 20
268.6912841796875
 30
0.0
 11
-393.583984375
 21
272.0341796875
 31
0.0
  0
LINE
  5
DA
330
22
100
AcDbEntity
  8
0
  6
Continuous
 62
     7
100
AcDbLine
 10
-392.6636047363281
 20
268.6912841796875
 30
0.0
 11
-392.2005920410157
 21
268.6912841796875
 31
0.0
  0
LINE
  5
DB
330
22
100
AcDbEntity
  8
0
  6
Continuous
 62
     7
100
AcDbLine
 10
-392.6636047363281
 20
268.6912841796875
 30
0.0
 11
-393.1266174316406
 21
268.6912841796875
 31
0.0
  0
LINE
  5
DC
330
22
100
AcDbEntity
  8
0
  6
Continuous
 62
     7
100
AcDbLine
 10
-392.2005920410157
 20
268.6912841796875
 30
0.0
 11
-391.7432250976563
 21
272.0341796875
 31
0.0
  0
LINE
  5
DD
330
22
100
AcDbEntity
  8
0
  6
Continuous
 62
     7
100
AcDbLine
 10
-396.9016723632813
 20
272.4918823242188
 30
0.0
 11
-393.583984375
 21
272.0341796875
 31
0.0
  0
LINE
  5
DE
330
22
100
AcDbEntity
  8
0
  6
Continuous
 62
     7
100
AcDbLine
 10
-396.9016723632813
 20
273.4172058105469
 30
0.0
 11
-393.583984375
 21
273.8749084472656
 31
0.0
  0
LINE
  5
DF
330
22
100
AcDbEntity
  8
0
  6
Continuous
 62
     7
100
AcDbLine
 10
-392.2005920410157
 20
277.2178039550781
 30
0.0
 11
-391.7432250976563
 21
273.8749084472656
 31
0.0
  0
LINE
  5
E0
330
22
100
AcDbEntity
  8
0
  6
Continuous
 62
     7
100
AcDbLine
 10
-396.9016723632813
 20
273.4172058105469
 30
0.0
 11
-396.9016723632813
 21
272.9545288085938
 31
0.0
  0
LINE
  5
E1
330
22
100
AcDbEntity
  8
0
  6
Continuous
 62
     7
100
AcDbLine
 10
-436.0635986328125
 20
239.0214538574219
 30
0.0
 11
-436.0635986328125
 21
227.4214477539064
 31
0.0
  0
LINE
  5
E2
330
22
100
AcDbEntity
  8
0
  6
Continuous
 62
     7
100
AcDbLine
 10
-430.6636047363281
 20
239.0214538574219
 30
0.0
 11
-430.6636047363281
 21
227.4214477539064
 31
0.0
  0
LINE
  5
E3
330
22
100
AcDbEntity
  8
0
  6
Continuous
 62
     7
100
AcDbLine
 10
-408.4635925292968
 20
209.4954223632814
 30
0.0
 11
-408.4636535644531
 21
169.8954162597656
 31
0.0
  0
LINE
  5
E4
330
22
100
AcDbEntity
  8
0
  6
Continuous
 62
     7
100
AcDbLine
 10
-371.4635925292969
 20
209.4954223632814
 30
0.0
 11
-371.4635925292969
 21
169.8954162597656
 31
0.0
  0
LINE
  5
E5
330
22
100
AcDbEntity
  8
0
  6
Continuous
 62
     7
100
AcDbLine
 10
-376.8636169433594
 20
209.4954223632814
 30
0.0
 11
-376.8635559082031
 21
169.8954162597656
 31
0.0
  0
LINE
  5
E6
330
22
100
AcDbEntity
  8
0
  6
Continuous
 62
     7
100
AcDbLine
 10
-356.6636047363281
 20
179.6624145507813
 30
0.0
 11
-356.6636047363281
 21
209.7624206542969
 31
0.0
  0
LINE
  5
E7
330
22
100
AcDbEntity
  8
0
  6
Continuous
 62
     7
100
AcDbLine
 10
-349.2636108398438
 20
219.7545471191406
 30
0.0
 11
-349.2636108398438
 21
208.154541015625
 31
0.0
  0
LINE
  5
E8
330
22
100
AcDbEntity
  8
0
  6
Continuous
 62
     7
100
AcDbLine
 10
-362.0635986328125
 20
179.6624145507813
 30
0.0
 11
-362.0635986328125
 21
209.7624206542969
 31
0.0
  0
LINE
  5
E9
330
22
100
AcDbEntity
  8
0
  6
Continuous
 62
     7
100
AcDbLine
 10
-386.2636108398438
 20
207.9060516357422
 30
0.0
 11
-386.2636108398438
 21
166.3060607910156
 31
0.0
  0
LINE
  5
EA
330
22
100
AcDbEntity
  8
0
  6
Continuous
 62
     7
100
AcDbLine
 10
-391.6636047363281
 20
207.9060516357422
 30
0.0
 11
-391.6636047363281
 21
166.2979583740234
 31
0.0
  0
LINE
  5
EB
330
22
100
AcDbEntity
  8
0
  6
Continuous
 62
     7
100
AcDbLine
 10
-354.6636047363281
 20
219.7545471191406
 30
0.0
 11
-354.6636047363281
 21
208.154541015625
 31
0.0
  0
LINE
  5
EC
330
22
100
AcDbEntity
  8
0
  6
Continuous
 62
     7
100
AcDbLine
 10
-392.6636047363281
 20
277.2178039550781
 30
0.0
 11
-392.2005920410157
 21
277.2178039550781
 31
0.0
  0
LINE
  5
ED
330
22
100
AcDbEntity
  8
0
  6
Continuous
 62
     7
100
AcDbLine
 10
-392.6636047363281
 20
277.2178039550781
 30
0.0
 11
-393.1266174316406
 21
277.2178039550781
 31
0.0
  0
LINE
  5
EE
330
22
100
AcDbEntity
  8
0
  6
Continuous
 62
     7
100
AcDbLine
 10
-388.425537109375
 20
273.4172058105469
 30
0.0
 11
-388.425537109375
 21
272.9545288085938
 31
0.0
  0
LINE
  5
EF
330
22
100
AcDbEntity
  8
0
  6
Continuous
 62
     7
100
AcDbLine
 10
-388.425537109375
 20
272.4918823242188
 30
0.0
 11
-388.425537109375
 21
272.9545288085938
 31
0.0
  0
LINE
  5
F0
330
22
100
AcDbEntity
  8
0
  6
Continuous
 62
     7
100
AcDbLine
 10
-396.9016723632813
 20
155.4171905517578
 30
0.0
 11
-396.9016723632813
 21
154.9545440673828
 31
0.0
  0
LINE
  5
F1
330
22
100
AcDbEntity
  8
0
  6
Continuous
 62
     7
100
AcDbLine
 10
-354.6636047363281
 20
188.8876342773438
 30
0.0
 11
-354.6636047363281
 21
200.4876251220703
 31
0.0
  0
LINE
  5
F2
330
22
100
AcDbEntity
  8
0
  6
Continuous
 62
     7
100
AcDbLine
 10
-349.2636108398438
 20
188.8876342773438
 30
0.0
 11
-349.2636108398438
 21
200.4876251220703
 31
0.0
  0
LINE
  5
F3
330
22
100
AcDbEntity
  8
0
  6
Continuous
 62
     7
100
AcDbLine
 10
-428.663604736328
 20
179.6624145507813
 30
0.0
 11
-428.663604736328
 21
209.7624206542969
 31
0.0
  0
LINE
  5
F4
330
22
100
AcDbEntity
  8
0
  6
Continuous
 62
     7
100
AcDbLine
 10
-423.2636108398438
 20
179.6624145507813
 30
0.0
 11
-423.2636108398438
 21
209.7624206542969
 31
0.0
  0
LINE
  5
F5
330
22
100
AcDbEntity
  8
0
  6
Continuous
 62
     7
100
AcDbLine
 10
-436.0635986328125
 20
219.7545471191406
 30
0.0
 11
-436.0635986328125
 21
208.154541015625
 31
0.0
  0
LINE
  5
F6
330
22
100
AcDbEntity
  8
0
  6
Continuous
 62
     7
100
AcDbLine
 10
-430.6636047363281
 20
219.7545471191406
 30
0.0
 11
-430.6636047363281
 21
208.154541015625
 31
0.0
  0
LINE
  5
F7
330
22
100
AcDbEntity
  8
0
  6
Continuous
 62
     7
100
AcDbLine
 10
-393.6636047363281
 20
207.9060516357422
 30
0.0
 11
-393.6636047363281
 21
166.2979583740234
 31
0.0
  0
LINE
  5
F8
330
22
100
AcDbEntity
  8
0
  6
Continuous
 62
     7
100
AcDbLine
 10
-399.0635986328125
 20
207.9060516357422
 30
0.0
 11
-399.0635986328125
 21
166.3060607910156
 31
0.0
  0
LINE
  5
F9
330
22
100
AcDbEntity
  8
0
  6
Continuous
 62
     7
100
AcDbLine
 10
-413.8636169433594
 20
209.4954223632814
 30
0.0
 11
-413.8636169433594
 21
169.8954162597656
 31
0.0
  0
LINE
  5
FA
330
22
100
AcDbEntity
  8
0
  6
Continuous
 62
     7
100
AcDbLine
 10
-392.6636047363281
 20
159.2177886962891
 30
0.0
 11
-392.2005920410157
 21
159.2177886962891
 31
0.0
  0
LINE
  5
FB
330
22
100
AcDbEntity
  8
0
  6
Continuous
 62
     7
100
AcDbLine
 10
-392.6636047363281
 20
159.2177886962891
 30
0.0
 11
-393.1266174316406
 21
159.2177886962891
 31
0.0
  0
LINE
  5
FC
330
22
100
AcDbEntity
  8
0
  6
Continuous
 62
     7
100
AcDbLine
 10
-388.425537109375
 20
155.4171905517578
 30
0.0
 11
-388.425537109375
 21
154.9545440673828
 31
0.0
  0
LINE
  5
FD
330
22
100
AcDbEntity
  8
0
  6
Continuous
 62
     7
100
AcDbLine
 10
-369.4635925292969
 20
195.3795471191406
 30
0.0
 11
-369.4635925292969
 21
173.7795562744141
 31
0.0
  0
LINE
  5
FE
330
22
100
AcDbEntity
  8
0
  6
Continuous
 62
     7
100
AcDbLine
 10
-430.6636047363281
 20
188.8876342773438
 30
0.0
 11
-430.6636047363281
 21
200.4876251220703
 31
0.0
  0
LINE
  5
FF
330
22
100
AcDbEntity
  8
0
  6
Continuous
 62
     7
100
AcDbLine
 10
-415.8636169433593
 20
195.3795471191406
 30
0.0
 11
-415.8636169433593
 21
173.7795562744141
 31
0.0
  0
LINE
  5
100
330
22
100
AcDbEntity
  8
0
  6
Continuous
 62
     7
100
AcDbLine
 10
-378.8636169433594
 20
193.0612030029297
 30
0.0
 11
-378.8636169433594
 21
167.4612121582031
 31
0.0
  0
LINE
  5
101
330
22
100
AcDbEntity
  8
0
  6
Continuous
 62
     7
100
AcDbLine
 10
-384.2636108398438
 20
193.0612030029297
 30
0.0
 11
-384.2636108398438
 21
167.4612121582031
 31
0.0
  0
LINE
  5
102
330
22
100
AcDbEntity
  8
0
  6
Continuous
 62
     7
100
AcDbLine
 10
-406.4635925292968
 20
193.0612030029297
 30
0.0
 11
-406.4635925292968
 21
167.4612121582031
 31
0.0
  0
LINE
  5
103
330
22
100
AcDbEntity
  8
0
  6
Continuous
 62
     7
100
AcDbLine
 10
-401.0635986328124
 20
193.0612030029297
 30
0.0
 11
-401.0635986328124
 21
167.4612121582031
 31
0.0
  0
LINE
  5
104
330
22
100
AcDbEntity
  8
0
  6
Continuous
 62
     7
100
AcDbLine
 10
-393.1266174316406
 20
150.6912841796875
 30
0.0
 11
-393.583984375
 21
154.0341644287109
 31
0.0
  0
LINE
  5
105
330
22
100
AcDbEntity
  8
0
  6
Continuous
 62
     7
100
AcDbLine
 10
-396.9016723632813
 20
154.4918975830078
 30
0.0
 11
-393.583984375
 21
154.0341644287109
 31
0.0
  0
LINE
  5
106
330
22
100
AcDbEntity
  8
0
  6
Continuous
 62
     7
100
AcDbLine
 10
-396.9016723632813
 20
155.4171905517578
 30
0.0
 11
-393.583984375
 21
155.8749084472656
 31
0.0
  0
LINE
  5
107
330
22
100
AcDbEntity
  8
0
  6
Continuous
 62
     7
100
AcDbLine
 10
-392.2005920410157
 20
159.2177886962891
 30
0.0
 11
-391.7432250976563
 21
155.8749084472656
 31
0.0
  0
LINE
  5
108
330
22
100
AcDbEntity
  8
0
  6
Continuous
 62
     7
100
AcDbLine
 10
-393.1266174316406
 20
159.2177886962891
 30
0.0
 11
-393.583984375
 21
155.8749084472656
 31
0.0
  0
LINE
  5
109
330
22
100
AcDbEntity
  8
0
  6
Continuous
 62
     7
100
AcDbLine
 10
-436.0635986328125
 20
188.8876342773438
 30
0.0
 11
-436.0635986328125
 21
200.4876251220703
 31
0.0
  0
LINE
  5
10A
330
22
100
AcDbEntity
  8
0
  6
Continuous
 62
     7
100
AcDbLine
 10
-364.0635986328125
 20
195.3795471191406
 30
0.0
 11
-364.0635986328125
 21
173.7795562744141
 31
0.0
  0
LINE
  5
10B
330
22
100
AcDbEntity
  8
0
  6
Continuous
 62
     7
100
AcDbLine
 10
-388.425537109375
 20
154.4918975830078
 30
0.0
 11
-388.425537109375
 21
154.9545440673828
 31
0.0
  0
LINE
  5
10C
330
22
100
AcDbEntity
  8
0
  6
Continuous
 62
     7
100
AcDbLine
 10
-388.425537109375
 20
154.4918975830078
 30
0.0
 11
-391.7432250976563
 21
154.0341644287109
 31
0.0
  0
LINE
  5
10D
330
22
100
AcDbEntity
  8
0
  6
Continuous
 62
     7
100
AcDbLine
 10
-388.425537109375
 20
155.4171905517578
 30
0.0
 11
-391.7432250976563
 21
155.8749084472656
 31
0.0
  0
LINE
  5
10E
330
22
100
AcDbEntity
  8
0
  6
Continuous
 62
     7
100
AcDbLine
 10
-396.9016723632813
 20
154.4918975830078
 30
0.0
 11
-396.9016723632813
 21
154.9545440673828
 31
0.0
  0
LINE
  5
10F
330
22
100
AcDbEntity
  8
0
  6
Continuous
 62
     7
100
AcDbLine
 10
-421.2636108398438
 20
195.3795471191406
 30
0.0
 11
-421.2636108398438
 21
173.7795562744141
 31
0.0
  0
LINE
  5
110
330
22
100
AcDbEntity
  8
0
  6
Continuous
 62
     7
100
AcDbLine
 10
-392.6636047363281
 20
150.6912841796875
 30
0.0
 11
-392.2005920410157
 21
150.6912841796875
 31
0.0
  0
LINE
  5
111
330
22
100
AcDbEntity
  8
0
  6
Continuous
 62
     7
100
AcDbLine
 10
-392.6636047363281
 20
150.6912841796875
 30
0.0
 11
-393.1266174316406
 21
150.6912841796875
 31
0.0
  0
LINE
  5
112
330
22
100
AcDbEntity
  8
0
  6
Continuous
 62
     7
100
AcDbLine
 10
-392.2005920410157
 20
150.6912841796875
 30
0.0
 11
-391.7432250976563
 21
154.0341644287109
 31
0.0
  0
LINE
  5
113
330
22
100
AcDbEntity
  8
0
  6
Continuous
 62
     7
100
AcDbLine
 10
-378.8636169433594
 20
226.7545471191406
 30
0.0
 11
-378.8636169433594
 21
201.154541015625
 31
0.0
  0
LINE
  5
114
330
22
100
AcDbEntity
  8
0
  6
Continuous
 62
     7
100
AcDbLine
 10
-384.2636108398438
 20
226.7545471191406
 30
0.0
 11
-384.2636108398438
 21
201.154541015625
 31
0.0
  0
LINE
  5
115
330
22
100
AcDbEntity
  8
0
  6
Continuous
 62
     7
100
AcDbLine
 10
-415.8636169433593
 20
224.7545471191406
 30
0.0
 11
-415.8636169433593
 21
203.154541015625
 31
0.0
  0
LINE
  5
116
330
22
100
AcDbEntity
  8
0
  6
Continuous
 62
     7
100
AcDbLine
 10
-371.4635925292969
 20
218.4136657714844
 30
0.0
 11
-371.4635925292969
 21
258.013671875
 31
0.0
  0
LINE
  5
117
330
22
100
AcDbEntity
  8
0
  6
Continuous
 62
     7
100
AcDbLine
 10
-376.8636169433594
 20
218.4136657714844
 30
0.0
 11
-376.8635559082031
 21
258.013671875
 31
0.0
  0
LINE
  5
118
330
22
100
AcDbEntity
  8
0
  6
CENTER
 62
     7
100
AcDbLine
 10
-392.6636047363281
 20
342.8521118164063
 30
0.0
 11
-392.6636047363281
 21
85.05698394775391
 31
0.0
  0
LINE
  5
119
330
22
100
AcDbEntity
  8
0
  6
Continuous
 62
     7
100
AcDbLine
 10
-413.8636169433594
 20
218.4136657714844
 30
0.0
 11
-413.8636169433594
 21
258.013671875
 31
0.0
  0
LINE
  5
11A
330
22
100
AcDbEntity
  8
0
  6
Continuous
 62
     7
100
AcDbLine
 10
-408.4635925292968
 20
218.4136657714844
 30
0.0
 11
-408.4636535644531
 21
258.013671875
 31
0.0
  0
LINE
  5
11B
330
22
100
AcDbEntity
  8
0
  6
CENTER
 62
     7
100
AcDbLine
 10
-519.9856567382814
 20
213.3679351806641
 30
0.0
 11
-260.0568237304688
 21
213.3679351806641
 31
0.0
  0
LINE
  5
11C
330
22
100
AcDbEntity
  8
0
  6
Continuous
 62
     7
100
AcDbLine
 10
-386.2636108398438
 20
220.0030212402344
 30
0.0
 11
-386.2636108398438
 21
261.60302734375
 31
0.0
  0
LINE
  5
11D
330
22
100
AcDbEntity
  8
0
  6
Continuous
 62
     7
100
AcDbLine
 10
-391.6636047363281
 20
220.0030212402344
 30
0.0
 11
-391.6636047363281
 21
261.6111145019531
 31
0.0
  0
LINE
  5
11E
330
22
100
AcDbEntity
  8
0
  6
Continuous
 62
     7
100
AcDbLine
 10
-393.6636047363281
 20
220.0030212402344
 30
0.0
 11
-393.6636047363281
 21
261.6111145019531
 31
0.0
  0
LINE
  5
11F
330
22
100
AcDbEntity
  8
0
  6
Continuous
 62
     7
100
AcDbLine
 10
-399.0635986328125
 20
220.0030212402344
 30
0.0
 11
-399.0635986328125
 21
261.60302734375
 31
0.0
  0
LINE
  5
120
330
22
100
AcDbEntity
  8
0
  6
Continuous
 62
     7
100
AcDbLine
 10
-438.0635986328124
 20
196.7124481201172
 30
0.0
 11
-438.0635986328124
 21
231.1966400146484
 31
0.0
  0
LINE
  5
121
330
22
100
AcDbEntity
  8
0
  6
Continuous
 62
     7
100
AcDbLine
 10
-364.0635986328125
 20
224.7545471191406
 30
0.0
 11
-364.0635986328125
 21
203.154541015625
 31
0.0
  0
LINE
  5
122
330
22
100
AcDbEntity
  8
0
  6
Continuous
 62
     7
100
AcDbLine
 10
-401.0635986328124
 20
226.7545471191406
 30
0.0
 11
-401.0635986328124
 21
201.154541015625
 31
0.0
  0
LINE
  5
123
330
22
100
AcDbEntity
  8
0
  6
Continuous
 62
     7
100
AcDbLine
 10
-421.2636108398438
 20
224.7545471191406
 30
0.0
 11
-421.2636108398438
 21
203.154541015625
 31
0.0
  0
LINE
  5
124
330
22
100
AcDbEntity
  8
0
  6
Continuous
 62
     7
100
AcDbLine
 10
-423.2636108398438
 20
248.2466735839844
 30
0.0
 11
-423.2636108398438
 21
218.1466674804688
 31
0.0
  0
LINE
  5
125
330
22
100
AcDbEntity
  8
0
  6
Continuous
 62
     7
100
AcDbLine
 10
-406.4635925292968
 20
226.7545471191406
 30
0.0
 11
-406.4635925292968
 21
201.154541015625
 31
0.0
  0
LINE
  5
126
330
22
100
AcDbEntity
  8
0
  6
Continuous
 62
     7
100
AcDbLine
 10
-428.663604736328
 20
248.2466735839844
 30
0.0
 11
-428.663604736328
 21
218.1466674804688
 31
0.0
  0
LINE
  5
127
330
22
100
AcDbEntity
  8
0
  6
Continuous
 62
     7
100
AcDbLine
 10
-369.4635925292969
 20
224.7545471191406
 30
0.0
 11
-369.4635925292969
 21
203.154541015625
 31
0.0
  0
LINE
  5
128
330
22
100
AcDbEntity
  8
0
  6
Continuous
 62
     7
100
AcDbLine
 10
-356.6636047363281
 20
248.2466735839844
 30
0.0
 11
-356.6636047363281
 21
218.1466674804688
 31
0.0
  0
LINE
  5
129
330
22
100
AcDbEntity
  8
0
  6
Continuous
 62
     7
100
AcDbLine
 10
-362.0635986328125
 20
248.2466735839844
 30
0.0
 11
-362.0635986328125
 21
218.1466674804688
 31
0.0
  0
LINE
  5
12A
330
22
100
AcDbEntity
  8
0
  6
Continuous
 62
     7
100
AcDbLine
 10
-347.2636108398438
 20
196.7124481201172
 30
0.0
 11
-347.2636108398438
 21
231.1966400146484
 31
0.0
  0
LINE
  5
12B
330
22
100
AcDbEntity
  8
0
  6
Continuous
 62
     7
100
AcDbLine
 10
-222.7929534912109
 20
279.2679443359375
 30
0.0
 11
-222.7929534912109
 21
273.8679504394531
 31
0.0
  0
LINE
  5
12C
330
22
100
AcDbEntity
  8
0
  6
Continuous
 62
     7
100
AcDbLine
 10
-165.7929534912109
 20
234.5796356201172
 30
0.0
 11
-165.7929534912109
 21
239.2756652832031
 31
0.0
  0
LINE
  5
12D
330
22
100
AcDbEntity
  8
0
  6
Continuous
 62
     7
100
AcDbLine
 10
-225.7929534912109
 20
234.5796356201172
 30
0.0
 11
-225.7929534912109
 21
239.2756652832031
 31
0.0
  0
LINE
  5
12E
330
22
100
AcDbEntity
  8
0
  6
Continuous
 62
     7
100
AcDbLine
 10
-225.7929534912109
 20
278.8679504394531
 30
0.0
 11
-222.7929534912109
 21
278.8679504394531
 31
0.0
  0
LINE
  5
12F
330
22
100
AcDbEntity
  8
0
  6
Continuous
 62
     7
100
AcDbLine
 10
-225.7929534912109
 20
279.2679443359375
 30
0.0
 11
-222.7929534912109
 21
279.2679443359375
 31
0.0
  0
LINE
  5
130
330
22
100
AcDbEntity
  8
0
  6
Continuous
 62
     7
100
AcDbLine
 10
-216.6020202636719
 20
272.8362731933594
 30
0.0
 11
-216.6020202636719
 21
270.8679504394531
 31
0.0
  0
LINE
  5
131
330
22
100
AcDbEntity
  8
0
  6
Continuous
 62
     7
100
AcDbLine
 10
-216.6020202636719
 20
270.8679504394531
 30
0.0
 11
-217.6020202636719
 21
269.8679504394531
 31
0.0
  0
LINE
  5
132
330
22
100
AcDbEntity
  8
0
  6
Continuous
 62
     7
100
AcDbLine
 10
-216.6020202636719
 20
272.8362731933594
 30
0.0
 11
-217.4320831298828
 21
273.8679504394531
 31
0.0
  0
LINE
  5
133
330
22
100
AcDbEntity
  8
0
  6
Continuous
 62
     7
100
AcDbLine
 10
-222.7929534912109
 20
267.2179260253906
 30
0.0
 11
-221.6429443359375
 21
268.3679504394531
 31
0.0
  0
LINE
  5
134
330
22
100
AcDbEntity
  8
0
  6
Continuous
 62
     7
100
AcDbLine
 10
-215.7929534912109
 20
267.2179260253906
 30
0.0
 11
-222.7929534912109
 21
267.2179260253906
 31
0.0
  0
LINE
  5
135
330
22
100
AcDbEntity
  8
0
  6
Continuous
 62
     7
100
AcDbLine
 10
-215.7929534912109
 20
268.3679504394531
 30
0.0
 11
-222.7929534912109
 21
268.3679504394531
 31
0.0
  0
LINE
  5
136
330
22
100
AcDbEntity
  8
0
  6
Continuous
 62
     7
100
AcDbLine
 10
-222.7929534912109
 20
273.8679504394531
 30
0.0
 11
-215.8231506347656
 21
273.8679504394531
 31
0.0
  0
LINE
  5
137
330
22
100
AcDbEntity
  8
0
  6
Continuous
 62
     7
100
AcDbLine
 10
-222.7929534912109
 20
269.8679504394531
 30
0.0
 11
-215.8231506347656
 21
269.8679504394531
 31
0.0
  0
LINE
  5
138
330
22
100
AcDbEntity
  8
0
  6
Continuous
 62
     7
100
AcDbLine
 10
-225.7929534912109
 20
266.8679504394531
 30
0.0
 11
-222.7929534912109
 21
269.8679504394531
 31
0.0
  0
LINE
  5
139
330
22
100
AcDbEntity
  8
0
  6
Continuous
 62
     7
100
AcDbLine
 10
-215.7929534912109
 20
267.2179260253906
 30
0.0
 11
-216.9429473876953
 21
268.3679504394531
 31
0.0
  0
LINE
  5
13A
330
22
100
AcDbEntity
  8
0
  6
Continuous
 62
     7
100
AcDbLine
 10
-215.7929534912109
 20
267.2179260253906
 30
0.0
 11
-215.7929534912109
 21
293.8679504394531
 31
0.0
  0
LINE
  5
13B
330
22
100
AcDbEntity
  8
0
  6
Continuous
 62
     7
100
AcDbLine
 10
-225.7929534912109
 20
276.8679504394531
 30
0.0
 11
-225.7929534912109
 21
266.8679504394531
 31
0.0
  0
LINE
  5
13C
330
22
100
AcDbEntity
  8
0
  6
Continuous
 62
     7
100
AcDbLine
 10
-216.4668579101563
 20
293.8679504394531
 30
0.0
 11
-215.7929534912109
 21
293.1940307617188
 31
0.0
  0
LINE
  5
13D
330
22
100
AcDbEntity
  8
0
  6
Continuous
 62
     7
100
AcDbLine
 10
-217.1739654541016
 20
293.8679504394531
 30
0.0
 11
-215.7929534912109
 21
292.4869079589844
 31
0.0
  0
LINE
  5
13E
330
22
100
AcDbEntity
  8
0
  6
Continuous
 62
     7
100
AcDbLine
 10
-219.2952880859375
 20
293.8679504394531
 30
0.0
 11
-215.7929534912109
 21
290.3656005859375
 31
0.0
  0
LINE
  5
13F
330
22
100
AcDbEntity
  8
0
  6
Continuous
 62
     7
100
AcDbLine
 10
-219.998291015625
 20
293.8638305664063
 30
0.0
 11
-215.7929534912109
 21
289.6584777832032
 31
0.0
  0
LINE
  5
140
330
22
100
AcDbEntity
  8
0
  6
Continuous
 62
     7
100
AcDbLine
 10
-220.8766784667969
 20
292.6208801269531
 30
0.0
 11
-215.7929534912109
 21
287.5371704101563
 31
0.0
  0
LINE
  5
141
330
22
100
AcDbEntity
  8
0
  6
Continuous
 62
     7
100
AcDbLine
 10
-221.1021270751953
 20
292.1392517089844
 30
0.0
 11
-215.7929534912109
 21
286.830078125
 31
0.0
  0
LINE
  5
142
330
22
100
AcDbEntity
  8
0
  6
Continuous
 62
     7
100
AcDbLine
 10
-221.7784881591797
 20
290.6942749023438
 30
0.0
 11
-215.7929534912109
 21
284.708740234375
 31
0.0
  0
LINE
  5
143
330
22
100
AcDbEntity
  8
0
  6
Continuous
 62
     7
100
AcDbLine
 10
-222.0039520263672
 20
290.212646484375
 30
0.0
 11
-215.7929534912109
 21
284.0016479492188
 31
0.0
  0
LINE
  5
144
330
22
100
AcDbEntity
  8
0
  6
Continuous
 62
     7
100
AcDbLine
 10
-222.6803131103516
 20
288.7676696777344
 30
0.0
 11
-215.7929534912109
 21
281.8803100585938
 31
0.0
  0
LINE
  5
145
330
22
100
AcDbEntity
  8
0
  6
Continuous
 62
     7
100
AcDbLine
 10
-222.90576171875
 20
288.2860107421875
 30
0.0
 11
-215.7929534912109
 21
281.1732177734375
 31
0.0
  0
LINE
  5
146
330
22
100
AcDbEntity
  8
0
  6
Continuous
 62
     7
100
AcDbLine
 10
-223.5821228027344
 20
286.841064453125
 30
0.0
 11
-215.7929534912109
 21
279.0518798828125
 31
0.0
  0
LINE
  5
147
330
22
100
AcDbEntity
  8
0
  6
Continuous
 62
     7
100
AcDbLine
 10
-223.8075866699219
 20
286.3594055175781
 30
0.0
 11
-215.7929534912109
 21
278.3447875976563
 31
0.0
  0
LINE
  5
148
330
22
100
AcDbEntity
  8
0
  6
Continuous
 62
     7
100
AcDbLine
 10
-224.4839477539063
 20
284.9144592285156
 30
0.0
 11
-215.7929534912109
 21
276.2234497070313
 31
0.0
  0
LINE
  5
149
330
22
100
AcDbEntity
  8
0
  6
Continuous
 62
     7
100
AcDbLine
 10
-224.7093963623047
 20
284.4328002929688
 30
0.0
 11
-215.7929534912109
 21
275.516357421875
 31
0.0
  0
LINE
  5
14A
330
22
100
AcDbEntity
  8
0
  6
Continuous
 62
     7
100
AcDbLine
 10
-225.3857574462891
 20
282.9878540039063
 30
0.0
 11
-216.2658538818359
 21
273.8679504394531
 31
0.0
  0
LINE
  5
14B
330
22
100
AcDbEntity
  8
0
  6
Continuous
 62
     7
100
AcDbLine
 10
-225.6112213134766
 20
282.5061950683594
 30
0.0
 11
-216.9729614257813
 21
273.8679504394531
 31
0.0
  0
LINE
  5
14C
330
22
100
AcDbEntity
  8
0
  6
Continuous
 62
     7
100
AcDbLine
 10
-222.7929534912109
 20
277.5666198730469
 30
0.0
 11
-219.0942840576172
 21
273.8679504394531
 31
0.0
  0
LINE
  5
14D
330
22
100
AcDbEntity
  8
0
  6
Continuous
 62
     7
100
AcDbLine
 10
-225.7929534912109
 20
280.5666198730469
 30
0.0
 11
-224.4942779541016
 21
279.2679443359375
 31
0.0
  0
LINE
  5
14E
330
22
100
AcDbEntity
  8
0
  6
Continuous
 62
     7
100
AcDbLine
 10
-222.7929534912109
 20
276.8594970703125
 30
0.0
 11
-219.8013916015625
 21
273.8679504394531
 31
0.0
  0
LINE
  5
14F
330
22
100
AcDbEntity
  8
0
  6
Continuous
 62
     7
100
AcDbLine
 10
-225.7929534912109
 20
279.8594970703125
 30
0.0
 11
-225.2013854980469
 21
279.2679443359375
 31
0.0
  0
LINE
  5
150
330
22
100
AcDbEntity
  8
0
  6
Continuous
 62
     7
100
AcDbLine
 10
-217.9226989746094
 20
269.8679504394531
 30
0.0
 11
-216.4226989746094
 21
268.3679504394531
 31
0.0
  0
LINE
  5
151
330
22
100
AcDbEntity
  8
0
  6
Continuous
 62
     7
100
AcDbLine
 10
-222.7929534912109
 20
274.7381896972656
 30
0.0
 11
-221.9226989746094
 21
273.8679504394531
 31
0.0
  0
LINE
  5
152
330
22
100
AcDbEntity
  8
0
  6
Continuous
 62
     7
100
AcDbLine
 10
-218.6298065185547
 20
269.8679504394531
 30
0.0
 11
-217.1298065185547
 21
268.3679504394531
 31
0.0
  0
LINE
  5
153
330
22
100
AcDbEntity
  8
0
  6
Continuous
 62
     7
100
AcDbLine
 10
-222.7929534912109
 20
274.0310668945313
 30
0.0
 11
-222.6298065185547
 21
273.8679504394531
 31
0.0
  0
LINE
  5
154
330
22
100
AcDbEntity
  8
0
  6
Continuous
 62
     7
100
AcDbLine
 10
-220.7511291503906
 20
269.8679504394531
 30
0.0
 11
-219.2511291503906
 21
268.3679504394531
 31
0.0
  0
LINE
  5
155
330
22
100
AcDbEntity
  8
0
  6
Continuous
 62
     7
100
AcDbLine
 10
-221.4582366943359
 20
269.8679504394531
 30
0.0
 11
-219.9582366943359
 21
268.3679504394531
 31
0.0
  0
LINE
  5
156
330
22
100
AcDbEntity
  8
0
  6
Continuous
 62
     7
100
AcDbLine
 10
-222.7929534912109
 20
269.0813293457031
 30
0.0
 11
-222.0795593261719
 21
268.3679504394531
 31
0.0
  0
LINE
  5
157
330
22
100
AcDbEntity
  8
0
  6
Continuous
 62
     7
100
AcDbLine
 10
-222.7929534912109
 20
268.3742065429688
 30
0.0
 11
-222.7866668701172
 21
268.3679504394531
 31
0.0
  0
LINE
  5
158
330
22
100
AcDbEntity
  8
0
  6
Continuous
 62
     7
100
AcDbLine
 10
-147.7929534912109
 20
324.3679504394531
 30
0.0
 11
-147.7929534912109
 21
296.0877685546875
 31
0.0
  0
LINE
  5
159
330
22
100
AcDbEntity
  8
0
  6
Continuous
 62
     7
100
AcDbLine
 10
-128.5929565429688
 20
267.132110595703
 30
0.0
 11
-94.36307525634765
 21
268.2018432617188
 31
0.0
  0
LINE
  5
15A
330
22
100
AcDbEntity
  8
0
  6
Continuous
 62
     7
100
AcDbLine
 10
-126.9237518310547
 20
268.8013000488281
 30
0.0
 11
-92.79295349121094
 21
269.8679504394531
 31
0.0
  0
LINE
  5
15B
330
22
100
AcDbEntity
  8
0
  6
Continuous
 62
     7
100
AcDbLine
 10
-185.7929534912109
 20
275.8515014648438
 30
0.0
 11
-185.7765045166016
 21
275.8679504394531
 31
0.0
  0
LINE
  5
15C
330
22
100
AcDbEntity
  8
0
  6
Continuous
 62
     7
100
AcDbLine
 10
-185.7929534912109
 20
273.0230712890625
 30
0.0
 11
-182.9480743408203
 21
275.8679504394531
 31
0.0
  0
LINE
  5
15D
330
22
100
AcDbEntity
  8
0
  6
Continuous
 62
     7
100
AcDbLine
 10
-185.7929534912109
 20
270.1946411132813
 30
0.0
 11
-180.1196594238281
 21
275.8679504394531
 31
0.0
  0
LINE
  5
15E
330
22
100
AcDbEntity
  8
0
  6
Continuous
 62
     7
100
AcDbLine
 10
-183.2912292480469
 20
269.8679504394531
 30
0.0
 11
-177.2912292480469
 21
275.8679504394531
 31
0.0
  0
LINE
  5
15F
330
22
100
AcDbEntity
  8
0
  6
Continuous
 62
     7
100
AcDbLine
 10
-180.4627990722656
 20
269.8679504394531
 30
0.0
 11
-174.4627990722656
 21
275.8679504394531
 31
0.0
  0
LINE
  5
160
330
22
100
AcDbEntity
  8
0
  6
Continuous
 62
     7
100
AcDbLine
 10
-177.6343688964844
 20
269.8679504394531
 30
0.0
 11
-171.6343688964844
 21
275.8679504394531
 31
0.0
  0
LINE
  5
161
330
22
100
AcDbEntity
  8
0
  6
Continuous
 62
     7
100
AcDbLine
 10
-174.8059387207031
 20
269.8679504394531
 30
0.0
 11
-168.8059387207031
 21
275.8679504394531
 31
0.0
  0
LINE
  5
162
330
22
100
AcDbEntity
  8
0
  6
Continuous
 62
     7
100
AcDbLine
 10
-171.9775238037109
 20
269.8679504394531
 30
0.0
 11
-165.9775238037109
 21
275.8679504394531
 31
0.0
  0
LINE
  5
163
330
22
100
AcDbEntity
  8
0
  6
Continuous
 62
     7
100
AcDbLine
 10
-169.1490936279297
 20
269.8679504394531
 30
0.0
 11
-163.1490936279297
 21
275.8679504394531
 31
0.0
  0
LINE
  5
164
330
22
100
AcDbEntity
  8
0
  6
Continuous
 62
     7
100
AcDbLine
 10
-166.3206634521484
 20
269.8679504394531
 30
0.0
 11
-160.3206634521484
 21
275.8679504394531
 31
0.0
  0
LINE
  5
165
330
22
100
AcDbEntity
  8
0
  6
Continuous
 62
     7
100
AcDbLine
 10
-163.4922332763672
 20
269.8679504394531
 30
0.0
 11
-157.4922332763672
 21
275.8679504394531
 31
0.0
  0
LINE
  5
166
330
22
100
AcDbEntity
  8
0
  6
Continuous
 62
     7
100
AcDbLine
 10
-160.6638031005859
 20
269.8679504394531
 30
0.0
 11
-154.6638031005859
 21
275.8679504394531
 31
0.0
  0
LINE
  5
167
330
22
100
AcDbEntity
  8
0
  6
Continuous
 62
     7
100
AcDbLine
 10
-157.8353881835938
 20
269.8679504394531
 30
0.0
 11
-151.8353881835938
 21
275.8679504394531
 31
0.0
  0
LINE
  5
168
330
22
100
AcDbEntity
  8
0
  6
Continuous
 62
     7
100
AcDbLine
 10
-155.0069580078125
 20
269.8679504394531
 30
0.0
 11
-149.0069580078125
 21
275.8679504394531
 31
0.0
  0
LINE
  5
169
330
22
100
AcDbEntity
  8
0
  6
Continuous
 62
     7
100
AcDbLine
 10
-152.1785278320313
 20
269.8679504394531
 30
0.0
 11
-146.1785278320313
 21
275.8679504394531
 31
0.0
  0
LINE
  5
16A
330
22
100
AcDbEntity
  8
0
  6
Continuous
 62
     7
100
AcDbLine
 10
-149.35009765625
 20
269.8679504394531
 30
0.0
 11
-143.35009765625
 21
275.8679504394531
 31
0.0
  0
LINE
  5
16B
330
22
100
AcDbEntity
  8
0
  6
Continuous
 62
     7
100
AcDbLine
 10
-146.5216674804688
 20
269.8679504394531
 30
0.0
 11
-140.5216674804687
 21
275.8679504394531
 31
0.0
  0
LINE
  5
16C
330
22
100
AcDbEntity
  8
0
  6
Continuous
 62
     7
100
AcDbLine
 10
-143.6932525634766
 20
269.8679504394531
 30
0.0
 11
-137.6932525634766
 21
275.8679504394531
 31
0.0
  0
LINE
  5
16D
330
22
100
AcDbEntity
  8
0
  6
Continuous
 62
     7
100
AcDbLine
 10
-141.6370086669922
 20
269.0957641601563
 30
0.0
 11
-134.8648223876953
 21
275.8679504394531
 31
0.0
  0
LINE
  5
16E
330
22
100
AcDbEntity
  8
0
  6
Continuous
 62
     7
100
AcDbLine
 10
-140.7722320556641
 20
267.132110595703
 30
0.0
 11
-132.0363922119141
 21
275.8679504394531
 31
0.0
  0
LINE
  5
16F
330
22
100
AcDbEntity
  8
0
  6
Continuous
 62
     7
100
AcDbLine
 10
-137.9438018798827
 20
267.132110595703
 30
0.0
 11
-129.2079620361328
 21
275.8679504394531
 31
0.0
  0
LINE
  5
170
330
22
100
AcDbEntity
  8
0
  6
Continuous
 62
     7
100
AcDbLine
 10
-135.1153717041016
 20
267.132110595703
 30
0.0
 11
-126.3795394897461
 21
275.8679504394531
 31
0.0
  0
LINE
  5
171
330
22
100
AcDbEntity
  8
0
  6
Continuous
 62
     7
100
AcDbLine
 10
-132.2869567871094
 20
267.132110595703
 30
0.0
 11
-123.5511093139648
 21
275.8679504394531
 31
0.0
  0
LINE
  5
172
330
22
100
AcDbEntity
  8
0
  6
Continuous
 62
     7
100
AcDbLine
 10
-129.4585266113281
 20
267.132110595703
 30
0.0
 11
-120.7226867675781
 21
275.8679504394531
 31
0.0
  0
LINE
  5
173
330
22
100
AcDbEntity
  8
0
  6
Continuous
 62
     7
100
AcDbLine
 10
-124.897575378418
 20
268.8646240234375
 30
0.0
 11
-117.8942565917969
 21
275.8679504394531
 31
0.0
  0
LINE
  5
174
330
22
100
AcDbEntity
  8
0
  6
Continuous
 62
     7
100
AcDbLine
 10
-121.9779052734375
 20
268.9558715820313
 30
0.0
 11
-115.0658340454102
 21
275.8679504394531
 31
0.0
  0
LINE
  5
175
330
22
100
AcDbEntity
  8
0
  6
Continuous
 62
     7
100
AcDbLine
 10
-119.058235168457
 20
269.047119140625
 30
0.0
 11
-112.2374038696289
 21
275.8679504394531
 31
0.0
  0
LINE
  5
176
330
22
100
AcDbEntity
  8
0
  6
Continuous
 62
     7
100
AcDbLine
 10
-116.1385650634766
 20
269.1383361816406
 30
0.0
 11
-109.4089736938477
 21
275.8679504394531
 31
0.0
  0
LINE
  5
177
330
22
100
AcDbEntity
  8
0
  6
Continuous
 62
     7
100
AcDbLine
 10
-113.2188949584961
 20
269.2295837402344
 30
0.0
 11
-106.5805511474609
 21
275.8679504394531
 31
0.0
  0
LINE
  5
178
330
22
100
AcDbEntity
  8
0
  6
Continuous
 62
     7
100
AcDbLine
 10
-110.2992172241211
 20
269.3208312988281
 30
0.0
 11
-103.7521209716797
 21
275.8679504394531
 31
0.0
  0
LINE
  5
179
330
22
100
AcDbEntity
  8
0
  6
Continuous
 62
     7
100
AcDbLine
 10
-107.3795471191406
 20
269.4120788574219
 30
0.0
 11
-100.923698425293
 21
275.8679504394531
 31
0.0
  0
LINE
  5
17A
330
22
100
AcDbEntity
  8
0
  6
Continuous
 62
     7
100
AcDbLine
 10
-104.4598770141602
 20
269.5033264160155
 30
0.0
 11
-98.09526824951172
 21
275.8679504394531
 31
0.0
  0
LINE
  5
17B
330
22
100
AcDbEntity
  8
0
  6
Continuous
 62
     7
100
AcDbLine
 10
-101.5402069091797
 20
269.5945739746094
 30
0.0
 11
-95.26683807373048
 21
275.8679504394531
 31
0.0
  0
LINE
  5
17C
330
22
100
AcDbEntity
  8
0
  6
Continuous
 62
     7
100
AcDbLine
 10
-98.62053680419922
 20
269.6858215332031
 30
0.0
 11
-92.79295349121094
 21
275.5133972167969
 31
0.0
  0
LINE
  5
17D
330
22
100
AcDbEntity
  8
0
  6
Continuous
 62
     7
100
AcDbLine
 10
-95.70086669921876
 20
269.7770690917969
 30
0.0
 11
-92.79295349121094
 21
272.6849670410156
 31
0.0
  0
LINE
  5
17E
330
22
100
AcDbEntity
  8
0
  6
Continuous
 62
     7
100
AcDbLine
 10
-185.7929534912109
 20
275.8679504394531
 30
0.0
 11
-92.79295349121094
 21
275.8679504394531
 31
0.0
  0
LINE
  5
17F
330
22
100
AcDbEntity
  8
0
  6
Continuous
 62
     7
100
AcDbLine
 10
-140.7929534912109
 20
268.2516784667969
 30
0.0
 11
-142.4091949462891
 21
269.8679504394531
 31
0.0
  0
LINE
  5
180
330
22
100
AcDbEntity
  8
0
  6
Continuous
 62
     7
100
AcDbLine
 10
-183.8929443359375
 20
268.2516784667969
 30
0.0
 11
-140.7929534912109
 21
268.2516784667969
 31
0.0
  0
LINE
  5
181
330
22
100
AcDbEntity
  8
0
  6
Continuous
 62
     7
100
AcDbLine
 10
-225.7929534912109
 20
276.8679504394531
 30
0.0
 11
-222.7929534912109
 21
273.8679504394531
 31
0.0
  0
LINE
  5
182
330
22
100
AcDbEntity
  8
0
  6
Continuous
 62
     7
100
AcDbLine
 10
-92.79295349121094
 20
269.8679504394531
 30
0.0
 11
-94.36307525634765
 21
268.2018432617188
 31
0.0
  0
LINE
  5
183
330
22
100
AcDbEntity
  8
0
  6
Continuous
 62
     7
100
AcDbLine
 10
-145.3802032470703
 20
324.3679504394531
 30
0.0
 11
-144.7929534912109
 21
323.7807006835938
 31
0.0
  0
LINE
  5
184
330
22
100
AcDbEntity
  8
0
  6
Continuous
 62
     7
100
AcDbLine
 10
-147.5015106201172
 20
324.3679504394531
 30
0.0
 11
-144.7929534912109
 21
321.6593627929688
 31
0.0
  0
LINE
  5
185
330
22
100
AcDbEntity
  8
0
  6
Continuous
 62
     7
100
AcDbLine
 10
-147.7929534912109
 20
323.9522705078125
 30
0.0
 11
-144.7929534912109
 21
320.9522705078125
 31
0.0
  0
LINE
  5
186
330
22
100
AcDbEntity
  8
0
  6
Continuous
 62
     7
100
AcDbLine
 10
-147.7929534912109
 20
321.8309326171875
 30
0.0
 11
-144.7929534912109
 21
318.8309326171875
 31
0.0
  0
LINE
  5
187
330
22
100
AcDbEntity
  8
0
  6
Continuous
 62
     7
100
AcDbLine
 10
-147.7929534912109
 20
321.1238403320313
 30
0.0
 11
-144.7929534912109
 21
318.1238403320313
 31
0.0
  0
LINE
  5
188
330
22
100
AcDbEntity
  8
0
  6
Continuous
 62
     7
100
AcDbLine
 10
-145.8043365478516
 20
311.3570556640625
 30
0.0
 11
-144.7929534912109
 21
310.3456726074219
 31
0.0
  0
LINE
  5
189
330
22
100
AcDbEntity
  8
0
  6
Continuous
 62
     7
100
AcDbLine
 10
-146.1578979492188
 20
311.0035095214844
 30
0.0
 11
-144.7929534912109
 21
309.6385498046875
 31
0.0
  0
LINE
  5
18A
330
22
100
AcDbEntity
  8
0
  6
Continuous
 62
     7
100
AcDbLine
 10
-147.2185516357422
 20
309.9428405761719
 30
0.0
 11
-144.7929534912109
 21
307.5172424316406
 31
0.0
  0
LINE
  5
18B
330
22
100
AcDbEntity
  8
0
  6
Continuous
 62
     7
100
AcDbLine
 10
-147.5721130371094
 20
309.5892944335938
 30
0.0
 11
-144.7929534912109
 21
306.8101196289063
 31
0.0
  0
LINE
  5
18C
330
22
100
AcDbEntity
  8
0
  6
Continuous
 62
     7
100
AcDbLine
 10
-147.7929534912109
 20
307.6888122558594
 30
0.0
 11
-144.7929534912109
 21
304.6888122558594
 31
0.0
  0
LINE
  5
18D
330
22
100
AcDbEntity
  8
0
  6
Continuous
 62
     7
100
AcDbLine
 10
-146.9529418945313
 20
306.1416931152344
 30
0.0
 11
-144.7929534912109
 21
303.981689453125
 31
0.0
  0
LINE
  5
18E
330
22
100
AcDbEntity
  8
0
  6
Continuous
 62
     7
100
AcDbLine
 10
-147.7929534912109
 20
304.8603820800781
 30
0.0
 11
-144.7929534912109
 21
301.8603820800781
 31
0.0
  0
LINE
  5
18F
330
22
100
AcDbEntity
  8
0
  6
Continuous
 62
     7
100
AcDbLine
 10
-147.7929534912109
 20
304.1532592773438
 30
0.0
 11
-144.7929534912109
 21
301.1532592773438
 31
0.0
  0
LINE
  5
190
330
22
100
AcDbEntity
  8
0
  6
Continuous
 62
     7
100
AcDbLine
 10
-147.7929534912109
 20
302.0319519042969
 30
0.0
 11
-144.7929534912109
 21
299.0319519042969
 31
0.0
  0
LINE
  5
191
330
22
100
AcDbEntity
  8
0
  6
Continuous
 62
     7
100
AcDbLine
 10
-147.7929534912109
 20
301.3248596191406
 30
0.0
 11
-144.7929534912109
 21
298.3248596191406
 31
0.0
  0
LINE
  5
192
330
22
100
AcDbEntity
  8
0
  6
Continuous
 62
     7
100
AcDbLine
 10
-147.7929534912109
 20
299.2035217285156
 30
0.0
 11
-144.7929534912109
 21
296.2035217285156
 31
0.0
  0
LINE
  5
193
330
22
100
AcDbEntity
  8
0
  6
Continuous
 62
     7
100
AcDbLine
 10
-147.7929534912109
 20
298.4964294433594
 30
0.0
 11
-144.7929534912109
 21
295.4964294433594
 31
0.0
  0
LINE
  5
194
330
22
100
AcDbEntity
  8
0
  6
Continuous
 62
     7
100
AcDbLine
 10
-147.7929534912109
 20
296.3750915527344
 30
0.0
 11
-144.7929534912109
 21
293.3750915527344
 31
0.0
  0
LINE
  5
195
330
22
100
AcDbEntity
  8
0
  6
Continuous
 62
     7
100
AcDbLine
 10
-147.7929534912109
 20
295.6679992675781
 30
0.0
 11
-144.7929534912109
 21
292.6679992675781
 31
0.0
  0
LINE
  5
196
330
22
100
AcDbEntity
  8
0
  6
Continuous
 62
     7
100
AcDbLine
 10
-147.7929534912109
 20
293.5466613769531
 30
0.0
 11
-144.7929534912109
 21
290.5466613769531
 31
0.0
  0
LINE
  5
197
330
22
100
AcDbEntity
  8
0
  6
Continuous
 62
     7
100
AcDbLine
 10
-147.7929534912109
 20
292.8395690917969
 30
0.0
 11
-144.7929534912109
 21
289.8395690917969
 31
0.0
  0
LINE
  5
198
330
22
100
AcDbEntity
  8
0
  6
Continuous
 62
     7
100
AcDbLine
 10
-147.7929534912109
 20
290.7182312011719
 30
0.0
 11
-144.7929534912109
 21
287.7182312011719
 31
0.0
  0
LINE
  5
199
330
22
100
AcDbEntity
  8
0
  6
Continuous
 62
     7
100
AcDbLine
 10
-147.1460266113281
 20
289.3642272949218
 30
0.0
 11
-144.7929534912109
 21
287.0111389160156
 31
0.0
  0
LINE
  5
19A
330
22
100
AcDbEntity
  8
0
  6
Continuous
 62
     7
100
AcDbLine
 10
-147.7929534912109
 20
287.8898315429688
 30
0.0
 11
-144.7929534912109
 21
284.8898315429688
 31
0.0
  0
LINE
  5
19B
330
22
100
AcDbEntity
  8
0
  6
Continuous
 62
     7
100
AcDbLine
 10
-147.7929534912109
 20
287.1827087402344
 30
0.0
 11
-144.7929534912109
 21
284.1827087402344
 31
0.0
  0
LINE
  5
19C
330
22
100
AcDbEntity
  8
0
  6
Continuous
 62
     7
100
AcDbLine
 10
-147.7929534912109
 20
285.0614013671875
 30
0.0
 11
-144.7929534912109
 21
282.0614013671875
 31
0.0
  0
LINE
  5
19D
330
22
100
AcDbEntity
  8
0
  6
Continuous
 62
     7
100
AcDbLine
 10
-147.7929534912109
 20
284.3542785644531
 30
0.0
 11
-144.7929534912109
 21
281.3542785644531
 31
0.0
  0
LINE
  5
19E
330
22
100
AcDbEntity
  8
0
  6
Continuous
 62
     7
100
AcDbLine
 10
-147.7929534912109
 20
282.2329711914063
 30
0.0
 11
-144.7929534912109
 21
279.2329711914063
 31
0.0
  0
LINE
  5
19F
330
22
100
AcDbEntity
  8
0
  6
Continuous
 62
     7
100
AcDbLine
 10
-147.7929534912109
 20
281.5258483886719
 30
0.0
 11
-144.7929534912109
 21
278.5258483886719
 31
0.0
  0
LINE
  5
1A0
330
22
100
AcDbEntity
  8
0
  6
Continuous
 62
     7
100
AcDbLine
 10
-147.7929534912109
 20
279.404541015625
 30
0.0
 11
-144.7929534912109
 21
276.404541015625
 31
0.0
  0
LINE
  5
1A1
330
22
100
AcDbEntity
  8
0
  6
Continuous
 62
     7
100
AcDbLine
 10
-147.7929534912109
 20
278.6974182128906
 30
0.0
 11
-144.9634552001953
 21
275.8679504394531
 31
0.0
  0
LINE
  5
1A2
330
22
100
AcDbEntity
  8
0
  6
Continuous
 62
     7
100
AcDbLine
 10
-147.7929534912109
 20
276.5761108398438
 30
0.0
 11
-147.0847778320313
 21
275.8679504394531
 31
0.0
  0
LINE
  5
1A3
330
22
100
AcDbEntity
  8
0
  6
Continuous
 62
     7
100
AcDbLine
 10
-147.7929534912109
 20
275.8689880371094
 30
0.0
 11
-147.7918853759766
 21
275.8679504394531
 31
0.0
  0
LINE
  5
1A4
330
22
100
AcDbEntity
  8
0
  6
Continuous
 62
     7
100
AcDbLine
 10
-147.7929534912109
 20
324.3679504394531
 30
0.0
 11
-144.7929534912109
 21
324.3679504394531
 31
0.0
  0
LINE
  5
1A5
330
22
100
AcDbEntity
  8
0
  6
Continuous
 62
     7
100
AcDbLine
 10
-144.79345703125
 20
317.1179504394531
 30
0.0
 11
-145.54345703125
 21
317.1179504394531
 31
0.0
  0
LINE
  5
1A6
330
22
100
AcDbEntity
  8
0
  6
Continuous
 62
     7
100
AcDbLine
 10
-144.79345703125
 20
311.6179504394531
 30
0.0
 11
-145.54345703125
 21
311.6179504394531
 31
0.0
  0
LINE
  5
1A7
330
22
100
AcDbEntity
  8
0
  6
Continuous
 62
     7
100
AcDbLine
 10
-147.79345703125
 20
319.3679504394531
 30
0.0
 11
-145.54345703125
 21
317.1179504394531
 31
0.0
  0
LINE
  5
1A8
330
22
100
AcDbEntity
  8
0
  6
Continuous
 62
     7
100
AcDbLine
 10
-147.79345703125
 20
309.3679504394531
 30
0.0
 11
-145.54345703125
 21
311.6179504394531
 31
0.0
  0
LINE
  5
1A9
330
22
100
AcDbEntity
  8
0
  6
Continuous
 62
     7
100
AcDbLine
 10
-147.7929534912109
 20
307.3016967773438
 30
0.0
 11
-146.7929534912109
 21
306.3016967773438
 31
0.0
  0
LINE
  5
1AA
330
22
100
AcDbEntity
  8
0
  6
Continuous
 62
     7
100
AcDbLine
 10
-146.7929534912109
 20
289.71728515625
 30
0.0
 11
-147.7929534912109
 21
288.71728515625
 31
0.0
  0
LINE
  5
1AB
330
22
100
AcDbEntity
  8
0
  6
Continuous
 62
     7
100
AcDbLine
 10
-146.7929534912109
 20
306.3016967773438
 30
0.0
 11
-147.7929534912109
 21
305.3016967773438
 31
0.0
  0
LINE
  5
1AC
330
22
100
AcDbEntity
  8
0
  6
Continuous
 62
     7
100
AcDbLine
 10
-147.7929534912109
 20
290.71728515625
 30
0.0
 11
-146.7929534912109
 21
289.71728515625
 31
0.0
  0
LINE
  5
1AD
330
22
100
AcDbEntity
  8
0
  6
Continuous
 62
     7
100
AcDbLine
 10
-147.7929534912109
 20
324.3679504394531
 30
0.0
 11
-147.7929534912109
 21
275.8679504394531
 31
0.0
  0
LINE
  5
1AE
330
22
100
AcDbEntity
  8
0
  6
Continuous
 62
     7
100
AcDbLine
 10
-144.7929534912109
 20
324.3679504394531
 30
0.0
 11
-144.7929534912109
 21
275.8679504394531
 31
0.0
  0
LINE
  5
1AF
330
22
100
AcDbEntity
  8
0
  6
Continuous
 62
     7
100
AcDbLine
 10
-128.5929565429688
 20
267.132110595703
 30
0.0
 11
-140.7929534912109
 21
267.132110595703
 31
0.0
  0
LINE
  5
1B0
330
22
100
AcDbEntity
  8
0
  6
Continuous
 62
     7
100
AcDbLine
 10
-140.7929534912109
 20
267.132110595703
 30
0.0
 11
-140.7929534912109
 21
268.2516784667969
 31
0.0
  0
LINE
  5
1B1
330
22
100
AcDbEntity
  8
0
  6
Continuous
 62
     7
100
AcDbLine
 10
-165.7929534912109
 20
268.3679504394531
 30
0.0
 11
-167.2429504394531
 21
269.8179321289063
 31
0.0
  0
LINE
  5
1B2
330
22
100
AcDbEntity
  8
0
  6
Continuous
 62
     7
100
AcDbLine
 10
-165.7929534912109
 20
268.3679504394531
 30
0.0
 11
-195.7929534912109
 21
268.3679504394531
 31
0.0
  0
LINE
  5
1B3
330
22
100
AcDbEntity
  8
0
  6
Continuous
 62
     7
100
AcDbLine
 10
-222.7929534912109
 20
264.1462707519531
 30
0.0
 11
-219.7212829589844
 21
267.2179260253906
 31
0.0
  0
LINE
  5
1B4
330
22
100
AcDbEntity
  8
0
  6
Continuous
 62
     7
100
AcDbLine
 10
-219.3286437988281
 20
263.3679504394531
 30
0.0
 11
-213.1836853027344
 21
269.5129089355469
 31
0.0
  0
LINE
  5
1B5
330
22
100
AcDbEntity
  8
0
  6
Continuous
 62
     7
100
AcDbLine
 10
-215.0859985351563
 20
263.3679504394531
 30
0.0
 11
-208.6914825439453
 21
269.762451171875
 31
0.0
  0
LINE
  5
1B6
330
22
100
AcDbEntity
  8
0
  6
Continuous
 62
     7
100
AcDbLine
 10
-210.8433685302734
 20
263.3679504394531
 30
0.0
 11
-204.1992645263672
 21
270.0120239257813
 31
0.0
  0
LINE
  5
1B7
330
22
100
AcDbEntity
  8
0
  6
Continuous
 62
     7
100
AcDbLine
 10
-206.6007232666016
 20
263.3679504394531
 30
0.0
 11
-199.7070617675781
 21
270.2615966796875
 31
0.0
  0
LINE
  5
1B8
330
22
100
AcDbEntity
  8
0
  6
Continuous
 62
     7
100
AcDbLine
 10
-202.3580780029297
 20
263.3679504394531
 30
0.0
 11
-196.5755157470703
 21
269.1505126953125
 31
0.0
  0
LINE
  5
1B9
330
22
100
AcDbEntity
  8
0
  6
Continuous
 62
     7
100
AcDbLine
 10
-198.1154327392578
 20
263.3679504394531
 30
0.0
 11
-193.1154327392578
 21
268.3679504394531
 31
0.0
  0
LINE
  5
1BA
330
22
100
AcDbEntity
  8
0
  6
Continuous
 62
     7
100
AcDbLine
 10
-193.872802734375
 20
263.3679504394531
 30
0.0
 11
-188.872802734375
 21
268.3679504394531
 31
0.0
  0
LINE
  5
1BB
330
22
100
AcDbEntity
  8
0
  6
Continuous
 62
     7
100
AcDbLine
 10
-189.6301574707031
 20
263.3679504394531
 30
0.0
 11
-184.6301574707031
 21
268.3679504394531
 31
0.0
  0
LINE
  5
1BC
330
22
100
AcDbEntity
  8
0
  6
Continuous
 62
     7
100
AcDbLine
 10
-185.3875122070313
 20
263.3679504394531
 30
0.0
 11
-180.3875122070313
 21
268.3679504394531
 31
0.0
  0
LINE
  5
1BD
330
22
100
AcDbEntity
  8
0
  6
Continuous
 62
     7
100
AcDbLine
 10
-181.1448822021484
 20
263.3679504394531
 30
0.0
 11
-176.1448822021484
 21
268.3679504394531
 31
0.0
  0
LINE
  5
1BE
330
22
100
AcDbEntity
  8
0
  6
Continuous
 62
     7
100
AcDbLine
 10
-176.9022369384766
 20
263.3679504394531
 30
0.0
 11
-171.9022369384766
 21
268.3679504394531
 31
0.0
  0
LINE
  5
1BF
330
22
100
AcDbEntity
  8
0
  6
Continuous
 62
     7
100
AcDbLine
 10
-172.6595916748047
 20
263.3679504394531
 30
0.0
 11
-167.6595916748047
 21
268.3679504394531
 31
0.0
  0
LINE
  5
1C0
330
22
100
AcDbEntity
  8
0
  6
Continuous
 62
     7
100
AcDbLine
 10
-168.4169616699219
 20
263.3679504394531
 30
0.0
 11
-165.7929534912109
 21
265.991943359375
 31
0.0
  0
LINE
  5
1C1
330
22
100
AcDbEntity
  8
0
  6
Continuous
 62
     7
100
AcDbLine
 10
-222.7929534912109
 20
266.267578125
 30
0.0
 11
-221.8426055908203
 21
267.2179260253906
 31
0.0
  0
LINE
  5
1C2
330
22
100
AcDbEntity
  8
0
  6
Continuous
 62
     7
100
AcDbLine
 10
-215.7929534912109
 20
269.0249633789063
 30
0.0
 11
-215.4297943115234
 21
269.3881225585938
 31
0.0
  0
LINE
  5
1C3
330
22
100
AcDbEntity
  8
0
  6
Continuous
 62
     7
100
AcDbLine
 10
-221.4499664306641
 20
263.3679504394531
 30
0.0
 11
-217.5999603271484
 21
267.2179260253906
 31
0.0
  0
LINE
  5
1C4
330
22
100
AcDbEntity
  8
0
  6
Continuous
 62
     7
100
AcDbLine
 10
-217.2073211669922
 20
263.3679504394531
 30
0.0
 11
-210.9375762939453
 21
269.6376647949219
 31
0.0
  0
LINE
  5
1C5
330
22
100
AcDbEntity
  8
0
  6
Continuous
 62
     7
100
AcDbLine
 10
-212.9646759033203
 20
263.3679504394531
 30
0.0
 11
-206.4453735351563
 21
269.8872375488281
 31
0.0
  0
LINE
  5
1C6
330
22
100
AcDbEntity
  8
0
  6
Continuous
 62
     7
100
AcDbLine
 10
-208.7220458984375
 20
263.3679504394531
 30
0.0
 11
-201.9531707763672
 21
270.1368103027344
 31
0.0
  0
LINE
  5
1C7
330
22
100
AcDbEntity
  8
0
  6
Continuous
 62
     7
100
AcDbLine
 10
-204.4794006347656
 20
263.3679504394531
 30
0.0
 11
-197.6361694335938
 21
270.2111511230469
 31
0.0
  0
LINE
  5
1C8
330
22
100
AcDbEntity
  8
0
  6
Continuous
 62
     7
100
AcDbLine
 10
-200.2367553710938
 20
263.3679504394531
 30
0.0
 11
-195.2367553710938
 21
268.3679504394531
 31
0.0
  0
LINE
  5
1C9
330
22
100
AcDbEntity
  8
0
  6
Continuous
 62
     7
100
AcDbLine
 10
-195.9941253662109
 20
263.3679504394531
 30
0.0
 11
-190.9941253662109
 21
268.3679504394531
 31
0.0
  0
LINE
  5
1CA
330
22
100
AcDbEntity
  8
0
  6
Continuous
 62
     7
100
AcDbLine
 10
-191.751480102539
 20
263.3679504394531
 30
0.0
 11
-186.7514801025391
 21
268.3679504394531
 31
0.0
  0
LINE
  5
1CB
330
22
100
AcDbEntity
  8
0
  6
Continuous
 62
     7
100
AcDbLine
 10
-187.5088348388672
 20
263.3679504394531
 30
0.0
 11
-182.5088348388672
 21
268.3679504394531
 31
0.0
  0
LINE
  5
1CC
330
22
100
AcDbEntity
  8
0
  6
Continuous
 62
     7
100
AcDbLine
 10
-183.2662048339844
 20
263.3679504394531
 30
0.0
 11
-178.2662048339844
 21
268.3679504394531
 31
0.0
  0
LINE
  5
1CD
330
22
100
AcDbEntity
  8
0
  6
Continuous
 62
     7
100
AcDbLine
 10
-179.0235595703125
 20
263.3679504394531
 30
0.0
 11
-174.0235595703125
 21
268.3679504394531
 31
0.0
  0
LINE
  5
1CE
330
22
100
AcDbEntity
  8
0
  6
Continuous
 62
     7
100
AcDbLine
 10
-174.7809143066406
 20
263.3679504394531
 30
0.0
 11
-169.7809143066406
 21
268.3679504394531
 31
0.0
  0
LINE
  5
1CF
330
22
100
AcDbEntity
  8
0
  6
Continuous
 62
     7
100
AcDbLine
 10
-170.5382690429688
 20
263.3679504394531
 30
0.0
 11
-165.7929534912109
 21
268.1132507324219
 31
0.0
  0
LINE
  5
1D0
330
22
100
AcDbEntity
  8
0
  6
Continuous
 62
     7
100
AcDbLine
 10
-166.2956390380859
 20
263.3679504394531
 30
0.0
 11
-165.7929534912109
 21
263.8706359863281
 31
0.0
  0
LINE
  5
1D1
330
22
100
AcDbEntity
  8
0
  6
Continuous
 62
     7
100
AcDbLine
 10
-197.7929534912109
 20
270.3679504394531
 30
0.0
 11
-215.7929534912109
 21
270.3679504394531
 31
0.0
  0
LINE
  5
1D2
330
22
100
AcDbEntity
  8
0
  6
Continuous
 62
     7
100
AcDbLine
 10
-215.7929534912109
 20
293.8679504394531
 30
0.0
 11
-219.9749298095703
 21
293.8679504394531
 31
0.0
  0
LINE
  5
1D3
330
22
100
AcDbEntity
  8
0
  6
Continuous
 62
     7
100
AcDbLine
 10
-225.6986389160156
 20
282.3194274902344
 30
0.0
 11
-220.4277801513672
 21
293.5798950195313
 31
0.0
  0
LINE
  5
1D4
330
22
100
AcDbEntity
  8
0
  6
Continuous
 62
     7
100
AcDbLine
 10
-225.6986389160156
 20
144.4164581298828
 30
0.0
 11
-220.4277801513672
 21
133.1559600830078
 31
0.0
  0
LINE
  5
1D5
330
22
100
AcDbEntity
  8
0
  6
Continuous
 62
     7
100
AcDbLine
 10
-144.7929534912109
 20
150.8679351806641
 30
0.0
 11
-92.79295349121094
 21
150.8679351806641
 31
0.0
  0
LINE
  5
1D6
330
22
100
AcDbEntity
  8
0
  6
Continuous
 62
     7
100
AcDbLine
 10
-185.7929534912109
 20
150.8679351806641
 30
0.0
 11
-147.7929534912109
 21
150.8679351806641
 31
0.0
  0
LINE
  5
1D7
330
22
100
AcDbEntity
  8
0
  6
Continuous
 62
     7
100
AcDbLine
 10
-195.7929534912109
 20
158.3679351806641
 30
0.0
 11
-197.7929534912109
 21
156.3679351806641
 31
0.0
  0
LINE
  5
1D8
330
22
100
AcDbEntity
  8
0
  6
Continuous
 62
     7
100
AcDbLine
 10
-197.7929534912109
 20
156.3679351806641
 30
0.0
 11
-215.7929534912109
 21
156.3679351806641
 31
0.0
  0
LINE
  5
1D9
330
22
100
AcDbEntity
  8
0
  6
Continuous
 62
     7
100
AcDbLine
 10
-219.9749298095703
 20
132.8679351806641
 30
0.0
 11
-215.7929534912109
 21
132.8679351806641
 31
0.0
  0
LINE
  5
1DA
330
22
100
AcDbEntity
  8
0
  6
Continuous
 62
     7
100
AcDbLine
 10
-185.7929534912109
 20
156.9179382324219
 30
0.0
 11
-197.2429504394531
 21
156.9179382324219
 31
0.0
  0
LINE
  5
1DB
330
22
100
AcDbEntity
  8
0
  6
Continuous
 62
     7
100
AcDbLine
 10
-185.7929534912109
 20
158.3679351806641
 30
0.0
 11
-195.7929534912109
 21
158.3679351806641
 31
0.0
  0
LINE
  5
1DC
330
22
100
AcDbEntity
  8
0
  6
Continuous
 62
     7
100
AcDbLine
 10
-225.7929534912109
 20
215.8679351806641
 30
0.0
 11
-222.7929534912109
 21
215.8679351806641
 31
0.0
  0
LINE
  5
1DD
330
22
100
AcDbEntity
  8
0
  6
Continuous
 62
     7
100
AcDbLine
 10
-220.2929534912109
 20
213.3679351806641
 30
0.0
 11
-220.2929534912109
 21
135.9930725097656
 31
0.0
  0
LINE
  5
1DE
330
22
100
AcDbEntity
  8
0
  6
Continuous
 62
     7
100
AcDbLine
 10
-215.7929534912109
 20
132.8679351806641
 30
0.0
 11
-215.7929534912109
 21
213.3679351806641
 31
0.0
  0
LINE
  5
1DF
330
22
100
AcDbEntity
  8
0
  6
Continuous
 62
     7
100
AcDbLine
 10
-185.7929534912109
 20
213.3679351806641
 30
0.0
 11
-185.7929534912109
 21
150.8679351806641
 31
0.0
  0
LINE
  5
1E0
330
22
100
AcDbEntity
  8
0
  6
Continuous
 62
     7
100
AcDbLine
 10
-195.7929534912109
 20
158.3679351806641
 30
0.0
 11
-195.7929534912109
 21
213.3679351806641
 31
0.0
  0
LINE
  5
1E1
330
22
100
AcDbEntity
  8
0
  6
CENTER
 62
     7
100
AcDbLine
 10
-244.9927368164063
 20
213.3679351806641
 30
0.0
 11
-75.96710205078125
 21
213.3679351806641
 31
0.0
  0
LINE
  5
1E2
330
22
100
AcDbEntity
  8
0
  6
Continuous
 62
     7
100
AcDbLine
 10
-144.7929534912109
 20
213.3679351806641
 30
0.0
 11
-144.7929534912109
 21
102.3679351806641
 31
0.0
  0
LINE
  5
1E3
330
22
100
AcDbEntity
  8
0
  6
Continuous
 62
     7
100
AcDbLine
 10
-147.7929534912109
 20
213.3679351806641
 30
0.0
 11
-147.7929534912109
 21
102.3679351806641
 31
0.0
  0
LINE
  5
1E4
330
22
100
AcDbEntity
  8
0
  6
Continuous
 62
     7
100
AcDbLine
 10
-167.2429504394531
 20
269.8179321289063
 30
0.0
 11
-197.2429504394531
 21
269.8179321289063
 31
0.0
  0
LINE
  5
1E5
330
22
100
AcDbEntity
  8
0
  6
Continuous
 62
     7
100
AcDbLine
 10
-195.7929534912109
 20
268.3679504394531
 30
0.0
 11
-197.7929534912109
 21
270.3679504394531
 31
0.0
  0
LINE
  5
1E6
330
22
100
AcDbEntity
  8
0
  6
Continuous
 62
     7
100
AcDbLine
 10
-222.7929534912109
 20
263.3679504394531
 30
0.0
 11
-165.7929534912109
 21
263.3679504394531
 31
0.0
  0
LINE
  5
1E7
330
22
100
AcDbEntity
  8
0
  6
Continuous
 62
     7
100
AcDbLine
 10
-185.7929534912109
 20
275.8679504394531
 30
0.0
 11
-185.7929534912109
 21
269.8179321289063
 31
0.0
  0
LINE
  5
1E8
330
22
100
AcDbEntity
  8
0
  6
Continuous
 62
     7
100
AcDbLine
 10
-185.7929534912109
 20
269.8679504394531
 30
0.0
 11
-142.4091949462891
 21
269.8679504394531
 31
0.0
  0
LINE
  5
1E9
330
22
100
AcDbEntity
  8
0
  6
Continuous
 62
     7
100
AcDbLine
 10
-128.5929565429688
 20
267.132110595703
 30
0.0
 11
-126.9237518310547
 21
268.8013000488281
 31
0.0
  0
LINE
  5
1EA
330
22
100
AcDbEntity
  8
0
  6
Continuous
 62
     7
100
AcDbLine
 10
-144.7929534912109
 20
102.3679351806641
 30
0.0
 11
-147.7929534912109
 21
102.3679351806641
 31
0.0
  0
LINE
  5
1EB
330
22
100
AcDbEntity
  8
0
  6
Continuous
 62
     7
100
AcDbLine
 10
-225.7929534912109
 20
281.8954772949219
 30
0.0
 11
-225.7929534912109
 21
144.8403930664063
 31
0.0
  0
LINE
  5
1EC
330
22
100
AcDbEntity
  8
0
  6
Continuous
 62
     7
100
AcDbLine
 10
-222.7929534912109
 20
269.8679504394531
 30
0.0
 11
-222.7929534912109
 21
213.3679351806641
 31
0.0
  0
LINE
  5
1ED
330
22
100
AcDbEntity
  8
0
  6
Continuous
 62
     7
100
AcDbLine
 10
-165.7929534912109
 20
213.3679351806641
 30
0.0
 11
-165.7929534912109
 21
268.3679504394531
 31
0.0
  0
LINE
  5
1EE
330
22
100
AcDbEntity
  8
0
  6
Continuous
 62
     7
100
AcDbLine
 10
-94.36307525634765
 20
268.2018432617188
 30
0.0
 11
-94.36307525634765
 21
213.3679351806641
 31
0.0
  0
LINE
  5
1EF
330
22
100
AcDbEntity
  8
0
  6
Continuous
 62
     7
100
AcDbLine
 10
-92.79295349121094
 20
275.8679504394531
 30
0.0
 11
-92.79295349121094
 21
150.8679351806641
 31
0.0
  0
LINE
  5
1F0
330
22
100
AcDbEntity
  8
0
  6
Continuous
 62
     7
100
AcDbLine
 10
-126.9237518310547
 20
268.8013000488281
 30
0.0
 11
-126.9237518310547
 21
213.3679351806641
 31
0.0
  0
LINE
  5
1F1
330
22
100
AcDbEntity
  8
0
  6
Continuous
 62
     7
100
AcDbLine
 10
-140.7929534912109
 20
267.132110595703
 30
0.0
 11
-140.7929534912109
 21
213.3679351806641
 31
0.0
  0
LINE
  5
1F2
330
22
100
AcDbEntity
  8
0
  6
Continuous
 62
     7
100
AcDbLine
 10
-142.4091949462891
 20
269.8679504394531
 30
0.0
 11
-142.4091949462891
 21
213.3679351806641
 31
0.0
  0
LINE
  5
1F3
330
22
100
AcDbEntity
  8
0
  6
Continuous
 62
     7
100
AcDbLine
 10
-225.7929534912109
 20
277.9105224609375
 30
0.0
 11
-224.8355407714844
 21
278.8679504394531
 31
0.0
  0
LINE
  5
1F4
330
22
100
AcDbEntity
  8
0
  6
Continuous
 62
     7
100
AcDbLine
 10
-224.9000396728516
 20
275.9750366210938
 30
0.0
 11
-222.7929534912109
 21
278.0820922851563
 31
0.0
  0
LINE
  5
1F5
330
22
100
AcDbEntity
  8
0
  6
Continuous
 62
     7
100
AcDbLine
 10
-223.4858245849609
 20
274.5608215332031
 30
0.0
 11
-222.7929534912109
 21
275.2536926269531
 31
0.0
  0
LINE
  5
1F6
330
22
100
AcDbEntity
  8
0
  6
Continuous
 62
     7
100
AcDbLine
 10
-225.7929534912109
 20
266.5968322753906
 30
0.0
 11
-222.7929534912109
 21
269.5968322753905
 31
0.0
  0
LINE
  5
1F7
330
22
100
AcDbEntity
  8
0
  6
Continuous
 62
     7
100
AcDbLine
 10
-225.7929534912109
 20
263.7684020996094
 30
0.0
 11
-222.7929534912109
 21
266.7684020996095
 31
0.0
  0
LINE
  5
1F8
330
22
100
AcDbEntity
  8
0
  6
Continuous
 62
     7
100
AcDbLine
 10
-225.7929534912109
 20
260.9399719238281
 30
0.0
 11
-222.7929534912109
 21
263.939971923828
 31
0.0
  0
LINE
  5
1F9
330
22
100
AcDbEntity
  8
0
  6
Continuous
 62
     7
100
AcDbLine
 10
-225.7929534912109
 20
258.1115417480469
 30
0.0
 11
-222.7929534912109
 21
261.1115417480469
 31
0.0
  0
LINE
  5
1FA
330
22
100
AcDbEntity
  8
0
  6
Continuous
 62
     7
100
AcDbLine
 10
-225.7929534912109
 20
255.2831115722656
 30
0.0
 11
-222.7929534912109
 21
258.2831115722656
 31
0.0
  0
LINE
  5
1FB
330
22
100
AcDbEntity
  8
0
  6
Continuous
 62
     7
100
AcDbLine
 10
-225.7929534912109
 20
252.4546966552734
 30
0.0
 11
-222.7929534912109
 21
255.4546966552734
 31
0.0
  0
LINE
  5
1FC
330
22
100
AcDbEntity
  8
0
  6
Continuous
 62
     7
100
AcDbLine
 10
-225.7929534912109
 20
249.6262664794922
 30
0.0
 11
-222.7929534912109
 21
252.6262664794922
 31
0.0
  0
LINE
  5
1FD
330
22
100
AcDbEntity
  8
0
  6
Continuous
 62
     7
100
AcDbLine
 10
-225.7929534912109
 20
246.7978363037109
 30
0.0
 11
-222.7929534912109
 21
249.7978363037109
 31
0.0
  0
LINE
  5
1FE
330
22
100
AcDbEntity
  8
0
  6
Continuous
 62
     7
100
AcDbLine
 10
-225.7929534912109
 20
243.9694061279297
 30
0.0
 11
-222.7929534912109
 21
246.9694061279297
 31
0.0
  0
LINE
  5
1FF
330
22
100
AcDbEntity
  8
0
  6
Continuous
 62
     7
100
AcDbLine
 10
-225.7929534912109
 20
241.1409759521484
 30
0.0
 11
-222.7929534912109
 21
244.1409759521484
 31
0.0
  0
LINE
  5
200
330
22
100
AcDbEntity
  8
0
  6
Continuous
 62
     7
100
AcDbLine
 10
-225.7929534912109
 20
238.3125610351563
 30
0.0
 11
-222.7929534912109
 21
241.3125610351563
 31
0.0
  0
LINE
  5
201
330
22
100
AcDbEntity
  8
0
  6
Continuous
 62
     7
100
AcDbLine
 10
-225.7929534912109
 20
235.484130859375
 30
0.0
 11
-222.7929534912109
 21
238.484130859375
 31
0.0
  0
LINE
  5
202
330
22
100
AcDbEntity
  8
0
  6
Continuous
 62
     7
100
AcDbLine
 10
-225.7929534912109
 20
232.6557006835938
 30
0.0
 11
-222.7929534912109
 21
235.6557006835938
 31
0.0
  0
LINE
  5
203
330
22
100
AcDbEntity
  8
0
  6
Continuous
 62
     7
100
AcDbLine
 10
-225.7929534912109
 20
229.8272705078125
 30
0.0
 11
-222.7929534912109
 21
232.8272705078125
 31
0.0
  0
LINE
  5
204
330
22
100
AcDbEntity
  8
0
  6
Continuous
 62
     7
100
AcDbLine
 10
-225.7929534912109
 20
226.9988403320313
 30
0.0
 11
-222.7929534912109
 21
229.9988403320313
 31
0.0
  0
LINE
  5
205
330
22
100
AcDbEntity
  8
0
  6
Continuous
 62
     7
100
AcDbLine
 10
-225.7929534912109
 20
224.1704254150391
 30
0.0
 11
-222.7929534912109
 21
227.1704254150391
 31
0.0
  0
LINE
  5
206
330
22
100
AcDbEntity
  8
0
  6
Continuous
 62
     7
100
AcDbLine
 10
-225.7929534912109
 20
221.3419952392578
 30
0.0
 11
-222.7929534912109
 21
224.3419952392578
 31
0.0
  0
LINE
  5
207
330
22
100
AcDbEntity
  8
0
  6
Continuous
 62
     7
100
AcDbLine
 10
-225.7929534912109
 20
218.5135650634766
 30
0.0
 11
-222.7929534912109
 21
221.5135650634766
 31
0.0
  0
LINE
  5
208
330
22
100
AcDbEntity
  8
0
  6
Continuous
 62
     7
100
AcDbLine
 10
-225.6101531982422
 20
215.8679351806641
 30
0.0
 11
-222.7929534912109
 21
218.6851348876953
 31
0.0
  0
ARC
  5
209
330
22
100
AcDbEntity
  8
0
  6
Continuous
 62
     7
100
AcDbCircle
 10
-366.7636108398438
 20
232.529541015625
 30
0.0
 40
2.700000047683715
100
AcDbArc
 50
180.0000000000004
 51
0.0
  0
ARC
  5
20A
330
22
100
AcDbEntity
  8
0
  6
Continuous
 62
     7
100
AcDbCircle
 10
-381.5635986328125
 20
226.7545471191406
 30
0.0
 40
2.700000047683715
100
AcDbArc
 50
0.0
 51
180.0000000000004
  0
ARC
  5
20B
330
22
100
AcDbEntity
  8
0
  6
Continuous
 62
     7
100
AcDbCircle
 10
-381.5635986328125
 20
234.8478698730469
 30
0.0
 40
2.700000047683715
100
AcDbArc
 50
180.0000000000004
 51
0.0
  0
ARC
  5
20C
330
22
100
AcDbEntity
  8
0
  6
Continuous
 62
     7
100
AcDbCircle
 10
-346.2636108398438
 20
231.1966400146484
 30
0.0
 40
1.0
100
AcDbArc
 50
20.38495856990432
 51
180.0000000000004
  0
ARC
  5
20D
330
22
100
AcDbEntity
  8
0
  6
Continuous
 62
     7
100
AcDbCircle
 10
-351.9635925292969
 20
239.0214538574219
 30
0.0
 40
2.700000047683715
100
AcDbArc
 50
0.0
 51
180.0000000000004
  0
ARC
  5
20E
330
22
100
AcDbEntity
  8
0
  6
Continuous
 62
     7
100
AcDbCircle
 10
-359.3636169433594
 20
248.2466735839844
 30
0.0
 40
2.700000047683715
100
AcDbArc
 50
0.0
 51
180.0000000000004
  0
ARC
  5
20F
330
22
100
AcDbEntity
  8
0
  6
Continuous
 62
     7
100
AcDbCircle
 10
-425.9635925292968
 20
248.2466735839844
 30
0.0
 40
2.700000047683715
100
AcDbArc
 50
0.0
 51
180.0000000000004
  0
ARC
  5
210
330
22
100
AcDbEntity
  8
0
  6
Continuous
 62
     7
100
AcDbCircle
 10
-411.1636047363281
 20
258.0293579101563
 30
0.0
 40
2.700000047683715
100
AcDbArc
 50
359.6671297209014
 51
180.0000000000004
  0
ARC
  5
211
330
22
100
AcDbEntity
  8
0
  6
Continuous
 62
     7
100
AcDbCircle
 10
-403.7636108398437
 20
260.4478759765625
 30
0.0
 40
2.700000047683715
100
AcDbArc
 50
0.0
 51
180.0000000000004
  0
ARC
  5
212
330
22
100
AcDbEntity
  8
0
  6
Continuous
 62
     7
100
AcDbCircle
 10
-366.7636108398438
 20
254.1295318603516
 30
0.0
 40
2.700000047683715
100
AcDbArc
 50
0.0
 51
180.0000000000004
  0
ARC
  5
213
330
22
100
AcDbEntity
  8
0
  6
Continuous
 62
     7
100
AcDbCircle
 10
-418.5635986328125
 20
254.1295318603516
 30
0.0
 40
2.700000047683715
100
AcDbArc
 50
0.0
 51
180.0000000000004
  0
ARC
  5
214
330
22
100
AcDbEntity
  8
0
  6
Continuous
 62
     7
100
AcDbCircle
 10
-374.1636047363281
 20
258.0293579101563
 30
0.0
 40
2.700000047683715
100
AcDbArc
 50
0.0
 51
180.3328702791001
  0
ARC
  5
215
330
22
100
AcDbEntity
  8
0
  6
Continuous
 62
     7
100
AcDbCircle
 10
-381.5635986328125
 20
260.4478759765625
 30
0.0
 40
2.700000047683715
100
AcDbArc
 50
0.0
 51
180.0000000000004
  0
CIRCLE
  5
216
330
22
100
AcDbEntity
  8
0
  6
Continuous
 62
     7
100
AcDbCircle
 10
-392.6636047363281
 20
314.3679504394531
 30
0.0
 40
5.0
  0
CIRCLE
  5
217
330
22
100
AcDbEntity
  8
0
  6
Continuous
 62
     7
100
AcDbCircle
 10
-392.6636047363281
 20
314.3679504394531
 30
0.0
 40
2.75
  0
CIRCLE
  5
218
330
22
100
AcDbEntity
  8
0
  6
Continuous
 62
     7
100
AcDbCircle
 10
-392.6636047363281
 20
272.9545288085938
 30
0.0
 40
5.25
  0
CIRCLE
  5
219
330
22
100
AcDbEntity
  8
0
  6
Continuous
 62
     7
100
AcDbCircle
 10
-392.6636047363281
 20
272.9545288085938
 30
0.0
 40
5.0
  0
ARC
  5
21A
330
22
100
AcDbEntity
  8
0
  6
Continuous
 62
     7
100
AcDbCircle
 10
-388.9635925292969
 20
261.6111145019531
 30
0.0
 40
2.700000047683715
100
AcDbArc
 50
359.8283845222305
 51
180.2059359746962
  0
ARC
  5
21B
330
22
100
AcDbEntity
  8
0
  6
Continuous
 62
     7
100
AcDbCircle
 10
-396.3636169433594
 20
261.6111145019531
 30
0.0
 40
2.700000047683715
100
AcDbArc
 50
359.794061697655
 51
180.1716154777709
  0
ARC
  5
21C
330
22
100
AcDbEntity
  8
0
  6
Continuous
 62
     7
100
AcDbCircle
 10
-439.0635986328125
 20
231.1966400146484
 30
0.0
 40
1.0
100
AcDbArc
 50
0.0
 51
159.6150414300957
  0
ARC
  5
21D
330
22
100
AcDbEntity
  8
0
  6
Continuous
 62
     7
100
AcDbCircle
 10
-403.7636108398437
 20
226.7545471191406
 30
0.0
 40
2.700000047683715
100
AcDbArc
 50
0.0
 51
180.0000000000004
  0
ARC
  5
21E
330
22
100
AcDbEntity
  8
0
  6
Continuous
 62
     7
100
AcDbCircle
 10
-418.5635986328125
 20
232.529541015625
 30
0.0
 40
2.700000047683715
100
AcDbArc
 50
180.0000000000004
 51
0.0
  0
ARC
  5
21F
330
22
100
AcDbEntity
  8
0
  6
Continuous
 62
     7
100
AcDbCircle
 10
-433.3636169433593
 20
239.0214538574219
 30
0.0
 40
2.700000047683715
100
AcDbArc
 50
0.0
 51
180.0000000000004
  0
ARC
  5
220
330
22
100
AcDbEntity
  8
0
  6
Continuous
 62
     7
100
AcDbCircle
 10
-403.7636108398437
 20
234.8478698730469
 30
0.0
 40
2.700000047683715
100
AcDbArc
 50
180.0000000000004
 51
0.0
  0
ARC
  5
221
330
22
100
AcDbEntity
  8
0
  6
Continuous
 62
     7
100
AcDbCircle
 10
-396.3636169433594
 20
220.0030212402344
 30
0.0
 40
2.700000047683715
100
AcDbArc
 50
180.0000000000004
 51
0.0
  0
CIRCLE
  5
222
330
22
100
AcDbEntity
  8
0
  6
Continuous
 62
     7
100
AcDbCircle
 10
-392.6636047363281
 20
213.9545440673828
 30
0.0
 40
2.5
  0
ARC
  5
223
330
22
100
AcDbEntity
  8
0
  6
Continuous
 62
     7
100
AcDbCircle
 10
-388.9635925292969
 20
207.9060516357422
 30
0.0
 40
2.700000047683715
100
AcDbArc
 50
0.0
 51
180.0000000000004
  0
ARC
  5
224
330
22
100
AcDbEntity
  8
0
  6
Continuous
 62
     7
100
AcDbCircle
 10
-388.9635925292969
 20
220.0030212402344
 30
0.0
 40
2.700000047683715
100
AcDbArc
 50
180.0000000000004
 51
0.0
  0
ARC
  5
225
330
22
100
AcDbEntity
  8
0
  6
Continuous
 62
     7
100
AcDbCircle
 10
-396.3636169433594
 20
207.9060516357422
 30
0.0
 40
2.700000047683715
100
AcDbArc
 50
0.0
 51
180.0000000000004
  0
ARC
  5
226
330
22
100
AcDbEntity
  8
0
  6
Continuous
 62
     7
100
AcDbCircle
 10
-374.1636047363281
 20
218.4136657714844
 30
0.0
 40
2.700000047683715
100
AcDbArc
 50
180.0000000000004
 51
0.0
  0
ARC
  5
227
330
22
100
AcDbEntity
  8
0
  6
Continuous
 62
     7
100
AcDbCircle
 10
-359.3636169433594
 20
218.1466674804688
 30
0.0
 40
2.700000047683715
100
AcDbArc
 50
180.0000000000004
 51
0.0
  0
ARC
  5
228
330
22
100
AcDbEntity
  8
0
  6
Continuous
 62
     7
100
AcDbCircle
 10
-359.3636169433594
 20
209.7624206542969
 30
0.0
 40
2.700000047683715
100
AcDbArc
 50
0.0
 51
180.0000000000004
  0
ARC
  5
229
330
22
100
AcDbEntity
  8
0
  6
Continuous
 62
     7
100
AcDbCircle
 10
-351.9635925292969
 20
208.154541015625
 30
0.0
 40
2.700000047683715
100
AcDbArc
 50
180.0000000000004
 51
0.0
  0
ARC
  5
22A
330
22
100
AcDbEntity
  8
0
  6
Continuous
 62
     7
100
AcDbCircle
 10
-411.1636047363281
 20
209.4954223632814
 30
0.0
 40
2.700000047683715
100
AcDbArc
 50
0.0
 51
180.0000000000004
  0
ARC
  5
22B
330
22
100
AcDbEntity
  8
0
  6
Continuous
 62
     7
100
AcDbCircle
 10
-411.1636047363281
 20
218.4136657714844
 30
0.0
 40
2.700000047683715
100
AcDbArc
 50
180.0000000000004
 51
0.0
  0
ARC
  5
22C
330
22
100
AcDbEntity
  8
0
  6
Continuous
 62
     7
100
AcDbCircle
 10
-374.1636047363281
 20
209.4954223632814
 30
0.0
 40
2.700000047683715
100
AcDbArc
 50
0.0
 51
180.0000000000004
  0
ARC
  5
22D
330
22
100
AcDbEntity
  8
0
  6
Continuous
 62
     7
100
AcDbCircle
 10
-346.2636108398438
 20
196.7124481201172
 30
0.0
 40
1.0
100
AcDbArc
 50
180.0000000000004
 51
339.6150414300964
  0
ARC
  5
22E
330
22
100
AcDbEntity
  8
0
  6
Continuous
 62
     7
100
AcDbCircle
 10
-381.5635986328125
 20
201.154541015625
 30
0.0
 40
2.700000047683715
100
AcDbArc
 50
180.0000000000004
 51
0.0
  0
ARC
  5
22F
330
22
100
AcDbEntity
  8
0
  6
Continuous
 62
     7
100
AcDbCircle
 10
-351.9635925292969
 20
188.8876342773438
 30
0.0
 40
2.700000047683715
100
AcDbArc
 50
180.0000000000004
 51
0.0
  0
CIRCLE
  5
230
330
22
100
AcDbEntity
  8
0
  6
Continuous
 62
     7
100
AcDbCircle
 10
-305.1943054199219
 20
162.8683624267578
 30
0.0
 40
2.75
  0
CIRCLE
  5
231
330
22
100
AcDbEntity
  8
0
  6
Continuous
 62
     7
100
AcDbCircle
 10
-305.1943054199219
 20
162.8683624267578
 30
0.0
 40
5.0
  0
ARC
  5
232
330
22
100
AcDbEntity
  8
0
  6
Continuous
 62
     7
100
AcDbCircle
 10
-359.3636169433594
 20
179.6624145507813
 30
0.0
 40
2.700000047683715
100
AcDbArc
 50
180.0000000000004
 51
0.0
  0
ARC
  5
233
330
22
100
AcDbEntity
  8
0
  6
Continuous
 62
     7
100
AcDbCircle
 10
-403.7636108398437
 20
201.154541015625
 30
0.0
 40
2.700000047683715
100
AcDbArc
 50
180.0000000000004
 51
0.0
  0
CIRCLE
  5
234
330
22
100
AcDbEntity
  8
0
  6
Continuous
 62
     7
100
AcDbCircle
 10
-480.1314086914063
 20
162.8675079345703
 30
0.0
 40
2.75
  0
CIRCLE
  5
235
330
22
100
AcDbEntity
  8
0
  6
Continuous
 62
     7
100
AcDbCircle
 10
-480.1314086914063
 20
162.8675079345703
 30
0.0
 40
5.0
  0
CIRCLE
  5
236
330
22
100
AcDbEntity
  8
0
  6
Continuous
 62
     7
100
AcDbCircle
 10
-333.6636047363281
 20
213.9545440673828
 30
0.0
 40
3.5
  0
CIRCLE
  5
237
330
22
100
AcDbEntity
  8
0
  6
Continuous
 62
     7
100
AcDbCircle
 10
-451.6636047363281
 20
213.9545440673828
 30
0.0
 40
3.5
  0
ARC
  5
238
330
22
100
AcDbEntity
  8
0
  6
Continuous
 62
     7
100
AcDbCircle
 10
-425.9635925292968
 20
218.1466674804688
 30
0.0
 40
2.700000047683715
100
AcDbArc
 50
180.0000000000004
 51
0.0
  0
ARC
  5
239
330
22
100
AcDbEntity
  8
0
  6
Continuous
 62
     7
100
AcDbCircle
 10
-425.9635925292968
 20
209.7624206542969
 30
0.0
 40
2.700000047683715
100
AcDbArc
 50
0.0
 51
180.0000000000004
  0
ARC
  5
23A
330
22
100
AcDbEntity
  8
0
  6
Continuous
 62
     7
100
AcDbCircle
 10
-433.3636169433593
 20
208.154541015625
 30
0.0
 40
2.700000047683715
100
AcDbArc
 50
180.0000000000004
 51
0.0
  0
ARC
  5
23B
330
22
100
AcDbEntity
  8
0
  6
Continuous
 62
     7
100
AcDbCircle
 10
-411.1636047363281
 20
169.8797149658203
 30
0.0
 40
2.700000047683715
100
AcDbArc
 50
180.0000000000004
 51
0.3331940755761853
  0
ARC
  5
23C
330
22
100
AcDbEntity
  8
0
  6
Continuous
 62
     7
100
AcDbCircle
 10
-396.3636169433594
 20
166.2979583740234
 30
0.0
 40
2.700000047683715
100
AcDbArc
 50
179.8280607213837
 51
0.2059383023457225
  0
ARC
  5
23D
330
22
100
AcDbEntity
  8
0
  6
Continuous
 62
     7
100
AcDbCircle
 10
-381.5635986328125
 20
193.0612030029297
 30
0.0
 40
2.700000047683715
100
AcDbArc
 50
0.0
 51
180.0000000000004
  0
ARC
  5
23E
330
22
100
AcDbEntity
  8
0
  6
Continuous
 62
     7
100
AcDbCircle
 10
-374.1636047363281
 20
169.8797149658203
 30
0.0
 40
2.700000047683715
100
AcDbArc
 50
179.6668059244238
 51
0.0
  0
ARC
  5
23F
330
22
100
AcDbEntity
  8
0
  6
Continuous
 62
     7
100
AcDbCircle
 10
-366.7636108398438
 20
173.7795562744141
 30
0.0
 40
2.700000047683715
100
AcDbArc
 50
180.0000000000004
 51
0.0
  0
ARC
  5
240
330
22
100
AcDbEntity
  8
0
  6
Continuous
 62
     7
100
AcDbCircle
 10
-366.7636108398438
 20
203.154541015625
 30
0.0
 40
2.700000047683715
100
AcDbArc
 50
180.0000000000004
 51
0.0
  0
ARC
  5
241
330
22
100
AcDbEntity
  8
0
  6
Continuous
 62
     7
100
AcDbCircle
 10
-381.5635986328125
 20
167.4612121582031
 30
0.0
 40
2.700000047683715
100
AcDbArc
 50
180.0000000000004
 51
0.0
  0
ARC
  5
242
330
22
100
AcDbEntity
  8
0
  6
Continuous
 62
     7
100
AcDbCircle
 10
-388.9635925292969
 20
166.2979583740234
 30
0.0
 40
2.700000047683715
100
AcDbArc
 50
179.7940640253046
 51
0.1719392786163373
  0
ARC
  5
243
330
22
100
AcDbEntity
  8
0
  6
Continuous
 62
     7
100
AcDbCircle
 10
-403.7636108398437
 20
167.4612121582031
 30
0.0
 40
2.700000047683715
100
AcDbArc
 50
180.0000000000004
 51
0.0
  0
ARC
  5
244
330
22
100
AcDbEntity
  8
0
  6
Continuous
 62
     7
100
AcDbCircle
 10
-351.9635925292969
 20
200.4876251220703
 30
0.0
 40
2.700000047683715
100
AcDbArc
 50
0.0
 51
180.0000000000004
  0
ARC
  5
245
330
22
100
AcDbEntity
  8
0
  6
Continuous
 62
     7
100
AcDbCircle
 10
-439.0635986328125
 20
196.7124481201172
 30
0.0
 40
1.0
100
AcDbArc
 50
200.384958569905
 51
0.0
  0
ARC
  5
246
330
22
100
AcDbEntity
  8
0
  6
Continuous
 62
     7
100
AcDbCircle
 10
-433.3636169433593
 20
200.4876251220703
 30
0.0
 40
2.700000047683715
100
AcDbArc
 50
0.0
 51
180.0000000000004
  0
ARC
  5
247
330
22
100
AcDbEntity
  8
0
  6
Continuous
 62
     7
100
AcDbCircle
 10
-366.7636108398438
 20
195.3795471191406
 30
0.0
 40
2.700000047683715
100
AcDbArc
 50
0.0
 51
180.0000000000004
  0
ARC
  5
248
330
22
100
AcDbEntity
  8
0
  6
Continuous
 62
     7
100
AcDbCircle
 10
-403.7636108398437
 20
193.0612030029297
 30
0.0
 40
2.700000047683715
100
AcDbArc
 50
0.0
 51
180.0000000000004
  0
ARC
  5
249
330
22
100
AcDbEntity
  8
0
  6
Continuous
 62
     7
100
AcDbCircle
 10
-425.9635925292968
 20
179.6624145507813
 30
0.0
 40
2.700000047683715
100
AcDbArc
 50
180.0000000000004
 51
0.0
  0
ARC
  5
24A
330
22
100
AcDbEntity
  8
0
  6
Continuous
 62
     7
100
AcDbCircle
 10
-418.5635986328125
 20
173.7795562744141
 30
0.0
 40
2.700000047683715
100
AcDbArc
 50
180.0000000000004
 51
0.0
  0
ARC
  5
24B
330
22
100
AcDbEntity
  8
0
  6
Continuous
 62
     7
100
AcDbCircle
 10
-418.5635986328125
 20
203.154541015625
 30
0.0
 40
2.700000047683715
100
AcDbArc
 50
180.0000000000004
 51
0.0
  0
ARC
  5
24C
330
22
100
AcDbEntity
  8
0
  6
Continuous
 62
     7
100
AcDbCircle
 10
-418.5635986328125
 20
195.3795471191406
 30
0.0
 40
2.700000047683715
100
AcDbArc
 50
0.0
 51
180.0000000000004
  0
ARC
  5
24D
330
22
100
AcDbEntity
  8
0
  6
Continuous
 62
     7
100
AcDbCircle
 10
-433.3636169433593
 20
188.8876342773438
 30
0.0
 40
2.700000047683715
100
AcDbArc
 50
180.0000000000004
 51
0.0
  0
CIRCLE
  5
24E
330
22
100
AcDbEntity
  8
0
  6
Continuous
 62
     7
100
AcDbCircle
 10
-392.6636047363281
 20
154.9545440673828
 30
0.0
 40
5.25
  0
CIRCLE
  5
24F
330
22
100
AcDbEntity
  8
0
  6
Continuous
 62
     7
100
AcDbCircle
 10
-392.6636047363281
 20
154.9545440673828
 30
0.0
 40
5.0
  0
ARC
  5
250
330
22
100
AcDbEntity
  8
0
  6
Continuous
 62
     7
100
AcDbCircle
 10
-392.6636047363281
 20
213.9545440673828
 30
0.0
 40
50.5
100
AcDbArc
 50
339.6150868299299
 51
20.3849131700709
  0
CIRCLE
  5
251
330
22
100
AcDbEntity
  8
0
  6
CENTER
 62
     7
100
AcDbCircle
 10
-392.6636047363281
 20
213.3679351806641
 30
0.0
 40
101.0
  0
CIRCLE
  5
252
330
22
100
AcDbEntity
  8
0
  6
Continuous
 62
     7
100
AcDbCircle
 10
-392.6636047363281
 20
213.3679351806641
 30
0.0
 40
111.0
  0
CIRCLE
  5
253
330
22
100
AcDbEntity
  8
0
  6
Continuous
 62
     7
100
AcDbCircle
 10
-392.6636047363281
 20
213.3679351806641
 30
0.0
 40
94.25
  0
CIRCLE
  5
254
330
22
100
AcDbEntity
  8
0
  6
Continuous
 62
     7
100
AcDbCircle
 10
-392.6636047363281
 20
213.9545440673828
 30
0.0
 40
80.5
  0
CIRCLE
  5
255
330
22
100
AcDbEntity
  8
0
  6
Continuous
 62
     7
100
AcDbCircle
 10
-392.6636047363281
 20
213.9545440673828
 30
0.0
 40
65.5
  0
CIRCLE
  5
256
330
22
100
AcDbEntity
  8
0
  6
Continuous
 62
     7
100
AcDbCircle
 10
-392.6636047363281
 20
213.9545440673828
 30
0.0
 40
65.5
  0
CIRCLE
  5
257
330
22
100
AcDbEntity
  8
0
  6
Continuous
 62
     7
100
AcDbCircle
 10
-392.6636047363281
 20
213.9545440673828
 30
0.0
 40
66.0
  0
ARC
  5
258
330
22
100
AcDbEntity
  8
0
  6
Continuous
 62
     7
100
AcDbCircle
 10
-433.3636169433593
 20
219.7545471191406
 30
0.0
 40
2.700000047683715
100
AcDbArc
 50
0.0
 51
180.0000000000004
  0
ARC
  5
259
330
22
100
AcDbEntity
  8
0
  6
Continuous
 62
     7
100
AcDbCircle
 10
-433.3636169433593
 20
227.4214477539064
 30
0.0
 40
2.700000047683715
100
AcDbArc
 50
180.0000000000004
 51
0.0
  0
ARC
  5
25A
330
22
100
AcDbEntity
  8
0
  6
Continuous
 62
     7
100
AcDbCircle
 10
-418.5635986328125
 20
224.7545471191406
 30
0.0
 40
2.700000047683715
100
AcDbArc
 50
0.0
 51
180.0000000000004
  0
ARC
  5
25B
330
22
100
AcDbEntity
  8
0
  6
Continuous
 62
     7
100
AcDbCircle
 10
-366.7636108398438
 20
224.7545471191406
 30
0.0
 40
2.700000047683715
100
AcDbArc
 50
0.0
 51
180.0000000000004
  0
ARC
  5
25C
330
22
100
AcDbEntity
  8
0
  6
Continuous
 62
     7
100
AcDbCircle
 10
-351.9635925292969
 20
227.4214477539064
 30
0.0
 40
2.700000047683715
100
AcDbArc
 50
180.0000000000004
 51
0.0
  0
ARC
  5
25D
330
22
100
AcDbEntity
  8
0
  6
Continuous
 62
     7
100
AcDbCircle
 10
-351.9635925292969
 20
219.7545471191406
 30
0.0
 40
2.700000047683715
100
AcDbArc
 50
0.0
 51
180.0000000000004
  0
ARC
  5
25E
330
22
100
AcDbEntity
  8
0
  6
Continuous
 62
     7
100
AcDbCircle
 10
-392.6636047363281
 20
213.9545440673828
 30
0.0
 40
50.5
100
AcDbArc
 50
159.6150868299291
 51
200.3849131700716
  0
ARC
  5
25F
330
22
100
AcDbEntity
  8
0
  6
Continuous
 62
     7
100
AcDbCircle
 10
-219.9749298095703
 20
293.3679504394531
 30
0.0
 40
0.5
100
AcDbArc
 50
90.00000000000019
 51
154.9193037259535
  0
ARC
  5
260
330
22
100
AcDbEntity
  8
0
  6
Continuous
 62
     7
100
AcDbCircle
 10
-224.7929534912109
 20
281.8954772949219
 30
0.0
 40
1.0
100
AcDbArc
 50
154.9157658048899
 51
180.0000000000004
  0
ARC
  5
261
330
22
100
AcDbEntity
  8
0
  6
Continuous
 62
     7
100
AcDbCircle
 10
-219.9749298095703
 20
133.3679351806641
 30
0.0
 40
0.5
100
AcDbArc
 50
205.0838635556956
 51
270.0000000000005
  0
ARC
  5
262
330
22
100
AcDbEntity
  8
0
  6
Continuous
 62
     7
100
AcDbCircle
 10
-224.7929534912109
 20
144.8403930664063
 30
0.0
 40
1.0
100
AcDbArc
 50
180.0000000000004
 51
205.0834423815194
  0
TEXT
  5
263
330
22
100
AcDbEntity
  8
0
  6
Continuous
 62
     7
100
AcDbText
 10
-313.029839515686
 20
70.71831512451172
 30
0.0
 40
7.0
  1
ＤＬ－ＵＰ－１００Ｚ
 41
0.8443929888818491
100
AcDbText
  0
DIMENSION
  5
264
330
22
100
AcDbEntity
  8
0
  6
Continuous
 62
     7
100
AcDbDimension
  2
*D1
 10
-144.7904510498046
 20
351.023681640625
 30
0.0
 11
-138.8613586425781
 21
351.023681640625
 31
0.0
 71
     5
 42
-1.0
  3
DIMSTYLE1
100
AcDbAlignedDimension
 13
-147.7904510498047
 23
315.9647827148438
 33
0.0
 14
-144.7904510498046
 24
324.3679504394531
 34
0.0
100
AcDbRotatedDimension
  0
DIMENSION
  5
265
330
22
100
AcDbEntity
  8
0
  6
Continuous
 62
     7
100
AcDbDimension
  2
*D2
 10
-436.4313104350162
 20
111.3611317905322
 30
0.0
 11
-339.6655883789063
 21
336.8873291015625
 31
0.0
 70
     3
 71
     5
 42
-1.0
  3
DIMSTYLE2
100
AcDbDiametricDimension
 15
-348.8958990376402
 25
315.374738570796
 35
0.0
 40
0.0
  0
INSERT
  5
266
330
22
100
AcDbEntity
  8
0
  6
Continuous
 62
     7
100
AcDbBlockReference
  2
KOZU0001
 10
-395.251708984375
 20
318.64599609375
 30
0.0
  0
DIMENSION
  5
267
330
22
100
AcDbEntity
  8
0
  6
Continuous
 62
     7
100
AcDbDimension
  2
*D3
 10
-315.9543341959986
 20
147.6664297704336
 30
0.0
 11
-486.3870544433593
 21
293.64208984375
 31
0.0
 70
     3
 71
     5
 42
-1.0
  3
DIMSTYLE3
100
AcDbDiametricDimension
 15
-469.3728752766577
 25
279.0694405908944
 35
0.0
 40
0.0
  0
DIMENSION
  5
268
330
22
100
AcDbEntity
  8
0
  6
Continuous
 62
     7
100
AcDbDimension
  2
*D4
 10
-441.9529823493741
 20
150.3085916861155
 30
0.0
 11
-310.528564453125
 21
320.0131225585938
 31
0.0
 70
     3
 71
     5
 42
-1.0
  3
DIMSTYLE4
100
AcDbDiametricDimension
 15
-343.374227123282
 25
277.6004964486501
 35
0.0
 40
0.0
  0
DIMENSION
  5
269
330
22
100
AcDbEntity
  8
0
  6
Continuous
 62
     7
100
AcDbDimension
  2
*D5
 10
-448.8280007108957
 20
180.2527544292645
 30
0.0
 11
-276.9978637695313
 21
283.3604736328125
 31
0.0
 70
     3
 71
     5
 42
-1.0
  3
DIMSTYLE5
100
AcDbDiametricDimension
 15
-336.4992087617606
 25
247.6563337055011
 35
0.0
 40
0.0
  0
DIMENSION
  5
26A
330
22
100
AcDbEntity
  8
0
  6
Continuous
 62
     7
100
AcDbDimension
  2
*D6
 10
-92.79295349121094
 20
87.24235534667968
 30
0.0
 11
-139.2929534912109
 21
87.24235534667968
 31
0.0
 71
     5
 42
-1.0
  3
DIMSTYLE6
100
AcDbAlignedDimension
 13
-185.7929534912109
 23
150.8679351806641
 33
0.0
 14
-92.79295349121094
 24
150.8679351806641
 34
0.0
100
AcDbRotatedDimension
  0
DIMENSION
  5
26B
330
22
100
AcDbEntity
  8
0
  6
Continuous
 62
     7
100
AcDbDimension
  2
*D7
 10
-64.12288665771484
 20
275.8679504394531
 30
0.0
 11
-64.12288665771484
 21
213.3679351806641
 31
0.0
 71
     5
 42
-1.0
  3
DIMSTYLE7
100
AcDbAlignedDimension
 13
-92.79295349121094
 23
150.8679351806641
 33
0.0
 14
-92.79295349121094
 24
275.8679504394531
 34
0.0
 50
90.0
100
AcDbRotatedDimension
  0
INSERT
  5
26C
330
22
100
AcDbEntity
  8
0
  6
Continuous
 62
     7
100
AcDbBlockReference
  2
KOZU0002
 10
-106.4452743530273
 20
269.4412841796875
 30
0.0
  0
DIMENSION
  5
26D
330
22
100
AcDbEntity
  8
0
  6
Continuous
 62
     7
100
AcDbDimension
  2
*D8
 10
-215.7929534912109
 20
351.023681640625
 30
0.0
 11
-181.7929534912109
 21
351.023681640625
 31
0.0
 71
     5
 42
-1.0
  3
DIMSTYLE8
100
AcDbAlignedDimension
 13
-147.7929534912109
 23
324.3679504394531
 33
0.0
 14
-215.7929534912109
 24
293.8679504394531
 34
0.0
100
AcDbRotatedDimension
  0
DIMENSION
  5
26E
330
22
100
AcDbEntity
  8
0
  6
Continuous
 62
     7
100
AcDbDimension
  2
*D9
 10
-225.7929534912109
 20
351.023681640625
 30
0.0
 11
-220.7929534912109
 21
351.023681640625
 31
0.0
 71
     5
 42
-1.0
  3
DIMSTYLE9
100
AcDbAlignedDimension
 13
-215.7929534912109
 23
353.3096923828125
 33
0.0
 14
-225.7929534912109
 24
281.8954772949219
 34
0.0
100
AcDbRotatedDimension
  0
DIMENSION
  5
26F
330
22
100
AcDbEntity
  8
0
  6
Continuous
 62
     7
100
AcDbDimension
  2
*D10
 10
-185.7929534912109
 20
337.4483947753906
 30
0.0
 11
-166.7929534912109
 21
337.4483947753906
 31
0.0
 71
     5
 42
-1.0
  3
DIMSTYLE10
100
AcDbAlignedDimension
 13
-147.7929534912109
 23
324.3679504394531
 33
0.0
 14
-185.7929534912109
 24
275.8679504394531
 34
0.0
100
AcDbRotatedDimension
  0
DIMENSION
  5
270
330
22
100
AcDbEntity
  8
0
  6
Continuous
 62
     7
100
AcDbDimension
  2
*D11
 10
-165.7929534912109
 20
226.8426208496094
 30
0.0
 11
-195.7929534912109
 21
226.8426208496094
 31
0.0
 71
     5
 42
-1.0
  3
DIMSTYLE11
100
AcDbAlignedDimension
 13
-225.7929534912109
 23
281.8954772949219
 33
0.0
 14
-165.7929534912109
 24
213.3679351806641
 34
0.0
100
AcDbRotatedDimension
  0
ENDSEC
  0
SECTION
  2
OBJECTS
  0
DICTIONARY
  5
C
330
0
100
AcDbDictionary
281
     1
  3
ACAD_COLOR
350
1B
  3
ACAD_GROUP
350
D
  3
ACAD_LAYOUT
350
19
  3
ACAD_MATERIAL
350
1A
  3
ACAD_MLINESTYLE
350
16
  3
ACAD_PLOTSETTINGS
350
18
  3
ACAD_PLOTSTYLENAME
350
E
  3
ACAD_TABLESTYLE
350
1C
  3
AcDbVariableDictionary
350
27C
  0
DICTIONARY
  5
1B
102
{ACAD_REACTORS
330
C
102
}
330
C
100
AcDbDictionary
281
     1
  0
DICTIONARY
  5
D
102
{ACAD_REACTORS
330
C
102
}
330
C
100
AcDbDictionary
281
     1
  0
DICTIONARY
  5
19
102
{ACAD_REACTORS
330
C
102
}
330
C
100
AcDbDictionary
281
     1
  3
Model
350
25
  3
レイアウト1
350
21
  0
DICTIONARY
  5
1A
102
{ACAD_REACTORS
330
C
102
}
330
C
100
AcDbDictionary
281
     1
  0
DICTIONARY
  5
16
102
{ACAD_REACTORS
330
C
102
}
330
C
100
AcDbDictionary
281
     1
  3
Standard
350
17
  0
DICTIONARY
  5
18
102
{ACAD_REACTORS
330
C
102
}
330
C
100
AcDbDictionary
281
     1
  0
ACDBDICTIONARYWDFLT
  5
E
102
{ACAD_REACTORS
330
C
102
}
330
C
100
AcDbDictionary
281
     1
  3
Normal
350
F
100
AcDbDictionaryWithDefault
340
F
  0
DICTIONARY
  5
1C
102
{ACAD_REACTORS
330
C
102
}
330
C
100
AcDbDictionary
281
     1
  3
Standard
350
1D
  0
DICTIONARY
  5
27C
102
{ACAD_REACTORS
330
C
102
}
330
C
100
AcDbDictionary
281
     1
  3
CTABLESTYLE
350
27D
  0
LAYOUT
  5
25
102
{ACAD_REACTORS
330
19
102
}
330
19
100
AcDbPlotSettings
  1

  2
PDF reDirect v2
  4
User66
  6

 40
3.174999952316284
 41
3.174999952316284
 42
3.17498779296875
 43
3.17498779296875
 44
420.0
 45
594.0
 46
0.0
 47
0.0
 48
0.0
 49
0.0
140
0.0
141
0.0
142
1.0
143
1.0
 70
 11952
 72
     1
 73
     1
 74
     2
  7
C:\Users\ck\AppData\Roaming\Autodesk\AutoCAD 2005\R16.1\jpn\Plot Styles\black.ctb
 75
    16
147
1.0
 76
     0
 77
     2
 78
   300
148
592.0
149
0.0
100
AcDbLayout
  1
Model
 70
     1
 71
     0
 10
0.0
 20
0.0
 11
12.0
 21
9.0
 12
0.0
 22
0.0
 32
0.0
 14
0.0
 24
0.0
 34
0.0
 15
0.0
 25
0.0
 35
0.0
146
0.0
 13
0.0
 23
0.0
 33
0.0
 16
1.0
 26
0.0
 36
0.0
 17
0.0
 27
1.0
 37
0.0
 76
     0
330
22
1001
ACAD_PSEXT
1000
PDF reDirect v2
1000
PDF reDirect Pro
1000
PDF_REDIRECT_PORT:
1000
PDF reDirect provided by EXP Systems
1070
     0
  0
LAYOUT
  5
21
102
{ACAD_REACTORS
330
19
102
}
330
19
100
AcDbPlotSettings
  1

  2
PDF reDirect v2
  4

  6

 40
0.0
 41
0.0
 42
0.0
 43
0.0
 44
0.0
 45
0.0
 46
0.0
 47
0.0
 48
0.0
 49
0.0
140
0.0
141
0.0
142
1.0
143
1.0
 70
   688
 72
     0
 73
     0
 74
     5
  7
C:\Users\ck\AppData\Roaming\Autodesk\AutoCAD 2005\R16.1\jpn\Plot Styles\black.ctb
 75
    16
147
1.0
 76
     0
 77
     2
 78
   300
148
0.0
149
0.0
100
AcDbLayout
  1
レイアウト1
 70
     1
 71
     1
 10
-592.0
 20
0.0
 11
0.0
 21
418.0
 12
0.0
 22
0.0
 32
0.0
 14
1.000000000000000E+20
 24
1.000000000000000E+20
 34
1.000000000000000E+20
 15
-1.000000000000000E+20
 25
-1.000000000000000E+20
 35
-1.000000000000000E+20
146
0.0
 13
0.0
 23
0.0
 33
0.0
 16
1.0
 26
0.0
 36
0.0
 17
0.0
 27
1.0
 37
0.0
 76
     0
330
1E
  0
MLINESTYLE
  5
17
102
{ACAD_REACTORS
330
16
102
}
330
16
100
AcDbMlineStyle
  2
STANDARD
 70
     0
  3

 62
   256
 51
90.0
 52
90.0
 71
     2
 49
0.5
 62
   256
  6
BYLAYER
 49
-0.5
 62
   256
  6
BYLAYER
  0
ACDBPLACEHOLDER
  5
F
102
{ACAD_REACTORS
330
E
102
}
330
E
  0
TABLESTYLE
  5
1D
102
{ACAD_REACTORS
330
1C
102
}
330
1C
100
AcDbTableStyle
  3
Standard
 70
     0
 71
     0
 40
0.06
 41
0.06
280
     0
281
     0
  7
STANDARD
140
0.18
170
     2
 62
     0
 63
     7
283
     0
274
    -2
284
     1
 64
     0
275
    -2
285
     1
 65
     0
276
    -2
286
     1
 66
     0
277
    -2
287
     1
 67
     0
278
    -2
288
     1
 68
     0
279
    -2
289
     1
 69
     0
  7
STANDARD
140
0.25
170
     5
 62
     0
 63
     7
283
     0
274
    -2
284
     1
 64
     0
275
    -2
285
     1
 65
     0
276
    -2
286
     1
 66
     0
277
    -2
287
     1
 67
     0
278
    -2
288
     1
 68
     0
279
    -2
289
     1
 69
     0
  7
STANDARD
140
0.18
170
     5
 62
     0
 63
     7
283
     0
274
    -2
284
     1
 64
     0
275
    -2
285
     1
 65
     0
276
    -2
286
     1
 66
     0
277
    -2
287
     1
 67
     0
278
    -2
288
     1
 68
     0
279
    -2
289
     1
 69
     0
  0
DICTIONARYVAR
  5
27D
102
{ACAD_REACTORS
330
27C
102
}
330
27C
100
DictionaryVariables
280
     0
  1
STANDARD
  0
ENDSEC
  0
EOF
