  0
SECTION
  2
HEADER
  9
$ACADVER
  1
AC1018
  9
$ACADMAINTVER
 70
    39
  9
$DWGCODEPAGE
  3
ANSI_932
  9
$INSBASE
 10
0.0
 20
0.0
 30
0.0
  9
$EXTMIN
 10
-405.8873586259867
 20
57.22866896869232
 30
-0.0015258207003583
  9
$EXTMAX
 10
-129.2659598647919
 20
266.4960944059958
 30
0.0000000349246037
  9
$LIMMIN
 10
-423.0
 20
-2.0
  9
$LIMMAX
 10
-5.0
 20
293.0
  9
$ORTHOMODE
 70
     0
  9
$REGENMODE
 70
     1
  9
$FILLMODE
 70
     1
  9
$QTEXTMODE
 70
     0
  9
$MIRRTEXT
 70
     0
  9
$LTSCALE
 40
1.0
  9
$ATTMODE
 70
     1
  9
$TEXTSIZE
 40
0.2
  9
$TRACEWID
 40
0.05
  9
$TEXTSTYLE
  7
STANDARD
  9
$CLAYER
  8
0
  9
$CELTYPE
  6
CONTINUOUS
  9
$CECOLOR
 62
   256
  9
$CELTSCALE
 40
1.0
  9
$DISPSILH
 70
     0
  9
$DIMSCALE
 40
1.0
  9
$DIMASZ
 40
1.0
  9
$DIMEXO
 40
2.54
  9
$DIMDLI
 40
0.38
  9
$DIMRND
 40
0.0
  9
$DIMDLE
 40
0.0
  9
$DIMEXE
 40
2.54
  9
$DIMTP
 40
0.0
  9
$DIMTM
 40
0.0
  9
$DIMTXT
 40
3.0
  9
$DIMCEN
 40
0.09
  9
$DIMTSZ
 40
0.0
  9
$DIMTOL
 70
     0
  9
$DIMLIM
 70
     0
  9
$DIMTIH
 70
     0
  9
$DIMTOH
 70
     0
  9
$DIMSE1
 70
     0
  9
$DIMSE2
 70
     0
  9
$DIMTAD
 70
     1
  9
$DIMZIN
 70
     0
  9
$DIMBLK
  1

  9
$DIMASO
 70
     1
  9
$DIMSHO
 70
     0
  9
$DIMPOST
  1

  9
$DIMAPOST
  1

  9
$DIMALT
 70
     0
  9
$DIMALTD
 70
     2
  9
$DIMALTF
 40
25.4
  9
$DIMLFAC
 40
1.0
  9
$DIMTOFL
 70
     0
  9
$DIMTVP
 40
1.0
  9
$DIMTIX
 70
     0
  9
$DIMSOXD
 70
     0
  9
$DIMSAH
 70
     1
  9
$DIMBLK1
  1

  9
$DIMBLK2
  1

  9
$DIMSTYLE
  2
DIMSTYLE1
  9
$DIMCLRD
 70
     0
  9
$DIMCLRE
 70
     0
  9
$DIMCLRT
 70
     0
  9
$DIMTFAC
 40
1.0
  9
$DIMGAP
 40
1.5
  9
$DIMJUST
 70
     0
  9
$DIMSD1
 70
     0
  9
$DIMSD2
 70
     0
  9
$DIMTOLJ
 70
     1
  9
$DIMTZIN
 70
     0
  9
$DIMALTZ
 70
     0
  9
$DIMALTTZ
 70
     0
  9
$DIMUPT
 70
     0
  9
$DIMDEC
 70
     4
  9
$DIMTDEC
 70
     4
  9
$DIMALTU
 70
     2
  9
$DIMALTTD
 70
     2
  9
$DIMTXSTY
  7
STANDARD
  9
$DIMAUNIT
 70
     0
  9
$DIMADEC
 70
     0
  9
$DIMALTRND
 40
0.0
  9
$DIMAZIN
 70
     0
  9
$DIMDSEP
 70
    46
  9
$DIMATFIT
 70
     3
  9
$DIMFRAC
 70
     0
  9
$DIMLDRBLK
  1

  9
$DIMLUNIT
 70
     2
  9
$DIMLWD
 70
    -2
  9
$DIMLWE
 70
    -2
  9
$DIMTMOVE
 70
     0
  9
$LUNITS
 70
     2
  9
$LUPREC
 70
     4
  9
$SKETCHINC
 40
0.1
  9
$FILLETRAD
 40
0.0
  9
$AUNITS
 70
     0
  9
$AUPREC
 70
     0
  9
$MENU
  1
.
  9
$ELEVATION
 40
0.0
  9
$PELEVATION
 40
0.0
  9
$THICKNESS
 40
0.0
  9
$LIMCHECK
 70
     0
  9
$CHAMFERA
 40
0.0
  9
$CHAMFERB
 40
0.0
  9
$CHAMFERC
 40
0.0
  9
$CHAMFERD
 40
0.0
  9
$SKPOLY
 70
     0
  9
$TDCREATE
 40
2457707.060779190
  9
$TDUCREATE
 40
2457706.685779190
  9
$TDUPDATE
 40
2457707.061307893
  9
$TDUUPDATE
 40
2457706.686307894
  9
$TDINDWG
 40
0.0005298611
  9
$TDUSRTIMER
 40
0.0005298611
  9
$USRTIMER
 70
     1
  9
$ANGBASE
 50
0.0
  9
$ANGDIR
 70
     0
  9
$PDMODE
 70
     0
  9
$PDSIZE
 40
0.0
  9
$PLINEWID
 40
0.0
  9
$SPLFRAME
 70
     0
  9
$SPLINETYPE
 70
     6
  9
$SPLINESEGS
 70
     8
  9
$HANDSEED
  5
1E2
  9
$SURFTAB1
 70
     6
  9
$SURFTAB2
 70
     6
  9
$SURFTYPE
 70
     6
  9
$SURFU
 70
     6
  9
$SURFV
 70
     6
  9
$UCSBASE
  2

  9
$UCSNAME
  2

  9
$UCSORG
 10
0.0
 20
0.0
 30
0.0
  9
$UCSXDIR
 10
1.0
 20
0.0
 30
0.0
  9
$UCSYDIR
 10
0.0
 20
1.0
 30
0.0
  9
$UCSORTHOREF
  2

  9
$UCSORTHOVIEW
 70
     0
  9
$UCSORGTOP
 10
0.0
 20
0.0
 30
0.0
  9
$UCSORGBOTTOM
 10
0.0
 20
0.0
 30
0.0
  9
$UCSORGLEFT
 10
0.0
 20
0.0
 30
0.0
  9
$UCSORGRIGHT
 10
0.0
 20
0.0
 30
0.0
  9
$UCSORGFRONT
 10
0.0
 20
0.0
 30
0.0
  9
$UCSORGBACK
 10
0.0
 20
0.0
 30
0.0
  9
$PUCSBASE
  2

  9
$PUCSNAME
  2

  9
$PUCSORG
 10
0.0
 20
0.0
 30
0.0
  9
$PUCSXDIR
 10
1.0
 20
0.0
 30
0.0
  9
$PUCSYDIR
 10
0.0
 20
1.0
 30
0.0
  9
$PUCSORTHOREF
  2

  9
$PUCSORTHOVIEW
 70
     0
  9
$PUCSORGTOP
 10
0.0
 20
0.0
 30
0.0
  9
$PUCSORGBOTTOM
 10
0.0
 20
0.0
 30
0.0
  9
$PUCSORGLEFT
 10
0.0
 20
0.0
 30
0.0
  9
$PUCSORGRIGHT
 10
0.0
 20
0.0
 30
0.0
  9
$PUCSORGFRONT
 10
0.0
 20
0.0
 30
0.0
  9
$PUCSORGBACK
 10
0.0
 20
0.0
 30
0.0
  9
$USERI1
 70
     0
  9
$USERI2
 70
     0
  9
$USERI3
 70
     0
  9
$USERI4
 70
     0
  9
$USERI5
 70
     0
  9
$USERR1
 40
0.0
  9
$USERR2
 40
0.0
  9
$USERR3
 40
0.0
  9
$USERR4
 40
0.0
  9
$USERR5
 40
0.0
  9
$WORLDVIEW
 70
     1
  9
$SHADEDGE
 70
     3
  9
$SHADEDIF
 70
    70
  9
$TILEMODE
 70
     1
  9
$MAXACTVP
 70
    64
  9
$PINSBASE
 10
0.0
 20
0.0
 30
0.0
  9
$PLIMCHECK
 70
     0
  9
$PEXTMIN
 10
1.000000000000000E+20
 20
1.000000000000000E+20
 30
1.000000000000000E+20
  9
$PEXTMAX
 10
-1.000000000000000E+20
 20
-1.000000000000000E+20
 30
-1.000000000000000E+20
  9
$PLIMMIN
 10
-423.0
 20
-2.0
  9
$PLIMMAX
 10
-5.0
 20
293.0
  9
$UNITMODE
 70
     0
  9
$VISRETAIN
 70
     1
  9
$PLINEGEN
 70
     0
  9
$PSLTSCALE
 70
     1
  9
$TREEDEPTH
 70
  3020
  9
$CMLSTYLE
  2
Standard
  9
$CMLJUST
 70
     0
  9
$CMLSCALE
 40
1.0
  9
$PROXYGRAPHICS
 70
     1
  9
$MEASUREMENT
 70
     0
  9
$CELWEIGHT
370
    -1
  9
$ENDCAPS
280
     0
  9
$JOINSTYLE
280
     0
  9
$LWDISPLAY
290
     0
  9
$INSUNITS
 70
     0
  9
$HYPERLINKBASE
  1

  9
$STYLESHEET
  1

  9
$XEDIT
290
     1
  9
$CEPSNTYPE
380
     0
  9
$PSTYLEMODE
290
     1
  9
$FINGERPRINTGUID
  2
{B280B3F6-B21F-4908-BC11-47547682B80B}
  9
$VERSIONGUID
  2
{79D3367F-FFC3-4278-82AA-F17DCB04F532}
  9
$EXTNAMES
290
     1
  9
$PSVPSCALE
 40
0.0
  9
$OLESTARTUP
290
     0
  9
$SORTENTS
280
   127
  9
$INDEXCTL
280
     0
  9
$HIDETEXT
280
     0
  9
$XCLIPFRAME
290
     0
  9
$HALOGAP
280
     0
  9
$OBSCOLOR
 70
   257
  9
$OBSLTYPE
280
     0
  9
$INTERSECTIONDISPLAY
280
     0
  9
$INTERSECTIONCOLOR
 70
   257
  9
$DIMASSOC
280
     1
  9
$PROJECTNAME
  1

  0
ENDSEC
  0
SECTION
  2
CLASSES
  0
CLASS
  1
ACDBDICTIONARYWDFLT
  2
AcDbDictionaryWithDefault
  3
ObjectDBX Classes
 90
        0
 91
        1
280
     0
281
     0
  0
CLASS
  1
TABLESTYLE
  2
AcDbTableStyle
  3
ObjectDBX Classes
 90
     2047
 91
        1
280
     0
281
     0
  0
CLASS
  1
DICTIONARYVAR
  2
AcDbDictionaryVar
  3
ObjectDBX Classes
 90
        0
 91
        1
280
     0
281
     0
  0
ENDSEC
  0
SECTION
  2
TABLES
  0
TABLE
  2
VPORT
  5
8
330
0
100
AcDbSymbolTable
 70
     2
  0
VPORT
  5
1E1
330
8
100
AcDbSymbolTableRecord
100
AcDbViewportTableRecord
  2
*Active
 70
     0
 10
0.0
 20
0.0
 11
1.0
 21
1.0
 12
-214.0
 22
145.5
 13
0.0
 23
0.0
 14
1.0
 24
1.0
 15
0.0
 25
0.0
 16
0.0
 26
0.0
 36
1.0
 17
0.0
 27
0.0
 37
0.0
 40
297.3258869908016
 41
1.555263157894736
 42
50.0
 43
0.0
 44
0.0
 50
0.0
 51
0.0
 71
     0
 72
   100
 73
     1
 74
     1
 75
     0
 76
     0
 77
     0
 78
     0
281
     0
 65
     1
110
0.0
120
0.0
130
0.0
111
1.0
121
0.0
131
0.0
112
0.0
122
1.0
132
0.0
 79
     0
146
0.0
  0
ENDTAB
  0
TABLE
  2
LTYPE
  5
5
330
0
100
AcDbSymbolTable
 70
     6
  0
LTYPE
  5
13
330
5
100
AcDbSymbolTableRecord
100
AcDbLinetypeTableRecord
  2
ByBlock
 70
     0
  3

 72
    65
 73
     0
 40
0.0
  0
LTYPE
  5
14
330
5
100
AcDbSymbolTableRecord
100
AcDbLinetypeTableRecord
  2
ByLayer
 70
     0
  3

 72
    65
 73
     0
 40
0.0
  0
LTYPE
  5
15
330
5
100
AcDbSymbolTableRecord
100
AcDbLinetypeTableRecord
  2
CONTINUOUS
 70
     0
  3
Solid line
 72
    65
 73
     0
 40
0.0
  0
LTYPE
  5
26
330
5
100
AcDbSymbolTableRecord
100
AcDbLinetypeTableRecord
  2
DASHED
 70
     0
  3
__ __ __ __ __ __ __ __ __ __ __ __ __ __ __
 72
    65
 73
     2
 40
3.5
 49
2.0
 74
     0
 49
-1.5
 74
     0
  0
LTYPE
  5
27
330
5
100
AcDbSymbolTableRecord
100
AcDbLinetypeTableRecord
  2
CENTER
 70
     0
  3
____ _ ____ _ ____ _ ____ _ ____ _ ____ _ ____
 72
    65
 73
     4
 40
17.5
 49
13.0
 74
     0
 49
-1.5
 74
     0
 49
1.5
 74
     0
 49
-1.5
 74
     0
  0
LTYPE
  5
28
330
5
100
AcDbSymbolTableRecord
100
AcDbLinetypeTableRecord
  2
PHANTOM
 70
     0
  3
_____ _ _ _____ _ _ _____ _ _ _____ _ _ ____  
 72
    65
 73
     6
 40
15.5
 49
8.0
 74
     0
 49
-1.5
 74
     0
 49
1.5
 74
     0
 49
-1.5
 74
     0
 49
1.5
 74
     0
 49
-1.5
 74
     0
  0
LTYPE
  5
29
330
5
100
AcDbSymbolTableRecord
100
AcDbLinetypeTableRecord
  2
DOT
 70
     0
  3
. . . . . . . . . . . . . . . . . . . . . . . .
 72
    65
 73
     2
 40
0.25
 49
0.0
 74
     0
 49
-0.25
 74
     0
  0
LTYPE
  5
2A
330
5
100
AcDbSymbolTableRecord
100
AcDbLinetypeTableRecord
  2
HIDDEN
 70
     0
  3
__ __ __ __ __ __ __ __ __ __ __ __ __ __ __
 72
    65
 73
     2
 40
3.5
 49
2.0
 74
     0
 49
-1.5
 74
     0
  0
ENDTAB
  0
TABLE
  2
LAYER
  5
2
330
0
100
AcDbSymbolTable
 70
     3
  0
LAYER
  5
10
330
2
100
AcDbSymbolTableRecord
100
AcDbLayerTableRecord
  2
0
 70
     0
 62
     7
  6
CONTINUOUS
370
    -3
390
F
  0
LAYER
  5
2B
330
2
100
AcDbSymbolTableRecord
100
AcDbLayerTableRecord
  2
1
 70
     0
 62
     7
  6
CONTINUOUS
370
    -3
390
F
  0
LAYER
  5
2C
330
2
100
AcDbSymbolTableRecord
100
AcDbLayerTableRecord
  2
DEFPOINTS
 70
     0
 62
     7
  6
CONTINUOUS
290
     0
370
    -3
390
F
  0
ENDTAB
  0
TABLE
  2
STYLE
  5
3
330
0
100
AcDbSymbolTable
 70
     2
  0
STYLE
  5
11
330
3
100
AcDbSymbolTableRecord
100
AcDbTextStyleTableRecord
  2
STANDARD
 70
     0
 40
0.0
 41
1.0
 50
0.0
 71
     0
 42
0.2
  3

  4

1001
ACAD
1000
MS Gothic
1071
    32817
  0
ENDTAB
  0
TABLE
  2
VIEW
  5
6
330
0
100
AcDbSymbolTable
 70
     0
  0
ENDTAB
  0
TABLE
  2
UCS
  5
7
330
0
100
AcDbSymbolTable
 70
     0
  0
ENDTAB
  0
TABLE
  2
APPID
  5
9
330
0
100
AcDbSymbolTable
 70
     2
  0
APPID
  5
12
330
9
100
AcDbSymbolTableRecord
100
AcDbRegAppTableRecord
  2
ACAD
 70
     0
  0
APPID
  5
1D6
330
9
100
AcDbSymbolTableRecord
100
AcDbRegAppTableRecord
  2
ACAD_PSEXT
 70
     0
  0
ENDTAB
  0
TABLE
  2
DIMSTYLE
  5
A
330
0
100
AcDbSymbolTable
 70
     5
100
AcDbDimStyleTable
 71
     1
340
2D
  0
DIMSTYLE
105
2D
102
{ACAD_REACTORS
330
1CF
102
}
330
A
100
AcDbSymbolTableRecord
100
AcDbDimStyleTableRecord
  2
DIMSTYLE1
 70
     0
 41
1.0
 42
2.54
 44
2.54
 73
     0
 74
     0
 77
     1
140
3.0
145
1.0
147
1.5
172
     1
173
     1
279
     2
340
11
  0
DIMSTYLE
105
2E
102
{ACAD_REACTORS
330
1D0
102
}
330
A
100
AcDbSymbolTableRecord
100
AcDbDimStyleTableRecord
  2
DIMSTYLE2
 70
     0
 41
1.0
 42
2.54
 44
2.54
 73
     0
 74
     0
 77
     1
140
3.0
145
1.0
147
1.5
172
     1
173
     1
279
     2
340
11
  0
DIMSTYLE
105
2F
102
{ACAD_REACTORS
330
1D1
102
}
330
A
100
AcDbSymbolTableRecord
100
AcDbDimStyleTableRecord
  2
DIMSTYLE3
 70
     0
 41
1.0
 42
2.54
 44
2.54
 73
     0
 74
     0
 77
     1
140
3.0
145
1.0
147
1.5
172
     1
173
     1
279
     2
340
11
  0
DIMSTYLE
105
30
102
{ACAD_REACTORS
330
1D3
102
}
330
A
100
AcDbSymbolTableRecord
100
AcDbDimStyleTableRecord
  2
DIMSTYLE4
 70
     0
 41
1.0
 42
2.54
 44
2.54
 73
     0
 74
     0
 75
     1
 76
     1
 77
     1
140
3.0
145
1.0
147
1.5
172
     1
173
     1
279
     2
340
11
  0
ENDTAB
  0
TABLE
  2
BLOCK_RECORD
  5
1
330
0
100
AcDbSymbolTable
 70
     7
  0
BLOCK_RECORD
  5
22
330
1
100
AcDbSymbolTableRecord
100
AcDbBlockTableRecord
  2
*Model_Space
340
25
  0
BLOCK_RECORD
  5
1E
330
1
100
AcDbSymbolTableRecord
100
AcDbBlockTableRecord
  2
*Paper_Space
340
21
  0
BLOCK_RECORD
  5
34
330
1
100
AcDbSymbolTableRecord
100
AcDbBlockTableRecord
  2
_OPEN30
340
0
102
{BLKREFS
331
3D
331
3E
331
49
331
4A
331
55
331
56
331
61
331
62
102
}
  0
BLOCK_RECORD
  5
3A
330
1
100
AcDbSymbolTableRecord
100
AcDbBlockTableRecord
  2
*D1
340
0
  0
BLOCK_RECORD
  5
46
330
1
100
AcDbSymbolTableRecord
100
AcDbBlockTableRecord
  2
*D2
340
0
  0
BLOCK_RECORD
  5
51
330
1
100
AcDbSymbolTableRecord
100
AcDbBlockTableRecord
  2
*D3
340
0
  0
BLOCK_RECORD
  5
5D
330
1
100
AcDbSymbolTableRecord
100
AcDbBlockTableRecord
  2
*D4
340
0
  0
BLOCK_RECORD
  5
67
330
1
100
AcDbSymbolTableRecord
100
AcDbBlockTableRecord
  2
KOZU0001
340
0
102
{BLKREFS
331
1D2
102
}
  0
ENDTAB
  0
ENDSEC
  0
SECTION
  2
BLOCKS
  0
BLOCK
  5
23
330
22
100
AcDbEntity
  8
0
100
AcDbBlockBegin
  2
*Model_Space
 70
     0
 10
0.0
 20
0.0
 30
0.0
  3
*Model_Space
  1

  0
ENDBLK
  5
24
330
22
100
AcDbEntity
  8
0
100
AcDbBlockEnd
  0
BLOCK
  5
1F
330
1E
100
AcDbEntity
 67
     1
  8
0
100
AcDbBlockBegin
  2
*Paper_Space
 70
     0
 10
0.0
 20
0.0
 30
0.0
  3
*Paper_Space
  1

  0
ENDBLK
  5
20
330
1E
100
AcDbEntity
 67
     1
  8
0
100
AcDbBlockEnd
  0
BLOCK
  5
35
330
34
100
AcDbEntity
  8
0
100
AcDbBlockBegin
  2
_OPEN30
 70
     0
 10
0.0
 20
0.0
 30
0.0
  3
_OPEN30
  1

  0
LINE
  5
36
330
34
100
AcDbEntity
  8
0
  6
ByBlock
 62
     0
100
AcDbLine
 10
0.0
 20
0.0
 30
0.0
 11
-2.999999999999993
 21
-1.000000000000017
 31
0.0
  0
LINE
  5
37
330
34
100
AcDbEntity
  8
0
  6
ByBlock
 62
     0
100
AcDbLine
 10
0.0
 20
0.0
 30
0.0
 11
-3.000000000000006
 21
0.9999999999999815
 31
0.0
  0
LINE
  5
38
330
34
100
AcDbEntity
  8
0
  6
ByBlock
 62
     0
100
AcDbLine
 10
0.0
 20
0.0
 30
0.0
 11
-3.0
 21
0.0
 31
0.0
  0
ENDBLK
  5
39
330
34
100
AcDbEntity
  8
0
100
AcDbBlockEnd
  0
BLOCK
  5
3B
330
3A
100
AcDbEntity
  8
0
100
AcDbBlockBegin
  2
*D1
 70
     1
 10
0.0
 20
0.0
 30
0.0
  3
*D1
  1

  0
LINE
  5
3C
330
3A
100
AcDbEntity
  8
0
  6
Continuous
 62
     7
100
AcDbLine
 10
-212.0483093261719
 20
262.39208984375
 30
0.0
 11
-169.0483093261719
 21
262.39208984375
 31
0.0
  0
INSERT
  5
3D
330
3A
100
AcDbEntity
  8
0
  6
Continuous
 62
     7
100
AcDbBlockReference
  2
_OPEN30
 10
-215.0483093261719
 20
262.39208984375
 30
0.0
 50
180.0000000000004
  0
INSERT
  5
3E
330
3A
100
AcDbEntity
  8
0
  6
Continuous
 62
     7
100
AcDbBlockReference
  2
_OPEN30
 10
-166.0483093261719
 20
262.39208984375
 30
0.0
  0
LINE
  5
3F
330
3A
100
AcDbEntity
  8
0
  6
Continuous
 62
     7
100
AcDbLine
 10
-215.0483093261719
 20
232.2067938232422
 30
0.0
 11
-215.0483093261719
 21
264.6781005859375
 31
0.0
  0
LINE
  5
40
330
3A
100
AcDbEntity
  8
0
  6
Continuous
 62
     7
100
AcDbLine
 10
-166.0483093261719
 20
224.7406988525391
 30
0.0
 11
-166.0483093261719
 21
264.6781005859375
 31
0.0
  0
TEXT
  5
41
330
3A
100
AcDbEntity
  8
0
  6
Continuous
 62
     7
100
AcDbText
 10
-193.1183094382286
 20
263.14208984375
 30
0.0
 40
3.0
  1
49
 41
1.028000020980834
100
AcDbText
  0
POINT
  5
42
330
3A
100
AcDbEntity
  8
DEFPOINTS
  6
Continuous
 62
     7
100
AcDbPoint
 10
-215.0483093261719
 20
229.6667938232422
 30
0.0
  0
POINT
  5
43
330
3A
100
AcDbEntity
  8
DEFPOINTS
  6
Continuous
 62
     7
100
AcDbPoint
 10
-166.0483093261719
 20
222.2006988525391
 30
0.0
  0
POINT
  5
44
330
3A
100
AcDbEntity
  8
DEFPOINTS
  6
Continuous
 62
     7
100
AcDbPoint
 10
-166.0483093261719
 20
262.39208984375
 30
0.0
  0
ENDBLK
  5
45
330
3A
100
AcDbEntity
  8
0
100
AcDbBlockEnd
  0
BLOCK
  5
47
330
46
100
AcDbEntity
  8
0
100
AcDbBlockBegin
  2
*D2
 70
     1
 10
0.0
 20
0.0
 30
0.0
  3
*D2
  1

  0
LINE
  5
48
330
46
100
AcDbEntity
  8
0
  6
Continuous
 62
     7
100
AcDbLine
 10
-212.0483093261719
 20
252.9300231933594
 30
0.0
 11
-206.0483093261719
 21
252.9300231933594
 31
0.0
  0
INSERT
  5
49
330
46
100
AcDbEntity
  8
0
  6
Continuous
 62
     7
100
AcDbBlockReference
  2
_OPEN30
 10
-215.0483093261719
 20
252.9300231933594
 30
0.0
 50
180.0000000000004
  0
INSERT
  5
4A
330
46
100
AcDbEntity
  8
0
  6
Continuous
 62
     7
100
AcDbBlockReference
  2
_OPEN30
 10
-203.0483093261719
 20
252.9300231933594
 30
0.0
  0
LINE
  5
4B
330
46
100
AcDbEntity
  8
0
  6
Continuous
 62
     7
100
AcDbLine
 10
-203.0483093261719
 20
240.2427130126953
 30
0.0
 11
-203.0483093261719
 21
255.2160339355469
 31
0.0
  0
TEXT
  5
4C
330
46
100
AcDbEntity
  8
0
  6
Continuous
 62
     7
100
AcDbText
 10
-211.6183094382286
 20
253.6800231933594
 30
0.0
 40
3.0
  1
12
 41
1.285000026226043
100
AcDbText
  0
POINT
  5
4D
330
46
100
AcDbEntity
  8
DEFPOINTS
  6
Continuous
 62
     7
100
AcDbPoint
 10
-215.0483093261719
 20
255.6591491699219
 30
0.0
  0
POINT
  5
4E
330
46
100
AcDbEntity
  8
DEFPOINTS
  6
Continuous
 62
     7
100
AcDbPoint
 10
-203.0483093261719
 20
237.7027130126953
 30
0.0
  0
POINT
  5
4F
330
46
100
AcDbEntity
  8
DEFPOINTS
  6
Continuous
 62
     7
100
AcDbPoint
 10
-203.0483093261719
 20
252.9300231933594
 30
0.0
  0
ENDBLK
  5
50
330
46
100
AcDbEntity
  8
0
100
AcDbBlockEnd
  0
BLOCK
  5
52
330
51
100
AcDbEntity
  8
0
100
AcDbBlockBegin
  2
*D3
 70
     1
 10
0.0
 20
0.0
 30
0.0
  3
*D3
  1

  0
LINE
  5
53
330
51
100
AcDbEntity
  8
0
  6
Continuous
 62
     7
100
AcDbLine
 10
-193.0503234863281
 20
252.9300231933594
 30
0.0
 11
-133.069091796875
 21
252.9300231933594
 31
0.0
  0
LINE
  5
54
330
51
100
AcDbEntity
  8
0
  6
Continuous
 62
     7
100
AcDbLine
 10
-200.0483093261719
 20
252.9300231933594
 30
0.0
 11
-196.0503234863281
 21
252.9300231933594
 31
0.0
  0
INSERT
  5
55
330
51
100
AcDbEntity
  8
0
  6
Continuous
 62
     7
100
AcDbBlockReference
  2
_OPEN30
 10
-203.0483093261719
 20
252.9300231933594
 30
0.0
 50
180.0000000000004
  0
INSERT
  5
56
330
51
100
AcDbEntity
  8
0
  6
Continuous
 62
     7
100
AcDbBlockReference
  2
_OPEN30
 10
-193.0503234863281
 20
252.9300231933594
 30
0.0
  0
LINE
  5
57
330
51
100
AcDbEntity
  8
0
  6
Continuous
 62
     7
100
AcDbLine
 10
-193.0503234863281
 20
238.7427130126953
 30
0.0
 11
-193.0503234863281
 21
255.2160339355469
 31
0.0
  0
TEXT
  5
58
330
51
100
AcDbEntity
  8
0
  6
Continuous
 62
     7
100
AcDbText
 10
-162.2090997099876
 20
253.6800231933594
 30
0.0
 40
3.0
  1
最大挟み込み代　１０
 41
0.8443929326254473
100
AcDbText
  0
POINT
  5
59
330
51
100
AcDbEntity
  8
DEFPOINTS
  6
Continuous
 62
     7
100
AcDbPoint
 10
-203.0483093261719
 20
255.2160339355469
 30
0.0
  0
POINT
  5
5A
330
51
100
AcDbEntity
  8
DEFPOINTS
  6
Continuous
 62
     7
100
AcDbPoint
 10
-193.0503234863281
 20
236.2027130126953
 30
0.0
  0
POINT
  5
5B
330
51
100
AcDbEntity
  8
DEFPOINTS
  6
Continuous
 62
     7
100
AcDbPoint
 10
-193.0503234863281
 20
252.9300231933594
 30
0.0
  0
ENDBLK
  5
5C
330
51
100
AcDbEntity
  8
0
100
AcDbBlockEnd
  0
BLOCK
  5
5E
330
5D
100
AcDbEntity
  8
0
100
AcDbBlockBegin
  2
*D4
 70
     1
 10
0.0
 20
0.0
 30
0.0
  3
*D4
  1

  0
LINE
  5
5F
330
5D
100
AcDbEntity
  8
0
  6
Continuous
 62
     7
100
AcDbLine
 10
-286.5700378417969
 20
214.9377288818359
 30
0.0
 11
-273.8516845703125
 21
225.4934234619141
 31
0.0
  0
LINE
  5
60
330
5D
100
AcDbEntity
  8
0
  6
Continuous
 62
     7
100
AcDbLine
 10
-381.2180914910292
 20
136.38365044718
 30
0.0
 11
-288.8785271613145
 21
213.0217755782106
 31
0.0
  0
INSERT
  5
61
330
5D
100
AcDbEntity
  8
0
  6
Continuous
 62
     7
100
AcDbBlockReference
  2
_OPEN30
 10
-383.5265808105469
 20
134.4676971435547
 30
0.0
 50
219.691308897016
  0
INSERT
  5
62
330
5D
100
AcDbEntity
  8
0
  6
Continuous
 62
     7
100
AcDbBlockReference
  2
_OPEN30
 10
-286.5700378417969
 20
214.9377288818359
 30
0.0
 50
39.69130889701532
  0
TEXT
  5
63
330
5D
100
AcDbEntity
  8
0
  6
Continuous
 62
     7
100
AcDbText
 10
-282.9024184355894
 20
218.955254755033
 30
0.0
 40
3.0
  1
%%C126
 50
39.6999998525518
 41
1.053926216168795
100
AcDbText
  0
POINT
  5
64
330
5D
100
AcDbEntity
  8
DEFPOINTS
  6
Continuous
 62
     7
100
AcDbPoint
 10
-383.5265808105469
 20
134.4676971435547
 30
0.0
  0
POINT
  5
65
330
5D
100
AcDbEntity
  8
DEFPOINTS
  6
Continuous
 62
     7
100
AcDbPoint
 10
-286.5700378417969
 20
214.9377288818359
 30
0.0
  0
ENDBLK
  5
66
330
5D
100
AcDbEntity
  8
0
100
AcDbBlockEnd
  0
BLOCK
  5
68
330
67
100
AcDbEntity
  8
0
100
AcDbBlockBegin
  2
KOZU0001
 70
     0
 10
0.0
 20
0.0
 30
0.0
  3
KOZU0001
  1

  0
LINE
  5
69
330
67
100
AcDbEntity
  8
0
  6
Continuous
 62
     7
100
AcDbLine
 10
0.0
 20
0.0
 30
0.0
 11
15.67070007324219
 21
-26.30555725097656
 31
0.0
  0
LINE
  5
6A
330
67
100
AcDbEntity
  8
0
  6
Continuous
 62
     7
100
AcDbLine
 10
15.67070007324219
 20
-26.30555725097656
 30
0.0
 11
43.09286499023438
 21
-26.30555725097656
 31
0.0
  0
LINE
  5
6B
330
67
100
AcDbEntity
  8
0
  6
Continuous
 62
     7
100
AcDbLine
 10
0.0
 20
0.0
 30
0.0
 11
2.394476749155256
 21
-2.065546198407306
 31
0.0
  0
LINE
  5
6C
330
67
100
AcDbEntity
  8
0
  6
Continuous
 62
     7
100
AcDbLine
 10
0.0
 20
0.0
 30
0.0
 11
0.6762536802798215
 21
-3.089123008218998
 31
0.0
  0
TEXT
  5
6D
330
67
100
AcDbEntity
  8
0
  6
Continuous
 62
     7
100
AcDbText
 10
18.23286366462708
 20
-25.55555725097656
 30
0.0
 40
3.0
  1
配管接続口
 41
0.8487395020950888
100
AcDbText
  0
TEXT
  5
6E
330
67
100
AcDbEntity
  8
0
  6
Continuous
 62
     7
100
AcDbText
 10
18.23286366462708
 20
-30.82055725097656
 30
0.0
 40
3.0
  1
Ｒｃ３（８０Ａ）
 41
0.8454512278006642
100
AcDbText
  0
ENDBLK
  5
6F
330
67
100
AcDbEntity
  8
0
100
AcDbBlockEnd
  0
ENDSEC
  0
SECTION
  2
ENTITIES
  0
POINT
  5
70
330
22
100
AcDbEntity
  8
0
  6
Continuous
 62
     7
100
AcDbPoint
 10
-215.0483093261719
 20
174.7027130126953
 30
0.0
  0
POINT
  5
71
330
22
100
AcDbEntity
  8
0
  6
Continuous
 62
     7
100
AcDbPoint
 10
-335.0483093261719
 20
174.7027130126953
 30
0.0
  0
POINT
  5
72
330
22
100
AcDbEntity
  8
0
  6
Continuous
 62
     7
100
AcDbPoint
 10
-215.0483093261719
 20
174.7027130126953
 30
0.0
  0
POINT
  5
73
330
22
100
AcDbEntity
  8
0
  6
Continuous
 62
     7
100
AcDbPoint
 10
-335.0483093261719
 20
174.7027130126953
 30
0.0
  0
POINT
  5
74
330
22
100
AcDbEntity
  8
0
  6
Continuous
 62
     7
100
AcDbPoint
 10
-186.5950775146484
 20
216.5099182128906
 30
0.0
  0
LINE
  5
75
330
22
100
AcDbEntity
  8
0
  6
Continuous
 62
     7
100
AcDbLine
 10
-166.0503234863281
 20
218.6527099609375
 30
0.0
 11
-188.0503234863281
 21
217.9651794433594
 31
0.0
  0
LINE
  5
76
330
22
100
AcDbEntity
  8
0
  6
Continuous
 62
     7
100
AcDbLine
 10
-213.3936157226564
 20
233.5322113037109
 30
0.0
 11
-209.2231140136719
 21
237.7027130126953
 31
0.0
  0
LINE
  5
77
330
22
100
AcDbEntity
  8
0
  6
Continuous
 62
     7
100
AcDbLine
 10
-214.9946899414064
 20
229.1027069091797
 30
0.0
 11
-206.3946838378906
 21
237.7027130126953
 31
0.0
  0
LINE
  5
78
330
22
100
AcDbEntity
  8
0
  6
Continuous
 62
     7
100
AcDbLine
 10
-212.166259765625
 20
229.1027069091797
 30
0.0
 11
-206.0503234863281
 21
235.2186431884766
 31
0.0
  0
LINE
  5
79
330
22
100
AcDbEntity
  8
0
  6
Continuous
 62
     7
100
AcDbLine
 10
-212.0503234863281
 20
226.3902130126953
 30
0.0
 11
-206.3940734863281
 21
232.0464630126953
 31
0.0
  0
LINE
  5
7A
330
22
100
AcDbEntity
  8
0
  6
Continuous
 62
     7
100
AcDbLine
 10
-212.0503234863281
 20
223.5617828369141
 30
0.0
 11
-206.0503234863281
 21
229.5617828369141
 31
0.0
  0
LINE
  5
7B
330
22
100
AcDbEntity
  8
0
  6
Continuous
 62
     7
100
AcDbLine
 10
-209.3309783935547
 20
223.4527130126953
 30
0.0
 11
-206.0656433105469
 21
226.7180328369141
 31
0.0
  0
LINE
  5
7C
330
22
100
AcDbEntity
  8
0
  6
Continuous
 62
     7
100
AcDbLine
 10
-208.5025482177734
 20
221.4527130126953
 30
0.0
 11
-206.0503234863281
 21
223.9049377441406
 31
0.0
  0
LINE
  5
7D
330
22
100
AcDbEntity
  8
0
  6
Continuous
 62
     7
100
AcDbLine
 10
-208.7503204345703
 20
221.2049407958984
 30
0.0
 11
-208.5025482177734
 21
221.4527130126953
 31
0.0
  0
LINE
  5
7E
330
22
100
AcDbEntity
  8
0
  6
Continuous
 62
     7
100
AcDbLine
 10
-212.0503234863281
 20
217.9049377441406
 30
0.0
 11
-210.5025482177734
 21
219.4527130126953
 31
0.0
  0
LINE
  5
7F
330
22
100
AcDbEntity
  8
0
  6
Continuous
 62
     7
100
AcDbLine
 10
-212.0293884277344
 20
215.0974426269531
 30
0.0
 11
-203.9241180419922
 21
223.2027130126953
 31
0.0
  0
LINE
  5
80
330
22
100
AcDbEntity
  8
0
  6
Continuous
 62
     7
100
AcDbLine
 10
-209.5956878662109
 20
214.7027130126953
 30
0.0
 11
-201.5730133056641
 21
222.7254028320313
 31
0.0
  0
LINE
  5
81
330
22
100
AcDbEntity
  8
0
  6
Continuous
 62
     7
100
AcDbLine
 10
-204.2672729492188
 20
217.2027130126953
 30
0.0
 11
-199.2672729492188
 21
222.2027130126953
 31
0.0
  0
LINE
  5
82
330
22
100
AcDbEntity
  8
0
  6
Continuous
 62
     7
100
AcDbLine
 10
-206.7672729492188
 20
214.7027130126953
 30
0.0
 11
-205.0503234863281
 21
216.4196472167969
 31
0.0
  0
LINE
  5
83
330
22
100
AcDbEntity
  8
0
  6
Continuous
 62
     7
100
AcDbLine
 10
-201.4388427734375
 20
217.2027130126953
 30
0.0
 11
-196.4388427734375
 21
222.2027130126953
 31
0.0
  0
LINE
  5
84
330
22
100
AcDbEntity
  8
0
  6
Continuous
 62
     7
100
AcDbLine
 10
-198.6104125976563
 20
217.2027130126953
 30
0.0
 11
-193.6104125976563
 21
222.2027130126953
 31
0.0
  0
LINE
  5
85
330
22
100
AcDbEntity
  8
0
  6
Continuous
 62
     7
100
AcDbLine
 10
-195.781982421875
 20
217.2027130126953
 30
0.0
 11
-190.781982421875
 21
222.2027130126953
 31
0.0
  0
LINE
  5
86
330
22
100
AcDbEntity
  8
0
  6
Continuous
 62
     7
100
AcDbLine
 10
-192.9535522460938
 20
217.2027130126953
 30
0.0
 11
-187.9535522460938
 21
222.2027130126953
 31
0.0
  0
LINE
  5
87
330
22
100
AcDbEntity
  8
0
  6
Continuous
 62
     7
100
AcDbLine
 10
-190.1251373291016
 20
217.2027130126953
 30
0.0
 11
-185.1251373291016
 21
222.2027130126953
 31
0.0
  0
LINE
  5
88
330
22
100
AcDbEntity
  8
0
  6
Continuous
 62
     7
100
AcDbLine
 10
-186.4853363037109
 20
218.0140838623047
 30
0.0
 11
-182.2967071533203
 21
222.2027130126953
 31
0.0
  0
LINE
  5
89
330
22
100
AcDbEntity
  8
0
  6
Continuous
 62
     7
100
AcDbLine
 10
-183.5656585693359
 20
218.1053314208984
 30
0.0
 11
-179.4682769775391
 21
222.2027130126953
 31
0.0
  0
LINE
  5
8A
330
22
100
AcDbEntity
  8
0
  6
Continuous
 62
     7
100
AcDbLine
 10
-180.6459808349609
 20
218.1965789794922
 30
0.0
 11
-176.6398468017578
 21
222.2027130126953
 31
0.0
  0
LINE
  5
8B
330
22
100
AcDbEntity
  8
0
  6
Continuous
 62
     7
100
AcDbLine
 10
-177.726318359375
 20
218.2878265380859
 30
0.0
 11
-173.8114166259766
 21
222.2027130126953
 31
0.0
  0
LINE
  5
8C
330
22
100
AcDbEntity
  8
0
  6
Continuous
 62
     7
100
AcDbLine
 10
-174.806640625
 20
218.3790588378906
 30
0.0
 11
-170.9830017089844
 21
222.2027130126953
 31
0.0
  0
LINE
  5
8D
330
22
100
AcDbEntity
  8
0
  6
Continuous
 62
     7
100
AcDbLine
 10
-171.8869781494141
 20
218.4703063964844
 30
0.0
 11
-168.1545715332031
 21
222.2027130126953
 31
0.0
  0
LINE
  5
8E
330
22
100
AcDbEntity
  8
0
  6
Continuous
 62
     7
100
AcDbLine
 10
-168.9673004150391
 20
218.5615539550781
 30
0.0
 11
-166.0503234863281
 21
221.4785308837891
 31
0.0
  0
LINE
  5
8F
330
22
100
AcDbEntity
  8
0
  6
Continuous
 62
     7
100
AcDbLine
 10
-167.0503234863281
 20
223.2027130126953
 30
0.0
 11
-202.0503234863281
 21
223.2027130126953
 31
0.0
  0
LINE
  5
90
330
22
100
AcDbEntity
  8
0
  6
Continuous
 62
     7
100
AcDbLine
 10
-166.0503234863281
 20
222.2027130126953
 30
0.0
 11
-201.0503234863281
 21
222.2027130126953
 31
0.0
  0
LINE
  5
91
330
22
100
AcDbEntity
  8
0
  6
Continuous
 62
     7
100
AcDbLine
 10
-176.2063446044922
 20
223.2027130126953
 30
0.0
 11
-177.2063446044922
 21
222.2027130126953
 31
0.0
  0
LINE
  5
92
330
22
100
AcDbEntity
  8
0
  6
Continuous
 62
     7
100
AcDbLine
 10
-211.5503234863281
 20
214.7027130126953
 30
0.0
 11
-205.5503234863281
 21
214.7027130126953
 31
0.0
  0
LINE
  5
93
330
22
100
AcDbEntity
  8
0
  6
Continuous
 62
     7
100
AcDbLine
 10
-209.1303253173828
 20
223.4527130126953
 30
0.0
 11
-208.7503204345703
 21
223.4527130126953
 31
0.0
  0
LINE
  5
94
330
22
100
AcDbEntity
  8
0
  6
Continuous
 62
     7
100
AcDbLine
 10
-209.0503234863281
 20
219.8327178955078
 30
0.0
 11
-209.4303283691406
 21
219.4527130126953
 31
0.0
  0
LINE
  5
95
330
22
100
AcDbEntity
  8
0
  6
Continuous
 62
     7
100
AcDbLine
 10
-209.0503234863281
 20
223.0727081298828
 30
0.0
 11
-212.4703216552734
 21
223.0727081298828
 31
0.0
  0
LINE
  5
96
330
22
100
AcDbEntity
  8
0
  6
Continuous
 62
     7
100
AcDbLine
 10
-209.0503234863281
 20
219.8327178955078
 30
0.0
 11
-212.4703216552734
 21
219.8327178955078
 31
0.0
  0
LINE
  5
97
330
22
100
AcDbEntity
  8
0
  6
Continuous
 62
     7
100
AcDbLine
 10
-212.8503265380859
 20
223.4527130126953
 30
0.0
 11
-212.4703216552734
 21
223.0727081298828
 31
0.0
  0
LINE
  5
98
330
22
100
AcDbEntity
  8
0
  6
Continuous
 62
     7
100
AcDbLine
 10
-212.8503265380859
 20
223.4527130126953
 30
0.0
 11
-209.4303283691406
 21
223.4527130126953
 31
0.0
  0
LINE
  5
99
330
22
100
AcDbEntity
  8
0
  6
Continuous
 62
     7
100
AcDbLine
 10
-212.0503234863281
 20
223.7027130126953
 30
0.0
 11
-213.1003265380859
 21
223.7027130126953
 31
0.0
  0
LINE
  5
9A
330
22
100
AcDbEntity
  8
0
  6
Continuous
 62
     7
100
AcDbLine
 10
-205.0503234863281
 20
215.2027130126953
 30
0.0
 11
-205.0503234863281
 21
216.7027130126953
 31
0.0
  0
LINE
  5
9B
330
22
100
AcDbEntity
  8
0
  6
Continuous
 62
     7
100
AcDbLine
 10
-212.0503234863281
 20
223.4527130126953
 30
0.0
 11
-209.1303253173828
 21
223.4527130126953
 31
0.0
  0
LINE
  5
9C
330
22
100
AcDbEntity
  8
0
  6
Continuous
 62
     7
100
AcDbLine
 10
-212.0503234863281
 20
229.1027069091797
 30
0.0
 11
-212.0503234863281
 21
223.4527130126953
 31
0.0
  0
LINE
  5
9D
330
22
100
AcDbEntity
  8
0
  6
Continuous
 62
     7
100
AcDbLine
 10
-208.7503204345703
 20
223.4527130126953
 30
0.0
 11
-209.1303253173828
 21
223.0727081298828
 31
0.0
  0
LINE
  5
9E
330
22
100
AcDbEntity
  8
0
  6
Continuous
 62
     7
100
AcDbLine
 10
-211.326171875
 20
236.6949920654297
 30
0.0
 11
-214.3915405273439
 21
232.0055847167969
 31
0.0
  0
LINE
  5
9F
330
22
100
AcDbEntity
  8
0
  6
Continuous
 62
     7
100
AcDbLine
 10
-188.0503234863281
 20
217.2027130126953
 30
0.0
 11
-204.5503234863281
 21
217.2027130126953
 31
0.0
  0
LINE
  5
A0
330
22
100
AcDbEntity
  8
0
  6
Continuous
 62
     7
100
AcDbLine
 10
-188.0503234863281
 20
217.9651794433594
 30
0.0
 11
-186.5950775146484
 21
216.5099182128906
 31
0.0
  0
LINE
  5
A1
330
22
100
AcDbEntity
  8
0
  6
Continuous
 62
     7
100
AcDbLine
 10
-193.0503234863281
 20
236.2027130126953
 30
0.0
 11
-190.0503234863281
 21
236.2027130126953
 31
0.0
  0
LINE
  5
A2
330
22
100
AcDbEntity
  8
0
  6
Continuous
 62
     7
100
AcDbLine
 10
-189.0503234863281
 20
234.6876220703125
 30
0.0
 11
-187.5352325439453
 21
236.2027130126953
 31
0.0
  0
LINE
  5
A3
330
22
100
AcDbEntity
  8
0
  6
Continuous
 62
     7
100
AcDbLine
 10
-189.0503234863281
 20
223.2027130126953
 30
0.0
 11
-188.0503234863281
 21
222.2027130126953
 31
0.0
  0
LINE
  5
A4
330
22
100
AcDbEntity
  8
0
  6
Continuous
 62
     7
100
AcDbLine
 10
-189.0503234863281
 20
230.4449768066406
 30
0.0
 11
-186.0503234863281
 21
233.4449768066406
 31
0.0
  0
LINE
  5
A5
330
22
100
AcDbEntity
  8
0
  6
Continuous
 62
     7
100
AcDbLine
 10
-189.0503234863281
 20
226.2023315429688
 30
0.0
 11
-182.5910949707031
 21
232.6615753173828
 31
0.0
  0
LINE
  5
A6
330
22
100
AcDbEntity
  8
0
  6
Continuous
 62
     7
100
AcDbLine
 10
-183.5646667480469
 20
223.2027130126953
 30
0.0
 11
-177.2796630859375
 21
229.4877166748047
 31
0.0
  0
LINE
  5
A7
330
22
100
AcDbEntity
  8
0
  6
Continuous
 62
     7
100
AcDbLine
 10
-179.322021484375
 20
223.2027130126953
 30
0.0
 11
-176.5704345703125
 21
225.9543151855469
 31
0.0
  0
LINE
  5
A8
330
22
100
AcDbEntity
  8
0
  6
Continuous
 62
     7
100
AcDbLine
 10
-189.0503234863281
 20
232.5662994384766
 30
0.0
 11
-186.0503234863281
 21
235.5662994384766
 31
0.0
  0
LINE
  5
A9
330
22
100
AcDbEntity
  8
0
  6
Continuous
 62
     7
100
AcDbLine
 10
-189.0503234863281
 20
228.3236541748047
 30
0.0
 11
-184.7131195068359
 21
232.6608581542969
 31
0.0
  0
LINE
  5
AA
330
22
100
AcDbEntity
  8
0
  6
Continuous
 62
     7
100
AcDbLine
 10
-189.0503234863281
 20
224.0810241699219
 30
0.0
 11
-180.4690704345703
 21
232.6622772216797
 31
0.0
  0
LINE
  5
AB
330
22
100
AcDbEntity
  8
0
  6
Continuous
 62
     7
100
AcDbLine
 10
-185.6859893798828
 20
223.2027130126953
 30
0.0
 11
-177.7353668212891
 21
231.1533355712891
 31
0.0
  0
LINE
  5
AC
330
22
100
AcDbEntity
  8
0
  6
Continuous
 62
     7
100
AcDbLine
 10
-181.4433441162109
 20
223.2027130126953
 30
0.0
 11
-176.8944854736328
 21
227.7515869140625
 31
0.0
  0
LINE
  5
AD
330
22
100
AcDbEntity
  8
0
  6
Continuous
 62
     7
100
AcDbLine
 10
-177.2007141113281
 20
223.2027130126953
 30
0.0
 11
-176.3134613037109
 21
224.0899505615234
 31
0.0
  0
LINE
  5
AE
330
22
100
AcDbEntity
  8
0
  6
Continuous
 62
     7
100
AcDbLine
 10
-167.5994720458984
 20
217.1035614013672
 30
0.0
 11
-186.5950775146484
 21
216.5099182128906
 31
0.0
  0
LINE
  5
AF
330
22
100
AcDbEntity
  8
0
  6
Continuous
 62
     7
100
AcDbLine
 10
-166.0503234863281
 20
218.6527099609375
 30
0.0
 11
-188.0503234863281
 21
217.9651794433594
 31
0.0
  0
LINE
  5
B0
330
22
100
AcDbEntity
  8
0
  6
Continuous
 62
     7
100
AcDbLine
 10
-208.7503204345703
 20
219.4527130126953
 30
0.0
 11
-209.1303253173828
 21
219.8327178955078
 31
0.0
  0
LINE
  5
B1
330
22
100
AcDbEntity
  8
0
  6
Continuous
 62
     7
100
AcDbLine
 10
-207.0503234863281
 20
232.7027130126953
 30
0.0
 11
-206.0503234863281
 21
233.7027130126953
 31
0.0
  0
LINE
  5
B2
330
22
100
AcDbEntity
  8
0
  6
Continuous
 62
     7
100
AcDbLine
 10
-207.0503234863281
 20
232.7027130126953
 30
0.0
 11
-206.0503234863281
 21
231.7027130126953
 31
0.0
  0
LINE
  5
B3
330
22
100
AcDbEntity
  8
0
  6
Continuous
 62
     7
100
AcDbLine
 10
-202.0503234863281
 20
223.2027130126953
 30
0.0
 11
-201.0503234863281
 21
222.2027130126953
 31
0.0
  0
LINE
  5
B4
330
22
100
AcDbEntity
  8
0
  6
Continuous
 62
     7
100
AcDbLine
 10
-208.7503204345703
 20
223.4527130126953
 30
0.0
 11
-208.7503204345703
 21
219.4527130126953
 31
0.0
  0
LINE
  5
B5
330
22
100
AcDbEntity
  8
0
  6
Continuous
 62
     7
100
AcDbLine
 10
-212.0503234863281
 20
219.4527130126953
 30
0.0
 11
-212.0503234863281
 21
215.2027130126953
 31
0.0
  0
LINE
  5
B6
330
22
100
AcDbEntity
  8
0
  6
CENTER
 62
     7
100
AcDbLine
 10
-220.6459503173828
 20
221.4527130126953
 30
0.0
 11
-206.0503234863281
 21
221.4527130126953
 31
0.0
  0
LINE
  5
B7
330
22
100
AcDbEntity
  8
0
  6
Continuous
 62
     7
100
AcDbLine
 10
-206.0503234863281
 20
223.2027130126953
 30
0.0
 11
-206.0503234863281
 21
237.7027130126953
 31
0.0
  0
LINE
  5
B8
330
22
100
AcDbEntity
  8
0
  6
Continuous
 62
     7
100
AcDbLine
 10
-190.0503234863281
 20
236.2027130126953
 30
0.0
 11
-190.0503234863281
 21
223.2027130126953
 31
0.0
  0
LINE
  5
B9
330
22
100
AcDbEntity
  8
0
  6
Continuous
 62
     7
100
AcDbLine
 10
-189.0503234863281
 20
236.2027130126953
 30
0.0
 11
-189.0503234863281
 21
223.2027130126953
 31
0.0
  0
LINE
  5
BA
330
22
100
AcDbEntity
  8
0
  6
Continuous
 62
     7
100
AcDbLine
 10
-189.0503234863281
 20
236.2027130126953
 30
0.0
 11
-186.0503234863281
 21
236.2027130126953
 31
0.0
  0
LINE
  5
BB
330
22
100
AcDbEntity
  8
0
  6
Continuous
 62
     7
100
AcDbLine
 10
-189.0503234863281
 20
236.2027130126953
 30
0.0
 11
-190.0503234863281
 21
236.2027130126953
 31
0.0
  0
LINE
  5
BC
330
22
100
AcDbEntity
  8
0
  6
Continuous
 62
     7
100
AcDbLine
 10
-206.0503234863281
 20
237.7027130126953
 30
0.0
 11
-203.0503234863281
 21
237.7027130126953
 31
0.0
  0
LINE
  5
BD
330
22
100
AcDbEntity
  8
0
  6
Continuous
 62
     7
100
AcDbLine
 10
-203.0503234863281
 20
237.7027130126953
 30
0.0
 11
-203.0503234863281
 21
223.7027130126953
 31
0.0
  0
LINE
  5
BE
330
22
100
AcDbEntity
  8
0
  6
Continuous
 62
     7
100
AcDbLine
 10
-206.0503234863281
 20
223.7027130126953
 30
0.0
 11
-203.0503234863281
 21
223.7027130126953
 31
0.0
  0
LINE
  5
BF
330
22
100
AcDbEntity
  8
0
  6
Continuous
 62
     7
100
AcDbLine
 10
-193.0503234863281
 20
236.2027130126953
 30
0.0
 11
-193.0503234863281
 21
223.2027130126953
 31
0.0
  0
LINE
  5
C0
330
22
100
AcDbEntity
  8
0
  6
Continuous
 62
     7
100
AcDbLine
 10
-209.0503234863281
 20
223.0727081298828
 30
0.0
 11
-209.0503234863281
 21
219.8327178955078
 31
0.0
  0
LINE
  5
C1
330
22
100
AcDbEntity
  8
0
  6
Continuous
 62
     7
100
AcDbLine
 10
-215.0503234863281
 20
217.2527160644531
 30
0.0
 11
-212.8503265380859
 21
219.4527130126953
 31
0.0
  0
LINE
  5
C2
330
22
100
AcDbEntity
  8
0
  6
Continuous
 62
     7
100
AcDbLine
 10
-209.0503234863281
 20
223.0727081298828
 30
0.0
 11
-209.4303283691406
 21
223.4527130126953
 31
0.0
  0
LINE
  5
C3
330
22
100
AcDbEntity
  8
0
  6
Continuous
 62
     7
100
AcDbLine
 10
-207.0503234863281
 20
227.7027130126953
 30
0.0
 11
-206.0503234863281
 21
226.7027130126953
 31
0.0
  0
LINE
  5
C4
330
22
100
AcDbEntity
  8
0
  6
Continuous
 62
     7
100
AcDbLine
 10
-207.0503234863281
 20
227.7027130126953
 30
0.0
 11
-206.0503234863281
 21
228.7027130126953
 31
0.0
  0
LINE
  5
C5
330
22
100
AcDbEntity
  8
0
  6
Continuous
 62
     7
100
AcDbLine
 10
-210.7503204345703
 20
113.9308013916016
 30
0.0
 11
-210.7503204345703
 21
174.7027130126953
 31
0.0
  0
LINE
  5
C6
330
22
100
AcDbEntity
  8
0
  6
Continuous
 62
     7
100
AcDbLine
 10
-189.0503234863281
 20
174.7027130126953
 30
0.0
 11
-189.0503234863281
 21
113.2027130126953
 31
0.0
  0
LINE
  5
C7
330
22
100
AcDbEntity
  8
0
  6
Continuous
 62
     7
100
AcDbLine
 10
-186.0503234863281
 20
174.7027130126953
 30
0.0
 11
-186.0503234863281
 21
113.2027130126953
 31
0.0
  0
LINE
  5
C8
330
22
100
AcDbEntity
  8
0
  6
Continuous
 62
     7
100
AcDbLine
 10
-176.0503234863281
 20
174.7027130126953
 30
0.0
 11
-176.0503234863281
 21
128.4323272705078
 31
0.0
  0
LINE
  5
C9
330
22
100
AcDbEntity
  8
0
  6
Continuous
 62
     7
100
AcDbLine
 10
-193.0503234863281
 20
174.7027130126953
 30
0.0
 11
-193.0503234863281
 21
113.2027130126953
 31
0.0
  0
LINE
  5
CA
330
22
100
AcDbEntity
  8
0
  6
Continuous
 62
     7
100
AcDbLine
 10
-206.0503234863281
 20
237.7027130126953
 30
0.0
 11
-209.5896759033203
 21
237.7027130126953
 31
0.0
  0
LINE
  5
CB
330
22
100
AcDbEntity
  8
0
  6
Continuous
 62
     7
100
AcDbLine
 10
-166.0503234863281
 20
218.6527099609375
 30
0.0
 11
-167.5994720458984
 21
217.1035614013672
 31
0.0
  0
LINE
  5
CC
330
22
100
AcDbEntity
  8
0
  6
Continuous
 62
     7
100
AcDbLine
 10
-166.0503234863281
 20
218.6527099609375
 30
0.0
 11
-167.5994720458984
 21
217.1035614013672
 31
0.0
  0
LINE
  5
CD
330
22
100
AcDbEntity
  8
0
  6
Continuous
 62
     7
100
AcDbLine
 10
-166.0503234863281
 20
222.2027130126953
 30
0.0
 11
-167.0503234863281
 21
223.2027130126953
 31
0.0
  0
LINE
  5
CE
330
22
100
AcDbEntity
  8
0
  6
Continuous
 62
     7
100
AcDbLine
 10
-212.8503265380859
 20
219.4527130126953
 30
0.0
 11
-212.4703216552734
 21
219.8327178955078
 31
0.0
  0
LINE
  5
CF
330
22
100
AcDbEntity
  8
0
  6
Continuous
 62
     7
100
AcDbLine
 10
-212.0503234863281
 20
219.2027130126953
 30
0.0
 11
-213.1003265380859
 21
219.2027130126953
 31
0.0
  0
LINE
  5
D0
330
22
100
AcDbEntity
  8
0
  6
Continuous
 62
     7
100
AcDbLine
 10
-212.8503265380859
 20
219.4527130126953
 30
0.0
 11
-209.4303283691406
 21
219.4527130126953
 31
0.0
  0
LINE
  5
D1
330
22
100
AcDbEntity
  8
0
  6
Continuous
 62
     7
100
AcDbLine
 10
-215.0503234863281
 20
225.6527099609375
 30
0.0
 11
-212.8503265380859
 21
223.4527130126953
 31
0.0
  0
LINE
  5
D2
330
22
100
AcDbEntity
  8
0
  6
Continuous
 62
     7
100
AcDbLine
 10
-186.0503234863281
 20
236.2027130126953
 30
0.0
 11
-186.0503234863281
 21
232.6604156494141
 31
0.0
  0
LINE
  5
D3
330
22
100
AcDbEntity
  8
0
  6
Continuous
 62
     7
100
AcDbLine
 10
-178.1946411132813
 20
232.6630249023438
 30
0.0
 11
-186.0503234863281
 21
232.6604156494141
 31
0.0
  0
LINE
  5
D4
330
22
100
AcDbEntity
  8
0
  6
Continuous
 62
     7
100
AcDbLine
 10
-209.1303253173828
 20
219.4527130126953
 30
0.0
 11
-208.7503204345703
 21
219.4527130126953
 31
0.0
  0
LINE
  5
D5
330
22
100
AcDbEntity
  8
0
  6
Continuous
 62
     7
100
AcDbLine
 10
-209.1303253173828
 20
219.8327178955078
 30
0.0
 11
-211.6703186035156
 21
219.8327178955078
 31
0.0
  0
LINE
  5
D6
330
22
100
AcDbEntity
  8
0
  6
Continuous
 62
     7
100
AcDbLine
 10
-202.0503234863281
 20
223.2027130126953
 30
0.0
 11
-206.0503234863281
 21
223.2027130126953
 31
0.0
  0
LINE
  5
D7
330
22
100
AcDbEntity
  8
0
  6
Continuous
 62
     7
100
AcDbLine
 10
-209.1303253173828
 20
223.0727081298828
 30
0.0
 11
-211.6703186035156
 21
223.0727081298828
 31
0.0
  0
LINE
  5
D8
330
22
100
AcDbEntity
  8
0
  6
Continuous
 62
     7
100
AcDbLine
 10
-212.0503234863281
 20
219.4527130126953
 30
0.0
 11
-209.1303253173828
 21
219.4527130126953
 31
0.0
  0
LINE
  5
D9
330
22
100
AcDbEntity
  8
0
  6
Continuous
 62
     7
100
AcDbLine
 10
-215.0503234863281
 20
229.1027069091797
 30
0.0
 11
-212.0503234863281
 21
229.1027069091797
 31
0.0
  0
LINE
  5
DA
330
22
100
AcDbEntity
  8
0
  6
Continuous
 62
     7
100
AcDbLine
 10
-211.326171875
 20
112.7104339599609
 30
0.0
 11
-214.5128784179688
 21
117.6254043579102
 31
0.0
  0
LINE
  5
DB
330
22
100
AcDbEntity
  8
0
  6
Continuous
 62
     7
100
AcDbLine
 10
-202.0503234863281
 20
126.2027130126953
 30
0.0
 11
-201.0503234863281
 21
127.2027130126953
 31
0.0
  0
LINE
  5
DC
330
22
100
AcDbEntity
  8
0
  6
Continuous
 62
     7
100
AcDbLine
 10
-206.0503234863281
 20
111.7027130126953
 30
0.0
 11
-209.5896759033203
 21
111.7027130126953
 31
0.0
  0
LINE
  5
DD
330
22
100
AcDbEntity
  8
0
  6
Continuous
 62
     7
100
AcDbLine
 10
-202.0503234863281
 20
126.2027130126953
 30
0.0
 11
-203.0503234863281
 21
126.2027130126953
 31
0.0
  0
LINE
  5
DE
330
22
100
AcDbEntity
  8
0
  6
Continuous
 62
     7
100
AcDbLine
 10
-206.0503234863281
 20
111.7027130126953
 30
0.0
 11
-203.0503234863281
 21
111.7027130126953
 31
0.0
  0
LINE
  5
DF
330
22
100
AcDbEntity
  8
0
  6
Continuous
 62
     7
100
AcDbLine
 10
-178.1946411132813
 20
148.0240631103516
 30
0.0
 11
-178.1946411132813
 21
143.9527130126953
 31
0.0
  0
LINE
  5
E0
330
22
100
AcDbEntity
  8
0
  6
Continuous
 62
     7
100
AcDbLine
 10
-178.1946411132813
 20
143.9527130126953
 30
0.0
 11
-186.0503234863281
 21
143.9527130126953
 31
0.0
  0
LINE
  5
E1
330
22
100
AcDbEntity
  8
0
  6
Continuous
 62
     7
100
AcDbLine
 10
-193.0503234863281
 20
127.2027130126953
 30
0.0
 11
-201.0503234863281
 21
127.2027130126953
 31
0.0
  0
LINE
  5
E2
330
22
100
AcDbEntity
  8
0
  6
Continuous
 62
     7
100
AcDbLine
 10
-193.0503234863281
 20
126.2027130126953
 30
0.0
 11
-202.0503234863281
 21
126.2027130126953
 31
0.0
  0
LINE
  5
E3
330
22
100
AcDbEntity
  8
0
  6
Continuous
 62
     7
100
AcDbLine
 10
-189.0503234863281
 20
113.2027130126953
 30
0.0
 11
-186.0503234863281
 21
113.2027130126953
 31
0.0
  0
LINE
  5
E4
330
22
100
AcDbEntity
  8
0
  6
Continuous
 62
     7
100
AcDbLine
 10
-193.0503234863281
 20
113.2027130126953
 30
0.0
 11
-189.0503234863281
 21
113.2027130126953
 31
0.0
  0
LINE
  5
E5
330
22
100
AcDbEntity
  8
0
  6
Continuous
 62
     7
100
AcDbLine
 10
-166.0503234863281
 20
127.2027130126953
 30
0.0
 11
-167.0503234863281
 21
126.2027130126953
 31
0.0
  0
LINE
  5
E6
330
22
100
AcDbEntity
  8
0
  6
CENTER
 62
     7
100
AcDbLine
 10
-223.6465301513672
 20
174.7027130126953
 30
0.0
 11
-159.1868591308594
 21
174.7027130126953
 31
0.0
  0
LINE
  5
E7
330
22
100
AcDbEntity
  8
0
  6
Continuous
 62
     7
100
AcDbLine
 10
-167.0503234863281
 20
126.2027130126953
 30
0.0
 11
-176.2063446044922
 21
126.2027130126953
 31
0.0
  0
LINE
  5
E8
330
22
100
AcDbEntity
  8
0
  6
Continuous
 62
     7
100
AcDbLine
 10
-166.0503234863281
 20
127.2027130126953
 30
0.0
 11
-176.1221008300781
 21
127.2027130126953
 31
0.0
  0
LINE
  5
E9
330
22
100
AcDbEntity
  8
0
  6
Continuous
 62
     7
100
AcDbLine
 10
-190.0503234863281
 20
174.7027130126953
 30
0.0
 11
-190.0503234863281
 21
113.2027130126953
 31
0.0
  0
LINE
  5
EA
330
22
100
AcDbEntity
  8
0
  6
Continuous
 62
     7
100
AcDbLine
 10
-206.0503234863281
 20
174.7027130126953
 30
0.0
 11
-206.0503234863281
 21
111.7027130126953
 31
0.0
  0
LINE
  5
EB
330
22
100
AcDbEntity
  8
0
  6
Continuous
 62
     7
100
AcDbLine
 10
-203.0503234863281
 20
111.7027130126953
 30
0.0
 11
-203.0503234863281
 21
174.7027130126953
 31
0.0
  0
LINE
  5
EC
330
22
100
AcDbEntity
  8
0
  6
Continuous
 62
     7
100
AcDbLine
 10
-178.1946411132813
 20
148.0240631103516
 30
0.0
 11
-186.0503234863281
 21
148.0240631103516
 31
0.0
  0
LINE
  5
ED
330
22
100
AcDbEntity
  8
0
  6
Continuous
 62
     7
100
AcDbLine
 10
-178.1946411132813
 20
116.7423934936523
 30
0.0
 11
-186.0503234863281
 21
116.7450103759766
 31
0.0
  0
LINE
  5
EE
330
22
100
AcDbEntity
  8
0
  6
Continuous
 62
     7
100
AcDbLine
 10
-167.5994720458984
 20
217.1035614013672
 30
0.0
 11
-167.5994720458984
 21
174.7027130126953
 31
0.0
  0
LINE
  5
EF
330
22
100
AcDbEntity
  8
0
  6
Continuous
 62
     7
100
AcDbLine
 10
-166.0503234863281
 20
218.6527099609375
 30
0.0
 11
-166.0503234863281
 21
174.7027130126953
 31
0.0
  0
LINE
  5
F0
330
22
100
AcDbEntity
  8
0
  6
Continuous
 62
     7
100
AcDbLine
 10
-186.5950775146484
 20
216.5099182128906
 30
0.0
 11
-186.5950775146484
 21
174.7027130126953
 31
0.0
  0
LINE
  5
F1
330
22
100
AcDbEntity
  8
0
  6
Continuous
 62
     7
100
AcDbLine
 10
-205.0503234863281
 20
215.9527130126953
 30
0.0
 11
-205.0503234863281
 21
174.7027130126953
 31
0.0
  0
LINE
  5
F2
330
22
100
AcDbEntity
  8
0
  6
Continuous
 62
     7
100
AcDbLine
 10
-212.0503234863281
 20
215.2027130126953
 30
0.0
 11
-212.0503234863281
 21
174.7027130126953
 31
0.0
  0
LINE
  5
F3
330
22
100
AcDbEntity
  8
0
  6
Continuous
 62
     7
100
AcDbLine
 10
-212.1690216064453
 20
229.1027069091797
 30
0.0
 11
-212.0503234863281
 21
228.9840087890625
 31
0.0
  0
LINE
  5
F4
330
22
100
AcDbEntity
  8
0
  6
Continuous
 62
     7
100
AcDbLine
 10
-212.8761291503906
 20
229.1027069091797
 30
0.0
 11
-212.0503234863281
 21
228.2769012451172
 31
0.0
  0
LINE
  5
F5
330
22
100
AcDbEntity
  8
0
  6
Continuous
 62
     7
100
AcDbLine
 10
-214.9974517822266
 20
229.1027069091797
 30
0.0
 11
-212.0503234863281
 21
226.1555786132813
 31
0.0
  0
LINE
  5
F6
330
22
100
AcDbEntity
  8
0
  6
Continuous
 62
     7
100
AcDbLine
 10
-215.0463409423828
 20
228.4444885253906
 30
0.0
 11
-212.0503234863281
 21
225.448486328125
 31
0.0
  0
LINE
  5
F7
330
22
100
AcDbEntity
  8
0
  6
Continuous
 62
     7
100
AcDbLine
 10
-215.0464172363281
 20
226.3232421875
 30
0.0
 11
-212.4258728027344
 21
223.7027130126953
 31
0.0
  0
LINE
  5
F8
330
22
100
AcDbEntity
  8
0
  6
Continuous
 62
     7
100
AcDbLine
 10
-213.3415374755859
 20
218.9615020751953
 30
0.0
 11
-212.0503234863281
 21
217.6703033447266
 31
0.0
  0
LINE
  5
F9
330
22
100
AcDbEntity
  8
0
  6
Continuous
 62
     7
100
AcDbLine
 10
-213.6950836181641
 20
218.6079559326172
 30
0.0
 11
-212.0503234863281
 21
216.9631958007813
 31
0.0
  0
LINE
  5
FA
330
22
100
AcDbEntity
  8
0
  6
Continuous
 62
     7
100
AcDbLine
 10
-214.7557373046875
 20
217.5473022460938
 30
0.0
 11
-212.0503234863281
 21
214.8418731689453
 31
0.0
  0
LINE
  5
FB
330
22
100
AcDbEntity
  8
0
  6
Continuous
 62
     7
100
AcDbLine
 10
-215.0467529296875
 20
217.1311950683594
 30
0.0
 11
-212.0503234863281
 21
214.134765625
 31
0.0
  0
LINE
  5
FC
330
22
100
AcDbEntity
  8
0
  6
Continuous
 62
     7
100
AcDbLine
 10
-215.0468292236328
 20
215.0099487304689
 30
0.0
 11
-212.0503234863281
 21
212.0134429931641
 31
0.0
  0
LINE
  5
FD
330
22
100
AcDbEntity
  8
0
  6
Continuous
 62
     7
100
AcDbLine
 10
-215.0468597412109
 20
214.3028717041016
 30
0.0
 11
-212.0503234863281
 21
211.3063507080078
 31
0.0
  0
LINE
  5
FE
330
22
100
AcDbEntity
  8
0
  6
Continuous
 62
     7
100
AcDbLine
 10
-215.0469360351563
 20
212.1816253662109
 30
0.0
 11
-212.0503234863281
 21
209.1850280761719
 31
0.0
  0
LINE
  5
FF
330
22
100
AcDbEntity
  8
0
  6
Continuous
 62
     7
100
AcDbLine
 10
-215.0469665527344
 20
211.4745483398438
 30
0.0
 11
-212.0503234863281
 21
208.4779205322266
 31
0.0
  0
LINE
  5
100
330
22
100
AcDbEntity
  8
0
  6
Continuous
 62
     7
100
AcDbLine
 10
-215.0470428466797
 20
209.3533020019531
 30
0.0
 11
-212.0503234863281
 21
206.3565979003906
 31
0.0
  0
LINE
  5
101
330
22
100
AcDbEntity
  8
0
  6
Continuous
 62
     7
100
AcDbLine
 10
-215.0470581054688
 20
208.6462249755859
 30
0.0
 11
-212.0503234863281
 21
205.6494903564453
 31
0.0
  0
LINE
  5
102
330
22
100
AcDbEntity
  8
0
  6
Continuous
 62
     7
100
AcDbLine
 10
-215.0471496582031
 20
206.5249786376953
 30
0.0
 11
-212.0503234863281
 21
203.5281677246094
 31
0.0
  0
LINE
  5
103
330
22
100
AcDbEntity
  8
0
  6
Continuous
 62
     7
100
AcDbLine
 10
-215.0471649169922
 20
205.8179016113281
 30
0.0
 11
-212.0503234863281
 21
202.8210601806641
 31
0.0
  0
LINE
  5
104
330
22
100
AcDbEntity
  8
0
  6
Continuous
 62
     7
100
AcDbLine
 10
-215.0472412109375
 20
203.6966552734375
 30
0.0
 11
-212.0503234863281
 21
200.6997375488281
 31
0.0
  0
LINE
  5
105
330
22
100
AcDbEntity
  8
0
  6
Continuous
 62
     7
100
AcDbLine
 10
-215.0472717285156
 20
202.9895782470703
 30
0.0
 11
-212.0503234863281
 21
199.9926300048828
 31
0.0
  0
LINE
  5
106
330
22
100
AcDbEntity
  8
0
  6
Continuous
 62
     7
100
AcDbLine
 10
-215.0473480224609
 20
200.8683319091797
 30
0.0
 11
-212.0503234863281
 21
197.8713073730469
 31
0.0
  0
LINE
  5
107
330
22
100
AcDbEntity
  8
0
  6
Continuous
 62
     7
100
AcDbLine
 10
-215.0473785400391
 20
200.1612548828125
 30
0.0
 11
-212.0503234863281
 21
197.1642150878906
 31
0.0
  0
LINE
  5
108
330
22
100
AcDbEntity
  8
0
  6
Continuous
 62
     7
100
AcDbLine
 10
-215.0474548339844
 20
198.0400085449219
 30
0.0
 11
-212.0503234863281
 21
195.0428924560547
 31
0.0
  0
LINE
  5
109
330
22
100
AcDbEntity
  8
0
  6
Continuous
 62
     7
100
AcDbLine
 10
-215.0474853515625
 20
197.3329315185547
 30
0.0
 11
-212.0503234863281
 21
194.3357849121094
 31
0.0
  0
LINE
  5
10A
330
22
100
AcDbEntity
  8
0
  6
Continuous
 62
     7
100
AcDbLine
 10
-215.0475616455078
 20
195.2117004394531
 30
0.0
 11
-212.0503234863281
 21
192.2144622802734
 31
0.0
  0
LINE
  5
10B
330
22
100
AcDbEntity
  8
0
  6
Continuous
 62
     7
100
AcDbLine
 10
-215.0475769042969
 20
194.5046081542969
 30
0.0
 11
-212.0503234863281
 21
191.5073547363281
 31
0.0
  0
LINE
  5
10C
330
22
100
AcDbEntity
  8
0
  6
Continuous
 62
     7
100
AcDbLine
 10
-215.0476684570314
 20
192.3833770751953
 30
0.0
 11
-212.0503234863281
 21
189.3860321044922
 31
0.0
  0
LINE
  5
10D
330
22
100
AcDbEntity
  8
0
  6
Continuous
 62
     7
100
AcDbLine
 10
-215.0476837158203
 20
191.6762847900391
 30
0.0
 11
-212.0503234863281
 21
188.6789245605469
 31
0.0
  0
LINE
  5
10E
330
22
100
AcDbEntity
  8
0
  6
Continuous
 62
     7
100
AcDbLine
 10
-215.0477600097656
 20
189.5550537109375
 30
0.0
 11
-212.0503234863281
 21
186.5576019287109
 31
0.0
  0
LINE
  5
10F
330
22
100
AcDbEntity
  8
0
  6
Continuous
 62
     7
100
AcDbLine
 10
-215.0477905273438
 20
188.8479614257813
 30
0.0
 11
-212.0503234863281
 21
185.8504943847656
 31
0.0
  0
LINE
  5
110
330
22
100
AcDbEntity
  8
0
  6
Continuous
 62
     7
100
AcDbLine
 10
-215.0478668212891
 20
186.7267303466796
 30
0.0
 11
-212.0503234863281
 21
183.7291717529297
 31
0.0
  0
LINE
  5
111
330
22
100
AcDbEntity
  8
0
  6
Continuous
 62
     7
100
AcDbLine
 10
-215.0478973388672
 20
186.0196380615234
 30
0.0
 11
-212.0503234863281
 21
183.0220794677734
 31
0.0
  0
LINE
  5
112
330
22
100
AcDbEntity
  8
0
  6
Continuous
 62
     7
100
AcDbLine
 10
-215.0479736328125
 20
183.8984069824219
 30
0.0
 11
-212.0503234863281
 21
180.9007568359375
 31
0.0
  0
LINE
  5
113
330
22
100
AcDbEntity
  8
0
  6
Continuous
 62
     7
100
AcDbLine
 10
-215.0480041503906
 20
183.1913146972656
 30
0.0
 11
-212.0503234863281
 21
180.1936492919922
 31
0.0
  0
LINE
  5
114
330
22
100
AcDbEntity
  8
0
  6
Continuous
 62
     7
100
AcDbLine
 10
-215.0480804443359
 20
181.0700836181641
 30
0.0
 11
-212.0503234863281
 21
178.0723266601563
 31
0.0
  0
LINE
  5
115
330
22
100
AcDbEntity
  8
0
  6
Continuous
 62
     7
100
AcDbLine
 10
-215.0481109619141
 20
180.3629913330078
 30
0.0
 11
-212.0503234863281
 21
177.3652191162109
 31
0.0
  0
LINE
  5
116
330
22
100
AcDbEntity
  8
0
  6
Continuous
 62
     7
100
AcDbLine
 10
-215.0481872558594
 20
178.2417602539063
 30
0.0
 11
-212.0503234863281
 21
175.243896484375
 31
0.0
  0
LINE
  5
117
330
22
100
AcDbEntity
  8
0
  6
Continuous
 62
     7
100
AcDbLine
 10
-215.0482025146484
 20
177.53466796875
 30
0.0
 11
-212.2162475585938
 21
174.7027130126953
 31
0.0
  0
LINE
  5
118
330
22
100
AcDbEntity
  8
0
  6
Continuous
 62
     7
100
AcDbLine
 10
-215.0482788085938
 20
175.4134368896484
 30
0.0
 11
-214.3375701904297
 21
174.7027130126953
 31
0.0
  0
LINE
  5
119
330
22
100
AcDbEntity
  8
0
  6
Continuous
 62
     7
100
AcDbLine
 10
-215.0483093261719
 20
174.7063446044922
 30
0.0
 11
-215.044677734375
 21
174.7027130126953
 31
0.0
  0
LINE
  5
11A
330
22
100
AcDbEntity
  8
0
  6
Continuous
 62
     7
100
AcDbLine
 10
-188.0503234863281
 20
217.9651794433594
 30
0.0
 11
-188.0503234863281
 21
174.7027130126953
 31
0.0
  0
LINE
  5
11B
330
22
100
AcDbEntity
  8
0
  6
Continuous
 62
     7
100
AcDbLine
 10
-215.0462951660156
 20
229.7257385253906
 30
0.0
 11
-215.0503234863281
 21
119.8805389404297
 31
0.0
  0
LINE
  5
11C
330
22
100
AcDbEntity
  8
0
  6
Continuous
 62
     7
100
AcDbLine
 10
-166.0503234863281
 20
222.2027130126953
 30
0.0
 11
-166.0503234863281
 21
127.2027130126953
 31
0.0
  0
LINE
  5
11D
330
22
100
AcDbEntity
  8
0
  6
Continuous
 62
     7
100
AcDbLine
 10
-322.3482971191406
 20
191.2178802490234
 30
0.0
 11
-322.3482971191406
 21
209.74853515625
 31
0.0
  0
LINE
  5
11E
330
22
100
AcDbEntity
  8
0
  6
Continuous
 62
     7
100
AcDbLine
 10
-327.3482971191406
 20
191.2178802490234
 30
0.0
 11
-327.3482971191406
 21
209.74853515625
 31
0.0
  0
LINE
  5
11F
330
22
100
AcDbEntity
  8
0
  6
Continuous
 62
     7
100
AcDbLine
 10
-331.3558959960938
 20
221.0794677734375
 30
0.0
 11
-333.9612731933594
 21
222.6392974853516
 31
0.0
  0
LINE
  5
120
330
22
100
AcDbEntity
  8
0
  6
Continuous
 62
     7
100
AcDbLine
 10
-331.5195007324219
 20
220.6962280273438
 30
0.0
 11
-331.3558959960938
 21
221.0794677734375
 31
0.0
  0
LINE
  5
121
330
22
100
AcDbEntity
  8
0
  6
Continuous
 62
     7
100
AcDbLine
 10
-331.68310546875
 20
220.31298828125
 30
0.0
 11
-334.6117248535156
 21
221.1156616210939
 31
0.0
  0
LINE
  5
122
330
22
100
AcDbEntity
  8
0
  6
Continuous
 62
     7
100
AcDbLine
 10
-331.5195007324219
 20
220.6962280273438
 30
0.0
 11
-331.68310546875
 21
220.31298828125
 31
0.0
  0
LINE
  5
123
330
22
100
AcDbEntity
  8
0
  6
Continuous
 62
     7
100
AcDbLine
 10
-333.1677551269531
 20
225.5471954345703
 30
0.0
 11
-333.9612731933594
 21
222.6392974853516
 31
0.0
  0
LINE
  5
124
330
22
100
AcDbEntity
  8
0
  6
Continuous
 62
     7
100
AcDbLine
 10
-336.9288635253906
 20
218.8582305908203
 30
0.0
 11
-336.1353454589844
 21
221.7661285400391
 31
0.0
  0
LINE
  5
125
330
22
100
AcDbEntity
  8
0
  6
Continuous
 62
     7
100
AcDbLine
 10
-308.7483215332031
 20
188.8759918212891
 30
0.0
 11
-308.7483215332031
 21
202.3759918212891
 31
0.0
  0
LINE
  5
126
330
22
100
AcDbEntity
  8
0
  6
Continuous
 62
     7
100
AcDbLine
 10
-313.7483215332031
 20
188.8759918212891
 30
0.0
 11
-313.7483215332031
 21
202.3759918212891
 31
0.0
  0
LINE
  5
127
330
22
100
AcDbEntity
  8
0
  6
Continuous
 62
     7
100
AcDbLine
 10
-347.7483215332031
 20
191.2178802490234
 30
0.0
 11
-347.7483215332031
 21
209.74853515625
 31
0.0
  0
LINE
  5
128
330
22
100
AcDbEntity
  8
0
  6
Continuous
 62
     7
100
AcDbLine
 10
-356.3482971191406
 20
188.8759918212891
 30
0.0
 11
-356.3482971191406
 21
202.3759918212891
 31
0.0
  0
LINE
  5
129
330
22
100
AcDbEntity
  8
0
  6
Continuous
 62
     7
100
AcDbLine
 10
-338.4135131835938
 20
224.0924377441406
 30
0.0
 11
-335.4848937988281
 21
223.2897644042969
 31
0.0
  0
LINE
  5
12A
330
22
100
AcDbEntity
  8
0
  6
Continuous
 62
     7
100
AcDbLine
 10
-338.5771179199219
 20
223.7091979980469
 30
0.0
 11
-338.4135131835938
 21
224.0924377441406
 31
0.0
  0
LINE
  5
12B
330
22
100
AcDbEntity
  8
0
  6
Continuous
 62
     7
100
AcDbLine
 10
-338.5771179199219
 20
223.7091979980469
 30
0.0
 11
-338.74072265625
 21
223.3259735107422
 31
0.0
  0
LINE
  5
12C
330
22
100
AcDbEntity
  8
0
  6
Continuous
 62
     7
100
AcDbLine
 10
-338.74072265625
 20
223.3259735107422
 30
0.0
 11
-336.1353454589844
 21
221.7661285400391
 31
0.0
  0
LINE
  5
12D
330
22
100
AcDbEntity
  8
0
  6
Continuous
 62
     7
100
AcDbLine
 10
-342.7483215332031
 20
191.2178802490234
 30
0.0
 11
-342.7483215332031
 21
209.74853515625
 31
0.0
  0
LINE
  5
12E
330
22
100
AcDbEntity
  8
0
  6
Continuous
 62
     7
100
AcDbLine
 10
-335.9483032226563
 20
168.3722839355469
 30
0.0
 11
-335.9483032226563
 21
138.3614196777344
 31
0.0
  0
LINE
  5
12F
330
22
100
AcDbEntity
  8
0
  6
Continuous
 62
     7
100
AcDbLine
 10
-340.9483032226563
 20
168.3722839355469
 30
0.0
 11
-340.9483032226563
 21
138.3614196777344
 31
0.0
  0
LINE
  5
130
330
22
100
AcDbEntity
  8
0
  6
Continuous
 62
     7
100
AcDbLine
 10
-334.1483154296875
 20
168.3722839355469
 30
0.0
 11
-334.1483154296875
 21
138.3614196777344
 31
0.0
  0
LINE
  5
131
330
22
100
AcDbEntity
  8
0
  6
Continuous
 62
     7
100
AcDbLine
 10
-320.5483093261719
 20
170.9033355712891
 30
0.0
 11
-320.5483093261719
 21
142.4033355712891
 31
0.0
  0
LINE
  5
132
330
22
100
AcDbEntity
  8
0
  6
Continuous
 62
     7
100
AcDbLine
 10
-329.1483154296875
 20
168.3722839355469
 30
0.0
 11
-329.1483154296875
 21
138.3614196777344
 31
0.0
  0
LINE
  5
133
330
22
100
AcDbEntity
  8
0
  6
Continuous
 62
     7
100
AcDbLine
 10
-315.5483093261719
 20
170.9033355712891
 30
0.0
 11
-315.5483093261719
 21
142.4033355712891
 31
0.0
  0
LINE
  5
134
330
22
100
AcDbEntity
  8
0
  6
Continuous
 62
     7
100
AcDbLine
 10
-336.1629638671875
 20
218.5312652587891
 30
0.0
 11
-334.6117248535156
 21
221.1156616210939
 31
0.0
  0
LINE
  5
135
330
22
100
AcDbEntity
  8
0
  6
Continuous
 62
     7
100
AcDbLine
 10
-333.9336547851563
 20
225.8741607666016
 30
0.0
 11
-335.4848937988281
 21
223.2897644042969
 31
0.0
  0
LINE
  5
136
330
22
100
AcDbEntity
  8
0
  6
Continuous
 62
     7
100
AcDbLine
 10
-333.1677551269531
 20
225.5471954345703
 30
0.0
 11
-333.5507202148438
 21
225.7106781005859
 31
0.0
  0
LINE
  5
137
330
22
100
AcDbEntity
  8
0
  6
Continuous
 62
     7
100
AcDbLine
 10
-361.3482971191406
 20
188.8759918212891
 30
0.0
 11
-361.3482971191406
 21
202.3759918212891
 31
0.0
  0
LINE
  5
138
330
22
100
AcDbEntity
  8
0
  6
Continuous
 62
     7
100
AcDbLine
 10
-333.9336547851563
 20
225.8741607666016
 30
0.0
 11
-333.5507202148438
 21
225.7106781005859
 31
0.0
  0
LINE
  5
139
330
22
100
AcDbEntity
  8
0
  6
Continuous
 62
     7
100
AcDbLine
 10
-336.9288635253906
 20
218.8582305908203
 30
0.0
 11
-336.5458984375
 21
218.6947479248047
 31
0.0
  0
LINE
  5
13A
330
22
100
AcDbEntity
  8
0
  6
Continuous
 62
     7
100
AcDbLine
 10
-336.1629638671875
 20
218.5312652587891
 30
0.0
 11
-336.5458984375
 21
218.6947479248047
 31
0.0
  0
LINE
  5
13B
330
22
100
AcDbEntity
  8
0
  6
Continuous
 62
     7
100
AcDbLine
 10
-375.3112487792969
 20
147.1934661865234
 30
0.0
 11
-375.2630920410156
 21
150.2297058105469
 31
0.0
  0
LINE
  5
13C
330
22
100
AcDbEntity
  8
0
  6
Continuous
 62
     7
100
AcDbLine
 10
-376.1386413574219
 20
147.0936126708984
 30
0.0
 11
-376.9078063964844
 21
150.0312042236328
 31
0.0
  0
LINE
  5
13D
330
22
100
AcDbEntity
  8
0
  6
Continuous
 62
     7
100
AcDbLine
 10
-372.3480224609375
 20
150.9964599609375
 30
0.0
 11
-375.2630920410156
 21
150.2297058105469
 31
0.0
  0
LINE
  5
13E
330
22
100
AcDbEntity
  8
0
  6
Continuous
 62
     7
100
AcDbLine
 10
-376.6444396972656
 20
154.7621002197266
 30
0.0
 11
-377.0581359863281
 21
154.7121734619141
 31
0.0
  0
LINE
  5
13F
330
22
100
AcDbEntity
  8
0
  6
Continuous
 62
     7
100
AcDbLine
 10
-377.0581359863281
 20
154.7121734619141
 30
0.0
 11
-377.1063232421875
 21
151.6759338378906
 31
0.0
  0
LINE
  5
140
330
22
100
AcDbEntity
  8
0
  6
Continuous
 62
     7
100
AcDbLine
 10
-349.5483093261719
 20
170.9033355712891
 30
0.0
 11
-349.5483093261719
 21
142.4033355712891
 31
0.0
  0
LINE
  5
141
330
22
100
AcDbEntity
  8
0
  6
CENTER
 62
     7
100
AcDbLine
 10
-405.8789672851562
 20
174.7027130126953
 30
0.0
 11
-264.4768981933594
 21
174.7027130126953
 31
0.0
  0
LINE
  5
142
330
22
100
AcDbEntity
  8
0
  6
Continuous
 62
     7
100
AcDbLine
 10
-342.7483215332031
 20
158.1875457763672
 30
0.0
 11
-342.7483215332031
 21
139.6568908691406
 31
0.0
  0
LINE
  5
143
330
22
100
AcDbEntity
  8
0
  6
Continuous
 62
     7
100
AcDbLine
 10
-354.5483093261719
 20
170.9033355712891
 30
0.0
 11
-354.5483093261719
 21
142.4033355712891
 31
0.0
  0
LINE
  5
144
330
22
100
AcDbEntity
  8
0
  6
Continuous
 62
     7
100
AcDbLine
 10
-301.9483032226563
 20
170.8057250976563
 30
0.0
 11
-301.9483032226563
 21
154.8057250976563
 31
0.0
  0
LINE
  5
145
330
22
100
AcDbEntity
  8
0
  6
Continuous
 62
     7
100
AcDbLine
 10
-306.9483032226563
 20
170.8057250976563
 30
0.0
 11
-306.9483032226563
 21
154.8057250976563
 31
0.0
  0
LINE
  5
146
330
22
100
AcDbEntity
  8
0
  6
Continuous
 62
     7
100
AcDbLine
 10
-368.1483154296875
 20
170.8057250976563
 30
0.0
 11
-368.1483154296875
 21
154.8057250976563
 31
0.0
  0
LINE
  5
147
330
22
100
AcDbEntity
  8
0
  6
Continuous
 62
     7
100
AcDbLine
 10
-363.1483154296875
 20
170.8057250976563
 30
0.0
 11
-363.1483154296875
 21
154.8057250976563
 31
0.0
  0
LINE
  5
148
330
22
100
AcDbEntity
  8
0
  6
Continuous
 62
     7
100
AcDbLine
 10
-347.7483215332031
 20
158.1875457763672
 30
0.0
 11
-347.7483215332031
 21
139.6568908691406
 31
0.0
  0
LINE
  5
149
330
22
100
AcDbEntity
  8
0
  6
Continuous
 62
     7
100
AcDbLine
 10
-356.3482971191406
 20
160.5294342041016
 30
0.0
 11
-356.3482971191406
 21
147.0294342041016
 31
0.0
  0
LINE
  5
14A
330
22
100
AcDbEntity
  8
0
  6
Continuous
 62
     7
100
AcDbLine
 10
-372.4478149414063
 20
151.8232421875
 30
0.0
 11
-372.3979187011719
 21
151.4098510742188
 31
0.0
  0
LINE
  5
14B
330
22
100
AcDbEntity
  8
0
  6
Continuous
 62
     7
100
AcDbLine
 10
-372.3480224609375
 20
150.9964599609375
 30
0.0
 11
-372.3979187011719
 21
151.4098510742188
 31
0.0
  0
LINE
  5
14C
330
22
100
AcDbEntity
  8
0
  6
Continuous
 62
     7
100
AcDbLine
 10
-379.9216003417969
 20
150.0823974609375
 30
0.0
 11
-379.9714965820313
 21
150.4957885742188
 31
0.0
  0
LINE
  5
14D
330
22
100
AcDbEntity
  8
0
  6
Continuous
 62
     7
100
AcDbLine
 10
-380.0213928222656
 20
150.9091796875
 30
0.0
 11
-379.9714965820313
 21
150.4957885742188
 31
0.0
  0
LINE
  5
14E
330
22
100
AcDbEntity
  8
0
  6
Continuous
 62
     7
100
AcDbLine
 10
-379.9216003417969
 20
150.0823974609375
 30
0.0
 11
-376.9078063964844
 21
150.0312042236328
 31
0.0
  0
LINE
  5
14F
330
22
100
AcDbEntity
  8
0
  6
Continuous
 62
     7
100
AcDbLine
 10
-308.7483215332031
 20
160.5294342041016
 30
0.0
 11
-308.7483215332031
 21
147.0294342041016
 31
0.0
  0
LINE
  5
150
330
22
100
AcDbEntity
  8
0
  6
Continuous
 62
     7
100
AcDbLine
 10
-313.7483215332031
 20
160.5294342041016
 30
0.0
 11
-313.7483215332031
 21
147.0294342041016
 31
0.0
  0
LINE
  5
151
330
22
100
AcDbEntity
  8
0
  6
Continuous
 62
     7
100
AcDbLine
 10
-322.3482971191406
 20
158.1875457763672
 30
0.0
 11
-322.3482971191406
 21
139.6568908691406
 31
0.0
  0
LINE
  5
152
330
22
100
AcDbEntity
  8
0
  6
Continuous
 62
     7
100
AcDbLine
 10
-327.3482971191406
 20
158.1875457763672
 30
0.0
 11
-327.3482971191406
 21
139.6568908691406
 31
0.0
  0
LINE
  5
153
330
22
100
AcDbEntity
  8
0
  6
Continuous
 62
     7
100
AcDbLine
 10
-297.2314453125
 20
148.9831237792969
 30
0.0
 11
-295.0719909667969
 21
151.1180267333984
 31
0.0
  0
LINE
  5
154
330
22
100
AcDbEntity
  8
0
  6
Continuous
 62
     7
100
AcDbLine
 10
-295.8684387207031
 20
154.2534484863281
 30
0.0
 11
-296.2014770507813
 21
154.0035400390625
 31
0.0
  0
LINE
  5
155
330
22
100
AcDbEntity
  8
0
  6
Continuous
 62
     7
100
AcDbLine
 10
-296.5345458984375
 20
153.7536468505859
 30
0.0
 11
-295.0719909667969
 21
151.1180267333984
 31
0.0
  0
LINE
  5
156
330
22
100
AcDbEntity
  8
0
  6
Continuous
 62
     7
100
AcDbLine
 10
-295.8684387207031
 20
154.2534484863281
 30
0.0
 11
-293.7468566894531
 21
152.1123046875
 31
0.0
  0
LINE
  5
157
330
22
100
AcDbEntity
  8
0
  6
Continuous
 62
     7
100
AcDbLine
 10
-380.0213928222656
 20
150.9091796875
 30
0.0
 11
-377.1063232421875
 21
151.6759338378906
 31
0.0
  0
LINE
  5
158
330
22
100
AcDbEntity
  8
0
  6
Continuous
 62
     7
100
AcDbLine
 10
-376.6444396972656
 20
154.7621002197266
 30
0.0
 11
-376.2307434082031
 21
154.8120269775391
 31
0.0
  0
LINE
  5
159
330
22
100
AcDbEntity
  8
0
  6
Continuous
 62
     7
100
AcDbLine
 10
-376.2307434082031
 20
154.8120269775391
 30
0.0
 11
-375.4615783691406
 21
151.8744354248047
 31
0.0
  0
LINE
  5
15A
330
22
100
AcDbEntity
  8
0
  6
Continuous
 62
     7
100
AcDbLine
 10
-372.4478149414063
 20
151.8232421875
 30
0.0
 11
-375.4615783691406
 21
151.8744354248047
 31
0.0
  0
LINE
  5
15B
330
22
100
AcDbEntity
  8
0
  6
Continuous
 62
     7
100
AcDbLine
 10
-375.7249450683594
 20
147.1435394287109
 30
0.0
 11
-375.3112487792969
 21
147.1934661865234
 31
0.0
  0
LINE
  5
15C
330
22
100
AcDbEntity
  8
0
  6
Continuous
 62
     7
100
AcDbLine
 10
-375.7249450683594
 20
147.1435394287109
 30
0.0
 11
-376.1386413574219
 21
147.0936126708984
 31
0.0
  0
LINE
  5
15D
330
22
100
AcDbEntity
  8
0
  6
Continuous
 62
     7
100
AcDbLine
 10
-296.5345458984375
 20
153.7536468505859
 30
0.0
 11
-296.2014770507813
 21
154.0035400390625
 31
0.0
  0
LINE
  5
15E
330
22
100
AcDbEntity
  8
0
  6
Continuous
 62
     7
100
AcDbLine
 10
-296.7312622070313
 20
148.3164978027344
 30
0.0
 11
-294.0777282714844
 21
149.7929077148438
 31
0.0
  0
LINE
  5
15F
330
22
100
AcDbEntity
  8
0
  6
Continuous
 62
     7
100
AcDbLine
 10
-296.9813537597656
 20
148.6498107910156
 30
0.0
 11
-296.7312622070313
 21
148.3164978027344
 31
0.0
  0
LINE
  5
160
330
22
100
AcDbEntity
  8
0
  6
Continuous
 62
     7
100
AcDbLine
 10
-296.9813537597656
 20
148.6498107910156
 30
0.0
 11
-297.2314453125
 21
148.9831237792969
 31
0.0
  0
LINE
  5
161
330
22
100
AcDbEntity
  8
0
  6
Continuous
 62
     7
100
AcDbLine
 10
-290.8432312011719
 20
153.2554016113281
 30
0.0
 11
-291.0933227539063
 21
153.5887145996094
 31
0.0
  0
LINE
  5
162
330
22
100
AcDbEntity
  8
0
  6
Continuous
 62
     7
100
AcDbLine
 10
-290.8432312011719
 20
153.2554016113281
 30
0.0
 11
-290.5931396484375
 21
152.9220886230469
 31
0.0
  0
LINE
  5
163
330
22
100
AcDbEntity
  8
0
  6
Continuous
 62
     7
100
AcDbLine
 10
-290.5931396484375
 20
152.9220886230469
 30
0.0
 11
-292.7525939941406
 21
150.7871856689453
 31
0.0
  0
LINE
  5
164
330
22
100
AcDbEntity
  8
0
  6
Continuous
 62
     7
100
AcDbLine
 10
-291.0933227539063
 20
153.5887145996094
 30
0.0
 11
-293.7468566894531
 21
152.1123046875
 31
0.0
  0
LINE
  5
165
330
22
100
AcDbEntity
  8
0
  6
Continuous
 62
     7
100
AcDbLine
 10
-291.9561462402344
 20
147.6517639160156
 30
0.0
 11
-294.0777282714844
 21
149.7929077148438
 31
0.0
  0
LINE
  5
166
330
22
100
AcDbEntity
  8
0
  6
Continuous
 62
     7
100
AcDbLine
 10
-291.2900390625
 20
148.1515655517578
 30
0.0
 11
-292.7525939941406
 21
150.7871856689453
 31
0.0
  0
LINE
  5
167
330
22
100
AcDbEntity
  8
0
  6
Continuous
 62
     7
100
AcDbLine
 10
-291.2900390625
 20
148.1515655517578
 30
0.0
 11
-291.6231079101563
 21
147.9016723632813
 31
0.0
  0
LINE
  5
168
330
22
100
AcDbEntity
  8
0
  6
Continuous
 62
     7
100
AcDbLine
 10
-291.9561462402344
 20
147.6517639160156
 30
0.0
 11
-291.6231079101563
 21
147.9016723632813
 31
0.0
  0
LINE
  5
169
330
22
100
AcDbEntity
  8
0
  6
Continuous
 62
     7
100
AcDbLine
 10
-361.3482971191406
 20
160.5294342041016
 30
0.0
 11
-361.3482971191406
 21
147.0294342041016
 31
0.0
  0
LINE
  5
16A
330
22
100
AcDbEntity
  8
0
  6
Continuous
 62
     7
100
AcDbLine
 10
-342.7483215332031
 20
183.9527130126953
 30
0.0
 11
-342.7483215332031
 21
165.4220581054688
 31
0.0
  0
LINE
  5
16B
330
22
100
AcDbEntity
  8
0
  6
Continuous
 62
     7
100
AcDbLine
 10
-322.3482971191406
 20
183.9527130126953
 30
0.0
 11
-322.3482971191406
 21
165.4220581054688
 31
0.0
  0
LINE
  5
16C
330
22
100
AcDbEntity
  8
0
  6
Continuous
 62
     7
100
AcDbLine
 10
-327.3482971191406
 20
183.9527130126953
 30
0.0
 11
-327.3482971191406
 21
165.4220581054688
 31
0.0
  0
LINE
  5
16D
330
22
100
AcDbEntity
  8
0
  6
Continuous
 62
     7
100
AcDbLine
 10
-300.1483154296875
 20
162.2451782226563
 30
0.0
 11
-300.1483154296875
 21
187.1602478027344
 31
0.0
  0
LINE
  5
16E
330
22
100
AcDbEntity
  8
0
  6
Continuous
 62
     7
100
AcDbLine
 10
-369.9483032226563
 20
162.2451782226563
 30
0.0
 11
-369.9483032226563
 21
187.1602478027344
 31
0.0
  0
LINE
  5
16F
330
22
100
AcDbEntity
  8
0
  6
Continuous
 62
     7
100
AcDbLine
 10
-347.7483215332031
 20
183.9527130126953
 30
0.0
 11
-347.7483215332031
 21
165.4220581054688
 31
0.0
  0
LINE
  5
170
330
22
100
AcDbEntity
  8
0
  6
Continuous
 62
     7
100
AcDbLine
 10
-308.7483215332031
 20
181.4527130126953
 30
0.0
 11
-308.7483215332031
 21
167.9527130126953
 31
0.0
  0
LINE
  5
171
330
22
100
AcDbEntity
  8
0
  6
Continuous
 62
     7
100
AcDbLine
 10
-313.7483215332031
 20
181.4527130126953
 30
0.0
 11
-313.7483215332031
 21
167.9527130126953
 31
0.0
  0
LINE
  5
172
330
22
100
AcDbEntity
  8
0
  6
Continuous
 62
     7
100
AcDbLine
 10
-361.3482971191406
 20
181.4527130126953
 30
0.0
 11
-361.3482971191406
 21
167.9527130126953
 31
0.0
  0
LINE
  5
173
330
22
100
AcDbEntity
  8
0
  6
Continuous
 62
     7
100
AcDbLine
 10
-356.3482971191406
 20
181.4527130126953
 30
0.0
 11
-356.3482971191406
 21
167.9527130126953
 31
0.0
  0
LINE
  5
174
330
22
100
AcDbEntity
  8
0
  6
CENTER
 62
     7
100
AcDbLine
 10
-335.0483093261719
 20
242.8829193115234
 30
0.0
 11
-335.0483093261719
 21
105.8451232910156
 31
0.0
  0
LINE
  5
175
330
22
100
AcDbEntity
  8
0
  6
Continuous
 62
     7
100
AcDbLine
 10
-320.5483093261719
 20
178.5020904541016
 30
0.0
 11
-320.5483093261719
 21
207.0020904541016
 31
0.0
  0
LINE
  5
176
330
22
100
AcDbEntity
  8
0
  6
Continuous
 62
     7
100
AcDbLine
 10
-334.1483154296875
 20
181.0331420898438
 30
0.0
 11
-334.1483154296875
 21
211.0440063476563
 31
0.0
  0
LINE
  5
177
330
22
100
AcDbEntity
  8
0
  6
Continuous
 62
     7
100
AcDbLine
 10
-363.1483154296875
 20
178.5997009277344
 30
0.0
 11
-363.1483154296875
 21
194.5997009277344
 31
0.0
  0
LINE
  5
178
330
22
100
AcDbEntity
  8
0
  6
Continuous
 62
     7
100
AcDbLine
 10
-354.5483093261719
 20
178.5020904541016
 30
0.0
 11
-354.5483093261719
 21
207.0020904541016
 31
0.0
  0
LINE
  5
179
330
22
100
AcDbEntity
  8
0
  6
Continuous
 62
     7
100
AcDbLine
 10
-315.5483093261719
 20
178.5020904541016
 30
0.0
 11
-315.5483093261719
 21
207.0020904541016
 31
0.0
  0
LINE
  5
17A
330
22
100
AcDbEntity
  8
0
  6
Continuous
 62
     7
100
AcDbLine
 10
-335.9483032226563
 20
181.0331420898438
 30
0.0
 11
-335.9483032226563
 21
211.0440063476563
 31
0.0
  0
LINE
  5
17B
330
22
100
AcDbEntity
  8
0
  6
Continuous
 62
     7
100
AcDbLine
 10
-329.1483154296875
 20
181.0331420898438
 30
0.0
 11
-329.1483154296875
 21
211.0440063476563
 31
0.0
  0
LINE
  5
17C
330
22
100
AcDbEntity
  8
0
  6
Continuous
 62
     7
100
AcDbLine
 10
-301.9483032226563
 20
178.5997009277344
 30
0.0
 11
-301.9483032226563
 21
194.5997009277344
 31
0.0
  0
LINE
  5
17D
330
22
100
AcDbEntity
  8
0
  6
Continuous
 62
     7
100
AcDbLine
 10
-306.9483032226563
 20
178.5997009277344
 30
0.0
 11
-306.9483032226563
 21
194.5997009277344
 31
0.0
  0
LINE
  5
17E
330
22
100
AcDbEntity
  8
0
  6
Continuous
 62
     7
100
AcDbLine
 10
-349.5483093261719
 20
178.5020904541016
 30
0.0
 11
-349.5483093261719
 21
207.0020904541016
 31
0.0
  0
LINE
  5
17F
330
22
100
AcDbEntity
  8
0
  6
Continuous
 62
     7
100
AcDbLine
 10
-368.1483154296875
 20
178.5997009277344
 30
0.0
 11
-368.1483154296875
 21
194.5997009277344
 31
0.0
  0
LINE
  5
180
330
22
100
AcDbEntity
  8
0
  6
Continuous
 62
     7
100
AcDbLine
 10
-340.9483032226563
 20
181.0331420898438
 30
0.0
 11
-340.9483032226563
 21
211.0440063476563
 31
0.0
  0
ARC
  5
181
330
22
100
AcDbEntity
  8
0
  6
Continuous
 62
     7
100
AcDbCircle
 10
-219.4280090332031
 20
219.0578765869141
 30
0.0
 40
43.41994476318359
100
AcDbArc
 50
5.477753941591876
 51
18.26055528558068
  0
ARC
  5
182
330
22
100
AcDbEntity
  8
0
  6
Continuous
 62
     7
100
AcDbCircle
 10
-204.5503234863281
 20
216.7027130126953
 30
0.0
 40
0.5
100
AcDbArc
 50
90.00000000000019
 51
180.0000000000004
  0
ARC
  5
183
330
22
100
AcDbEntity
  8
0
  6
Continuous
 62
     7
100
AcDbCircle
 10
-211.5503234863281
 20
215.2027130126953
 30
0.0
 40
0.5
100
AcDbArc
 50
180.0000000000004
 51
270.0000000000005
  0
ARC
  5
184
330
22
100
AcDbEntity
  8
0
  6
Continuous
 62
     7
100
AcDbCircle
 10
-210.0503234863281
 20
229.5248870849609
 30
0.0
 40
5.0
100
AcDbArc
 50
150.2550970152432
 51
180.0000000000004
  0
ARC
  5
185
330
22
100
AcDbEntity
  8
0
  6
Continuous
 62
     7
100
AcDbCircle
 10
-209.5896759033203
 20
235.7027130126953
 30
0.0
 40
2.0
100
AcDbArc
 50
90.00000000000019
 51
150.2552271416998
  0
ARC
  5
186
330
22
100
AcDbEntity
  8
0
  6
Continuous
 62
     7
100
AcDbCircle
 10
-205.5503234863281
 20
215.2027130126953
 30
0.0
 40
0.5
100
AcDbArc
 50
270.0000000000005
 51
0.0
  0
ARC
  5
187
330
22
100
AcDbEntity
  8
0
  6
Continuous
 62
     7
100
AcDbCircle
 10
-210.0503234863281
 20
119.8805389404297
 30
0.0
 40
5.0
100
AcDbArc
 50
180.0000000000004
 51
209.7449029847575
  0
ARC
  5
188
330
22
100
AcDbEntity
  8
0
  6
Continuous
 62
     7
100
AcDbCircle
 10
-209.5896759033203
 20
113.7027130126953
 30
0.0
 40
2.0
100
AcDbArc
 50
209.7447728583009
 51
270.0000000000005
  0
ARC
  5
189
330
22
100
AcDbEntity
  8
0
  6
Continuous
 62
     7
100
AcDbCircle
 10
-219.4280090332031
 20
130.3475494384766
 30
0.0
 40
43.41994476318359
100
AcDbArc
 50
2.52811544731974
 51
18.26057440669245
  0
ARC
  5
18A
330
22
100
AcDbEntity
  8
0
  6
Continuous
 62
     7
100
AcDbCircle
 10
-219.4280090332031
 20
130.3475494384766
 30
0.0
 40
43.41994476318359
100
AcDbArc
 50
341.7394351538637
 51
2.52811544731974
  0
ARC
  5
18B
330
22
100
AcDbEntity
  8
0
  6
Continuous
 62
     7
100
AcDbCircle
 10
-579.4215087890624
 20
193.6983795166016
 30
0.0
 40
403.8182373046875
100
AcDbArc
 50
353.505598155758
 51
357.303803360012
  0
ARC
  5
18C
330
22
100
AcDbEntity
  8
0
  6
Continuous
 62
     7
100
AcDbCircle
 10
-299.1483154296875
 20
187.1602478027344
 30
0.0
 40
1.0
100
AcDbArc
 50
19.13664367861432
 51
180.0000000000004
  0
ARC
  5
18D
330
22
100
AcDbEntity
  8
0
  6
Continuous
 62
     7
100
AcDbCircle
 10
-358.8482971191406
 20
188.8759918212891
 30
0.0
 40
2.5
100
AcDbArc
 50
180.0000000000004
 51
0.0
  0
ARC
  5
18E
330
22
100
AcDbEntity
  8
0
  6
Continuous
 62
     7
100
AcDbCircle
 10
-345.2483215332031
 20
191.2178802490234
 30
0.0
 40
2.5
100
AcDbArc
 50
180.0000000000004
 51
0.0
  0
ARC
  5
18F
330
22
100
AcDbEntity
  8
0
  6
Continuous
 62
     7
100
AcDbCircle
 10
-338.4483032226563
 20
211.0440063476563
 30
0.0
 40
2.5
100
AcDbArc
 50
359.7510080798959
 51
180.2489888806916
  0
ARC
  5
190
330
22
100
AcDbEntity
  8
0
  6
Continuous
 62
     7
100
AcDbCircle
 10
-345.2483215332031
 20
209.74853515625
 30
0.0
 40
2.5
100
AcDbArc
 50
359.2141934473694
 51
180.7025749670816
  0
CIRCLE
  5
191
330
22
100
AcDbEntity
  8
0
  6
Continuous
 62
     7
100
AcDbCircle
 10
-335.0483093261719
 20
222.2027130126953
 30
0.0
 40
4.5
  0
ARC
  5
192
330
22
100
AcDbEntity
  8
0
  6
Continuous
 62
     7
100
AcDbCircle
 10
-358.8482971191406
 20
167.9527130126953
 30
0.0
 40
2.5
100
AcDbArc
 50
180.0000000000004
 51
0.0
  0
ARC
  5
193
330
22
100
AcDbEntity
  8
0
  6
Continuous
 62
     7
100
AcDbCircle
 10
-331.6483154296875
 20
211.0440063476563
 30
0.0
 40
2.5
100
AcDbArc
 50
359.7510080798959
 51
180.2489919201055
  0
ARC
  5
194
330
22
100
AcDbEntity
  8
0
  6
Continuous
 62
     7
100
AcDbCircle
 10
-324.8482971191406
 20
209.74853515625
 30
0.0
 40
2.5
100
AcDbArc
 50
359.2974164566921
 51
180.785806552632
  0
ARC
  5
195
330
22
100
AcDbEntity
  8
0
  6
Continuous
 62
     7
100
AcDbCircle
 10
-304.4483032226563
 20
194.5997009277344
 30
0.0
 40
2.5
100
AcDbArc
 50
0.0
 51
180.0000000000004
  0
ARC
  5
196
330
22
100
AcDbEntity
  8
0
  6
Continuous
 62
     7
100
AcDbCircle
 10
-318.0483093261719
 20
207.0020904541016
 30
0.0
 40
2.5
100
AcDbArc
 50
0.0
 51
180.0000000000004
  0
ARC
  5
197
330
22
100
AcDbEntity
  8
0
  6
Continuous
 62
     7
100
AcDbCircle
 10
-311.2483215332031
 20
202.3759918212891
 30
0.0
 40
2.5
100
AcDbArc
 50
0.0
 51
180.0000000000004
  0
ARC
  5
198
330
22
100
AcDbEntity
  8
0
  6
Continuous
 62
     7
100
AcDbCircle
 10
-311.2483215332031
 20
188.8759918212891
 30
0.0
 40
2.5
100
AcDbArc
 50
180.0000000000004
 51
0.0
  0
ARC
  5
199
330
22
100
AcDbEntity
  8
0
  6
Continuous
 62
     7
100
AcDbCircle
 10
-370.9483032226563
 20
187.1602478027344
 30
0.0
 40
1.0
100
AcDbArc
 50
0.0
 51
160.8633563213857
  0
ARC
  5
19A
330
22
100
AcDbEntity
  8
0
  6
Continuous
 62
     7
100
AcDbCircle
 10
-365.6483154296875
 20
194.5997009277344
 30
0.0
 40
2.5
100
AcDbArc
 50
0.0
 51
180.0000000000004
  0
ARC
  5
19B
330
22
100
AcDbEntity
  8
0
  6
Continuous
 62
     7
100
AcDbCircle
 10
-352.0483093261719
 20
207.0020904541016
 30
0.0
 40
2.5
100
AcDbArc
 50
0.0
 51
180.0000000000004
  0
ARC
  5
19C
330
22
100
AcDbEntity
  8
0
  6
Continuous
 62
     7
100
AcDbCircle
 10
-358.8482971191406
 20
202.3759918212891
 30
0.0
 40
2.5
100
AcDbArc
 50
0.0
 51
180.0000000000004
  0
ARC
  5
19D
330
22
100
AcDbEntity
  8
0
  6
Continuous
 62
     7
100
AcDbCircle
 10
-324.8482971191406
 20
191.2178802490234
 30
0.0
 40
2.5
100
AcDbArc
 50
180.0000000000004
 51
0.0
  0
ARC
  5
19E
330
22
100
AcDbEntity
  8
0
  6
Continuous
 62
     7
100
AcDbCircle
 10
-352.0483093261719
 20
142.4033355712891
 30
0.0
 40
2.5
100
AcDbArc
 50
180.0000000000004
 51
0.0
  0
ARC
  5
19F
330
22
100
AcDbEntity
  8
0
  6
Continuous
 62
     7
100
AcDbCircle
 10
-358.8482971191406
 20
147.0294342041016
 30
0.0
 40
2.5
100
AcDbArc
 50
180.0000000000004
 51
0.0
  0
ARC
  5
1A0
330
22
100
AcDbEntity
  8
0
  6
Continuous
 62
     7
100
AcDbCircle
 10
-345.2483215332031
 20
158.1875457763672
 30
0.0
 40
2.5
100
AcDbArc
 50
0.0
 51
180.0000000000004
  0
ARC
  5
1A1
330
22
100
AcDbEntity
  8
0
  6
Continuous
 62
     7
100
AcDbCircle
 10
-338.4483032226563
 20
138.3614196777344
 30
0.0
 40
2.5
100
AcDbArc
 50
179.7510111193091
 51
0.2489919201048269
  0
ARC
  5
1A2
330
22
100
AcDbEntity
  8
0
  6
Continuous
 62
     7
100
AcDbCircle
 10
-345.2483215332031
 20
139.6568908691406
 30
0.0
 40
2.5
100
AcDbArc
 50
179.2974250329191
 51
0.7858065526312562
  0
ARC
  5
1A3
330
22
100
AcDbEntity
  8
0
  6
Continuous
 62
     7
100
AcDbCircle
 10
-358.8482971191406
 20
160.5294342041016
 30
0.0
 40
2.5
100
AcDbArc
 50
0.0
 51
180.0000000000004
  0
ARC
  5
1A4
330
22
100
AcDbEntity
  8
0
  6
Continuous
 62
     7
100
AcDbCircle
 10
-311.2483215332031
 20
160.5294342041016
 30
0.0
 40
2.5
100
AcDbArc
 50
0.0
 51
180.0000000000004
  0
ARC
  5
1A5
330
22
100
AcDbEntity
  8
0
  6
Continuous
 62
     7
100
AcDbCircle
 10
-311.2483215332031
 20
167.9527130126953
 30
0.0
 40
2.5
100
AcDbArc
 50
180.0000000000004
 51
0.0
  0
ARC
  5
1A6
330
22
100
AcDbEntity
  8
0
  6
Continuous
 62
     7
100
AcDbCircle
 10
-338.4483032226563
 20
168.3722839355469
 30
0.0
 40
2.5
100
AcDbArc
 50
0.0
 51
180.0000000000004
  0
ARC
  5
1A7
330
22
100
AcDbEntity
  8
0
  6
Continuous
 62
     7
100
AcDbCircle
 10
-331.6483154296875
 20
168.3722839355469
 30
0.0
 40
2.5
100
AcDbArc
 50
0.0
 51
180.0000000000004
  0
ARC
  5
1A8
330
22
100
AcDbEntity
  8
0
  6
Continuous
 62
     7
100
AcDbCircle
 10
-345.2483215332031
 20
165.4220581054688
 30
0.0
 40
2.5
100
AcDbArc
 50
179.2974250329191
 51
0.7858065526312562
  0
ARC
  5
1A9
330
22
100
AcDbEntity
  8
0
  6
Continuous
 62
     7
100
AcDbCircle
 10
-324.8482971191406
 20
165.4220581054688
 30
0.0
 40
2.5
100
AcDbArc
 50
179.2141934473688
 51
0.7025835433085832
  0
ARC
  5
1AA
330
22
100
AcDbEntity
  8
0
  6
Continuous
 62
     7
100
AcDbCircle
 10
-365.6483154296875
 20
154.8057250976563
 30
0.0
 40
2.5
100
AcDbArc
 50
180.0000000000004
 51
0.0
  0
CIRCLE
  5
1AB
330
22
100
AcDbEntity
  8
0
  6
Continuous
 62
     7
100
AcDbCircle
 10
-376.1846923828125
 20
150.9528198242188
 30
0.0
 40
4.5
  0
ARC
  5
1AC
330
22
100
AcDbEntity
  8
0
  6
Continuous
 62
     7
100
AcDbCircle
 10
-324.8482971191406
 20
158.1875457763672
 30
0.0
 40
2.5
100
AcDbArc
 50
0.0
 51
180.0000000000004
  0
ARC
  5
1AD
330
22
100
AcDbEntity
  8
0
  6
Continuous
 62
     7
100
AcDbCircle
 10
-304.4483032226563
 20
154.8057250976563
 30
0.0
 40
2.5
100
AcDbArc
 50
180.0000000000004
 51
0.0
  0
CIRCLE
  5
1AE
330
22
100
AcDbEntity
  8
0
  6
Continuous
 62
     7
100
AcDbCircle
 10
-335.0483093261719
 20
174.7027130126953
 30
0.0
 40
2.5
  0
ARC
  5
1AF
330
22
100
AcDbEntity
  8
0
  6
Continuous
 62
     7
100
AcDbCircle
 10
-365.6483154296875
 20
170.8057250976563
 30
0.0
 40
2.5
100
AcDbArc
 50
0.0
 51
180.0000000000004
  0
ARC
  5
1B0
330
22
100
AcDbEntity
  8
0
  6
Continuous
 62
     7
100
AcDbCircle
 10
-352.0483093261719
 20
170.9033355712891
 30
0.0
 40
2.5
100
AcDbArc
 50
0.0
 51
180.0000000000004
  0
ARC
  5
1B1
330
22
100
AcDbEntity
  8
0
  6
Continuous
 62
     7
100
AcDbCircle
 10
-304.4483032226563
 20
170.8057250976563
 30
0.0
 40
2.5
100
AcDbArc
 50
0.0
 51
180.0000000000004
  0
ARC
  5
1B2
330
22
100
AcDbEntity
  8
0
  6
Continuous
 62
     7
100
AcDbCircle
 10
-318.0483093261719
 20
170.9033355712891
 30
0.0
 40
2.5
100
AcDbArc
 50
0.0
 51
180.0000000000004
  0
CIRCLE
  5
1B3
330
22
100
AcDbEntity
  8
0
  6
Continuous
 62
     7
100
AcDbCircle
 10
-293.9122924804688
 20
150.9526062011719
 30
0.0
 40
4.5
  0
ARC
  5
1B4
330
22
100
AcDbEntity
  8
0
  6
Continuous
 62
     7
100
AcDbCircle
 10
-299.1483154296875
 20
162.2451782226563
 30
0.0
 40
1.0
100
AcDbArc
 50
180.0000000000004
 51
340.8633563213864
  0
ARC
  5
1B5
330
22
100
AcDbEntity
  8
0
  6
Continuous
 62
     7
100
AcDbCircle
 10
-331.6483154296875
 20
138.3614196777344
 30
0.0
 40
2.5
100
AcDbArc
 50
179.7510080798951
 51
0.2489919201048269
  0
ARC
  5
1B6
330
22
100
AcDbEntity
  8
0
  6
Continuous
 62
     7
100
AcDbCircle
 10
-318.0483093261719
 20
142.4033355712891
 30
0.0
 40
2.5
100
AcDbArc
 50
180.0000000000004
 51
0.0
  0
ARC
  5
1B7
330
22
100
AcDbEntity
  8
0
  6
Continuous
 62
     7
100
AcDbCircle
 10
-324.8482971191406
 20
139.6568908691406
 30
0.0
 40
2.5
100
AcDbArc
 50
179.2141934473688
 51
0.7025835433085832
  0
ARC
  5
1B8
330
22
100
AcDbEntity
  8
0
  6
Continuous
 62
     7
100
AcDbCircle
 10
-311.2483215332031
 20
147.0294342041016
 30
0.0
 40
2.5
100
AcDbArc
 50
180.0000000000004
 51
0.0
  0
ARC
  5
1B9
330
22
100
AcDbEntity
  8
0
  6
Continuous
 62
     7
100
AcDbCircle
 10
-370.9483032226563
 20
162.2451782226563
 30
0.0
 40
1.0
100
AcDbArc
 50
199.136643678615
 51
0.0
  0
CIRCLE
  5
1BA
330
22
100
AcDbEntity
  8
0
  6
Continuous
 62
     7
100
AcDbCircle
 10
-335.0483093261719
 20
174.7027130126953
 30
0.0
 40
54.0
  0
CIRCLE
  5
1BB
330
22
100
AcDbEntity
  8
0
  6
Continuous
 62
     7
100
AcDbCircle
 10
-335.0483093261719
 20
174.7027130126953
 30
0.0
 40
54.0
  0
ARC
  5
1BC
330
22
100
AcDbEntity
  8
0
  6
Continuous
 62
     7
100
AcDbCircle
 10
-335.0483093261719
 20
174.7027130126953
 30
0.0
 40
39.0
100
AcDbArc
 50
340.8629003529221
 51
19.1370996470786
  0
ARC
  5
1BD
330
22
100
AcDbEntity
  8
0
  6
Continuous
 62
     7
100
AcDbCircle
 10
-335.0483093261719
 20
174.7027130126953
 30
0.0
 40
39.0
100
AcDbArc
 50
160.8629003529214
 51
199.1370996470793
  0
ARC
  5
1BE
330
22
100
AcDbEntity
  8
0
  6
Continuous
 62
     7
100
AcDbCircle
 10
-331.6483154296875
 20
181.0331420898438
 30
0.0
 40
2.5
100
AcDbArc
 50
180.0000000000004
 51
0.0
  0
ARC
  5
1BF
330
22
100
AcDbEntity
  8
0
  6
Continuous
 62
     7
100
AcDbCircle
 10
-304.4483032226563
 20
178.5997009277344
 30
0.0
 40
2.5
100
AcDbArc
 50
180.0000000000004
 51
0.0
  0
ARC
  5
1C0
330
22
100
AcDbEntity
  8
0
  6
Continuous
 62
     7
100
AcDbCircle
 10
-318.0483093261719
 20
178.5020904541016
 30
0.0
 40
2.5
100
AcDbArc
 50
180.0000000000004
 51
0.0
  0
ARC
  5
1C1
330
22
100
AcDbEntity
  8
0
  6
Continuous
 62
     7
100
AcDbCircle
 10
-324.8482971191406
 20
183.9527130126953
 30
0.0
 40
2.5
100
AcDbArc
 50
0.0
 51
180.0000000000004
  0
ARC
  5
1C2
330
22
100
AcDbEntity
  8
0
  6
Continuous
 62
     7
100
AcDbCircle
 10
-311.2483215332031
 20
181.4527130126953
 30
0.0
 40
2.5
100
AcDbArc
 50
0.0
 51
180.0000000000004
  0
ARC
  5
1C3
330
22
100
AcDbEntity
  8
0
  6
Continuous
 62
     7
100
AcDbCircle
 10
-365.6483154296875
 20
178.5997009277344
 30
0.0
 40
2.5
100
AcDbArc
 50
180.0000000000004
 51
0.0
  0
ARC
  5
1C4
330
22
100
AcDbEntity
  8
0
  6
Continuous
 62
     7
100
AcDbCircle
 10
-358.8482971191406
 20
181.4527130126953
 30
0.0
 40
2.5
100
AcDbArc
 50
0.0
 51
180.0000000000004
  0
ARC
  5
1C5
330
22
100
AcDbEntity
  8
0
  6
Continuous
 62
     7
100
AcDbCircle
 10
-352.0483093261719
 20
178.5020904541016
 30
0.0
 40
2.5
100
AcDbArc
 50
180.0000000000004
 51
0.0
  0
ARC
  5
1C6
330
22
100
AcDbEntity
  8
0
  6
Continuous
 62
     7
100
AcDbCircle
 10
-338.4483032226563
 20
181.0331420898438
 30
0.0
 40
2.5
100
AcDbArc
 50
180.0000000000004
 51
0.0
  0
ARC
  5
1C7
330
22
100
AcDbEntity
  8
0
  6
Continuous
 62
     7
100
AcDbCircle
 10
-345.2483215332031
 20
183.9527130126953
 30
0.0
 40
2.5
100
AcDbArc
 50
0.0
 51
180.0000000000004
  0
CIRCLE
  5
1C8
330
22
100
AcDbEntity
  8
0
  6
Continuous
 62
     7
100
AcDbCircle
 10
-335.0483093261719
 20
174.7027130126953
 30
0.0
 40
54.5
  0
CIRCLE
  5
1C9
330
22
100
AcDbEntity
  8
0
  6
Continuous
 62
     7
100
AcDbCircle
 10
-335.0483093261719
 20
174.7027130126953
 30
0.0
 40
63.0
  0
TEXT
  5
1CA
330
22
100
AcDbEntity
  8
0
  6
Continuous
 62
     7
100
AcDbText
 10
-288.0341424942017
 20
58.52456283569336
 30
0.0
 40
7.0
  1
ＤＬ－ＵＬＳＳ－８０Ｚ
 41
0.8440126641457824
100
AcDbText
  0
SOLID
  5
1CB
330
22
100
AcDbEntity
  8
0
  6
Continuous
 62
     7
100
AcDbTrace
 10
-190.0503234863281
 20
223.2027130126953
 30
0.0
 11
-193.0503234863281
 21
223.2027130126953
 31
0.0
 12
-190.0503234863281
 22
236.2027130126953
 32
0.0
 13
-193.0503234863281
 23
236.2027130126953
 33
0.0
  0
SOLID
  5
1CC
330
22
100
AcDbEntity
  8
0
  6
Continuous
 62
     7
100
AcDbTrace
 10
-203.0503234863281
 20
223.7027130126953
 30
0.0
 11
-206.0503234863281
 21
223.7027130126953
 31
0.0
 12
-203.0503234863281
 22
237.7027130126953
 32
0.0
 13
-206.0503234863281
 23
237.7027130126953
 33
0.0
  0
SOLID
  5
1CD
330
22
100
AcDbEntity
  8
0
  6
Continuous
 62
     7
100
AcDbTrace
 10
-190.0503234863281
 20
113.2027130126953
 30
0.0
 11
-193.0503234863281
 21
113.2027130126953
 31
0.0
 12
-190.0503234863281
 22
174.7027130126953
 32
0.0
 13
-193.0503234863281
 23
174.7027130126953
 33
0.0
  0
SOLID
  5
1CE
330
22
100
AcDbEntity
  8
0
  6
Continuous
 62
     7
100
AcDbTrace
 10
-203.0503234863281
 20
111.7027130126953
 30
0.0
 11
-206.0503234863281
 21
111.7027130126953
 31
0.0
 12
-203.0503234863281
 22
174.7027130126953
 32
0.0
 13
-206.0503234863281
 23
174.7027130126953
 33
0.0
  0
DIMENSION
  5
1CF
330
22
100
AcDbEntity
  8
0
  6
Continuous
 62
     7
100
AcDbDimension
  2
*D1
 10
-166.0483093261719
 20
262.39208984375
 30
0.0
 11
-190.5483093261719
 21
262.39208984375
 31
0.0
 71
     5
 42
-1.0
  3
DIMSTYLE1
100
AcDbAlignedDimension
 13
-215.0483093261719
 23
229.6667938232422
 33
0.0
 14
-166.0483093261719
 24
222.2006988525391
 34
0.0
100
AcDbRotatedDimension
  0
DIMENSION
  5
1D0
330
22
100
AcDbEntity
  8
0
  6
Continuous
 62
     7
100
AcDbDimension
  2
*D2
 10
-203.0483093261719
 20
252.9300231933594
 30
0.0
 11
-209.0483093261719
 21
252.9300231933594
 31
0.0
 71
     5
 42
-1.0
  3
DIMSTYLE2
100
AcDbAlignedDimension
 13
-215.0483093261719
 23
255.6591491699219
 33
0.0
 14
-203.0483093261719
 24
237.7027130126953
 34
0.0
100
AcDbRotatedDimension
  0
DIMENSION
  5
1D1
330
22
100
AcDbEntity
  8
0
  6
Continuous
 62
     7
100
AcDbDimension
  2
*D3
 10
-193.0503234863281
 20
252.9300231933594
 30
0.0
 11
-147.6390991210938
 21
252.9300231933594
 31
0.0
 71
     5
 42
-1.0
  3
DIMSTYLE3
100
AcDbAlignedDimension
 13
-203.0483093261719
 23
255.2160339355469
 33
0.0
 14
-193.0503234863281
 24
236.2027130126953
 34
0.0
100
AcDbRotatedDimension
  0
INSERT
  5
1D2
330
22
100
AcDbEntity
  8
0
  6
Continuous
 62
     7
100
AcDbBlockReference
  2
KOZU0001
 10
-177.0972747802734
 20
216.8067474365234
 30
0.0
  0
DIMENSION
  5
1D3
330
22
100
AcDbEntity
  8
0
  6
Continuous
 62
     7
100
AcDbDimension
  2
*D4
 10
-383.5265925537796
 20
134.4677026945178
 30
0.0
 11
-278.1377868652344
 21
221.9361419677734
 31
0.0
 70
     3
 71
     5
 42
-1.0
  3
DIMSTYLE4
100
AcDbDiametricDimension
 15
-286.5700260985642
 25
214.9377233308729
 35
0.0
 40
0.0
  0
ENDSEC
  0
SECTION
  2
OBJECTS
  0
DICTIONARY
  5
C
330
0
100
AcDbDictionary
281
     1
  3
ACAD_COLOR
350
1B
  3
ACAD_GROUP
350
D
  3
ACAD_LAYOUT
350
19
  3
ACAD_MATERIAL
350
1A
  3
ACAD_MLINESTYLE
350
16
  3
ACAD_PLOTSETTINGS
350
18
  3
ACAD_PLOTSTYLENAME
350
E
  3
ACAD_TABLESTYLE
350
1C
  3
AcDbVariableDictionary
350
1DF
  0
DICTIONARY
  5
1B
102
{ACAD_REACTORS
330
C
102
}
330
C
100
AcDbDictionary
281
     1
  0
DICTIONARY
  5
D
102
{ACAD_REACTORS
330
C
102
}
330
C
100
AcDbDictionary
281
     1
  0
DICTIONARY
  5
19
102
{ACAD_REACTORS
330
C
102
}
330
C
100
AcDbDictionary
281
     1
  3
Model
350
25
  3
レイアウト1
350
21
  0
DICTIONARY
  5
1A
102
{ACAD_REACTORS
330
C
102
}
330
C
100
AcDbDictionary
281
     1
  0
DICTIONARY
  5
16
102
{ACAD_REACTORS
330
C
102
}
330
C
100
AcDbDictionary
281
     1
  3
Standard
350
17
  0
DICTIONARY
  5
18
102
{ACAD_REACTORS
330
C
102
}
330
C
100
AcDbDictionary
281
     1
  0
ACDBDICTIONARYWDFLT
  5
E
102
{ACAD_REACTORS
330
C
102
}
330
C
100
AcDbDictionary
281
     1
  3
Normal
350
F
100
AcDbDictionaryWithDefault
340
F
  0
DICTIONARY
  5
1C
102
{ACAD_REACTORS
330
C
102
}
330
C
100
AcDbDictionary
281
     1
  3
Standard
350
1D
  0
DICTIONARY
  5
1DF
102
{ACAD_REACTORS
330
C
102
}
330
C
100
AcDbDictionary
281
     1
  3
CTABLESTYLE
350
1E0
  0
LAYOUT
  5
25
102
{ACAD_REACTORS
330
19
102
}
330
19
100
AcDbPlotSettings
  1

  2
PDF reDirect v2
  4
A3
  6

 40
3.174999952316284
 41
3.174999952316284
 42
3.17498779296875
 43
3.17498779296875
 44
297.0530090332031
 45
420.1583251953125
 46
0.0
 47
0.0
 48
0.0
 49
0.0
140
0.0
141
0.0
142
1.0
143
1.0
 70
 11952
 72
     1
 73
     1
 74
     2
  7
C:\Users\ck\AppData\Roaming\Autodesk\AutoCAD 2005\R16.1\jpn\Plot Styles\black.ctb
 75
    16
147
1.0
 76
     0
 77
     2
 78
   300
148
423.0
149
2.0
100
AcDbLayout
  1
Model
 70
     1
 71
     0
 10
0.0
 20
0.0
 11
12.0
 21
9.0
 12
0.0
 22
0.0
 32
0.0
 14
0.0
 24
0.0
 34
0.0
 15
0.0
 25
0.0
 35
0.0
146
0.0
 13
0.0
 23
0.0
 33
0.0
 16
1.0
 26
0.0
 36
0.0
 17
0.0
 27
1.0
 37
0.0
 76
     0
330
22
1001
ACAD_PSEXT
1000
PDF reDirect v2
1000
PDF reDirect Pro
1000
PDF_REDIRECT_PORT:
1000
PDF reDirect provided by EXP Systems
1070
     0
  0
LAYOUT
  5
21
102
{ACAD_REACTORS
330
19
102
}
330
19
100
AcDbPlotSettings
  1

  2
PDF reDirect v2
  4

  6

 40
0.0
 41
0.0
 42
0.0
 43
0.0
 44
0.0
 45
0.0
 46
0.0
 47
0.0
 48
0.0
 49
0.0
140
0.0
141
0.0
142
1.0
143
1.0
 70
   688
 72
     0
 73
     0
 74
     5
  7
C:\Users\ck\AppData\Roaming\Autodesk\AutoCAD 2005\R16.1\jpn\Plot Styles\black.ctb
 75
    16
147
1.0
 76
     0
 77
     2
 78
   300
148
0.0
149
0.0
100
AcDbLayout
  1
レイアウト1
 70
     1
 71
     1
 10
-423.0
 20
-2.0
 11
-5.0
 21
293.0
 12
0.0
 22
0.0
 32
0.0
 14
1.000000000000000E+20
 24
1.000000000000000E+20
 34
1.000000000000000E+20
 15
-1.000000000000000E+20
 25
-1.000000000000000E+20
 35
-1.000000000000000E+20
146
0.0
 13
0.0
 23
0.0
 33
0.0
 16
1.0
 26
0.0
 36
0.0
 17
0.0
 27
1.0
 37
0.0
 76
     0
330
1E
  0
MLINESTYLE
  5
17
102
{ACAD_REACTORS
330
16
102
}
330
16
100
AcDbMlineStyle
  2
STANDARD
 70
     0
  3

 62
   256
 51
90.0
 52
90.0
 71
     2
 49
0.5
 62
   256
  6
BYLAYER
 49
-0.5
 62
   256
  6
BYLAYER
  0
ACDBPLACEHOLDER
  5
F
102
{ACAD_REACTORS
330
E
102
}
330
E
  0
TABLESTYLE
  5
1D
102
{ACAD_REACTORS
330
1C
102
}
330
1C
100
AcDbTableStyle
  3
Standard
 70
     0
 71
     0
 40
0.06
 41
0.06
280
     0
281
     0
  7
STANDARD
140
0.18
170
     2
 62
     0
 63
     7
283
     0
274
    -2
284
     1
 64
     0
275
    -2
285
     1
 65
     0
276
    -2
286
     1
 66
     0
277
    -2
287
     1
 67
     0
278
    -2
288
     1
 68
     0
279
    -2
289
     1
 69
     0
  7
STANDARD
140
0.25
170
     5
 62
     0
 63
     7
283
     0
274
    -2
284
     1
 64
     0
275
    -2
285
     1
 65
     0
276
    -2
286
     1
 66
     0
277
    -2
287
     1
 67
     0
278
    -2
288
     1
 68
     0
279
    -2
289
     1
 69
     0
  7
STANDARD
140
0.18
170
     5
 62
     0
 63
     7
283
     0
274
    -2
284
     1
 64
     0
275
    -2
285
     1
 65
     0
276
    -2
286
     1
 66
     0
277
    -2
287
     1
 67
     0
278
    -2
288
     1
 68
     0
279
    -2
289
     1
 69
     0
  0
DICTIONARYVAR
  5
1E0
102
{ACAD_REACTORS
330
1DF
102
}
330
1DF
100
DictionaryVariables
280
     0
  1
STANDARD
  0
ENDSEC
  0
EOF
