  0
SECTION
  2
HEADER
  9
$ACADVER
  1
AC1018
  9
$ACADMAINTVER
 70
    39
  9
$DWGCODEPAGE
  3
ANSI_932
  9
$INSBASE
 10
0.0
 20
0.0
 30
0.0
  9
$EXTMIN
 10
-365.5772999853097
 20
82.23362810424715
 30
-0.0015258207003583
  9
$EXTMAX
 10
-101.2657767267267
 20
260.08168094638
 30
0.0000000349246037
  9
$LIMMIN
 10
-423.0
 20
-2.0
  9
$LIMMAX
 10
-5.0
 20
293.0
  9
$ORTHOMODE
 70
     0
  9
$REGENMODE
 70
     1
  9
$FILLMODE
 70
     1
  9
$QTEXTMODE
 70
     0
  9
$MIRRTEXT
 70
     0
  9
$LTSCALE
 40
1.0
  9
$ATTMODE
 70
     1
  9
$TEXTSIZE
 40
0.2
  9
$TRACEWID
 40
0.05
  9
$TEXTSTYLE
  7
STANDARD
  9
$CLAYER
  8
0
  9
$CELTYPE
  6
CONTINUOUS
  9
$CECOLOR
 62
   256
  9
$CELTSCALE
 40
1.0
  9
$DISPSILH
 70
     0
  9
$DIMSCALE
 40
1.0
  9
$DIMASZ
 40
1.0
  9
$DIMEXO
 40
2.54
  9
$DIMDLI
 40
0.38
  9
$DIMRND
 40
0.0
  9
$DIMDLE
 40
0.0
  9
$DIMEXE
 40
2.54
  9
$DIMTP
 40
0.0
  9
$DIMTM
 40
0.0
  9
$DIMTXT
 40
3.0
  9
$DIMCEN
 40
0.09
  9
$DIMTSZ
 40
0.0
  9
$DIMTOL
 70
     0
  9
$DIMLIM
 70
     0
  9
$DIMTIH
 70
     0
  9
$DIMTOH
 70
     0
  9
$DIMSE1
 70
     0
  9
$DIMSE2
 70
     0
  9
$DIMTAD
 70
     1
  9
$DIMZIN
 70
     0
  9
$DIMBLK
  1

  9
$DIMASO
 70
     1
  9
$DIMSHO
 70
     0
  9
$DIMPOST
  1

  9
$DIMAPOST
  1

  9
$DIMALT
 70
     0
  9
$DIMALTD
 70
     2
  9
$DIMALTF
 40
25.4
  9
$DIMLFAC
 40
1.0
  9
$DIMTOFL
 70
     0
  9
$DIMTVP
 40
1.0
  9
$DIMTIX
 70
     0
  9
$DIMSOXD
 70
     0
  9
$DIMSAH
 70
     1
  9
$DIMBLK1
  1

  9
$DIMBLK2
  1

  9
$DIMSTYLE
  2
DIMSTYLE1
  9
$DIMCLRD
 70
     0
  9
$DIMCLRE
 70
     0
  9
$DIMCLRT
 70
     0
  9
$DIMTFAC
 40
1.0
  9
$DIMGAP
 40
1.5
  9
$DIMJUST
 70
     0
  9
$DIMSD1
 70
     0
  9
$DIMSD2
 70
     0
  9
$DIMTOLJ
 70
     1
  9
$DIMTZIN
 70
     0
  9
$DIMALTZ
 70
     0
  9
$DIMALTTZ
 70
     0
  9
$DIMUPT
 70
     0
  9
$DIMDEC
 70
     4
  9
$DIMTDEC
 70
     4
  9
$DIMALTU
 70
     2
  9
$DIMALTTD
 70
     2
  9
$DIMTXSTY
  7
STANDARD
  9
$DIMAUNIT
 70
     0
  9
$DIMADEC
 70
     0
  9
$DIMALTRND
 40
0.0
  9
$DIMAZIN
 70
     0
  9
$DIMDSEP
 70
    46
  9
$DIMATFIT
 70
     3
  9
$DIMFRAC
 70
     0
  9
$DIMLDRBLK
  1

  9
$DIMLUNIT
 70
     2
  9
$DIMLWD
 70
    -2
  9
$DIMLWE
 70
    -2
  9
$DIMTMOVE
 70
     0
  9
$LUNITS
 70
     2
  9
$LUPREC
 70
     4
  9
$SKETCHINC
 40
0.1
  9
$FILLETRAD
 40
0.0
  9
$AUNITS
 70
     0
  9
$AUPREC
 70
     0
  9
$MENU
  1
.
  9
$ELEVATION
 40
0.0
  9
$PELEVATION
 40
0.0
  9
$THICKNESS
 40
0.0
  9
$LIMCHECK
 70
     0
  9
$CHAMFERA
 40
0.0
  9
$CHAMFERB
 40
0.0
  9
$CHAMFERC
 40
0.0
  9
$CHAMFERD
 40
0.0
  9
$SKPOLY
 70
     0
  9
$TDCREATE
 40
2457707.059060012
  9
$TDUCREATE
 40
2457706.684060012
  9
$TDUPDATE
 40
2457707.059577304
  9
$TDUUPDATE
 40
2457706.684577304
  9
$TDINDWG
 40
0.0005193750
  9
$TDUSRTIMER
 40
0.0005193750
  9
$USRTIMER
 70
     1
  9
$ANGBASE
 50
0.0
  9
$ANGDIR
 70
     0
  9
$PDMODE
 70
     0
  9
$PDSIZE
 40
0.0
  9
$PLINEWID
 40
0.0
  9
$SPLFRAME
 70
     0
  9
$SPLINETYPE
 70
     6
  9
$SPLINESEGS
 70
     8
  9
$HANDSEED
  5
1B8
  9
$SURFTAB1
 70
     6
  9
$SURFTAB2
 70
     6
  9
$SURFTYPE
 70
     6
  9
$SURFU
 70
     6
  9
$SURFV
 70
     6
  9
$UCSBASE
  2

  9
$UCSNAME
  2

  9
$UCSORG
 10
0.0
 20
0.0
 30
0.0
  9
$UCSXDIR
 10
1.0
 20
0.0
 30
0.0
  9
$UCSYDIR
 10
0.0
 20
1.0
 30
0.0
  9
$UCSORTHOREF
  2

  9
$UCSORTHOVIEW
 70
     0
  9
$UCSORGTOP
 10
0.0
 20
0.0
 30
0.0
  9
$UCSORGBOTTOM
 10
0.0
 20
0.0
 30
0.0
  9
$UCSORGLEFT
 10
0.0
 20
0.0
 30
0.0
  9
$UCSORGRIGHT
 10
0.0
 20
0.0
 30
0.0
  9
$UCSORGFRONT
 10
0.0
 20
0.0
 30
0.0
  9
$UCSORGBACK
 10
0.0
 20
0.0
 30
0.0
  9
$PUCSBASE
  2

  9
$PUCSNAME
  2

  9
$PUCSORG
 10
0.0
 20
0.0
 30
0.0
  9
$PUCSXDIR
 10
1.0
 20
0.0
 30
0.0
  9
$PUCSYDIR
 10
0.0
 20
1.0
 30
0.0
  9
$PUCSORTHOREF
  2

  9
$PUCSORTHOVIEW
 70
     0
  9
$PUCSORGTOP
 10
0.0
 20
0.0
 30
0.0
  9
$PUCSORGBOTTOM
 10
0.0
 20
0.0
 30
0.0
  9
$PUCSORGLEFT
 10
0.0
 20
0.0
 30
0.0
  9
$PUCSORGRIGHT
 10
0.0
 20
0.0
 30
0.0
  9
$PUCSORGFRONT
 10
0.0
 20
0.0
 30
0.0
  9
$PUCSORGBACK
 10
0.0
 20
0.0
 30
0.0
  9
$USERI1
 70
     0
  9
$USERI2
 70
     0
  9
$USERI3
 70
     0
  9
$USERI4
 70
     0
  9
$USERI5
 70
     0
  9
$USERR1
 40
0.0
  9
$USERR2
 40
0.0
  9
$USERR3
 40
0.0
  9
$USERR4
 40
0.0
  9
$USERR5
 40
0.0
  9
$WORLDVIEW
 70
     1
  9
$SHADEDGE
 70
     3
  9
$SHADEDIF
 70
    70
  9
$TILEMODE
 70
     1
  9
$MAXACTVP
 70
    64
  9
$PINSBASE
 10
0.0
 20
0.0
 30
0.0
  9
$PLIMCHECK
 70
     0
  9
$PEXTMIN
 10
1.000000000000000E+20
 20
1.000000000000000E+20
 30
1.000000000000000E+20
  9
$PEXTMAX
 10
-1.000000000000000E+20
 20
-1.000000000000000E+20
 30
-1.000000000000000E+20
  9
$PLIMMIN
 10
-423.0
 20
-2.0
  9
$PLIMMAX
 10
-5.0
 20
293.0
  9
$UNITMODE
 70
     0
  9
$VISRETAIN
 70
     1
  9
$PLINEGEN
 70
     0
  9
$PSLTSCALE
 70
     1
  9
$TREEDEPTH
 70
  3020
  9
$CMLSTYLE
  2
Standard
  9
$CMLJUST
 70
     0
  9
$CMLSCALE
 40
1.0
  9
$PROXYGRAPHICS
 70
     1
  9
$MEASUREMENT
 70
     0
  9
$CELWEIGHT
370
    -1
  9
$ENDCAPS
280
     0
  9
$JOINSTYLE
280
     0
  9
$LWDISPLAY
290
     0
  9
$INSUNITS
 70
     0
  9
$HYPERLINKBASE
  1

  9
$STYLESHEET
  1

  9
$XEDIT
290
     1
  9
$CEPSNTYPE
380
     0
  9
$PSTYLEMODE
290
     1
  9
$FINGERPRINTGUID
  2
{73A1A77F-9088-4B4E-8BAB-C9D38D6A0468}
  9
$VERSIONGUID
  2
{0141877B-CE5F-4D9C-B77D-394B87BB1B80}
  9
$EXTNAMES
290
     1
  9
$PSVPSCALE
 40
0.0
  9
$OLESTARTUP
290
     0
  9
$SORTENTS
280
   127
  9
$INDEXCTL
280
     0
  9
$HIDETEXT
280
     0
  9
$XCLIPFRAME
290
     0
  9
$HALOGAP
280
     0
  9
$OBSCOLOR
 70
   257
  9
$OBSLTYPE
280
     0
  9
$INTERSECTIONDISPLAY
280
     0
  9
$INTERSECTIONCOLOR
 70
   257
  9
$DIMASSOC
280
     1
  9
$PROJECTNAME
  1

  0
ENDSEC
  0
SECTION
  2
CLASSES
  0
CLASS
  1
ACDBDICTIONARYWDFLT
  2
AcDbDictionaryWithDefault
  3
ObjectDBX Classes
 90
        0
 91
        1
280
     0
281
     0
  0
CLASS
  1
TABLESTYLE
  2
AcDbTableStyle
  3
ObjectDBX Classes
 90
     2047
 91
        1
280
     0
281
     0
  0
CLASS
  1
DICTIONARYVAR
  2
AcDbDictionaryVar
  3
ObjectDBX Classes
 90
        0
 91
        1
280
     0
281
     0
  0
ENDSEC
  0
SECTION
  2
TABLES
  0
TABLE
  2
VPORT
  5
8
330
0
100
AcDbSymbolTable
 70
     2
  0
VPORT
  5
1B7
330
8
100
AcDbSymbolTableRecord
100
AcDbViewportTableRecord
  2
*Active
 70
     0
 10
0.0
 20
0.0
 11
1.0
 21
1.0
 12
-214.0
 22
145.5
 13
0.0
 23
0.0
 14
1.0
 24
1.0
 15
0.0
 25
0.0
 16
0.0
 26
0.0
 36
1.0
 17
0.0
 27
0.0
 37
0.0
 40
297.3258869908016
 41
1.555263157894736
 42
50.0
 43
0.0
 44
0.0
 50
0.0
 51
0.0
 71
     0
 72
   100
 73
     1
 74
     1
 75
     0
 76
     0
 77
     0
 78
     0
281
     0
 65
     1
110
0.0
120
0.0
130
0.0
111
1.0
121
0.0
131
0.0
112
0.0
122
1.0
132
0.0
 79
     0
146
0.0
  0
ENDTAB
  0
TABLE
  2
LTYPE
  5
5
330
0
100
AcDbSymbolTable
 70
     6
  0
LTYPE
  5
13
330
5
100
AcDbSymbolTableRecord
100
AcDbLinetypeTableRecord
  2
ByBlock
 70
     0
  3

 72
    65
 73
     0
 40
0.0
  0
LTYPE
  5
14
330
5
100
AcDbSymbolTableRecord
100
AcDbLinetypeTableRecord
  2
ByLayer
 70
     0
  3

 72
    65
 73
     0
 40
0.0
  0
LTYPE
  5
15
330
5
100
AcDbSymbolTableRecord
100
AcDbLinetypeTableRecord
  2
CONTINUOUS
 70
     0
  3
Solid line
 72
    65
 73
     0
 40
0.0
  0
LTYPE
  5
26
330
5
100
AcDbSymbolTableRecord
100
AcDbLinetypeTableRecord
  2
DASHED
 70
     0
  3
__ __ __ __ __ __ __ __ __ __ __ __ __ __ __
 72
    65
 73
     2
 40
3.5
 49
2.0
 74
     0
 49
-1.5
 74
     0
  0
LTYPE
  5
27
330
5
100
AcDbSymbolTableRecord
100
AcDbLinetypeTableRecord
  2
CENTER
 70
     0
  3
____ _ ____ _ ____ _ ____ _ ____ _ ____ _ ____
 72
    65
 73
     4
 40
17.5
 49
13.0
 74
     0
 49
-1.5
 74
     0
 49
1.5
 74
     0
 49
-1.5
 74
     0
  0
LTYPE
  5
28
330
5
100
AcDbSymbolTableRecord
100
AcDbLinetypeTableRecord
  2
PHANTOM
 70
     0
  3
_____ _ _ _____ _ _ _____ _ _ _____ _ _ ____  
 72
    65
 73
     6
 40
15.5
 49
8.0
 74
     0
 49
-1.5
 74
     0
 49
1.5
 74
     0
 49
-1.5
 74
     0
 49
1.5
 74
     0
 49
-1.5
 74
     0
  0
LTYPE
  5
29
330
5
100
AcDbSymbolTableRecord
100
AcDbLinetypeTableRecord
  2
DOT
 70
     0
  3
. . . . . . . . . . . . . . . . . . . . . . . .
 72
    65
 73
     2
 40
0.25
 49
0.0
 74
     0
 49
-0.25
 74
     0
  0
LTYPE
  5
2A
330
5
100
AcDbSymbolTableRecord
100
AcDbLinetypeTableRecord
  2
HIDDEN
 70
     0
  3
__ __ __ __ __ __ __ __ __ __ __ __ __ __ __
 72
    65
 73
     2
 40
3.5
 49
2.0
 74
     0
 49
-1.5
 74
     0
  0
ENDTAB
  0
TABLE
  2
LAYER
  5
2
330
0
100
AcDbSymbolTable
 70
     3
  0
LAYER
  5
10
330
2
100
AcDbSymbolTableRecord
100
AcDbLayerTableRecord
  2
0
 70
     0
 62
     7
  6
CONTINUOUS
370
    -3
390
F
  0
LAYER
  5
2B
330
2
100
AcDbSymbolTableRecord
100
AcDbLayerTableRecord
  2
1
 70
     0
 62
     7
  6
CONTINUOUS
370
    -3
390
F
  0
LAYER
  5
2C
330
2
100
AcDbSymbolTableRecord
100
AcDbLayerTableRecord
  2
DEFPOINTS
 70
     0
 62
     7
  6
CONTINUOUS
290
     0
370
    -3
390
F
  0
ENDTAB
  0
TABLE
  2
STYLE
  5
3
330
0
100
AcDbSymbolTable
 70
     2
  0
STYLE
  5
11
330
3
100
AcDbSymbolTableRecord
100
AcDbTextStyleTableRecord
  2
STANDARD
 70
     0
 40
0.0
 41
1.0
 50
0.0
 71
     0
 42
0.2
  3

  4

1001
ACAD
1000
MS Gothic
1071
    32817
  0
ENDTAB
  0
TABLE
  2
VIEW
  5
6
330
0
100
AcDbSymbolTable
 70
     0
  0
ENDTAB
  0
TABLE
  2
UCS
  5
7
330
0
100
AcDbSymbolTable
 70
     0
  0
ENDTAB
  0
TABLE
  2
APPID
  5
9
330
0
100
AcDbSymbolTable
 70
     2
  0
APPID
  5
12
330
9
100
AcDbSymbolTableRecord
100
AcDbRegAppTableRecord
  2
ACAD
 70
     0
  0
APPID
  5
1AC
330
9
100
AcDbSymbolTableRecord
100
AcDbRegAppTableRecord
  2
ACAD_PSEXT
 70
     0
  0
ENDTAB
  0
TABLE
  2
DIMSTYLE
  5
A
330
0
100
AcDbSymbolTable
 70
     5
100
AcDbDimStyleTable
 71
     1
340
2D
  0
DIMSTYLE
105
2D
102
{ACAD_REACTORS
330
1A5
102
}
330
A
100
AcDbSymbolTableRecord
100
AcDbDimStyleTableRecord
  2
DIMSTYLE1
 70
     0
 41
1.0
 42
2.54
 44
2.54
 73
     0
 74
     0
 77
     1
140
3.0
145
1.0
147
1.5
172
     1
173
     1
279
     2
340
11
  0
DIMSTYLE
105
2E
102
{ACAD_REACTORS
330
1A6
102
}
330
A
100
AcDbSymbolTableRecord
100
AcDbDimStyleTableRecord
  2
DIMSTYLE2
 70
     0
 41
1.0
 42
2.54
 44
2.54
 73
     0
 74
     0
 77
     1
140
3.0
145
1.0
147
1.5
172
     1
173
     1
279
     2
340
11
  0
DIMSTYLE
105
2F
102
{ACAD_REACTORS
330
1A7
102
}
330
A
100
AcDbSymbolTableRecord
100
AcDbDimStyleTableRecord
  2
DIMSTYLE3
 70
     0
 41
1.0
 42
2.54
 44
2.54
 73
     0
 74
     0
 77
     1
140
3.0
145
1.0
147
1.5
172
     1
173
     1
279
     2
340
11
  0
DIMSTYLE
105
30
102
{ACAD_REACTORS
330
1A8
102
}
330
A
100
AcDbSymbolTableRecord
100
AcDbDimStyleTableRecord
  2
DIMSTYLE4
 70
     0
 41
1.0
 42
2.54
 44
2.54
 73
     0
 74
     0
 75
     1
 76
     1
 77
     1
140
3.0
145
1.0
147
1.5
172
     1
173
     1
279
     2
340
11
  0
ENDTAB
  0
TABLE
  2
BLOCK_RECORD
  5
1
330
0
100
AcDbSymbolTable
 70
     7
  0
BLOCK_RECORD
  5
22
330
1
100
AcDbSymbolTableRecord
100
AcDbBlockTableRecord
  2
*Model_Space
340
25
  0
BLOCK_RECORD
  5
1E
330
1
100
AcDbSymbolTableRecord
100
AcDbBlockTableRecord
  2
*Paper_Space
340
21
  0
BLOCK_RECORD
  5
34
330
1
100
AcDbSymbolTableRecord
100
AcDbBlockTableRecord
  2
_OPEN30
340
0
102
{BLKREFS
331
3D
331
3E
331
4A
331
4B
331
56
331
57
331
61
331
62
102
}
  0
BLOCK_RECORD
  5
3A
330
1
100
AcDbSymbolTableRecord
100
AcDbBlockTableRecord
  2
*D1
340
0
  0
BLOCK_RECORD
  5
46
330
1
100
AcDbSymbolTableRecord
100
AcDbBlockTableRecord
  2
*D2
340
0
  0
BLOCK_RECORD
  5
53
330
1
100
AcDbSymbolTableRecord
100
AcDbBlockTableRecord
  2
*D3
340
0
  0
BLOCK_RECORD
  5
5D
330
1
100
AcDbSymbolTableRecord
100
AcDbBlockTableRecord
  2
*D4
340
0
  0
BLOCK_RECORD
  5
67
330
1
100
AcDbSymbolTableRecord
100
AcDbBlockTableRecord
  2
KOZU0001
340
0
102
{BLKREFS
331
1A9
102
}
  0
ENDTAB
  0
ENDSEC
  0
SECTION
  2
BLOCKS
  0
BLOCK
  5
23
330
22
100
AcDbEntity
  8
0
100
AcDbBlockBegin
  2
*Model_Space
 70
     0
 10
0.0
 20
0.0
 30
0.0
  3
*Model_Space
  1

  0
ENDBLK
  5
24
330
22
100
AcDbEntity
  8
0
100
AcDbBlockEnd
  0
BLOCK
  5
1F
330
1E
100
AcDbEntity
 67
     1
  8
0
100
AcDbBlockBegin
  2
*Paper_Space
 70
     0
 10
0.0
 20
0.0
 30
0.0
  3
*Paper_Space
  1

  0
ENDBLK
  5
20
330
1E
100
AcDbEntity
 67
     1
  8
0
100
AcDbBlockEnd
  0
BLOCK
  5
35
330
34
100
AcDbEntity
  8
0
100
AcDbBlockBegin
  2
_OPEN30
 70
     0
 10
0.0
 20
0.0
 30
0.0
  3
_OPEN30
  1

  0
LINE
  5
36
330
34
100
AcDbEntity
  8
0
  6
ByBlock
 62
     0
100
AcDbLine
 10
0.0
 20
0.0
 30
0.0
 11
-2.999999999999993
 21
-1.000000000000017
 31
0.0
  0
LINE
  5
37
330
34
100
AcDbEntity
  8
0
  6
ByBlock
 62
     0
100
AcDbLine
 10
0.0
 20
0.0
 30
0.0
 11
-3.000000000000006
 21
0.9999999999999815
 31
0.0
  0
LINE
  5
38
330
34
100
AcDbEntity
  8
0
  6
ByBlock
 62
     0
100
AcDbLine
 10
0.0
 20
0.0
 30
0.0
 11
-3.0
 21
0.0
 31
0.0
  0
ENDBLK
  5
39
330
34
100
AcDbEntity
  8
0
100
AcDbBlockEnd
  0
BLOCK
  5
3B
330
3A
100
AcDbEntity
  8
0
100
AcDbBlockBegin
  2
*D1
 70
     1
 10
0.0
 20
0.0
 30
0.0
  3
*D1
  1

  0
LINE
  5
3C
330
3A
100
AcDbEntity
  8
0
  6
Continuous
 62
     7
100
AcDbLine
 10
-192.0483093261719
 20
255.9747772216797
 30
0.0
 11
-152.0483093261719
 21
255.9747772216797
 31
0.0
  0
INSERT
  5
3D
330
3A
100
AcDbEntity
  8
0
  6
Continuous
 62
     7
100
AcDbBlockReference
  2
_OPEN30
 10
-195.0483093261719
 20
255.9747772216797
 30
0.0
 50
180.0000000000004
  0
INSERT
  5
3E
330
3A
100
AcDbEntity
  8
0
  6
Continuous
 62
     7
100
AcDbBlockReference
  2
_OPEN30
 10
-149.0483093261719
 20
255.9747772216797
 30
0.0
  0
LINE
  5
3F
330
3A
100
AcDbEntity
  8
0
  6
Continuous
 62
     7
100
AcDbLine
 10
-195.0483093261719
 20
223.5648870849609
 30
0.0
 11
-195.0483093261719
 21
258.2607727050781
 31
0.0
  0
LINE
  5
40
330
3A
100
AcDbEntity
  8
0
  6
Continuous
 62
     7
100
AcDbLine
 10
-149.0483093261719
 20
214.2427130126953
 30
0.0
 11
-149.0483093261719
 21
258.2607727050781
 31
0.0
  0
TEXT
  5
41
330
3A
100
AcDbEntity
  8
0
  6
Continuous
 62
     7
100
AcDbText
 10
-174.6183094382286
 20
256.7247772216797
 30
0.0
 40
3.0
  1
46
 41
1.028000020980834
100
AcDbText
  0
POINT
  5
42
330
3A
100
AcDbEntity
  8
DEFPOINTS
  6
Continuous
 62
     7
100
AcDbPoint
 10
-195.0483093261719
 20
221.0248870849609
 30
0.0
  0
POINT
  5
43
330
3A
100
AcDbEntity
  8
DEFPOINTS
  6
Continuous
 62
     7
100
AcDbPoint
 10
-149.0483093261719
 20
211.7027130126953
 30
0.0
  0
POINT
  5
44
330
3A
100
AcDbEntity
  8
DEFPOINTS
  6
Continuous
 62
     7
100
AcDbPoint
 10
-149.0483093261719
 20
255.9747772216797
 30
0.0
  0
ENDBLK
  5
45
330
3A
100
AcDbEntity
  8
0
100
AcDbBlockEnd
  0
BLOCK
  5
47
330
46
100
AcDbEntity
  8
0
100
AcDbBlockBegin
  2
*D2
 70
     1
 10
0.0
 20
0.0
 30
0.0
  3
*D2
  1

  0
LINE
  5
48
330
46
100
AcDbEntity
  8
0
  6
Continuous
 62
     7
100
AcDbLine
 10
-173.0483093261719
 20
244.8328247070314
 30
0.0
 11
-115.0797805786133
 21
244.8328247070314
 31
0.0
  0
LINE
  5
49
330
46
100
AcDbEntity
  8
0
  6
Continuous
 62
     7
100
AcDbLine
 10
-180.0483093261719
 20
244.8328247070314
 30
0.0
 11
-176.0483093261719
 21
244.8328247070312
 31
0.0
  0
INSERT
  5
4A
330
46
100
AcDbEntity
  8
0
  6
Continuous
 62
     7
100
AcDbBlockReference
  2
_OPEN30
 10
-183.0483093261719
 20
244.8328247070314
 30
0.0
 50
180.0000000000004
  0
INSERT
  5
4B
330
46
100
AcDbEntity
  8
0
  6
Continuous
 62
     7
100
AcDbBlockReference
  2
_OPEN30
 10
-173.0483093261719
 20
244.8328247070314
 30
0.0
  0
LINE
  5
4C
330
46
100
AcDbEntity
  8
0
  6
Continuous
 62
     7
100
AcDbLine
 10
-183.0483093261719
 20
231.7427130126953
 30
0.0
 11
-183.0483093261719
 21
247.1188201904297
 31
0.0
  0
LINE
  5
4D
330
46
100
AcDbEntity
  8
0
  6
Continuous
 62
     7
100
AcDbLine
 10
-173.0483093261719
 20
225.7427130126953
 30
0.0
 11
-173.0483093261719
 21
247.1188201904297
 31
0.0
  0
TEXT
  5
4E
330
46
100
AcDbEntity
  8
0
  6
Continuous
 62
     7
100
AcDbText
 10
-144.2197808623314
 20
245.5828247070313
 30
0.0
 40
3.0
  1
最大挟み込み代　１０
 41
0.8443929326254473
100
AcDbText
  0
POINT
  5
4F
330
46
100
AcDbEntity
  8
DEFPOINTS
  6
Continuous
 62
     7
100
AcDbPoint
 10
-183.0483093261719
 20
229.2027130126953
 30
0.0
  0
POINT
  5
50
330
46
100
AcDbEntity
  8
DEFPOINTS
  6
Continuous
 62
     7
100
AcDbPoint
 10
-173.0483093261719
 20
223.2027130126953
 30
0.0
  0
POINT
  5
51
330
46
100
AcDbEntity
  8
DEFPOINTS
  6
Continuous
 62
     7
100
AcDbPoint
 10
-173.0483093261719
 20
244.8328247070314
 30
0.0
  0
ENDBLK
  5
52
330
46
100
AcDbEntity
  8
0
100
AcDbBlockEnd
  0
BLOCK
  5
54
330
53
100
AcDbEntity
  8
0
100
AcDbBlockBegin
  2
*D3
 70
     1
 10
0.0
 20
0.0
 30
0.0
  3
*D3
  1

  0
LINE
  5
55
330
53
100
AcDbEntity
  8
0
  6
Continuous
 62
     7
100
AcDbLine
 10
-186.0483093261719
 20
244.8328247070312
 30
0.0
 11
-192.0483093261719
 21
244.8328247070314
 31
0.0
  0
INSERT
  5
56
330
53
100
AcDbEntity
  8
0
  6
Continuous
 62
     7
100
AcDbBlockReference
  2
_OPEN30
 10
-183.0483093261719
 20
244.8328247070314
 30
0.0
  0
INSERT
  5
57
330
53
100
AcDbEntity
  8
0
  6
Continuous
 62
     7
100
AcDbBlockReference
  2
_OPEN30
 10
-195.0483093261719
 20
244.8328247070314
 30
0.0
 50
180.0000000000004
  0
TEXT
  5
58
330
53
100
AcDbEntity
  8
0
  6
Continuous
 62
     7
100
AcDbText
 10
-191.6183094382286
 20
245.5828247070313
 30
0.0
 40
3.0
  1
12
 41
1.285000026226043
100
AcDbText
  0
POINT
  5
59
330
53
100
AcDbEntity
  8
DEFPOINTS
  6
Continuous
 62
     7
100
AcDbPoint
 10
-183.0483093261719
 20
247.1188201904297
 30
0.0
  0
POINT
  5
5A
330
53
100
AcDbEntity
  8
DEFPOINTS
  6
Continuous
 62
     7
100
AcDbPoint
 10
-195.0483093261719
 20
258.2607727050781
 30
0.0
  0
POINT
  5
5B
330
53
100
AcDbEntity
  8
DEFPOINTS
  6
Continuous
 62
     7
100
AcDbPoint
 10
-195.0483093261719
 20
244.8328247070314
 30
0.0
  0
ENDBLK
  5
5C
330
53
100
AcDbEntity
  8
0
100
AcDbBlockEnd
  0
BLOCK
  5
5E
330
5D
100
AcDbEntity
  8
0
100
AcDbBlockBegin
  2
*D4
 70
     1
 10
0.0
 20
0.0
 30
0.0
  3
*D4
  1

  0
LINE
  5
5F
330
5D
100
AcDbEntity
  8
0
  6
Continuous
 62
     7
100
AcDbLine
 10
-281.3519897460938
 20
213.7682800292969
 30
0.0
 11
-271.552490234375
 21
222.2210845947266
 31
0.0
  0
LINE
  5
60
330
5D
100
AcDbEntity
  8
0
  6
Continuous
 62
     7
100
AcDbLine
 10
-346.4729664183725
 20
157.5966228500449
 30
0.0
 11
-283.6236522339712
 21
211.8088031753457
 31
0.0
  0
INSERT
  5
61
330
5D
100
AcDbEntity
  8
0
  6
Continuous
 62
     7
100
AcDbBlockReference
  2
_OPEN30
 10
-348.74462890625
 20
155.6371459960938
 30
0.0
 50
220.780198868782
  0
INSERT
  5
62
330
5D
100
AcDbEntity
  8
0
  6
Continuous
 62
     7
100
AcDbBlockReference
  2
_OPEN30
 10
-281.3519897460938
 20
213.7682800292969
 30
0.0
 50
40.78019886878132
  0
TEXT
  5
63
330
5D
100
AcDbEntity
  8
0
  6
Continuous
 62
     7
100
AcDbText
 10
-278.205404414217
 20
217.4710533026851
 30
0.0
 40
3.0
  1
%%C89
 50
40.79999840328777
 41
0.9498249830693319
100
AcDbText
  0
POINT
  5
64
330
5D
100
AcDbEntity
  8
DEFPOINTS
  6
Continuous
 62
     7
100
AcDbPoint
 10
-348.74462890625
 20
155.6371459960938
 30
0.0
  0
POINT
  5
65
330
5D
100
AcDbEntity
  8
DEFPOINTS
  6
Continuous
 62
     7
100
AcDbPoint
 10
-281.3519897460938
 20
213.7682800292969
 30
0.0
  0
ENDBLK
  5
66
330
5D
100
AcDbEntity
  8
0
100
AcDbBlockEnd
  0
BLOCK
  5
68
330
67
100
AcDbEntity
  8
0
100
AcDbBlockBegin
  2
KOZU0001
 70
     0
 10
0.0
 20
0.0
 30
0.0
  3
KOZU0001
  1

  0
LINE
  5
69
330
67
100
AcDbEntity
  8
0
  6
Continuous
 62
     7
100
AcDbLine
 10
0.0
 20
0.0
 30
0.0
 11
12.50190734863281
 21
-12.21232604980469
 31
0.0
  0
LINE
  5
6A
330
67
100
AcDbEntity
  8
0
  6
Continuous
 62
     7
100
AcDbLine
 10
12.50190734863281
 20
-12.21232604980469
 30
0.0
 11
51.72010040283203
 21
-12.21232604980469
 31
0.0
  0
LINE
  5
6B
330
67
100
AcDbEntity
  8
0
  6
Continuous
 62
     7
100
AcDbLine
 10
0.0
 20
0.0
 30
0.0
 11
2.844802451490986
 21
-1.380977556657192
 31
0.0
  0
LINE
  5
6C
330
67
100
AcDbEntity
  8
0
  6
Continuous
 62
     7
100
AcDbLine
 10
0.0
 20
0.0
 30
0.0
 11
1.447255427198474
 21
-2.811663516220346
 31
0.0
  0
TEXT
  5
6D
330
67
100
AcDbEntity
  8
0
  6
Continuous
 62
     7
100
AcDbText
 10
14.8600914478302
 20
-11.46232604980469
 30
0.0
 40
3.0
  1
配管接続口
 41
0.8487395020950888
100
AcDbText
  0
TEXT
  5
6E
330
67
100
AcDbEntity
  8
0
  6
Continuous
 62
     7
100
AcDbText
 10
14.8600914478302
 20
-16.72732604980469
 30
0.0
 40
3.0
  1
Ｒｃ１　１／２（４０Ａ）
 41
0.8436974815103043
100
AcDbText
  0
ENDBLK
  5
6F
330
67
100
AcDbEntity
  8
0
100
AcDbBlockEnd
  0
ENDSEC
  0
SECTION
  2
ENTITIES
  0
POINT
  5
70
330
22
100
AcDbEntity
  8
0
  6
Continuous
 62
     7
100
AcDbPoint
 10
-195.0483093261719
 20
184.7027130126953
 30
0.0
  0
POINT
  5
71
330
22
100
AcDbEntity
  8
0
  6
Continuous
 62
     7
100
AcDbPoint
 10
-315.0483093261719
 20
184.7027130126953
 30
0.0
  0
POINT
  5
72
330
22
100
AcDbEntity
  8
0
  6
Continuous
 62
     7
100
AcDbPoint
 10
-195.0483093261719
 20
184.7027130126953
 30
0.0
  0
POINT
  5
73
330
22
100
AcDbEntity
  8
0
  6
Continuous
 62
     7
100
AcDbPoint
 10
-315.0483093261719
 20
184.7027130126953
 30
0.0
  0
LINE
  5
74
330
22
100
AcDbEntity
  8
0
  6
Continuous
 62
     7
100
AcDbLine
 10
-169.0483093261719
 20
223.2027130126953
 30
0.0
 11
-167.0483093261719
 21
223.2027130126953
 31
0.0
  0
LINE
  5
75
330
22
100
AcDbEntity
  8
0
  6
Continuous
 62
     7
100
AcDbLine
 10
-169.0483093261719
 20
223.2027130126953
 30
0.0
 11
-169.0483093261719
 21
212.7027130126953
 31
0.0
  0
LINE
  5
76
330
22
100
AcDbEntity
  8
0
  6
Continuous
 62
     7
100
AcDbLine
 10
-170.0483093261719
 20
223.2027130126953
 30
0.0
 11
-170.0483093261719
 21
212.7027130126953
 31
0.0
  0
LINE
  5
77
330
22
100
AcDbEntity
  8
0
  6
Continuous
 62
     7
100
AcDbLine
 10
-173.0483093261719
 20
223.2027130126953
 30
0.0
 11
-169.0483093261719
 21
223.2027130126953
 31
0.0
  0
LINE
  5
78
330
22
100
AcDbEntity
  8
0
  6
Continuous
 62
     7
100
AcDbLine
 10
-173.0483093261719
 20
223.2027130126953
 30
0.0
 11
-173.0483093261719
 21
212.7027130126953
 31
0.0
  0
LINE
  5
79
330
22
100
AcDbEntity
  8
0
  6
Continuous
 62
     7
100
AcDbLine
 10
-162.0483093261719
 20
207.7027130126953
 30
0.0
 11
-184.5483093261719
 21
207.7027130126953
 31
0.0
  0
LINE
  5
7A
330
22
100
AcDbEntity
  8
0
  6
Continuous
 62
     7
100
AcDbLine
 10
-181.0483093261719
 20
211.7027130126953
 30
0.0
 11
-149.0483093261719
 21
211.7027130126953
 31
0.0
  0
LINE
  5
7B
330
22
100
AcDbEntity
  8
0
  6
Continuous
 62
     7
100
AcDbLine
 10
-182.0483093261719
 20
212.7027130126953
 30
0.0
 11
-150.0483093261719
 21
212.7027130126953
 31
0.0
  0
LINE
  5
7C
330
22
100
AcDbEntity
  8
0
  6
Continuous
 62
     7
100
AcDbLine
 10
-193.320083618164
 20
225.1416168212891
 30
0.0
 11
-189.2589874267578
 21
229.2027130126953
 31
0.0
  0
LINE
  5
7D
330
22
100
AcDbEntity
  8
0
  6
Continuous
 62
     7
100
AcDbLine
 10
-194.8948211669922
 20
222.1526641845703
 30
0.0
 11
-187.8447723388672
 21
229.2027130126953
 31
0.0
  0
LINE
  5
7E
330
22
100
AcDbEntity
  8
0
  6
Continuous
 62
     7
100
AcDbLine
 10
-194.9305572509766
 20
220.7027130126953
 30
0.0
 11
-186.4305572509766
 21
229.2027130126953
 31
0.0
  0
LINE
  5
7F
330
22
100
AcDbEntity
  8
0
  6
Continuous
 62
     7
100
AcDbLine
 10
-193.5163421630859
 20
220.7027130126953
 30
0.0
 11
-186.0483093261719
 21
228.1707458496094
 31
0.0
  0
LINE
  5
80
330
22
100
AcDbEntity
  8
0
  6
Continuous
 62
     7
100
AcDbLine
 10
-192.1021270751953
 20
220.7027130126953
 30
0.0
 11
-186.0483093261719
 21
226.7565307617188
 31
0.0
  0
LINE
  5
81
330
22
100
AcDbEntity
  8
0
  6
Continuous
 62
     7
100
AcDbLine
 10
-192.0483093261719
 20
219.3423156738281
 30
0.0
 11
-186.0483093261719
 21
225.3423156738281
 31
0.0
  0
LINE
  5
82
330
22
100
AcDbEntity
  8
0
  6
Continuous
 62
     7
100
AcDbLine
 10
-192.0483093261719
 20
217.9281005859375
 30
0.0
 11
-186.4110107421875
 21
223.5654144287109
 31
0.0
  0
LINE
  5
83
330
22
100
AcDbEntity
  8
0
  6
Continuous
 62
     7
100
AcDbLine
 10
-192.0483093261719
 20
216.5139007568359
 30
0.0
 11
-186.0483093261719
 21
222.5139007568359
 31
0.0
  0
LINE
  5
84
330
22
100
AcDbEntity
  8
0
  6
Continuous
 62
     7
100
AcDbLine
 10
-192.0483093261719
 20
215.0996856689453
 30
0.0
 11
-186.0483093261719
 21
221.0996856689453
 31
0.0
  0
LINE
  5
85
330
22
100
AcDbEntity
  8
0
  6
Continuous
 62
     7
100
AcDbLine
 10
-190.7810668945313
 20
214.9527130126953
 30
0.0
 11
-186.7896881103516
 21
218.944091796875
 31
0.0
  0
LINE
  5
86
330
22
100
AcDbEntity
  8
0
  6
Continuous
 62
     7
100
AcDbLine
 10
-189.3668518066406
 20
214.9527130126953
 30
0.0
 11
-186.0825805664063
 21
218.2369842529297
 31
0.0
  0
LINE
  5
87
330
22
100
AcDbEntity
  8
0
  6
Continuous
 62
     7
100
AcDbLine
 10
-188.5483093261719
 20
214.3570404052734
 30
0.0
 11
-186.0483093261719
 21
216.8570404052734
 31
0.0
  0
LINE
  5
88
330
22
100
AcDbEntity
  8
0
  6
Continuous
 62
     7
100
AcDbLine
 10
-192.0483093261719
 20
210.8570404052734
 30
0.0
 11
-191.95263671875
 21
210.9527130126953
 31
0.0
  0
LINE
  5
89
330
22
100
AcDbEntity
  8
0
  6
Continuous
 62
     7
100
AcDbLine
 10
-188.5483093261719
 20
212.9428253173828
 30
0.0
 11
-186.0483093261719
 21
215.4428253173828
 31
0.0
  0
LINE
  5
8A
330
22
100
AcDbEntity
  8
0
  6
Continuous
 62
     7
100
AcDbLine
 10
-192.0483093261719
 20
209.4428253173828
 30
0.0
 11
-190.5384216308594
 21
210.9527130126953
 31
0.0
  0
LINE
  5
8B
330
22
100
AcDbEntity
  8
0
  6
Continuous
 62
     7
100
AcDbLine
 10
-188.5483093261719
 20
211.5286102294922
 30
0.0
 11
-186.0483093261719
 21
214.0286102294922
 31
0.0
  0
LINE
  5
8C
330
22
100
AcDbEntity
  8
0
  6
Continuous
 62
     7
100
AcDbLine
 10
-192.0483093261719
 20
208.0286102294922
 30
0.0
 11
-189.1242065429688
 21
210.9527130126953
 31
0.0
  0
LINE
  5
8D
330
22
100
AcDbEntity
  8
0
  6
Continuous
 62
     7
100
AcDbLine
 10
-192.0483093261719
 20
206.6143951416016
 30
0.0
 11
-185.9599914550781
 21
212.7027130126953
 31
0.0
  0
LINE
  5
8E
330
22
100
AcDbEntity
  8
0
  6
Continuous
 62
     7
100
AcDbLine
 10
-190.1315765380859
 20
205.7027130126953
 30
0.0
 11
-183.1315765380859
 21
212.7027130126953
 31
0.0
  0
LINE
  5
8F
330
22
100
AcDbEntity
  8
0
  6
Continuous
 62
     7
100
AcDbLine
 10
-188.7173614501953
 20
205.7027130126953
 30
0.0
 11
-181.8828277587891
 21
212.5372314453125
 31
0.0
  0
LINE
  5
90
330
22
100
AcDbEntity
  8
0
  6
Continuous
 62
     7
100
AcDbLine
 10
-187.3031463623047
 20
205.7027130126953
 30
0.0
 11
-181.1757202148438
 21
211.8301239013672
 31
0.0
  0
LINE
  5
91
330
22
100
AcDbEntity
  8
0
  6
Continuous
 62
     7
100
AcDbLine
 10
-183.8889312744141
 20
207.7027130126953
 30
0.0
 11
-179.8889312744141
 21
211.7027130126953
 31
0.0
  0
LINE
  5
92
330
22
100
AcDbEntity
  8
0
  6
Continuous
 62
     7
100
AcDbLine
 10
-185.8889312744141
 20
205.7027130126953
 30
0.0
 11
-185.0483093261719
 21
206.5433349609375
 31
0.0
  0
LINE
  5
93
330
22
100
AcDbEntity
  8
0
  6
Continuous
 62
     7
100
AcDbLine
 10
-182.4747161865234
 20
207.7027130126953
 30
0.0
 11
-178.4747161865234
 21
211.7027130126953
 31
0.0
  0
LINE
  5
94
330
22
100
AcDbEntity
  8
0
  6
Continuous
 62
     7
100
AcDbLine
 10
-181.0605010986328
 20
207.7027130126953
 30
0.0
 11
-177.0605010986328
 21
211.7027130126953
 31
0.0
  0
LINE
  5
95
330
22
100
AcDbEntity
  8
0
  6
Continuous
 62
     7
100
AcDbLine
 10
-179.6462860107422
 20
207.7027130126953
 30
0.0
 11
-175.6462860107422
 21
211.7027130126953
 31
0.0
  0
LINE
  5
96
330
22
100
AcDbEntity
  8
0
  6
Continuous
 62
     7
100
AcDbLine
 10
-178.2320709228516
 20
207.7027130126953
 30
0.0
 11
-174.2320709228516
 21
211.7027130126953
 31
0.0
  0
LINE
  5
97
330
22
100
AcDbEntity
  8
0
  6
Continuous
 62
     7
100
AcDbLine
 10
-176.8178558349609
 20
207.7027130126953
 30
0.0
 11
-172.8178558349609
 21
211.7027130126953
 31
0.0
  0
LINE
  5
98
330
22
100
AcDbEntity
  8
0
  6
Continuous
 62
     7
100
AcDbLine
 10
-175.4036560058594
 20
207.7027130126953
 30
0.0
 11
-171.4036560058594
 21
211.7027130126953
 31
0.0
  0
LINE
  5
99
330
22
100
AcDbEntity
  8
0
  6
Continuous
 62
     7
100
AcDbLine
 10
-173.9894409179688
 20
207.7027130126953
 30
0.0
 11
-169.9894409179688
 21
211.7027130126953
 31
0.0
  0
LINE
  5
9A
330
22
100
AcDbEntity
  8
0
  6
Continuous
 62
     7
100
AcDbLine
 10
-172.5752258300781
 20
207.7027130126953
 30
0.0
 11
-168.5752258300781
 21
211.7027130126953
 31
0.0
  0
LINE
  5
9B
330
22
100
AcDbEntity
  8
0
  6
Continuous
 62
     7
100
AcDbLine
 10
-171.1610107421875
 20
207.7027130126953
 30
0.0
 11
-167.1610107421875
 21
211.7027130126953
 31
0.0
  0
LINE
  5
9C
330
22
100
AcDbEntity
  8
0
  6
Continuous
 62
     7
100
AcDbLine
 10
-169.7467956542969
 20
207.7027130126953
 30
0.0
 11
-165.7467956542969
 21
211.7027130126953
 31
0.0
  0
LINE
  5
9D
330
22
100
AcDbEntity
  8
0
  6
Continuous
 62
     7
100
AcDbLine
 10
-168.3325805664063
 20
207.7027130126953
 30
0.0
 11
-164.3325805664063
 21
211.7027130126953
 31
0.0
  0
LINE
  5
9E
330
22
100
AcDbEntity
  8
0
  6
Continuous
 62
     7
100
AcDbLine
 10
-166.9183654785156
 20
207.7027130126953
 30
0.0
 11
-162.9183654785156
 21
211.7027130126953
 31
0.0
  0
LINE
  5
9F
330
22
100
AcDbEntity
  8
0
  6
Continuous
 62
     7
100
AcDbLine
 10
-165.504150390625
 20
207.7027130126953
 30
0.0
 11
-161.504150390625
 21
211.7027130126953
 31
0.0
  0
LINE
  5
A0
330
22
100
AcDbEntity
  8
0
  6
Continuous
 62
     7
100
AcDbLine
 10
-164.0899353027344
 20
207.7027130126953
 30
0.0
 11
-160.0899353027344
 21
211.7027130126953
 31
0.0
  0
LINE
  5
A1
330
22
100
AcDbEntity
  8
0
  6
Continuous
 62
     7
100
AcDbLine
 10
-162.6757202148438
 20
207.7027130126953
 30
0.0
 11
-158.6757202148438
 21
211.7027130126953
 31
0.0
  0
LINE
  5
A2
330
22
100
AcDbEntity
  8
0
  6
Continuous
 62
     7
100
AcDbLine
 10
-160.7264709472656
 20
208.2377471923828
 30
0.0
 11
-157.2615203857422
 21
211.7027130126953
 31
0.0
  0
LINE
  5
A3
330
22
100
AcDbEntity
  8
0
  6
Continuous
 62
     7
100
AcDbLine
 10
-159.2666320800781
 20
208.2833709716797
 30
0.0
 11
-155.8473052978516
 21
211.7027130126953
 31
0.0
  0
LINE
  5
A4
330
22
100
AcDbEntity
  8
0
  6
Continuous
 62
     7
100
AcDbLine
 10
-157.8068084716797
 20
208.3289947509766
 30
0.0
 11
-154.4330902099609
 21
211.7027130126953
 31
0.0
  0
LINE
  5
A5
330
22
100
AcDbEntity
  8
0
  6
Continuous
 62
     7
100
AcDbLine
 10
-156.3469696044922
 20
208.3746185302734
 30
0.0
 11
-153.0188751220703
 21
211.7027130126953
 31
0.0
  0
LINE
  5
A6
330
22
100
AcDbEntity
  8
0
  6
Continuous
 62
     7
100
AcDbLine
 10
-154.8871307373047
 20
208.4202423095703
 30
0.0
 11
-151.6046600341797
 21
211.7027130126953
 31
0.0
  0
LINE
  5
A7
330
22
100
AcDbEntity
  8
0
  6
Continuous
 62
     7
100
AcDbLine
 10
-153.4272918701172
 20
208.4658660888672
 30
0.0
 11
-150.1904449462891
 21
211.7027130126953
 31
0.0
  0
LINE
  5
A8
330
22
100
AcDbEntity
  8
0
  6
Continuous
 62
     7
100
AcDbLine
 10
-151.9674530029297
 20
208.5114898681641
 30
0.0
 11
-149.0483093261719
 21
211.4306335449219
 31
0.0
  0
LINE
  5
A9
330
22
100
AcDbEntity
  8
0
  6
Continuous
 62
     7
100
AcDbLine
 10
-150.5076293945313
 20
208.5571136474609
 30
0.0
 11
-149.0483093261719
 21
210.0164184570313
 31
0.0
  0
LINE
  5
AA
330
22
100
AcDbEntity
  8
0
  6
Continuous
 62
     7
100
AcDbLine
 10
-187.0483093261719
 20
219.2027130126953
 30
0.0
 11
-186.0483093261719
 21
220.2027130126953
 31
0.0
  0
LINE
  5
AB
330
22
100
AcDbEntity
  8
0
  6
Continuous
 62
     7
100
AcDbLine
 10
-195.0483093261719
 20
217.1527099609375
 30
0.0
 11
-195.0483093261719
 21
208.7527160644531
 31
0.0
  0
LINE
  5
AC
330
22
100
AcDbEntity
  8
0
  6
Continuous
 62
     7
100
AcDbLine
 10
-191.3241577148438
 20
228.1949920654297
 30
0.0
 11
-194.3895263671875
 21
223.5055847167969
 31
0.0
  0
LINE
  5
AD
330
22
100
AcDbEntity
  8
0
  6
Continuous
 62
     7
100
AcDbLine
 10
-191.5483093261719
 20
205.7027130126953
 30
0.0
 11
-185.5483093261719
 21
205.7027130126953
 31
0.0
  0
LINE
  5
AE
330
22
100
AcDbEntity
  8
0
  6
Continuous
 62
     7
100
AcDbLine
 10
-192.0483093261719
 20
210.9527130126953
 30
0.0
 11
-192.0483093261719
 21
206.2027130126953
 31
0.0
  0
LINE
  5
AF
330
22
100
AcDbEntity
  8
0
  6
Continuous
 62
     7
100
AcDbLine
 10
-188.9283142089844
 20
214.9527130126953
 30
0.0
 11
-188.5483093261719
 21
214.9527130126953
 31
0.0
  0
LINE
  5
B0
330
22
100
AcDbEntity
  8
0
  6
Continuous
 62
     7
100
AcDbLine
 10
-188.9283142089844
 20
211.3327178955078
 30
0.0
 11
-191.6683044433594
 21
211.3327178955078
 31
0.0
  0
LINE
  5
B1
330
22
100
AcDbEntity
  8
0
  6
Continuous
 62
     7
100
AcDbLine
 10
-188.9283142089844
 20
214.5727081298828
 30
0.0
 11
-191.6683044433594
 21
214.5727081298828
 31
0.0
  0
LINE
  5
B2
330
22
100
AcDbEntity
  8
0
  6
Continuous
 62
     7
100
AcDbLine
 10
-188.9283142089844
 20
210.9527130126953
 30
0.0
 11
-188.5483093261719
 21
210.9527130126953
 31
0.0
  0
LINE
  5
B3
330
22
100
AcDbEntity
  8
0
  6
Continuous
 62
     7
100
AcDbLine
 10
-188.5483093261719
 20
214.9527130126953
 30
0.0
 11
-188.9283142089844
 21
214.5727081298828
 31
0.0
  0
LINE
  5
B4
330
22
100
AcDbEntity
  8
0
  6
Continuous
 62
     7
100
AcDbLine
 10
-188.5483093261719
 20
210.9527130126953
 30
0.0
 11
-188.9283142089844
 21
211.3327178955078
 31
0.0
  0
LINE
  5
B5
330
22
100
AcDbEntity
  8
0
  6
Continuous
 62
     7
100
AcDbLine
 10
-186.0483093261719
 20
229.2027130126953
 30
0.0
 11
-190.0483093261719
 21
229.2027130126953
 31
0.0
  0
LINE
  5
B6
330
22
100
AcDbEntity
  8
0
  6
Continuous
 62
     7
100
AcDbLine
 10
-195.0483093261719
 20
220.7027130126953
 30
0.0
 11
-192.0483093261719
 21
220.7027130126953
 31
0.0
  0
LINE
  5
B7
330
22
100
AcDbEntity
  8
0
  6
Continuous
 62
     7
100
AcDbLine
 10
-192.0483093261719
 20
215.2027130126953
 30
0.0
 11
-193.0983123779297
 21
215.2027130126953
 31
0.0
  0
LINE
  5
B8
330
22
100
AcDbEntity
  8
0
  6
Continuous
 62
     7
100
AcDbLine
 10
-192.0483093261719
 20
210.7027130126953
 30
0.0
 11
-193.0983123779297
 21
210.7027130126953
 31
0.0
  0
LINE
  5
B9
330
22
100
AcDbEntity
  8
0
  6
Continuous
 62
     7
100
AcDbLine
 10
-167.0483093261719
 20
223.2027130126953
 30
0.0
 11
-167.0483093261719
 21
219.6469573974609
 31
0.0
  0
LINE
  5
BA
330
22
100
AcDbEntity
  8
0
  6
Continuous
 62
     7
100
AcDbLine
 10
-159.3505859375
 20
219.6469573974609
 30
0.0
 11
-167.0483093261719
 21
219.6469573974609
 31
0.0
  0
LINE
  5
BB
330
22
100
AcDbEntity
  8
0
  6
Continuous
 62
     7
100
AcDbLine
 10
-169.0483093261719
 20
221.4553985595703
 30
0.0
 11
-167.3009948730469
 21
223.2027130126953
 31
0.0
  0
LINE
  5
BC
330
22
100
AcDbEntity
  8
0
  6
Continuous
 62
     7
100
AcDbLine
 10
-169.0483093261719
 20
217.2127532958984
 30
0.0
 11
-166.6141204833984
 21
219.6469573974609
 31
0.0
  0
LINE
  5
BD
330
22
100
AcDbEntity
  8
0
  6
Continuous
 62
     7
100
AcDbLine
 10
-169.0483093261719
 20
212.9701232910156
 30
0.0
 11
-162.3714752197266
 21
219.6469573974609
 31
0.0
  0
LINE
  5
BE
330
22
100
AcDbEntity
  8
0
  6
Continuous
 62
     7
100
AcDbLine
 10
-165.0730743408203
 20
212.7027130126953
 30
0.0
 11
-159.0520935058594
 21
218.7236938476563
 31
0.0
  0
LINE
  5
BF
330
22
100
AcDbEntity
  8
0
  6
Continuous
 62
     7
100
AcDbLine
 10
-160.8304290771484
 20
212.7027130126953
 30
0.0
 11
-158.2812957763672
 21
215.2518463134766
 31
0.0
  0
LINE
  5
C0
330
22
100
AcDbEntity
  8
0
  6
Continuous
 62
     7
100
AcDbLine
 10
-169.0483093261719
 20
219.3340759277344
 30
0.0
 11
-167.0483093261719
 21
221.3340759277344
 31
0.0
  0
LINE
  5
C1
330
22
100
AcDbEntity
  8
0
  6
Continuous
 62
     7
100
AcDbLine
 10
-169.0483093261719
 20
215.0914459228516
 30
0.0
 11
-164.4927978515625
 21
219.6469573974609
 31
0.0
  0
LINE
  5
C2
330
22
100
AcDbEntity
  8
0
  6
Continuous
 62
     7
100
AcDbLine
 10
-167.1943969726563
 20
212.7027130126953
 30
0.0
 11
-160.2501525878906
 21
219.6469573974609
 31
0.0
  0
LINE
  5
C3
330
22
100
AcDbEntity
  8
0
  6
Continuous
 62
     7
100
AcDbLine
 10
-162.9517517089844
 20
212.7027130126953
 30
0.0
 11
-158.6172027587891
 21
217.0372619628906
 31
0.0
  0
LINE
  5
C4
330
22
100
AcDbEntity
  8
0
  6
Continuous
 62
     7
100
AcDbLine
 10
-158.7091217041016
 20
212.7027130126953
 30
0.0
 11
-158.0863800048828
 21
213.325439453125
 31
0.0
  0
LINE
  5
C5
330
22
100
AcDbEntity
  8
0
  6
Continuous
 62
     7
100
AcDbLine
 10
-169.0483093261719
 20
212.7027130126953
 30
0.0
 11
-168.0483093261719
 21
211.7027130126953
 31
0.0
  0
LINE
  5
C6
330
22
100
AcDbEntity
  8
0
  6
Continuous
 62
     7
100
AcDbLine
 10
-188.7483062744141
 20
229.2027130126953
 30
0.0
 11
-189.5876617431641
 21
229.2027130126953
 31
0.0
  0
LINE
  5
C7
330
22
100
AcDbEntity
  8
0
  6
Continuous
 62
     7
100
AcDbLine
 10
-187.0483093261719
 20
224.2027130126953
 30
0.0
 11
-186.0483093261719
 21
225.2027130126953
 31
0.0
  0
LINE
  5
C8
330
22
100
AcDbEntity
  8
0
  6
Continuous
 62
     7
100
AcDbLine
 10
-185.0483093261719
 20
207.2027130126953
 30
0.0
 11
-185.0483093261719
 21
206.2027130126953
 31
0.0
  0
LINE
  5
C9
330
22
100
AcDbEntity
  8
0
  6
Continuous
 62
     7
100
AcDbLine
 10
-187.0483093261719
 20
219.2027130126953
 30
0.0
 11
-186.0483093261719
 21
218.2027130126953
 31
0.0
  0
LINE
  5
CA
330
22
100
AcDbEntity
  8
0
  6
Continuous
 62
     7
100
AcDbLine
 10
-192.8483123779297
 20
210.9527130126953
 30
0.0
 11
-189.4283142089844
 21
210.9527130126953
 31
0.0
  0
LINE
  5
CB
330
22
100
AcDbEntity
  8
0
  6
Continuous
 62
     7
100
AcDbLine
 10
-195.0483093261719
 20
217.1527099609375
 30
0.0
 11
-192.8483123779297
 21
214.9527130126953
 31
0.0
  0
LINE
  5
CC
330
22
100
AcDbEntity
  8
0
  6
Continuous
 62
     7
100
AcDbLine
 10
-192.8483123779297
 20
214.9527130126953
 30
0.0
 11
-192.4683074951172
 21
214.5727081298828
 31
0.0
  0
LINE
  5
CD
330
22
100
AcDbEntity
  8
0
  6
Continuous
 62
     7
100
AcDbLine
 10
-192.8483123779297
 20
214.9527130126953
 30
0.0
 11
-189.4283142089844
 21
214.9527130126953
 31
0.0
  0
LINE
  5
CE
330
22
100
AcDbEntity
  8
0
  6
Continuous
 62
     7
100
AcDbLine
 10
-192.8483123779297
 20
210.9527130126953
 30
0.0
 11
-192.4683074951172
 21
211.3327178955078
 31
0.0
  0
LINE
  5
CF
330
22
100
AcDbEntity
  8
0
  6
Continuous
 62
     7
100
AcDbLine
 10
-188.9283142089844
 20
214.5727081298828
 30
0.0
 11
-188.9283142089844
 21
211.3327178955078
 31
0.0
  0
LINE
  5
D0
330
22
100
AcDbEntity
  8
0
  6
Continuous
 62
     7
100
AcDbLine
 10
-187.0483093261719
 20
224.2027130126953
 30
0.0
 11
-186.0483093261719
 21
223.2027130126953
 31
0.0
  0
LINE
  5
D1
330
22
100
AcDbEntity
  8
0
  6
Continuous
 62
     7
100
AcDbLine
 10
-183.0483093261719
 20
229.2027130126953
 30
0.0
 11
-183.0483093261719
 21
212.7027130126953
 31
0.0
  0
LINE
  5
D2
330
22
100
AcDbEntity
  8
0
  6
Continuous
 62
     7
100
AcDbLine
 10
-186.0483093261719
 20
229.2027130126953
 30
0.0
 11
-183.0483093261719
 21
229.2027130126953
 31
0.0
  0
LINE
  5
D3
330
22
100
AcDbEntity
  8
0
  6
Continuous
 62
     7
100
AcDbLine
 10
-188.5483093261719
 20
214.9527130126953
 30
0.0
 11
-188.5483093261719
 21
210.9527130126953
 31
0.0
  0
LINE
  5
D4
330
22
100
AcDbEntity
  8
0
  6
Continuous
 62
     7
100
AcDbLine
 10
-192.0483093261719
 20
214.9527130126953
 30
0.0
 11
-188.9283142089844
 21
214.9527130126953
 31
0.0
  0
LINE
  5
D5
330
22
100
AcDbEntity
  8
0
  6
Continuous
 62
     7
100
AcDbLine
 10
-192.0483093261719
 20
210.9527130126953
 30
0.0
 11
-188.9283142089844
 21
210.9527130126953
 31
0.0
  0
LINE
  5
D6
330
22
100
AcDbEntity
  8
0
  6
Continuous
 62
     7
100
AcDbLine
 10
-192.0483093261719
 20
220.7027130126953
 30
0.0
 11
-192.0483093261719
 21
214.9527130126953
 31
0.0
  0
LINE
  5
D7
330
22
100
AcDbEntity
  8
0
  6
Continuous
 62
     7
100
AcDbLine
 10
-189.0483093261719
 20
214.5727081298828
 30
0.0
 11
-189.0483093261719
 21
211.3327178955078
 31
0.0
  0
LINE
  5
D8
330
22
100
AcDbEntity
  8
0
  6
Continuous
 62
     7
100
AcDbLine
 10
-195.0483093261719
 20
208.7527160644531
 30
0.0
 11
-192.8483123779297
 21
210.9527130126953
 31
0.0
  0
LINE
  5
D9
330
22
100
AcDbEntity
  8
0
  6
Continuous
 62
     7
100
AcDbLine
 10
-189.0483093261719
 20
214.5727081298828
 30
0.0
 11
-189.4283142089844
 21
214.9527130126953
 31
0.0
  0
LINE
  5
DA
330
22
100
AcDbEntity
  8
0
  6
Continuous
 62
     7
100
AcDbLine
 10
-189.0483093261719
 20
211.3327178955078
 30
0.0
 11
-189.4283142089844
 21
210.9527130126953
 31
0.0
  0
LINE
  5
DB
330
22
100
AcDbEntity
  8
0
  6
Continuous
 62
     7
100
AcDbLine
 10
-189.0483093261719
 20
214.5727081298828
 30
0.0
 11
-192.4683074951172
 21
214.5727081298828
 31
0.0
  0
LINE
  5
DC
330
22
100
AcDbEntity
  8
0
  6
Continuous
 62
     7
100
AcDbLine
 10
-189.0483093261719
 20
211.3327178955078
 30
0.0
 11
-192.4683074951172
 21
211.3327178955078
 31
0.0
  0
LINE
  5
DD
330
22
100
AcDbEntity
  8
0
  6
Continuous
 62
     7
100
AcDbLine
 10
-183.0483093261719
 20
140.2027130126953
 30
0.0
 11
-183.0483093261719
 21
184.7027130126953
 31
0.0
  0
LINE
  5
DE
330
22
100
AcDbEntity
  8
0
  6
Continuous
 62
     7
100
AcDbLine
 10
-190.7483062744141
 20
142.4308013916016
 30
0.0
 11
-190.7483062744141
 21
184.7027130126953
 31
0.0
  0
LINE
  5
DF
330
22
100
AcDbEntity
  8
0
  6
Continuous
 62
     7
100
AcDbLine
 10
-186.0483093261719
 20
184.7027130126953
 30
0.0
 11
-186.0483093261719
 21
140.2027130126953
 31
0.0
  0
LINE
  5
E0
330
22
100
AcDbEntity
  8
0
  6
Continuous
 62
     7
100
AcDbLine
 10
-169.0483093261719
 20
146.2027130126953
 30
0.0
 11
-167.0483093261719
 21
146.2027130126953
 31
0.0
  0
LINE
  5
E1
330
22
100
AcDbEntity
  8
0
  6
Continuous
 62
     7
100
AcDbLine
 10
-173.0483093261719
 20
146.2027130126953
 30
0.0
 11
-169.0483093261719
 21
146.2027130126953
 31
0.0
  0
LINE
  5
E2
330
22
100
AcDbEntity
  8
0
  6
Continuous
 62
     7
100
AcDbLine
 10
-159.3505859375
 20
149.7584686279297
 30
0.0
 11
-167.0483093261719
 21
149.7584686279297
 31
0.0
  0
LINE
  5
E3
330
22
100
AcDbEntity
  8
0
  6
Continuous
 62
     7
100
AcDbLine
 10
-159.3505859375
 20
168.9408111572266
 30
0.0
 11
-167.0483093261719
 21
168.9408111572266
 31
0.0
  0
LINE
  5
E4
330
22
100
AcDbEntity
  8
0
  6
Continuous
 62
     7
100
AcDbLine
 10
-159.3505859375
 20
165.4527130126953
 30
0.0
 11
-167.0483093261719
 21
165.4527130126953
 31
0.0
  0
LINE
  5
E5
330
22
100
AcDbEntity
  8
0
  6
Continuous
 62
     7
100
AcDbLine
 10
-181.0483093261719
 20
157.7027130126953
 30
0.0
 11
-173.0483093261719
 21
157.7027130126953
 31
0.0
  0
LINE
  5
E6
330
22
100
AcDbEntity
  8
0
  6
Continuous
 62
     7
100
AcDbLine
 10
-182.0483093261719
 20
156.7027130126953
 30
0.0
 11
-173.0483093261719
 21
156.7027130126953
 31
0.0
  0
LINE
  5
E7
330
22
100
AcDbEntity
  8
0
  6
Continuous
 62
     7
100
AcDbLine
 10
-169.0483093261719
 20
146.2027130126953
 30
0.0
 11
-169.0483093261719
 21
184.7027130126953
 31
0.0
  0
LINE
  5
E8
330
22
100
AcDbEntity
  8
0
  6
Continuous
 62
     7
100
AcDbLine
 10
-170.0483093261719
 20
146.2027130126953
 30
0.0
 11
-170.0483093261719
 21
184.7027130126953
 31
0.0
  0
LINE
  5
E9
330
22
100
AcDbEntity
  8
0
  6
Continuous
 62
     7
100
AcDbLine
 10
-173.0483093261719
 20
146.2027130126953
 30
0.0
 11
-173.0483093261719
 21
184.7027130126953
 31
0.0
  0
LINE
  5
EA
330
22
100
AcDbEntity
  8
0
  6
Continuous
 62
     7
100
AcDbLine
 10
-167.0483093261719
 20
146.2027130126953
 30
0.0
 11
-167.0483093261719
 21
184.7027130126953
 31
0.0
  0
LINE
  5
EB
330
22
100
AcDbEntity
  8
0
  6
Continuous
 62
     7
100
AcDbLine
 10
-158.0483093261719
 20
212.7027130126953
 30
0.0
 11
-159.0483093261719
 21
211.7027130126953
 31
0.0
  0
LINE
  5
EC
330
22
100
AcDbEntity
  8
0
  6
Continuous
 62
     7
100
AcDbLine
 10
-149.0483093261719
 20
208.6027069091797
 30
0.0
 11
-162.0483093261719
 21
208.1964416503906
 31
0.0
  0
LINE
  5
ED
330
22
100
AcDbEntity
  8
0
  6
Continuous
 62
     7
100
AcDbLine
 10
-150.6112060546875
 20
207.0398254394531
 30
0.0
 11
-160.5801391601563
 21
206.728271484375
 31
0.0
  0
LINE
  5
EE
330
22
100
AcDbEntity
  8
0
  6
Continuous
 62
     7
100
AcDbLine
 10
-149.0483093261719
 20
211.7027130126953
 30
0.0
 11
-150.0483093261719
 21
212.7027130126953
 31
0.0
  0
LINE
  5
EF
330
22
100
AcDbEntity
  8
0
  6
Continuous
 62
     7
100
AcDbLine
 10
-149.0483093261719
 20
208.6027069091797
 30
0.0
 11
-150.6112060546875
 21
207.0398254394531
 31
0.0
  0
LINE
  5
F0
330
22
100
AcDbEntity
  8
0
  6
Continuous
 62
     7
100
AcDbLine
 10
-162.0483093261719
 20
208.1964416503906
 30
0.0
 11
-160.5801391601563
 21
206.728271484375
 31
0.0
  0
LINE
  5
F1
330
22
100
AcDbEntity
  8
0
  6
CENTER
 62
     7
100
AcDbLine
 10
-195.5204315185547
 20
212.9527130126953
 30
0.0
 11
-187.2979736328125
 21
212.9527130126953
 31
0.0
  0
LINE
  5
F2
330
22
100
AcDbEntity
  8
0
  6
Continuous
 62
     7
100
AcDbLine
 10
-186.0483093261719
 20
229.2027130126953
 30
0.0
 11
-186.0483093261719
 21
212.7027130126953
 31
0.0
  0
LINE
  5
F3
330
22
100
AcDbEntity
  8
0
  6
Continuous
 62
     7
100
AcDbLine
 10
-182.0483093261719
 20
212.7027130126953
 30
0.0
 11
-181.0483093261719
 21
211.7027130126953
 31
0.0
  0
LINE
  5
F4
330
22
100
AcDbEntity
  8
0
  6
Continuous
 62
     7
100
AcDbLine
 10
-186.0483093261719
 20
212.7027130126953
 30
0.0
 11
-182.0483093261719
 21
212.7027130126953
 31
0.0
  0
LINE
  5
F5
330
22
100
AcDbEntity
  8
0
  6
Continuous
 62
     7
100
AcDbLine
 10
-159.3505859375
 20
168.9408111572266
 30
0.0
 11
-159.3505859375
 21
165.4527130126953
 31
0.0
  0
LINE
  5
F6
330
22
100
AcDbEntity
  8
0
  6
Continuous
 62
     7
100
AcDbLine
 10
-149.0483093261719
 20
157.7027130126953
 30
0.0
 11
-150.0483093261719
 21
156.7027130126953
 31
0.0
  0
LINE
  5
F7
330
22
100
AcDbEntity
  8
0
  6
Continuous
 62
     7
100
AcDbLine
 10
-158.0483093261719
 20
156.7027130126953
 30
0.0
 11
-158.0483093261719
 21
184.7027130126953
 31
0.0
  0
LINE
  5
F8
330
22
100
AcDbEntity
  8
0
  6
Continuous
 62
     7
100
AcDbLine
 10
-183.0483093261719
 20
156.7027130126953
 30
0.0
 11
-182.0483093261719
 21
156.7027130126953
 31
0.0
  0
LINE
  5
F9
330
22
100
AcDbEntity
  8
0
  6
Continuous
 62
     7
100
AcDbLine
 10
-182.0483093261719
 20
156.7027130126953
 30
0.0
 11
-181.0483093261719
 21
157.7027130126953
 31
0.0
  0
LINE
  5
FA
330
22
100
AcDbEntity
  8
0
  6
Continuous
 62
     7
100
AcDbLine
 10
-191.3241577148438
 20
141.2104339599609
 30
0.0
 11
-194.5108642578125
 21
146.1253967285156
 31
0.0
  0
LINE
  5
FB
330
22
100
AcDbEntity
  8
0
  6
Continuous
 62
     7
100
AcDbLine
 10
-186.0483093261719
 20
140.2027130126953
 30
0.0
 11
-183.0483093261719
 21
140.2027130126953
 31
0.0
  0
LINE
  5
FC
330
22
100
AcDbEntity
  8
0
  6
Continuous
 62
     7
100
AcDbLine
 10
-186.0483093261719
 20
140.2027130126953
 30
0.0
 11
-189.5876617431641
 21
140.2027130126953
 31
0.0
  0
LINE
  5
FD
330
22
100
AcDbEntity
  8
0
  6
Continuous
 62
     7
100
AcDbLine
 10
-181.0483093261719
 20
157.7027130126953
 30
0.0
 11
-181.0483093261719
 21
184.7027130126953
 31
0.0
  0
LINE
  5
FE
330
22
100
AcDbEntity
  8
0
  6
Continuous
 62
     7
100
AcDbLine
 10
-158.0483093261719
 20
156.7027130126953
 30
0.0
 11
-150.0483093261719
 21
156.7027130126953
 31
0.0
  0
LINE
  5
FF
330
22
100
AcDbEntity
  8
0
  6
Continuous
 62
     7
100
AcDbLine
 10
-158.0315246582031
 20
157.7027130126953
 30
0.0
 11
-149.0483093261719
 21
157.7027130126953
 31
0.0
  0
LINE
  5
100
330
22
100
AcDbEntity
  8
0
  6
Continuous
 62
     7
100
AcDbLine
 10
-149.0483093261719
 20
208.6027069091797
 30
0.0
 11
-149.0483093261719
 21
184.7027130126953
 31
0.0
  0
LINE
  5
101
330
22
100
AcDbEntity
  8
0
  6
Continuous
 62
     7
100
AcDbLine
 10
-150.6112060546875
 20
207.0398254394531
 30
0.0
 11
-150.6112060546875
 21
184.7027130126953
 31
0.0
  0
LINE
  5
102
330
22
100
AcDbEntity
  8
0
  6
Continuous
 62
     7
100
AcDbLine
 10
-160.5801391601563
 20
206.728271484375
 30
0.0
 11
-160.5801391601563
 21
184.7027130126953
 31
0.0
  0
LINE
  5
103
330
22
100
AcDbEntity
  8
0
  6
Continuous
 62
     7
100
AcDbLine
 10
-162.0483093261719
 20
208.1964416503906
 30
0.0
 11
-162.0483093261719
 21
184.7027130126953
 31
0.0
  0
LINE
  5
104
330
22
100
AcDbEntity
  8
0
  6
Continuous
 62
     7
100
AcDbLine
 10
-149.0483093261719
 20
211.7027130126953
 30
0.0
 11
-149.0483093261719
 21
157.7027130126953
 31
0.0
  0
LINE
  5
105
330
22
100
AcDbEntity
  8
0
  6
Continuous
 62
     7
100
AcDbLine
 10
-192.0483093261719
 20
206.2027130126953
 30
0.0
 11
-192.0483093261719
 21
184.7027130126953
 31
0.0
  0
LINE
  5
106
330
22
100
AcDbEntity
  8
0
  6
Continuous
 62
     7
100
AcDbLine
 10
-185.0483093261719
 20
206.7027130126953
 30
0.0
 11
-185.0483093261719
 21
184.7027130126953
 31
0.0
  0
LINE
  5
107
330
22
100
AcDbEntity
  8
0
  6
Continuous
 62
     7
100
AcDbLine
 10
-193.5778198242188
 20
220.7027130126953
 30
0.0
 11
-192.0483093261719
 21
219.1732025146484
 31
0.0
  0
LINE
  5
108
330
22
100
AcDbEntity
  8
0
  6
Continuous
 62
     7
100
AcDbLine
 10
-194.2849273681641
 20
220.7027130126953
 30
0.0
 11
-192.0483093261719
 21
218.4660949707031
 31
0.0
  0
LINE
  5
109
330
22
100
AcDbEntity
  8
0
  6
Continuous
 62
     7
100
AcDbLine
 10
-195.0483093261719
 20
219.3447723388672
 30
0.0
 11
-192.0483093261719
 21
216.3447723388672
 31
0.0
  0
LINE
  5
10A
330
22
100
AcDbEntity
  8
0
  6
Continuous
 62
     7
100
AcDbLine
 10
-195.0483093261719
 20
218.6376647949219
 30
0.0
 11
-192.0483093261719
 21
215.6376647949219
 31
0.0
  0
LINE
  5
10B
330
22
100
AcDbEntity
  8
0
  6
Continuous
 62
     7
100
AcDbLine
 10
-192.0631103515625
 20
210.7027130126953
 30
0.0
 11
-192.0483093261719
 21
210.6879272460938
 31
0.0
  0
LINE
  5
10C
330
22
100
AcDbEntity
  8
0
  6
Continuous
 62
     7
100
AcDbLine
 10
-192.7702178955078
 20
210.7027130126953
 30
0.0
 11
-192.0483093261719
 21
209.9808197021484
 31
0.0
  0
LINE
  5
10D
330
22
100
AcDbEntity
  8
0
  6
Continuous
 62
     7
100
AcDbLine
 10
-193.9949188232422
 20
209.8061065673828
 30
0.0
 11
-192.0483093261719
 21
207.8594970703125
 31
0.0
  0
LINE
  5
10E
330
22
100
AcDbEntity
  8
0
  6
Continuous
 62
     7
100
AcDbLine
 10
-194.3484802246094
 20
209.4525451660156
 30
0.0
 11
-192.0483093261719
 21
207.1523895263672
 31
0.0
  0
LINE
  5
10F
330
22
100
AcDbEntity
  8
0
  6
Continuous
 62
     7
100
AcDbLine
 10
-195.0483093261719
 20
208.0310668945313
 30
0.0
 11
-192.0483093261719
 21
205.0310668945313
 31
0.0
  0
LINE
  5
110
330
22
100
AcDbEntity
  8
0
  6
Continuous
 62
     7
100
AcDbLine
 10
-195.0483093261719
 20
207.3239593505859
 30
0.0
 11
-192.0483093261719
 21
204.3239593505859
 31
0.0
  0
LINE
  5
111
330
22
100
AcDbEntity
  8
0
  6
Continuous
 62
     7
100
AcDbLine
 10
-195.0483093261719
 20
205.20263671875
 30
0.0
 11
-192.0483093261719
 21
202.20263671875
 31
0.0
  0
LINE
  5
112
330
22
100
AcDbEntity
  8
0
  6
Continuous
 62
     7
100
AcDbLine
 10
-195.0483093261719
 20
204.4955291748047
 30
0.0
 11
-192.0483093261719
 21
201.4955291748047
 31
0.0
  0
LINE
  5
113
330
22
100
AcDbEntity
  8
0
  6
Continuous
 62
     7
100
AcDbLine
 10
-195.0483093261719
 20
202.3742065429688
 30
0.0
 11
-192.0483093261719
 21
199.3742065429688
 31
0.0
  0
LINE
  5
114
330
22
100
AcDbEntity
  8
0
  6
Continuous
 62
     7
100
AcDbLine
 10
-195.0483093261719
 20
201.6670989990234
 30
0.0
 11
-192.0483093261719
 21
198.6670989990234
 31
0.0
  0
LINE
  5
115
330
22
100
AcDbEntity
  8
0
  6
Continuous
 62
     7
100
AcDbLine
 10
-195.0483093261719
 20
199.5457916259766
 30
0.0
 11
-192.0483093261719
 21
196.5457916259765
 31
0.0
  0
LINE
  5
116
330
22
100
AcDbEntity
  8
0
  6
Continuous
 62
     7
100
AcDbLine
 10
-195.0483093261719
 20
198.8386840820313
 30
0.0
 11
-192.0483093261719
 21
195.8386840820313
 31
0.0
  0
LINE
  5
117
330
22
100
AcDbEntity
  8
0
  6
Continuous
 62
     7
100
AcDbLine
 10
-195.0483093261719
 20
196.7173614501953
 30
0.0
 11
-192.0483093261719
 21
193.7173614501953
 31
0.0
  0
LINE
  5
118
330
22
100
AcDbEntity
  8
0
  6
Continuous
 62
     7
100
AcDbLine
 10
-195.0483093261719
 20
196.01025390625
 30
0.0
 11
-192.0483093261719
 21
193.01025390625
 31
0.0
  0
LINE
  5
119
330
22
100
AcDbEntity
  8
0
  6
Continuous
 62
     7
100
AcDbLine
 10
-195.0483093261719
 20
193.8889312744141
 30
0.0
 11
-192.0483093261719
 21
190.8889312744141
 31
0.0
  0
LINE
  5
11A
330
22
100
AcDbEntity
  8
0
  6
Continuous
 62
     7
100
AcDbLine
 10
-195.0483093261719
 20
193.1818237304688
 30
0.0
 11
-192.0483093261719
 21
190.1818237304688
 31
0.0
  0
LINE
  5
11B
330
22
100
AcDbEntity
  8
0
  6
Continuous
 62
     7
100
AcDbLine
 10
-195.0483093261719
 20
191.0605010986328
 30
0.0
 11
-192.0483093261719
 21
188.0605010986328
 31
0.0
  0
LINE
  5
11C
330
22
100
AcDbEntity
  8
0
  6
Continuous
 62
     7
100
AcDbLine
 10
-195.0483093261719
 20
190.3533935546875
 30
0.0
 11
-192.0483093261719
 21
187.3533935546875
 31
0.0
  0
LINE
  5
11D
330
22
100
AcDbEntity
  8
0
  6
Continuous
 62
     7
100
AcDbLine
 10
-195.0483093261719
 20
188.2320709228516
 30
0.0
 11
-192.0483093261719
 21
185.2320709228516
 31
0.0
  0
LINE
  5
11E
330
22
100
AcDbEntity
  8
0
  6
Continuous
 62
     7
100
AcDbLine
 10
-195.0483093261719
 20
187.5249633789063
 30
0.0
 11
-192.2260589599609
 21
184.7027130126953
 31
0.0
  0
LINE
  5
11F
330
22
100
AcDbEntity
  8
0
  6
Continuous
 62
     7
100
AcDbLine
 10
-195.0483093261719
 20
185.4036560058594
 30
0.0
 11
-194.3473815917969
 21
184.7027130126953
 31
0.0
  0
LINE
  5
120
330
22
100
AcDbEntity
  8
0
  6
Continuous
 62
     7
100
AcDbLine
 10
-195.0483093261719
 20
221.0248870849609
 30
0.0
 11
-195.0483093261719
 21
148.3805389404297
 31
0.0
  0
LINE
  5
121
330
22
100
AcDbEntity
  8
0
  6
CENTER
 62
     7
100
AcDbLine
 10
-202.3709106445313
 20
184.7027130126953
 30
0.0
 11
-144.0947418212891
 21
184.7027130126953
 31
0.0
  0
LINE
  5
122
330
22
100
AcDbEntity
  8
0
  6
Continuous
 62
     7
100
AcDbLine
 10
-313.1677551269531
 20
217.0471954345703
 30
0.0
 11
-313.5507202148438
 21
217.2106781005859
 31
0.0
  0
LINE
  5
123
330
22
100
AcDbEntity
  8
0
  6
Continuous
 62
     7
100
AcDbLine
 10
-313.9336547851563
 20
217.3741607666016
 30
0.0
 11
-313.5507202148438
 21
217.2106781005859
 31
0.0
  0
LINE
  5
124
330
22
100
AcDbEntity
  8
0
  6
Continuous
 62
     7
100
AcDbLine
 10
-318.5771179199219
 20
215.2091979980469
 30
0.0
 11
-318.74072265625
 21
214.8259735107422
 31
0.0
  0
LINE
  5
125
330
22
100
AcDbEntity
  8
0
  6
Continuous
 62
     7
100
AcDbLine
 10
-313.9336547851563
 20
217.3741607666016
 30
0.0
 11
-315.4848937988281
 21
214.7897644042969
 31
0.0
  0
LINE
  5
126
330
22
100
AcDbEntity
  8
0
  6
Continuous
 62
     7
100
AcDbLine
 10
-318.5771179199219
 20
215.2091979980469
 30
0.0
 11
-318.4135131835938
 21
215.5924377441406
 31
0.0
  0
LINE
  5
127
330
22
100
AcDbEntity
  8
0
  6
Continuous
 62
     7
100
AcDbLine
 10
-318.4135131835938
 20
215.5924377441406
 30
0.0
 11
-315.4848937988281
 21
214.7897644042969
 31
0.0
  0
LINE
  5
128
330
22
100
AcDbEntity
  8
0
  6
Continuous
 62
     7
100
AcDbLine
 10
-313.1677551269531
 20
217.0471954345703
 30
0.0
 11
-313.9612731933594
 21
214.1392974853516
 31
0.0
  0
LINE
  5
129
330
22
100
AcDbEntity
  8
0
  6
Continuous
 62
     7
100
AcDbLine
 10
-316.1629638671875
 20
210.0312652587891
 30
0.0
 11
-314.6117248535156
 21
212.6156616210938
 31
0.0
  0
LINE
  5
12A
330
22
100
AcDbEntity
  8
0
  6
Continuous
 62
     7
100
AcDbLine
 10
-311.5195007324219
 20
212.1962280273439
 30
0.0
 11
-311.68310546875
 21
211.81298828125
 31
0.0
  0
LINE
  5
12B
330
22
100
AcDbEntity
  8
0
  6
Continuous
 62
     7
100
AcDbLine
 10
-311.68310546875
 20
211.81298828125
 30
0.0
 11
-314.6117248535156
 21
212.6156616210938
 31
0.0
  0
LINE
  5
12C
330
22
100
AcDbEntity
  8
0
  6
Continuous
 62
     7
100
AcDbLine
 10
-318.74072265625
 20
214.8259735107422
 30
0.0
 11
-316.1353454589844
 21
213.2661285400391
 31
0.0
  0
LINE
  5
12D
330
22
100
AcDbEntity
  8
0
  6
Continuous
 62
     7
100
AcDbLine
 10
-311.3558959960938
 20
212.5794677734375
 30
0.0
 11
-313.9612731933594
 21
214.1392974853516
 31
0.0
  0
LINE
  5
12E
330
22
100
AcDbEntity
  8
0
  6
Continuous
 62
     7
100
AcDbLine
 10
-316.9288635253906
 20
210.3582305908203
 30
0.0
 11
-316.1353454589844
 21
213.2661285400391
 31
0.0
  0
LINE
  5
12F
330
22
100
AcDbEntity
  8
0
  6
Continuous
 62
     7
100
AcDbLine
 10
-311.5195007324219
 20
212.1962280273439
 30
0.0
 11
-311.3558959960938
 21
212.5794677734375
 31
0.0
  0
LINE
  5
130
330
22
100
AcDbEntity
  8
0
  6
Continuous
 62
     7
100
AcDbLine
 10
-316.9288635253906
 20
210.3582305908203
 30
0.0
 11
-316.5458984375
 21
210.1947479248047
 31
0.0
  0
LINE
  5
131
330
22
100
AcDbEntity
  8
0
  6
Continuous
 62
     7
100
AcDbLine
 10
-316.1629638671875
 20
210.0312652587891
 30
0.0
 11
-316.5458984375
 21
210.1947479248047
 31
0.0
  0
LINE
  5
132
330
22
100
AcDbEntity
  8
0
  6
Continuous
 62
     7
100
AcDbLine
 10
-311.5195007324219
 20
154.1962280273438
 30
0.0
 11
-311.3558959960938
 21
154.5794677734375
 31
0.0
  0
LINE
  5
133
330
22
100
AcDbEntity
  8
0
  6
Continuous
 62
     7
100
AcDbLine
 10
-318.4135131835938
 20
157.5924377441406
 30
0.0
 11
-315.4848937988281
 21
156.7897644042969
 31
0.0
  0
LINE
  5
134
330
22
100
AcDbEntity
  8
0
  6
Continuous
 62
     7
100
AcDbLine
 10
-313.9336547851563
 20
159.3741607666016
 30
0.0
 11
-313.5507202148438
 21
159.2106781005859
 31
0.0
  0
LINE
  5
135
330
22
100
AcDbEntity
  8
0
  6
Continuous
 62
     7
100
AcDbLine
 10
-313.1677551269531
 20
159.0471954345703
 30
0.0
 11
-313.9612731933594
 21
156.1392974853516
 31
0.0
  0
LINE
  5
136
330
22
100
AcDbEntity
  8
0
  6
Continuous
 62
     7
100
AcDbLine
 10
-313.9336547851563
 20
159.3741607666016
 30
0.0
 11
-315.4848937988281
 21
156.7897644042969
 31
0.0
  0
LINE
  5
137
330
22
100
AcDbEntity
  8
0
  6
Continuous
 62
     7
100
AcDbLine
 10
-318.5771179199219
 20
157.2091979980469
 30
0.0
 11
-318.4135131835938
 21
157.5924377441406
 31
0.0
  0
LINE
  5
138
330
22
100
AcDbEntity
  8
0
  6
Continuous
 62
     7
100
AcDbLine
 10
-313.1677551269531
 20
159.0471954345703
 30
0.0
 11
-313.5507202148438
 21
159.2106781005859
 31
0.0
  0
LINE
  5
139
330
22
100
AcDbEntity
  8
0
  6
Continuous
 62
     7
100
AcDbLine
 10
-318.5771179199219
 20
157.2091979980469
 30
0.0
 11
-318.74072265625
 21
156.8259735107422
 31
0.0
  0
LINE
  5
13A
330
22
100
AcDbEntity
  8
0
  6
Continuous
 62
     7
100
AcDbLine
 10
-326.3983154296875
 20
181.8490753173828
 30
0.0
 11
-326.3983154296875
 21
171.6490783691406
 31
0.0
  0
LINE
  5
13B
330
22
100
AcDbEntity
  8
0
  6
Continuous
 62
     7
100
AcDbLine
 10
-305.1983032226563
 20
175.5950927734375
 30
0.0
 11
-305.1983032226563
 21
167.8950805664063
 31
0.0
  0
LINE
  5
13C
330
22
100
AcDbEntity
  8
0
  6
Continuous
 62
     7
100
AcDbLine
 10
-308.9983215332031
 20
175.5950927734375
 30
0.0
 11
-308.9983215332031
 21
167.8873138427734
 31
0.0
  0
LINE
  5
13D
330
22
100
AcDbEntity
  8
0
  6
Continuous
 62
     7
100
AcDbLine
 10
-299.8983154296875
 20
181.8490753173828
 30
0.0
 11
-299.8983154296875
 21
171.6490783691406
 31
0.0
  0
LINE
  5
13E
330
22
100
AcDbEntity
  8
0
  6
Continuous
 62
     7
100
AcDbLine
 10
-303.6983032226563
 20
181.8490753173828
 30
0.0
 11
-303.6983032226563
 21
171.6490783691406
 31
0.0
  0
LINE
  5
13F
330
22
100
AcDbEntity
  8
0
  6
Continuous
 62
     7
100
AcDbLine
 10
-321.0982971191406
 20
175.5950927734375
 30
0.0
 11
-321.0982971191406
 21
167.8873138427734
 31
0.0
  0
LINE
  5
140
330
22
100
AcDbEntity
  8
0
  6
Continuous
 62
     7
100
AcDbLine
 10
-319.5982971191406
 20
180.4929656982421
 30
0.0
 11
-319.5982971191406
 21
166.2924652099609
 31
0.0
  0
LINE
  5
141
330
22
100
AcDbEntity
  8
0
  6
Continuous
 62
     7
100
AcDbLine
 10
-315.7983093261719
 20
180.4924621582031
 30
0.0
 11
-315.7983093261719
 21
166.2924652099609
 31
0.0
  0
LINE
  5
142
330
22
100
AcDbEntity
  8
0
  6
Continuous
 62
     7
100
AcDbLine
 10
-330.1983032226563
 20
181.8490753173828
 30
0.0
 11
-330.1983032226563
 21
171.6490783691406
 31
0.0
  0
LINE
  5
143
330
22
100
AcDbEntity
  8
0
  6
Continuous
 62
     7
100
AcDbLine
 10
-310.4983215332031
 20
180.4929656982421
 30
0.0
 11
-310.4983215332031
 21
166.2924652099609
 31
0.0
  0
LINE
  5
144
330
22
100
AcDbEntity
  8
0
  6
Continuous
 62
     7
100
AcDbLine
 10
-314.2983093261719
 20
180.4924621582031
 30
0.0
 11
-314.2983093261719
 21
166.2924652099609
 31
0.0
  0
LINE
  5
145
330
22
100
AcDbEntity
  8
0
  6
Continuous
 62
     7
100
AcDbLine
 10
-324.8983154296875
 20
175.5950927734375
 30
0.0
 11
-324.8983154296875
 21
167.8950805664063
 31
0.0
  0
LINE
  5
146
330
22
100
AcDbEntity
  8
0
  6
Continuous
 62
     7
100
AcDbLine
 10
-308.9983215332031
 20
188.5527191162109
 30
0.0
 11
-308.9983215332031
 21
180.8449401855469
 31
0.0
  0
LINE
  5
147
330
22
100
AcDbEntity
  8
0
  6
Continuous
 62
     7
100
AcDbLine
 10
-305.1983032226563
 20
188.5527191162109
 30
0.0
 11
-305.1983032226563
 21
180.8527069091797
 31
0.0
  0
LINE
  5
148
330
22
100
AcDbEntity
  8
0
  6
Continuous
 62
     7
100
AcDbLine
 10
-321.0982971191406
 20
188.5527191162109
 30
0.0
 11
-321.0982971191406
 21
180.8449401855469
 31
0.0
  0
LINE
  5
149
330
22
100
AcDbEntity
  8
0
  6
Continuous
 62
     7
100
AcDbLine
 10
-324.8983154296875
 20
188.5527191162109
 30
0.0
 11
-324.8983154296875
 21
180.8527069091797
 31
0.0
  0
LINE
  5
14A
330
22
100
AcDbEntity
  8
0
  6
CENTER
 62
     7
100
AcDbLine
 10
-365.5484008789063
 20
184.7027130126953
 30
0.0
 11
-262.4850158691406
 21
184.7027130126953
 31
0.0
  0
LINE
  5
14B
330
22
100
AcDbEntity
  8
0
  6
Continuous
 62
     7
100
AcDbLine
 10
-311.3558959960938
 20
154.5794677734375
 30
0.0
 11
-313.9612731933594
 21
156.1392974853516
 31
0.0
  0
LINE
  5
14C
330
22
100
AcDbEntity
  8
0
  6
Continuous
 62
     7
100
AcDbLine
 10
-311.5195007324219
 20
154.1962280273438
 30
0.0
 11
-311.68310546875
 21
153.81298828125
 31
0.0
  0
LINE
  5
14D
330
22
100
AcDbEntity
  8
0
  6
Continuous
 62
     7
100
AcDbLine
 10
-316.1629638671875
 20
152.0312652587891
 30
0.0
 11
-314.6117248535156
 21
154.6156616210938
 31
0.0
  0
LINE
  5
14E
330
22
100
AcDbEntity
  8
0
  6
Continuous
 62
     7
100
AcDbLine
 10
-318.74072265625
 20
156.8259735107422
 30
0.0
 11
-316.1353454589844
 21
155.2661285400391
 31
0.0
  0
LINE
  5
14F
330
22
100
AcDbEntity
  8
0
  6
Continuous
 62
     7
100
AcDbLine
 10
-316.1629638671875
 20
152.0312652587891
 30
0.0
 11
-316.5458984375
 21
152.1947479248047
 31
0.0
  0
LINE
  5
150
330
22
100
AcDbEntity
  8
0
  6
Continuous
 62
     7
100
AcDbLine
 10
-316.9288635253906
 20
152.3582305908203
 30
0.0
 11
-316.5458984375
 21
152.1947479248047
 31
0.0
  0
LINE
  5
151
330
22
100
AcDbEntity
  8
0
  6
Continuous
 62
     7
100
AcDbLine
 10
-311.68310546875
 20
153.81298828125
 30
0.0
 11
-314.6117248535156
 21
154.6156616210938
 31
0.0
  0
LINE
  5
152
330
22
100
AcDbEntity
  8
0
  6
Continuous
 62
     7
100
AcDbLine
 10
-316.9288635253906
 20
152.3582305908203
 30
0.0
 11
-316.1353454589844
 21
155.2661285400391
 31
0.0
  0
LINE
  5
153
330
22
100
AcDbEntity
  8
0
  6
CENTER
 62
     7
100
AcDbLine
 10
-315.0483093261719
 20
233.4536590576172
 30
0.0
 11
-315.0483093261719
 21
134.3623046875
 31
0.0
  0
LINE
  5
154
330
22
100
AcDbEntity
  8
0
  6
Continuous
 62
     7
100
AcDbLine
 10
-298.3983154296875
 20
173.7146453857422
 30
0.0
 11
-298.3983154296875
 21
195.6907806396484
 31
0.0
  0
LINE
  5
155
330
22
100
AcDbEntity
  8
0
  6
Continuous
 62
     7
100
AcDbLine
 10
-331.6983032226563
 20
173.7146453857422
 30
0.0
 11
-331.6983032226563
 21
195.6907806396484
 31
0.0
  0
LINE
  5
156
330
22
100
AcDbEntity
  8
0
  6
Continuous
 62
     7
100
AcDbLine
 10
-324.8983154296875
 20
193.8103332519531
 30
0.0
 11
-324.8983154296875
 21
201.5103454589844
 31
0.0
  0
LINE
  5
157
330
22
100
AcDbEntity
  8
0
  6
Continuous
 62
     7
100
AcDbLine
 10
-303.6983032226563
 20
187.5563507080078
 30
0.0
 11
-303.6983032226563
 21
197.75634765625
 31
0.0
  0
LINE
  5
158
330
22
100
AcDbEntity
  8
0
  6
Continuous
 62
     7
100
AcDbLine
 10
-314.2983093261719
 20
188.9129638671875
 30
0.0
 11
-314.2983093261719
 21
203.1129608154297
 31
0.0
  0
LINE
  5
159
330
22
100
AcDbEntity
  8
0
  6
Continuous
 62
     7
100
AcDbLine
 10
-315.7983093261719
 20
188.9129638671875
 30
0.0
 11
-315.7983093261719
 21
203.1129608154297
 31
0.0
  0
LINE
  5
15A
330
22
100
AcDbEntity
  8
0
  6
Continuous
 62
     7
100
AcDbLine
 10
-305.1983032226563
 20
193.8103332519531
 30
0.0
 11
-305.1983032226563
 21
201.5103454589844
 31
0.0
  0
LINE
  5
15B
330
22
100
AcDbEntity
  8
0
  6
Continuous
 62
     7
100
AcDbLine
 10
-310.4983215332031
 20
188.9124603271484
 30
0.0
 11
-310.4983215332031
 21
203.1129608154297
 31
0.0
  0
LINE
  5
15C
330
22
100
AcDbEntity
  8
0
  6
Continuous
 62
     7
100
AcDbLine
 10
-321.0982971191406
 20
193.8103332519531
 30
0.0
 11
-321.0982971191406
 21
201.5181121826172
 31
0.0
  0
LINE
  5
15D
330
22
100
AcDbEntity
  8
0
  6
Continuous
 62
     7
100
AcDbLine
 10
-330.1983032226563
 20
187.5563507080078
 30
0.0
 11
-330.1983032226563
 21
197.75634765625
 31
0.0
  0
LINE
  5
15E
330
22
100
AcDbEntity
  8
0
  6
Continuous
 62
     7
100
AcDbLine
 10
-326.3983154296875
 20
187.5563507080078
 30
0.0
 11
-326.3983154296875
 21
197.75634765625
 31
0.0
  0
LINE
  5
15F
330
22
100
AcDbEntity
  8
0
  6
Continuous
 62
     7
100
AcDbLine
 10
-319.5982971191406
 20
188.9124603271484
 30
0.0
 11
-319.5982971191406
 21
203.1129608154297
 31
0.0
  0
LINE
  5
160
330
22
100
AcDbEntity
  8
0
  6
Continuous
 62
     7
100
AcDbLine
 10
-308.9983215332031
 20
193.8103332519531
 30
0.0
 11
-308.9983215332031
 21
201.5181121826172
 31
0.0
  0
LINE
  5
161
330
22
100
AcDbEntity
  8
0
  6
Continuous
 62
     7
100
AcDbLine
 10
-299.8983154296875
 20
187.5563507080078
 30
0.0
 11
-299.8983154296875
 21
197.75634765625
 31
0.0
  0
ARC
  5
162
330
22
100
AcDbEntity
  8
0
  6
Continuous
 62
     7
100
AcDbCircle
 10
-185.5483093261719
 20
206.2027130126953
 30
0.0
 40
0.5
100
AcDbArc
 50
270.0000000000005
 51
0.0
  0
ARC
  5
163
330
22
100
AcDbEntity
  8
0
  6
Continuous
 62
     7
100
AcDbCircle
 10
-191.5483093261719
 20
206.2027130126953
 30
0.0
 40
0.5
100
AcDbArc
 50
180.0000000000004
 51
270.0000000000005
  0
ARC
  5
164
330
22
100
AcDbEntity
  8
0
  6
Continuous
 62
     7
100
AcDbCircle
 10
-190.0483093261719
 20
221.0248870849609
 30
0.0
 40
5.0
100
AcDbArc
 50
150.2550970152432
 51
180.0000000000004
  0
ARC
  5
165
330
22
100
AcDbEntity
  8
0
  6
Continuous
 62
     7
100
AcDbCircle
 10
-184.5483093261719
 20
207.2027130126953
 30
0.0
 40
0.5
100
AcDbArc
 50
90.00000000000019
 51
180.0000000000004
  0
ARC
  5
166
330
22
100
AcDbEntity
  8
0
  6
Continuous
 62
     7
100
AcDbCircle
 10
-189.5876617431641
 20
227.2027130126953
 30
0.0
 40
2.0
100
AcDbArc
 50
90.00000000000019
 51
150.2552271416998
  0
ARC
  5
167
330
22
100
AcDbEntity
  8
0
  6
Continuous
 62
     7
100
AcDbCircle
 10
-182.0286102294922
 20
211.7998352050781
 30
0.0
 40
23.99728393554688
100
AcDbArc
 50
2.156214152166838
 51
19.08680643935753
  0
ARC
  5
168
330
22
100
AcDbEntity
  8
0
  6
Continuous
 62
     7
100
AcDbCircle
 10
-182.0286102294922
 20
157.6055908203125
 30
0.0
 40
23.99728202819824
100
AcDbArc
 50
2.141485569314683
 51
2.156214152166838
  0
ARC
  5
169
330
22
100
AcDbEntity
  8
0
  6
Continuous
 62
     7
100
AcDbCircle
 10
-182.0286102294922
 20
157.6055908203125
 30
0.0
 40
23.99728202819824
100
AcDbArc
 50
2.141485569314683
 51
2.156214152166838
  0
ARC
  5
16A
330
22
100
AcDbEntity
  8
0
  6
Continuous
 62
     7
100
AcDbCircle
 10
-182.0286102294922
 20
157.6055908203125
 30
0.0
 40
23.99728202819824
100
AcDbArc
 50
2.141485569314683
 51
2.156214152166838
  0
ARC
  5
16B
330
22
100
AcDbEntity
  8
0
  6
Continuous
 62
     7
100
AcDbCircle
 10
-182.0286102294922
 20
157.6055908203125
 30
0.0
 40
23.99728202819824
100
AcDbArc
 50
2.141485569314683
 51
2.156214152166838
  0
ARC
  5
16C
330
22
100
AcDbEntity
  8
0
  6
Continuous
 62
     7
100
AcDbCircle
 10
-182.0286102294922
 20
157.6055908203125
 30
0.0
 40
23.99728202819824
100
AcDbArc
 50
2.141485569314683
 51
2.156214152166838
  0
ARC
  5
16D
330
22
100
AcDbEntity
  8
0
  6
Continuous
 62
     7
100
AcDbCircle
 10
-182.0286102294922
 20
157.6055908203125
 30
0.0
 40
23.99728393554688
100
AcDbArc
 50
2.156214152166838
 51
19.08680643935753
  0
ARC
  5
16E
330
22
100
AcDbEntity
  8
0
  6
Continuous
 62
     7
100
AcDbCircle
 10
-182.0286102294922
 20
157.6055908203125
 30
0.0
 40
23.99728393554688
100
AcDbArc
 50
340.9131935606433
 51
2.156214152166838
  0
ARC
  5
16F
330
22
100
AcDbEntity
  8
0
  6
Continuous
 62
     7
100
AcDbCircle
 10
-174.0286102294922
 20
157.6055908203125
 30
0.0
 40
23.99728202819824
100
AcDbArc
 50
2.141485569314683
 51
2.156214152166838
  0
ARC
  5
170
330
22
100
AcDbEntity
  8
0
  6
Continuous
 62
     7
100
AcDbCircle
 10
-174.0286102294922
 20
157.6055908203125
 30
0.0
 40
23.99728202819824
100
AcDbArc
 50
2.141485569314683
 51
2.156214152166838
  0
ARC
  5
171
330
22
100
AcDbEntity
  8
0
  6
Continuous
 62
     7
100
AcDbCircle
 10
-174.0286102294922
 20
157.6055908203125
 30
0.0
 40
23.99728202819824
100
AcDbArc
 50
2.141485569314683
 51
2.156214152166838
  0
ARC
  5
172
330
22
100
AcDbEntity
  8
0
  6
Continuous
 62
     7
100
AcDbCircle
 10
-174.0286102294922
 20
157.6055908203125
 30
0.0
 40
23.99728202819824
100
AcDbArc
 50
2.141485569314683
 51
2.156214152166838
  0
ARC
  5
173
330
22
100
AcDbEntity
  8
0
  6
Continuous
 62
     7
100
AcDbCircle
 10
-174.0286102294922
 20
157.6055908203125
 30
0.0
 40
23.99728202819824
100
AcDbArc
 50
2.141485569314683
 51
2.156214152166838
  0
ARC
  5
174
330
22
100
AcDbEntity
  8
0
  6
Continuous
 62
     7
100
AcDbCircle
 10
-263.0135803222656
 20
185.4403991699219
 30
0.0
 40
104.9678497314453
100
AcDbArc
 50
350.9563405462185
 51
359.5973372224096
  0
ARC
  5
175
330
22
100
AcDbEntity
  8
0
  6
Continuous
 62
     7
100
AcDbCircle
 10
-190.0483093261719
 20
148.3805389404297
 30
0.0
 40
5.0
100
AcDbArc
 50
180.0000000000004
 51
209.7449029847575
  0
ARC
  5
176
330
22
100
AcDbEntity
  8
0
  6
Continuous
 62
     7
100
AcDbCircle
 10
-189.5876617431641
 20
142.2027130126953
 30
0.0
 40
2.0
100
AcDbArc
 50
209.7447728583009
 51
270.0000000000005
  0
ARC
  5
177
330
22
100
AcDbEntity
  8
0
  6
Continuous
 62
     7
100
AcDbCircle
 10
-307.0982971191406
 20
175.5950927734375
 30
0.0
 40
1.899999976158141
100
AcDbArc
 50
0.0
 51
180.0000000000004
  0
ARC
  5
178
330
22
100
AcDbEntity
  8
0
  6
Continuous
 62
     7
100
AcDbCircle
 10
-307.0982971191406
 20
180.8449401855469
 30
0.0
 40
1.899999976158141
100
AcDbArc
 50
179.7657897706779
 51
0.2342139912100873
  0
ARC
  5
179
330
22
100
AcDbEntity
  8
0
  6
Continuous
 62
     7
100
AcDbCircle
 10
-322.9983215332031
 20
175.5950927734375
 30
0.0
 40
1.899999976158141
100
AcDbArc
 50
0.0
 51
180.0000000000004
  0
ARC
  5
17A
330
22
100
AcDbEntity
  8
0
  6
Continuous
 62
     7
100
AcDbCircle
 10
-322.9983215332031
 20
180.8449401855469
 30
0.0
 40
1.899999976158141
100
AcDbArc
 50
179.76578600879
 51
0.2342102293221335
  0
ARC
  5
17B
330
22
100
AcDbEntity
  8
0
  6
Continuous
 62
     7
100
AcDbCircle
 10
-317.6983032226563
 20
203.1129608154297
 30
0.0
 40
1.899999976158141
100
AcDbArc
 50
0.0
 51
180.0000000000004
  0
ARC
  5
17C
330
22
100
AcDbEntity
  8
0
  6
Continuous
 62
     7
100
AcDbCircle
 10
-312.3983154296875
 20
203.1129608154297
 30
0.0
 40
1.899999976158141
100
AcDbArc
 50
0.0
 51
180.0000000000004
  0
CIRCLE
  5
17D
330
22
100
AcDbEntity
  8
0
  6
Continuous
 62
     7
100
AcDbCircle
 10
-315.0483093261719
 20
213.7027130126953
 30
0.0
 40
4.5
  0
CIRCLE
  5
17E
330
22
100
AcDbEntity
  8
0
  6
Continuous
 62
     7
100
AcDbCircle
 10
-315.0483093261719
 20
155.7027130126953
 30
0.0
 40
4.5
  0
ARC
  5
17F
330
22
100
AcDbEntity
  8
0
  6
Continuous
 62
     7
100
AcDbCircle
 10
-307.0982971191406
 20
167.8873138427734
 30
0.0
 40
1.899999976158141
100
AcDbArc
 50
179.7657897706779
 51
0.2342139912100873
  0
ARC
  5
180
330
22
100
AcDbEntity
  8
0
  6
Continuous
 62
     7
100
AcDbCircle
 10
-331.9983215332031
 20
173.7146453857422
 30
0.0
 40
0.3000000119209289
100
AcDbArc
 50
212.9544688095806
 51
0.0
  0
ARC
  5
181
330
22
100
AcDbEntity
  8
0
  6
Continuous
 62
     7
100
AcDbCircle
 10
-301.7983093261719
 20
187.5563507080078
 30
0.0
 40
1.899999976158141
100
AcDbArc
 50
180.0000000000004
 51
0.0
  0
ARC
  5
182
330
22
100
AcDbEntity
  8
0
  6
Continuous
 62
     7
100
AcDbCircle
 10
-301.7983093261719
 20
171.6490783691406
 30
0.0
 40
1.899999976158141
100
AcDbArc
 50
180.0000000000004
 51
0.0
  0
ARC
  5
183
330
22
100
AcDbEntity
  8
0
  6
Continuous
 62
     7
100
AcDbCircle
 10
-312.3983154296875
 20
180.4924621582031
 30
0.0
 40
1.899999976158141
100
AcDbArc
 50
359.9843552220968
 51
180.0000000000004
  0
ARC
  5
184
330
22
100
AcDbEntity
  8
0
  6
Continuous
 62
     7
100
AcDbCircle
 10
-312.3983154296875
 20
188.9129638671875
 30
0.0
 40
1.899999976158141
100
AcDbArc
 50
180.0000000000004
 51
0.0156447779038411
  0
CIRCLE
  5
185
330
22
100
AcDbEntity
  8
0
  6
Continuous
 62
     7
100
AcDbCircle
 10
-315.0483093261719
 20
184.7027130126953
 30
0.0
 40
2.0
  0
ARC
  5
186
330
22
100
AcDbEntity
  8
0
  6
Continuous
 62
     7
100
AcDbCircle
 10
-322.9983215332031
 20
188.5527191162109
 30
0.0
 40
1.899999976158141
100
AcDbArc
 50
0.0
 51
180.0000000000004
  0
ARC
  5
187
330
22
100
AcDbEntity
  8
0
  6
Continuous
 62
     7
100
AcDbCircle
 10
-328.2983093261719
 20
187.5563507080078
 30
0.0
 40
1.899999976158141
100
AcDbArc
 50
180.0000000000004
 51
0.0
  0
ARC
  5
188
330
22
100
AcDbEntity
  8
0
  6
Continuous
 62
     7
100
AcDbCircle
 10
-322.9983215332031
 20
193.8103332519531
 30
0.0
 40
1.899999976158141
100
AcDbArc
 50
180.0000000000004
 51
0.0
  0
ARC
  5
189
330
22
100
AcDbEntity
  8
0
  6
Continuous
 62
     7
100
AcDbCircle
 10
-317.6983032226563
 20
166.2924652099609
 30
0.0
 40
1.899999976158141
100
AcDbArc
 50
180.0000000000004
 51
0.0
  0
ARC
  5
18A
330
22
100
AcDbEntity
  8
0
  6
Continuous
 62
     7
100
AcDbCircle
 10
-312.3983154296875
 20
166.2924652099609
 30
0.0
 40
1.899999976158141
100
AcDbArc
 50
180.0000000000004
 51
0.0
  0
ARC
  5
18B
330
22
100
AcDbEntity
  8
0
  6
Continuous
 62
     7
100
AcDbCircle
 10
-328.2983093261719
 20
171.6490783691406
 30
0.0
 40
1.899999976158141
100
AcDbArc
 50
180.0000000000004
 51
0.0
  0
ARC
  5
18C
330
22
100
AcDbEntity
  8
0
  6
Continuous
 62
     7
100
AcDbCircle
 10
-322.9983215332031
 20
167.8873138427734
 30
0.0
 40
1.899999976158141
100
AcDbArc
 50
179.76578600879
 51
0.2342102293221335
  0
ARC
  5
18D
330
22
100
AcDbEntity
  8
0
  6
Continuous
 62
     7
100
AcDbCircle
 10
-298.0982971191406
 20
173.7146453857422
 30
0.0
 40
0.3000000119209289
100
AcDbArc
 50
180.0000000000004
 51
327.0455311904209
  0
ARC
  5
18E
330
22
100
AcDbEntity
  8
0
  6
Continuous
 62
     7
100
AcDbCircle
 10
-301.7983093261719
 20
181.8490753173828
 30
0.0
 40
1.899999976158141
100
AcDbArc
 50
0.0
 51
180.0000000000004
  0
ARC
  5
18F
330
22
100
AcDbEntity
  8
0
  6
Continuous
 62
     7
100
AcDbCircle
 10
-331.9983215332031
 20
195.6907806396484
 30
0.0
 40
0.3000000119209289
100
AcDbArc
 50
0.0
 51
147.0455311904202
  0
ARC
  5
190
330
22
100
AcDbEntity
  8
0
  6
Continuous
 62
     7
100
AcDbCircle
 10
-315.0483093261719
 20
184.7027130126953
 30
0.0
 40
20.5
100
AcDbArc
 50
327.0461378221005
 51
32.95386217790023
  0
ARC
  5
191
330
22
100
AcDbEntity
  8
0
  6
Continuous
 62
     7
100
AcDbCircle
 10
-298.0982971191406
 20
195.6907806396484
 30
0.0
 40
0.3000000119209289
100
AcDbArc
 50
32.95446880957987
 51
180.0000000000004
  0
ARC
  5
192
330
22
100
AcDbEntity
  8
0
  6
Continuous
 62
     7
100
AcDbCircle
 10
-315.0483093261719
 20
184.7027130126953
 30
0.0
 40
20.5
100
AcDbArc
 50
147.0461378220998
 51
212.9538621779009
  0
ARC
  5
193
330
22
100
AcDbEntity
  8
0
  6
Continuous
 62
     7
100
AcDbCircle
 10
-317.6983032226563
 20
180.4924621582031
 30
0.0
 40
1.899999976158141
100
AcDbArc
 50
0.0
 51
180.0156447779045
  0
ARC
  5
194
330
22
100
AcDbEntity
  8
0
  6
Continuous
 62
     7
100
AcDbCircle
 10
-317.6983032226563
 20
188.9129638671875
 30
0.0
 40
1.899999976158141
100
AcDbArc
 50
179.9843552220962
 51
0.0
  0
ARC
  5
195
330
22
100
AcDbEntity
  8
0
  6
Continuous
 62
     7
100
AcDbCircle
 10
-328.2983093261719
 20
181.8490753173828
 30
0.0
 40
1.899999976158141
100
AcDbArc
 50
0.0
 51
180.0000000000004
  0
ARC
  5
196
330
22
100
AcDbEntity
  8
0
  6
Continuous
 62
     7
100
AcDbCircle
 10
-307.0982971191406
 20
188.5527191162109
 30
0.0
 40
1.899999976158141
100
AcDbArc
 50
0.0
 51
180.0000000000004
  0
ARC
  5
197
330
22
100
AcDbEntity
  8
0
  6
Continuous
 62
     7
100
AcDbCircle
 10
-307.0982971191406
 20
193.8103332519531
 30
0.0
 40
1.899999976158141
100
AcDbArc
 50
180.0000000000004
 51
0.0
  0
ARC
  5
198
330
22
100
AcDbEntity
  8
0
  6
Continuous
 62
     7
100
AcDbCircle
 10
-322.9983215332031
 20
201.5181121826172
 30
0.0
 40
1.899999976158141
100
AcDbArc
 50
359.7657897706786
 51
180.2342139912108
  0
ARC
  5
199
330
22
100
AcDbEntity
  8
0
  6
Continuous
 62
     7
100
AcDbCircle
 10
-322.9983215332031
 20
201.5181121826172
 30
0.0
 40
1.899999976158141
100
AcDbArc
 50
359.7657897706786
 51
180.2342139912108
  0
ARC
  5
19A
330
22
100
AcDbEntity
  8
0
  6
Continuous
 62
     7
100
AcDbCircle
 10
-307.0982971191406
 20
201.5181121826172
 30
0.0
 40
1.899999976158141
100
AcDbArc
 50
359.7657860087907
 51
180.2342102293229
  0
ARC
  5
19B
330
22
100
AcDbEntity
  8
0
  6
Continuous
 62
     7
100
AcDbCircle
 10
-328.2983093261719
 20
197.75634765625
 30
0.0
 40
1.899999976158141
100
AcDbArc
 50
0.0
 51
180.0000000000004
  0
ARC
  5
19C
330
22
100
AcDbEntity
  8
0
  6
Continuous
 62
     7
100
AcDbCircle
 10
-307.0982971191406
 20
201.5181121826172
 30
0.0
 40
1.899999976158141
100
AcDbArc
 50
359.7657860087907
 51
180.2342102293229
  0
ARC
  5
19D
330
22
100
AcDbEntity
  8
0
  6
Continuous
 62
     7
100
AcDbCircle
 10
-301.7983093261719
 20
197.75634765625
 30
0.0
 40
1.899999976158141
100
AcDbArc
 50
0.0
 51
180.0000000000004
  0
CIRCLE
  5
19E
330
22
100
AcDbEntity
  8
0
  6
Continuous
 62
     7
100
AcDbCircle
 10
-315.0483093261719
 20
184.7027130126953
 30
0.0
 40
35.5
  0
CIRCLE
  5
19F
330
22
100
AcDbEntity
  8
0
  6
Continuous
 62
     7
100
AcDbCircle
 10
-315.0483093261719
 20
184.7027130126953
 30
0.0
 40
36.0
  0
CIRCLE
  5
1A0
330
22
100
AcDbEntity
  8
0
  6
Continuous
 62
     7
100
AcDbCircle
 10
-315.0483093261719
 20
184.7027130126953
 30
0.0
 40
44.5
  0
TEXT
  5
1A1
330
22
100
AcDbEntity
  8
0
  6
Continuous
 62
     7
100
AcDbText
 10
-268.0341424942017
 20
83.52456665039062
 30
0.0
 40
7.0
  1
ＤＬ－ＵＬＳＳ－４０Ｚ
 41
0.8440126641457824
100
AcDbText
  0
SOLID
  5
1A2
330
22
100
AcDbEntity
  8
0
  6
Continuous
 62
     7
100
AcDbTrace
 10
-170.0483093261719
 20
212.7027130126953
 30
0.0
 11
-173.0483093261719
 21
212.7027130126953
 31
0.0
 12
-170.0483093261719
 22
223.2027130126953
 32
0.0
 13
-173.0483093261719
 23
223.2027130126953
 33
0.0
  0
SOLID
  5
1A3
330
22
100
AcDbEntity
  8
0
  6
Continuous
 62
     7
100
AcDbTrace
 10
-183.0483093261719
 20
212.7027130126953
 30
0.0
 11
-186.0483093261719
 21
212.7027130126953
 31
0.0
 12
-183.0483093261719
 22
229.2027130126953
 32
0.0
 13
-186.0483093261719
 23
229.2027130126953
 33
0.0
  0
SOLID
  5
1A4
330
22
100
AcDbEntity
  8
0
  6
Continuous
 62
     7
100
AcDbTrace
 10
-183.0483093261719
 20
140.2027130126953
 30
0.0
 11
-186.0483093261719
 21
140.2027130126953
 31
0.0
 12
-183.0483093261719
 22
184.7027130126953
 32
0.0
 13
-186.0483093261719
 23
184.7027130126953
 33
0.0
  0
DIMENSION
  5
1A5
330
22
100
AcDbEntity
  8
0
  6
Continuous
 62
     7
100
AcDbDimension
  2
*D1
 10
-149.0483093261719
 20
255.9747772216797
 30
0.0
 11
-172.0483093261719
 21
255.9747772216797
 31
0.0
 71
     5
 42
-1.0
  3
DIMSTYLE1
100
AcDbAlignedDimension
 13
-195.0483093261719
 23
221.0248870849609
 33
0.0
 14
-149.0483093261719
 24
211.7027130126953
 34
0.0
100
AcDbRotatedDimension
  0
DIMENSION
  5
1A6
330
22
100
AcDbEntity
  8
0
  6
Continuous
 62
     7
100
AcDbDimension
  2
*D2
 10
-173.0483093261719
 20
244.8328247070314
 30
0.0
 11
-129.6497802734375
 21
244.8328247070314
 31
0.0
 71
     5
 42
-1.0
  3
DIMSTYLE2
100
AcDbAlignedDimension
 13
-183.0483093261719
 23
229.2027130126953
 33
0.0
 14
-173.0483093261719
 24
223.2027130126953
 34
0.0
100
AcDbRotatedDimension
  0
DIMENSION
  5
1A7
330
22
100
AcDbEntity
  8
0
  6
Continuous
 62
     7
100
AcDbDimension
  2
*D3
 10
-195.0483093261719
 20
244.8328247070314
 30
0.0
 11
-189.0483093261719
 21
244.8328247070314
 31
0.0
 71
     5
 42
-1.0
  3
DIMSTYLE3
100
AcDbAlignedDimension
 13
-183.0483093261719
 23
247.1188201904297
 33
0.0
 14
-195.0483093261719
 24
258.2607727050781
 34
0.0
100
AcDbRotatedDimension
  0
DIMENSION
  5
1A8
330
22
100
AcDbEntity
  8
0
  6
Continuous
 62
     7
100
AcDbDimension
  2
*D4
 10
-348.7446368302674
 20
155.637140375351
 30
0.0
 11
-274.6343688964844
 21
219.5627288818359
 31
0.0
 70
     3
 71
     5
 42
-1.0
  3
DIMSTYLE4
100
AcDbDiametricDimension
 15
-281.3519818220764
 25
213.7682856500396
 35
0.0
 40
0.0
  0
INSERT
  5
1A9
330
22
100
AcDbEntity
  8
0
  6
Continuous
 62
     7
100
AcDbBlockReference
  2
KOZU0001
 10
-155.5956726074219
 20
206.8840484619141
 30
0.0
  0
ENDSEC
  0
SECTION
  2
OBJECTS
  0
DICTIONARY
  5
C
330
0
100
AcDbDictionary
281
     1
  3
ACAD_COLOR
350
1B
  3
ACAD_GROUP
350
D
  3
ACAD_LAYOUT
350
19
  3
ACAD_MATERIAL
350
1A
  3
ACAD_MLINESTYLE
350
16
  3
ACAD_PLOTSETTINGS
350
18
  3
ACAD_PLOTSTYLENAME
350
E
  3
ACAD_TABLESTYLE
350
1C
  3
AcDbVariableDictionary
350
1B5
  0
DICTIONARY
  5
1B
102
{ACAD_REACTORS
330
C
102
}
330
C
100
AcDbDictionary
281
     1
  0
DICTIONARY
  5
D
102
{ACAD_REACTORS
330
C
102
}
330
C
100
AcDbDictionary
281
     1
  0
DICTIONARY
  5
19
102
{ACAD_REACTORS
330
C
102
}
330
C
100
AcDbDictionary
281
     1
  3
Model
350
25
  3
レイアウト1
350
21
  0
DICTIONARY
  5
1A
102
{ACAD_REACTORS
330
C
102
}
330
C
100
AcDbDictionary
281
     1
  0
DICTIONARY
  5
16
102
{ACAD_REACTORS
330
C
102
}
330
C
100
AcDbDictionary
281
     1
  3
Standard
350
17
  0
DICTIONARY
  5
18
102
{ACAD_REACTORS
330
C
102
}
330
C
100
AcDbDictionary
281
     1
  0
ACDBDICTIONARYWDFLT
  5
E
102
{ACAD_REACTORS
330
C
102
}
330
C
100
AcDbDictionary
281
     1
  3
Normal
350
F
100
AcDbDictionaryWithDefault
340
F
  0
DICTIONARY
  5
1C
102
{ACAD_REACTORS
330
C
102
}
330
C
100
AcDbDictionary
281
     1
  3
Standard
350
1D
  0
DICTIONARY
  5
1B5
102
{ACAD_REACTORS
330
C
102
}
330
C
100
AcDbDictionary
281
     1
  3
CTABLESTYLE
350
1B6
  0
LAYOUT
  5
25
102
{ACAD_REACTORS
330
19
102
}
330
19
100
AcDbPlotSettings
  1

  2
PDF reDirect v2
  4
A3
  6

 40
3.174999952316284
 41
3.174999952316284
 42
3.17498779296875
 43
3.17498779296875
 44
297.0530090332031
 45
420.1583251953125
 46
0.0
 47
0.0
 48
0.0
 49
0.0
140
0.0
141
0.0
142
1.0
143
1.0
 70
 11952
 72
     1
 73
     1
 74
     2
  7
C:\Users\ck\AppData\Roaming\Autodesk\AutoCAD 2005\R16.1\jpn\Plot Styles\black.ctb
 75
    16
147
1.0
 76
     0
 77
     2
 78
   300
148
423.0
149
2.0
100
AcDbLayout
  1
Model
 70
     1
 71
     0
 10
0.0
 20
0.0
 11
12.0
 21
9.0
 12
0.0
 22
0.0
 32
0.0
 14
0.0
 24
0.0
 34
0.0
 15
0.0
 25
0.0
 35
0.0
146
0.0
 13
0.0
 23
0.0
 33
0.0
 16
1.0
 26
0.0
 36
0.0
 17
0.0
 27
1.0
 37
0.0
 76
     0
330
22
1001
ACAD_PSEXT
1000
PDF reDirect v2
1000
PDF reDirect Pro
1000
PDF_REDIRECT_PORT:
1000
PDF reDirect provided by EXP Systems
1070
     0
  0
LAYOUT
  5
21
102
{ACAD_REACTORS
330
19
102
}
330
19
100
AcDbPlotSettings
  1

  2
PDF reDirect v2
  4

  6

 40
0.0
 41
0.0
 42
0.0
 43
0.0
 44
0.0
 45
0.0
 46
0.0
 47
0.0
 48
0.0
 49
0.0
140
0.0
141
0.0
142
1.0
143
1.0
 70
   688
 72
     0
 73
     0
 74
     5
  7
C:\Users\ck\AppData\Roaming\Autodesk\AutoCAD 2005\R16.1\jpn\Plot Styles\black.ctb
 75
    16
147
1.0
 76
     0
 77
     2
 78
   300
148
0.0
149
0.0
100
AcDbLayout
  1
レイアウト1
 70
     1
 71
     1
 10
-423.0
 20
-2.0
 11
-5.0
 21
293.0
 12
0.0
 22
0.0
 32
0.0
 14
1.000000000000000E+20
 24
1.000000000000000E+20
 34
1.000000000000000E+20
 15
-1.000000000000000E+20
 25
-1.000000000000000E+20
 35
-1.000000000000000E+20
146
0.0
 13
0.0
 23
0.0
 33
0.0
 16
1.0
 26
0.0
 36
0.0
 17
0.0
 27
1.0
 37
0.0
 76
     0
330
1E
  0
MLINESTYLE
  5
17
102
{ACAD_REACTORS
330
16
102
}
330
16
100
AcDbMlineStyle
  2
STANDARD
 70
     0
  3

 62
   256
 51
90.0
 52
90.0
 71
     2
 49
0.5
 62
   256
  6
BYLAYER
 49
-0.5
 62
   256
  6
BYLAYER
  0
ACDBPLACEHOLDER
  5
F
102
{ACAD_REACTORS
330
E
102
}
330
E
  0
TABLESTYLE
  5
1D
102
{ACAD_REACTORS
330
1C
102
}
330
1C
100
AcDbTableStyle
  3
Standard
 70
     0
 71
     0
 40
0.06
 41
0.06
280
     0
281
     0
  7
STANDARD
140
0.18
170
     2
 62
     0
 63
     7
283
     0
274
    -2
284
     1
 64
     0
275
    -2
285
     1
 65
     0
276
    -2
286
     1
 66
     0
277
    -2
287
     1
 67
     0
278
    -2
288
     1
 68
     0
279
    -2
289
     1
 69
     0
  7
STANDARD
140
0.25
170
     5
 62
     0
 63
     7
283
     0
274
    -2
284
     1
 64
     0
275
    -2
285
     1
 65
     0
276
    -2
286
     1
 66
     0
277
    -2
287
     1
 67
     0
278
    -2
288
     1
 68
     0
279
    -2
289
     1
 69
     0
  7
STANDARD
140
0.18
170
     5
 62
     0
 63
     7
283
     0
274
    -2
284
     1
 64
     0
275
    -2
285
     1
 65
     0
276
    -2
286
     1
 66
     0
277
    -2
287
     1
 67
     0
278
    -2
288
     1
 68
     0
279
    -2
289
     1
 69
     0
  0
DICTIONARYVAR
  5
1B6
102
{ACAD_REACTORS
330
1B5
102
}
330
1B5
100
DictionaryVariables
280
     0
  1
STANDARD
  0
ENDSEC
  0
EOF
