  0
SECTION
  2
HEADER
  9
$ACADVER
  1
AC1018
  9
$ACADMAINTVER
 70
    39
  9
$DWGCODEPAGE
  3
ANSI_932
  9
$INSBASE
 10
0.0
 20
0.0
 30
0.0
  9
$EXTMIN
 10
-408.5024098985623
 20
47.23568800002761
 30
-0.0015258207003583
  9
$EXTMAX
 10
-79.38864047078959
 20
256.2330328706105
 30
0.0000000349246037
  9
$LIMMIN
 10
-423.0
 20
-2.0
  9
$LIMMAX
 10
-5.0
 20
293.0
  9
$ORTHOMODE
 70
     0
  9
$REGENMODE
 70
     1
  9
$FILLMODE
 70
     1
  9
$QTEXTMODE
 70
     0
  9
$MIRRTEXT
 70
     0
  9
$LTSCALE
 40
1.0
  9
$ATTMODE
 70
     1
  9
$TEXTSIZE
 40
0.2
  9
$TRACEWID
 40
0.05
  9
$TEXTSTYLE
  7
STANDARD
  9
$CLAYER
  8
0
  9
$CELTYPE
  6
CONTINUOUS
  9
$CECOLOR
 62
   256
  9
$CELTSCALE
 40
1.0
  9
$DISPSILH
 70
     0
  9
$DIMSCALE
 40
1.0
  9
$DIMASZ
 40
1.0
  9
$DIMEXO
 40
2.54
  9
$DIMDLI
 40
0.38
  9
$DIMRND
 40
0.0
  9
$DIMDLE
 40
0.0
  9
$DIMEXE
 40
2.54
  9
$DIMTP
 40
0.0
  9
$DIMTM
 40
0.0
  9
$DIMTXT
 40
3.0
  9
$DIMCEN
 40
0.09
  9
$DIMTSZ
 40
0.0
  9
$DIMTOL
 70
     0
  9
$DIMLIM
 70
     0
  9
$DIMTIH
 70
     0
  9
$DIMTOH
 70
     0
  9
$DIMSE1
 70
     0
  9
$DIMSE2
 70
     0
  9
$DIMTAD
 70
     1
  9
$DIMZIN
 70
     0
  9
$DIMBLK
  1

  9
$DIMASO
 70
     1
  9
$DIMSHO
 70
     0
  9
$DIMPOST
  1

  9
$DIMAPOST
  1

  9
$DIMALT
 70
     0
  9
$DIMALTD
 70
     2
  9
$DIMALTF
 40
25.4
  9
$DIMLFAC
 40
1.0
  9
$DIMTOFL
 70
     0
  9
$DIMTVP
 40
1.0
  9
$DIMTIX
 70
     0
  9
$DIMSOXD
 70
     0
  9
$DIMSAH
 70
     1
  9
$DIMBLK1
  1

  9
$DIMBLK2
  1

  9
$DIMSTYLE
  2
DIMSTYLE1
  9
$DIMCLRD
 70
     0
  9
$DIMCLRE
 70
     0
  9
$DIMCLRT
 70
     0
  9
$DIMTFAC
 40
1.0
  9
$DIMGAP
 40
1.5
  9
$DIMJUST
 70
     0
  9
$DIMSD1
 70
     0
  9
$DIMSD2
 70
     0
  9
$DIMTOLJ
 70
     1
  9
$DIMTZIN
 70
     0
  9
$DIMALTZ
 70
     0
  9
$DIMALTTZ
 70
     0
  9
$DIMUPT
 70
     0
  9
$DIMDEC
 70
     4
  9
$DIMTDEC
 70
     4
  9
$DIMALTU
 70
     2
  9
$DIMALTTD
 70
     2
  9
$DIMTXSTY
  7
STANDARD
  9
$DIMAUNIT
 70
     0
  9
$DIMADEC
 70
     0
  9
$DIMALTRND
 40
0.0
  9
$DIMAZIN
 70
     0
  9
$DIMDSEP
 70
    46
  9
$DIMATFIT
 70
     3
  9
$DIMFRAC
 70
     0
  9
$DIMLDRBLK
  1

  9
$DIMLUNIT
 70
     2
  9
$DIMLWD
 70
    -2
  9
$DIMLWE
 70
    -2
  9
$DIMTMOVE
 70
     0
  9
$LUNITS
 70
     2
  9
$LUPREC
 70
     4
  9
$SKETCHINC
 40
0.1
  9
$FILLETRAD
 40
0.0
  9
$AUNITS
 70
     0
  9
$AUPREC
 70
     0
  9
$MENU
  1
.
  9
$ELEVATION
 40
0.0
  9
$PELEVATION
 40
0.0
  9
$THICKNESS
 40
0.0
  9
$LIMCHECK
 70
     0
  9
$CHAMFERA
 40
0.0
  9
$CHAMFERB
 40
0.0
  9
$CHAMFERC
 40
0.0
  9
$CHAMFERD
 40
0.0
  9
$SKPOLY
 70
     0
  9
$TDCREATE
 40
2457707.702605590
  9
$TDUCREATE
 40
2457707.327605590
  9
$TDUPDATE
 40
2457707.703090891
  9
$TDUUPDATE
 40
2457707.328090891
  9
$TDINDWG
 40
0.0004870370
  9
$TDUSRTIMER
 40
0.0004870370
  9
$USRTIMER
 70
     1
  9
$ANGBASE
 50
0.0
  9
$ANGDIR
 70
     0
  9
$PDMODE
 70
     0
  9
$PDSIZE
 40
0.0
  9
$PLINEWID
 40
0.0
  9
$SPLFRAME
 70
     0
  9
$SPLINETYPE
 70
     6
  9
$SPLINESEGS
 70
     8
  9
$HANDSEED
  5
201
  9
$SURFTAB1
 70
     6
  9
$SURFTAB2
 70
     6
  9
$SURFTYPE
 70
     6
  9
$SURFU
 70
     6
  9
$SURFV
 70
     6
  9
$UCSBASE
  2

  9
$UCSNAME
  2

  9
$UCSORG
 10
0.0
 20
0.0
 30
0.0
  9
$UCSXDIR
 10
1.0
 20
0.0
 30
0.0
  9
$UCSYDIR
 10
0.0
 20
1.0
 30
0.0
  9
$UCSORTHOREF
  2

  9
$UCSORTHOVIEW
 70
     0
  9
$UCSORGTOP
 10
0.0
 20
0.0
 30
0.0
  9
$UCSORGBOTTOM
 10
0.0
 20
0.0
 30
0.0
  9
$UCSORGLEFT
 10
0.0
 20
0.0
 30
0.0
  9
$UCSORGRIGHT
 10
0.0
 20
0.0
 30
0.0
  9
$UCSORGFRONT
 10
0.0
 20
0.0
 30
0.0
  9
$UCSORGBACK
 10
0.0
 20
0.0
 30
0.0
  9
$PUCSBASE
  2

  9
$PUCSNAME
  2

  9
$PUCSORG
 10
0.0
 20
0.0
 30
0.0
  9
$PUCSXDIR
 10
1.0
 20
0.0
 30
0.0
  9
$PUCSYDIR
 10
0.0
 20
1.0
 30
0.0
  9
$PUCSORTHOREF
  2

  9
$PUCSORTHOVIEW
 70
     0
  9
$PUCSORGTOP
 10
0.0
 20
0.0
 30
0.0
  9
$PUCSORGBOTTOM
 10
0.0
 20
0.0
 30
0.0
  9
$PUCSORGLEFT
 10
0.0
 20
0.0
 30
0.0
  9
$PUCSORGRIGHT
 10
0.0
 20
0.0
 30
0.0
  9
$PUCSORGFRONT
 10
0.0
 20
0.0
 30
0.0
  9
$PUCSORGBACK
 10
0.0
 20
0.0
 30
0.0
  9
$USERI1
 70
     0
  9
$USERI2
 70
     0
  9
$USERI3
 70
     0
  9
$USERI4
 70
     0
  9
$USERI5
 70
     0
  9
$USERR1
 40
0.0
  9
$USERR2
 40
0.0
  9
$USERR3
 40
0.0
  9
$USERR4
 40
0.0
  9
$USERR5
 40
0.0
  9
$WORLDVIEW
 70
     1
  9
$SHADEDGE
 70
     3
  9
$SHADEDIF
 70
    70
  9
$TILEMODE
 70
     1
  9
$MAXACTVP
 70
    64
  9
$PINSBASE
 10
0.0
 20
0.0
 30
0.0
  9
$PLIMCHECK
 70
     0
  9
$PEXTMIN
 10
1.000000000000000E+20
 20
1.000000000000000E+20
 30
1.000000000000000E+20
  9
$PEXTMAX
 10
-1.000000000000000E+20
 20
-1.000000000000000E+20
 30
-1.000000000000000E+20
  9
$PLIMMIN
 10
-423.0
 20
-2.0
  9
$PLIMMAX
 10
-5.0
 20
293.0
  9
$UNITMODE
 70
     0
  9
$VISRETAIN
 70
     1
  9
$PLINEGEN
 70
     0
  9
$PSLTSCALE
 70
     1
  9
$TREEDEPTH
 70
  3020
  9
$CMLSTYLE
  2
Standard
  9
$CMLJUST
 70
     0
  9
$CMLSCALE
 40
1.0
  9
$PROXYGRAPHICS
 70
     1
  9
$MEASUREMENT
 70
     0
  9
$CELWEIGHT
370
    -1
  9
$ENDCAPS
280
     0
  9
$JOINSTYLE
280
     0
  9
$LWDISPLAY
290
     0
  9
$INSUNITS
 70
     0
  9
$HYPERLINKBASE
  1

  9
$STYLESHEET
  1

  9
$XEDIT
290
     1
  9
$CEPSNTYPE
380
     0
  9
$PSTYLEMODE
290
     1
  9
$FINGERPRINTGUID
  2
{F3B1BE6F-4472-472B-8AC1-B3A906088CE0}
  9
$VERSIONGUID
  2
{C2E10E10-481C-4641-A24F-C3D1776F0C15}
  9
$EXTNAMES
290
     1
  9
$PSVPSCALE
 40
0.0
  9
$OLESTARTUP
290
     0
  9
$SORTENTS
280
   127
  9
$INDEXCTL
280
     0
  9
$HIDETEXT
280
     0
  9
$XCLIPFRAME
290
     0
  9
$HALOGAP
280
     0
  9
$OBSCOLOR
 70
   257
  9
$OBSLTYPE
280
     0
  9
$INTERSECTIONDISPLAY
280
     0
  9
$INTERSECTIONCOLOR
 70
   257
  9
$DIMASSOC
280
     1
  9
$PROJECTNAME
  1

  0
ENDSEC
  0
SECTION
  2
CLASSES
  0
CLASS
  1
ACDBDICTIONARYWDFLT
  2
AcDbDictionaryWithDefault
  3
ObjectDBX Classes
 90
        0
 91
        1
280
     0
281
     0
  0
CLASS
  1
TABLESTYLE
  2
AcDbTableStyle
  3
ObjectDBX Classes
 90
     2047
 91
        1
280
     0
281
     0
  0
CLASS
  1
DICTIONARYVAR
  2
AcDbDictionaryVar
  3
ObjectDBX Classes
 90
        0
 91
        1
280
     0
281
     0
  0
ENDSEC
  0
SECTION
  2
TABLES
  0
TABLE
  2
VPORT
  5
8
330
0
100
AcDbSymbolTable
 70
     2
  0
VPORT
  5
200
330
8
100
AcDbSymbolTableRecord
100
AcDbViewportTableRecord
  2
*Active
 70
     0
 10
0.0
 20
0.0
 11
1.0
 21
1.0
 12
-214.0
 22
145.5
 13
0.0
 23
0.0
 14
1.0
 24
1.0
 15
0.0
 25
0.0
 16
0.0
 26
0.0
 36
1.0
 17
0.0
 27
0.0
 37
0.0
 40
297.3258869908016
 41
1.555263157894736
 42
50.0
 43
0.0
 44
0.0
 50
0.0
 51
0.0
 71
     0
 72
   100
 73
     1
 74
     1
 75
     0
 76
     0
 77
     0
 78
     0
281
     0
 65
     1
110
0.0
120
0.0
130
0.0
111
1.0
121
0.0
131
0.0
112
0.0
122
1.0
132
0.0
 79
     0
146
0.0
  0
ENDTAB
  0
TABLE
  2
LTYPE
  5
5
330
0
100
AcDbSymbolTable
 70
     6
  0
LTYPE
  5
13
330
5
100
AcDbSymbolTableRecord
100
AcDbLinetypeTableRecord
  2
ByBlock
 70
     0
  3

 72
    65
 73
     0
 40
0.0
  0
LTYPE
  5
14
330
5
100
AcDbSymbolTableRecord
100
AcDbLinetypeTableRecord
  2
ByLayer
 70
     0
  3

 72
    65
 73
     0
 40
0.0
  0
LTYPE
  5
15
330
5
100
AcDbSymbolTableRecord
100
AcDbLinetypeTableRecord
  2
CONTINUOUS
 70
     0
  3
Solid line
 72
    65
 73
     0
 40
0.0
  0
LTYPE
  5
26
330
5
100
AcDbSymbolTableRecord
100
AcDbLinetypeTableRecord
  2
DASHED
 70
     0
  3
__ __ __ __ __ __ __ __ __ __ __ __ __ __ __
 72
    65
 73
     2
 40
3.5
 49
2.0
 74
     0
 49
-1.5
 74
     0
  0
LTYPE
  5
27
330
5
100
AcDbSymbolTableRecord
100
AcDbLinetypeTableRecord
  2
CENTER
 70
     0
  3
____ _ ____ _ ____ _ ____ _ ____ _ ____ _ ____
 72
    65
 73
     4
 40
17.5
 49
13.0
 74
     0
 49
-1.5
 74
     0
 49
1.5
 74
     0
 49
-1.5
 74
     0
  0
LTYPE
  5
28
330
5
100
AcDbSymbolTableRecord
100
AcDbLinetypeTableRecord
  2
PHANTOM
 70
     0
  3
_____ _ _ _____ _ _ _____ _ _ _____ _ _ ____  
 72
    65
 73
     6
 40
15.5
 49
8.0
 74
     0
 49
-1.5
 74
     0
 49
1.5
 74
     0
 49
-1.5
 74
     0
 49
1.5
 74
     0
 49
-1.5
 74
     0
  0
LTYPE
  5
29
330
5
100
AcDbSymbolTableRecord
100
AcDbLinetypeTableRecord
  2
DOT
 70
     0
  3
. . . . . . . . . . . . . . . . . . . . . . . .
 72
    65
 73
     2
 40
0.25
 49
0.0
 74
     0
 49
-0.25
 74
     0
  0
LTYPE
  5
2A
330
5
100
AcDbSymbolTableRecord
100
AcDbLinetypeTableRecord
  2
HIDDEN
 70
     0
  3
__ __ __ __ __ __ __ __ __ __ __ __ __ __ __
 72
    65
 73
     2
 40
3.5
 49
2.0
 74
     0
 49
-1.5
 74
     0
  0
ENDTAB
  0
TABLE
  2
LAYER
  5
2
330
0
100
AcDbSymbolTable
 70
     3
  0
LAYER
  5
10
330
2
100
AcDbSymbolTableRecord
100
AcDbLayerTableRecord
  2
0
 70
     0
 62
     7
  6
CONTINUOUS
370
    -3
390
F
  0
LAYER
  5
2B
330
2
100
AcDbSymbolTableRecord
100
AcDbLayerTableRecord
  2
1
 70
     0
 62
     7
  6
CONTINUOUS
370
    -3
390
F
  0
LAYER
  5
2C
330
2
100
AcDbSymbolTableRecord
100
AcDbLayerTableRecord
  2
DEFPOINTS
 70
     0
 62
     7
  6
CONTINUOUS
290
     0
370
    -3
390
F
  0
ENDTAB
  0
TABLE
  2
STYLE
  5
3
330
0
100
AcDbSymbolTable
 70
     2
  0
STYLE
  5
11
330
3
100
AcDbSymbolTableRecord
100
AcDbTextStyleTableRecord
  2
STANDARD
 70
     0
 40
0.0
 41
1.0
 50
0.0
 71
     0
 42
0.2
  3

  4

1001
ACAD
1000
MS Gothic
1071
    32817
  0
ENDTAB
  0
TABLE
  2
VIEW
  5
6
330
0
100
AcDbSymbolTable
 70
     0
  0
ENDTAB
  0
TABLE
  2
UCS
  5
7
330
0
100
AcDbSymbolTable
 70
     0
  0
ENDTAB
  0
TABLE
  2
APPID
  5
9
330
0
100
AcDbSymbolTable
 70
     2
  0
APPID
  5
12
330
9
100
AcDbSymbolTableRecord
100
AcDbRegAppTableRecord
  2
ACAD
 70
     0
  0
APPID
  5
1F5
330
9
100
AcDbSymbolTableRecord
100
AcDbRegAppTableRecord
  2
ACAD_PSEXT
 70
     0
  0
ENDTAB
  0
TABLE
  2
DIMSTYLE
  5
A
330
0
100
AcDbSymbolTable
 70
     5
100
AcDbDimStyleTable
 71
     1
340
2D
  0
DIMSTYLE
105
2D
102
{ACAD_REACTORS
330
1EE
102
}
330
A
100
AcDbSymbolTableRecord
100
AcDbDimStyleTableRecord
  2
DIMSTYLE1
 70
     0
 41
1.0
 42
2.54
 44
2.54
 73
     0
 74
     0
 75
     1
 76
     1
 77
     1
140
3.0
145
1.0
147
1.5
172
     1
173
     1
279
     2
340
11
  0
DIMSTYLE
105
2E
102
{ACAD_REACTORS
330
1F0
102
}
330
A
100
AcDbSymbolTableRecord
100
AcDbDimStyleTableRecord
  2
DIMSTYLE2
 70
     0
 41
1.0
 42
2.54
 44
2.54
 73
     0
 74
     0
 77
     1
140
3.0
145
1.0
147
1.5
172
     1
173
     1
279
     2
340
11
  0
DIMSTYLE
105
2F
102
{ACAD_REACTORS
330
1F1
102
}
330
A
100
AcDbSymbolTableRecord
100
AcDbDimStyleTableRecord
  2
DIMSTYLE3
 70
     0
 41
1.0
 42
2.54
 44
2.54
 73
     0
 74
     0
 77
     1
140
3.0
145
1.0
147
1.5
172
     1
173
     1
279
     2
340
11
  0
DIMSTYLE
105
30
102
{ACAD_REACTORS
330
1F2
102
}
330
A
100
AcDbSymbolTableRecord
100
AcDbDimStyleTableRecord
  2
DIMSTYLE4
 70
     0
 41
1.0
 42
2.54
 44
2.54
 73
     0
 74
     0
 77
     1
140
3.0
145
1.0
147
1.5
172
     1
173
     1
279
     2
340
11
  0
ENDTAB
  0
TABLE
  2
BLOCK_RECORD
  5
1
330
0
100
AcDbSymbolTable
 70
     7
  0
BLOCK_RECORD
  5
22
330
1
100
AcDbSymbolTableRecord
100
AcDbBlockTableRecord
  2
*Model_Space
340
25
  0
BLOCK_RECORD
  5
1E
330
1
100
AcDbSymbolTableRecord
100
AcDbBlockTableRecord
  2
*Paper_Space
340
21
  0
BLOCK_RECORD
  5
34
330
1
100
AcDbSymbolTableRecord
100
AcDbBlockTableRecord
  2
_OPEN30
340
0
102
{BLKREFS
331
3E
331
3F
331
47
331
48
331
53
331
54
331
5D
331
5E
102
}
  0
BLOCK_RECORD
  5
3A
330
1
100
AcDbSymbolTableRecord
100
AcDbBlockTableRecord
  2
*D1
340
0
  0
BLOCK_RECORD
  5
44
330
1
100
AcDbSymbolTableRecord
100
AcDbBlockTableRecord
  2
*D2
340
0
  0
BLOCK_RECORD
  5
50
330
1
100
AcDbSymbolTableRecord
100
AcDbBlockTableRecord
  2
*D3
340
0
  0
BLOCK_RECORD
  5
5A
330
1
100
AcDbSymbolTableRecord
100
AcDbBlockTableRecord
  2
*D4
340
0
  0
BLOCK_RECORD
  5
66
330
1
100
AcDbSymbolTableRecord
100
AcDbBlockTableRecord
  2
KOZU0001
340
0
102
{BLKREFS
331
1EF
102
}
  0
ENDTAB
  0
ENDSEC
  0
SECTION
  2
BLOCKS
  0
BLOCK
  5
23
330
22
100
AcDbEntity
  8
0
100
AcDbBlockBegin
  2
*Model_Space
 70
     0
 10
0.0
 20
0.0
 30
0.0
  3
*Model_Space
  1

  0
ENDBLK
  5
24
330
22
100
AcDbEntity
  8
0
100
AcDbBlockEnd
  0
BLOCK
  5
1F
330
1E
100
AcDbEntity
 67
     1
  8
0
100
AcDbBlockBegin
  2
*Paper_Space
 70
     0
 10
0.0
 20
0.0
 30
0.0
  3
*Paper_Space
  1

  0
ENDBLK
  5
20
330
1E
100
AcDbEntity
 67
     1
  8
0
100
AcDbBlockEnd
  0
BLOCK
  5
35
330
34
100
AcDbEntity
  8
0
100
AcDbBlockBegin
  2
_OPEN30
 70
     0
 10
0.0
 20
0.0
 30
0.0
  3
_OPEN30
  1

  0
LINE
  5
36
330
34
100
AcDbEntity
  8
0
  6
ByBlock
 62
     0
100
AcDbLine
 10
0.0
 20
0.0
 30
0.0
 11
-2.999999999999993
 21
-1.000000000000017
 31
0.0
  0
LINE
  5
37
330
34
100
AcDbEntity
  8
0
  6
ByBlock
 62
     0
100
AcDbLine
 10
0.0
 20
0.0
 30
0.0
 11
-3.000000000000006
 21
0.9999999999999815
 31
0.0
  0
LINE
  5
38
330
34
100
AcDbEntity
  8
0
  6
ByBlock
 62
     0
100
AcDbLine
 10
0.0
 20
0.0
 30
0.0
 11
-3.0
 21
0.0
 31
0.0
  0
ENDBLK
  5
39
330
34
100
AcDbEntity
  8
0
100
AcDbBlockEnd
  0
BLOCK
  5
3B
330
3A
100
AcDbEntity
  8
0
100
AcDbBlockBegin
  2
*D1
 70
     1
 10
0.0
 20
0.0
 30
0.0
  3
*D1
  1

  0
LINE
  5
3C
330
3A
100
AcDbEntity
  8
0
  6
Continuous
 62
     7
100
AcDbLine
 10
-301.1306457519531
 20
202.5872650146484
 30
0.0
 11
-289.2113342285156
 21
212.8691864013672
 31
0.0
  0
LINE
  5
3D
330
3A
100
AcDbEntity
  8
0
  6
Continuous
 62
     7
100
AcDbLine
 10
-386.6943696678363
 20
128.7777141879229
 30
0.0
 11
-303.4022489845074
 21
200.6277194668622
 31
0.0
  0
INSERT
  5
3E
330
3A
100
AcDbEntity
  8
0
  6
Continuous
 62
     7
100
AcDbBlockReference
  2
_OPEN30
 10
-388.9659729003906
 20
126.8181686401367
 30
0.0
 50
220.7819314845121
  0
INSERT
  5
3F
330
3A
100
AcDbEntity
  8
0
  6
Continuous
 62
     7
100
AcDbBlockReference
  2
_OPEN30
 10
-301.1306457519531
 20
202.5872650146484
 30
0.0
 50
40.78193148451138
  0
TEXT
  5
40
330
3A
100
AcDbEntity
  8
0
  6
Continuous
 62
     7
100
AcDbText
 10
-298.1354527341917
 20
206.1591505388109
 30
0.0
 40
3.0
  1
%%C116
 50
40.79999840328777
 41
1.164054347429903
100
AcDbText
  0
POINT
  5
41
330
3A
100
AcDbEntity
  8
DEFPOINTS
  6
Continuous
 62
     7
100
AcDbPoint
 10
-388.9659729003906
 20
126.8181686401367
 30
0.0
  0
POINT
  5
42
330
3A
100
AcDbEntity
  8
DEFPOINTS
  6
Continuous
 62
     7
100
AcDbPoint
 10
-301.1306457519531
 20
202.5872650146484
 30
0.0
  0
ENDBLK
  5
43
330
3A
100
AcDbEntity
  8
0
100
AcDbBlockEnd
  0
BLOCK
  5
45
330
44
100
AcDbEntity
  8
0
100
AcDbBlockBegin
  2
*D2
 70
     1
 10
0.0
 20
0.0
 30
0.0
  3
*D2
  1

  0
LINE
  5
46
330
44
100
AcDbEntity
  8
0
  6
Continuous
 62
     7
100
AcDbLine
 10
-210.0483093261719
 20
240.5313568115234
 30
0.0
 11
-161.0483093261719
 21
240.5313568115234
 31
0.0
  0
INSERT
  5
47
330
44
100
AcDbEntity
  8
0
  6
Continuous
 62
     7
100
AcDbBlockReference
  2
_OPEN30
 10
-213.0483093261719
 20
240.5313568115234
 30
0.0
 50
180.0000000000004
  0
INSERT
  5
48
330
44
100
AcDbEntity
  8
0
  6
Continuous
 62
     7
100
AcDbBlockReference
  2
_OPEN30
 10
-158.0483093261719
 20
240.5313568115234
 30
0.0
  0
LINE
  5
49
330
44
100
AcDbEntity
  8
0
  6
Continuous
 62
     7
100
AcDbLine
 10
-213.0483093261719
 20
225.2427130126953
 30
0.0
 11
-213.0483093261719
 21
242.8173522949219
 31
0.0
  0
LINE
  5
4A
330
44
100
AcDbEntity
  8
0
  6
Continuous
 62
     7
100
AcDbLine
 10
-158.0483093261719
 20
221.2427130126953
 30
0.0
 11
-158.0483093261719
 21
242.8173522949219
 31
0.0
  0
TEXT
  5
4B
330
44
100
AcDbEntity
  8
0
  6
Continuous
 62
     7
100
AcDbText
 10
-197.1183097958565
 20
241.2813568115234
 30
0.0
 40
3.0
  1
最大挟み代　５５
 41
0.8454512278006642
100
AcDbText
  0
POINT
  5
4C
330
44
100
AcDbEntity
  8
DEFPOINTS
  6
Continuous
 62
     7
100
AcDbPoint
 10
-213.0483093261719
 20
222.7027130126953
 30
0.0
  0
POINT
  5
4D
330
44
100
AcDbEntity
  8
DEFPOINTS
  6
Continuous
 62
     7
100
AcDbPoint
 10
-158.0483093261719
 20
218.7027130126953
 30
0.0
  0
POINT
  5
4E
330
44
100
AcDbEntity
  8
DEFPOINTS
  6
Continuous
 62
     7
100
AcDbPoint
 10
-158.0483093261719
 20
240.5313568115234
 30
0.0
  0
ENDBLK
  5
4F
330
44
100
AcDbEntity
  8
0
100
AcDbBlockEnd
  0
BLOCK
  5
51
330
50
100
AcDbEntity
  8
0
100
AcDbBlockBegin
  2
*D3
 70
     1
 10
0.0
 20
0.0
 30
0.0
  3
*D3
  1

  0
LINE
  5
52
330
50
100
AcDbEntity
  8
0
  6
Continuous
 62
     7
100
AcDbLine
 10
-216.0483093261719
 20
240.5313568115234
 30
0.0
 11
-222.0483093261719
 21
240.5313568115234
 31
0.0
  0
INSERT
  5
53
330
50
100
AcDbEntity
  8
0
  6
Continuous
 62
     7
100
AcDbBlockReference
  2
_OPEN30
 10
-213.0483093261719
 20
240.5313568115234
 30
0.0
  0
INSERT
  5
54
330
50
100
AcDbEntity
  8
0
  6
Continuous
 62
     7
100
AcDbBlockReference
  2
_OPEN30
 10
-225.0483093261719
 20
240.5313568115234
 30
0.0
 50
180.0000000000004
  0
TEXT
  5
55
330
50
100
AcDbEntity
  8
0
  6
Continuous
 62
     7
100
AcDbText
 10
-221.6183094382286
 20
241.2813568115234
 30
0.0
 40
3.0
  1
12
 41
1.285000026226043
100
AcDbText
  0
POINT
  5
56
330
50
100
AcDbEntity
  8
DEFPOINTS
  6
Continuous
 62
     7
100
AcDbPoint
 10
-213.0483093261719
 20
227.1188201904297
 30
0.0
  0
POINT
  5
57
330
50
100
AcDbEntity
  8
DEFPOINTS
  6
Continuous
 62
     7
100
AcDbPoint
 10
-225.0483093261719
 20
238.2607727050781
 30
0.0
  0
POINT
  5
58
330
50
100
AcDbEntity
  8
DEFPOINTS
  6
Continuous
 62
     7
100
AcDbPoint
 10
-225.0483093261719
 20
240.5313568115234
 30
0.0
  0
ENDBLK
  5
59
330
50
100
AcDbEntity
  8
0
100
AcDbBlockEnd
  0
BLOCK
  5
5B
330
5A
100
AcDbEntity
  8
0
100
AcDbBlockBegin
  2
*D4
 70
     1
 10
0.0
 20
0.0
 30
0.0
  3
*D4
  1

  0
LINE
  5
5C
330
5A
100
AcDbEntity
  8
0
  6
Continuous
 62
     7
100
AcDbLine
 10
-222.0483093261719
 20
252.1170501708984
 30
0.0
 11
-132.0483093261719
 21
252.1170501708984
 31
0.0
  0
INSERT
  5
5D
330
5A
100
AcDbEntity
  8
0
  6
Continuous
 62
     7
100
AcDbBlockReference
  2
_OPEN30
 10
-225.0483093261719
 20
252.1170501708984
 30
0.0
 50
180.0000000000004
  0
INSERT
  5
5E
330
5A
100
AcDbEntity
  8
0
  6
Continuous
 62
     7
100
AcDbBlockReference
  2
_OPEN30
 10
-129.0483093261719
 20
252.1170501708984
 30
0.0
  0
LINE
  5
5F
330
5A
100
AcDbEntity
  8
0
  6
Continuous
 62
     7
100
AcDbLine
 10
-225.0483093261719
 20
217.0648870849609
 30
0.0
 11
-225.0483093261719
 21
254.4030456542969
 31
0.0
  0
LINE
  5
60
330
5A
100
AcDbEntity
  8
0
  6
Continuous
 62
     7
100
AcDbLine
 10
-129.0483093261719
 20
207.4927130126953
 30
0.0
 11
-129.0483093261719
 21
254.4030456542969
 31
0.0
  0
TEXT
  5
61
330
5A
100
AcDbEntity
  8
0
  6
Continuous
 62
     7
100
AcDbText
 10
-179.6183094382286
 20
252.8670501708984
 30
0.0
 40
3.0
  1
96
 41
1.028000020980834
100
AcDbText
  0
POINT
  5
62
330
5A
100
AcDbEntity
  8
DEFPOINTS
  6
Continuous
 62
     7
100
AcDbPoint
 10
-225.0483093261719
 20
214.5248870849609
 30
0.0
  0
POINT
  5
63
330
5A
100
AcDbEntity
  8
DEFPOINTS
  6
Continuous
 62
     7
100
AcDbPoint
 10
-129.0483093261719
 20
204.9527130126953
 30
0.0
  0
POINT
  5
64
330
5A
100
AcDbEntity
  8
DEFPOINTS
  6
Continuous
 62
     7
100
AcDbPoint
 10
-129.0483093261719
 20
252.1170501708984
 30
0.0
  0
ENDBLK
  5
65
330
5A
100
AcDbEntity
  8
0
100
AcDbBlockEnd
  0
BLOCK
  5
67
330
66
100
AcDbEntity
  8
0
100
AcDbBlockBegin
  2
KOZU0001
 70
     0
 10
0.0
 20
0.0
 30
0.0
  3
KOZU0001
  1

  0
LINE
  5
68
330
66
100
AcDbEntity
  8
0
  6
Continuous
 62
     7
100
AcDbLine
 10
0.0
 20
0.0
 30
0.0
 11
15.55510711669922
 21
-21.56495666503906
 31
0.0
  0
LINE
  5
69
330
66
100
AcDbEntity
  8
0
  6
Continuous
 62
     7
100
AcDbLine
 10
15.55510711669922
 20
-21.56495666503906
 30
0.0
 11
53.27620697021484
 21
-21.56495666503906
 31
0.0
  0
LINE
  5
6A
330
66
100
AcDbEntity
  8
0
  6
Continuous
 62
     7
100
AcDbLine
 10
0.0
 20
0.0
 30
0.0
 11
2.566047892713966
 21
-1.848079601180158
 31
0.0
  0
LINE
  5
6B
330
66
100
AcDbEntity
  8
0
  6
Continuous
 62
     7
100
AcDbLine
 10
0.0
 20
0.0
 30
0.0
 11
0.9439905534630788
 21
-3.018092416572506
 31
0.0
  0
TEXT
  5
6C
330
66
100
AcDbEntity
  8
0
  6
Continuous
 62
     7
100
AcDbText
 10
16.77137684822083
 20
-20.81495666503906
 30
0.0
 40
3.0
  1
配管接続口
 41
0.8487395020950888
100
AcDbText
  0
TEXT
  5
6D
330
66
100
AcDbEntity
  8
0
  6
Continuous
 62
     7
100
AcDbText
 10
16.77137684822083
 20
-26.07995666503906
 30
0.0
 40
3.0
  1
Ｒｃ２　１／２（６５Ａ）
 41
0.8436974815103043
100
AcDbText
  0
ENDBLK
  5
6E
330
66
100
AcDbEntity
  8
0
100
AcDbBlockEnd
  0
ENDSEC
  0
SECTION
  2
ENTITIES
  0
POINT
  5
6F
330
22
100
AcDbEntity
  8
0
  6
Continuous
 62
     7
100
AcDbPoint
 10
-225.0483093261719
 20
164.7027130126953
 30
0.0
  0
POINT
  5
70
330
22
100
AcDbEntity
  8
0
  6
Continuous
 62
     7
100
AcDbPoint
 10
-345.0483093261719
 20
164.7027130126953
 30
0.0
  0
POINT
  5
71
330
22
100
AcDbEntity
  8
0
  6
Continuous
 62
     7
100
AcDbPoint
 10
-225.0483093261719
 20
164.7027130126953
 30
0.0
  0
POINT
  5
72
330
22
100
AcDbEntity
  8
0
  6
Continuous
 62
     7
100
AcDbPoint
 10
-345.0483093261719
 20
164.7027130126953
 30
0.0
  0
LINE
  5
73
330
22
100
AcDbEntity
  8
0
  6
Continuous
 62
     7
100
AcDbLine
 10
-215.0483093261719
 20
200.7027130126953
 30
0.0
 11
-215.0483093261719
 21
199.7027130126953
 31
0.0
  0
LINE
  5
74
330
22
100
AcDbEntity
  8
0
  6
Continuous
 62
     7
100
AcDbLine
 10
-222.0483093261719
 20
214.2027130126953
 30
0.0
 11
-222.0483093261719
 21
208.4527130126953
 31
0.0
  0
LINE
  5
75
330
22
100
AcDbEntity
  8
0
  6
Continuous
 62
     7
100
AcDbLine
 10
-219.1283111572266
 20
208.0727081298828
 30
0.0
 11
-221.6683044433594
 21
208.0727081298828
 31
0.0
  0
LINE
  5
76
330
22
100
AcDbEntity
  8
0
  6
Continuous
 62
     7
100
AcDbLine
 10
-219.1283111572266
 20
204.8327178955078
 30
0.0
 11
-221.6683044433594
 21
204.8327178955078
 31
0.0
  0
LINE
  5
77
330
22
100
AcDbEntity
  8
0
  6
Continuous
 62
     7
100
AcDbLine
 10
-222.0483093261719
 20
208.4527130126953
 30
0.0
 11
-223.0983123779297
 21
208.4527130126953
 31
0.0
  0
LINE
  5
78
330
22
100
AcDbEntity
  8
0
  6
Continuous
 62
     7
100
AcDbLine
 10
-218.7483062744141
 20
208.4527130126953
 30
0.0
 11
-219.1283111572266
 21
208.0727081298828
 31
0.0
  0
LINE
  5
79
330
22
100
AcDbEntity
  8
0
  6
Continuous
 62
     7
100
AcDbLine
 10
-223.0983123779297
 20
208.4527130126953
 30
0.0
 11
-222.7183074951172
 21
208.0727081298828
 31
0.0
  0
LINE
  5
7A
330
22
100
AcDbEntity
  8
0
  6
Continuous
 62
     7
100
AcDbLine
 10
-223.0983123779297
 20
204.4527130126953
 30
0.0
 11
-222.7183074951172
 21
204.8327178955078
 31
0.0
  0
LINE
  5
7B
330
22
100
AcDbEntity
  8
0
  6
Continuous
 62
     7
100
AcDbLine
 10
-221.6683044433594
 20
208.0727081298828
 30
0.0
 11
-222.7183074951172
 21
208.0727081298828
 31
0.0
  0
LINE
  5
7C
330
22
100
AcDbEntity
  8
0
  6
Continuous
 62
     7
100
AcDbLine
 10
-219.1283111572266
 20
208.4527130126953
 30
0.0
 11
-218.7483062744141
 21
208.4527130126953
 31
0.0
  0
LINE
  5
7D
330
22
100
AcDbEntity
  8
0
  6
Continuous
 62
     7
100
AcDbLine
 10
-129.0483093261719
 20
204.9527130126953
 30
0.0
 11
-210.2983093261719
 21
204.9527130126953
 31
0.0
  0
LINE
  5
7E
330
22
100
AcDbEntity
  8
0
  6
Continuous
 62
     7
100
AcDbLine
 10
-221.1657104492188
 20
221.9053344726563
 30
0.0
 11
-220.8685302734375
 21
222.2025146484375
 31
0.0
  0
LINE
  5
7F
330
22
100
AcDbEntity
  8
0
  6
Continuous
 62
     7
100
AcDbLine
 10
-223.8955383300781
 20
217.7612915039063
 30
0.0
 11
-218.9541168212891
 21
222.7027130126953
 31
0.0
  0
LINE
  5
80
330
22
100
AcDbEntity
  8
0
  6
Continuous
 62
     7
100
AcDbLine
 10
-224.9806518554688
 20
215.261962890625
 30
0.0
 11
-217.5399017333984
 21
222.7027130126953
 31
0.0
  0
LINE
  5
81
330
22
100
AcDbEntity
  8
0
  6
Continuous
 62
     7
100
AcDbLine
 10
-224.6256866455078
 20
214.2027130126953
 30
0.0
 11
-216.1256866455078
 21
222.7027130126953
 31
0.0
  0
LINE
  5
82
330
22
100
AcDbEntity
  8
0
  6
Continuous
 62
     7
100
AcDbLine
 10
-223.2114715576172
 20
214.2027130126953
 30
0.0
 11
-216.0483093261719
 21
221.3658752441406
 31
0.0
  0
LINE
  5
83
330
22
100
AcDbEntity
  8
0
  6
Continuous
 62
     7
100
AcDbLine
 10
-222.0483093261719
 20
213.95166015625
 30
0.0
 11
-216.0483093261719
 21
219.95166015625
 31
0.0
  0
LINE
  5
84
330
22
100
AcDbEntity
  8
0
  6
Continuous
 62
     7
100
AcDbLine
 10
-222.0483093261719
 20
212.5374450683594
 30
0.0
 11
-216.9656829833984
 21
217.6200866699219
 31
0.0
  0
LINE
  5
85
330
22
100
AcDbEntity
  8
0
  6
Continuous
 62
     7
100
AcDbLine
 10
-222.0483093261719
 20
211.1232299804688
 30
0.0
 11
-216.2585754394531
 21
216.9129791259766
 31
0.0
  0
LINE
  5
86
330
22
100
AcDbEntity
  8
0
  6
Continuous
 62
     7
100
AcDbLine
 10
-222.0483093261719
 20
209.7090148925781
 30
0.0
 11
-216.0483093261719
 21
215.7090148925781
 31
0.0
  0
LINE
  5
87
330
22
100
AcDbEntity
  8
0
  6
Continuous
 62
     7
100
AcDbLine
 10
-220.4761962890625
 20
208.4527130126953
 30
0.0
 11
-216.6372528076172
 21
212.2916564941406
 31
0.0
  0
LINE
  5
88
330
22
100
AcDbEntity
  8
0
  6
Continuous
 62
     7
100
AcDbLine
 10
-219.0619812011719
 20
208.4527130126953
 30
0.0
 11
-216.0483093261719
 21
211.4663848876953
 31
0.0
  0
LINE
  5
89
330
22
100
AcDbEntity
  8
0
  6
Continuous
 62
     7
100
AcDbLine
 10
-218.7483062744141
 20
207.3521728515625
 30
0.0
 11
-216.0483093261719
 21
210.0521697998047
 31
0.0
  0
LINE
  5
8A
330
22
100
AcDbEntity
  8
0
  6
Continuous
 62
     7
100
AcDbLine
 10
-222.0483093261719
 20
204.0521697998047
 30
0.0
 11
-221.6477661132813
 21
204.4527130126953
 31
0.0
  0
LINE
  5
8B
330
22
100
AcDbEntity
  8
0
  6
Continuous
 62
     7
100
AcDbLine
 10
-218.2335510253906
 20
206.4527130126953
 30
0.0
 11
-216.0483093261719
 21
208.6379547119141
 31
0.0
  0
LINE
  5
8C
330
22
100
AcDbEntity
  8
0
  6
Continuous
 62
     7
100
AcDbLine
 10
-218.7483062744141
 20
205.9379577636719
 30
0.0
 11
-218.2335510253906
 21
206.4527130126953
 31
0.0
  0
LINE
  5
8D
330
22
100
AcDbEntity
  8
0
  6
Continuous
 62
     7
100
AcDbLine
 10
-222.0483093261719
 20
202.6379547119141
 30
0.0
 11
-220.2335510253906
 21
204.4527130126953
 31
0.0
  0
LINE
  5
8E
330
22
100
AcDbEntity
  8
0
  6
Continuous
 62
     7
100
AcDbLine
 10
-216.8193359375
 20
206.4527130126953
 30
0.0
 11
-216.0483093261719
 21
207.2237396240234
 31
0.0
  0
LINE
  5
8F
330
22
100
AcDbEntity
  8
0
  6
Continuous
 62
     7
100
AcDbLine
 10
-218.7483062744141
 20
204.5237426757813
 30
0.0
 11
-216.8193359375
 21
206.4527130126953
 31
0.0
  0
LINE
  5
90
330
22
100
AcDbEntity
  8
0
  6
Continuous
 62
     7
100
AcDbLine
 10
-222.0483093261719
 20
201.2237396240234
 30
0.0
 11
-218.8193359375
 21
204.4527130126953
 31
0.0
  0
LINE
  5
91
330
22
100
AcDbEntity
  8
0
  6
Continuous
 62
     7
100
AcDbLine
 10
-215.4051208496094
 20
206.4527130126953
 30
0.0
 11
-215.1551208496094
 21
206.7027130126953
 31
0.0
  0
LINE
  5
92
330
22
100
AcDbEntity
  8
0
  6
Continuous
 62
     7
100
AcDbLine
 10
-222.0483093261719
 20
199.8095245361328
 30
0.0
 11
-215.4051208496094
 21
206.4527130126953
 31
0.0
  0
LINE
  5
93
330
22
100
AcDbEntity
  8
0
  6
Continuous
 62
     7
100
AcDbLine
 10
-213.9909057617188
 20
206.4527130126953
 30
0.0
 11
-213.7409057617188
 21
206.7027130126953
 31
0.0
  0
LINE
  5
94
330
22
100
AcDbEntity
  8
0
  6
Continuous
 62
     7
100
AcDbLine
 10
-221.2409057617188
 20
199.2027130126953
 30
0.0
 11
-213.9909057617188
 21
206.4527130126953
 31
0.0
  0
LINE
  5
95
330
22
100
AcDbEntity
  8
0
  6
Continuous
 62
     7
100
AcDbLine
 10
-212.5767059326172
 20
206.4527130126953
 30
0.0
 11
-212.3267059326172
 21
206.7027130126953
 31
0.0
  0
LINE
  5
96
330
22
100
AcDbEntity
  8
0
  6
Continuous
 62
     7
100
AcDbLine
 10
-219.8267059326172
 20
199.2027130126953
 30
0.0
 11
-212.5767059326172
 21
206.4527130126953
 31
0.0
  0
LINE
  5
97
330
22
100
AcDbEntity
  8
0
  6
Continuous
 62
     7
100
AcDbLine
 10
-218.4124908447266
 20
199.2027130126953
 30
0.0
 11
-211.4803924560547
 21
206.1347961425781
 31
0.0
  0
LINE
  5
98
330
22
100
AcDbEntity
  8
0
  6
Continuous
 62
     7
100
AcDbLine
 10
-216.9982757568359
 20
199.2027130126953
 30
0.0
 11
-210.7732849121094
 21
205.4276885986328
 31
0.0
  0
LINE
  5
99
330
22
100
AcDbEntity
  8
0
  6
Continuous
 62
     7
100
AcDbLine
 10
-213.5840606689453
 20
201.2027130126953
 30
0.0
 11
-209.8340606689453
 21
204.9527130126953
 31
0.0
  0
LINE
  5
9A
330
22
100
AcDbEntity
  8
0
  6
Continuous
 62
     7
100
AcDbLine
 10
-215.5840606689453
 20
199.2027130126953
 30
0.0
 11
-215.0483093261719
 21
199.7384643554688
 31
0.0
  0
LINE
  5
9B
330
22
100
AcDbEntity
  8
0
  6
Continuous
 62
     7
100
AcDbLine
 10
-212.1698455810547
 20
201.2027130126953
 30
0.0
 11
-208.4198455810547
 21
204.9527130126953
 31
0.0
  0
LINE
  5
9C
330
22
100
AcDbEntity
  8
0
  6
Continuous
 62
     7
100
AcDbLine
 10
-210.7556304931641
 20
201.2027130126953
 30
0.0
 11
-207.0056304931641
 21
204.9527130126953
 31
0.0
  0
LINE
  5
9D
330
22
100
AcDbEntity
  8
0
  6
Continuous
 62
     7
100
AcDbLine
 10
-209.3414154052734
 20
201.2027130126953
 30
0.0
 11
-205.5914154052734
 21
204.9527130126953
 31
0.0
  0
LINE
  5
9E
330
22
100
AcDbEntity
  8
0
  6
Continuous
 62
     7
100
AcDbLine
 10
-207.9272003173828
 20
201.2027130126953
 30
0.0
 11
-204.1772003173828
 21
204.9527130126953
 31
0.0
  0
LINE
  5
9F
330
22
100
AcDbEntity
  8
0
  6
Continuous
 62
     7
100
AcDbLine
 10
-206.5129852294922
 20
201.2027130126953
 30
0.0
 11
-202.7629852294922
 21
204.9527130126953
 31
0.0
  0
LINE
  5
A0
330
22
100
AcDbEntity
  8
0
  6
Continuous
 62
     7
100
AcDbLine
 10
-205.0987701416016
 20
201.2027130126953
 30
0.0
 11
-201.3487701416016
 21
204.9527130126953
 31
0.0
  0
LINE
  5
A1
330
22
100
AcDbEntity
  8
0
  6
Continuous
 62
     7
100
AcDbLine
 10
-203.6845703125
 20
201.2027130126953
 30
0.0
 11
-199.9345703125
 21
204.9527130126953
 31
0.0
  0
LINE
  5
A2
330
22
100
AcDbEntity
  8
0
  6
Continuous
 62
     7
100
AcDbLine
 10
-202.2703552246094
 20
201.2027130126953
 30
0.0
 11
-198.5203552246094
 21
204.9527130126953
 31
0.0
  0
LINE
  5
A3
330
22
100
AcDbEntity
  8
0
  6
Continuous
 62
     7
100
AcDbLine
 10
-200.8561401367188
 20
201.2027130126953
 30
0.0
 11
-197.1061401367188
 21
204.9527130126953
 31
0.0
  0
LINE
  5
A4
330
22
100
AcDbEntity
  8
0
  6
Continuous
 62
     7
100
AcDbLine
 10
-199.4419250488281
 20
201.2027130126953
 30
0.0
 11
-195.6919250488281
 21
204.9527130126953
 31
0.0
  0
LINE
  5
A5
330
22
100
AcDbEntity
  8
0
  6
Continuous
 62
     7
100
AcDbLine
 10
-198.0277099609375
 20
201.2027130126953
 30
0.0
 11
-194.2777099609375
 21
204.9527130126953
 31
0.0
  0
LINE
  5
A6
330
22
100
AcDbEntity
  8
0
  6
Continuous
 62
     7
100
AcDbLine
 10
-196.6134948730469
 20
201.2027130126953
 30
0.0
 11
-192.8634948730469
 21
204.9527130126953
 31
0.0
  0
LINE
  5
A7
330
22
100
AcDbEntity
  8
0
  6
Continuous
 62
     7
100
AcDbLine
 10
-195.1992797851563
 20
201.2027130126953
 30
0.0
 11
-191.4492797851563
 21
204.9527130126953
 31
0.0
  0
LINE
  5
A8
330
22
100
AcDbEntity
  8
0
  6
Continuous
 62
     7
100
AcDbLine
 10
-193.7850646972656
 20
201.2027130126953
 30
0.0
 11
-190.0350646972656
 21
204.9527130126953
 31
0.0
  0
LINE
  5
A9
330
22
100
AcDbEntity
  8
0
  6
Continuous
 62
     7
100
AcDbLine
 10
-192.370849609375
 20
201.2027130126953
 30
0.0
 11
-188.620849609375
 21
204.9527130126953
 31
0.0
  0
LINE
  5
AA
330
22
100
AcDbEntity
  8
0
  6
Continuous
 62
     7
100
AcDbLine
 10
-190.9566345214844
 20
201.2027130126953
 30
0.0
 11
-187.2066345214844
 21
204.9527130126953
 31
0.0
  0
LINE
  5
AB
330
22
100
AcDbEntity
  8
0
  6
Continuous
 62
     7
100
AcDbLine
 10
-189.5424346923828
 20
201.2027130126953
 30
0.0
 11
-185.7924346923828
 21
204.9527130126953
 31
0.0
  0
LINE
  5
AC
330
22
100
AcDbEntity
  8
0
  6
Continuous
 62
     7
100
AcDbLine
 10
-188.1282196044922
 20
201.2027130126953
 30
0.0
 11
-184.3782196044922
 21
204.9527130126953
 31
0.0
  0
LINE
  5
AD
330
22
100
AcDbEntity
  8
0
  6
Continuous
 62
     7
100
AcDbLine
 10
-186.7140045166016
 20
201.2027130126953
 30
0.0
 11
-182.9640045166016
 21
204.9527130126953
 31
0.0
  0
LINE
  5
AE
330
22
100
AcDbEntity
  8
0
  6
Continuous
 62
     7
100
AcDbLine
 10
-185.2997894287109
 20
201.2027130126953
 30
0.0
 11
-181.5497894287109
 21
204.9527130126953
 31
0.0
  0
LINE
  5
AF
330
22
100
AcDbEntity
  8
0
  6
Continuous
 62
     7
100
AcDbLine
 10
-183.8855743408203
 20
201.2027130126953
 30
0.0
 11
-180.1355743408203
 21
204.9527130126953
 31
0.0
  0
LINE
  5
B0
330
22
100
AcDbEntity
  8
0
  6
Continuous
 62
     7
100
AcDbLine
 10
-182.4713592529297
 20
201.2027130126953
 30
0.0
 11
-178.7213592529297
 21
204.9527130126953
 31
0.0
  0
LINE
  5
B1
330
22
100
AcDbEntity
  8
0
  6
Continuous
 62
     7
100
AcDbLine
 10
-181.0571441650391
 20
201.2027130126953
 30
0.0
 11
-177.3071441650391
 21
204.9527130126953
 31
0.0
  0
LINE
  5
B2
330
22
100
AcDbEntity
  8
0
  6
Continuous
 62
     7
100
AcDbLine
 10
-179.6429290771484
 20
201.2027130126953
 30
0.0
 11
-175.8929290771484
 21
204.9527130126953
 31
0.0
  0
LINE
  5
B3
330
22
100
AcDbEntity
  8
0
  6
Continuous
 62
     7
100
AcDbLine
 10
-178.2287139892578
 20
201.2027130126953
 30
0.0
 11
-174.4787139892578
 21
204.9527130126953
 31
0.0
  0
LINE
  5
B4
330
22
100
AcDbEntity
  8
0
  6
Continuous
 62
     7
100
AcDbLine
 10
-176.8144989013672
 20
201.2027130126953
 30
0.0
 11
-173.0644989013672
 21
204.9527130126953
 31
0.0
  0
LINE
  5
B5
330
22
100
AcDbEntity
  8
0
  6
Continuous
 62
     7
100
AcDbLine
 10
-175.4002990722656
 20
201.2027130126953
 30
0.0
 11
-171.6502990722656
 21
204.9527130126953
 31
0.0
  0
LINE
  5
B6
330
22
100
AcDbEntity
  8
0
  6
Continuous
 62
     7
100
AcDbLine
 10
-173.986083984375
 20
201.2027130126953
 30
0.0
 11
-170.236083984375
 21
204.9527130126953
 31
0.0
  0
LINE
  5
B7
330
22
100
AcDbEntity
  8
0
  6
Continuous
 62
     7
100
AcDbLine
 10
-172.5718688964844
 20
201.2027130126953
 30
0.0
 11
-168.8218688964844
 21
204.9527130126953
 31
0.0
  0
LINE
  5
B8
330
22
100
AcDbEntity
  8
0
  6
Continuous
 62
     7
100
AcDbLine
 10
-171.1576538085938
 20
201.2027130126953
 30
0.0
 11
-167.4076538085938
 21
204.9527130126953
 31
0.0
  0
LINE
  5
B9
330
22
100
AcDbEntity
  8
0
  6
Continuous
 62
     7
100
AcDbLine
 10
-169.7434387207031
 20
201.2027130126953
 30
0.0
 11
-165.9934387207031
 21
204.9527130126953
 31
0.0
  0
LINE
  5
BA
330
22
100
AcDbEntity
  8
0
  6
Continuous
 62
     7
100
AcDbLine
 10
-168.3292236328125
 20
201.2027130126953
 30
0.0
 11
-164.5792236328125
 21
204.9527130126953
 31
0.0
  0
LINE
  5
BB
330
22
100
AcDbEntity
  8
0
  6
Continuous
 62
     7
100
AcDbLine
 10
-166.9150085449219
 20
201.2027130126953
 30
0.0
 11
-163.1650085449219
 21
204.9527130126953
 31
0.0
  0
LINE
  5
BC
330
22
100
AcDbEntity
  8
0
  6
Continuous
 62
     7
100
AcDbLine
 10
-165.5007934570313
 20
201.2027130126953
 30
0.0
 11
-161.7507934570313
 21
204.9527130126953
 31
0.0
  0
LINE
  5
BD
330
22
100
AcDbEntity
  8
0
  6
Continuous
 62
     7
100
AcDbLine
 10
-164.0865783691406
 20
201.2027130126953
 30
0.0
 11
-160.3365783691406
 21
204.9527130126953
 31
0.0
  0
LINE
  5
BE
330
22
100
AcDbEntity
  8
0
  6
Continuous
 62
     7
100
AcDbLine
 10
-162.67236328125
 20
201.2027130126953
 30
0.0
 11
-158.92236328125
 21
204.9527130126953
 31
0.0
  0
LINE
  5
BF
330
22
100
AcDbEntity
  8
0
  6
Continuous
 62
     7
100
AcDbLine
 10
-161.2581634521484
 20
201.2027130126953
 30
0.0
 11
-157.5081634521484
 21
204.9527130126953
 31
0.0
  0
LINE
  5
C0
330
22
100
AcDbEntity
  8
0
  6
Continuous
 62
     7
100
AcDbLine
 10
-159.8439483642578
 20
201.2027130126953
 30
0.0
 11
-156.0939483642578
 21
204.9527130126953
 31
0.0
  0
LINE
  5
C1
330
22
100
AcDbEntity
  8
0
  6
Continuous
 62
     7
100
AcDbLine
 10
-158.4297332763672
 20
201.2027130126953
 30
0.0
 11
-154.6797332763672
 21
204.9527130126953
 31
0.0
  0
LINE
  5
C2
330
22
100
AcDbEntity
  8
0
  6
Continuous
 62
     7
100
AcDbLine
 10
-157.0155181884766
 20
201.2027130126953
 30
0.0
 11
-153.2655181884766
 21
204.9527130126953
 31
0.0
  0
LINE
  5
C3
330
22
100
AcDbEntity
  8
0
  6
Continuous
 62
     7
100
AcDbLine
 10
-155.6013031005859
 20
201.2027130126953
 30
0.0
 11
-151.8513031005859
 21
204.9527130126953
 31
0.0
  0
LINE
  5
C4
330
22
100
AcDbEntity
  8
0
  6
Continuous
 62
     7
100
AcDbLine
 10
-154.1870880126953
 20
201.2027130126953
 30
0.0
 11
-150.4370880126953
 21
204.9527130126953
 31
0.0
  0
LINE
  5
C5
330
22
100
AcDbEntity
  8
0
  6
Continuous
 62
     7
100
AcDbLine
 10
-152.7728729248047
 20
201.2027130126953
 30
0.0
 11
-149.0228729248047
 21
204.9527130126953
 31
0.0
  0
LINE
  5
C6
330
22
100
AcDbEntity
  8
0
  6
Continuous
 62
     7
100
AcDbLine
 10
-151.3586578369141
 20
201.2027130126953
 30
0.0
 11
-147.6086578369141
 21
204.9527130126953
 31
0.0
  0
LINE
  5
C7
330
22
100
AcDbEntity
  8
0
  6
Continuous
 62
     7
100
AcDbLine
 10
-149.9444427490234
 20
201.2027130126953
 30
0.0
 11
-146.1944427490234
 21
204.9527130126953
 31
0.0
  0
LINE
  5
C8
330
22
100
AcDbEntity
  8
0
  6
Continuous
 62
     7
100
AcDbLine
 10
-147.4302978515625
 20
202.3026580810547
 30
0.0
 11
-144.7802276611328
 21
204.9527130126953
 31
0.0
  0
LINE
  5
C9
330
22
100
AcDbEntity
  8
0
  6
Continuous
 62
     7
100
AcDbLine
 10
-148.5302276611328
 20
201.2027130126953
 30
0.0
 11
-148.0483093261719
 21
201.6846313476563
 31
0.0
  0
LINE
  5
CA
330
22
100
AcDbEntity
  8
0
  6
Continuous
 62
     7
100
AcDbLine
 10
-146.0160827636719
 20
202.3026580810547
 30
0.0
 11
-143.3660278320313
 21
204.9527130126953
 31
0.0
  0
LINE
  5
CB
330
22
100
AcDbEntity
  8
0
  6
Continuous
 62
     7
100
AcDbLine
 10
-144.6018676757813
 20
202.3026580810547
 30
0.0
 11
-141.9518127441406
 21
204.9527130126953
 31
0.0
  0
LINE
  5
CC
330
22
100
AcDbEntity
  8
0
  6
Continuous
 62
     7
100
AcDbLine
 10
-143.1876525878906
 20
202.3026580810547
 30
0.0
 11
-140.53759765625
 21
204.9527130126953
 31
0.0
  0
LINE
  5
CD
330
22
100
AcDbEntity
  8
0
  6
Continuous
 62
     7
100
AcDbLine
 10
-141.7734375
 20
202.3026580810547
 30
0.0
 11
-139.1233825683594
 21
204.9527130126953
 31
0.0
  0
LINE
  5
CE
330
22
100
AcDbEntity
  8
0
  6
Continuous
 62
     7
100
AcDbLine
 10
-140.3592224121094
 20
202.3026580810547
 30
0.0
 11
-137.7091674804687
 21
204.9527130126953
 31
0.0
  0
LINE
  5
CF
330
22
100
AcDbEntity
  8
0
  6
Continuous
 62
     7
100
AcDbLine
 10
-138.9450073242187
 20
202.3026580810547
 30
0.0
 11
-136.2949523925781
 21
204.9527130126953
 31
0.0
  0
LINE
  5
D0
330
22
100
AcDbEntity
  8
0
  6
Continuous
 62
     7
100
AcDbLine
 10
-137.5307922363281
 20
202.3026580810547
 30
0.0
 11
-134.8807373046875
 21
204.9527130126953
 31
0.0
  0
LINE
  5
D1
330
22
100
AcDbEntity
  8
0
  6
Continuous
 62
     7
100
AcDbLine
 10
-136.1165771484375
 20
202.3026580810547
 30
0.0
 11
-133.4665222167969
 21
204.9527130126953
 31
0.0
  0
LINE
  5
D2
330
22
100
AcDbEntity
  8
0
  6
Continuous
 62
     7
100
AcDbLine
 10
-134.7023773193359
 20
202.3026580810547
 30
0.0
 11
-132.0523071289062
 21
204.9527130126953
 31
0.0
  0
LINE
  5
D3
330
22
100
AcDbEntity
  8
0
  6
Continuous
 62
     7
100
AcDbLine
 10
-133.2881622314453
 20
202.3026580810547
 30
0.0
 11
-130.6380920410156
 21
204.9527130126953
 31
0.0
  0
LINE
  5
D4
330
22
100
AcDbEntity
  8
0
  6
Continuous
 62
     7
100
AcDbLine
 10
-131.8739471435547
 20
202.3026580810547
 30
0.0
 11
-129.2238922119141
 21
204.9527130126953
 31
0.0
  0
LINE
  5
D5
330
22
100
AcDbEntity
  8
0
  6
Continuous
 62
     7
100
AcDbLine
 10
-130.4597320556641
 20
202.3026580810547
 30
0.0
 11
-129.0483093261719
 21
203.7140655517578
 31
0.0
  0
LINE
  5
D6
330
22
100
AcDbEntity
  8
0
  6
Continuous
 62
     7
100
AcDbLine
 10
-130.7983093261719
 20
206.7027130126953
 30
0.0
 11
-212.0483093261719
 21
206.7027130126953
 31
0.0
  0
LINE
  5
D7
330
22
100
AcDbEntity
  8
0
  6
Continuous
 62
     7
100
AcDbLine
 10
-148.0483093261719
 20
201.2027130126953
 30
0.0
 11
-214.5483093261719
 21
201.2027130126953
 31
0.0
  0
LINE
  5
D8
330
22
100
AcDbEntity
  8
0
  6
CENTER
 62
     7
100
AcDbLine
 10
-230.6439361572266
 20
206.4527130126953
 30
0.0
 11
-212.4105987548828
 21
206.4527130126953
 31
0.0
  0
LINE
  5
D9
330
22
100
AcDbEntity
  8
0
  6
Continuous
 62
     7
100
AcDbLine
 10
-222.0483093261719
 20
204.4527130126953
 30
0.0
 11
-219.1283111572266
 21
204.4527130126953
 31
0.0
  0
LINE
  5
DA
330
22
100
AcDbEntity
  8
0
  6
Continuous
 62
     7
100
AcDbLine
 10
-225.0483093261719
 20
202.5027160644531
 30
0.0
 11
-223.0983123779297
 21
204.4527130126953
 31
0.0
  0
LINE
  5
DB
330
22
100
AcDbEntity
  8
0
  6
Continuous
 62
     7
100
AcDbLine
 10
-221.6683044433594
 20
204.8327178955078
 30
0.0
 11
-222.7183074951172
 21
204.8327178955078
 31
0.0
  0
LINE
  5
DC
330
22
100
AcDbEntity
  8
0
  6
Continuous
 62
     7
100
AcDbLine
 10
-222.7183074951172
 20
204.8327178955078
 30
0.0
 11
-222.7183074951172
 21
208.0727081298828
 31
0.0
  0
LINE
  5
DD
330
22
100
AcDbEntity
  8
0
  6
Continuous
 62
     7
100
AcDbLine
 10
-217.0483093261719
 20
212.7027130126953
 30
0.0
 11
-216.0483093261719
 21
213.7027130126953
 31
0.0
  0
LINE
  5
DE
330
22
100
AcDbEntity
  8
0
  6
Continuous
 62
     7
100
AcDbLine
 10
-217.0483093261719
 20
212.7027130126953
 30
0.0
 11
-216.0483093261719
 21
211.7027130126953
 31
0.0
  0
LINE
  5
DF
330
22
100
AcDbEntity
  8
0
  6
Continuous
 62
     7
100
AcDbLine
 10
-217.0483093261719
 20
217.7027130126953
 30
0.0
 11
-216.0483093261719
 21
216.7027130126953
 31
0.0
  0
LINE
  5
E0
330
22
100
AcDbEntity
  8
0
  6
Continuous
 62
     7
100
AcDbLine
 10
-212.0483093261719
 20
206.7027130126953
 30
0.0
 11
-210.2983093261719
 21
204.9527130126953
 31
0.0
  0
LINE
  5
E1
330
22
100
AcDbEntity
  8
0
  6
Continuous
 62
     7
100
AcDbLine
 10
-216.0483093261719
 20
222.7027130126953
 30
0.0
 11
-219.5876617431641
 21
222.7027130126953
 31
0.0
  0
LINE
  5
E2
330
22
100
AcDbEntity
  8
0
  6
Continuous
 62
     7
100
AcDbLine
 10
-213.0483093261719
 20
207.7027130126953
 30
0.0
 11
-216.0483093261719
 21
207.7027130126953
 31
0.0
  0
LINE
  5
E3
330
22
100
AcDbEntity
  8
0
  6
Continuous
 62
     7
100
AcDbLine
 10
-213.0483093261719
 20
222.7027130126953
 30
0.0
 11
-213.0483093261719
 21
207.7027130126953
 31
0.0
  0
LINE
  5
E4
330
22
100
AcDbEntity
  8
0
  6
Continuous
 62
     7
100
AcDbLine
 10
-216.0483093261719
 20
222.7027130126953
 30
0.0
 11
-213.0483093261719
 21
222.7027130126953
 31
0.0
  0
LINE
  5
E5
330
22
100
AcDbEntity
  8
0
  6
Continuous
 62
     7
100
AcDbLine
 10
-216.0483093261719
 20
222.7027130126953
 30
0.0
 11
-216.0483093261719
 21
206.7027130126953
 31
0.0
  0
LINE
  5
E6
330
22
100
AcDbEntity
  8
0
  6
Continuous
 62
     7
100
AcDbLine
 10
-225.0483093261719
 20
210.4027099609375
 30
0.0
 11
-223.0983123779297
 21
208.4527130126953
 31
0.0
  0
LINE
  5
E7
330
22
100
AcDbEntity
  8
0
  6
Continuous
 62
     7
100
AcDbLine
 10
-221.3241577148438
 20
221.6949920654297
 30
0.0
 11
-224.3895263671875
 21
217.0055847167969
 31
0.0
  0
LINE
  5
E8
330
22
100
AcDbEntity
  8
0
  6
Continuous
 62
     7
100
AcDbLine
 10
-217.0483093261719
 20
217.7027130126953
 30
0.0
 11
-216.0483093261719
 21
218.7027130126953
 31
0.0
  0
LINE
  5
E9
330
22
100
AcDbEntity
  8
0
  6
Continuous
 62
     7
100
AcDbLine
 10
-219.1283111572266
 20
208.0727081298828
 30
0.0
 11
-219.1283111572266
 21
204.8327178955078
 31
0.0
  0
LINE
  5
EA
330
22
100
AcDbEntity
  8
0
  6
Continuous
 62
     7
100
AcDbLine
 10
-222.0483093261719
 20
208.4527130126953
 30
0.0
 11
-219.1283111572266
 21
208.4527130126953
 31
0.0
  0
LINE
  5
EB
330
22
100
AcDbEntity
  8
0
  6
Continuous
 62
     7
100
AcDbLine
 10
-218.7483062744141
 20
204.4527130126953
 30
0.0
 11
-219.1283111572266
 21
204.8327178955078
 31
0.0
  0
LINE
  5
EC
330
22
100
AcDbEntity
  8
0
  6
Continuous
 62
     7
100
AcDbLine
 10
-218.7483062744141
 20
208.4527130126953
 30
0.0
 11
-218.7483062744141
 21
204.4527130126953
 31
0.0
  0
LINE
  5
ED
330
22
100
AcDbEntity
  8
0
  6
Continuous
 62
     7
100
AcDbLine
 10
-225.0483093261719
 20
210.6527099609375
 30
0.0
 11
-225.0483093261719
 21
202.2527160644531
 31
0.0
  0
LINE
  5
EE
330
22
100
AcDbEntity
  8
0
  6
Continuous
 62
     7
100
AcDbLine
 10
-222.0483093261719
 20
204.4527130126953
 30
0.0
 11
-223.0983123779297
 21
204.4527130126953
 31
0.0
  0
LINE
  5
EF
330
22
100
AcDbEntity
  8
0
  6
Continuous
 62
     7
100
AcDbLine
 10
-154.0522918701172
 20
206.7027130126953
 30
0.0
 11
-152.3022918701172
 21
204.9527130126953
 31
0.0
  0
LINE
  5
F0
330
22
100
AcDbEntity
  8
0
  6
Continuous
 62
     7
100
AcDbLine
 10
-129.0483093261719
 20
202.3026580810547
 30
0.0
 11
-130.5974578857422
 21
200.7535095214844
 31
0.0
  0
LINE
  5
F1
330
22
100
AcDbEntity
  8
0
  6
Continuous
 62
     7
100
AcDbLine
 10
-129.0483093261719
 20
204.9527130126953
 30
0.0
 11
-129.0483093261719
 21
202.2178344726563
 31
0.0
  0
LINE
  5
F2
330
22
100
AcDbEntity
  8
0
  6
Continuous
 62
     7
100
AcDbLine
 10
-129.0483093261719
 20
204.9527130126953
 30
0.0
 11
-130.7983093261719
 21
206.7027130126953
 31
0.0
  0
LINE
  5
F3
330
22
100
AcDbEntity
  8
0
  6
Continuous
 62
     7
100
AcDbLine
 10
-142.0423431396484
 20
206.7027130126953
 30
0.0
 11
-143.7923431396484
 21
204.9527130126953
 31
0.0
  0
LINE
  5
F4
330
22
100
AcDbEntity
  8
0
  6
Continuous
 62
     7
100
AcDbLine
 10
-129.0483093261719
 20
202.3026580810547
 30
0.0
 11
-130.5974578857422
 21
200.7535095214844
 31
0.0
  0
LINE
  5
F5
330
22
100
AcDbEntity
  8
0
  6
Continuous
 62
     7
100
AcDbLine
 10
-151.5522918701172
 20
211.9527130126953
 30
0.0
 11
-151.5522918701172
 21
218.7027130126953
 31
0.0
  0
LINE
  5
F6
330
22
100
AcDbEntity
  8
0
  6
Continuous
 62
     7
100
AcDbLine
 10
-154.0522918701172
 20
215.6657104492188
 30
0.0
 11
-151.5522918701172
 21
218.1657104492188
 31
0.0
  0
LINE
  5
F7
330
22
100
AcDbEntity
  8
0
  6
Continuous
 62
     7
100
AcDbLine
 10
-154.0522918701172
 20
211.4230804443359
 30
0.0
 11
-151.5522918701172
 21
213.9230804443359
 31
0.0
  0
LINE
  5
F8
330
22
100
AcDbEntity
  8
0
  6
Continuous
 62
     7
100
AcDbLine
 10
-154.0522918701172
 20
207.1804351806641
 30
0.0
 11
-149.2800140380859
 21
211.9527130126953
 31
0.0
  0
LINE
  5
F9
330
22
100
AcDbEntity
  8
0
  6
Continuous
 62
     7
100
AcDbLine
 10
-150.2873687744141
 20
206.7027130126953
 30
0.0
 11
-145.0373687744141
 21
211.9527130126953
 31
0.0
  0
LINE
  5
FA
330
22
100
AcDbEntity
  8
0
  6
Continuous
 62
     7
100
AcDbLine
 10
-146.0447235107421
 20
206.7027130126953
 30
0.0
 11
-143.0545959472656
 21
209.6928405761719
 31
0.0
  0
LINE
  5
FB
330
22
100
AcDbEntity
  8
0
  6
Continuous
 62
     7
100
AcDbLine
 10
-154.0522918701172
 20
217.7870330810547
 30
0.0
 11
-153.1366119384766
 21
218.7027130126953
 31
0.0
  0
LINE
  5
FC
330
22
100
AcDbEntity
  8
0
  6
Continuous
 62
     7
100
AcDbLine
 10
-154.0522918701172
 20
213.5444030761719
 30
0.0
 11
-151.5522918701172
 21
216.0444030761719
 31
0.0
  0
LINE
  5
FD
330
22
100
AcDbEntity
  8
0
  6
Continuous
 62
     7
100
AcDbLine
 10
-154.0522918701172
 20
209.3017578125
 30
0.0
 11
-151.4013214111328
 21
211.9527130126953
 31
0.0
  0
LINE
  5
FE
330
22
100
AcDbEntity
  8
0
  6
Continuous
 62
     7
100
AcDbLine
 10
-152.40869140625
 20
206.7027130126953
 30
0.0
 11
-147.15869140625
 21
211.9527130126953
 31
0.0
  0
LINE
  5
FF
330
22
100
AcDbEntity
  8
0
  6
Continuous
 62
     7
100
AcDbLine
 10
-148.1660461425781
 20
206.7027130126953
 30
0.0
 11
-143.7557678222656
 21
211.1130065917969
 31
0.0
  0
LINE
  5
100
330
22
100
AcDbEntity
  8
0
  6
Continuous
 62
     7
100
AcDbLine
 10
-143.9234008789063
 20
206.7027130126953
 30
0.0
 11
-142.4640655517578
 21
208.1620483398438
 31
0.0
  0
LINE
  5
101
330
22
100
AcDbEntity
  8
0
  6
Continuous
 62
     7
100
AcDbLine
 10
-144.2420654296875
 20
211.9527130126953
 30
0.0
 11
-151.5522918701172
 21
211.9527130126953
 31
0.0
  0
LINE
  5
102
330
22
100
AcDbEntity
  8
0
  6
Continuous
 62
     7
100
AcDbLine
 10
-154.0522918701172
 20
218.7027130126953
 30
0.0
 11
-151.5522918701172
 21
218.7027130126953
 31
0.0
  0
LINE
  5
103
330
22
100
AcDbEntity
  8
0
  6
Continuous
 62
     7
100
AcDbLine
 10
-129.0483093261719
 20
202.3026580810547
 30
0.0
 11
-148.0483093261719
 21
201.7088775634766
 31
0.0
  0
LINE
  5
104
330
22
100
AcDbEntity
  8
0
  6
Continuous
 62
     7
100
AcDbLine
 10
-130.5974578857422
 20
200.7535095214844
 30
0.0
 11
-146.6753234863281
 21
200.2510528564453
 31
0.0
  0
LINE
  5
105
330
22
100
AcDbEntity
  8
0
  6
Continuous
 62
     7
100
AcDbLine
 10
-221.5483093261719
 20
199.2027130126953
 30
0.0
 11
-215.5483093261719
 21
199.2027130126953
 31
0.0
  0
LINE
  5
106
330
22
100
AcDbEntity
  8
0
  6
Continuous
 62
     7
100
AcDbLine
 10
-219.1283111572266
 20
204.4527130126953
 30
0.0
 11
-218.7483062744141
 21
204.4527130126953
 31
0.0
  0
LINE
  5
107
330
22
100
AcDbEntity
  8
0
  6
Continuous
 62
     7
100
AcDbLine
 10
-225.0483093261719
 20
214.2027130126953
 30
0.0
 11
-222.0483093261719
 21
214.2027130126953
 31
0.0
  0
LINE
  5
108
330
22
100
AcDbEntity
  8
0
  6
Continuous
 62
     7
100
AcDbLine
 10
-212.0483093261719
 20
206.7027130126953
 30
0.0
 11
-216.0483093261719
 21
206.7027130126953
 31
0.0
  0
LINE
  5
109
330
22
100
AcDbEntity
  8
0
  6
Continuous
 62
     7
100
AcDbLine
 10
-216.0483093261719
 20
207.7027130126953
 30
0.0
 11
-216.0483093261719
 21
222.7027130126953
 31
0.0
  0
LINE
  5
10A
330
22
100
AcDbEntity
  8
0
  6
Continuous
 62
     7
100
AcDbLine
 10
-222.0483093261719
 20
204.4527130126953
 30
0.0
 11
-222.0483093261719
 21
199.7027130126953
 31
0.0
  0
LINE
  5
10B
330
22
100
AcDbEntity
  8
0
  6
Continuous
 62
     7
100
AcDbLine
 10
-225.0483093261719
 20
167.7027130126953
 30
0.0
 11
-222.0483093261719
 21
167.7027130126953
 31
0.0
  0
LINE
  5
10C
330
22
100
AcDbEntity
  8
0
  6
Continuous
 62
     7
100
AcDbLine
 10
-216.0483093261719
 20
106.7027130126953
 30
0.0
 11
-213.0483093261719
 21
106.7027130126953
 31
0.0
  0
LINE
  5
10D
330
22
100
AcDbEntity
  8
0
  6
Continuous
 62
     7
100
AcDbLine
 10
-216.0483093261719
 20
106.7027130126953
 30
0.0
 11
-219.5876617431641
 21
106.7027130126953
 31
0.0
  0
LINE
  5
10E
330
22
100
AcDbEntity
  8
0
  6
Continuous
 62
     7
100
AcDbLine
 10
-212.0483093261719
 20
122.7027130126953
 30
0.0
 11
-210.2983093261719
 21
124.4527130126953
 31
0.0
  0
LINE
  5
10F
330
22
100
AcDbEntity
  8
0
  6
Continuous
 62
     7
100
AcDbLine
 10
-212.0483093261719
 20
122.7027130126953
 30
0.0
 11
-213.0483093261719
 21
122.7027130126953
 31
0.0
  0
LINE
  5
110
330
22
100
AcDbEntity
  8
0
  6
Continuous
 62
     7
100
AcDbLine
 10
-210.2983093261719
 20
124.4527130126953
 30
0.0
 11
-210.2983093261719
 21
164.7027130126953
 31
0.0
  0
LINE
  5
111
330
22
100
AcDbEntity
  8
0
  6
Continuous
 62
     7
100
AcDbLine
 10
-221.3241577148438
 20
107.7104339599609
 30
0.0
 11
-224.24365234375
 21
112.2132720947266
 31
0.0
  0
LINE
  5
112
330
22
100
AcDbEntity
  8
0
  6
Continuous
 62
     7
100
AcDbLine
 10
-220.7483062744141
 20
108.9308013916016
 30
0.0
 11
-220.7483062744141
 21
164.7027130126953
 31
0.0
  0
LINE
  5
113
330
22
100
AcDbEntity
  8
0
  6
Continuous
 62
     7
100
AcDbLine
 10
-213.0483093261719
 20
106.7027130126953
 30
0.0
 11
-213.0483093261719
 21
164.7027130126953
 31
0.0
  0
LINE
  5
114
330
22
100
AcDbEntity
  8
0
  6
Continuous
 62
     7
100
AcDbLine
 10
-216.0483093261719
 20
164.7027130126953
 30
0.0
 11
-216.0483093261719
 21
106.7027130126953
 31
0.0
  0
LINE
  5
115
330
22
100
AcDbEntity
  8
0
  6
Continuous
 62
     7
100
AcDbLine
 10
-129.0483093261719
 20
202.3026580810547
 30
0.0
 11
-148.0483093261719
 21
201.7088775634766
 31
0.0
  0
LINE
  5
116
330
22
100
AcDbEntity
  8
0
  6
Continuous
 62
     7
100
AcDbLine
 10
-158.0522918701172
 20
124.4527130126953
 30
0.0
 11
-210.2983093261719
 21
124.4527130126953
 31
0.0
  0
LINE
  5
117
330
22
100
AcDbEntity
  8
0
  6
Continuous
 62
     7
100
AcDbLine
 10
-158.0522918701172
 20
122.7027130126953
 30
0.0
 11
-212.0483093261719
 21
122.7027130126953
 31
0.0
  0
LINE
  5
118
330
22
100
AcDbEntity
  8
0
  6
CENTER
 62
     7
100
AcDbLine
 10
-236.6854095458984
 20
164.7027130126953
 30
0.0
 11
-122.3164520263672
 21
164.7027130126953
 31
0.0
  0
LINE
  5
119
330
22
100
AcDbEntity
  8
0
  6
Continuous
 62
     7
100
AcDbLine
 10
-148.0483093261719
 20
201.7088775634766
 30
0.0
 11
-146.5930633544922
 21
200.2536163330078
 31
0.0
  0
LINE
  5
11A
330
22
100
AcDbEntity
  8
0
  6
Continuous
 62
     7
100
AcDbLine
 10
-148.0483093261719
 20
201.7088775634766
 30
0.0
 11
-146.5930633544922
 21
200.2536163330078
 31
0.0
  0
LINE
  5
11B
330
22
100
AcDbEntity
  8
0
  6
Continuous
 62
     7
100
AcDbLine
 10
-154.0522918701172
 20
218.7027130126953
 30
0.0
 11
-154.0522918701172
 21
206.7027130126953
 31
0.0
  0
LINE
  5
11C
330
22
100
AcDbEntity
  8
0
  6
Continuous
 62
     7
100
AcDbLine
 10
-158.0522918701172
 20
218.7027130126953
 30
0.0
 11
-154.0522918701172
 21
218.7027130126953
 31
0.0
  0
LINE
  5
11D
330
22
100
AcDbEntity
  8
0
  6
Continuous
 62
     7
100
AcDbLine
 10
-158.0522918701172
 20
218.7027130126953
 30
0.0
 11
-158.0522918701172
 21
206.7027130126953
 31
0.0
  0
LINE
  5
11E
330
22
100
AcDbEntity
  8
0
  6
Continuous
 62
     7
100
AcDbLine
 10
-158.0522918701172
 20
207.2027130126953
 30
0.0
 11
-154.0522918701172
 21
207.2027130126953
 31
0.0
  0
LINE
  5
11F
330
22
100
AcDbEntity
  8
0
  6
Continuous
 62
     7
100
AcDbLine
 10
-155.0522918701172
 20
218.7027130126953
 30
0.0
 11
-155.0522918701172
 21
206.7027130126953
 31
0.0
  0
LINE
  5
120
330
22
100
AcDbEntity
  8
0
  6
Continuous
 62
     7
100
AcDbLine
 10
-158.0522918701172
 20
110.7027130126953
 30
0.0
 11
-154.0522918701172
 21
110.7027130126953
 31
0.0
  0
LINE
  5
121
330
22
100
AcDbEntity
  8
0
  6
Continuous
 62
     7
100
AcDbLine
 10
-154.0522918701172
 20
110.7027130126953
 30
0.0
 11
-151.5522918701172
 21
110.7027130126953
 31
0.0
  0
LINE
  5
122
330
22
100
AcDbEntity
  8
0
  6
Continuous
 62
     7
100
AcDbLine
 10
-144.2420654296875
 20
117.4527130126953
 30
0.0
 11
-151.5522918701172
 21
117.4527130126953
 31
0.0
  0
LINE
  5
123
330
22
100
AcDbEntity
  8
0
  6
Continuous
 62
     7
100
AcDbLine
 10
-144.2420654296875
 20
146.2551574707031
 30
0.0
 11
-151.5522918701172
 21
146.2551574707031
 31
0.0
  0
LINE
  5
124
330
22
100
AcDbEntity
  8
0
  6
Continuous
 62
     7
100
AcDbLine
 10
-144.2420654296875
 20
136.25439453125
 30
0.0
 11
-151.5522918701172
 21
136.25439453125
 31
0.0
  0
LINE
  5
125
330
22
100
AcDbEntity
  8
0
  6
Continuous
 62
     7
100
AcDbLine
 10
-130.7983093261719
 20
122.7027130126953
 30
0.0
 11
-142.6992492675781
 21
122.7027130126953
 31
0.0
  0
LINE
  5
126
330
22
100
AcDbEntity
  8
0
  6
Continuous
 62
     7
100
AcDbLine
 10
-129.0483093261719
 20
124.4527130126953
 30
0.0
 11
-142.1849670410156
 21
124.4527130126953
 31
0.0
  0
LINE
  5
127
330
22
100
AcDbEntity
  8
0
  6
Continuous
 62
     7
100
AcDbLine
 10
-129.0483093261719
 20
164.7027130126953
 30
0.0
 11
-129.0483093261719
 21
124.4527130126953
 31
0.0
  0
LINE
  5
128
330
22
100
AcDbEntity
  8
0
  6
Continuous
 62
     7
100
AcDbLine
 10
-129.0483093261719
 20
124.4527130126953
 30
0.0
 11
-130.7983093261719
 21
122.7027130126953
 31
0.0
  0
LINE
  5
129
330
22
100
AcDbEntity
  8
0
  6
Continuous
 62
     7
100
AcDbLine
 10
-144.2420654296875
 20
117.4527130126953
 30
0.0
 11
-141.5522918701172
 21
126.6056518554688
 31
0.0
  0
LINE
  5
12A
330
22
100
AcDbEntity
  8
0
  6
Continuous
 62
     7
100
AcDbLine
 10
-144.2420654296875
 20
146.2551574707031
 30
0.0
 11
-144.2420654296875
 21
136.25439453125
 31
0.0
  0
LINE
  5
12B
330
22
100
AcDbEntity
  8
0
  6
Continuous
 62
     7
100
AcDbLine
 10
-141.5522918701172
 20
164.7027130126953
 30
0.0
 11
-141.5522918701172
 21
126.6056518554688
 31
0.0
  0
LINE
  5
12C
330
22
100
AcDbEntity
  8
0
  6
Continuous
 62
     7
100
AcDbLine
 10
-151.5522918701172
 20
110.7027130126953
 30
0.0
 11
-151.5522918701172
 21
164.7027130126953
 31
0.0
  0
LINE
  5
12D
330
22
100
AcDbEntity
  8
0
  6
Continuous
 62
     7
100
AcDbLine
 10
-154.0522918701172
 20
164.7027130126953
 30
0.0
 11
-154.0522918701172
 21
110.7027130126953
 31
0.0
  0
LINE
  5
12E
330
22
100
AcDbEntity
  8
0
  6
Continuous
 62
     7
100
AcDbLine
 10
-155.0522918701172
 20
164.7027130126953
 30
0.0
 11
-155.0522918701172
 21
110.7027130126953
 31
0.0
  0
LINE
  5
12F
330
22
100
AcDbEntity
  8
0
  6
Continuous
 62
     7
100
AcDbLine
 10
-158.0522918701172
 20
164.7027130126953
 30
0.0
 11
-158.0522918701172
 21
110.7027130126953
 31
0.0
  0
LINE
  5
130
330
22
100
AcDbEntity
  8
0
  6
Continuous
 62
     7
100
AcDbLine
 10
-148.0483093261719
 20
201.7088775634766
 30
0.0
 11
-148.0483093261719
 21
164.7027130126953
 31
0.0
  0
LINE
  5
131
330
22
100
AcDbEntity
  8
0
  6
Continuous
 62
     7
100
AcDbLine
 10
-146.5930633544922
 20
200.2536163330078
 30
0.0
 11
-146.5930633544922
 21
164.7027130126953
 31
0.0
  0
LINE
  5
132
330
22
100
AcDbEntity
  8
0
  6
Continuous
 62
     7
100
AcDbLine
 10
-130.5974578857422
 20
200.7535095214844
 30
0.0
 11
-130.5974578857422
 21
164.7027130126953
 31
0.0
  0
LINE
  5
133
330
22
100
AcDbEntity
  8
0
  6
Continuous
 62
     7
100
AcDbLine
 10
-129.0483093261719
 20
202.3026580810547
 30
0.0
 11
-129.0483093261719
 21
164.7027130126953
 31
0.0
  0
LINE
  5
134
330
22
100
AcDbEntity
  8
0
  6
Continuous
 62
     7
100
AcDbLine
 10
-223.533447265625
 20
214.2027130126953
 30
0.0
 11
-222.0483093261719
 21
212.7175750732422
 31
0.0
  0
LINE
  5
135
330
22
100
AcDbEntity
  8
0
  6
Continuous
 62
     7
100
AcDbLine
 10
-224.0284271240234
 20
214.2027130126953
 30
0.0
 11
-222.0483093261719
 21
212.2225952148439
 31
0.0
  0
LINE
  5
136
330
22
100
AcDbEntity
  8
0
  6
Continuous
 62
     7
100
AcDbLine
 10
-225.0483093261719
 20
213.7376708984375
 30
0.0
 11
-222.0483093261719
 21
210.7376708984375
 31
0.0
  0
LINE
  5
137
330
22
100
AcDbEntity
  8
0
  6
Continuous
 62
     7
100
AcDbLine
 10
-225.0483093261719
 20
213.2427062988281
 30
0.0
 11
-222.0483093261719
 21
210.2427062988281
 31
0.0
  0
LINE
  5
138
330
22
100
AcDbEntity
  8
0
  6
Continuous
 62
     7
100
AcDbLine
 10
-225.0483093261719
 20
211.7577819824219
 30
0.0
 11
-222.0483093261719
 21
208.7577819824219
 31
0.0
  0
LINE
  5
139
330
22
100
AcDbEntity
  8
0
  6
Continuous
 62
     7
100
AcDbLine
 10
-225.0483093261719
 20
211.2628021240234
 30
0.0
 11
-222.2382202148438
 21
208.4527130126953
 31
0.0
  0
LINE
  5
13A
330
22
100
AcDbEntity
  8
0
  6
Continuous
 62
     7
100
AcDbLine
 10
-222.1980133056641
 20
204.4527130126953
 30
0.0
 11
-222.0483093261719
 21
204.3030090332031
 31
0.0
  0
LINE
  5
13B
330
22
100
AcDbEntity
  8
0
  6
Continuous
 62
     7
100
AcDbLine
 10
-223.390625
 20
204.160400390625
 30
0.0
 11
-222.0483093261719
 21
202.8180847167969
 31
0.0
  0
LINE
  5
13C
330
22
100
AcDbEntity
  8
0
  6
Continuous
 62
     7
100
AcDbLine
 10
-223.6381072998047
 20
203.9129028320313
 30
0.0
 11
-222.0483093261719
 21
202.3231048583984
 31
0.0
  0
LINE
  5
13D
330
22
100
AcDbEntity
  8
0
  6
Continuous
 62
     7
100
AcDbLine
 10
-224.3805694580078
 20
203.1704406738281
 30
0.0
 11
-222.0483093261719
 21
200.8381805419922
 31
0.0
  0
LINE
  5
13E
330
22
100
AcDbEntity
  8
0
  6
Continuous
 62
     7
100
AcDbLine
 10
-224.6280670166016
 20
202.9229583740234
 30
0.0
 11
-222.0483093261719
 21
200.3432006835939
 31
0.0
  0
LINE
  5
13F
330
22
100
AcDbEntity
  8
0
  6
Continuous
 62
     7
100
AcDbLine
 10
-225.0483093261719
 20
201.8582763671875
 30
0.0
 11
-222.0483093261719
 21
198.8582763671875
 31
0.0
  0
LINE
  5
140
330
22
100
AcDbEntity
  8
0
  6
Continuous
 62
     7
100
AcDbLine
 10
-225.0483093261719
 20
201.3633117675781
 30
0.0
 11
-222.0483093261719
 21
198.3633117675781
 31
0.0
  0
LINE
  5
141
330
22
100
AcDbEntity
  8
0
  6
Continuous
 62
     7
100
AcDbLine
 10
-225.0483093261719
 20
199.8783874511719
 30
0.0
 11
-222.0483093261719
 21
196.8783874511719
 31
0.0
  0
LINE
  5
142
330
22
100
AcDbEntity
  8
0
  6
Continuous
 62
     7
100
AcDbLine
 10
-225.0483093261719
 20
199.3834075927734
 30
0.0
 11
-222.0483093261719
 21
196.3834075927734
 31
0.0
  0
LINE
  5
143
330
22
100
AcDbEntity
  8
0
  6
Continuous
 62
     7
100
AcDbLine
 10
-225.0483093261719
 20
197.8984832763672
 30
0.0
 11
-222.0483093261719
 21
194.8984832763672
 31
0.0
  0
LINE
  5
144
330
22
100
AcDbEntity
  8
0
  6
Continuous
 62
     7
100
AcDbLine
 10
-225.0483093261719
 20
197.4035186767578
 30
0.0
 11
-222.0483093261719
 21
194.4035186767578
 31
0.0
  0
LINE
  5
145
330
22
100
AcDbEntity
  8
0
  6
Continuous
 62
     7
100
AcDbLine
 10
-225.0483093261719
 20
195.9185943603516
 30
0.0
 11
-222.0483093261719
 21
192.9185943603516
 31
0.0
  0
LINE
  5
146
330
22
100
AcDbEntity
  8
0
  6
Continuous
 62
     7
100
AcDbLine
 10
-225.0483093261719
 20
195.4236145019531
 30
0.0
 11
-222.0483093261719
 21
192.4236145019531
 31
0.0
  0
LINE
  5
147
330
22
100
AcDbEntity
  8
0
  6
Continuous
 62
     7
100
AcDbLine
 10
-225.0483093261719
 20
193.9386901855469
 30
0.0
 11
-222.0483093261719
 21
190.9386901855469
 31
0.0
  0
LINE
  5
148
330
22
100
AcDbEntity
  8
0
  6
Continuous
 62
     7
100
AcDbLine
 10
-225.0483093261719
 20
193.4437103271484
 30
0.0
 11
-222.0483093261719
 21
190.4437103271484
 31
0.0
  0
LINE
  5
149
330
22
100
AcDbEntity
  8
0
  6
Continuous
 62
     7
100
AcDbLine
 10
-225.0483093261719
 20
191.9587860107422
 30
0.0
 11
-222.0483093261719
 21
188.9587860107422
 31
0.0
  0
LINE
  5
14A
330
22
100
AcDbEntity
  8
0
  6
Continuous
 62
     7
100
AcDbLine
 10
-225.0483093261719
 20
191.4638214111328
 30
0.0
 11
-222.0483093261719
 21
188.4638214111328
 31
0.0
  0
LINE
  5
14B
330
22
100
AcDbEntity
  8
0
  6
Continuous
 62
     7
100
AcDbLine
 10
-225.0483093261719
 20
189.9788970947266
 30
0.0
 11
-222.0483093261719
 21
186.9788970947266
 31
0.0
  0
LINE
  5
14C
330
22
100
AcDbEntity
  8
0
  6
Continuous
 62
     7
100
AcDbLine
 10
-225.0483093261719
 20
189.4839172363281
 30
0.0
 11
-222.0483093261719
 21
186.4839172363281
 31
0.0
  0
LINE
  5
14D
330
22
100
AcDbEntity
  8
0
  6
Continuous
 62
     7
100
AcDbLine
 10
-225.0483093261719
 20
187.9989929199219
 30
0.0
 11
-222.0483093261719
 21
184.9989929199219
 31
0.0
  0
LINE
  5
14E
330
22
100
AcDbEntity
  8
0
  6
Continuous
 62
     7
100
AcDbLine
 10
-225.0483093261719
 20
187.5040130615234
 30
0.0
 11
-222.0483093261719
 21
184.5040130615234
 31
0.0
  0
LINE
  5
14F
330
22
100
AcDbEntity
  8
0
  6
Continuous
 62
     7
100
AcDbLine
 10
-225.0483093261719
 20
186.0190887451172
 30
0.0
 11
-222.0483093261719
 21
183.0190887451172
 31
0.0
  0
LINE
  5
150
330
22
100
AcDbEntity
  8
0
  6
Continuous
 62
     7
100
AcDbLine
 10
-225.0483093261719
 20
185.5241241455078
 30
0.0
 11
-222.0483093261719
 21
182.5241241455078
 31
0.0
  0
LINE
  5
151
330
22
100
AcDbEntity
  8
0
  6
Continuous
 62
     7
100
AcDbLine
 10
-225.0483093261719
 20
184.0391998291016
 30
0.0
 11
-222.0483093261719
 21
181.0391998291016
 31
0.0
  0
LINE
  5
152
330
22
100
AcDbEntity
  8
0
  6
Continuous
 62
     7
100
AcDbLine
 10
-225.0483093261719
 20
183.5442199707031
 30
0.0
 11
-222.0483093261719
 21
180.5442199707031
 31
0.0
  0
LINE
  5
153
330
22
100
AcDbEntity
  8
0
  6
Continuous
 62
     7
100
AcDbLine
 10
-225.0483093261719
 20
182.0592956542969
 30
0.0
 11
-222.0483093261719
 21
179.0592956542969
 31
0.0
  0
LINE
  5
154
330
22
100
AcDbEntity
  8
0
  6
Continuous
 62
     7
100
AcDbLine
 10
-225.0483093261719
 20
181.5643157958984
 30
0.0
 11
-222.0483093261719
 21
178.5643157958984
 31
0.0
  0
LINE
  5
155
330
22
100
AcDbEntity
  8
0
  6
Continuous
 62
     7
100
AcDbLine
 10
-225.0483093261719
 20
180.0793914794922
 30
0.0
 11
-222.0483093261719
 21
177.0793914794922
 31
0.0
  0
LINE
  5
156
330
22
100
AcDbEntity
  8
0
  6
Continuous
 62
     7
100
AcDbLine
 10
-225.0483093261719
 20
179.5844268798828
 30
0.0
 11
-222.0483093261719
 21
176.5844268798828
 31
0.0
  0
LINE
  5
157
330
22
100
AcDbEntity
  8
0
  6
Continuous
 62
     7
100
AcDbLine
 10
-225.0483093261719
 20
178.0995025634766
 30
0.0
 11
-222.0483093261719
 21
175.0995025634766
 31
0.0
  0
LINE
  5
158
330
22
100
AcDbEntity
  8
0
  6
Continuous
 62
     7
100
AcDbLine
 10
-225.0483093261719
 20
177.6045227050781
 30
0.0
 11
-222.0483093261719
 21
174.6045227050781
 31
0.0
  0
LINE
  5
159
330
22
100
AcDbEntity
  8
0
  6
Continuous
 62
     7
100
AcDbLine
 10
-225.0483093261719
 20
176.1195983886719
 30
0.0
 11
-222.0483093261719
 21
173.1195983886719
 31
0.0
  0
LINE
  5
15A
330
22
100
AcDbEntity
  8
0
  6
Continuous
 62
     7
100
AcDbLine
 10
-225.0483093261719
 20
175.6246185302734
 30
0.0
 11
-222.0483093261719
 21
172.6246185302734
 31
0.0
  0
LINE
  5
15B
330
22
100
AcDbEntity
  8
0
  6
Continuous
 62
     7
100
AcDbLine
 10
-225.0483093261719
 20
174.1396942138672
 30
0.0
 11
-222.0483093261719
 21
171.1396942138672
 31
0.0
  0
LINE
  5
15C
330
22
100
AcDbEntity
  8
0
  6
Continuous
 62
     7
100
AcDbLine
 10
-225.0483093261719
 20
173.6447296142578
 30
0.0
 11
-222.0483093261719
 21
170.6447296142578
 31
0.0
  0
LINE
  5
15D
330
22
100
AcDbEntity
  8
0
  6
Continuous
 62
     7
100
AcDbLine
 10
-225.0483093261719
 20
172.1598052978516
 30
0.0
 11
-222.0483093261719
 21
169.1598052978516
 31
0.0
  0
LINE
  5
15E
330
22
100
AcDbEntity
  8
0
  6
Continuous
 62
     7
100
AcDbLine
 10
-225.0483093261719
 20
171.6648254394531
 30
0.0
 11
-222.0483093261719
 21
168.6648254394531
 31
0.0
  0
LINE
  5
15F
330
22
100
AcDbEntity
  8
0
  6
Continuous
 62
     7
100
AcDbLine
 10
-225.0483093261719
 20
170.1799011230469
 30
0.0
 11
-222.5711212158203
 21
167.7027130126953
 31
0.0
  0
LINE
  5
160
330
22
100
AcDbEntity
  8
0
  6
Continuous
 62
     7
100
AcDbLine
 10
-225.0483093261719
 20
169.6849212646484
 30
0.0
 11
-223.0661010742188
 21
167.7027130126953
 31
0.0
  0
LINE
  5
161
330
22
100
AcDbEntity
  8
0
  6
Continuous
 62
     7
100
AcDbLine
 10
-225.0483093261719
 20
168.1999969482422
 30
0.0
 11
-224.551025390625
 21
167.7027130126953
 31
0.0
  0
LINE
  5
162
330
22
100
AcDbEntity
  8
0
  6
Continuous
 62
     7
100
AcDbLine
 10
-225.0483093261719
 20
167.7050323486328
 30
0.0
 11
-225.0460052490234
 21
167.7027130126953
 31
0.0
  0
LINE
  5
163
330
22
100
AcDbEntity
  8
0
  6
Continuous
 62
     7
100
AcDbLine
 10
-215.0483093261719
 20
199.7027130126953
 30
0.0
 11
-215.0483093261719
 21
164.7027130126953
 31
0.0
  0
LINE
  5
164
330
22
100
AcDbEntity
  8
0
  6
Continuous
 62
     7
100
AcDbLine
 10
-222.0483093261719
 20
199.7027130126953
 30
0.0
 11
-222.0483093261719
 21
164.7027130126953
 31
0.0
  0
LINE
  5
165
330
22
100
AcDbEntity
  8
0
  6
Continuous
 62
     7
100
AcDbLine
 10
-225.0483093261719
 20
214.5248870849609
 30
0.0
 11
-225.0483093261719
 21
114.9334030151367
 31
0.0
  0
LINE
  5
166
330
22
100
AcDbEntity
  8
0
  6
Continuous
 62
     7
100
AcDbLine
 10
-343.1677551269531
 20
210.0471954345703
 30
0.0
 11
-343.9612731933594
 21
207.1392974853516
 31
0.0
  0
LINE
  5
167
330
22
100
AcDbEntity
  8
0
  6
Continuous
 62
     7
100
AcDbLine
 10
-343.9336547851563
 20
210.3741607666016
 30
0.0
 11
-343.5507202148438
 21
210.2106781005859
 31
0.0
  0
LINE
  5
168
330
22
100
AcDbEntity
  8
0
  6
Continuous
 62
     7
100
AcDbLine
 10
-343.9336547851563
 20
210.3741607666016
 30
0.0
 11
-345.4848937988281
 21
207.7897644042969
 31
0.0
  0
LINE
  5
169
330
22
100
AcDbEntity
  8
0
  6
Continuous
 62
     7
100
AcDbLine
 10
-346.1629638671875
 20
203.0312652587891
 30
0.0
 11
-346.5458984375
 21
203.1947479248047
 31
0.0
  0
LINE
  5
16A
330
22
100
AcDbEntity
  8
0
  6
Continuous
 62
     7
100
AcDbLine
 10
-348.4135131835938
 20
208.5924377441406
 30
0.0
 11
-345.4848937988281
 21
207.7897644042969
 31
0.0
  0
LINE
  5
16B
330
22
100
AcDbEntity
  8
0
  6
Continuous
 62
     7
100
AcDbLine
 10
-348.5771179199219
 20
208.2091979980469
 30
0.0
 11
-348.4135131835938
 21
208.5924377441406
 31
0.0
  0
LINE
  5
16C
330
22
100
AcDbEntity
  8
0
  6
Continuous
 62
     7
100
AcDbLine
 10
-348.5771179199219
 20
208.2091979980469
 30
0.0
 11
-348.74072265625
 21
207.8259735107422
 31
0.0
  0
LINE
  5
16D
330
22
100
AcDbEntity
  8
0
  6
Continuous
 62
     7
100
AcDbLine
 10
-356.0483093261719
 20
192.9527130126953
 30
0.0
 11
-356.0483093261719
 21
179.4527130126953
 31
0.0
  0
LINE
  5
16E
330
22
100
AcDbEntity
  8
0
  6
Continuous
 62
     7
100
AcDbLine
 10
-361.0483093261719
 20
192.9527130126953
 30
0.0
 11
-361.0483093261719
 21
179.4527130126953
 31
0.0
  0
LINE
  5
16F
330
22
100
AcDbEntity
  8
0
  6
Continuous
 62
     7
100
AcDbLine
 10
-346.9288635253906
 20
203.3582305908203
 30
0.0
 11
-346.5458984375
 21
203.1947479248047
 31
0.0
  0
LINE
  5
170
330
22
100
AcDbEntity
  8
0
  6
Continuous
 62
     7
100
AcDbLine
 10
-334.0483093261719
 20
192.9527130126953
 30
0.0
 11
-334.0483093261719
 21
179.4527130126953
 31
0.0
  0
LINE
  5
171
330
22
100
AcDbEntity
  8
0
  6
Continuous
 62
     7
100
AcDbLine
 10
-329.0483093261719
 20
192.9527130126953
 30
0.0
 11
-329.0483093261719
 21
179.4527130126953
 31
0.0
  0
LINE
  5
172
330
22
100
AcDbEntity
  8
0
  6
Continuous
 62
     7
100
AcDbLine
 10
-348.74072265625
 20
207.8259735107422
 30
0.0
 11
-346.1353454589844
 21
206.2661285400391
 31
0.0
  0
LINE
  5
173
330
22
100
AcDbEntity
  8
0
  6
Continuous
 62
     7
100
AcDbLine
 10
-346.9288635253906
 20
203.3582305908203
 30
0.0
 11
-346.1353454589844
 21
206.2661285400391
 31
0.0
  0
LINE
  5
174
330
22
100
AcDbEntity
  8
0
  6
Continuous
 62
     7
100
AcDbLine
 10
-346.1629638671875
 20
203.0312652587891
 30
0.0
 11
-344.6117248535156
 21
205.6156616210938
 31
0.0
  0
LINE
  5
175
330
22
100
AcDbEntity
  8
0
  6
Continuous
 62
     7
100
AcDbLine
 10
-343.1677551269531
 20
210.0471954345703
 30
0.0
 11
-343.5507202148438
 21
210.2106781005859
 31
0.0
  0
LINE
  5
176
330
22
100
AcDbEntity
  8
0
  6
Continuous
 62
     7
100
AcDbLine
 10
-341.3558959960938
 20
205.5794677734375
 30
0.0
 11
-343.9612731933594
 21
207.1392974853516
 31
0.0
  0
LINE
  5
177
330
22
100
AcDbEntity
  8
0
  6
Continuous
 62
     7
100
AcDbLine
 10
-341.5195007324219
 20
205.1962280273438
 30
0.0
 11
-341.3558959960938
 21
205.5794677734375
 31
0.0
  0
LINE
  5
178
330
22
100
AcDbEntity
  8
0
  6
Continuous
 62
     7
100
AcDbLine
 10
-341.68310546875
 20
204.81298828125
 30
0.0
 11
-344.6117248535156
 21
205.6156616210938
 31
0.0
  0
LINE
  5
179
330
22
100
AcDbEntity
  8
0
  6
Continuous
 62
     7
100
AcDbLine
 10
-341.5195007324219
 20
205.1962280273438
 30
0.0
 11
-341.68310546875
 21
204.81298828125
 31
0.0
  0
LINE
  5
17A
330
22
100
AcDbEntity
  8
0
  6
Continuous
 62
     7
100
AcDbLine
 10
-385.1587524414063
 20
142.8325805664063
 30
0.0
 11
-382.1449890136719
 21
142.7813873291016
 31
0.0
  0
LINE
  5
17B
330
22
100
AcDbEntity
  8
0
  6
Continuous
 62
     7
100
AcDbLine
 10
-385.258544921875
 20
143.6593475341797
 30
0.0
 11
-385.2086486816406
 21
143.2459716796875
 31
0.0
  0
LINE
  5
17C
330
22
100
AcDbEntity
  8
0
  6
Continuous
 62
     7
100
AcDbLine
 10
-385.1587524414063
 20
142.8325805664063
 30
0.0
 11
-385.2086486816406
 21
143.2459716796875
 31
0.0
  0
LINE
  5
17D
330
22
100
AcDbEntity
  8
0
  6
Continuous
 62
     7
100
AcDbLine
 10
-380.5484313964844
 20
139.9436492919922
 30
0.0
 11
-380.500244140625
 21
142.9798889160156
 31
0.0
  0
LINE
  5
17E
330
22
100
AcDbEntity
  8
0
  6
Continuous
 62
     7
100
AcDbLine
 10
-380.9621276855469
 20
139.8937072753906
 30
0.0
 11
-380.5484313964844
 21
139.9436492919922
 31
0.0
  0
LINE
  5
17F
330
22
100
AcDbEntity
  8
0
  6
Continuous
 62
     7
100
AcDbLine
 10
-377.585205078125
 20
143.7466430664063
 30
0.0
 11
-380.500244140625
 21
142.9798889160156
 31
0.0
  0
LINE
  5
180
330
22
100
AcDbEntity
  8
0
  6
Continuous
 62
     7
100
AcDbLine
 10
-377.6849670410156
 20
144.5734100341797
 30
0.0
 11
-380.6987609863281
 21
144.6246185302734
 31
0.0
  0
LINE
  5
181
330
22
100
AcDbEntity
  8
0
  6
Continuous
 62
     7
100
AcDbLine
 10
-377.585205078125
 20
143.7466430664063
 30
0.0
 11
-377.6350708007813
 21
144.1600341796875
 31
0.0
  0
LINE
  5
182
330
22
100
AcDbEntity
  8
0
  6
Continuous
 62
     7
100
AcDbLine
 10
-377.6849670410156
 20
144.5734100341797
 30
0.0
 11
-377.6350708007813
 21
144.1600341796875
 31
0.0
  0
LINE
  5
183
330
22
100
AcDbEntity
  8
0
  6
Continuous
 62
     7
100
AcDbLine
 10
-382.2953186035156
 20
147.4623565673828
 30
0.0
 11
-382.343505859375
 21
144.4261169433594
 31
0.0
  0
LINE
  5
184
330
22
100
AcDbEntity
  8
0
  6
Continuous
 62
     7
100
AcDbLine
 10
-311.2980041503906
 20
146.5034637451172
 30
0.0
 11
-309.83544921875
 21
143.8678588867188
 31
0.0
  0
LINE
  5
185
330
22
100
AcDbEntity
  8
0
  6
Continuous
 62
     7
100
AcDbLine
 10
-325.0483093261719
 20
142.7027130126953
 30
0.0
 11
-325.0483093261719
 21
160.2027130126953
 31
0.0
  0
LINE
  5
186
330
22
100
AcDbEntity
  8
0
  6
Continuous
 62
     7
100
AcDbLine
 10
-311.7448120117188
 20
141.3996276855469
 30
0.0
 11
-311.9949035644531
 21
141.7329406738281
 31
0.0
  0
LINE
  5
187
330
22
100
AcDbEntity
  8
0
  6
Continuous
 62
     7
100
AcDbLine
 10
-311.4947204589844
 20
141.0663299560547
 30
0.0
 11
-308.8411560058594
 21
142.542724609375
 31
0.0
  0
LINE
  5
188
330
22
100
AcDbEntity
  8
0
  6
Continuous
 62
     7
100
AcDbLine
 10
-343.0483093261719
 20
133.7027130126953
 30
0.0
 11
-343.0483093261719
 21
158.7027130126953
 31
0.0
  0
LINE
  5
189
330
22
100
AcDbEntity
  8
0
  6
CENTER
 62
     7
100
AcDbLine
 10
-408.4965209960937
 20
164.7027130126953
 30
0.0
 11
-287.19384765625
 21
164.7027130126953
 31
0.0
  0
LINE
  5
18A
330
22
100
AcDbEntity
  8
0
  6
Continuous
 62
     7
100
AcDbLine
 10
-381.8816223144531
 20
147.5122833251953
 30
0.0
 11
-381.4679260253906
 21
147.5622100830078
 31
0.0
  0
LINE
  5
18B
330
22
100
AcDbEntity
  8
0
  6
Continuous
 62
     7
100
AcDbLine
 10
-381.4679260253906
 20
147.5622100830078
 30
0.0
 11
-380.6987609863281
 21
144.6246185302734
 31
0.0
  0
LINE
  5
18C
330
22
100
AcDbEntity
  8
0
  6
Continuous
 62
     7
100
AcDbLine
 10
-370.0483093261719
 20
142.7027130126953
 30
0.0
 11
-370.0483093261719
 21
160.2027130126953
 31
0.0
  0
LINE
  5
18D
330
22
100
AcDbEntity
  8
0
  6
Continuous
 62
     7
100
AcDbLine
 10
-380.9621276855469
 20
139.8937072753906
 30
0.0
 11
-381.3758239746094
 21
139.8437805175781
 31
0.0
  0
LINE
  5
18E
330
22
100
AcDbEntity
  8
0
  6
Continuous
 62
     7
100
AcDbLine
 10
-381.8816223144531
 20
147.5122833251953
 30
0.0
 11
-382.2953186035156
 21
147.4623565673828
 31
0.0
  0
LINE
  5
18F
330
22
100
AcDbEntity
  8
0
  6
Continuous
 62
     7
100
AcDbLine
 10
-338.0483093261719
 20
133.7027130126953
 30
0.0
 11
-338.0483093261719
 21
158.7027130126953
 31
0.0
  0
LINE
  5
190
330
22
100
AcDbEntity
  8
0
  6
Continuous
 62
     7
100
AcDbLine
 10
-311.2980041503906
 20
146.5034637451172
 30
0.0
 11
-310.9649353027344
 21
146.7533721923828
 31
0.0
  0
LINE
  5
191
330
22
100
AcDbEntity
  8
0
  6
Continuous
 62
     7
100
AcDbLine
 10
-306.7196044921875
 20
140.4015960693359
 30
0.0
 11
-308.8411560058594
 21
142.542724609375
 31
0.0
  0
LINE
  5
192
330
22
100
AcDbEntity
  8
0
  6
Continuous
 62
     7
100
AcDbLine
 10
-310.6318664550781
 20
147.0032653808594
 30
0.0
 11
-308.5103149414063
 21
144.8621368408203
 31
0.0
  0
LINE
  5
193
330
22
100
AcDbEntity
  8
0
  6
Continuous
 62
     7
100
AcDbLine
 10
-320.0483093261719
 20
142.7027130126953
 30
0.0
 11
-320.0483093261719
 21
160.2027130126953
 31
0.0
  0
LINE
  5
194
330
22
100
AcDbEntity
  8
0
  6
Continuous
 62
     7
100
AcDbLine
 10
-311.9949035644531
 20
141.7329406738281
 30
0.0
 11
-309.83544921875
 21
143.8678588867188
 31
0.0
  0
LINE
  5
195
330
22
100
AcDbEntity
  8
0
  6
Continuous
 62
     7
100
AcDbLine
 10
-329.0483093261719
 20
136.4527130126953
 30
0.0
 11
-329.0483093261719
 21
149.9527130126953
 31
0.0
  0
LINE
  5
196
330
22
100
AcDbEntity
  8
0
  6
Continuous
 62
     7
100
AcDbLine
 10
-311.7448120117188
 20
141.3996276855469
 30
0.0
 11
-311.4947204589844
 21
141.0663299560547
 31
0.0
  0
LINE
  5
197
330
22
100
AcDbEntity
  8
0
  6
Continuous
 62
     7
100
AcDbLine
 10
-310.6318664550781
 20
147.0032653808594
 30
0.0
 11
-310.9649353027344
 21
146.7533721923828
 31
0.0
  0
LINE
  5
198
330
22
100
AcDbEntity
  8
0
  6
Continuous
 62
     7
100
AcDbLine
 10
-305.606689453125
 20
146.0052185058594
 30
0.0
 11
-305.3565979003906
 21
145.6719207763672
 31
0.0
  0
LINE
  5
199
330
22
100
AcDbEntity
  8
0
  6
Continuous
 62
     7
100
AcDbLine
 10
-305.606689453125
 20
146.0052185058594
 30
0.0
 11
-305.8567504882813
 21
146.3385314941406
 31
0.0
  0
LINE
  5
19A
330
22
100
AcDbEntity
  8
0
  6
Continuous
 62
     7
100
AcDbLine
 10
-306.0534973144531
 20
140.9013977050781
 30
0.0
 11
-307.5160217285156
 21
143.5370025634766
 31
0.0
  0
LINE
  5
19B
330
22
100
AcDbEntity
  8
0
  6
Continuous
 62
     7
100
AcDbLine
 10
-306.0534973144531
 20
140.9013977050781
 30
0.0
 11
-306.3865356445313
 21
140.6514892578125
 31
0.0
  0
LINE
  5
19C
330
22
100
AcDbEntity
  8
0
  6
Continuous
 62
     7
100
AcDbLine
 10
-306.7196044921875
 20
140.4015960693359
 30
0.0
 11
-306.3865356445313
 21
140.6514892578125
 31
0.0
  0
LINE
  5
19D
330
22
100
AcDbEntity
  8
0
  6
Continuous
 62
     7
100
AcDbLine
 10
-352.0483093261719
 20
133.7027130126953
 30
0.0
 11
-352.0483093261719
 21
158.7027130126953
 31
0.0
  0
LINE
  5
19E
330
22
100
AcDbEntity
  8
0
  6
Continuous
 62
     7
100
AcDbLine
 10
-365.0483093261719
 20
142.7027130126953
 30
0.0
 11
-365.0483093261719
 21
160.2027130126953
 31
0.0
  0
LINE
  5
19F
330
22
100
AcDbEntity
  8
0
  6
Continuous
 62
     7
100
AcDbLine
 10
-385.258544921875
 20
143.6593475341797
 30
0.0
 11
-382.343505859375
 21
144.4261169433594
 31
0.0
  0
LINE
  5
1A0
330
22
100
AcDbEntity
  8
0
  6
Continuous
 62
     7
100
AcDbLine
 10
-305.8567504882813
 20
146.3385314941406
 30
0.0
 11
-308.5103149414063
 21
144.8621368408203
 31
0.0
  0
LINE
  5
1A1
330
22
100
AcDbEntity
  8
0
  6
Continuous
 62
     7
100
AcDbLine
 10
-305.3565979003906
 20
145.6719207763672
 30
0.0
 11
-307.5160217285156
 21
143.5370025634766
 31
0.0
  0
LINE
  5
1A2
330
22
100
AcDbEntity
  8
0
  6
Continuous
 62
     7
100
AcDbLine
 10
-381.3758239746094
 20
139.8437805175781
 30
0.0
 11
-382.1449890136719
 21
142.7813873291016
 31
0.0
  0
LINE
  5
1A3
330
22
100
AcDbEntity
  8
0
  6
Continuous
 62
     7
100
AcDbLine
 10
-356.0483093261719
 20
136.4527130126953
 30
0.0
 11
-356.0483093261719
 21
149.9527130126953
 31
0.0
  0
LINE
  5
1A4
330
22
100
AcDbEntity
  8
0
  6
Continuous
 62
     7
100
AcDbLine
 10
-361.0483093261719
 20
136.4527130126953
 30
0.0
 11
-361.0483093261719
 21
149.9527130126953
 31
0.0
  0
LINE
  5
1A5
330
22
100
AcDbEntity
  8
0
  6
Continuous
 62
     7
100
AcDbLine
 10
-347.0483093261719
 20
133.7027130126953
 30
0.0
 11
-347.0483093261719
 21
158.7027130126953
 31
0.0
  0
LINE
  5
1A6
330
22
100
AcDbEntity
  8
0
  6
Continuous
 62
     7
100
AcDbLine
 10
-334.0483093261719
 20
136.4527130126953
 30
0.0
 11
-334.0483093261719
 21
149.9527130126953
 31
0.0
  0
LINE
  5
1A7
330
22
100
AcDbEntity
  8
0
  6
Continuous
 62
     7
100
AcDbLine
 10
-374.0483093261719
 20
178.450439453125
 30
0.0
 11
-374.0483093261719
 21
150.9549865722656
 31
0.0
  0
LINE
  5
1A8
330
22
100
AcDbEntity
  8
0
  6
Continuous
 62
     7
100
AcDbLine
 10
-370.0483093261719
 20
186.7027130126953
 30
0.0
 11
-370.0483093261719
 21
169.2027130126953
 31
0.0
  0
LINE
  5
1A9
330
22
100
AcDbEntity
  8
0
  6
Continuous
 62
     7
100
AcDbLine
 10
-361.0483093261719
 20
170.9527130126953
 30
0.0
 11
-361.0483093261719
 21
158.4527130126953
 31
0.0
  0
LINE
  5
1AA
330
22
100
AcDbEntity
  8
0
  6
Continuous
 62
     7
100
AcDbLine
 10
-356.0483093261719
 20
170.9527130126953
 30
0.0
 11
-356.0483093261719
 21
158.4527130126953
 31
0.0
  0
LINE
  5
1AB
330
22
100
AcDbEntity
  8
0
  6
Continuous
 62
     7
100
AcDbLine
 10
-347.0483093261719
 20
195.7027130126953
 30
0.0
 11
-347.0483093261719
 21
170.7027130126953
 31
0.0
  0
LINE
  5
1AC
330
22
100
AcDbEntity
  8
0
  6
Continuous
 62
     7
100
AcDbLine
 10
-320.0483093261719
 20
186.7027130126953
 30
0.0
 11
-320.0483093261719
 21
169.2027130126953
 31
0.0
  0
LINE
  5
1AD
330
22
100
AcDbEntity
  8
0
  6
Continuous
 62
     7
100
AcDbLine
 10
-325.0483093261719
 20
186.7027130126953
 30
0.0
 11
-325.0483093261719
 21
169.2027130126953
 31
0.0
  0
LINE
  5
1AE
330
22
100
AcDbEntity
  8
0
  6
Continuous
 62
     7
100
AcDbLine
 10
-329.0483093261719
 20
170.9527130126953
 30
0.0
 11
-329.0483093261719
 21
158.4527130126953
 31
0.0
  0
LINE
  5
1AF
330
22
100
AcDbEntity
  8
0
  6
Continuous
 62
     7
100
AcDbLine
 10
-316.0483093261719
 20
178.450439453125
 30
0.0
 11
-316.0483093261719
 21
150.9549865722656
 31
0.0
  0
LINE
  5
1B0
330
22
100
AcDbEntity
  8
0
  6
Continuous
 62
     7
100
AcDbLine
 10
-338.0483093261719
 20
195.7027130126953
 30
0.0
 11
-338.0483093261719
 21
170.7027130126953
 31
0.0
  0
LINE
  5
1B1
330
22
100
AcDbEntity
  8
0
  6
CENTER
 62
     7
100
AcDbLine
 10
-345.0483093261719
 20
226.2027130126953
 30
0.0
 11
-345.0483093261719
 21
103.8372268676758
 31
0.0
  0
LINE
  5
1B2
330
22
100
AcDbEntity
  8
0
  6
Continuous
 62
     7
100
AcDbLine
 10
-343.0483093261719
 20
195.7027130126953
 30
0.0
 11
-343.0483093261719
 21
170.7027130126953
 31
0.0
  0
LINE
  5
1B3
330
22
100
AcDbEntity
  8
0
  6
Continuous
 62
     7
100
AcDbLine
 10
-352.0483093261719
 20
195.7027130126953
 30
0.0
 11
-352.0483093261719
 21
170.7027130126953
 31
0.0
  0
LINE
  5
1B4
330
22
100
AcDbEntity
  8
0
  6
Continuous
 62
     7
100
AcDbLine
 10
-365.0483093261719
 20
186.7027130126953
 30
0.0
 11
-365.0483093261719
 21
169.2027130126953
 31
0.0
  0
LINE
  5
1B5
330
22
100
AcDbEntity
  8
0
  6
Continuous
 62
     7
100
AcDbLine
 10
-334.0483093261719
 20
170.9527130126953
 30
0.0
 11
-334.0483093261719
 21
158.4527130126953
 31
0.0
  0
ARC
  5
1B6
330
22
100
AcDbEntity
  8
0
  6
Continuous
 62
     7
100
AcDbCircle
 10
-214.5483093261719
 20
200.7027130126953
 30
0.0
 40
0.5
100
AcDbArc
 50
90.00000000000019
 51
180.0000000000004
  0
ARC
  5
1B7
330
22
100
AcDbEntity
  8
0
  6
Continuous
 62
     7
100
AcDbCircle
 10
-219.5876617431641
 20
220.7027130126953
 30
0.0
 40
2.0
100
AcDbArc
 50
90.00000000000019
 51
150.2552271416998
  0
ARC
  5
1B8
330
22
100
AcDbEntity
  8
0
  6
Continuous
 62
     7
100
AcDbCircle
 10
-220.0483093261719
 20
214.5248870849609
 30
0.0
 40
5.0
100
AcDbArc
 50
150.2550970152432
 51
180.0000000000004
  0
ARC
  5
1B9
330
22
100
AcDbEntity
  8
0
  6
Continuous
 62
     7
100
AcDbCircle
 10
-159.3138427734375
 20
202.5518798828125
 30
0.0
 40
17.76328468322754
100
AcDbArc
 50
13.51352706061547
 51
31.95333796711201
  0
ARC
  5
1BA
330
22
100
AcDbEntity
  8
0
  6
Continuous
 62
     7
100
AcDbCircle
 10
-215.5483093261719
 20
199.7027130126953
 30
0.0
 40
0.5
100
AcDbArc
 50
270.0000000000005
 51
0.0
  0
ARC
  5
1BB
330
22
100
AcDbEntity
  8
0
  6
Continuous
 62
     7
100
AcDbCircle
 10
-221.5483093261719
 20
199.7027130126953
 30
0.0
 40
0.5
100
AcDbArc
 50
180.0000000000004
 51
270.0000000000005
  0
ARC
  5
1BC
330
22
100
AcDbEntity
  8
0
  6
Continuous
 62
     7
100
AcDbCircle
 10
-219.5876617431641
 20
108.7027130126953
 30
0.0
 40
2.0
100
AcDbArc
 50
209.7447728583009
 51
270.0000000000005
  0
ARC
  5
1BD
330
22
100
AcDbEntity
  8
0
  6
Continuous
 62
     7
100
AcDbCircle
 10
-220.0483093261719
 20
114.9334030151367
 30
0.0
 40
5.0
100
AcDbArc
 50
180.0000000000004
 51
212.9581302158277
  0
ARC
  5
1BE
330
22
100
AcDbEntity
  8
0
  6
Continuous
 62
     7
100
AcDbCircle
 10
-159.3138427734375
 20
126.8535537719727
 30
0.0
 40
17.76328468322754
100
AcDbArc
 50
359.2003619830844
 51
31.95335884712319
  0
ARC
  5
1BF
330
22
100
AcDbEntity
  8
0
  6
Continuous
 62
     7
100
AcDbCircle
 10
-206.1575622558594
 20
164.7027130126953
 30
0.0
 40
64.60527801513672
100
AcDbArc
 50
343.4087163057414
 51
0.0
  0
ARC
  5
1C0
330
22
100
AcDbEntity
  8
0
  6
Continuous
 62
     7
100
AcDbCircle
 10
-340.5483093261719
 20
195.7027130126953
 30
0.0
 40
2.5
100
AcDbArc
 50
0.0
 51
180.0000000000004
  0
ARC
  5
1C1
330
22
100
AcDbEntity
  8
0
  6
Continuous
 62
     7
100
AcDbCircle
 10
-349.5483093261719
 20
195.7027130126953
 30
0.0
 40
2.5
100
AcDbArc
 50
0.0
 51
180.0000000000004
  0
ARC
  5
1C2
330
22
100
AcDbEntity
  8
0
  6
Continuous
 62
     7
100
AcDbCircle
 10
-331.5483093261719
 20
192.9527130126953
 30
0.0
 40
2.5
100
AcDbArc
 50
0.0
 51
180.0000000000004
  0
ARC
  5
1C3
330
22
100
AcDbEntity
  8
0
  6
Continuous
 62
     7
100
AcDbCircle
 10
-331.5483093261719
 20
179.4527130126953
 30
0.0
 40
2.5
100
AcDbArc
 50
180.0000000000004
 51
0.0
  0
ARC
  5
1C4
330
22
100
AcDbEntity
  8
0
  6
Continuous
 62
     7
100
AcDbCircle
 10
-367.5483093261719
 20
186.7027130126953
 30
0.0
 40
2.5
100
AcDbArc
 50
0.0
 51
180.0000000000004
  0
ARC
  5
1C5
330
22
100
AcDbEntity
  8
0
  6
Continuous
 62
     7
100
AcDbCircle
 10
-375.0483093261719
 20
178.450439453125
 30
0.0
 40
1.0
100
AcDbArc
 50
0.0
 51
155.380077889593
  0
ARC
  5
1C6
330
22
100
AcDbEntity
  8
0
  6
Continuous
 62
     7
100
AcDbCircle
 10
-358.5483093261719
 20
179.4527130126953
 30
0.0
 40
2.5
100
AcDbArc
 50
180.0000000000004
 51
0.0
  0
ARC
  5
1C7
330
22
100
AcDbEntity
  8
0
  6
Continuous
 62
     7
100
AcDbCircle
 10
-358.5483093261719
 20
192.9527130126953
 30
0.0
 40
2.5
100
AcDbArc
 50
0.0
 51
180.0000000000004
  0
ARC
  5
1C8
330
22
100
AcDbEntity
  8
0
  6
Continuous
 62
     7
100
AcDbCircle
 10
-315.0483093261719
 20
178.450439453125
 30
0.0
 40
1.0
100
AcDbArc
 50
24.61992211040705
 51
180.0000000000004
  0
ARC
  5
1C9
330
22
100
AcDbEntity
  8
0
  6
Continuous
 62
     7
100
AcDbCircle
 10
-322.5483093261719
 20
186.7027130126953
 30
0.0
 40
2.5
100
AcDbArc
 50
0.0
 51
180.0000000000004
  0
CIRCLE
  5
1CA
330
22
100
AcDbEntity
  8
0
  6
Continuous
 62
     7
100
AcDbCircle
 10
-345.0483093261719
 20
206.7027130126953
 30
0.0
 40
4.5
  0
ARC
  5
1CB
330
22
100
AcDbEntity
  8
0
  6
Continuous
 62
     7
100
AcDbCircle
 10
-375.0483093261719
 20
150.9549865722656
 30
0.0
 40
1.0
100
AcDbArc
 50
204.6199221104078
 51
0.0
  0
ARC
  5
1CC
330
22
100
AcDbEntity
  8
0
  6
Continuous
 62
     7
100
AcDbCircle
 10
-322.5483093261719
 20
142.7027130126953
 30
0.0
 40
2.5
100
AcDbArc
 50
180.0000000000004
 51
0.0
  0
ARC
  5
1CD
330
22
100
AcDbEntity
  8
0
  6
Continuous
 62
     7
100
AcDbCircle
 10
-340.5483093261719
 20
158.7027130126953
 30
0.0
 40
2.5
100
AcDbArc
 50
0.0
 51
180.0000000000004
  0
ARC
  5
1CE
330
22
100
AcDbEntity
  8
0
  6
Continuous
 62
     7
100
AcDbCircle
 10
-340.5483093261719
 20
133.7027130126953
 30
0.0
 40
2.5
100
AcDbArc
 50
180.0000000000004
 51
0.0
  0
ARC
  5
1CF
330
22
100
AcDbEntity
  8
0
  6
Continuous
 62
     7
100
AcDbCircle
 10
-315.0483093261719
 20
150.9549865722656
 30
0.0
 40
1.0
100
AcDbArc
 50
180.0000000000004
 51
335.3800778895936
  0
ARC
  5
1D0
330
22
100
AcDbEntity
  8
0
  6
Continuous
 62
     7
100
AcDbCircle
 10
-322.5483093261719
 20
160.2027130126953
 30
0.0
 40
2.5
100
AcDbArc
 50
0.0
 51
180.0000000000004
  0
ARC
  5
1D1
330
22
100
AcDbEntity
  8
0
  6
Continuous
 62
     7
100
AcDbCircle
 10
-349.5483093261719
 20
158.7027130126953
 30
0.0
 40
2.5
100
AcDbArc
 50
0.0
 51
180.0000000000004
  0
ARC
  5
1D2
330
22
100
AcDbEntity
  8
0
  6
Continuous
 62
     7
100
AcDbCircle
 10
-349.5483093261719
 20
133.7027130126953
 30
0.0
 40
2.5
100
AcDbArc
 50
180.0000000000004
 51
0.0
  0
ARC
  5
1D3
330
22
100
AcDbEntity
  8
0
  6
Continuous
 62
     7
100
AcDbCircle
 10
-367.5483093261719
 20
160.2027130126953
 30
0.0
 40
2.5
100
AcDbArc
 50
0.0
 51
180.0000000000004
  0
CIRCLE
  5
1D4
330
22
100
AcDbEntity
  8
0
  6
Continuous
 62
     7
100
AcDbCircle
 10
-308.6757507324219
 20
143.7024230957031
 30
0.0
 40
4.5
  0
ARC
  5
1D5
330
22
100
AcDbEntity
  8
0
  6
Continuous
 62
     7
100
AcDbCircle
 10
-367.5483093261719
 20
142.7027130126953
 30
0.0
 40
2.5
100
AcDbArc
 50
180.0000000000004
 51
0.0
  0
CIRCLE
  5
1D6
330
22
100
AcDbEntity
  8
0
  6
Continuous
 62
     7
100
AcDbCircle
 10
-381.421875
 20
143.7030029296875
 30
0.0
 40
4.5
  0
ARC
  5
1D7
330
22
100
AcDbEntity
  8
0
  6
Continuous
 62
     7
100
AcDbCircle
 10
-331.5483093261719
 20
170.9527130126953
 30
0.0
 40
2.5
100
AcDbArc
 50
0.0
 51
180.0000000000004
  0
ARC
  5
1D8
330
22
100
AcDbEntity
  8
0
  6
Continuous
 62
     7
100
AcDbCircle
 10
-367.5483093261719
 20
169.2027130126953
 30
0.0
 40
2.5
100
AcDbArc
 50
180.0000000000004
 51
0.0
  0
ARC
  5
1D9
330
22
100
AcDbEntity
  8
0
  6
Continuous
 62
     7
100
AcDbCircle
 10
-331.5483093261719
 20
158.4527130126953
 30
0.0
 40
2.5
100
AcDbArc
 50
180.0000000000004
 51
0.0
  0
ARC
  5
1DA
330
22
100
AcDbEntity
  8
0
  6
Continuous
 62
     7
100
AcDbCircle
 10
-331.5483093261719
 20
149.9527130126953
 30
0.0
 40
2.5
100
AcDbArc
 50
0.0
 51
180.0000000000004
  0
CIRCLE
  5
1DB
330
22
100
AcDbEntity
  8
0
  6
Continuous
 62
     7
100
AcDbCircle
 10
-345.0483093261719
 20
164.7027130126953
 30
0.0
 40
3.0
  0
ARC
  5
1DC
330
22
100
AcDbEntity
  8
0
  6
Continuous
 62
     7
100
AcDbCircle
 10
-358.5483093261719
 20
136.4527130126953
 30
0.0
 40
2.5
100
AcDbArc
 50
180.0000000000004
 51
0.0
  0
ARC
  5
1DD
330
22
100
AcDbEntity
  8
0
  6
Continuous
 62
     7
100
AcDbCircle
 10
-358.5483093261719
 20
149.9527130126953
 30
0.0
 40
2.5
100
AcDbArc
 50
0.0
 51
180.0000000000004
  0
ARC
  5
1DE
330
22
100
AcDbEntity
  8
0
  6
Continuous
 62
     7
100
AcDbCircle
 10
-358.5483093261719
 20
158.4527130126953
 30
0.0
 40
2.5
100
AcDbArc
 50
180.0000000000004
 51
0.0
  0
ARC
  5
1DF
330
22
100
AcDbEntity
  8
0
  6
Continuous
 62
     7
100
AcDbCircle
 10
-331.5483093261719
 20
136.4527130126953
 30
0.0
 40
2.5
100
AcDbArc
 50
180.0000000000004
 51
0.0
  0
ARC
  5
1E0
330
22
100
AcDbEntity
  8
0
  6
Continuous
 62
     7
100
AcDbCircle
 10
-345.0483093261719
 20
164.7027130126953
 30
0.0
 40
34.0
100
AcDbArc
 50
155.3800252826649
 51
204.6199747173358
  0
ARC
  5
1E1
330
22
100
AcDbEntity
  8
0
  6
Continuous
 62
     7
100
AcDbCircle
 10
-358.5483093261719
 20
170.9527130126953
 30
0.0
 40
2.5
100
AcDbArc
 50
0.0
 51
180.0000000000004
  0
ARC
  5
1E2
330
22
100
AcDbEntity
  8
0
  6
Continuous
 62
     7
100
AcDbCircle
 10
-345.0483093261719
 20
164.7027130126953
 30
0.0
 40
34.0
100
AcDbArc
 50
335.3800252826657
 51
24.61997471733513
  0
ARC
  5
1E3
330
22
100
AcDbEntity
  8
0
  6
Continuous
 62
     7
100
AcDbCircle
 10
-322.5483093261719
 20
169.2027130126953
 30
0.0
 40
2.5
100
AcDbArc
 50
180.0000000000004
 51
0.0
  0
CIRCLE
  5
1E4
330
22
100
AcDbEntity
  8
0
  6
Continuous
 62
     7
100
AcDbCircle
 10
-345.0483093261719
 20
164.7027130126953
 30
0.0
 40
49.0
  0
CIRCLE
  5
1E5
330
22
100
AcDbEntity
  8
0
  6
Continuous
 62
     7
100
AcDbCircle
 10
-345.0483093261719
 20
164.7027130126953
 30
0.0
 40
49.5
  0
CIRCLE
  5
1E6
330
22
100
AcDbEntity
  8
0
  6
Continuous
 62
     7
100
AcDbCircle
 10
-345.0483093261719
 20
164.7027130126953
 30
0.0
 40
58.0
  0
ARC
  5
1E7
330
22
100
AcDbEntity
  8
0
  6
Continuous
 62
     7
100
AcDbCircle
 10
-340.5483093261719
 20
170.7027130126953
 30
0.0
 40
2.5
100
AcDbArc
 50
180.0000000000004
 51
0.0
  0
ARC
  5
1E8
330
22
100
AcDbEntity
  8
0
  6
Continuous
 62
     7
100
AcDbCircle
 10
-349.5483093261719
 20
170.7027130126953
 30
0.0
 40
2.5
100
AcDbArc
 50
180.0000000000004
 51
0.0
  0
TEXT
  5
1E9
330
22
100
AcDbEntity
  8
0
  6
Continuous
 62
     7
100
AcDbText
 10
-298.0341424942017
 20
48.52456283569336
 30
0.0
 40
7.0
  1
ＤＬ－ＵＬＳＬ－６５Ｚ
 41
0.8440126641457824
100
AcDbText
  0
SOLID
  5
1EA
330
22
100
AcDbEntity
  8
0
  6
Continuous
 62
     7
100
AcDbTrace
 10
-213.0483093261719
 20
207.7027130126953
 30
0.0
 11
-216.0483093261719
 21
207.7027130126953
 31
0.0
 12
-213.0483093261719
 22
222.7027130126953
 32
0.0
 13
-216.0483093261719
 23
222.7027130126953
 33
0.0
  0
SOLID
  5
1EB
330
22
100
AcDbEntity
  8
0
  6
Continuous
 62
     7
100
AcDbTrace
 10
-213.0483093261719
 20
106.7027130126953
 30
0.0
 11
-216.0483093261719
 21
106.7027130126953
 31
0.0
 12
-213.0483093261719
 22
164.7027130126953
 32
0.0
 13
-216.0483093261719
 23
164.7027130126953
 33
0.0
  0
SOLID
  5
1EC
330
22
100
AcDbEntity
  8
0
  6
Continuous
 62
     7
100
AcDbTrace
 10
-155.0522918701172
 20
207.2027130126953
 30
0.0
 11
-158.0522918701172
 21
207.2027130126953
 31
0.0
 12
-155.0522918701172
 22
218.7027130126953
 32
0.0
 13
-158.0522918701172
 23
218.7027130126953
 33
0.0
  0
SOLID
  5
1ED
330
22
100
AcDbEntity
  8
0
  6
Continuous
 62
     7
100
AcDbTrace
 10
-155.0522918701172
 20
110.7027130126953
 30
0.0
 11
-158.0522918701172
 21
110.7027130126953
 31
0.0
 12
-155.0522918701172
 22
164.7027130126953
 32
0.0
 13
-158.0522918701172
 23
164.7027130126953
 33
0.0
  0
DIMENSION
  5
1EE
330
22
100
AcDbEntity
  8
0
  6
Continuous
 62
     7
100
AcDbDimension
  2
*D1
 10
-388.9659733738664
 20
126.818167554239
 30
0.0
 11
-293.4289245605469
 21
209.23095703125
 31
0.0
 70
     3
 71
     5
 42
-1.0
  3
DIMSTYLE1
100
AcDbDiametricDimension
 15
-301.1306452784773
 25
202.5872584711516
 35
0.0
 40
0.0
  0
INSERT
  5
1EF
330
22
100
AcDbEntity
  8
0
  6
Continuous
 62
     7
100
AcDbBlockReference
  2
KOZU0001
 10
-135.6363830566406
 20
200.5022735595703
 30
0.0
  0
DIMENSION
  5
1F0
330
22
100
AcDbEntity
  8
0
  6
Continuous
 62
     7
100
AcDbDimension
  2
*D2
 10
-158.0483093261719
 20
240.5313568115234
 30
0.0
 11
-185.5483093261719
 21
240.5313568115234
 31
0.0
 71
     5
 42
-1.0
  3
DIMSTYLE2
100
AcDbAlignedDimension
 13
-213.0483093261719
 23
222.7027130126953
 33
0.0
 14
-158.0483093261719
 24
218.7027130126953
 34
0.0
100
AcDbRotatedDimension
  0
DIMENSION
  5
1F1
330
22
100
AcDbEntity
  8
0
  6
Continuous
 62
     7
100
AcDbDimension
  2
*D3
 10
-225.0483093261719
 20
240.5313568115234
 30
0.0
 11
-219.0483093261719
 21
240.5313568115234
 31
0.0
 71
     5
 42
-1.0
  3
DIMSTYLE3
100
AcDbAlignedDimension
 13
-213.0483093261719
 23
227.1188201904297
 33
0.0
 14
-225.0483093261719
 24
238.2607727050781
 34
0.0
100
AcDbRotatedDimension
  0
DIMENSION
  5
1F2
330
22
100
AcDbEntity
  8
0
  6
Continuous
 62
     7
100
AcDbDimension
  2
*D4
 10
-129.0483093261719
 20
252.1170501708984
 30
0.0
 11
-177.0483093261719
 21
252.1170501708984
 31
0.0
 71
     5
 42
-1.0
  3
DIMSTYLE4
100
AcDbAlignedDimension
 13
-225.0483093261719
 23
214.5248870849609
 33
0.0
 14
-129.0483093261719
 24
204.9527130126953
 34
0.0
100
AcDbRotatedDimension
  0
ENDSEC
  0
SECTION
  2
OBJECTS
  0
DICTIONARY
  5
C
330
0
100
AcDbDictionary
281
     1
  3
ACAD_COLOR
350
1B
  3
ACAD_GROUP
350
D
  3
ACAD_LAYOUT
350
19
  3
ACAD_MATERIAL
350
1A
  3
ACAD_MLINESTYLE
350
16
  3
ACAD_PLOTSETTINGS
350
18
  3
ACAD_PLOTSTYLENAME
350
E
  3
ACAD_TABLESTYLE
350
1C
  3
AcDbVariableDictionary
350
1FE
  0
DICTIONARY
  5
1B
102
{ACAD_REACTORS
330
C
102
}
330
C
100
AcDbDictionary
281
     1
  0
DICTIONARY
  5
D
102
{ACAD_REACTORS
330
C
102
}
330
C
100
AcDbDictionary
281
     1
  0
DICTIONARY
  5
19
102
{ACAD_REACTORS
330
C
102
}
330
C
100
AcDbDictionary
281
     1
  3
Model
350
25
  3
レイアウト1
350
21
  0
DICTIONARY
  5
1A
102
{ACAD_REACTORS
330
C
102
}
330
C
100
AcDbDictionary
281
     1
  0
DICTIONARY
  5
16
102
{ACAD_REACTORS
330
C
102
}
330
C
100
AcDbDictionary
281
     1
  3
Standard
350
17
  0
DICTIONARY
  5
18
102
{ACAD_REACTORS
330
C
102
}
330
C
100
AcDbDictionary
281
     1
  0
ACDBDICTIONARYWDFLT
  5
E
102
{ACAD_REACTORS
330
C
102
}
330
C
100
AcDbDictionary
281
     1
  3
Normal
350
F
100
AcDbDictionaryWithDefault
340
F
  0
DICTIONARY
  5
1C
102
{ACAD_REACTORS
330
C
102
}
330
C
100
AcDbDictionary
281
     1
  3
Standard
350
1D
  0
DICTIONARY
  5
1FE
102
{ACAD_REACTORS
330
C
102
}
330
C
100
AcDbDictionary
281
     1
  3
CTABLESTYLE
350
1FF
  0
LAYOUT
  5
25
102
{ACAD_REACTORS
330
19
102
}
330
19
100
AcDbPlotSettings
  1

  2
PDF reDirect v2
  4
A3
  6

 40
3.174999952316284
 41
3.174999952316284
 42
3.17498779296875
 43
3.17498779296875
 44
297.0530090332031
 45
420.1583251953125
 46
0.0
 47
0.0
 48
0.0
 49
0.0
140
0.0
141
0.0
142
1.0
143
1.0
 70
 11952
 72
     1
 73
     1
 74
     2
  7
C:\Users\ck\AppData\Roaming\Autodesk\AutoCAD 2005\R16.1\jpn\Plot Styles\black.ctb
 75
    16
147
1.0
 76
     0
 77
     2
 78
   300
148
423.0
149
2.0
100
AcDbLayout
  1
Model
 70
     1
 71
     0
 10
0.0
 20
0.0
 11
12.0
 21
9.0
 12
0.0
 22
0.0
 32
0.0
 14
0.0
 24
0.0
 34
0.0
 15
0.0
 25
0.0
 35
0.0
146
0.0
 13
0.0
 23
0.0
 33
0.0
 16
1.0
 26
0.0
 36
0.0
 17
0.0
 27
1.0
 37
0.0
 76
     0
330
22
1001
ACAD_PSEXT
1000
PDF reDirect v2
1000
PDF reDirect Pro
1000
PDF_REDIRECT_PORT:
1000
PDF reDirect provided by EXP Systems
1070
     0
  0
LAYOUT
  5
21
102
{ACAD_REACTORS
330
19
102
}
330
19
100
AcDbPlotSettings
  1

  2
PDF reDirect v2
  4

  6

 40
0.0
 41
0.0
 42
0.0
 43
0.0
 44
0.0
 45
0.0
 46
0.0
 47
0.0
 48
0.0
 49
0.0
140
0.0
141
0.0
142
1.0
143
1.0
 70
   688
 72
     0
 73
     0
 74
     5
  7
C:\Users\ck\AppData\Roaming\Autodesk\AutoCAD 2005\R16.1\jpn\Plot Styles\black.ctb
 75
    16
147
1.0
 76
     0
 77
     2
 78
   300
148
0.0
149
0.0
100
AcDbLayout
  1
レイアウト1
 70
     1
 71
     1
 10
-423.0
 20
-2.0
 11
-5.0
 21
293.0
 12
0.0
 22
0.0
 32
0.0
 14
1.000000000000000E+20
 24
1.000000000000000E+20
 34
1.000000000000000E+20
 15
-1.000000000000000E+20
 25
-1.000000000000000E+20
 35
-1.000000000000000E+20
146
0.0
 13
0.0
 23
0.0
 33
0.0
 16
1.0
 26
0.0
 36
0.0
 17
0.0
 27
1.0
 37
0.0
 76
     0
330
1E
  0
MLINESTYLE
  5
17
102
{ACAD_REACTORS
330
16
102
}
330
16
100
AcDbMlineStyle
  2
STANDARD
 70
     0
  3

 62
   256
 51
90.0
 52
90.0
 71
     2
 49
0.5
 62
   256
  6
BYLAYER
 49
-0.5
 62
   256
  6
BYLAYER
  0
ACDBPLACEHOLDER
  5
F
102
{ACAD_REACTORS
330
E
102
}
330
E
  0
TABLESTYLE
  5
1D
102
{ACAD_REACTORS
330
1C
102
}
330
1C
100
AcDbTableStyle
  3
Standard
 70
     0
 71
     0
 40
0.06
 41
0.06
280
     0
281
     0
  7
STANDARD
140
0.18
170
     2
 62
     0
 63
     7
283
     0
274
    -2
284
     1
 64
     0
275
    -2
285
     1
 65
     0
276
    -2
286
     1
 66
     0
277
    -2
287
     1
 67
     0
278
    -2
288
     1
 68
     0
279
    -2
289
     1
 69
     0
  7
STANDARD
140
0.25
170
     5
 62
     0
 63
     7
283
     0
274
    -2
284
     1
 64
     0
275
    -2
285
     1
 65
     0
276
    -2
286
     1
 66
     0
277
    -2
287
     1
 67
     0
278
    -2
288
     1
 68
     0
279
    -2
289
     1
 69
     0
  7
STANDARD
140
0.18
170
     5
 62
     0
 63
     7
283
     0
274
    -2
284
     1
 64
     0
275
    -2
285
     1
 65
     0
276
    -2
286
     1
 66
     0
277
    -2
287
     1
 67
     0
278
    -2
288
     1
 68
     0
279
    -2
289
     1
 69
     0
  0
DICTIONARYVAR
  5
1FF
102
{ACAD_REACTORS
330
1FE
102
}
330
1FE
100
DictionaryVariables
280
     0
  1
STANDARD
  0
ENDSEC
  0
EOF
