  0
SECTION
  2
HEADER
  9
$ACADVER
  1
AC1018
  9
$ACADMAINTVER
 70
    39
  9
$DWGCODEPAGE
  3
ANSI_932
  9
$INSBASE
 10
0.0
 20
0.0
 30
0.0
  9
$EXTMIN
 10
-400.7210378191911
 20
57.22866896869232
 30
-0.0015258207003583
  9
$EXTMAX
 10
-97.21563634115227
 20
238.1151281864326
 30
0.0000000349246037
  9
$LIMMIN
 10
-423.0
 20
-2.0
  9
$LIMMAX
 10
-5.0
 20
293.0
  9
$ORTHOMODE
 70
     0
  9
$REGENMODE
 70
     1
  9
$FILLMODE
 70
     1
  9
$QTEXTMODE
 70
     0
  9
$MIRRTEXT
 70
     0
  9
$LTSCALE
 40
1.0
  9
$ATTMODE
 70
     1
  9
$TEXTSIZE
 40
0.2
  9
$TRACEWID
 40
0.05
  9
$TEXTSTYLE
  7
STANDARD
  9
$CLAYER
  8
0
  9
$CELTYPE
  6
CONTINUOUS
  9
$CECOLOR
 62
   256
  9
$CELTSCALE
 40
1.0
  9
$DISPSILH
 70
     0
  9
$DIMSCALE
 40
1.0
  9
$DIMASZ
 40
1.0
  9
$DIMEXO
 40
2.54
  9
$DIMDLI
 40
0.38
  9
$DIMRND
 40
0.0
  9
$DIMDLE
 40
0.0
  9
$DIMEXE
 40
2.54
  9
$DIMTP
 40
0.0
  9
$DIMTM
 40
0.0
  9
$DIMTXT
 40
3.0
  9
$DIMCEN
 40
0.09
  9
$DIMTSZ
 40
0.0
  9
$DIMTOL
 70
     0
  9
$DIMLIM
 70
     0
  9
$DIMTIH
 70
     0
  9
$DIMTOH
 70
     0
  9
$DIMSE1
 70
     0
  9
$DIMSE2
 70
     0
  9
$DIMTAD
 70
     1
  9
$DIMZIN
 70
     0
  9
$DIMBLK
  1

  9
$DIMASO
 70
     1
  9
$DIMSHO
 70
     0
  9
$DIMPOST
  1

  9
$DIMAPOST
  1

  9
$DIMALT
 70
     0
  9
$DIMALTD
 70
     2
  9
$DIMALTF
 40
25.4
  9
$DIMLFAC
 40
1.0
  9
$DIMTOFL
 70
     0
  9
$DIMTVP
 40
1.0
  9
$DIMTIX
 70
     0
  9
$DIMSOXD
 70
     0
  9
$DIMSAH
 70
     1
  9
$DIMBLK1
  1

  9
$DIMBLK2
  1

  9
$DIMSTYLE
  2
DIMSTYLE1
  9
$DIMCLRD
 70
     0
  9
$DIMCLRE
 70
     0
  9
$DIMCLRT
 70
     0
  9
$DIMTFAC
 40
1.0
  9
$DIMGAP
 40
1.5
  9
$DIMJUST
 70
     0
  9
$DIMSD1
 70
     0
  9
$DIMSD2
 70
     0
  9
$DIMTOLJ
 70
     1
  9
$DIMTZIN
 70
     0
  9
$DIMALTZ
 70
     0
  9
$DIMALTTZ
 70
     0
  9
$DIMUPT
 70
     0
  9
$DIMDEC
 70
     4
  9
$DIMTDEC
 70
     4
  9
$DIMALTU
 70
     2
  9
$DIMALTTD
 70
     2
  9
$DIMTXSTY
  7
STANDARD
  9
$DIMAUNIT
 70
     0
  9
$DIMADEC
 70
     0
  9
$DIMALTRND
 40
0.0
  9
$DIMAZIN
 70
     0
  9
$DIMDSEP
 70
    46
  9
$DIMATFIT
 70
     3
  9
$DIMFRAC
 70
     0
  9
$DIMLDRBLK
  1

  9
$DIMLUNIT
 70
     2
  9
$DIMLWD
 70
    -2
  9
$DIMLWE
 70
    -2
  9
$DIMTMOVE
 70
     0
  9
$LUNITS
 70
     2
  9
$LUPREC
 70
     4
  9
$SKETCHINC
 40
0.1
  9
$FILLETRAD
 40
0.0
  9
$AUNITS
 70
     0
  9
$AUPREC
 70
     0
  9
$MENU
  1
.
  9
$ELEVATION
 40
0.0
  9
$PELEVATION
 40
0.0
  9
$THICKNESS
 40
0.0
  9
$LIMCHECK
 70
     0
  9
$CHAMFERA
 40
0.0
  9
$CHAMFERB
 40
0.0
  9
$CHAMFERC
 40
0.0
  9
$CHAMFERD
 40
0.0
  9
$SKPOLY
 70
     0
  9
$TDCREATE
 40
2457707.701978137
  9
$TDUCREATE
 40
2457707.326978137
  9
$TDUPDATE
 40
2457707.702532951
  9
$TDUUPDATE
 40
2457707.327532951
  9
$TDINDWG
 40
0.0005560880
  9
$TDUSRTIMER
 40
0.0005560880
  9
$USRTIMER
 70
     1
  9
$ANGBASE
 50
0.0
  9
$ANGDIR
 70
     0
  9
$PDMODE
 70
     0
  9
$PDSIZE
 40
0.0
  9
$PLINEWID
 40
0.0
  9
$SPLFRAME
 70
     0
  9
$SPLINETYPE
 70
     6
  9
$SPLINESEGS
 70
     8
  9
$HANDSEED
  5
1D1
  9
$SURFTAB1
 70
     6
  9
$SURFTAB2
 70
     6
  9
$SURFTYPE
 70
     6
  9
$SURFU
 70
     6
  9
$SURFV
 70
     6
  9
$UCSBASE
  2

  9
$UCSNAME
  2

  9
$UCSORG
 10
0.0
 20
0.0
 30
0.0
  9
$UCSXDIR
 10
1.0
 20
0.0
 30
0.0
  9
$UCSYDIR
 10
0.0
 20
1.0
 30
0.0
  9
$UCSORTHOREF
  2

  9
$UCSORTHOVIEW
 70
     0
  9
$UCSORGTOP
 10
0.0
 20
0.0
 30
0.0
  9
$UCSORGBOTTOM
 10
0.0
 20
0.0
 30
0.0
  9
$UCSORGLEFT
 10
0.0
 20
0.0
 30
0.0
  9
$UCSORGRIGHT
 10
0.0
 20
0.0
 30
0.0
  9
$UCSORGFRONT
 10
0.0
 20
0.0
 30
0.0
  9
$UCSORGBACK
 10
0.0
 20
0.0
 30
0.0
  9
$PUCSBASE
  2

  9
$PUCSNAME
  2

  9
$PUCSORG
 10
0.0
 20
0.0
 30
0.0
  9
$PUCSXDIR
 10
1.0
 20
0.0
 30
0.0
  9
$PUCSYDIR
 10
0.0
 20
1.0
 30
0.0
  9
$PUCSORTHOREF
  2

  9
$PUCSORTHOVIEW
 70
     0
  9
$PUCSORGTOP
 10
0.0
 20
0.0
 30
0.0
  9
$PUCSORGBOTTOM
 10
0.0
 20
0.0
 30
0.0
  9
$PUCSORGLEFT
 10
0.0
 20
0.0
 30
0.0
  9
$PUCSORGRIGHT
 10
0.0
 20
0.0
 30
0.0
  9
$PUCSORGFRONT
 10
0.0
 20
0.0
 30
0.0
  9
$PUCSORGBACK
 10
0.0
 20
0.0
 30
0.0
  9
$USERI1
 70
     0
  9
$USERI2
 70
     0
  9
$USERI3
 70
     0
  9
$USERI4
 70
     0
  9
$USERI5
 70
     0
  9
$USERR1
 40
0.0
  9
$USERR2
 40
0.0
  9
$USERR3
 40
0.0
  9
$USERR4
 40
0.0
  9
$USERR5
 40
0.0
  9
$WORLDVIEW
 70
     1
  9
$SHADEDGE
 70
     3
  9
$SHADEDIF
 70
    70
  9
$TILEMODE
 70
     1
  9
$MAXACTVP
 70
    64
  9
$PINSBASE
 10
0.0
 20
0.0
 30
0.0
  9
$PLIMCHECK
 70
     0
  9
$PEXTMIN
 10
1.000000000000000E+20
 20
1.000000000000000E+20
 30
1.000000000000000E+20
  9
$PEXTMAX
 10
-1.000000000000000E+20
 20
-1.000000000000000E+20
 30
-1.000000000000000E+20
  9
$PLIMMIN
 10
-423.0
 20
-2.0
  9
$PLIMMAX
 10
-5.0
 20
293.0
  9
$UNITMODE
 70
     0
  9
$VISRETAIN
 70
     1
  9
$PLINEGEN
 70
     0
  9
$PSLTSCALE
 70
     1
  9
$TREEDEPTH
 70
  3020
  9
$CMLSTYLE
  2
Standard
  9
$CMLJUST
 70
     0
  9
$CMLSCALE
 40
1.0
  9
$PROXYGRAPHICS
 70
     1
  9
$MEASUREMENT
 70
     0
  9
$CELWEIGHT
370
    -1
  9
$ENDCAPS
280
     0
  9
$JOINSTYLE
280
     0
  9
$LWDISPLAY
290
     0
  9
$INSUNITS
 70
     0
  9
$HYPERLINKBASE
  1

  9
$STYLESHEET
  1

  9
$XEDIT
290
     1
  9
$CEPSNTYPE
380
     0
  9
$PSTYLEMODE
290
     1
  9
$FINGERPRINTGUID
  2
{415C3072-EC52-4DA0-BE03-A8C0E8E9E23E}
  9
$VERSIONGUID
  2
{458C2E2B-5391-4FBE-87D7-B9716E997CF5}
  9
$EXTNAMES
290
     1
  9
$PSVPSCALE
 40
0.0
  9
$OLESTARTUP
290
     0
  9
$SORTENTS
280
   127
  9
$INDEXCTL
280
     0
  9
$HIDETEXT
280
     0
  9
$XCLIPFRAME
290
     0
  9
$HALOGAP
280
     0
  9
$OBSCOLOR
 70
   257
  9
$OBSLTYPE
280
     0
  9
$INTERSECTIONDISPLAY
280
     0
  9
$INTERSECTIONCOLOR
 70
   257
  9
$DIMASSOC
280
     1
  9
$PROJECTNAME
  1

  0
ENDSEC
  0
SECTION
  2
CLASSES
  0
CLASS
  1
ACDBDICTIONARYWDFLT
  2
AcDbDictionaryWithDefault
  3
ObjectDBX Classes
 90
        0
 91
        1
280
     0
281
     0
  0
CLASS
  1
TABLESTYLE
  2
AcDbTableStyle
  3
ObjectDBX Classes
 90
     2047
 91
        1
280
     0
281
     0
  0
CLASS
  1
DICTIONARYVAR
  2
AcDbDictionaryVar
  3
ObjectDBX Classes
 90
        0
 91
        1
280
     0
281
     0
  0
ENDSEC
  0
SECTION
  2
TABLES
  0
TABLE
  2
VPORT
  5
8
330
0
100
AcDbSymbolTable
 70
     2
  0
VPORT
  5
1D0
330
8
100
AcDbSymbolTableRecord
100
AcDbViewportTableRecord
  2
*Active
 70
     0
 10
0.0
 20
0.0
 11
1.0
 21
1.0
 12
-214.0
 22
145.5
 13
0.0
 23
0.0
 14
1.0
 24
1.0
 15
0.0
 25
0.0
 16
0.0
 26
0.0
 36
1.0
 17
0.0
 27
0.0
 37
0.0
 40
297.3258869908016
 41
1.555263157894736
 42
50.0
 43
0.0
 44
0.0
 50
0.0
 51
0.0
 71
     0
 72
   100
 73
     1
 74
     1
 75
     0
 76
     0
 77
     0
 78
     0
281
     0
 65
     1
110
0.0
120
0.0
130
0.0
111
1.0
121
0.0
131
0.0
112
0.0
122
1.0
132
0.0
 79
     0
146
0.0
  0
ENDTAB
  0
TABLE
  2
LTYPE
  5
5
330
0
100
AcDbSymbolTable
 70
     6
  0
LTYPE
  5
13
330
5
100
AcDbSymbolTableRecord
100
AcDbLinetypeTableRecord
  2
ByBlock
 70
     0
  3

 72
    65
 73
     0
 40
0.0
  0
LTYPE
  5
14
330
5
100
AcDbSymbolTableRecord
100
AcDbLinetypeTableRecord
  2
ByLayer
 70
     0
  3

 72
    65
 73
     0
 40
0.0
  0
LTYPE
  5
15
330
5
100
AcDbSymbolTableRecord
100
AcDbLinetypeTableRecord
  2
CONTINUOUS
 70
     0
  3
Solid line
 72
    65
 73
     0
 40
0.0
  0
LTYPE
  5
26
330
5
100
AcDbSymbolTableRecord
100
AcDbLinetypeTableRecord
  2
DASHED
 70
     0
  3
__ __ __ __ __ __ __ __ __ __ __ __ __ __ __
 72
    65
 73
     2
 40
3.5
 49
2.0
 74
     0
 49
-1.5
 74
     0
  0
LTYPE
  5
27
330
5
100
AcDbSymbolTableRecord
100
AcDbLinetypeTableRecord
  2
CENTER
 70
     0
  3
____ _ ____ _ ____ _ ____ _ ____ _ ____ _ ____
 72
    65
 73
     4
 40
17.5
 49
13.0
 74
     0
 49
-1.5
 74
     0
 49
1.5
 74
     0
 49
-1.5
 74
     0
  0
LTYPE
  5
28
330
5
100
AcDbSymbolTableRecord
100
AcDbLinetypeTableRecord
  2
PHANTOM
 70
     0
  3
_____ _ _ _____ _ _ _____ _ _ _____ _ _ ____  
 72
    65
 73
     6
 40
15.5
 49
8.0
 74
     0
 49
-1.5
 74
     0
 49
1.5
 74
     0
 49
-1.5
 74
     0
 49
1.5
 74
     0
 49
-1.5
 74
     0
  0
LTYPE
  5
29
330
5
100
AcDbSymbolTableRecord
100
AcDbLinetypeTableRecord
  2
DOT
 70
     0
  3
. . . . . . . . . . . . . . . . . . . . . . . .
 72
    65
 73
     2
 40
0.25
 49
0.0
 74
     0
 49
-0.25
 74
     0
  0
LTYPE
  5
2A
330
5
100
AcDbSymbolTableRecord
100
AcDbLinetypeTableRecord
  2
HIDDEN
 70
     0
  3
__ __ __ __ __ __ __ __ __ __ __ __ __ __ __
 72
    65
 73
     2
 40
3.5
 49
2.0
 74
     0
 49
-1.5
 74
     0
  0
ENDTAB
  0
TABLE
  2
LAYER
  5
2
330
0
100
AcDbSymbolTable
 70
     3
  0
LAYER
  5
10
330
2
100
AcDbSymbolTableRecord
100
AcDbLayerTableRecord
  2
0
 70
     0
 62
     7
  6
CONTINUOUS
370
    -3
390
F
  0
LAYER
  5
2B
330
2
100
AcDbSymbolTableRecord
100
AcDbLayerTableRecord
  2
1
 70
     0
 62
     7
  6
CONTINUOUS
370
    -3
390
F
  0
LAYER
  5
2C
330
2
100
AcDbSymbolTableRecord
100
AcDbLayerTableRecord
  2
DEFPOINTS
 70
     0
 62
     7
  6
CONTINUOUS
290
     0
370
    -3
390
F
  0
ENDTAB
  0
TABLE
  2
STYLE
  5
3
330
0
100
AcDbSymbolTable
 70
     2
  0
STYLE
  5
11
330
3
100
AcDbSymbolTableRecord
100
AcDbTextStyleTableRecord
  2
STANDARD
 70
     0
 40
0.0
 41
1.0
 50
0.0
 71
     0
 42
0.2
  3

  4

1001
ACAD
1000
MS Gothic
1071
    32817
  0
ENDTAB
  0
TABLE
  2
VIEW
  5
6
330
0
100
AcDbSymbolTable
 70
     0
  0
ENDTAB
  0
TABLE
  2
UCS
  5
7
330
0
100
AcDbSymbolTable
 70
     0
  0
ENDTAB
  0
TABLE
  2
APPID
  5
9
330
0
100
AcDbSymbolTable
 70
     2
  0
APPID
  5
12
330
9
100
AcDbSymbolTableRecord
100
AcDbRegAppTableRecord
  2
ACAD
 70
     0
  0
APPID
  5
1C5
330
9
100
AcDbSymbolTableRecord
100
AcDbRegAppTableRecord
  2
ACAD_PSEXT
 70
     0
  0
ENDTAB
  0
TABLE
  2
DIMSTYLE
  5
A
330
0
100
AcDbSymbolTable
 70
     5
100
AcDbDimStyleTable
 71
     1
340
2D
  0
DIMSTYLE
105
2D
102
{ACAD_REACTORS
330
1BF
102
}
330
A
100
AcDbSymbolTableRecord
100
AcDbDimStyleTableRecord
  2
DIMSTYLE1
 70
     0
 41
1.0
 42
2.54
 44
2.54
 73
     0
 74
     0
 75
     1
 76
     1
 77
     1
140
3.0
145
1.0
147
1.5
172
     1
173
     1
279
     2
340
11
  0
DIMSTYLE
105
2E
102
{ACAD_REACTORS
330
1C0
102
}
330
A
100
AcDbSymbolTableRecord
100
AcDbDimStyleTableRecord
  2
DIMSTYLE2
 70
     0
 41
1.0
 42
2.54
 44
2.54
 73
     0
 74
     0
 77
     1
140
3.0
145
1.0
147
1.5
172
     1
173
     1
279
     2
340
11
  0
DIMSTYLE
105
2F
102
{ACAD_REACTORS
330
1C1
102
}
330
A
100
AcDbSymbolTableRecord
100
AcDbDimStyleTableRecord
  2
DIMSTYLE3
 70
     0
 41
1.0
 42
2.54
 44
2.54
 73
     0
 74
     0
 77
     1
140
3.0
145
1.0
147
1.5
172
     1
173
     1
279
     2
340
11
  0
DIMSTYLE
105
30
102
{ACAD_REACTORS
330
1C2
102
}
330
A
100
AcDbSymbolTableRecord
100
AcDbDimStyleTableRecord
  2
DIMSTYLE4
 70
     0
 41
1.0
 42
2.54
 44
2.54
 73
     0
 74
     0
 77
     1
140
3.0
145
1.0
147
1.5
172
     1
173
     1
279
     2
340
11
  0
ENDTAB
  0
TABLE
  2
BLOCK_RECORD
  5
1
330
0
100
AcDbSymbolTable
 70
     7
  0
BLOCK_RECORD
  5
22
330
1
100
AcDbSymbolTableRecord
100
AcDbBlockTableRecord
  2
*Model_Space
340
25
  0
BLOCK_RECORD
  5
1E
330
1
100
AcDbSymbolTableRecord
100
AcDbBlockTableRecord
  2
*Paper_Space
340
21
  0
BLOCK_RECORD
  5
34
330
1
100
AcDbSymbolTableRecord
100
AcDbBlockTableRecord
  2
_OPEN30
340
0
102
{BLKREFS
331
3E
331
3F
331
47
331
48
331
51
331
52
331
5D
331
5E
102
}
  0
BLOCK_RECORD
  5
3A
330
1
100
AcDbSymbolTableRecord
100
AcDbBlockTableRecord
  2
*D1
340
0
  0
BLOCK_RECORD
  5
44
330
1
100
AcDbSymbolTableRecord
100
AcDbBlockTableRecord
  2
*D2
340
0
  0
BLOCK_RECORD
  5
4E
330
1
100
AcDbSymbolTableRecord
100
AcDbBlockTableRecord
  2
*D3
340
0
  0
BLOCK_RECORD
  5
5A
330
1
100
AcDbSymbolTableRecord
100
AcDbBlockTableRecord
  2
*D4
340
0
  0
BLOCK_RECORD
  5
66
330
1
100
AcDbSymbolTableRecord
100
AcDbBlockTableRecord
  2
KOZU0001
340
0
102
{BLKREFS
331
1BE
102
}
  0
ENDTAB
  0
ENDSEC
  0
SECTION
  2
BLOCKS
  0
BLOCK
  5
23
330
22
100
AcDbEntity
  8
0
100
AcDbBlockBegin
  2
*Model_Space
 70
     0
 10
0.0
 20
0.0
 30
0.0
  3
*Model_Space
  1

  0
ENDBLK
  5
24
330
22
100
AcDbEntity
  8
0
100
AcDbBlockEnd
  0
BLOCK
  5
1F
330
1E
100
AcDbEntity
 67
     1
  8
0
100
AcDbBlockBegin
  2
*Paper_Space
 70
     0
 10
0.0
 20
0.0
 30
0.0
  3
*Paper_Space
  1

  0
ENDBLK
  5
20
330
1E
100
AcDbEntity
 67
     1
  8
0
100
AcDbBlockEnd
  0
BLOCK
  5
35
330
34
100
AcDbEntity
  8
0
100
AcDbBlockBegin
  2
_OPEN30
 70
     0
 10
0.0
 20
0.0
 30
0.0
  3
_OPEN30
  1

  0
LINE
  5
36
330
34
100
AcDbEntity
  8
0
  6
ByBlock
 62
     0
100
AcDbLine
 10
0.0
 20
0.0
 30
0.0
 11
-2.999999999999993
 21
-1.000000000000017
 31
0.0
  0
LINE
  5
37
330
34
100
AcDbEntity
  8
0
  6
ByBlock
 62
     0
100
AcDbLine
 10
0.0
 20
0.0
 30
0.0
 11
-3.000000000000006
 21
0.9999999999999815
 31
0.0
  0
LINE
  5
38
330
34
100
AcDbEntity
  8
0
  6
ByBlock
 62
     0
100
AcDbLine
 10
0.0
 20
0.0
 30
0.0
 11
-3.0
 21
0.0
 31
0.0
  0
ENDBLK
  5
39
330
34
100
AcDbEntity
  8
0
100
AcDbBlockEnd
  0
BLOCK
  5
3B
330
3A
100
AcDbEntity
  8
0
100
AcDbBlockBegin
  2
*D1
 70
     1
 10
0.0
 20
0.0
 30
0.0
  3
*D1
  1

  0
LINE
  5
3C
330
3A
100
AcDbEntity
  8
0
  6
Continuous
 62
     7
100
AcDbLine
 10
-305.5322570800781
 20
190.3373413085938
 30
0.0
 11
-293.95556640625
 21
199.3121032714844
 31
0.0
  0
LINE
  5
3D
330
3A
100
AcDbEntity
  8
0
  6
Continuous
 62
     7
100
AcDbLine
 10
-382.193397885513
 20
130.9061628424761
 30
0.0
 11
-307.9032207668308
 21
188.4992631829146
 31
0.0
  0
INSERT
  5
3E
330
3A
100
AcDbEntity
  8
0
  6
Continuous
 62
     7
100
AcDbBlockReference
  2
_OPEN30
 10
-384.5643615722656
 20
129.0680847167969
 30
0.0
 50
217.7844590272148
  0
INSERT
  5
3F
330
3A
100
AcDbEntity
  8
0
  6
Continuous
 62
     7
100
AcDbBlockReference
  2
_OPEN30
 10
-305.5322570800781
 20
190.3373413085938
 30
0.0
 50
37.78445902721415
  0
TEXT
  5
40
330
3A
100
AcDbEntity
  8
0
  6
Continuous
 62
     7
100
AcDbText
 10
-303.2185099902672
 20
193.078138033734
 30
0.0
 40
3.0
  1
%%C100
 50
37.79999831980516
 41
1.144128733814191
100
AcDbText
  0
POINT
  5
41
330
3A
100
AcDbEntity
  8
DEFPOINTS
  6
Continuous
 62
     7
100
AcDbPoint
 10
-384.5643615722656
 20
129.0680847167969
 30
0.0
  0
POINT
  5
42
330
3A
100
AcDbEntity
  8
DEFPOINTS
  6
Continuous
 62
     7
100
AcDbPoint
 10
-305.5322570800781
 20
190.3373413085938
 30
0.0
  0
ENDBLK
  5
43
330
3A
100
AcDbEntity
  8
0
100
AcDbBlockEnd
  0
BLOCK
  5
45
330
44
100
AcDbEntity
  8
0
100
AcDbBlockBegin
  2
*D2
 70
     1
 10
0.0
 20
0.0
 30
0.0
  3
*D2
  1

  0
LINE
  5
46
330
44
100
AcDbEntity
  8
0
  6
Continuous
 62
     7
100
AcDbLine
 10
-216.0483093261719
 20
224.17626953125
 30
0.0
 11
-222.0483093261719
 21
224.17626953125
 31
0.0
  0
INSERT
  5
47
330
44
100
AcDbEntity
  8
0
  6
Continuous
 62
     7
100
AcDbBlockReference
  2
_OPEN30
 10
-213.0483093261719
 20
224.17626953125
 30
0.0
  0
INSERT
  5
48
330
44
100
AcDbEntity
  8
0
  6
Continuous
 62
     7
100
AcDbBlockReference
  2
_OPEN30
 10
-225.0483093261719
 20
224.17626953125
 30
0.0
 50
180.0000000000004
  0
TEXT
  5
49
330
44
100
AcDbEntity
  8
0
  6
Continuous
 62
     7
100
AcDbText
 10
-221.6183094382286
 20
224.92626953125
 30
0.0
 40
3.0
  1
12
 41
1.285000026226043
100
AcDbText
  0
POINT
  5
4A
330
44
100
AcDbEntity
  8
DEFPOINTS
  6
Continuous
 62
     7
100
AcDbPoint
 10
-213.0483093261719
 20
222.1188201904297
 30
0.0
  0
POINT
  5
4B
330
44
100
AcDbEntity
  8
DEFPOINTS
  6
Continuous
 62
     7
100
AcDbPoint
 10
-225.0483093261719
 20
233.2607727050781
 30
0.0
  0
POINT
  5
4C
330
44
100
AcDbEntity
  8
DEFPOINTS
  6
Continuous
 62
     7
100
AcDbPoint
 10
-225.0483093261719
 20
224.17626953125
 30
0.0
  0
ENDBLK
  5
4D
330
44
100
AcDbEntity
  8
0
100
AcDbBlockEnd
  0
BLOCK
  5
4F
330
4E
100
AcDbEntity
  8
0
100
AcDbBlockBegin
  2
*D3
 70
     1
 10
0.0
 20
0.0
 30
0.0
  3
*D3
  1

  0
LINE
  5
50
330
4E
100
AcDbEntity
  8
0
  6
Continuous
 62
     7
100
AcDbLine
 10
-222.0483093261719
 20
234.0092010498047
 30
0.0
 11
-137.0483093261719
 21
234.0092010498047
 31
0.0
  0
INSERT
  5
51
330
4E
100
AcDbEntity
  8
0
  6
Continuous
 62
     7
100
AcDbBlockReference
  2
_OPEN30
 10
-225.0483093261719
 20
234.0092010498047
 30
0.0
 50
180.0000000000004
  0
INSERT
  5
52
330
4E
100
AcDbEntity
  8
0
  6
Continuous
 62
     7
100
AcDbBlockReference
  2
_OPEN30
 10
-134.0483093261719
 20
234.0092010498047
 30
0.0
  0
LINE
  5
53
330
4E
100
AcDbEntity
  8
0
  6
Continuous
 62
     7
100
AcDbLine
 10
-225.0483093261719
 20
204.0648870849609
 30
0.0
 11
-225.0483093261719
 21
236.2952117919922
 31
0.0
  0
LINE
  5
54
330
4E
100
AcDbEntity
  8
0
  6
Continuous
 62
     7
100
AcDbLine
 10
-134.0483093261719
 20
195.2427130126953
 30
0.0
 11
-134.0483093261719
 21
236.2952117919922
 31
0.0
  0
TEXT
  5
55
330
4E
100
AcDbEntity
  8
0
  6
Continuous
 62
     7
100
AcDbText
 10
-182.1183094382286
 20
234.7592010498047
 30
0.0
 40
3.0
  1
91
 41
1.186153870362501
100
AcDbText
  0
POINT
  5
56
330
4E
100
AcDbEntity
  8
DEFPOINTS
  6
Continuous
 62
     7
100
AcDbPoint
 10
-225.0483093261719
 20
201.5248870849609
 30
0.0
  0
POINT
  5
57
330
4E
100
AcDbEntity
  8
DEFPOINTS
  6
Continuous
 62
     7
100
AcDbPoint
 10
-134.0483093261719
 20
192.7027130126953
 30
0.0
  0
POINT
  5
58
330
4E
100
AcDbEntity
  8
DEFPOINTS
  6
Continuous
 62
     7
100
AcDbPoint
 10
-134.0483093261719
 20
234.0092010498047
 30
0.0
  0
ENDBLK
  5
59
330
4E
100
AcDbEntity
  8
0
100
AcDbBlockEnd
  0
BLOCK
  5
5B
330
5A
100
AcDbEntity
  8
0
100
AcDbBlockBegin
  2
*D4
 70
     1
 10
0.0
 20
0.0
 30
0.0
  3
*D4
  1

  0
LINE
  5
5C
330
5A
100
AcDbEntity
  8
0
  6
Continuous
 62
     7
100
AcDbLine
 10
-210.0483093261719
 20
224.17626953125
 30
0.0
 11
-161.0483093261719
 21
224.17626953125
 31
0.0
  0
INSERT
  5
5D
330
5A
100
AcDbEntity
  8
0
  6
Continuous
 62
     7
100
AcDbBlockReference
  2
_OPEN30
 10
-213.0483093261719
 20
224.17626953125
 30
0.0
 50
180.0000000000004
  0
INSERT
  5
5E
330
5A
100
AcDbEntity
  8
0
  6
Continuous
 62
     7
100
AcDbBlockReference
  2
_OPEN30
 10
-158.0483093261719
 20
224.17626953125
 30
0.0
  0
LINE
  5
5F
330
5A
100
AcDbEntity
  8
0
  6
Continuous
 62
     7
100
AcDbLine
 10
-213.0483093261719
 20
212.2427130126953
 30
0.0
 11
-213.0483093261719
 21
226.4622650146484
 31
0.0
  0
LINE
  5
60
330
5A
100
AcDbEntity
  8
0
  6
Continuous
 62
     7
100
AcDbLine
 10
-158.0483093261719
 20
207.2427130126953
 30
0.0
 11
-158.0483093261719
 21
226.4622650146484
 31
0.0
  0
TEXT
  5
61
330
5A
100
AcDbEntity
  8
0
  6
Continuous
 62
     7
100
AcDbText
 10
-197.1183097958565
 20
224.92626953125
 30
0.0
 40
3.0
  1
最大挟み代　５５
 41
0.8454512278006642
100
AcDbText
  0
POINT
  5
62
330
5A
100
AcDbEntity
  8
DEFPOINTS
  6
Continuous
 62
     7
100
AcDbPoint
 10
-213.0483093261719
 20
209.7027130126953
 30
0.0
  0
POINT
  5
63
330
5A
100
AcDbEntity
  8
DEFPOINTS
  6
Continuous
 62
     7
100
AcDbPoint
 10
-158.0483093261719
 20
204.7027130126953
 30
0.0
  0
POINT
  5
64
330
5A
100
AcDbEntity
  8
DEFPOINTS
  6
Continuous
 62
     7
100
AcDbPoint
 10
-158.0483093261719
 20
224.17626953125
 30
0.0
  0
ENDBLK
  5
65
330
5A
100
AcDbEntity
  8
0
100
AcDbBlockEnd
  0
BLOCK
  5
67
330
66
100
AcDbEntity
  8
0
100
AcDbBlockBegin
  2
KOZU0001
 70
     0
 10
0.0
 20
0.0
 30
0.0
  3
KOZU0001
  1

  0
LINE
  5
68
330
66
100
AcDbEntity
  8
0
  6
Continuous
 62
     7
100
AcDbLine
 10
0.0
 20
0.0
 30
0.0
 11
15.47786712646484
 21
-17.85198974609375
 31
0.0
  0
LINE
  5
69
330
66
100
AcDbEntity
  8
0
  6
Continuous
 62
     7
100
AcDbLine
 10
15.47786712646484
 20
-17.85198974609375
 30
0.0
 11
41.19896697998046
 21
-17.85198974609375
 31
0.0
  0
LINE
  5
6A
330
66
100
AcDbEntity
  8
0
  6
Continuous
 62
     7
100
AcDbLine
 10
0.0
 20
0.0
 30
0.0
 11
2.720797372808267
 21
-1.611602201574455
 31
0.0
  0
LINE
  5
6B
330
66
100
AcDbEntity
  8
0
  6
Continuous
 62
     7
100
AcDbLine
 10
0.0
 20
0.0
 30
0.0
 11
1.209676577301942
 21
-2.921760184944524
 31
0.0
  0
TEXT
  5
6C
330
66
100
AcDbEntity
  8
0
  6
Continuous
 62
     7
100
AcDbText
 10
16.50979542732239
 20
-17.10198974609375
 30
0.0
 40
3.0
  1
配管接続口
 41
0.8487395020950888
100
AcDbText
  0
TEXT
  5
6D
330
66
100
AcDbEntity
  8
0
  6
Continuous
 62
     7
100
AcDbText
 10
16.50979542732239
 20
-22.36698974609375
 30
0.0
 40
3.0
  1
Ｒｃ２（５０Ａ）
 41
0.8454512278006642
100
AcDbText
  0
ENDBLK
  5
6E
330
66
100
AcDbEntity
  8
0
100
AcDbBlockEnd
  0
ENDSEC
  0
SECTION
  2
ENTITIES
  0
POINT
  5
6F
330
22
100
AcDbEntity
  8
0
  6
Continuous
 62
     7
100
AcDbPoint
 10
-225.0483093261719
 20
159.7027130126953
 30
0.0
  0
POINT
  5
70
330
22
100
AcDbEntity
  8
0
  6
Continuous
 62
     7
100
AcDbPoint
 10
-345.0483093261719
 20
159.7027130126953
 30
0.0
  0
POINT
  5
71
330
22
100
AcDbEntity
  8
0
  6
Continuous
 62
     7
100
AcDbPoint
 10
-225.0483093261719
 20
159.7027130126953
 30
0.0
  0
POINT
  5
72
330
22
100
AcDbEntity
  8
0
  6
Continuous
 62
     7
100
AcDbPoint
 10
-345.0483093261719
 20
159.7027130126953
 30
0.0
  0
LINE
  5
73
330
22
100
AcDbEntity
  8
0
  6
Continuous
 62
     7
100
AcDbLine
 10
-158.0483093261719
 20
159.7027130126953
 30
0.0
 11
-158.0483093261719
 21
114.7027130126953
 31
0.0
  0
LINE
  5
74
330
22
100
AcDbEntity
  8
0
  6
Continuous
 62
     7
100
AcDbLine
 10
-155.0483093261719
 20
159.7027130126953
 30
0.0
 11
-155.0483093261719
 21
114.7027130126953
 31
0.0
  0
LINE
  5
75
330
22
100
AcDbEntity
  8
0
  6
Continuous
 62
     7
100
AcDbLine
 10
-154.0483093261719
 20
159.7027130126953
 30
0.0
 11
-154.0483093261719
 21
114.7027130126953
 31
0.0
  0
LINE
  5
76
330
22
100
AcDbEntity
  8
0
  6
Continuous
 62
     7
100
AcDbLine
 10
-144.2397766113281
 20
117.7179870605469
 30
0.0
 11
-151.5483093261719
 21
117.7193984985352
 31
0.0
  0
LINE
  5
77
330
22
100
AcDbEntity
  8
0
  6
Continuous
 62
     7
100
AcDbLine
 10
-212.0483093261719
 20
125.7027130126953
 30
0.0
 11
-211.0483093261719
 21
126.7027130126953
 31
0.0
  0
LINE
  5
78
330
22
100
AcDbEntity
  8
0
  6
Continuous
 62
     7
100
AcDbLine
 10
-220.7483062744141
 20
111.9308013916016
 30
0.0
 11
-220.7483062744141
 21
159.7027130126953
 31
0.0
  0
LINE
  5
79
330
22
100
AcDbEntity
  8
0
  6
Continuous
 62
     7
100
AcDbLine
 10
-212.0483093261719
 20
125.7027130126953
 30
0.0
 11
-213.0483093261719
 21
125.7027130126953
 31
0.0
  0
LINE
  5
7A
330
22
100
AcDbEntity
  8
0
  6
Continuous
 62
     7
100
AcDbLine
 10
-213.0483093261719
 20
109.7027130126953
 30
0.0
 11
-213.0483093261719
 21
159.7027130126953
 31
0.0
  0
LINE
  5
7B
330
22
100
AcDbEntity
  8
0
  6
Continuous
 62
     7
100
AcDbLine
 10
-216.0483093261719
 20
159.7027130126953
 30
0.0
 11
-216.0483093261719
 21
109.7027130126953
 31
0.0
  0
LINE
  5
7C
330
22
100
AcDbEntity
  8
0
  6
Continuous
 62
     7
100
AcDbLine
 10
-212.0483093261719
 20
125.7027130126953
 30
0.0
 11
-158.0483093261719
 21
125.7027130126953
 31
0.0
  0
LINE
  5
7D
330
22
100
AcDbEntity
  8
0
  6
Continuous
 62
     7
100
AcDbLine
 10
-211.0483093261719
 20
126.7027130126953
 30
0.0
 11
-158.0483093261719
 21
126.7027130126953
 31
0.0
  0
LINE
  5
7E
330
22
100
AcDbEntity
  8
0
  6
Continuous
 62
     7
100
AcDbLine
 10
-214.5483093261719
 20
188.7027130126953
 30
0.0
 11
-151.0483093261719
 21
188.7027130126953
 31
0.0
  0
LINE
  5
7F
330
22
100
AcDbEntity
  8
0
  6
Continuous
 62
     7
100
AcDbLine
 10
-158.0483093261719
 20
204.7027130126953
 30
0.0
 11
-151.5483093261719
 21
204.7027130126953
 31
0.0
  0
LINE
  5
80
330
22
100
AcDbEntity
  8
0
  6
Continuous
 62
     7
100
AcDbLine
 10
-151.5483093261719
 20
204.7027130126953
 30
0.0
 11
-151.5483093261719
 21
201.68603515625
 31
0.0
  0
LINE
  5
81
330
22
100
AcDbEntity
  8
0
  6
Continuous
 62
     7
100
AcDbLine
 10
-144.2397766113281
 20
201.6874389648438
 30
0.0
 11
-151.5483093261719
 21
201.68603515625
 31
0.0
  0
LINE
  5
82
330
22
100
AcDbEntity
  8
0
  6
Continuous
 62
     7
100
AcDbLine
 10
-216.0483093261719
 20
209.7027130126953
 30
0.0
 11
-219.5876617431641
 21
209.7027130126953
 31
0.0
  0
LINE
  5
83
330
22
100
AcDbEntity
  8
0
  6
Continuous
 62
     7
100
AcDbLine
 10
-217.0483093261719
 20
204.7027130126953
 30
0.0
 11
-216.0483093261719
 21
203.7027130126953
 31
0.0
  0
LINE
  5
84
330
22
100
AcDbEntity
  8
0
  6
Continuous
 62
     7
100
AcDbLine
 10
-217.0483093261719
 20
204.7027130126953
 30
0.0
 11
-216.0483093261719
 21
205.7027130126953
 31
0.0
  0
LINE
  5
85
330
22
100
AcDbEntity
  8
0
  6
Continuous
 62
     7
100
AcDbLine
 10
-216.0483093261719
 20
209.7027130126953
 30
0.0
 11
-213.0483093261719
 21
209.7027130126953
 31
0.0
  0
LINE
  5
86
330
22
100
AcDbEntity
  8
0
  6
Continuous
 62
     7
100
AcDbLine
 10
-215.0483093261719
 20
186.7027130126953
 30
0.0
 11
-215.0483093261719
 21
159.7027130126953
 31
0.0
  0
LINE
  5
87
330
22
100
AcDbEntity
  8
0
  6
Continuous
 62
     7
100
AcDbLine
 10
-219.0483093261719
 20
191.8327178955078
 30
0.0
 11
-222.4683074951172
 21
191.8327178955078
 31
0.0
  0
LINE
  5
88
330
22
100
AcDbEntity
  8
0
  6
Continuous
 62
     7
100
AcDbLine
 10
-222.8483123779297
 20
191.4527130126953
 30
0.0
 11
-222.4683074951172
 21
191.8327178955078
 31
0.0
  0
LINE
  5
89
330
22
100
AcDbEntity
  8
0
  6
Continuous
 62
     7
100
AcDbLine
 10
-222.0483093261719
 20
191.2027130126953
 30
0.0
 11
-223.0983123779297
 21
191.2027130126953
 31
0.0
  0
LINE
  5
8A
330
22
100
AcDbEntity
  8
0
  6
Continuous
 62
     7
100
AcDbLine
 10
-222.8483123779297
 20
191.4527130126953
 30
0.0
 11
-219.4283142089844
 21
191.4527130126953
 31
0.0
  0
LINE
  5
8B
330
22
100
AcDbEntity
  8
0
  6
Continuous
 62
     7
100
AcDbLine
 10
-222.0483093261719
 20
191.4527130126953
 30
0.0
 11
-219.1283111572266
 21
191.4527130126953
 31
0.0
  0
LINE
  5
8C
330
22
100
AcDbEntity
  8
0
  6
Continuous
 62
     7
100
AcDbLine
 10
-219.1283111572266
 20
191.4527130126953
 30
0.0
 11
-218.7483062744141
 21
191.4527130126953
 31
0.0
  0
LINE
  5
8D
330
22
100
AcDbEntity
  8
0
  6
Continuous
 62
     7
100
AcDbLine
 10
-213.0483093261719
 20
194.2027130126953
 30
0.0
 11
-216.0483093261719
 21
194.2027130126953
 31
0.0
  0
LINE
  5
8E
330
22
100
AcDbEntity
  8
0
  6
Continuous
 62
     7
100
AcDbLine
 10
-212.0483093261719
 20
193.7027130126953
 30
0.0
 11
-211.0483093261719
 21
192.7027130126953
 31
0.0
  0
LINE
  5
8F
330
22
100
AcDbEntity
  8
0
  6
Continuous
 62
     7
100
AcDbLine
 10
-216.0483093261719
 20
193.7027130126953
 30
0.0
 11
-212.0483093261719
 21
193.7027130126953
 31
0.0
  0
LINE
  5
90
330
22
100
AcDbEntity
  8
0
  6
Continuous
 62
     7
100
AcDbLine
 10
-219.1283111572266
 20
191.8327178955078
 30
0.0
 11
-221.6683044433594
 21
191.8327178955078
 31
0.0
  0
LINE
  5
91
330
22
100
AcDbEntity
  8
0
  6
Continuous
 62
     7
100
AcDbLine
 10
-218.7483062744141
 20
191.4527130126953
 30
0.0
 11
-219.1283111572266
 21
191.8327178955078
 31
0.0
  0
LINE
  5
92
330
22
100
AcDbEntity
  8
0
  6
Continuous
 62
     7
100
AcDbLine
 10
-134.0483093261719
 20
192.7027130126953
 30
0.0
 11
-211.0483093261719
 21
192.7027130126953
 31
0.0
  0
LINE
  5
93
330
22
100
AcDbEntity
  8
0
  6
Continuous
 62
     7
100
AcDbLine
 10
-135.0483093261719
 20
193.7027130126953
 30
0.0
 11
-212.0483093261719
 21
193.7027130126953
 31
0.0
  0
LINE
  5
94
330
22
100
AcDbEntity
  8
0
  6
Continuous
 62
     7
100
AcDbLine
 10
-219.0483093261719
 20
191.8327178955078
 30
0.0
 11
-219.4283142089844
 21
191.4527130126953
 31
0.0
  0
LINE
  5
95
330
22
100
AcDbEntity
  8
0
  6
Continuous
 62
     7
100
AcDbLine
 10
-216.0483093261719
 20
109.7027130126953
 30
0.0
 11
-213.0483093261719
 21
109.7027130126953
 31
0.0
  0
LINE
  5
96
330
22
100
AcDbEntity
  8
0
  6
Continuous
 62
     7
100
AcDbLine
 10
-216.0483093261719
 20
109.7027130126953
 30
0.0
 11
-219.5876617431641
 21
109.7027130126953
 31
0.0
  0
LINE
  5
97
330
22
100
AcDbEntity
  8
0
  6
Continuous
 62
     7
100
AcDbLine
 10
-158.0483093261719
 20
114.7027130126953
 30
0.0
 11
-151.5483093261719
 21
114.7027130126953
 31
0.0
  0
LINE
  5
98
330
22
100
AcDbEntity
  8
0
  6
Continuous
 62
     7
100
AcDbLine
 10
-215.0483093261719
 20
188.2027130126953
 30
0.0
 11
-215.0483093261719
 21
186.7027130126953
 31
0.0
  0
LINE
  5
99
330
22
100
AcDbEntity
  8
0
  6
Continuous
 62
     7
100
AcDbLine
 10
-222.0483093261719
 20
191.4527130126953
 30
0.0
 11
-222.0483093261719
 21
186.7027130126953
 31
0.0
  0
LINE
  5
9A
330
22
100
AcDbEntity
  8
0
  6
Continuous
 62
     7
100
AcDbLine
 10
-142.5833129882813
 20
125.7027130126953
 30
0.0
 11
-135.0483093261719
 21
125.7027130126953
 31
0.0
  0
LINE
  5
9B
330
22
100
AcDbEntity
  8
0
  6
Continuous
 62
     7
100
AcDbLine
 10
-134.0483093261719
 20
126.7027130126953
 30
0.0
 11
-135.0483093261719
 21
125.7027130126953
 31
0.0
  0
LINE
  5
9C
330
22
100
AcDbEntity
  8
0
  6
Continuous
 62
     7
100
AcDbLine
 10
-151.5483093261719
 20
159.7027130126953
 30
0.0
 11
-151.5483093261719
 21
114.7027130126953
 31
0.0
  0
LINE
  5
9D
330
22
100
AcDbEntity
  8
0
  6
Continuous
 62
     7
100
AcDbLine
 10
-144.2397766113281
 20
139.8281097412109
 30
0.0
 11
-144.2397766113281
 21
137.5970764160156
 31
0.0
  0
LINE
  5
9E
330
22
100
AcDbEntity
  8
0
  6
Continuous
 62
     7
100
AcDbLine
 10
-149.6415710449219
 20
187.564697265625
 30
0.0
 11
-149.6415710449219
 21
159.7027130126953
 31
0.0
  0
LINE
  5
9F
330
22
100
AcDbEntity
  8
0
  6
Continuous
 62
     7
100
AcDbLine
 10
-151.0483093261719
 20
188.971435546875
 30
0.0
 11
-151.0483093261719
 21
159.7027130126953
 31
0.0
  0
LINE
  5
A0
330
22
100
AcDbEntity
  8
0
  6
Continuous
 62
     7
100
AcDbLine
 10
-134.0483093261719
 20
192.7027130126953
 30
0.0
 11
-134.0483093261719
 21
126.7027130126953
 31
0.0
  0
LINE
  5
A1
330
22
100
AcDbEntity
  8
0
  6
Continuous
 62
     7
100
AcDbLine
 10
-134.0483093261719
 20
189.5027160644531
 30
0.0
 11
-134.0483093261719
 21
159.7027130126953
 31
0.0
  0
LINE
  5
A2
330
22
100
AcDbEntity
  8
0
  6
Continuous
 62
     7
100
AcDbLine
 10
-135.5458221435547
 20
188.0052032470703
 30
0.0
 11
-135.5458221435547
 21
159.7027130126953
 31
0.0
  0
LINE
  5
A3
330
22
100
AcDbEntity
  8
0
  6
Continuous
 62
     7
100
AcDbLine
 10
-222.0483093261719
 20
186.7027130126953
 30
0.0
 11
-222.0483093261719
 21
159.7027130126953
 31
0.0
  0
LINE
  5
A4
330
22
100
AcDbEntity
  8
0
  6
Continuous
 62
     7
100
AcDbLine
 10
-135.5458221435547
 20
188.0052032470703
 30
0.0
 11
-149.6415710449219
 21
187.564697265625
 31
0.0
  0
LINE
  5
A5
330
22
100
AcDbEntity
  8
0
  6
Continuous
 62
     7
100
AcDbLine
 10
-134.0483093261719
 20
189.5027160644531
 30
0.0
 11
-135.5458221435547
 21
188.0052032470703
 31
0.0
  0
LINE
  5
A6
330
22
100
AcDbEntity
  8
0
  6
Continuous
 62
     7
100
AcDbLine
 10
-151.0483093261719
 20
188.971435546875
 30
0.0
 11
-149.6415710449219
 21
187.564697265625
 31
0.0
  0
LINE
  5
A7
330
22
100
AcDbEntity
  8
0
  6
Continuous
 62
     7
100
AcDbLine
 10
-134.0483093261719
 20
192.7027130126953
 30
0.0
 11
-135.0483093261719
 21
193.7027130126953
 31
0.0
  0
LINE
  5
A8
330
22
100
AcDbEntity
  8
0
  6
Continuous
 62
     7
100
AcDbLine
 10
-134.0483093261719
 20
189.5027160644531
 30
0.0
 11
-151.0483093261719
 21
188.971435546875
 31
0.0
  0
LINE
  5
A9
330
22
100
AcDbEntity
  8
0
  6
Continuous
 62
     7
100
AcDbLine
 10
-160.0483093261719
 20
193.7027130126953
 30
0.0
 11
-156.0483093261719
 21
193.7027130126953
 31
0.0
  0
LINE
  5
AA
330
22
100
AcDbEntity
  8
0
  6
Continuous
 62
     7
100
AcDbLine
 10
-154.0483093261719
 20
193.7027130126953
 30
0.0
 11
-153.0483093261719
 21
192.7027130126953
 31
0.0
  0
LINE
  5
AB
330
22
100
AcDbEntity
  8
0
  6
Continuous
 62
     7
100
AcDbLine
 10
-143.0483093261719
 20
193.7027130126953
 30
0.0
 11
-144.0483093261719
 21
192.7027130126953
 31
0.0
  0
LINE
  5
AC
330
22
100
AcDbEntity
  8
0
  6
Continuous
 62
     7
100
AcDbLine
 10
-211.0483093261719
 20
126.7027130126953
 30
0.0
 11
-211.0483093261719
 21
159.7027130126953
 31
0.0
  0
LINE
  5
AD
330
22
100
AcDbEntity
  8
0
  6
Continuous
 62
     7
100
AcDbLine
 10
-221.5483093261719
 20
186.2027130126953
 30
0.0
 11
-215.5483093261719
 21
186.2027130126953
 31
0.0
  0
LINE
  5
AE
330
22
100
AcDbEntity
  8
0
  6
Continuous
 62
     7
100
AcDbLine
 10
-142.5340270996094
 20
126.7027130126953
 30
0.0
 11
-134.0483093261719
 21
126.7027130126953
 31
0.0
  0
LINE
  5
AF
330
22
100
AcDbEntity
  8
0
  6
Continuous
 62
     7
100
AcDbLine
 10
-134.0483093261719
 20
126.7027130126953
 30
0.0
 11
-134.5483093261719
 21
126.7027130126953
 31
0.0
  0
LINE
  5
B0
330
22
100
AcDbEntity
  8
0
  6
Continuous
 62
     7
100
AcDbLine
 10
-144.2397766113281
 20
137.5970764160156
 30
0.0
 11
-151.5483093261719
 21
137.5970764160156
 31
0.0
  0
LINE
  5
B1
330
22
100
AcDbEntity
  8
0
  6
Continuous
 62
     7
100
AcDbLine
 10
-144.2397766113281
 20
139.8281097412109
 30
0.0
 11
-151.5483093261719
 21
139.8281097412109
 31
0.0
  0
LINE
  5
B2
330
22
100
AcDbEntity
  8
0
  6
Continuous
 62
     7
100
AcDbLine
 10
-142.5483093261719
 20
159.7027130126953
 30
0.0
 11
-142.5483093261719
 21
128.9825134277344
 31
0.0
  0
LINE
  5
B3
330
22
100
AcDbEntity
  8
0
  6
Continuous
 62
     7
100
AcDbLine
 10
-219.0483093261719
 20
195.0727081298828
 30
0.0
 11
-219.4283142089844
 21
195.4527130126953
 31
0.0
  0
LINE
  5
B4
330
22
100
AcDbEntity
  8
0
  6
Continuous
 62
     7
100
AcDbLine
 10
-154.0483093261719
 20
204.2969360351563
 30
0.0
 11
-153.6425323486328
 21
204.7027130126953
 31
0.0
  0
LINE
  5
B5
330
22
100
AcDbEntity
  8
0
  6
Continuous
 62
     7
100
AcDbLine
 10
-154.0483093261719
 20
200.0542907714844
 30
0.0
 11
-151.5483093261719
 21
202.5542907714844
 31
0.0
  0
LINE
  5
B6
330
22
100
AcDbEntity
  8
0
  6
Continuous
 62
     7
100
AcDbLine
 10
-154.0483093261719
 20
195.8116607666016
 30
0.0
 11
-148.1732788085938
 21
201.6866760253906
 31
0.0
  0
LINE
  5
B7
330
22
100
AcDbEntity
  8
0
  6
Continuous
 62
     7
100
AcDbLine
 10
-151.9146118164063
 20
193.7027130126953
 30
0.0
 11
-144.1610412597656
 21
201.4562835693359
 31
0.0
  0
LINE
  5
B8
330
22
100
AcDbEntity
  8
0
  6
Continuous
 62
     7
100
AcDbLine
 10
-147.6719665527344
 20
193.7027130126953
 30
0.0
 11
-143.2226867675781
 21
198.1519927978516
 31
0.0
  0
LINE
  5
B9
330
22
100
AcDbEntity
  8
0
  6
Continuous
 62
     7
100
AcDbLine
 10
-143.4293365478516
 20
193.7027130126953
 30
0.0
 11
-142.6539001464844
 21
194.4781494140625
 31
0.0
  0
LINE
  5
BA
330
22
100
AcDbEntity
  8
0
  6
Continuous
 62
     7
100
AcDbLine
 10
-154.0483093261719
 20
202.1756134033203
 30
0.0
 11
-151.5483093261719
 21
204.6756134033203
 31
0.0
  0
LINE
  5
BB
330
22
100
AcDbEntity
  8
0
  6
Continuous
 62
     7
100
AcDbLine
 10
-154.0483093261719
 20
197.9329681396484
 30
0.0
 11
-150.2950134277344
 21
201.686279296875
 31
0.0
  0
LINE
  5
BC
330
22
100
AcDbEntity
  8
0
  6
Continuous
 62
     7
100
AcDbLine
 10
-154.0359344482422
 20
193.7027130126953
 30
0.0
 11
-146.0515594482422
 21
201.6870880126953
 31
0.0
  0
LINE
  5
BD
330
22
100
AcDbEntity
  8
0
  6
Continuous
 62
     7
100
AcDbLine
 10
-149.7932891845703
 20
193.7027130126953
 30
0.0
 11
-143.6551513671875
 21
199.8408508300781
 31
0.0
  0
LINE
  5
BE
330
22
100
AcDbEntity
  8
0
  6
Continuous
 62
     7
100
AcDbLine
 10
-145.5506439208984
 20
193.7027130126953
 30
0.0
 11
-142.88720703125
 21
196.3661499023438
 31
0.0
  0
LINE
  5
BF
330
22
100
AcDbEntity
  8
0
  6
Continuous
 62
     7
100
AcDbLine
 10
-155.0483093261719
 20
204.7027130126953
 30
0.0
 11
-155.0483093261719
 21
193.7027130126953
 31
0.0
  0
LINE
  5
C0
330
22
100
AcDbEntity
  8
0
  6
Continuous
 62
     7
100
AcDbLine
 10
-154.0483093261719
 20
204.7027130126953
 30
0.0
 11
-154.0483093261719
 21
193.7027130126953
 31
0.0
  0
LINE
  5
C1
330
22
100
AcDbEntity
  8
0
  6
Continuous
 62
     7
100
AcDbLine
 10
-222.8483123779297
 20
195.4527130126953
 30
0.0
 11
-219.4283142089844
 21
195.4527130126953
 31
0.0
  0
LINE
  5
C2
330
22
100
AcDbEntity
  8
0
  6
Continuous
 62
     7
100
AcDbLine
 10
-222.8483123779297
 20
195.4527130126953
 30
0.0
 11
-222.4683074951172
 21
195.0727081298828
 31
0.0
  0
LINE
  5
C3
330
22
100
AcDbEntity
  8
0
  6
Continuous
 62
     7
100
AcDbLine
 10
-219.0483093261719
 20
195.0727081298828
 30
0.0
 11
-222.4683074951172
 21
195.0727081298828
 31
0.0
  0
LINE
  5
C4
330
22
100
AcDbEntity
  8
0
  6
Continuous
 62
     7
100
AcDbLine
 10
-219.0483093261719
 20
195.0727081298828
 30
0.0
 11
-219.0483093261719
 21
191.8327178955078
 31
0.0
  0
LINE
  5
C5
330
22
100
AcDbEntity
  8
0
  6
Continuous
 62
     7
100
AcDbLine
 10
-218.7483062744141
 20
195.4527130126953
 30
0.0
 11
-219.1283111572266
 21
195.0727081298828
 31
0.0
  0
LINE
  5
C6
330
22
100
AcDbEntity
  8
0
  6
Continuous
 62
     7
100
AcDbLine
 10
-219.1283111572266
 20
195.4527130126953
 30
0.0
 11
-218.7483062744141
 21
195.4527130126953
 31
0.0
  0
LINE
  5
C7
330
22
100
AcDbEntity
  8
0
  6
Continuous
 62
     7
100
AcDbLine
 10
-219.1283111572266
 20
195.0727081298828
 30
0.0
 11
-221.6683044433594
 21
195.0727081298828
 31
0.0
  0
LINE
  5
C8
330
22
100
AcDbEntity
  8
0
  6
Continuous
 62
     7
100
AcDbLine
 10
-213.0483093261719
 20
209.7027130126953
 30
0.0
 11
-213.0483093261719
 21
194.2027130126953
 31
0.0
  0
LINE
  5
C9
330
22
100
AcDbEntity
  8
0
  6
Continuous
 62
     7
100
AcDbLine
 10
-216.0483093261719
 20
209.7027130126953
 30
0.0
 11
-216.0483093261719
 21
193.7027130126953
 31
0.0
  0
LINE
  5
CA
330
22
100
AcDbEntity
  8
0
  6
Continuous
 62
     7
100
AcDbLine
 10
-222.0483093261719
 20
195.4527130126953
 30
0.0
 11
-219.1283111572266
 21
195.4527130126953
 31
0.0
  0
LINE
  5
CB
330
22
100
AcDbEntity
  8
0
  6
Continuous
 62
     7
100
AcDbLine
 10
-217.0483093261719
 20
199.7027130126953
 30
0.0
 11
-216.0483093261719
 21
198.7027130126953
 31
0.0
  0
LINE
  5
CC
330
22
100
AcDbEntity
  8
0
  6
Continuous
 62
     7
100
AcDbLine
 10
-217.0483093261719
 20
199.7027130126953
 30
0.0
 11
-216.0483093261719
 21
200.7027130126953
 31
0.0
  0
LINE
  5
CD
330
22
100
AcDbEntity
  8
0
  6
Continuous
 62
     7
100
AcDbLine
 10
-219.1283111572266
 20
195.0727081298828
 30
0.0
 11
-219.1283111572266
 21
191.8327178955078
 31
0.0
  0
LINE
  5
CE
330
22
100
AcDbEntity
  8
0
  6
Continuous
 62
     7
100
AcDbLine
 10
-222.0483093261719
 20
201.2027130126953
 30
0.0
 11
-222.0483093261719
 21
195.4527130126953
 31
0.0
  0
LINE
  5
CF
330
22
100
AcDbEntity
  8
0
  6
Continuous
 62
     7
100
AcDbLine
 10
-218.7483062744141
 20
195.4527130126953
 30
0.0
 11
-218.7483062744141
 21
191.4527130126953
 31
0.0
  0
LINE
  5
D0
330
22
100
AcDbEntity
  8
0
  6
Continuous
 62
     7
100
AcDbLine
 10
-223.4238739013672
 20
201.2027130126953
 30
0.0
 11
-222.0483093261719
 21
199.8271636962891
 31
0.0
  0
LINE
  5
D1
330
22
100
AcDbEntity
  8
0
  6
Continuous
 62
     7
100
AcDbLine
 10
-224.1309814453125
 20
201.2027130126953
 30
0.0
 11
-222.0483093261719
 21
199.1200561523438
 31
0.0
  0
LINE
  5
D2
330
22
100
AcDbEntity
  8
0
  6
Continuous
 62
     7
100
AcDbLine
 10
-225.0483093261719
 20
199.9987335205078
 30
0.0
 11
-222.0483093261719
 21
196.9987335205078
 31
0.0
  0
LINE
  5
D3
330
22
100
AcDbEntity
  8
0
  6
Continuous
 62
     7
100
AcDbLine
 10
-225.0483093261719
 20
199.2916259765625
 30
0.0
 11
-222.0483093261719
 21
196.2916259765625
 31
0.0
  0
LINE
  5
D4
330
22
100
AcDbEntity
  8
0
  6
Continuous
 62
     7
100
AcDbLine
 10
-222.6162567138672
 20
191.2027130126953
 30
0.0
 11
-222.0483093261719
 21
190.634765625
 31
0.0
  0
LINE
  5
D5
330
22
100
AcDbEntity
  8
0
  6
Continuous
 62
     7
100
AcDbLine
 10
-223.9179382324219
 20
190.3830871582031
 30
0.0
 11
-222.0483093261719
 21
188.5134429931641
 31
0.0
  0
LINE
  5
D6
330
22
100
AcDbEntity
  8
0
  6
Continuous
 62
     7
100
AcDbLine
 10
-224.2714996337891
 20
190.0295257568359
 30
0.0
 11
-222.0483093261719
 21
187.8063354492188
 31
0.0
  0
LINE
  5
D7
330
22
100
AcDbEntity
  8
0
  6
Continuous
 62
     7
100
AcDbLine
 10
-225.0483093261719
 20
188.6850280761719
 30
0.0
 11
-222.0483093261719
 21
185.6850280761719
 31
0.0
  0
LINE
  5
D8
330
22
100
AcDbEntity
  8
0
  6
Continuous
 62
     7
100
AcDbLine
 10
-225.0483093261719
 20
187.9779205322266
 30
0.0
 11
-222.0483093261719
 21
184.9779205322266
 31
0.0
  0
LINE
  5
D9
330
22
100
AcDbEntity
  8
0
  6
Continuous
 62
     7
100
AcDbLine
 10
-225.0483093261719
 20
185.8565979003906
 30
0.0
 11
-222.0483093261719
 21
182.8565979003906
 31
0.0
  0
LINE
  5
DA
330
22
100
AcDbEntity
  8
0
  6
Continuous
 62
     7
100
AcDbLine
 10
-225.0483093261719
 20
185.1494903564453
 30
0.0
 11
-222.0483093261719
 21
182.1494903564453
 31
0.0
  0
LINE
  5
DB
330
22
100
AcDbEntity
  8
0
  6
Continuous
 62
     7
100
AcDbLine
 10
-225.0483093261719
 20
183.0281677246094
 30
0.0
 11
-222.0483093261719
 21
180.0281677246094
 31
0.0
  0
LINE
  5
DC
330
22
100
AcDbEntity
  8
0
  6
Continuous
 62
     7
100
AcDbLine
 10
-225.0483093261719
 20
182.3210601806641
 30
0.0
 11
-222.0483093261719
 21
179.3210601806641
 31
0.0
  0
LINE
  5
DD
330
22
100
AcDbEntity
  8
0
  6
Continuous
 62
     7
100
AcDbLine
 10
-225.0483093261719
 20
180.1997375488281
 30
0.0
 11
-222.0483093261719
 21
177.1997375488281
 31
0.0
  0
LINE
  5
DE
330
22
100
AcDbEntity
  8
0
  6
Continuous
 62
     7
100
AcDbLine
 10
-225.0483093261719
 20
179.4926300048828
 30
0.0
 11
-222.0483093261719
 21
176.4926300048828
 31
0.0
  0
LINE
  5
DF
330
22
100
AcDbEntity
  8
0
  6
Continuous
 62
     7
100
AcDbLine
 10
-225.0483093261719
 20
177.3713073730469
 30
0.0
 11
-222.0483093261719
 21
174.3713073730469
 31
0.0
  0
LINE
  5
E0
330
22
100
AcDbEntity
  8
0
  6
Continuous
 62
     7
100
AcDbLine
 10
-225.0483093261719
 20
176.6641998291016
 30
0.0
 11
-222.0483093261719
 21
173.6641998291016
 31
0.0
  0
LINE
  5
E1
330
22
100
AcDbEntity
  8
0
  6
Continuous
 62
     7
100
AcDbLine
 10
-225.0483093261719
 20
174.5428924560547
 30
0.0
 11
-222.0483093261719
 21
171.5428924560547
 31
0.0
  0
LINE
  5
E2
330
22
100
AcDbEntity
  8
0
  6
Continuous
 62
     7
100
AcDbLine
 10
-225.0483093261719
 20
173.8357849121094
 30
0.0
 11
-222.0483093261719
 21
170.8357849121094
 31
0.0
  0
LINE
  5
E3
330
22
100
AcDbEntity
  8
0
  6
Continuous
 62
     7
100
AcDbLine
 10
-225.0483093261719
 20
171.7144622802734
 30
0.0
 11
-222.0483093261719
 21
168.7144622802734
 31
0.0
  0
LINE
  5
E4
330
22
100
AcDbEntity
  8
0
  6
Continuous
 62
     7
100
AcDbLine
 10
-225.0483093261719
 20
171.0073547363281
 30
0.0
 11
-222.0483093261719
 21
168.0073547363281
 31
0.0
  0
LINE
  5
E5
330
22
100
AcDbEntity
  8
0
  6
Continuous
 62
     7
100
AcDbLine
 10
-225.0483093261719
 20
168.8860321044922
 30
0.0
 11
-222.0483093261719
 21
165.8860321044922
 31
0.0
  0
LINE
  5
E6
330
22
100
AcDbEntity
  8
0
  6
Continuous
 62
     7
100
AcDbLine
 10
-225.0483093261719
 20
168.1789245605469
 30
0.0
 11
-222.0483093261719
 21
165.1789245605469
 31
0.0
  0
LINE
  5
E7
330
22
100
AcDbEntity
  8
0
  6
Continuous
 62
     7
100
AcDbLine
 10
-225.0483093261719
 20
166.0576019287109
 30
0.0
 11
-222.0483093261719
 21
163.0576019287109
 31
0.0
  0
LINE
  5
E8
330
22
100
AcDbEntity
  8
0
  6
Continuous
 62
     7
100
AcDbLine
 10
-225.0483093261719
 20
165.3504943847656
 30
0.0
 11
-222.0483093261719
 21
162.3504943847656
 31
0.0
  0
LINE
  5
E9
330
22
100
AcDbEntity
  8
0
  6
Continuous
 62
     7
100
AcDbLine
 10
-225.0483093261719
 20
163.2291717529296
 30
0.0
 11
-222.0483093261719
 21
160.2291717529297
 31
0.0
  0
LINE
  5
EA
330
22
100
AcDbEntity
  8
0
  6
Continuous
 62
     7
100
AcDbLine
 10
-225.0483093261719
 20
162.5220642089844
 30
0.0
 11
-222.2289581298828
 21
159.7027130126953
 31
0.0
  0
LINE
  5
EB
330
22
100
AcDbEntity
  8
0
  6
Continuous
 62
     7
100
AcDbLine
 10
-225.0483093261719
 20
160.4007568359375
 30
0.0
 11
-224.3502807617189
 21
159.7027130126953
 31
0.0
  0
LINE
  5
EC
330
22
100
AcDbEntity
  8
0
  6
Continuous
 62
     7
100
AcDbLine
 10
-225.0483093261719
 20
189.2527160644531
 30
0.0
 11
-222.8483123779297
 21
191.4527130126953
 31
0.0
  0
LINE
  5
ED
330
22
100
AcDbEntity
  8
0
  6
Continuous
 62
     7
100
AcDbLine
 10
-225.0483093261719
 20
197.6527099609375
 30
0.0
 11
-222.8483123779297
 21
195.4527130126953
 31
0.0
  0
LINE
  5
EE
330
22
100
AcDbEntity
  8
0
  6
Continuous
 62
     7
100
AcDbLine
 10
-221.3241577148438
 20
208.6949920654297
 30
0.0
 11
-224.3895263671875
 21
204.0055847167969
 31
0.0
  0
LINE
  5
EF
330
22
100
AcDbEntity
  8
0
  6
Continuous
 62
     7
100
AcDbLine
 10
-225.0483093261719
 20
197.6527099609375
 30
0.0
 11
-225.0483093261719
 21
189.2527160644531
 31
0.0
  0
LINE
  5
F0
330
22
100
AcDbEntity
  8
0
  6
CENTER
 62
     7
100
AcDbLine
 10
-226.9727783203125
 20
193.4527130126953
 30
0.0
 11
-217.0483093261719
 21
193.4527130126953
 31
0.0
  0
LINE
  5
F1
330
22
100
AcDbEntity
  8
0
  6
Continuous
 62
     7
100
AcDbLine
 10
-225.0483093261719
 20
201.2027130126953
 30
0.0
 11
-222.0483093261719
 21
201.2027130126953
 31
0.0
  0
LINE
  5
F2
330
22
100
AcDbEntity
  8
0
  6
Continuous
 62
     7
100
AcDbLine
 10
-221.3241577148438
 20
110.7104339599609
 30
0.0
 11
-224.5108642578125
 21
115.6254043579102
 31
0.0
  0
LINE
  5
F3
330
22
100
AcDbEntity
  8
0
  6
Continuous
 62
     7
100
AcDbLine
 10
-225.0483093261719
 20
201.5920257568359
 30
0.0
 11
-225.0483093261719
 21
117.7326049804688
 31
0.0
  0
LINE
  5
F4
330
22
100
AcDbEntity
  8
0
  6
CENTER
 62
     7
100
AcDbLine
 10
-231.4652252197266
 20
159.7027130126953
 30
0.0
 11
-125.9577789306641
 21
159.7027130126953
 31
0.0
  0
LINE
  5
F5
330
22
100
AcDbEntity
  8
0
  6
Continuous
 62
     7
100
AcDbLine
 10
-222.1029968261719
 20
207.5035095214844
 30
0.0
 11
-219.9823455810547
 21
209.6241760253906
 31
0.0
  0
LINE
  5
F6
330
22
100
AcDbEntity
  8
0
  6
Continuous
 62
     7
100
AcDbLine
 10
-224.5546417236328
 20
203.6376647949219
 30
0.0
 11
-218.4895935058594
 21
209.7027130126953
 31
0.0
  0
LINE
  5
F7
330
22
100
AcDbEntity
  8
0
  6
Continuous
 62
     7
100
AcDbLine
 10
-225.0348815917969
 20
201.7432098388672
 30
0.0
 11
-217.0753784179688
 21
209.7027130126953
 31
0.0
  0
LINE
  5
F8
330
22
100
AcDbEntity
  8
0
  6
Continuous
 62
     7
100
AcDbLine
 10
-224.1611633300781
 20
201.2027130126953
 30
0.0
 11
-216.0483093261719
 21
209.3155670166016
 31
0.0
  0
LINE
  5
F9
330
22
100
AcDbEntity
  8
0
  6
Continuous
 62
     7
100
AcDbLine
 10
-222.7469482421875
 20
201.2027130126953
 30
0.0
 11
-216.0483093261719
 21
207.9013519287109
 31
0.0
  0
LINE
  5
FA
330
22
100
AcDbEntity
  8
0
  6
Continuous
 62
     7
100
AcDbLine
 10
-222.0483093261719
 20
200.4871368408203
 30
0.0
 11
-216.0483093261719
 21
206.4871368408203
 31
0.0
  0
LINE
  5
FB
330
22
100
AcDbEntity
  8
0
  6
Continuous
 62
     7
100
AcDbLine
 10
-222.0483093261719
 20
199.0729217529297
 30
0.0
 11
-216.7334136962891
 21
204.3878173828125
 31
0.0
  0
LINE
  5
FC
330
22
100
AcDbEntity
  8
0
  6
Continuous
 62
     7
100
AcDbLine
 10
-222.0483093261719
 20
197.6587066650391
 30
0.0
 11
-216.0483093261719
 21
203.6587066650391
 31
0.0
  0
LINE
  5
FD
330
22
100
AcDbEntity
  8
0
  6
Continuous
 62
     7
100
AcDbLine
 10
-222.0483093261719
 20
196.2444915771484
 30
0.0
 11
-216.0483093261719
 21
202.2444915771484
 31
0.0
  0
LINE
  5
FE
330
22
100
AcDbEntity
  8
0
  6
Continuous
 62
     7
100
AcDbLine
 10
-221.4258728027344
 20
195.4527130126953
 30
0.0
 11
-216.0483093261719
 21
200.8302764892578
 31
0.0
  0
LINE
  5
FF
330
22
100
AcDbEntity
  8
0
  6
Continuous
 62
     7
100
AcDbLine
 10
-220.0116577148438
 20
195.4527130126953
 30
0.0
 11
-216.4049835205078
 21
199.0593872070313
 31
0.0
  0
LINE
  5
100
330
22
100
AcDbEntity
  8
0
  6
Continuous
 62
     7
100
AcDbLine
 10
-218.7483062744141
 20
195.3018493652344
 30
0.0
 11
-216.0483093261719
 21
198.0018463134766
 31
0.0
  0
LINE
  5
101
330
22
100
AcDbEntity
  8
0
  6
Continuous
 62
     7
100
AcDbLine
 10
-218.7483062744141
 20
193.8876342773438
 30
0.0
 11
-216.0483093261719
 21
196.587646484375
 31
0.0
  0
LINE
  5
102
330
22
100
AcDbEntity
  8
0
  6
Continuous
 62
     7
100
AcDbLine
 10
-222.0483093261719
 20
190.587646484375
 30
0.0
 11
-221.1832427978516
 21
191.4527130126953
 31
0.0
  0
LINE
  5
103
330
22
100
AcDbEntity
  8
0
  6
Continuous
 62
     7
100
AcDbLine
 10
-217.7690277099609
 20
193.4527130126953
 30
0.0
 11
-216.0483093261719
 21
195.1734313964844
 31
0.0
  0
LINE
  5
104
330
22
100
AcDbEntity
  8
0
  6
Continuous
 62
     7
100
AcDbLine
 10
-218.7483062744141
 20
192.4734191894531
 30
0.0
 11
-217.7690277099609
 21
193.4527130126953
 31
0.0
  0
LINE
  5
105
330
22
100
AcDbEntity
  8
0
  6
Continuous
 62
     7
100
AcDbLine
 10
-222.0483093261719
 20
189.1734313964844
 30
0.0
 11
-219.7690277099609
 21
191.4527130126953
 31
0.0
  0
LINE
  5
106
330
22
100
AcDbEntity
  8
0
  6
Continuous
 62
     7
100
AcDbLine
 10
-222.0483093261719
 20
187.7592163085938
 30
0.0
 11
-216.0483093261719
 21
193.7592163085938
 31
0.0
  0
LINE
  5
107
330
22
100
AcDbEntity
  8
0
  6
Continuous
 62
     7
100
AcDbLine
 10
-221.9435424804689
 20
186.4497680664063
 30
0.0
 11
-214.6905975341797
 21
193.7027130126953
 31
0.0
  0
LINE
  5
108
330
22
100
AcDbEntity
  8
0
  6
Continuous
 62
     7
100
AcDbLine
 10
-220.7763824462891
 20
186.2027130126953
 30
0.0
 11
-213.2763824462891
 21
193.7027130126953
 31
0.0
  0
LINE
  5
109
330
22
100
AcDbEntity
  8
0
  6
Continuous
 62
     7
100
AcDbLine
 10
-219.3621673583984
 20
186.2027130126953
 30
0.0
 11
-211.9552459716797
 21
193.6096496582031
 31
0.0
  0
LINE
  5
10A
330
22
100
AcDbEntity
  8
0
  6
Continuous
 62
     7
100
AcDbLine
 10
-217.9479522705078
 20
186.2027130126953
 30
0.0
 11
-211.2481384277344
 21
192.9025421142578
 31
0.0
  0
LINE
  5
10B
330
22
100
AcDbEntity
  8
0
  6
Continuous
 62
     7
100
AcDbLine
 10
-214.0337371826172
 20
188.7027130126953
 30
0.0
 11
-210.0337371826172
 21
192.7027130126953
 31
0.0
  0
LINE
  5
10C
330
22
100
AcDbEntity
  8
0
  6
Continuous
 62
     7
100
AcDbLine
 10
-216.5337371826172
 20
186.2027130126953
 30
0.0
 11
-215.0483093261719
 21
187.6881408691406
 31
0.0
  0
LINE
  5
10D
330
22
100
AcDbEntity
  8
0
  6
Continuous
 62
     7
100
AcDbLine
 10
-212.6195220947266
 20
188.7027130126953
 30
0.0
 11
-208.6195220947266
 21
192.7027130126953
 31
0.0
  0
LINE
  5
10E
330
22
100
AcDbEntity
  8
0
  6
Continuous
 62
     7
100
AcDbLine
 10
-211.205322265625
 20
188.7027130126953
 30
0.0
 11
-207.205322265625
 21
192.7027130126953
 31
0.0
  0
LINE
  5
10F
330
22
100
AcDbEntity
  8
0
  6
Continuous
 62
     7
100
AcDbLine
 10
-209.7911071777344
 20
188.7027130126953
 30
0.0
 11
-205.7911071777344
 21
192.7027130126953
 31
0.0
  0
LINE
  5
110
330
22
100
AcDbEntity
  8
0
  6
Continuous
 62
     7
100
AcDbLine
 10
-208.3768920898438
 20
188.7027130126953
 30
0.0
 11
-204.3768920898438
 21
192.7027130126953
 31
0.0
  0
LINE
  5
111
330
22
100
AcDbEntity
  8
0
  6
Continuous
 62
     7
100
AcDbLine
 10
-206.9626770019531
 20
188.7027130126953
 30
0.0
 11
-202.9626770019531
 21
192.7027130126953
 31
0.0
  0
LINE
  5
112
330
22
100
AcDbEntity
  8
0
  6
Continuous
 62
     7
100
AcDbLine
 10
-205.5484619140625
 20
188.7027130126953
 30
0.0
 11
-201.5484619140625
 21
192.7027130126953
 31
0.0
  0
LINE
  5
113
330
22
100
AcDbEntity
  8
0
  6
Continuous
 62
     7
100
AcDbLine
 10
-204.1342468261719
 20
188.7027130126953
 30
0.0
 11
-200.1342468261719
 21
192.7027130126953
 31
0.0
  0
LINE
  5
114
330
22
100
AcDbEntity
  8
0
  6
Continuous
 62
     7
100
AcDbLine
 10
-202.7200317382813
 20
188.7027130126953
 30
0.0
 11
-198.7200317382813
 21
192.7027130126953
 31
0.0
  0
LINE
  5
115
330
22
100
AcDbEntity
  8
0
  6
Continuous
 62
     7
100
AcDbLine
 10
-201.3058166503906
 20
188.7027130126953
 30
0.0
 11
-197.3058166503906
 21
192.7027130126953
 31
0.0
  0
LINE
  5
116
330
22
100
AcDbEntity
  8
0
  6
Continuous
 62
     7
100
AcDbLine
 10
-199.8916015625
 20
188.7027130126953
 30
0.0
 11
-195.8916015625
 21
192.7027130126953
 31
0.0
  0
LINE
  5
117
330
22
100
AcDbEntity
  8
0
  6
Continuous
 62
     7
100
AcDbLine
 10
-198.4773864746094
 20
188.7027130126953
 30
0.0
 11
-194.4773864746094
 21
192.7027130126953
 31
0.0
  0
LINE
  5
118
330
22
100
AcDbEntity
  8
0
  6
Continuous
 62
     7
100
AcDbLine
 10
-197.0631866455078
 20
188.7027130126953
 30
0.0
 11
-193.0631866455078
 21
192.7027130126953
 31
0.0
  0
LINE
  5
119
330
22
100
AcDbEntity
  8
0
  6
Continuous
 62
     7
100
AcDbLine
 10
-195.6489715576172
 20
188.7027130126953
 30
0.0
 11
-191.6489715576172
 21
192.7027130126953
 31
0.0
  0
LINE
  5
11A
330
22
100
AcDbEntity
  8
0
  6
Continuous
 62
     7
100
AcDbLine
 10
-194.2347564697266
 20
188.7027130126953
 30
0.0
 11
-190.2347564697265
 21
192.7027130126953
 31
0.0
  0
LINE
  5
11B
330
22
100
AcDbEntity
  8
0
  6
Continuous
 62
     7
100
AcDbLine
 10
-192.8205413818359
 20
188.7027130126953
 30
0.0
 11
-188.8205413818359
 21
192.7027130126953
 31
0.0
  0
LINE
  5
11C
330
22
100
AcDbEntity
  8
0
  6
Continuous
 62
     7
100
AcDbLine
 10
-191.4063262939453
 20
188.7027130126953
 30
0.0
 11
-187.4063262939453
 21
192.7027130126953
 31
0.0
  0
LINE
  5
11D
330
22
100
AcDbEntity
  8
0
  6
Continuous
 62
     7
100
AcDbLine
 10
-189.9921112060546
 20
188.7027130126953
 30
0.0
 11
-185.9921112060547
 21
192.7027130126953
 31
0.0
  0
LINE
  5
11E
330
22
100
AcDbEntity
  8
0
  6
Continuous
 62
     7
100
AcDbLine
 10
-188.5778961181641
 20
188.7027130126953
 30
0.0
 11
-184.5778961181641
 21
192.7027130126953
 31
0.0
  0
LINE
  5
11F
330
22
100
AcDbEntity
  8
0
  6
Continuous
 62
     7
100
AcDbLine
 10
-187.1636810302734
 20
188.7027130126953
 30
0.0
 11
-183.1636810302734
 21
192.7027130126953
 31
0.0
  0
LINE
  5
120
330
22
100
AcDbEntity
  8
0
  6
Continuous
 62
     7
100
AcDbLine
 10
-185.7494659423828
 20
188.7027130126953
 30
0.0
 11
-181.7494659423828
 21
192.7027130126953
 31
0.0
  0
LINE
  5
121
330
22
100
AcDbEntity
  8
0
  6
Continuous
 62
     7
100
AcDbLine
 10
-184.3352508544922
 20
188.7027130126953
 30
0.0
 11
-180.3352508544922
 21
192.7027130126953
 31
0.0
  0
LINE
  5
122
330
22
100
AcDbEntity
  8
0
  6
Continuous
 62
     7
100
AcDbLine
 10
-182.9210510253906
 20
188.7027130126953
 30
0.0
 11
-178.9210510253906
 21
192.7027130126953
 31
0.0
  0
LINE
  5
123
330
22
100
AcDbEntity
  8
0
  6
Continuous
 62
     7
100
AcDbLine
 10
-181.5068359375
 20
188.7027130126953
 30
0.0
 11
-177.5068359375
 21
192.7027130126953
 31
0.0
  0
LINE
  5
124
330
22
100
AcDbEntity
  8
0
  6
Continuous
 62
     7
100
AcDbLine
 10
-180.0926208496094
 20
188.7027130126953
 30
0.0
 11
-176.0926208496094
 21
192.7027130126953
 31
0.0
  0
LINE
  5
125
330
22
100
AcDbEntity
  8
0
  6
Continuous
 62
     7
100
AcDbLine
 10
-178.6784057617188
 20
188.7027130126953
 30
0.0
 11
-174.6784057617188
 21
192.7027130126953
 31
0.0
  0
LINE
  5
126
330
22
100
AcDbEntity
  8
0
  6
Continuous
 62
     7
100
AcDbLine
 10
-177.2641906738281
 20
188.7027130126953
 30
0.0
 11
-173.2641906738281
 21
192.7027130126953
 31
0.0
  0
LINE
  5
127
330
22
100
AcDbEntity
  8
0
  6
Continuous
 62
     7
100
AcDbLine
 10
-175.8499755859375
 20
188.7027130126953
 30
0.0
 11
-171.8499755859375
 21
192.7027130126953
 31
0.0
  0
LINE
  5
128
330
22
100
AcDbEntity
  8
0
  6
Continuous
 62
     7
100
AcDbLine
 10
-174.4357604980469
 20
188.7027130126953
 30
0.0
 11
-170.4357604980469
 21
192.7027130126953
 31
0.0
  0
LINE
  5
129
330
22
100
AcDbEntity
  8
0
  6
Continuous
 62
     7
100
AcDbLine
 10
-173.0215454101563
 20
188.7027130126953
 30
0.0
 11
-169.0215454101563
 21
192.7027130126953
 31
0.0
  0
LINE
  5
12A
330
22
100
AcDbEntity
  8
0
  6
Continuous
 62
     7
100
AcDbLine
 10
-171.6073303222656
 20
188.7027130126953
 30
0.0
 11
-167.6073303222656
 21
192.7027130126953
 31
0.0
  0
LINE
  5
12B
330
22
100
AcDbEntity
  8
0
  6
Continuous
 62
     7
100
AcDbLine
 10
-170.193115234375
 20
188.7027130126953
 30
0.0
 11
-166.193115234375
 21
192.7027130126953
 31
0.0
  0
LINE
  5
12C
330
22
100
AcDbEntity
  8
0
  6
Continuous
 62
     7
100
AcDbLine
 10
-168.7789154052734
 20
188.7027130126953
 30
0.0
 11
-164.7789154052734
 21
192.7027130126953
 31
0.0
  0
LINE
  5
12D
330
22
100
AcDbEntity
  8
0
  6
Continuous
 62
     7
100
AcDbLine
 10
-167.3647003173828
 20
188.7027130126953
 30
0.0
 11
-163.3647003173828
 21
192.7027130126953
 31
0.0
  0
LINE
  5
12E
330
22
100
AcDbEntity
  8
0
  6
Continuous
 62
     7
100
AcDbLine
 10
-165.9504852294922
 20
188.7027130126953
 30
0.0
 11
-161.9504852294921
 21
192.7027130126953
 31
0.0
  0
LINE
  5
12F
330
22
100
AcDbEntity
  8
0
  6
Continuous
 62
     7
100
AcDbLine
 10
-164.5362701416016
 20
188.7027130126953
 30
0.0
 11
-160.5362701416016
 21
192.7027130126953
 31
0.0
  0
LINE
  5
130
330
22
100
AcDbEntity
  8
0
  6
Continuous
 62
     7
100
AcDbLine
 10
-163.1220550537109
 20
188.7027130126953
 30
0.0
 11
-159.1220550537109
 21
192.7027130126953
 31
0.0
  0
LINE
  5
131
330
22
100
AcDbEntity
  8
0
  6
Continuous
 62
     7
100
AcDbLine
 10
-161.7078399658203
 20
188.7027130126953
 30
0.0
 11
-157.7078399658203
 21
192.7027130126953
 31
0.0
  0
LINE
  5
132
330
22
100
AcDbEntity
  8
0
  6
Continuous
 62
     7
100
AcDbLine
 10
-160.2936248779297
 20
188.7027130126953
 30
0.0
 11
-156.2936248779297
 21
192.7027130126953
 31
0.0
  0
LINE
  5
133
330
22
100
AcDbEntity
  8
0
  6
Continuous
 62
     7
100
AcDbLine
 10
-158.8794097900391
 20
188.7027130126953
 30
0.0
 11
-154.8794097900391
 21
192.7027130126953
 31
0.0
  0
LINE
  5
134
330
22
100
AcDbEntity
  8
0
  6
Continuous
 62
     7
100
AcDbLine
 10
-157.4651947021484
 20
188.7027130126953
 30
0.0
 11
-153.4651947021484
 21
192.7027130126953
 31
0.0
  0
LINE
  5
135
330
22
100
AcDbEntity
  8
0
  6
Continuous
 62
     7
100
AcDbLine
 10
-156.0509796142578
 20
188.7027130126953
 30
0.0
 11
-152.0509796142578
 21
192.7027130126953
 31
0.0
  0
LINE
  5
136
330
22
100
AcDbEntity
  8
0
  6
Continuous
 62
     7
100
AcDbLine
 10
-154.6367797851563
 20
188.7027130126953
 30
0.0
 11
-150.6367797851563
 21
192.7027130126953
 31
0.0
  0
LINE
  5
137
330
22
100
AcDbEntity
  8
0
  6
Continuous
 62
     7
100
AcDbLine
 10
-153.2225646972656
 20
188.7027130126953
 30
0.0
 11
-149.2225646972656
 21
192.7027130126953
 31
0.0
  0
LINE
  5
138
330
22
100
AcDbEntity
  8
0
  6
Continuous
 62
     7
100
AcDbLine
 10
-151.808349609375
 20
188.7027130126953
 30
0.0
 11
-147.808349609375
 21
192.7027130126953
 31
0.0
  0
LINE
  5
139
330
22
100
AcDbEntity
  8
0
  6
Continuous
 62
     7
100
AcDbLine
 10
-150.0956420898438
 20
189.0012054443359
 30
0.0
 11
-146.3941345214844
 21
192.7027130126953
 31
0.0
  0
LINE
  5
13A
330
22
100
AcDbEntity
  8
0
  6
Continuous
 62
     7
100
AcDbLine
 10
-148.6358032226563
 20
189.0468292236328
 30
0.0
 11
-144.9799194335938
 21
192.7027130126953
 31
0.0
  0
LINE
  5
13B
330
22
100
AcDbEntity
  8
0
  6
Continuous
 62
     7
100
AcDbLine
 10
-147.1759643554688
 20
189.0924530029297
 30
0.0
 11
-143.5657043457031
 21
192.7027130126953
 31
0.0
  0
LINE
  5
13C
330
22
100
AcDbEntity
  8
0
  6
Continuous
 62
     7
100
AcDbLine
 10
-145.7161254882813
 20
189.1380767822266
 30
0.0
 11
-142.1514892578125
 21
192.7027130126953
 31
0.0
  0
LINE
  5
13D
330
22
100
AcDbEntity
  8
0
  6
Continuous
 62
     7
100
AcDbLine
 10
-144.2562866210938
 20
189.1837005615234
 30
0.0
 11
-140.7372741699219
 21
192.7027130126953
 31
0.0
  0
LINE
  5
13E
330
22
100
AcDbEntity
  8
0
  6
Continuous
 62
     7
100
AcDbLine
 10
-142.7964630126953
 20
189.2293243408203
 30
0.0
 11
-139.3230590820313
 21
192.7027130126953
 31
0.0
  0
LINE
  5
13F
330
22
100
AcDbEntity
  8
0
  6
Continuous
 62
     7
100
AcDbLine
 10
-141.3366241455078
 20
189.2749481201171
 30
0.0
 11
-137.9088439941406
 21
192.7027130126953
 31
0.0
  0
LINE
  5
140
330
22
100
AcDbEntity
  8
0
  6
Continuous
 62
     7
100
AcDbLine
 10
-139.8767852783203
 20
189.3205718994141
 30
0.0
 11
-136.4946441650391
 21
192.7027130126953
 31
0.0
  0
LINE
  5
141
330
22
100
AcDbEntity
  8
0
  6
Continuous
 62
     7
100
AcDbLine
 10
-138.4169464111328
 20
189.3661804199219
 30
0.0
 11
-135.0804290771484
 21
192.7027130126953
 31
0.0
  0
LINE
  5
142
330
22
100
AcDbEntity
  8
0
  6
Continuous
 62
     7
100
AcDbLine
 10
-136.9571075439453
 20
189.4118041992188
 30
0.0
 11
-134.0483093261719
 21
192.3206176757813
 31
0.0
  0
LINE
  5
143
330
22
100
AcDbEntity
  8
0
  6
Continuous
 62
     7
100
AcDbLine
 10
-135.4972839355469
 20
189.4574279785156
 30
0.0
 11
-134.0483093261719
 21
190.9064025878906
 31
0.0
  0
LINE
  5
144
330
22
100
AcDbEntity
  8
0
  6
Continuous
 62
     7
100
AcDbLine
 10
-318.8895263671875
 20
140.5246276855469
 30
0.0
 11
-319.1395874023438
 21
140.8579406738281
 31
0.0
  0
LINE
  5
145
330
22
100
AcDbEntity
  8
0
  6
Continuous
 62
     7
100
AcDbLine
 10
-318.8895263671875
 20
140.5246276855469
 30
0.0
 11
-318.6394348144531
 21
140.1913299560547
 31
0.0
  0
LINE
  5
146
330
22
100
AcDbEntity
  8
0
  6
Continuous
 62
     7
100
AcDbLine
 10
-365.0483093261719
 20
172.2087097167969
 30
0.0
 11
-365.0483093261719
 21
147.1967163085938
 31
0.0
  0
LINE
  5
147
330
22
100
AcDbEntity
  8
0
  6
Continuous
 62
     7
100
AcDbLine
 10
-374.7369079589844
 20
146.6372833251953
 30
0.0
 11
-374.3232116699219
 21
146.6872100830078
 31
0.0
  0
LINE
  5
148
330
22
100
AcDbEntity
  8
0
  6
Continuous
 62
     7
100
AcDbLine
 10
-312.5012817382813
 20
144.7969207763672
 30
0.0
 11
-314.6607360839844
 21
142.6620025634766
 31
0.0
  0
LINE
  5
149
330
22
100
AcDbEntity
  8
0
  6
Continuous
 62
     7
100
AcDbLine
 10
-313.00146484375
 20
145.4635314941406
 30
0.0
 11
-315.655029296875
 21
143.9871368408203
 31
0.0
  0
LINE
  5
14A
330
22
100
AcDbEntity
  8
0
  6
Continuous
 62
     7
100
AcDbLine
 10
-318.6394348144531
 20
140.1913299560547
 30
0.0
 11
-315.9858703613281
 21
141.667724609375
 31
0.0
  0
LINE
  5
14B
330
22
100
AcDbEntity
  8
0
  6
Continuous
 62
     7
100
AcDbLine
 10
-319.1395874023438
 20
140.8579406738281
 30
0.0
 11
-316.9801635742188
 21
142.9928588867188
 31
0.0
  0
LINE
  5
14C
330
22
100
AcDbEntity
  8
0
  6
Continuous
 62
     7
100
AcDbLine
 10
-346.1629638671875
 20
189.7812652587891
 30
0.0
 11
-344.6117248535156
 21
192.3656616210938
 31
0.0
  0
LINE
  5
14D
330
22
100
AcDbEntity
  8
0
  6
Continuous
 62
     7
100
AcDbLine
 10
-341.5195007324219
 20
191.9462280273438
 30
0.0
 11
-341.68310546875
 21
191.56298828125
 31
0.0
  0
LINE
  5
14E
330
22
100
AcDbEntity
  8
0
  6
Continuous
 62
     7
100
AcDbLine
 10
-341.3558959960938
 20
192.3294677734375
 30
0.0
 11
-343.9612731933594
 21
193.8892974853516
 31
0.0
  0
LINE
  5
14F
330
22
100
AcDbEntity
  8
0
  6
Continuous
 62
     7
100
AcDbLine
 10
-341.5195007324219
 20
191.9462280273438
 30
0.0
 11
-341.3558959960938
 21
192.3294677734375
 31
0.0
  0
LINE
  5
150
330
22
100
AcDbEntity
  8
0
  6
Continuous
 62
     7
100
AcDbLine
 10
-346.1629638671875
 20
189.7812652587891
 30
0.0
 11
-346.5458984375
 21
189.9447479248047
 31
0.0
  0
LINE
  5
151
330
22
100
AcDbEntity
  8
0
  6
Continuous
 62
     7
100
AcDbLine
 10
-348.74072265625
 20
194.5759735107422
 30
0.0
 11
-346.1353454589844
 21
193.0161285400391
 31
0.0
  0
LINE
  5
152
330
22
100
AcDbEntity
  8
0
  6
Continuous
 62
     7
100
AcDbLine
 10
-346.9288635253906
 20
190.1082305908203
 30
0.0
 11
-346.5458984375
 21
189.9447479248047
 31
0.0
  0
LINE
  5
153
330
22
100
AcDbEntity
  8
0
  6
Continuous
 62
     7
100
AcDbLine
 10
-341.68310546875
 20
191.56298828125
 30
0.0
 11
-344.6117248535156
 21
192.3656616210938
 31
0.0
  0
LINE
  5
154
330
22
100
AcDbEntity
  8
0
  6
Continuous
 62
     7
100
AcDbLine
 10
-346.9288635253906
 20
190.1082305908203
 30
0.0
 11
-346.1353454589844
 21
193.0161285400391
 31
0.0
  0
LINE
  5
155
330
22
100
AcDbEntity
  8
0
  6
Continuous
 62
     7
100
AcDbLine
 10
-313.1982116699219
 20
140.0263977050781
 30
0.0
 11
-314.6607360839844
 21
142.6620025634766
 31
0.0
  0
LINE
  5
156
330
22
100
AcDbEntity
  8
0
  6
Continuous
 62
     7
100
AcDbLine
 10
-313.8643188476563
 20
139.5265960693359
 30
0.0
 11
-315.9858703613281
 21
141.667724609375
 31
0.0
  0
LINE
  5
157
330
22
100
AcDbEntity
  8
0
  6
Continuous
 62
     7
100
AcDbLine
 10
-374.7369079589844
 20
146.6372833251953
 30
0.0
 11
-375.1506042480469
 21
146.5873565673828
 31
0.0
  0
LINE
  5
158
330
22
100
AcDbEntity
  8
0
  6
Continuous
 62
     7
100
AcDbLine
 10
-318.4426879882813
 20
145.6284637451172
 30
0.0
 11
-318.1096496582031
 21
145.8783721923828
 31
0.0
  0
LINE
  5
159
330
22
100
AcDbEntity
  8
0
  6
Continuous
 62
     7
100
AcDbLine
 10
-317.7765808105469
 20
146.1282653808594
 30
0.0
 11
-315.655029296875
 21
143.9871368408203
 31
0.0
  0
LINE
  5
15A
330
22
100
AcDbEntity
  8
0
  6
CENTER
 62
     7
100
AcDbLine
 10
-400.7011108398438
 20
159.7027130126953
 30
0.0
 11
-287.5668029785156
 21
159.7027130126953
 31
0.0
  0
LINE
  5
15B
330
22
100
AcDbEntity
  8
0
  6
Continuous
 62
     7
100
AcDbLine
 10
-318.4426879882813
 20
145.6284637451172
 30
0.0
 11
-316.9801635742188
 21
142.9928588867188
 31
0.0
  0
LINE
  5
15C
330
22
100
AcDbEntity
  8
0
  6
Continuous
 62
     7
100
AcDbLine
 10
-317.7765808105469
 20
146.1282653808594
 30
0.0
 11
-318.1096496582031
 21
145.8783721923828
 31
0.0
  0
LINE
  5
15D
330
22
100
AcDbEntity
  8
0
  6
Continuous
 62
     7
100
AcDbLine
 10
-329.0483093261719
 20
140.9527130126953
 30
0.0
 11
-329.0483093261719
 21
145.9527130126953
 31
0.0
  0
LINE
  5
15E
330
22
100
AcDbEntity
  8
0
  6
Continuous
 62
     7
100
AcDbLine
 10
-329.0483093261719
 20
165.4527130126953
 30
0.0
 11
-329.0483093261719
 21
153.9527130126953
 31
0.0
  0
LINE
  5
15F
330
22
100
AcDbEntity
  8
0
  6
Continuous
 62
     7
100
AcDbLine
 10
-334.0483093261719
 20
140.9527130126953
 30
0.0
 11
-334.0483093261719
 21
145.9527130126953
 31
0.0
  0
LINE
  5
160
330
22
100
AcDbEntity
  8
0
  6
Continuous
 62
     7
100
AcDbLine
 10
-334.0483093261719
 20
165.4527130126953
 30
0.0
 11
-334.0483093261719
 21
153.9527130126953
 31
0.0
  0
LINE
  5
161
330
22
100
AcDbEntity
  8
0
  6
Continuous
 62
     7
100
AcDbLine
 10
-325.0483093261719
 20
172.2087097167969
 30
0.0
 11
-325.0483093261719
 21
147.1967163085938
 31
0.0
  0
LINE
  5
162
330
22
100
AcDbEntity
  8
0
  6
Continuous
 62
     7
100
AcDbLine
 10
-313.8643188476563
 20
139.5265960693359
 30
0.0
 11
-313.53125
 21
139.7764892578125
 31
0.0
  0
LINE
  5
163
330
22
100
AcDbEntity
  8
0
  6
Continuous
 62
     7
100
AcDbLine
 10
-313.1982116699219
 20
140.0263977050781
 30
0.0
 11
-313.53125
 21
139.7764892578125
 31
0.0
  0
LINE
  5
164
330
22
100
AcDbEntity
  8
0
  6
Continuous
 62
     7
100
AcDbLine
 10
-312.7513732910156
 20
145.1302185058594
 30
0.0
 11
-313.00146484375
 21
145.4635314941406
 31
0.0
  0
LINE
  5
165
330
22
100
AcDbEntity
  8
0
  6
Continuous
 62
     7
100
AcDbLine
 10
-312.7513732910156
 20
145.1302185058594
 30
0.0
 11
-312.5012817382813
 21
144.7969207763672
 31
0.0
  0
LINE
  5
166
330
22
100
AcDbEntity
  8
0
  6
Continuous
 62
     7
100
AcDbLine
 10
-329.0483093261719
 20
178.4527130126953
 30
0.0
 11
-329.0483093261719
 21
173.4527130126953
 31
0.0
  0
LINE
  5
167
330
22
100
AcDbEntity
  8
0
  6
Continuous
 62
     7
100
AcDbLine
 10
-356.0483093261719
 20
140.9527130126953
 30
0.0
 11
-356.0483093261719
 21
145.9527130126953
 31
0.0
  0
LINE
  5
168
330
22
100
AcDbEntity
  8
0
  6
Continuous
 62
     7
100
AcDbLine
 10
-338.0483093261719
 20
136.7027130126952
 30
0.0
 11
-338.0483093261719
 21
153.9027099609375
 31
0.0
  0
LINE
  5
169
330
22
100
AcDbEntity
  8
0
  6
Continuous
 62
     7
100
AcDbLine
 10
-361.0483093261719
 20
165.4527130126953
 30
0.0
 11
-361.0483093261719
 21
153.9527130126953
 31
0.0
  0
LINE
  5
16A
330
22
100
AcDbEntity
  8
0
  6
Continuous
 62
     7
100
AcDbLine
 10
-361.0483093261719
 20
140.9527130126953
 30
0.0
 11
-361.0483093261719
 21
145.9527130126953
 31
0.0
  0
LINE
  5
16B
330
22
100
AcDbEntity
  8
0
  6
Continuous
 62
     7
100
AcDbLine
 10
-352.0483093261719
 20
136.7027130126952
 30
0.0
 11
-352.0483093261719
 21
153.9027099609375
 31
0.0
  0
LINE
  5
16C
330
22
100
AcDbEntity
  8
0
  6
Continuous
 62
     7
100
AcDbLine
 10
-347.0483093261719
 20
136.7027130126952
 30
0.0
 11
-347.0483093261719
 21
153.9027099609375
 31
0.0
  0
LINE
  5
16D
330
22
100
AcDbEntity
  8
0
  6
Continuous
 62
     7
100
AcDbLine
 10
-374.2311096191406
 20
138.9687805175781
 30
0.0
 11
-375.0002746582031
 21
141.9063873291016
 31
0.0
  0
LINE
  5
16E
330
22
100
AcDbEntity
  8
0
  6
Continuous
 62
     7
100
AcDbLine
 10
-373.8174133300781
 20
139.0187072753906
 30
0.0
 11
-374.2311096191406
 21
138.9687805175781
 31
0.0
  0
LINE
  5
16F
330
22
100
AcDbEntity
  8
0
  6
Continuous
 62
     7
100
AcDbLine
 10
-370.4404907226563
 20
142.8716430664063
 30
0.0
 11
-373.3555297851563
 21
142.1048889160156
 31
0.0
  0
LINE
  5
170
330
22
100
AcDbEntity
  8
0
  6
Continuous
 62
     7
100
AcDbLine
 10
-378.0140686035156
 20
141.9575805664063
 30
0.0
 11
-375.0002746582031
 21
141.9063873291016
 31
0.0
  0
LINE
  5
171
330
22
100
AcDbEntity
  8
0
  6
Continuous
 62
     7
100
AcDbLine
 10
-343.0483093261719
 20
136.7027130126952
 30
0.0
 11
-343.0483093261719
 21
153.9027099609375
 31
0.0
  0
LINE
  5
172
330
22
100
AcDbEntity
  8
0
  6
Continuous
 62
     7
100
AcDbLine
 10
-334.0483093261719
 20
178.4527130126953
 30
0.0
 11
-334.0483093261719
 21
173.4527130126953
 31
0.0
  0
LINE
  5
173
330
22
100
AcDbEntity
  8
0
  6
Continuous
 62
     7
100
AcDbLine
 10
-343.0483093261719
 20
182.7027130126953
 30
0.0
 11
-343.0483093261719
 21
165.5027160644531
 31
0.0
  0
LINE
  5
174
330
22
100
AcDbEntity
  8
0
  6
Continuous
 62
     7
100
AcDbLine
 10
-356.0483093261719
 20
178.4527130126953
 30
0.0
 11
-356.0483093261719
 21
173.4527130126953
 31
0.0
  0
LINE
  5
175
330
22
100
AcDbEntity
  8
0
  6
Continuous
 62
     7
100
AcDbLine
 10
-347.0483093261719
 20
182.7027130126953
 30
0.0
 11
-347.0483093261719
 21
165.5027160644531
 31
0.0
  0
LINE
  5
176
330
22
100
AcDbEntity
  8
0
  6
Continuous
 62
     7
100
AcDbLine
 10
-361.0483093261719
 20
178.4527130126953
 30
0.0
 11
-361.0483093261719
 21
173.4527130126953
 31
0.0
  0
LINE
  5
177
330
22
100
AcDbEntity
  8
0
  6
Continuous
 62
     7
100
AcDbLine
 10
-338.0483093261719
 20
182.7027130126953
 30
0.0
 11
-338.0483093261719
 21
165.5027160644531
 31
0.0
  0
LINE
  5
178
330
22
100
AcDbEntity
  8
0
  6
Continuous
 62
     7
100
AcDbLine
 10
-352.0483093261719
 20
182.7027130126953
 30
0.0
 11
-352.0483093261719
 21
165.5027160644531
 31
0.0
  0
LINE
  5
179
330
22
100
AcDbEntity
  8
0
  6
Continuous
 62
     7
100
AcDbLine
 10
-370.4404907226563
 20
142.8716430664063
 30
0.0
 11
-370.4903869628906
 21
143.2850341796875
 31
0.0
  0
LINE
  5
17A
330
22
100
AcDbEntity
  8
0
  6
Continuous
 62
     7
100
AcDbLine
 10
-370.540283203125
 20
143.6984100341797
 30
0.0
 11
-370.4903869628906
 21
143.2850341796875
 31
0.0
  0
LINE
  5
17B
330
22
100
AcDbEntity
  8
0
  6
Continuous
 62
     7
100
AcDbLine
 10
-378.1138305664063
 20
142.7843475341797
 30
0.0
 11
-375.1987915039063
 21
143.5511169433594
 31
0.0
  0
LINE
  5
17C
330
22
100
AcDbEntity
  8
0
  6
Continuous
 62
     7
100
AcDbLine
 10
-370.540283203125
 20
143.6984100341797
 30
0.0
 11
-373.5540466308594
 21
143.7496185302734
 31
0.0
  0
LINE
  5
17D
330
22
100
AcDbEntity
  8
0
  6
Continuous
 62
     7
100
AcDbLine
 10
-378.0140686035156
 20
141.9575805664063
 30
0.0
 11
-378.06396484375
 21
142.3709716796875
 31
0.0
  0
LINE
  5
17E
330
22
100
AcDbEntity
  8
0
  6
Continuous
 62
     7
100
AcDbLine
 10
-375.1506042480469
 20
146.5873565673828
 30
0.0
 11
-375.1987915039063
 21
143.5511169433594
 31
0.0
  0
LINE
  5
17F
330
22
100
AcDbEntity
  8
0
  6
Continuous
 62
     7
100
AcDbLine
 10
-373.8174133300781
 20
139.0187072753906
 30
0.0
 11
-373.4037170410156
 21
139.0686492919922
 31
0.0
  0
LINE
  5
180
330
22
100
AcDbEntity
  8
0
  6
Continuous
 62
     7
100
AcDbLine
 10
-378.1138305664063
 20
142.7843475341797
 30
0.0
 11
-378.06396484375
 21
142.3709716796875
 31
0.0
  0
LINE
  5
181
330
22
100
AcDbEntity
  8
0
  6
Continuous
 62
     7
100
AcDbLine
 10
-373.4037170410156
 20
139.0686492919922
 30
0.0
 11
-373.3555297851563
 21
142.1048889160156
 31
0.0
  0
LINE
  5
182
330
22
100
AcDbEntity
  8
0
  6
Continuous
 62
     7
100
AcDbLine
 10
-374.3232116699219
 20
146.6872100830078
 30
0.0
 11
-373.5540466308594
 21
143.7496185302734
 31
0.0
  0
LINE
  5
183
330
22
100
AcDbEntity
  8
0
  6
Continuous
 62
     7
100
AcDbLine
 10
-356.0483093261719
 20
165.4527130126953
 30
0.0
 11
-356.0483093261719
 21
153.9527130126953
 31
0.0
  0
LINE
  5
184
330
22
100
AcDbEntity
  8
0
  6
CENTER
 62
     7
100
AcDbLine
 10
-345.0483093261719
 20
217.0573577880859
 30
0.0
 11
-345.0483093261719
 21
101.71435546875
 31
0.0
  0
LINE
  5
185
330
22
100
AcDbEntity
  8
0
  6
Continuous
 62
     7
100
AcDbLine
 10
-343.9336547851563
 20
197.1241607666016
 30
0.0
 11
-343.5507202148438
 21
196.9606781005859
 31
0.0
  0
LINE
  5
186
330
22
100
AcDbEntity
  8
0
  6
Continuous
 62
     7
100
AcDbLine
 10
-348.5771179199219
 20
194.9591979980469
 30
0.0
 11
-348.74072265625
 21
194.5759735107422
 31
0.0
  0
LINE
  5
187
330
22
100
AcDbEntity
  8
0
  6
Continuous
 62
     7
100
AcDbLine
 10
-348.5771179199219
 20
194.9591979980469
 30
0.0
 11
-348.4135131835938
 21
195.3424377441406
 31
0.0
  0
LINE
  5
188
330
22
100
AcDbEntity
  8
0
  6
Continuous
 62
     7
100
AcDbLine
 10
-348.4135131835938
 20
195.3424377441406
 30
0.0
 11
-345.4848937988281
 21
194.5397644042969
 31
0.0
  0
LINE
  5
189
330
22
100
AcDbEntity
  8
0
  6
Continuous
 62
     7
100
AcDbLine
 10
-343.9336547851563
 20
197.1241607666016
 30
0.0
 11
-345.4848937988281
 21
194.5397644042969
 31
0.0
  0
LINE
  5
18A
330
22
100
AcDbEntity
  8
0
  6
Continuous
 62
     7
100
AcDbLine
 10
-343.1677551269531
 20
196.7971954345703
 30
0.0
 11
-343.5507202148438
 21
196.9606781005859
 31
0.0
  0
LINE
  5
18B
330
22
100
AcDbEntity
  8
0
  6
Continuous
 62
     7
100
AcDbLine
 10
-343.1677551269531
 20
196.7971954345703
 30
0.0
 11
-343.9612731933594
 21
193.8892974853516
 31
0.0
  0
LINE
  5
18C
330
22
100
AcDbEntity
  8
0
  6
Continuous
 62
     7
100
AcDbLine
 10
-158.0483093261719
 20
204.7027130126953
 30
0.0
 11
-158.0483093261719
 21
193.7027130126953
 31
0.0
  0
ARC
  5
18D
330
22
100
AcDbEntity
  8
0
  6
Continuous
 62
     7
100
AcDbCircle
 10
-172.0789642333984
 20
127.6575317382813
 30
0.0
 40
29.56036567687988
100
AcDbArc
 50
340.3516927351958
 51
2.569024540154928
  0
ARC
  5
18E
330
22
100
AcDbEntity
  8
0
  6
Continuous
 62
     7
100
AcDbCircle
 10
-219.5876617431641
 20
207.7027130126953
 30
0.0
 40
2.0
100
AcDbArc
 50
90.00000000000019
 51
150.2552271416998
  0
ARC
  5
18F
330
22
100
AcDbEntity
  8
0
  6
Continuous
 62
     7
100
AcDbCircle
 10
-219.5876617431641
 20
111.7027130126953
 30
0.0
 40
2.0
100
AcDbArc
 50
209.7447728583009
 51
270.0000000000005
  0
ARC
  5
190
330
22
100
AcDbEntity
  8
0
  6
Continuous
 62
     7
100
AcDbCircle
 10
-214.5483093261719
 20
188.2027130126953
 30
0.0
 40
0.5
100
AcDbArc
 50
90.00000000000019
 51
180.0000000000004
  0
ARC
  5
191
330
22
100
AcDbEntity
  8
0
  6
Continuous
 62
     7
100
AcDbCircle
 10
-172.0789642333984
 20
127.6575317382813
 30
0.0
 40
29.56036567687988
100
AcDbArc
 50
2.569024540154928
 51
19.64830726480487
  0
ARC
  5
192
330
22
100
AcDbEntity
  8
0
  6
Continuous
 62
     7
100
AcDbCircle
 10
-236.3073577880859
 20
157.6729583740234
 30
0.0
 40
93.78101348876951
100
AcDbArc
 50
349.0307518069761
 51
1.24018122325523
  0
ARC
  5
193
330
22
100
AcDbEntity
  8
0
  6
Continuous
 62
     7
100
AcDbCircle
 10
-215.5483093261719
 20
186.7027130126953
 30
0.0
 40
0.5
100
AcDbArc
 50
270.0000000000005
 51
0.0
  0
ARC
  5
194
330
22
100
AcDbEntity
  8
0
  6
Continuous
 62
     7
100
AcDbCircle
 10
-221.5483093261719
 20
186.7027130126953
 30
0.0
 40
0.5
100
AcDbArc
 50
180.0000000000004
 51
270.0000000000005
  0
ARC
  5
195
330
22
100
AcDbEntity
  8
0
  6
Continuous
 62
     7
100
AcDbCircle
 10
-172.0789642333984
 20
191.7478942871094
 30
0.0
 40
29.56036567687988
100
AcDbArc
 50
3.791721948951924
 51
19.64830726480487
  0
ARC
  5
196
330
22
100
AcDbEntity
  8
0
  6
Continuous
 62
     7
100
AcDbCircle
 10
-220.0483093261719
 20
201.5248870849609
 30
0.0
 40
5.0
100
AcDbArc
 50
150.2550970152432
 51
180.0000000000004
  0
ARC
  5
197
330
22
100
AcDbEntity
  8
0
  6
Continuous
 62
     7
100
AcDbCircle
 10
-220.0483093261719
 20
117.8805389404297
 30
0.0
 40
5.0
100
AcDbArc
 50
180.0000000000004
 51
209.7449029847575
  0
ARC
  5
198
330
22
100
AcDbEntity
  8
0
  6
Continuous
 62
     7
100
AcDbCircle
 10
-323.7483215332031
 20
147.1967163085938
 30
0.0
 40
1.299999952316284
100
AcDbArc
 50
180.0000000000004
 51
329.5812025014994
  0
ARC
  5
199
330
22
100
AcDbEntity
  8
0
  6
Continuous
 62
     7
100
AcDbCircle
 10
-358.5483093261719
 20
165.4527130126953
 30
0.0
 40
2.5
100
AcDbArc
 50
0.0
 51
180.0000000000004
  0
ARC
  5
19A
330
22
100
AcDbEntity
  8
0
  6
Continuous
 62
     7
100
AcDbCircle
 10
-331.5483093261719
 20
145.9527130126953
 30
0.0
 40
2.5
100
AcDbArc
 50
0.0
 51
180.0000000000004
  0
ARC
  5
19B
330
22
100
AcDbEntity
  8
0
  6
Continuous
 62
     7
100
AcDbCircle
 10
-349.5483093261719
 20
165.5027160644531
 30
0.0
 40
2.5
100
AcDbArc
 50
180.0000000000004
 51
0.0
  0
ARC
  5
19C
330
22
100
AcDbEntity
  8
0
  6
Continuous
 62
     7
100
AcDbCircle
 10
-358.5483093261719
 20
173.4527130126953
 30
0.0
 40
2.5
100
AcDbArc
 50
180.0000000000004
 51
0.0
  0
ARC
  5
19D
330
22
100
AcDbEntity
  8
0
  6
Continuous
 62
     7
100
AcDbCircle
 10
-358.5483093261719
 20
153.9527130126953
 30
0.0
 40
2.5
100
AcDbArc
 50
180.0000000000004
 51
0.0
  0
ARC
  5
19E
330
22
100
AcDbEntity
  8
0
  6
Continuous
 62
     7
100
AcDbCircle
 10
-340.5483093261719
 20
136.7027130126952
 30
0.0
 40
2.5
100
AcDbArc
 50
180.0000000000004
 51
0.0
  0
CIRCLE
  5
19F
330
22
100
AcDbEntity
  8
0
  6
Continuous
 62
     7
100
AcDbCircle
 10
-374.2771606445313
 20
142.8280029296875
 30
0.0
 40
4.5
  0
CIRCLE
  5
1A0
330
22
100
AcDbEntity
  8
0
  6
Continuous
 62
     7
100
AcDbCircle
 10
-315.8204345703125
 20
142.8274230957031
 30
0.0
 40
4.5
  0
ARC
  5
1A1
330
22
100
AcDbEntity
  8
0
  6
Continuous
 62
     7
100
AcDbCircle
 10
-331.5483093261719
 20
153.9527130126953
 30
0.0
 40
2.5
100
AcDbArc
 50
180.0000000000004
 51
0.0
  0
ARC
  5
1A2
330
22
100
AcDbEntity
  8
0
  6
Continuous
 62
     7
100
AcDbCircle
 10
-331.5483093261719
 20
173.4527130126953
 30
0.0
 40
2.5
100
AcDbArc
 50
180.0000000000004
 51
0.0
  0
ARC
  5
1A3
330
22
100
AcDbEntity
  8
0
  6
Continuous
 62
     7
100
AcDbCircle
 10
-331.5483093261719
 20
165.4527130126953
 30
0.0
 40
2.5
100
AcDbArc
 50
0.0
 51
180.0000000000004
  0
ARC
  5
1A4
330
22
100
AcDbEntity
  8
0
  6
Continuous
 62
     7
100
AcDbCircle
 10
-331.5483093261719
 20
140.9527130126953
 30
0.0
 40
2.5
100
AcDbArc
 50
180.0000000000004
 51
0.0
  0
ARC
  5
1A5
330
22
100
AcDbEntity
  8
0
  6
Continuous
 62
     7
100
AcDbCircle
 10
-323.7483215332031
 20
172.2087097167969
 30
0.0
 40
1.299999952316284
100
AcDbArc
 50
30.41879749850129
 51
180.0000000000004
  0
ARC
  5
1A6
330
22
100
AcDbEntity
  8
0
  6
Continuous
 62
     7
100
AcDbCircle
 10
-345.0483093261719
 20
159.7027130126953
 30
0.0
 40
26.0
100
AcDbArc
 50
329.5812541181265
 51
30.41874588187427
  0
ARC
  5
1A7
330
22
100
AcDbEntity
  8
0
  6
Continuous
 62
     7
100
AcDbCircle
 10
-345.0483093261719
 20
159.7027130126953
 30
0.0
 40
26.0
100
AcDbArc
 50
149.5812541181257
 51
210.418745881875
  0
ARC
  5
1A8
330
22
100
AcDbEntity
  8
0
  6
Continuous
 62
     7
100
AcDbCircle
 10
-366.3482971191406
 20
172.2087097167969
 30
0.0
 40
1.299999952316284
100
AcDbArc
 50
0.0
 51
149.5812025014986
  0
ARC
  5
1A9
330
22
100
AcDbEntity
  8
0
  6
Continuous
 62
     7
100
AcDbCircle
 10
-340.5483093261719
 20
182.7027130126953
 30
0.0
 40
2.5
100
AcDbArc
 50
0.0
 51
180.0000000000004
  0
ARC
  5
1AA
330
22
100
AcDbEntity
  8
0
  6
Continuous
 62
     7
100
AcDbCircle
 10
-349.5483093261719
 20
153.9027099609375
 30
0.0
 40
2.5
100
AcDbArc
 50
0.0
 51
180.0000000000004
  0
ARC
  5
1AB
330
22
100
AcDbEntity
  8
0
  6
Continuous
 62
     7
100
AcDbCircle
 10
-340.5483093261719
 20
165.5027160644531
 30
0.0
 40
2.5
100
AcDbArc
 50
180.0000000000004
 51
0.0
  0
ARC
  5
1AC
330
22
100
AcDbEntity
  8
0
  6
Continuous
 62
     7
100
AcDbCircle
 10
-358.5483093261719
 20
145.9527130126953
 30
0.0
 40
2.5
100
AcDbArc
 50
0.0
 51
180.0000000000004
  0
ARC
  5
1AD
330
22
100
AcDbEntity
  8
0
  6
Continuous
 62
     7
100
AcDbCircle
 10
-358.5483093261719
 20
140.9527130126953
 30
0.0
 40
2.5
100
AcDbArc
 50
180.0000000000004
 51
0.0
  0
ARC
  5
1AE
330
22
100
AcDbEntity
  8
0
  6
Continuous
 62
     7
100
AcDbCircle
 10
-340.5483093261719
 20
153.9027099609375
 30
0.0
 40
2.5
100
AcDbArc
 50
0.0
 51
180.0000000000004
  0
CIRCLE
  5
1AF
330
22
100
AcDbEntity
  8
0
  6
Continuous
 62
     7
100
AcDbCircle
 10
-345.0483093261719
 20
159.7027130126953
 30
0.0
 40
3.0
  0
ARC
  5
1B0
330
22
100
AcDbEntity
  8
0
  6
Continuous
 62
     7
100
AcDbCircle
 10
-349.5483093261719
 20
182.7027130126953
 30
0.0
 40
2.5
100
AcDbArc
 50
0.0
 51
180.0000000000004
  0
ARC
  5
1B1
330
22
100
AcDbEntity
  8
0
  6
Continuous
 62
     7
100
AcDbCircle
 10
-331.5483093261719
 20
178.4527130126953
 30
0.0
 40
2.5
100
AcDbArc
 50
0.0
 51
180.0000000000004
  0
ARC
  5
1B2
330
22
100
AcDbEntity
  8
0
  6
Continuous
 62
     7
100
AcDbCircle
 10
-358.5483093261719
 20
178.4527130126953
 30
0.0
 40
2.5
100
AcDbArc
 50
0.0
 51
180.0000000000004
  0
ARC
  5
1B3
330
22
100
AcDbEntity
  8
0
  6
Continuous
 62
     7
100
AcDbCircle
 10
-349.5483093261719
 20
136.7027130126952
 30
0.0
 40
2.5
100
AcDbArc
 50
180.0000000000004
 51
0.0
  0
ARC
  5
1B4
330
22
100
AcDbEntity
  8
0
  6
Continuous
 62
     7
100
AcDbCircle
 10
-366.3482971191406
 20
147.1967163085938
 30
0.0
 40
1.299999952316284
100
AcDbArc
 50
210.418797498502
 51
0.0
  0
CIRCLE
  5
1B5
330
22
100
AcDbEntity
  8
0
  6
Continuous
 62
     7
100
AcDbCircle
 10
-345.0483093261719
 20
159.7027130126953
 30
0.0
 40
41.5
  0
CIRCLE
  5
1B6
330
22
100
AcDbEntity
  8
0
  6
Continuous
 62
     7
100
AcDbCircle
 10
-345.0483093261719
 20
159.7027130126953
 30
0.0
 40
41.0
  0
CIRCLE
  5
1B7
330
22
100
AcDbEntity
  8
0
  6
Continuous
 62
     7
100
AcDbCircle
 10
-345.0483093261719
 20
193.4527130126953
 30
0.0
 40
4.5
  0
CIRCLE
  5
1B8
330
22
100
AcDbEntity
  8
0
  6
Continuous
 62
     7
100
AcDbCircle
 10
-345.0483093261719
 20
159.7027130126953
 30
0.0
 40
50.0
  0
TEXT
  5
1B9
330
22
100
AcDbEntity
  8
0
  6
Continuous
 62
     7
100
AcDbText
 10
-298.0341424942017
 20
58.52456283569336
 30
0.0
 40
7.0
  1
ＤＬ－ＵＬＳＬ－５０Ｚ
 41
0.8440126641457824
100
AcDbText
  0
SOLID
  5
1BA
330
22
100
AcDbEntity
  8
0
  6
Continuous
 62
     7
100
AcDbTrace
 10
-155.0483093261719
 20
114.7027130126953
 30
0.0
 11
-158.0483093261719
 21
114.7027130126953
 31
0.0
 12
-155.0483093261719
 22
159.7027130126953
 32
0.0
 13
-158.0483093261719
 23
159.7027130126953
 33
0.0
  0
SOLID
  5
1BB
330
22
100
AcDbEntity
  8
0
  6
Continuous
 62
     7
100
AcDbTrace
 10
-213.0483093261719
 20
109.7027130126953
 30
0.0
 11
-216.0483093261719
 21
109.7027130126953
 31
0.0
 12
-213.0483093261719
 22
159.7027130126953
 32
0.0
 13
-216.0483093261719
 23
159.7027130126953
 33
0.0
  0
SOLID
  5
1BC
330
22
100
AcDbEntity
  8
0
  6
Continuous
 62
     7
100
AcDbTrace
 10
-155.0483093261719
 20
193.7027130126953
 30
0.0
 11
-158.0483093261719
 21
193.7027130126953
 31
0.0
 12
-155.0483093261719
 22
204.7027130126953
 32
0.0
 13
-158.0483093261719
 23
204.7027130126953
 33
0.0
  0
SOLID
  5
1BD
330
22
100
AcDbEntity
  8
0
  6
Continuous
 62
     7
100
AcDbTrace
 10
-213.0483093261719
 20
194.2027130126953
 30
0.0
 11
-216.0483093261719
 21
194.2027130126953
 31
0.0
 12
-213.0483093261719
 22
209.7027130126953
 32
0.0
 13
-216.0483093261719
 23
209.7027130126953
 33
0.0
  0
INSERT
  5
1BE
330
22
100
AcDbEntity
  8
0
  6
Continuous
 62
     7
100
AcDbBlockReference
  2
KOZU0001
 10
-140.1097412109375
 20
187.8000793457031
 30
0.0
  0
DIMENSION
  5
1BF
330
22
100
AcDbEntity
  8
0
  6
Continuous
 62
     7
100
AcDbDimension
  2
*D1
 10
-384.5643704447057
 20
129.0680771624635
 30
0.0
 11
-298.357666015625
 21
195.8994140625
 31
0.0
 70
     3
 71
     5
 42
-1.0
  3
DIMSTYLE1
100
AcDbDiametricDimension
 15
-305.5322482076382
 25
190.337348862927
 35
0.0
 40
0.0
  0
DIMENSION
  5
1C0
330
22
100
AcDbEntity
  8
0
  6
Continuous
 62
     7
100
AcDbDimension
  2
*D2
 10
-225.0483093261719
 20
224.17626953125
 30
0.0
 11
-219.0483093261719
 21
224.17626953125
 31
0.0
 71
     5
 42
-1.0
  3
DIMSTYLE2
100
AcDbAlignedDimension
 13
-213.0483093261719
 23
222.1188201904297
 33
0.0
 14
-225.0483093261719
 24
233.2607727050781
 34
0.0
100
AcDbRotatedDimension
  0
DIMENSION
  5
1C1
330
22
100
AcDbEntity
  8
0
  6
Continuous
 62
     7
100
AcDbDimension
  2
*D3
 10
-134.0483093261719
 20
234.0092010498047
 30
0.0
 11
-179.5483093261719
 21
234.0092010498047
 31
0.0
 71
     5
 42
-1.0
  3
DIMSTYLE3
100
AcDbAlignedDimension
 13
-225.0483093261719
 23
201.5248870849609
 33
0.0
 14
-134.0483093261719
 24
192.7027130126953
 34
0.0
100
AcDbRotatedDimension
  0
DIMENSION
  5
1C2
330
22
100
AcDbEntity
  8
0
  6
Continuous
 62
     7
100
AcDbDimension
  2
*D4
 10
-158.0483093261719
 20
224.17626953125
 30
0.0
 11
-185.5483093261719
 21
224.17626953125
 31
0.0
 71
     5
 42
-1.0
  3
DIMSTYLE4
100
AcDbAlignedDimension
 13
-213.0483093261719
 23
209.7027130126953
 33
0.0
 14
-158.0483093261719
 24
204.7027130126953
 34
0.0
100
AcDbRotatedDimension
  0
ENDSEC
  0
SECTION
  2
OBJECTS
  0
DICTIONARY
  5
C
330
0
100
AcDbDictionary
281
     1
  3
ACAD_COLOR
350
1B
  3
ACAD_GROUP
350
D
  3
ACAD_LAYOUT
350
19
  3
ACAD_MATERIAL
350
1A
  3
ACAD_MLINESTYLE
350
16
  3
ACAD_PLOTSETTINGS
350
18
  3
ACAD_PLOTSTYLENAME
350
E
  3
ACAD_TABLESTYLE
350
1C
  3
AcDbVariableDictionary
350
1CE
  0
DICTIONARY
  5
1B
102
{ACAD_REACTORS
330
C
102
}
330
C
100
AcDbDictionary
281
     1
  0
DICTIONARY
  5
D
102
{ACAD_REACTORS
330
C
102
}
330
C
100
AcDbDictionary
281
     1
  0
DICTIONARY
  5
19
102
{ACAD_REACTORS
330
C
102
}
330
C
100
AcDbDictionary
281
     1
  3
Model
350
25
  3
レイアウト1
350
21
  0
DICTIONARY
  5
1A
102
{ACAD_REACTORS
330
C
102
}
330
C
100
AcDbDictionary
281
     1
  0
DICTIONARY
  5
16
102
{ACAD_REACTORS
330
C
102
}
330
C
100
AcDbDictionary
281
     1
  3
Standard
350
17
  0
DICTIONARY
  5
18
102
{ACAD_REACTORS
330
C
102
}
330
C
100
AcDbDictionary
281
     1
  0
ACDBDICTIONARYWDFLT
  5
E
102
{ACAD_REACTORS
330
C
102
}
330
C
100
AcDbDictionary
281
     1
  3
Normal
350
F
100
AcDbDictionaryWithDefault
340
F
  0
DICTIONARY
  5
1C
102
{ACAD_REACTORS
330
C
102
}
330
C
100
AcDbDictionary
281
     1
  3
Standard
350
1D
  0
DICTIONARY
  5
1CE
102
{ACAD_REACTORS
330
C
102
}
330
C
100
AcDbDictionary
281
     1
  3
CTABLESTYLE
350
1CF
  0
LAYOUT
  5
25
102
{ACAD_REACTORS
330
19
102
}
330
19
100
AcDbPlotSettings
  1

  2
PDF reDirect v2
  4
A3
  6

 40
3.174999952316284
 41
3.174999952316284
 42
3.17498779296875
 43
3.17498779296875
 44
297.0530090332031
 45
420.1583251953125
 46
0.0
 47
0.0
 48
0.0
 49
0.0
140
0.0
141
0.0
142
1.0
143
1.0
 70
 11952
 72
     1
 73
     1
 74
     2
  7
C:\Users\ck\AppData\Roaming\Autodesk\AutoCAD 2005\R16.1\jpn\Plot Styles\black.ctb
 75
    16
147
1.0
 76
     0
 77
     2
 78
   300
148
423.0
149
2.0
100
AcDbLayout
  1
Model
 70
     1
 71
     0
 10
0.0
 20
0.0
 11
12.0
 21
9.0
 12
0.0
 22
0.0
 32
0.0
 14
0.0
 24
0.0
 34
0.0
 15
0.0
 25
0.0
 35
0.0
146
0.0
 13
0.0
 23
0.0
 33
0.0
 16
1.0
 26
0.0
 36
0.0
 17
0.0
 27
1.0
 37
0.0
 76
     0
330
22
1001
ACAD_PSEXT
1000
PDF reDirect v2
1000
PDF reDirect Pro
1000
PDF_REDIRECT_PORT:
1000
PDF reDirect provided by EXP Systems
1070
     0
  0
LAYOUT
  5
21
102
{ACAD_REACTORS
330
19
102
}
330
19
100
AcDbPlotSettings
  1

  2
PDF reDirect v2
  4

  6

 40
0.0
 41
0.0
 42
0.0
 43
0.0
 44
0.0
 45
0.0
 46
0.0
 47
0.0
 48
0.0
 49
0.0
140
0.0
141
0.0
142
1.0
143
1.0
 70
   688
 72
     0
 73
     0
 74
     5
  7
C:\Users\ck\AppData\Roaming\Autodesk\AutoCAD 2005\R16.1\jpn\Plot Styles\black.ctb
 75
    16
147
1.0
 76
     0
 77
     2
 78
   300
148
0.0
149
0.0
100
AcDbLayout
  1
レイアウト1
 70
     1
 71
     1
 10
-423.0
 20
-2.0
 11
-5.0
 21
293.0
 12
0.0
 22
0.0
 32
0.0
 14
1.000000000000000E+20
 24
1.000000000000000E+20
 34
1.000000000000000E+20
 15
-1.000000000000000E+20
 25
-1.000000000000000E+20
 35
-1.000000000000000E+20
146
0.0
 13
0.0
 23
0.0
 33
0.0
 16
1.0
 26
0.0
 36
0.0
 17
0.0
 27
1.0
 37
0.0
 76
     0
330
1E
  0
MLINESTYLE
  5
17
102
{ACAD_REACTORS
330
16
102
}
330
16
100
AcDbMlineStyle
  2
STANDARD
 70
     0
  3

 62
   256
 51
90.0
 52
90.0
 71
     2
 49
0.5
 62
   256
  6
BYLAYER
 49
-0.5
 62
   256
  6
BYLAYER
  0
ACDBPLACEHOLDER
  5
F
102
{ACAD_REACTORS
330
E
102
}
330
E
  0
TABLESTYLE
  5
1D
102
{ACAD_REACTORS
330
1C
102
}
330
1C
100
AcDbTableStyle
  3
Standard
 70
     0
 71
     0
 40
0.06
 41
0.06
280
     0
281
     0
  7
STANDARD
140
0.18
170
     2
 62
     0
 63
     7
283
     0
274
    -2
284
     1
 64
     0
275
    -2
285
     1
 65
     0
276
    -2
286
     1
 66
     0
277
    -2
287
     1
 67
     0
278
    -2
288
     1
 68
     0
279
    -2
289
     1
 69
     0
  7
STANDARD
140
0.25
170
     5
 62
     0
 63
     7
283
     0
274
    -2
284
     1
 64
     0
275
    -2
285
     1
 65
     0
276
    -2
286
     1
 66
     0
277
    -2
287
     1
 67
     0
278
    -2
288
     1
 68
     0
279
    -2
289
     1
 69
     0
  7
STANDARD
140
0.18
170
     5
 62
     0
 63
     7
283
     0
274
    -2
284
     1
 64
     0
275
    -2
285
     1
 65
     0
276
    -2
286
     1
 66
     0
277
    -2
287
     1
 67
     0
278
    -2
288
     1
 68
     0
279
    -2
289
     1
 69
     0
  0
DICTIONARYVAR
  5
1CF
102
{ACAD_REACTORS
330
1CE
102
}
330
1CE
100
DictionaryVariables
280
     0
  1
STANDARD
  0
ENDSEC
  0
EOF
