  0
SECTION
  2
HEADER
  9
$ACADVER
  1
AC1018
  9
$ACADMAINTVER
 70
    39
  9
$DWGCODEPAGE
  3
ANSI_932
  9
$INSBASE
 10
0.0
 20
0.0
 30
0.0
  9
$EXTMIN
 10
-399.4454030520811
 20
78.56503373962482
 30
-0.0015258207003583
  9
$EXTMAX
 10
-28.77783108569884
 20
276.9617163664216
 30
0.0000000349246037
  9
$LIMMIN
 10
-423.0
 20
-2.0
  9
$LIMMAX
 10
-5.0
 20
293.0
  9
$ORTHOMODE
 70
     0
  9
$REGENMODE
 70
     1
  9
$FILLMODE
 70
     1
  9
$QTEXTMODE
 70
     0
  9
$MIRRTEXT
 70
     0
  9
$LTSCALE
 40
1.0
  9
$ATTMODE
 70
     1
  9
$TEXTSIZE
 40
0.2
  9
$TRACEWID
 40
0.05
  9
$TEXTSTYLE
  7
STANDARD
  9
$CLAYER
  8
0
  9
$CELTYPE
  6
CONTINUOUS
  9
$CECOLOR
 62
   256
  9
$CELTSCALE
 40
1.0
  9
$DISPSILH
 70
     0
  9
$DIMSCALE
 40
1.0
  9
$DIMASZ
 40
1.0
  9
$DIMEXO
 40
2.54
  9
$DIMDLI
 40
0.38
  9
$DIMRND
 40
0.0
  9
$DIMDLE
 40
0.0
  9
$DIMEXE
 40
2.54
  9
$DIMTP
 40
0.0
  9
$DIMTM
 40
0.0
  9
$DIMTXT
 40
3.0
  9
$DIMCEN
 40
0.09
  9
$DIMTSZ
 40
0.0
  9
$DIMTOL
 70
     0
  9
$DIMLIM
 70
     0
  9
$DIMTIH
 70
     0
  9
$DIMTOH
 70
     0
  9
$DIMSE1
 70
     0
  9
$DIMSE2
 70
     0
  9
$DIMTAD
 70
     1
  9
$DIMZIN
 70
     0
  9
$DIMBLK
  1

  9
$DIMASO
 70
     1
  9
$DIMSHO
 70
     0
  9
$DIMPOST
  1

  9
$DIMAPOST
  1

  9
$DIMALT
 70
     0
  9
$DIMALTD
 70
     2
  9
$DIMALTF
 40
25.4
  9
$DIMLFAC
 40
1.0
  9
$DIMTOFL
 70
     0
  9
$DIMTVP
 40
1.0
  9
$DIMTIX
 70
     0
  9
$DIMSOXD
 70
     0
  9
$DIMSAH
 70
     1
  9
$DIMBLK1
  1

  9
$DIMBLK2
  1

  9
$DIMSTYLE
  2
DIMSTYLE1
  9
$DIMCLRD
 70
     0
  9
$DIMCLRE
 70
     0
  9
$DIMCLRT
 70
     0
  9
$DIMTFAC
 40
1.0
  9
$DIMGAP
 40
1.5
  9
$DIMJUST
 70
     0
  9
$DIMSD1
 70
     0
  9
$DIMSD2
 70
     0
  9
$DIMTOLJ
 70
     1
  9
$DIMTZIN
 70
     0
  9
$DIMALTZ
 70
     0
  9
$DIMALTTZ
 70
     0
  9
$DIMUPT
 70
     0
  9
$DIMDEC
 70
     4
  9
$DIMTDEC
 70
     4
  9
$DIMALTU
 70
     2
  9
$DIMALTTD
 70
     2
  9
$DIMTXSTY
  7
STANDARD
  9
$DIMAUNIT
 70
     0
  9
$DIMADEC
 70
     0
  9
$DIMALTRND
 40
0.0
  9
$DIMAZIN
 70
     0
  9
$DIMDSEP
 70
    46
  9
$DIMATFIT
 70
     3
  9
$DIMFRAC
 70
     0
  9
$DIMLDRBLK
  1

  9
$DIMLUNIT
 70
     2
  9
$DIMLWD
 70
    -2
  9
$DIMLWE
 70
    -2
  9
$DIMTMOVE
 70
     0
  9
$LUNITS
 70
     2
  9
$LUPREC
 70
     4
  9
$SKETCHINC
 40
0.1
  9
$FILLETRAD
 40
0.0
  9
$AUNITS
 70
     0
  9
$AUPREC
 70
     0
  9
$MENU
  1
.
  9
$ELEVATION
 40
0.0
  9
$PELEVATION
 40
0.0
  9
$THICKNESS
 40
0.0
  9
$LIMCHECK
 70
     0
  9
$CHAMFERA
 40
0.0
  9
$CHAMFERB
 40
0.0
  9
$CHAMFERC
 40
0.0
  9
$CHAMFERD
 40
0.0
  9
$SKPOLY
 70
     0
  9
$TDCREATE
 40
2457702.682391771
  9
$TDUCREATE
 40
2457702.307391770
  9
$TDUPDATE
 40
2457702.683163438
  9
$TDUUPDATE
 40
2457702.308163438
  9
$TDINDWG
 40
0.0007731134
  9
$TDUSRTIMER
 40
0.0007731134
  9
$USRTIMER
 70
     1
  9
$ANGBASE
 50
0.0
  9
$ANGDIR
 70
     0
  9
$PDMODE
 70
     0
  9
$PDSIZE
 40
0.0
  9
$PLINEWID
 40
0.0
  9
$SPLFRAME
 70
     0
  9
$SPLINETYPE
 70
     6
  9
$SPLINESEGS
 70
     8
  9
$HANDSEED
  5
216
  9
$SURFTAB1
 70
     6
  9
$SURFTAB2
 70
     6
  9
$SURFTYPE
 70
     6
  9
$SURFU
 70
     6
  9
$SURFV
 70
     6
  9
$UCSBASE
  2

  9
$UCSNAME
  2

  9
$UCSORG
 10
0.0
 20
0.0
 30
0.0
  9
$UCSXDIR
 10
1.0
 20
0.0
 30
0.0
  9
$UCSYDIR
 10
0.0
 20
1.0
 30
0.0
  9
$UCSORTHOREF
  2

  9
$UCSORTHOVIEW
 70
     0
  9
$UCSORGTOP
 10
0.0
 20
0.0
 30
0.0
  9
$UCSORGBOTTOM
 10
0.0
 20
0.0
 30
0.0
  9
$UCSORGLEFT
 10
0.0
 20
0.0
 30
0.0
  9
$UCSORGRIGHT
 10
0.0
 20
0.0
 30
0.0
  9
$UCSORGFRONT
 10
0.0
 20
0.0
 30
0.0
  9
$UCSORGBACK
 10
0.0
 20
0.0
 30
0.0
  9
$PUCSBASE
  2

  9
$PUCSNAME
  2

  9
$PUCSORG
 10
0.0
 20
0.0
 30
0.0
  9
$PUCSXDIR
 10
1.0
 20
0.0
 30
0.0
  9
$PUCSYDIR
 10
0.0
 20
1.0
 30
0.0
  9
$PUCSORTHOREF
  2

  9
$PUCSORTHOVIEW
 70
     0
  9
$PUCSORGTOP
 10
0.0
 20
0.0
 30
0.0
  9
$PUCSORGBOTTOM
 10
0.0
 20
0.0
 30
0.0
  9
$PUCSORGLEFT
 10
0.0
 20
0.0
 30
0.0
  9
$PUCSORGRIGHT
 10
0.0
 20
0.0
 30
0.0
  9
$PUCSORGFRONT
 10
0.0
 20
0.0
 30
0.0
  9
$PUCSORGBACK
 10
0.0
 20
0.0
 30
0.0
  9
$USERI1
 70
     0
  9
$USERI2
 70
     0
  9
$USERI3
 70
     0
  9
$USERI4
 70
     0
  9
$USERI5
 70
     0
  9
$USERR1
 40
0.0
  9
$USERR2
 40
0.0
  9
$USERR3
 40
0.0
  9
$USERR4
 40
0.0
  9
$USERR5
 40
0.0
  9
$WORLDVIEW
 70
     1
  9
$SHADEDGE
 70
     3
  9
$SHADEDIF
 70
    70
  9
$TILEMODE
 70
     1
  9
$MAXACTVP
 70
    64
  9
$PINSBASE
 10
0.0
 20
0.0
 30
0.0
  9
$PLIMCHECK
 70
     0
  9
$PEXTMIN
 10
1.000000000000000E+20
 20
1.000000000000000E+20
 30
1.000000000000000E+20
  9
$PEXTMAX
 10
-1.000000000000000E+20
 20
-1.000000000000000E+20
 30
-1.000000000000000E+20
  9
$PLIMMIN
 10
-423.0
 20
-2.0
  9
$PLIMMAX
 10
-5.0
 20
293.0
  9
$UNITMODE
 70
     0
  9
$VISRETAIN
 70
     1
  9
$PLINEGEN
 70
     0
  9
$PSLTSCALE
 70
     1
  9
$TREEDEPTH
 70
  3020
  9
$CMLSTYLE
  2
Standard
  9
$CMLJUST
 70
     0
  9
$CMLSCALE
 40
1.0
  9
$PROXYGRAPHICS
 70
     1
  9
$MEASUREMENT
 70
     0
  9
$CELWEIGHT
370
    -1
  9
$ENDCAPS
280
     0
  9
$JOINSTYLE
280
     0
  9
$LWDISPLAY
290
     0
  9
$INSUNITS
 70
     0
  9
$HYPERLINKBASE
  1

  9
$STYLESHEET
  1

  9
$XEDIT
290
     1
  9
$CEPSNTYPE
380
     0
  9
$PSTYLEMODE
290
     1
  9
$FINGERPRINTGUID
  2
{5D765F8E-4860-405C-B039-7E603EED21B3}
  9
$VERSIONGUID
  2
{BB605B34-177D-4AD1-9BA7-50D5E7B7998E}
  9
$EXTNAMES
290
     1
  9
$PSVPSCALE
 40
0.0
  9
$OLESTARTUP
290
     0
  9
$SORTENTS
280
   127
  9
$INDEXCTL
280
     0
  9
$HIDETEXT
280
     0
  9
$XCLIPFRAME
290
     0
  9
$HALOGAP
280
     0
  9
$OBSCOLOR
 70
   257
  9
$OBSLTYPE
280
     0
  9
$INTERSECTIONDISPLAY
280
     0
  9
$INTERSECTIONCOLOR
 70
   257
  9
$DIMASSOC
280
     1
  9
$PROJECTNAME
  1

  0
ENDSEC
  0
SECTION
  2
CLASSES
  0
CLASS
  1
ACDBDICTIONARYWDFLT
  2
AcDbDictionaryWithDefault
  3
ObjectDBX Classes
 90
        0
 91
        1
280
     0
281
     0
  0
CLASS
  1
TABLESTYLE
  2
AcDbTableStyle
  3
ObjectDBX Classes
 90
     2047
 91
        1
280
     0
281
     0
  0
CLASS
  1
DICTIONARYVAR
  2
AcDbDictionaryVar
  3
ObjectDBX Classes
 90
        0
 91
        1
280
     0
281
     0
  0
ENDSEC
  0
SECTION
  2
TABLES
  0
TABLE
  2
VPORT
  5
8
330
0
100
AcDbSymbolTable
 70
     2
  0
VPORT
  5
215
330
8
100
AcDbSymbolTableRecord
100
AcDbViewportTableRecord
  2
*Active
 70
     0
 10
0.0
 20
0.0
 11
1.0
 21
1.0
 12
-214.0
 22
145.5
 13
0.0
 23
0.0
 14
1.0
 24
1.0
 15
0.0
 25
0.0
 16
0.0
 26
0.0
 36
1.0
 17
0.0
 27
0.0
 37
0.0
 40
297.328947368421
 41
1.56258234519104
 42
50.0
 43
0.0
 44
0.0
 50
0.0
 51
0.0
 71
     0
 72
   100
 73
     1
 74
     1
 75
     0
 76
     0
 77
     0
 78
     0
281
     0
 65
     1
110
0.0
120
0.0
130
0.0
111
1.0
121
0.0
131
0.0
112
0.0
122
1.0
132
0.0
 79
     0
146
0.0
  0
ENDTAB
  0
TABLE
  2
LTYPE
  5
5
330
0
100
AcDbSymbolTable
 70
     6
  0
LTYPE
  5
13
330
5
100
AcDbSymbolTableRecord
100
AcDbLinetypeTableRecord
  2
ByBlock
 70
     0
  3

 72
    65
 73
     0
 40
0.0
  0
LTYPE
  5
14
330
5
100
AcDbSymbolTableRecord
100
AcDbLinetypeTableRecord
  2
ByLayer
 70
     0
  3

 72
    65
 73
     0
 40
0.0
  0
LTYPE
  5
15
330
5
100
AcDbSymbolTableRecord
100
AcDbLinetypeTableRecord
  2
CONTINUOUS
 70
     0
  3
Solid line
 72
    65
 73
     0
 40
0.0
  0
LTYPE
  5
26
330
5
100
AcDbSymbolTableRecord
100
AcDbLinetypeTableRecord
  2
DASHED
 70
     0
  3
__ __ __ __ __ __ __ __ __ __ __ __ __ __ __
 72
    65
 73
     2
 40
3.5
 49
2.0
 74
     0
 49
-1.5
 74
     0
  0
LTYPE
  5
27
330
5
100
AcDbSymbolTableRecord
100
AcDbLinetypeTableRecord
  2
CENTER
 70
     0
  3
____ _ ____ _ ____ _ ____ _ ____ _ ____ _ ____
 72
    65
 73
     4
 40
17.5
 49
13.0
 74
     0
 49
-1.5
 74
     0
 49
1.5
 74
     0
 49
-1.5
 74
     0
  0
LTYPE
  5
28
330
5
100
AcDbSymbolTableRecord
100
AcDbLinetypeTableRecord
  2
PHANTOM
 70
     0
  3
_____ _ _ _____ _ _ _____ _ _ _____ _ _ ____  
 72
    65
 73
     6
 40
15.5
 49
8.0
 74
     0
 49
-1.5
 74
     0
 49
1.5
 74
     0
 49
-1.5
 74
     0
 49
1.5
 74
     0
 49
-1.5
 74
     0
  0
LTYPE
  5
29
330
5
100
AcDbSymbolTableRecord
100
AcDbLinetypeTableRecord
  2
DOT
 70
     0
  3
. . . . . . . . . . . . . . . . . . . . . . . .
 72
    65
 73
     2
 40
0.25
 49
0.0
 74
     0
 49
-0.25
 74
     0
  0
LTYPE
  5
2A
330
5
100
AcDbSymbolTableRecord
100
AcDbLinetypeTableRecord
  2
HIDDEN
 70
     0
  3
__ __ __ __ __ __ __ __ __ __ __ __ __ __ __
 72
    65
 73
     2
 40
3.5
 49
2.0
 74
     0
 49
-1.5
 74
     0
  0
ENDTAB
  0
TABLE
  2
LAYER
  5
2
330
0
100
AcDbSymbolTable
 70
     3
  0
LAYER
  5
10
330
2
100
AcDbSymbolTableRecord
100
AcDbLayerTableRecord
  2
0
 70
     0
 62
     7
  6
CONTINUOUS
370
    -3
390
F
  0
LAYER
  5
2B
330
2
100
AcDbSymbolTableRecord
100
AcDbLayerTableRecord
  2
1
 70
     0
 62
     7
  6
CONTINUOUS
370
    -3
390
F
  0
LAYER
  5
2C
330
2
100
AcDbSymbolTableRecord
100
AcDbLayerTableRecord
  2
DEFPOINTS
 70
     0
 62
     7
  6
CONTINUOUS
290
     0
370
    -3
390
F
  0
ENDTAB
  0
TABLE
  2
STYLE
  5
3
330
0
100
AcDbSymbolTable
 70
     2
  0
STYLE
  5
11
330
3
100
AcDbSymbolTableRecord
100
AcDbTextStyleTableRecord
  2
STANDARD
 70
     0
 40
0.0
 41
1.0
 50
0.0
 71
     0
 42
0.2
  3

  4

1001
ACAD
1000
MS Gothic
1071
    32817
  0
ENDTAB
  0
TABLE
  2
VIEW
  5
6
330
0
100
AcDbSymbolTable
 70
     0
  0
ENDTAB
  0
TABLE
  2
UCS
  5
7
330
0
100
AcDbSymbolTable
 70
     0
  0
ENDTAB
  0
TABLE
  2
APPID
  5
9
330
0
100
AcDbSymbolTable
 70
     2
  0
APPID
  5
12
330
9
100
AcDbSymbolTableRecord
100
AcDbRegAppTableRecord
  2
ACAD
 70
     0
  0
APPID
  5
20A
330
9
100
AcDbSymbolTableRecord
100
AcDbRegAppTableRecord
  2
ACAD_PSEXT
 70
     0
  0
ENDTAB
  0
TABLE
  2
DIMSTYLE
  5
A
330
0
100
AcDbSymbolTable
 70
    12
100
AcDbDimStyleTable
 71
     1
340
2D
  0
DIMSTYLE
105
2D
102
{ACAD_REACTORS
330
1FB
102
}
330
A
100
AcDbSymbolTableRecord
100
AcDbDimStyleTableRecord
  2
DIMSTYLE1
 70
     0
 41
1.0
 42
2.54
 44
2.54
 73
     0
 74
     0
 77
     1
140
3.0
145
1.0
147
1.5
172
     1
173
     1
279
     2
340
11
  0
DIMSTYLE
105
2E
102
{ACAD_REACTORS
330
1FC
102
}
330
A
100
AcDbSymbolTableRecord
100
AcDbDimStyleTableRecord
  2
DIMSTYLE2
 70
     0
 41
1.0
 42
2.54
 44
2.54
 73
     0
 74
     0
 77
     1
140
3.0
145
1.0
147
1.5
172
     1
173
     1
279
     2
340
11
  0
DIMSTYLE
105
2F
102
{ACAD_REACTORS
330
1FD
102
}
330
A
100
AcDbSymbolTableRecord
100
AcDbDimStyleTableRecord
  2
DIMSTYLE3
 70
     0
 41
1.0
 42
2.54
 44
2.54
 73
     0
 74
     0
 77
     1
140
3.0
145
1.0
147
1.5
172
     1
173
     1
279
     2
340
11
  0
DIMSTYLE
105
30
102
{ACAD_REACTORS
330
1FE
102
}
330
A
100
AcDbSymbolTableRecord
100
AcDbDimStyleTableRecord
  2
DIMSTYLE4
 70
     0
 41
1.0
 42
2.54
 44
2.54
 73
     0
 74
     0
 77
     1
140
3.0
145
1.0
147
1.5
172
     1
173
     1
279
     2
340
11
  0
DIMSTYLE
105
31
102
{ACAD_REACTORS
330
1FF
102
}
330
A
100
AcDbSymbolTableRecord
100
AcDbDimStyleTableRecord
  2
DIMSTYLE5
 70
     0
 41
1.0
 42
2.54
 44
2.54
 73
     0
 74
     0
 77
     1
140
3.0
145
1.0
147
1.5
172
     1
173
     1
279
     2
340
11
  0
DIMSTYLE
105
32
102
{ACAD_REACTORS
330
200
102
}
330
A
100
AcDbSymbolTableRecord
100
AcDbDimStyleTableRecord
  2
DIMSTYLE6
 70
     0
 41
1.0
 42
2.54
 44
2.54
 73
     0
 74
     0
 77
     1
140
3.0
145
1.0
147
1.5
172
     1
173
     1
279
     2
340
11
  0
DIMSTYLE
105
33
102
{ACAD_REACTORS
330
202
102
}
330
A
100
AcDbSymbolTableRecord
100
AcDbDimStyleTableRecord
  2
DIMSTYLE7
 70
     0
 41
1.0
 42
2.54
 44
2.54
 73
     0
 74
     0
 77
     1
140
3.0
145
1.0
147
1.5
172
     1
173
     1
279
     2
340
11
  0
DIMSTYLE
105
34
102
{ACAD_REACTORS
330
203
102
}
330
A
100
AcDbSymbolTableRecord
100
AcDbDimStyleTableRecord
  2
DIMSTYLE8
 70
     0
 41
1.0
 42
2.54
 44
2.54
 73
     0
 74
     0
 77
     1
140
3.0
145
1.0
147
1.5
172
     1
173
     1
279
     2
340
11
  0
DIMSTYLE
105
35
102
{ACAD_REACTORS
330
204
102
}
330
A
100
AcDbSymbolTableRecord
100
AcDbDimStyleTableRecord
  2
DIMSTYLE9
 70
     0
 41
1.0
 42
2.54
 44
2.54
 73
     0
 74
     0
 77
     1
140
3.0
145
1.0
147
1.5
172
     1
173
     1
279
     2
340
11
  0
DIMSTYLE
105
36
102
{ACAD_REACTORS
330
206
102
}
330
A
100
AcDbSymbolTableRecord
100
AcDbDimStyleTableRecord
  2
DIMSTYLE10
 70
     0
 41
1.0
 42
2.54
 44
2.54
 73
     0
 74
     0
 75
     1
 76
     1
 77
     1
140
3.0
145
1.0
147
1.5
172
     1
173
     1
279
     2
340
11
  0
DIMSTYLE
105
37
102
{ACAD_REACTORS
330
207
102
}
330
A
100
AcDbSymbolTableRecord
100
AcDbDimStyleTableRecord
  2
DIMSTYLE11
 70
     0
 41
1.0
 42
2.54
 44
2.54
 73
     0
 74
     0
 75
     1
 76
     1
 77
     1
140
3.0
145
1.0
147
1.5
172
     1
173
     1
279
     2
340
11
  0
ENDTAB
  0
TABLE
  2
BLOCK_RECORD
  5
1
330
0
100
AcDbSymbolTable
 70
    15
  0
BLOCK_RECORD
  5
22
330
1
100
AcDbSymbolTableRecord
100
AcDbBlockTableRecord
  2
*Model_Space
340
25
  0
BLOCK_RECORD
  5
1E
330
1
100
AcDbSymbolTableRecord
100
AcDbBlockTableRecord
  2
*Paper_Space
340
21
  0
BLOCK_RECORD
  5
3B
330
1
100
AcDbSymbolTableRecord
100
AcDbBlockTableRecord
  2
_OPEN30
340
0
102
{BLKREFS
331
44
331
45
331
51
331
53
331
5E
331
5F
331
6A
331
6C
331
77
331
78
331
81
331
82
331
8D
331
8E
331
99
331
9A
331
A4
331
A5
331
B0
331
B1
331
BA
331
BB
102
}
  0
BLOCK_RECORD
  5
41
330
1
100
AcDbSymbolTableRecord
100
AcDbBlockTableRecord
  2
*D1
340
0
  0
BLOCK_RECORD
  5
4D
330
1
100
AcDbSymbolTableRecord
100
AcDbBlockTableRecord
  2
*D2
340
0
  0
BLOCK_RECORD
  5
5B
330
1
100
AcDbSymbolTableRecord
100
AcDbBlockTableRecord
  2
*D3
340
0
  0
BLOCK_RECORD
  5
66
330
1
100
AcDbSymbolTableRecord
100
AcDbBlockTableRecord
  2
*D4
340
0
  0
BLOCK_RECORD
  5
74
330
1
100
AcDbSymbolTableRecord
100
AcDbBlockTableRecord
  2
*D5
340
0
  0
BLOCK_RECORD
  5
7E
330
1
100
AcDbSymbolTableRecord
100
AcDbBlockTableRecord
  2
*D6
340
0
  0
BLOCK_RECORD
  5
8A
330
1
100
AcDbSymbolTableRecord
100
AcDbBlockTableRecord
  2
*D7
340
0
  0
BLOCK_RECORD
  5
96
330
1
100
AcDbSymbolTableRecord
100
AcDbBlockTableRecord
  2
*D8
340
0
  0
BLOCK_RECORD
  5
A1
330
1
100
AcDbSymbolTableRecord
100
AcDbBlockTableRecord
  2
*D9
340
0
  0
BLOCK_RECORD
  5
AC
330
1
100
AcDbSymbolTableRecord
100
AcDbBlockTableRecord
  2
*D10
340
0
  0
BLOCK_RECORD
  5
B6
330
1
100
AcDbSymbolTableRecord
100
AcDbBlockTableRecord
  2
*D11
340
0
  0
BLOCK_RECORD
  5
C0
330
1
100
AcDbSymbolTableRecord
100
AcDbBlockTableRecord
  2
KOZU0001
340
0
102
{BLKREFS
331
201
102
}
  0
BLOCK_RECORD
  5
C9
330
1
100
AcDbSymbolTableRecord
100
AcDbBlockTableRecord
  2
KOZU0002
340
0
102
{BLKREFS
331
205
102
}
  0
ENDTAB
  0
ENDSEC
  0
SECTION
  2
BLOCKS
  0
BLOCK
  5
23
330
22
100
AcDbEntity
  8
0
100
AcDbBlockBegin
  2
*Model_Space
 70
     0
 10
0.0
 20
0.0
 30
0.0
  3
*Model_Space
  1

  0
ENDBLK
  5
24
330
22
100
AcDbEntity
  8
0
100
AcDbBlockEnd
  0
BLOCK
  5
1F
330
1E
100
AcDbEntity
 67
     1
  8
0
100
AcDbBlockBegin
  2
*Paper_Space
 70
     0
 10
0.0
 20
0.0
 30
0.0
  3
*Paper_Space
  1

  0
ENDBLK
  5
20
330
1E
100
AcDbEntity
 67
     1
  8
0
100
AcDbBlockEnd
  0
BLOCK
  5
3C
330
3B
100
AcDbEntity
  8
0
100
AcDbBlockBegin
  2
_OPEN30
 70
     0
 10
0.0
 20
0.0
 30
0.0
  3
_OPEN30
  1

  0
LINE
  5
3D
330
3B
100
AcDbEntity
  8
0
  6
ByBlock
 62
     0
100
AcDbLine
 10
0.0
 20
0.0
 30
0.0
 11
-2.999999999999993
 21
-1.000000000000017
 31
0.0
  0
LINE
  5
3E
330
3B
100
AcDbEntity
  8
0
  6
ByBlock
 62
     0
100
AcDbLine
 10
0.0
 20
0.0
 30
0.0
 11
-3.000000000000006
 21
0.9999999999999815
 31
0.0
  0
LINE
  5
3F
330
3B
100
AcDbEntity
  8
0
  6
ByBlock
 62
     0
100
AcDbLine
 10
0.0
 20
0.0
 30
0.0
 11
-3.0
 21
0.0
 31
0.0
  0
ENDBLK
  5
40
330
3B
100
AcDbEntity
  8
0
100
AcDbBlockEnd
  0
BLOCK
  5
42
330
41
100
AcDbEntity
  8
0
100
AcDbBlockBegin
  2
*D1
 70
     1
 10
0.0
 20
0.0
 30
0.0
  3
*D1
  1

  0
LINE
  5
43
330
41
100
AcDbEntity
  8
0
  6
Continuous
 62
     7
100
AcDbLine
 10
-165.0079040527344
 20
265.4772033691406
 30
0.0
 11
-111.0079116821289
 21
265.4772033691406
 31
0.0
  0
INSERT
  5
44
330
41
100
AcDbEntity
  8
0
  6
Continuous
 62
     7
100
AcDbBlockReference
  2
_OPEN30
 10
-168.0079040527344
 20
265.4772033691406
 30
0.0
 50
180.0000000000004
  0
INSERT
  5
45
330
41
100
AcDbEntity
  8
0
  6
Continuous
 62
     7
100
AcDbBlockReference
  2
_OPEN30
 10
-108.0079116821289
 20
265.4772033691406
 30
0.0
  0
LINE
  5
46
330
41
100
AcDbEntity
  8
0
  6
Continuous
 62
     7
100
AcDbLine
 10
-168.0079040527344
 20
220.4872961425781
 30
0.0
 11
-168.0079040527344
 21
267.76318359375
 31
0.0
  0
LINE
  5
47
330
41
100
AcDbEntity
  8
0
  6
Continuous
 62
     7
100
AcDbLine
 10
-108.0079116821289
 20
250.9872961425781
 30
0.0
 11
-108.0079116821289
 21
267.76318359375
 31
0.0
  0
TEXT
  5
48
330
41
100
AcDbEntity
  8
0
  6
Continuous
 62
     7
100
AcDbText
 10
-152.5779046416283
 20
266.2272033691406
 30
0.0
 40
3.0
  1
６０　（５１～６８）
 41
0.8443929326254473
100
AcDbText
  0
POINT
  5
49
330
41
100
AcDbEntity
  8
DEFPOINTS
  6
Continuous
 62
     7
100
AcDbPoint
 10
-168.0079040527344
 20
217.9472961425781
 30
0.0
  0
POINT
  5
4A
330
41
100
AcDbEntity
  8
DEFPOINTS
  6
Continuous
 62
     7
100
AcDbPoint
 10
-108.0079116821289
 20
248.4472961425781
 30
0.0
  0
POINT
  5
4B
330
41
100
AcDbEntity
  8
DEFPOINTS
  6
Continuous
 62
     7
100
AcDbPoint
 10
-108.0079116821289
 20
265.4772033691406
 30
0.0
  0
ENDBLK
  5
4C
330
41
100
AcDbEntity
  8
0
100
AcDbBlockEnd
  0
BLOCK
  5
4E
330
4D
100
AcDbEntity
  8
0
100
AcDbBlockBegin
  2
*D2
 70
     1
 10
0.0
 20
0.0
 30
0.0
  3
*D2
  1

  0
LINE
  5
4F
330
4D
100
AcDbEntity
  8
0
  6
Continuous
 62
     7
100
AcDbLine
 10
-104.5079116821289
 20
265.4772033691406
 30
0.0
 11
-90.66805267333984
 21
265.4772033691406
 31
0.0
  0
LINE
  5
50
330
4D
100
AcDbEntity
  8
0
  6
Continuous
 62
     7
100
AcDbLine
 10
-108.0079116821289
 20
265.4772033691406
 30
0.0
 11
-104.5079116821289
 21
265.4772033691406
 31
0.0
  0
INSERT
  5
51
330
4D
100
AcDbEntity
  8
0
  6
Continuous
 62
     7
100
AcDbBlockReference
  2
_OPEN30
 10
-108.0079116821289
 20
265.4772033691406
 30
0.0
 50
0.0000000000003562
  0
LINE
  5
52
330
4D
100
AcDbEntity
  8
0
  6
Continuous
 62
     7
100
AcDbLine
 10
-111.0079116821289
 20
265.4772033691406
 30
0.0
 11
-114.3579116821289
 21
265.4772033691406
 31
0.0
  0
INSERT
  5
53
330
4D
100
AcDbEntity
  8
0
  6
Continuous
 62
     7
100
AcDbBlockReference
  2
_OPEN30
 10
-104.5079116821289
 20
265.4772033691406
 30
0.0
 50
180.0
  0
LINE
  5
54
330
4D
100
AcDbEntity
  8
0
  6
Continuous
 62
     7
100
AcDbLine
 10
-101.5079116821289
 20
265.4772033691406
 30
0.0
 11
-98.15791168212893
 21
265.4772033691406
 31
0.0
  0
LINE
  5
55
330
4D
100
AcDbEntity
  8
0
  6
Continuous
 62
     7
100
AcDbLine
 10
-104.5079116821289
 20
252.4872961425781
 30
0.0
 11
-104.5079116821289
 21
267.76318359375
 31
0.0
  0
TEXT
  5
56
330
4D
100
AcDbEntity
  8
0
  6
Continuous
 62
     7
100
AcDbText
 10
-98.80805253982543
 20
266.2272033691406
 30
0.0
 40
3.0
  1
3.5
 41
1.356666684150696
100
AcDbText
  0
POINT
  5
57
330
4D
100
AcDbEntity
  8
DEFPOINTS
  6
Continuous
 62
     7
100
AcDbPoint
 10
-108.0079116821289
 20
267.76318359375
 30
0.0
  0
POINT
  5
58
330
4D
100
AcDbEntity
  8
DEFPOINTS
  6
Continuous
 62
     7
100
AcDbPoint
 10
-104.5079116821289
 20
249.9472961425781
 30
0.0
  0
POINT
  5
59
330
4D
100
AcDbEntity
  8
DEFPOINTS
  6
Continuous
 62
     7
100
AcDbPoint
 10
-104.5079116821289
 20
265.4772033691406
 30
0.0
  0
ENDBLK
  5
5A
330
4D
100
AcDbEntity
  8
0
100
AcDbBlockEnd
  0
BLOCK
  5
5C
330
5B
100
AcDbEntity
  8
0
100
AcDbBlockBegin
  2
*D3
 70
     1
 10
0.0
 20
0.0
 30
0.0
  3
*D3
  1

  0
LINE
  5
5D
330
5B
100
AcDbEntity
  8
0
  6
Continuous
 62
     7
100
AcDbLine
 10
-111.0079116821289
 20
256.7499084472656
 30
0.0
 11
-135.0079040527344
 21
256.7499084472656
 31
0.0
  0
INSERT
  5
5E
330
5B
100
AcDbEntity
  8
0
  6
Continuous
 62
     7
100
AcDbBlockReference
  2
_OPEN30
 10
-108.0079116821289
 20
256.7499084472656
 30
0.0
  0
INSERT
  5
5F
330
5B
100
AcDbEntity
  8
0
  6
Continuous
 62
     7
100
AcDbBlockReference
  2
_OPEN30
 10
-138.0079040527344
 20
256.7499084472656
 30
0.0
 50
180.0000000000004
  0
LINE
  5
60
330
5B
100
AcDbEntity
  8
0
  6
Continuous
 62
     7
100
AcDbLine
 10
-138.0079040527344
 20
201.9872961425781
 30
0.0
 11
-138.0079040527344
 21
259.0359191894531
 31
0.0
  0
TEXT
  5
61
330
5B
100
AcDbEntity
  8
0
  6
Continuous
 62
     7
100
AcDbText
 10
-125.5779117941856
 20
257.4999084472656
 30
0.0
 40
3.0
  1
30
 41
1.101428593908038
100
AcDbText
  0
POINT
  5
62
330
5B
100
AcDbEntity
  8
DEFPOINTS
  6
Continuous
 62
     7
100
AcDbPoint
 10
-108.0079116821289
 20
267.76318359375
 30
0.0
  0
POINT
  5
63
330
5B
100
AcDbEntity
  8
DEFPOINTS
  6
Continuous
 62
     7
100
AcDbPoint
 10
-138.0079040527344
 20
199.4472961425781
 30
0.0
  0
POINT
  5
64
330
5B
100
AcDbEntity
  8
DEFPOINTS
  6
Continuous
 62
     7
100
AcDbPoint
 10
-138.0079040527344
 20
256.7499084472656
 30
0.0
  0
ENDBLK
  5
65
330
5B
100
AcDbEntity
  8
0
100
AcDbBlockEnd
  0
BLOCK
  5
67
330
66
100
AcDbEntity
  8
0
100
AcDbBlockBegin
  2
*D4
 70
     1
 10
0.0
 20
0.0
 30
0.0
  3
*D4
  1

  0
LINE
  5
68
330
66
100
AcDbEntity
  8
0
  6
Continuous
 62
     7
100
AcDbLine
 10
-174.0079040527344
 20
265.4772033691406
 30
0.0
 11
-182.8447265625
 21
265.4772033691406
 31
0.0
  0
LINE
  5
69
330
66
100
AcDbEntity
  8
0
  6
Continuous
 62
     7
100
AcDbLine
 10
-168.0079040527344
 20
265.4772033691406
 30
0.0
 11
-174.0079040527344
 21
265.4772033691406
 31
0.0
  0
INSERT
  5
6A
330
66
100
AcDbEntity
  8
0
  6
Continuous
 62
     7
100
AcDbBlockReference
  2
_OPEN30
 10
-168.0079040527344
 20
265.4772033691406
 30
0.0
 50
180.0
  0
LINE
  5
6B
330
66
100
AcDbEntity
  8
0
  6
Continuous
 62
     7
100
AcDbLine
 10
-165.0079040527344
 20
265.4772033691406
 30
0.0
 11
-161.6579040527344
 21
265.4772033691406
 31
0.0
  0
INSERT
  5
6C
330
66
100
AcDbEntity
  8
0
  6
Continuous
 62
     7
100
AcDbBlockReference
  2
_OPEN30
 10
-174.0079040527344
 20
265.4772033691406
 30
0.0
 50
0.0000000000003562
  0
LINE
  5
6D
330
66
100
AcDbEntity
  8
0
  6
Continuous
 62
     7
100
AcDbLine
 10
-177.0079040527344
 20
265.4772033691406
 30
0.0
 11
-180.3579040527344
 21
265.4772033691406
 31
0.0
  0
LINE
  5
6E
330
66
100
AcDbEntity
  8
0
  6
Continuous
 62
     7
100
AcDbLine
 10
-174.0079040527344
 20
213.4872961425781
 30
0.0
 11
-174.0079040527344
 21
267.76318359375
 31
0.0
  0
TEXT
  5
6F
330
66
100
AcDbEntity
  8
0
  6
Continuous
 62
     7
100
AcDbText
 10
-182.8447192907333
 20
266.2272033691406
 30
0.0
 40
3.0
  1
6
100
AcDbText
  0
POINT
  5
70
330
66
100
AcDbEntity
  8
DEFPOINTS
  6
Continuous
 62
     7
100
AcDbPoint
 10
-168.0079040527344
 20
267.76318359375
 30
0.0
  0
POINT
  5
71
330
66
100
AcDbEntity
  8
DEFPOINTS
  6
Continuous
 62
     7
100
AcDbPoint
 10
-174.0079040527344
 20
210.9472961425781
 30
0.0
  0
POINT
  5
72
330
66
100
AcDbEntity
  8
DEFPOINTS
  6
Continuous
 62
     7
100
AcDbPoint
 10
-174.0079040527344
 20
265.4772033691406
 30
0.0
  0
ENDBLK
  5
73
330
66
100
AcDbEntity
  8
0
100
AcDbBlockEnd
  0
BLOCK
  5
75
330
74
100
AcDbEntity
  8
0
100
AcDbBlockBegin
  2
*D5
 70
     1
 10
0.0
 20
0.0
 30
0.0
  3
*D5
  1

  0
LINE
  5
76
330
74
100
AcDbEntity
  8
0
  6
Continuous
 62
     7
100
AcDbLine
 10
-121.0079116821289
 20
179.7446136474609
 30
0.0
 11
-171.0079040527344
 21
179.7446136474609
 31
0.0
  0
INSERT
  5
77
330
74
100
AcDbEntity
  8
0
  6
Continuous
 62
     7
100
AcDbBlockReference
  2
_OPEN30
 10
-118.0079116821289
 20
179.7446136474609
 30
0.0
  0
INSERT
  5
78
330
74
100
AcDbEntity
  8
0
  6
Continuous
 62
     7
100
AcDbBlockReference
  2
_OPEN30
 10
-174.0079040527344
 20
179.7446136474609
 30
0.0
 50
180.0000000000004
  0
TEXT
  5
79
330
74
100
AcDbEntity
  8
0
  6
Continuous
 62
     7
100
AcDbText
 10
-148.5779041647911
 20
180.4946136474609
 30
0.0
 40
3.0
  1
56
 41
1.028000020980834
100
AcDbText
  0
POINT
  5
7A
330
74
100
AcDbEntity
  8
DEFPOINTS
  6
Continuous
 62
     7
100
AcDbPoint
 10
-118.0079116821289
 20
173.4472961425781
 30
0.0
  0
POINT
  5
7B
330
74
100
AcDbEntity
  8
DEFPOINTS
  6
Continuous
 62
     7
100
AcDbPoint
 10
-174.0079040527344
 20
206.4472961425781
 30
0.0
  0
POINT
  5
7C
330
74
100
AcDbEntity
  8
DEFPOINTS
  6
Continuous
 62
     7
100
AcDbPoint
 10
-174.0079040527344
 20
179.7446136474609
 30
0.0
  0
ENDBLK
  5
7D
330
74
100
AcDbEntity
  8
0
100
AcDbBlockEnd
  0
BLOCK
  5
7F
330
7E
100
AcDbEntity
  8
0
100
AcDbBlockBegin
  2
*D6
 70
     1
 10
0.0
 20
0.0
 30
0.0
  3
*D6
  1

  0
LINE
  5
80
330
7E
100
AcDbEntity
  8
0
  6
Continuous
 62
     7
100
AcDbLine
 10
-60.34830856323242
 20
148.4472961425781
 30
0.0
 11
-60.34830856323239
 21
198.4472961425781
 31
0.0
  0
INSERT
  5
81
330
7E
100
AcDbEntity
  8
0
  6
Continuous
 62
     7
100
AcDbBlockReference
  2
_OPEN30
 10
-60.34830856323242
 20
145.4472961425781
 30
0.0
 50
270.0000000000005
  0
INSERT
  5
82
330
7E
100
AcDbEntity
  8
0
  6
Continuous
 62
     7
100
AcDbBlockReference
  2
_OPEN30
 10
-60.34830856323242
 20
201.4472961425781
 30
0.0
 50
90.00000000000019
  0
LINE
  5
83
330
7E
100
AcDbEntity
  8
0
  6
Continuous
 62
     7
100
AcDbLine
 10
-78.4679116821289
 20
145.4472961425781
 30
0.0
 11
-58.06230926513672
 21
145.4472961425781
 31
0.0
  0
LINE
  5
84
330
7E
100
AcDbEntity
  8
0
  6
Continuous
 62
     7
100
AcDbLine
 10
-78.4679116821289
 20
201.4472961425781
 30
0.0
 11
-58.06230926513672
 21
201.4472961425781
 31
0.0
  0
TEXT
  5
85
330
7E
100
AcDbEntity
  8
0
  6
Continuous
 62
     7
100
AcDbText
 10
-61.09830838532706
 20
169.3772959381332
 30
0.0
 40
3.0
  1
%%C56
 50
90.00000250447815
 41
0.9498249830693319
100
AcDbText
  0
POINT
  5
86
330
7E
100
AcDbEntity
  8
DEFPOINTS
  6
Continuous
 62
     7
100
AcDbPoint
 10
-81.00791168212891
 20
145.4472961425781
 30
0.0
  0
POINT
  5
87
330
7E
100
AcDbEntity
  8
DEFPOINTS
  6
Continuous
 62
     7
100
AcDbPoint
 10
-81.00791168212891
 20
201.4472961425781
 30
0.0
  0
POINT
  5
88
330
7E
100
AcDbEntity
  8
DEFPOINTS
  6
Continuous
 62
     7
100
AcDbPoint
 10
-60.34830856323242
 20
201.4472961425781
 30
0.0
  0
ENDBLK
  5
89
330
7E
100
AcDbEntity
  8
0
100
AcDbBlockEnd
  0
BLOCK
  5
8B
330
8A
100
AcDbEntity
  8
0
100
AcDbBlockBegin
  2
*D7
 70
     1
 10
0.0
 20
0.0
 30
0.0
  3
*D7
  1

  0
LINE
  5
8C
330
8A
100
AcDbEntity
  8
0
  6
Continuous
 62
     7
100
AcDbLine
 10
-83.0079116821289
 20
83.16535186767577
 30
0.0
 11
-135.0079040527344
 21
83.16535186767579
 31
0.0
  0
INSERT
  5
8D
330
8A
100
AcDbEntity
  8
0
  6
Continuous
 62
     7
100
AcDbBlockReference
  2
_OPEN30
 10
-80.0079116821289
 20
83.16535186767579
 30
0.0
  0
INSERT
  5
8E
330
8A
100
AcDbEntity
  8
0
  6
Continuous
 62
     7
100
AcDbBlockReference
  2
_OPEN30
 10
-138.0079040527344
 20
83.16535186767579
 30
0.0
 50
180.0000000000004
  0
LINE
  5
8F
330
8A
100
AcDbEntity
  8
0
  6
Continuous
 62
     7
100
AcDbLine
 10
-80.00791168212888
 20
143.9072961425781
 30
0.0
 11
-80.0079116821289
 21
80.87934875488281
 31
0.0
  0
LINE
  5
90
330
8A
100
AcDbEntity
  8
0
  6
Continuous
 62
     7
100
AcDbLine
 10
-138.0079040527344
 20
144.907296142578
 30
0.0
 11
-138.0079040527344
 21
80.87934875488281
 31
0.0
  0
TEXT
  5
91
330
8A
100
AcDbEntity
  8
0
  6
Continuous
 62
     7
100
AcDbText
 10
-111.5779117941856
 20
83.91535186767578
 30
0.0
 40
3.0
  1
58
 41
1.028000020980834
100
AcDbText
  0
POINT
  5
92
330
8A
100
AcDbEntity
  8
DEFPOINTS
  6
Continuous
 62
     7
100
AcDbPoint
 10
-80.0079116821289
 20
146.4472961425781
 30
0.0
  0
POINT
  5
93
330
8A
100
AcDbEntity
  8
DEFPOINTS
  6
Continuous
 62
     7
100
AcDbPoint
 10
-138.0079040527344
 20
147.4472961425781
 30
0.0
  0
POINT
  5
94
330
8A
100
AcDbEntity
  8
DEFPOINTS
  6
Continuous
 62
     7
100
AcDbPoint
 10
-138.0079040527344
 20
83.16535186767579
 30
0.0
  0
ENDBLK
  5
95
330
8A
100
AcDbEntity
  8
0
100
AcDbBlockEnd
  0
BLOCK
  5
97
330
96
100
AcDbEntity
  8
0
100
AcDbBlockBegin
  2
*D8
 70
     1
 10
0.0
 20
0.0
 30
0.0
  3
*D8
  1

  0
LINE
  5
98
330
96
100
AcDbEntity
  8
0
  6
Continuous
 62
     7
100
AcDbLine
 10
-84.4203186035156
 20
142.4472961425781
 30
0.0
 11
-84.42031860351564
 21
134.4472961425781
 31
0.0
  0
INSERT
  5
99
330
96
100
AcDbEntity
  8
0
  6
Continuous
 62
     7
100
AcDbBlockReference
  2
_OPEN30
 10
-84.42031860351562
 20
145.4472961425781
 30
0.0
 50
90.00000000000019
  0
INSERT
  5
9A
330
96
100
AcDbEntity
  8
0
  6
Continuous
 62
     7
100
AcDbBlockReference
  2
_OPEN30
 10
-84.42031860351562
 20
131.4472961425781
 30
0.0
 50
270.0000000000005
  0
LINE
  5
9B
330
96
100
AcDbEntity
  8
0
  6
Continuous
 62
     7
100
AcDbLine
 10
-100.4074105834961
 20
131.4472961425781
 30
0.0
 11
-82.13431549072266
 21
131.4472961425781
 31
0.0
  0
TEXT
  5
9C
330
96
100
AcDbEntity
  8
0
  6
Continuous
 62
     7
100
AcDbText
 10
-85.17031849117735
 20
135.8772959977379
 30
0.0
 40
3.0
  1
14
 50
90.00000250447815
 41
1.285000026226043
100
AcDbText
  0
POINT
  5
9D
330
96
100
AcDbEntity
  8
DEFPOINTS
  6
Continuous
 62
     7
100
AcDbPoint
 10
-81.00791168212891
 20
145.4472961425781
 30
0.0
  0
POINT
  5
9E
330
96
100
AcDbEntity
  8
DEFPOINTS
  6
Continuous
 62
     7
100
AcDbPoint
 10
-102.9474105834961
 20
131.4472961425781
 30
0.0
  0
POINT
  5
9F
330
96
100
AcDbEntity
  8
DEFPOINTS
  6
Continuous
 62
     7
100
AcDbPoint
 10
-84.42031860351562
 20
131.4472961425781
 30
0.0
  0
ENDBLK
  5
A0
330
96
100
AcDbEntity
  8
0
100
AcDbBlockEnd
  0
BLOCK
  5
A2
330
A1
100
AcDbEntity
  8
0
100
AcDbBlockBegin
  2
*D9
 70
     1
 10
0.0
 20
0.0
 30
0.0
  3
*D9
  1

  0
LINE
  5
A3
330
A1
100
AcDbEntity
  8
0
  6
Continuous
 62
     7
100
AcDbLine
 10
-101.5079116821289
 20
121.1973266601563
 30
0.0
 11
-93.50791168212891
 21
121.1973266601562
 31
0.0
  0
INSERT
  5
A4
330
A1
100
AcDbEntity
  8
0
  6
Continuous
 62
     7
100
AcDbBlockReference
  2
_OPEN30
 10
-104.5079116821289
 20
121.1973266601563
 30
0.0
 50
180.0000000000004
  0
INSERT
  5
A5
330
A1
100
AcDbEntity
  8
0
  6
Continuous
 62
     7
100
AcDbBlockReference
  2
_OPEN30
 10
-90.50791168212892
 20
121.1973266601563
 30
0.0
  0
LINE
  5
A6
330
A1
100
AcDbEntity
  8
0
  6
Continuous
 62
     7
100
AcDbLine
 10
-90.50791168212887
 20
140.4876641845703
 30
0.0
 11
-90.50791168212892
 21
118.9113311767578
 31
0.0
  0
TEXT
  5
A7
330
A1
100
AcDbEntity
  8
0
  6
Continuous
 62
     7
100
AcDbText
 10
-100.0779117941856
 20
121.9473266601563
 30
0.0
 40
3.0
  1
14
 41
1.285000026226043
100
AcDbText
  0
POINT
  5
A8
330
A1
100
AcDbEntity
  8
DEFPOINTS
  6
Continuous
 62
     7
100
AcDbPoint
 10
-104.5079116821289
 20
96.94729614257813
 30
0.0
  0
POINT
  5
A9
330
A1
100
AcDbEntity
  8
DEFPOINTS
  6
Continuous
 62
     7
100
AcDbPoint
 10
-90.50791168212892
 20
143.0276641845703
 30
0.0
  0
POINT
  5
AA
330
A1
100
AcDbEntity
  8
DEFPOINTS
  6
Continuous
 62
     7
100
AcDbPoint
 10
-90.50791168212892
 20
121.1973266601563
 30
0.0
  0
ENDBLK
  5
AB
330
A1
100
AcDbEntity
  8
0
100
AcDbBlockEnd
  0
BLOCK
  5
AD
330
AC
100
AcDbEntity
  8
0
100
AcDbBlockBegin
  2
*D10
 70
     1
 10
0.0
 20
0.0
 30
0.0
  3
*D10
  1

  0
LINE
  5
AE
330
AC
100
AcDbEntity
  8
0
  6
Continuous
 62
     7
100
AcDbLine
 10
-276.1177978515625
 20
240.194580078125
 30
0.0
 11
-257.35693359375
 21
272.8133239746094
 31
0.0
  0
LINE
  5
AF
330
AC
100
AcDbEntity
  8
0
  6
Continuous
 62
     7
100
AcDbLine
 10
-351.4022918515373
 20
109.3005557003831
 30
0.0
 11
-277.6135162539314
 21
237.5940365847731
 31
0.0
  0
INSERT
  5
B0
330
AC
100
AcDbEntity
  8
0
  6
Continuous
 62
     7
100
AcDbBlockReference
  2
_OPEN30
 10
-352.8980102539063
 20
106.7000122070313
 30
0.0
 50
240.0943779050205
  0
INSERT
  5
B1
330
AC
100
AcDbEntity
  8
0
  6
Continuous
 62
     7
100
AcDbBlockReference
  2
_OPEN30
 10
-276.1177978515625
 20
240.194580078125
 30
0.0
 50
60.09437790501985
  0
TEXT
  5
B2
330
AC
100
AcDbEntity
  8
0
  6
Continuous
 62
     7
100
AcDbText
 10
-274.0298583156472
 20
245.3259212721824
 30
0.0
 40
3.0
  1
%%C１５４（防水皿外径）
 50
60.10000246929028
 41
0.8440126077968535
100
AcDbText
  0
POINT
  5
B3
330
AC
100
AcDbEntity
  8
DEFPOINTS
  6
Continuous
 62
     7
100
AcDbPoint
 10
-352.8980102539063
 20
106.7000122070313
 30
0.0
  0
POINT
  5
B4
330
AC
100
AcDbEntity
  8
DEFPOINTS
  6
Continuous
 62
     7
100
AcDbPoint
 10
-276.1177978515625
 20
240.194580078125
 30
0.0
  0
ENDBLK
  5
B5
330
AC
100
AcDbEntity
  8
0
100
AcDbBlockEnd
  0
BLOCK
  5
B7
330
B6
100
AcDbEntity
  8
0
100
AcDbBlockBegin
  2
*D11
 70
     1
 10
0.0
 20
0.0
 30
0.0
  3
*D11
  1

  0
LINE
  5
B8
330
B6
100
AcDbEntity
  8
0
  6
Continuous
 62
     7
100
AcDbLine
 10
-277.1907348632813
 20
197.3385772705078
 30
0.0
 11
-221.3973236083984
 21
232.8441619873047
 31
0.0
  0
LINE
  5
B9
330
B6
100
AcDbEntity
  8
0
  6
Continuous
 62
     7
100
AcDbLine
 10
-349.7452135545526
 20
151.1666633900035
 30
0.0
 11
-279.7217053907599
 21
195.7279288951525
 31
0.0
  0
INSERT
  5
BA
330
B6
100
AcDbEntity
  8
0
  6
Continuous
 62
     7
100
AcDbBlockReference
  2
_OPEN30
 10
-352.2761840820313
 20
149.5560150146484
 30
0.0
 50
212.4716880311027
  0
INSERT
  5
BB
330
B6
100
AcDbEntity
  8
0
  6
Continuous
 62
     7
100
AcDbBlockReference
  2
_OPEN30
 10
-277.1907348632813
 20
197.3385772705078
 30
0.0
 50
32.47168803110202
  0
TEXT
  5
BC
330
B6
100
AcDbEntity
  8
0
  6
Continuous
 62
     7
100
AcDbText
 10
-246.3805958749546
 20
217.8258621920756
 30
0.0
 40
3.0
  1
%%C８９（目皿部外径）
 50
32.50000033521246
 41
0.8443929326254473
100
AcDbText
  0
POINT
  5
BD
330
B6
100
AcDbEntity
  8
DEFPOINTS
  6
Continuous
 62
     7
100
AcDbPoint
 10
-352.2761840820313
 20
149.5560150146484
 30
0.0
  0
POINT
  5
BE
330
B6
100
AcDbEntity
  8
DEFPOINTS
  6
Continuous
 62
     7
100
AcDbPoint
 10
-277.1907348632813
 20
197.3385772705078
 30
0.0
  0
ENDBLK
  5
BF
330
B6
100
AcDbEntity
  8
0
100
AcDbBlockEnd
  0
BLOCK
  5
C1
330
C0
100
AcDbEntity
  8
0
100
AcDbBlockBegin
  2
KOZU0001
 70
     0
 10
0.0
 20
0.0
 30
0.0
  3
KOZU0001
  1

  0
LINE
  5
C2
330
C0
100
AcDbEntity
  8
0
  6
Continuous
 62
     7
100
AcDbLine
 10
0.0
 20
0.0
 30
0.0
 11
19.61283874511719
 21
23.49362182617188
 31
0.0
  0
LINE
  5
C3
330
C0
100
AcDbEntity
  8
0
  6
Continuous
 62
     7
100
AcDbLine
 10
19.61283874511719
 20
23.49362182617188
 30
0.0
 11
58.34162902832031
 21
23.49362182617188
 31
0.0
  0
LINE
  5
C4
330
C0
100
AcDbEntity
  8
0
  6
Continuous
 62
     7
100
AcDbLine
 10
0.0
 20
0.0
 30
0.0
 11
1.154905456473465
 21
2.943839905057306
 31
0.0
  0
LINE
  5
C5
330
C0
100
AcDbEntity
  8
0
  6
Continuous
 62
     7
100
AcDbLine
 10
0.0
 20
0.0
 30
0.0
 11
2.690228308213156
 21
1.662128650161766
 31
0.0
  0
TEXT
  5
C6
330
C0
100
AcDbEntity
  8
0
  6
Continuous
 62
     7
100
AcDbText
 10
21.48162770271301
 20
24.24362182617188
 30
0.0
 40
3.0
  1
配管接続口
 41
0.8487395020950888
100
AcDbText
  0
TEXT
  5
C7
330
C0
100
AcDbEntity
  8
0
  6
Continuous
 62
     7
100
AcDbText
 10
21.48162770271301
 20
18.97862182617187
 30
0.0
 40
3.0
  1
Ｒｃ１　１／２（４０Ａ）
 41
0.8436974815103043
100
AcDbText
  0
ENDBLK
  5
C8
330
C0
100
AcDbEntity
  8
0
100
AcDbBlockEnd
  0
BLOCK
  5
CA
330
C9
100
AcDbEntity
  8
0
100
AcDbBlockBegin
  2
KOZU0002
 70
     0
 10
0.0
 20
0.0
 30
0.0
  3
KOZU0002
  1

  0
LINE
  5
CB
330
C9
100
AcDbEntity
  8
0
  6
Continuous
 62
     7
100
AcDbLine
 10
0.0
 20
0.0
 30
0.0
 11
29.25053405761719
 21
-28.97458648681641
 31
0.0
  0
LINE
  5
CC
330
C9
100
AcDbEntity
  8
0
  6
Continuous
 62
     7
100
AcDbLine
 10
29.25053405761719
 20
-28.97458648681641
 30
0.0
 11
54.97163772583007
 21
-28.97458648681641
 31
0.0
  0
LINE
  5
CD
330
C9
100
AcDbEntity
  8
0
  6
Continuous
 62
     7
100
AcDbLine
 10
0.0
 20
0.0
 30
0.0
 11
2.835097697987745
 21
-1.400793005002735
 31
0.0
  0
LINE
  5
CE
330
C9
100
AcDbEntity
  8
0
  6
Continuous
 62
     7
100
AcDbLine
 10
0.0
 20
0.0
 30
0.0
 11
1.427602355388555
 21
-2.821693022794833
 31
0.0
  0
TEXT
  5
CF
330
C9
100
AcDbEntity
  8
0
  6
Continuous
 62
     7
100
AcDbText
 10
30.80040669441223
 20
-28.22458648681641
 30
0.0
 40
3.0
  1
共廻り防止用羽根
 41
0.8454512278006642
100
AcDbText
  0
TEXT
  5
D0
330
C9
100
AcDbEntity
  8
0
  6
Continuous
 62
     7
100
AcDbText
 10
30.80040669441223
 20
-33.48958648681641
 30
0.0
 40
3.0
  1
３ヶ所
 41
0.8550420278260688
100
AcDbText
  0
ENDBLK
  5
D1
330
C9
100
AcDbEntity
  8
0
100
AcDbBlockEnd
  0
ENDSEC
  0
SECTION
  2
ENTITIES
  0
POINT
  5
D2
330
22
100
AcDbEntity
  8
0
  6
Continuous
 62
     7
100
AcDbPoint
 10
-104.5079116821289
 20
173.4472961425781
 30
0.0
  0
POINT
  5
D3
330
22
100
AcDbEntity
  8
0
  6
Continuous
 62
     7
100
AcDbPoint
 10
-314.5079040527344
 20
173.4472961425781
 30
0.0
  0
POINT
  5
D4
330
22
100
AcDbEntity
  8
0
  6
Continuous
 62
     7
100
AcDbPoint
 10
-104.5079116821289
 20
173.4472961425781
 30
0.0
  0
POINT
  5
D5
330
22
100
AcDbEntity
  8
0
  6
Continuous
 62
     7
100
AcDbPoint
 10
-314.5079040527344
 20
173.4472961425781
 30
0.0
  0
POINT
  5
D6
330
22
100
AcDbEntity
  8
0
  6
Continuous
 62
     7
100
AcDbPoint
 10
-89.76066589355468
 20
197.0283813476563
 30
0.0
  0
LINE
  5
D7
330
22
100
AcDbEntity
  8
0
  6
Continuous
 62
     7
100
AcDbLine
 10
-138.0079040527344
 20
197.3397979736328
 30
0.0
 11
-138.0079040527344
 21
199.4472961425781
 31
0.0
  0
LINE
  5
D8
330
22
100
AcDbEntity
  8
0
  6
Continuous
 62
     7
100
AcDbLine
 10
-108.0079116821289
 20
248.0306854248047
 30
0.0
 11
-105.5912933349609
 21
250.4472961425781
 31
0.0
  0
LINE
  5
D9
330
22
100
AcDbEntity
  8
0
  6
Continuous
 62
     7
100
AcDbLine
 10
-108.0079116821289
 20
245.2022552490234
 30
0.0
 11
-104.5079116821289
 21
248.7022552490234
 31
0.0
  0
LINE
  5
DA
330
22
100
AcDbEntity
  8
0
  6
Continuous
 62
     7
100
AcDbLine
 10
-108.0079116821289
 20
242.3738250732422
 30
0.0
 11
-104.5079116821289
 21
245.8738250732422
 31
0.0
  0
LINE
  5
DB
330
22
100
AcDbEntity
  8
0
  6
Continuous
 62
     7
100
AcDbLine
 10
-108.0079116821289
 20
239.5453948974609
 30
0.0
 11
-104.5079116821289
 21
243.0453948974609
 31
0.0
  0
LINE
  5
DC
330
22
100
AcDbEntity
  8
0
  6
Continuous
 62
     7
100
AcDbLine
 10
-108.0079116821289
 20
236.7169799804688
 30
0.0
 11
-104.5079116821289
 21
240.2169799804688
 31
0.0
  0
LINE
  5
DD
330
22
100
AcDbEntity
  8
0
  6
Continuous
 62
     7
100
AcDbLine
 10
-107.6023330688477
 20
234.2941284179688
 30
0.0
 11
-104.5079116821289
 21
237.3885498046875
 31
0.0
  0
LINE
  5
DE
330
22
100
AcDbEntity
  8
0
  6
Continuous
 62
     7
100
AcDbLine
 10
-108.0079116821289
 20
231.0601196289063
 30
0.0
 11
-104.5079116821289
 21
234.5601196289063
 31
0.0
  0
LINE
  5
DF
330
22
100
AcDbEntity
  8
0
  6
Continuous
 62
     7
100
AcDbLine
 10
-108.0079116821289
 20
228.231689453125
 30
0.0
 11
-104.5079116821289
 21
231.731689453125
 31
0.0
  0
LINE
  5
E0
330
22
100
AcDbEntity
  8
0
  6
Continuous
 62
     7
100
AcDbLine
 10
-138.0079040527344
 20
198.231689453125
 30
0.0
 11
-135.7922973632813
 21
200.4472961425781
 31
0.0
  0
LINE
  5
E1
330
22
100
AcDbEntity
  8
0
  6
Continuous
 62
     7
100
AcDbLine
 10
-108.0079116821289
 20
225.4032592773438
 30
0.0
 11
-104.5079116821289
 21
228.9032592773438
 31
0.0
  0
LINE
  5
E2
330
22
100
AcDbEntity
  8
0
  6
Continuous
 62
     7
100
AcDbLine
 10
-136.0623779296875
 20
197.3488006591797
 30
0.0
 11
-132.9638824462891
 21
200.4472961425781
 31
0.0
  0
LINE
  5
E3
330
22
100
AcDbEntity
  8
0
  6
Continuous
 62
     7
100
AcDbLine
 10
-108.0079116821289
 20
222.5748443603516
 30
0.0
 11
-104.5079116821289
 21
226.0748443603516
 31
0.0
  0
LINE
  5
E4
330
22
100
AcDbEntity
  8
0
  6
Continuous
 62
     7
100
AcDbLine
 10
-133.2339477539063
 20
197.3488006591797
 30
0.0
 11
-130.1354522705078
 21
200.4472961425781
 31
0.0
  0
LINE
  5
E5
330
22
100
AcDbEntity
  8
0
  6
Continuous
 62
     7
100
AcDbLine
 10
-108.0079116821289
 20
219.7464141845703
 30
0.0
 11
-104.5079116821289
 21
223.2464141845703
 31
0.0
  0
LINE
  5
E6
330
22
100
AcDbEntity
  8
0
  6
Continuous
 62
     7
100
AcDbLine
 10
-130.405517578125
 20
197.3488006591797
 30
0.0
 11
-127.3070220947266
 21
200.4472961425781
 31
0.0
  0
LINE
  5
E7
330
22
100
AcDbEntity
  8
0
  6
Continuous
 62
     7
100
AcDbLine
 10
-107.1182479858398
 20
217.8076477050781
 30
0.0
 11
-104.5079116821289
 21
220.4179840087891
 31
0.0
  0
LINE
  5
E8
330
22
100
AcDbEntity
  8
0
  6
Continuous
 62
     7
100
AcDbLine
 10
-127.5770950317383
 20
197.3488006591797
 30
0.0
 11
-124.4785919189453
 21
200.4472961425781
 31
0.0
  0
LINE
  5
E9
330
22
100
AcDbEntity
  8
0
  6
Continuous
 62
     7
100
AcDbLine
 10
-108.0079116821289
 20
214.0895538330078
 30
0.0
 11
-104.5079116821289
 21
217.5895538330078
 31
0.0
  0
LINE
  5
EA
330
22
100
AcDbEntity
  8
0
  6
Continuous
 62
     7
100
AcDbLine
 10
-124.748664855957
 20
197.3488006591797
 30
0.0
 11
-121.6501693725586
 21
200.4472961425781
 31
0.0
  0
LINE
  5
EB
330
22
100
AcDbEntity
  8
0
  6
Continuous
 62
     7
100
AcDbLine
 10
-121.9202423095703
 20
197.3488006591797
 30
0.0
 11
-118.8217391967773
 21
200.4472961425781
 31
0.0
  0
LINE
  5
EC
330
22
100
AcDbEntity
  8
0
  6
Continuous
 62
     7
100
AcDbLine
 10
-108.0079116821289
 20
208.4327087402344
 30
0.0
 11
-104.5079116821289
 21
211.9327087402344
 31
0.0
  0
LINE
  5
ED
330
22
100
AcDbEntity
  8
0
  6
Continuous
 62
     7
100
AcDbLine
 10
-119.0918121337891
 20
197.3488006591797
 30
0.0
 11
-115.9933090209961
 21
200.4472961425781
 31
0.0
  0
LINE
  5
EE
330
22
100
AcDbEntity
  8
0
  6
Continuous
 62
     7
100
AcDbLine
 10
-108.0079116821289
 20
205.6042785644531
 30
0.0
 11
-104.5079116821289
 21
209.1042785644531
 31
0.0
  0
LINE
  5
EF
330
22
100
AcDbEntity
  8
0
  6
Continuous
 62
     7
100
AcDbLine
 10
-116.2633819580078
 20
197.3488006591797
 30
0.0
 11
-113.1648864746094
 21
200.4472961425781
 31
0.0
  0
LINE
  5
F0
330
22
100
AcDbEntity
  8
0
  6
Continuous
 62
     7
100
AcDbLine
 10
-113.4349594116211
 20
197.3488006591797
 30
0.0
 11
-104.5079116821289
 21
206.2758483886719
 31
0.0
  0
LINE
  5
F1
330
22
100
AcDbEntity
  8
0
  6
Continuous
 62
     7
100
AcDbLine
 10
-110.6065292358398
 20
197.3488006591797
 30
0.0
 11
-104.5079116821289
 21
203.4474182128906
 31
0.0
  0
LINE
  5
F2
330
22
100
AcDbEntity
  8
0
  6
Continuous
 62
     7
100
AcDbLine
 10
-107.7781066894531
 20
197.3488006591797
 30
0.0
 11
-103.6511154174805
 21
201.4757843017578
 31
0.0
  0
LINE
  5
F3
330
22
100
AcDbEntity
  8
0
  6
Continuous
 62
     7
100
AcDbLine
 10
-104.9496765136719
 20
197.3488006591797
 30
0.0
 11
-100.8511734008789
 21
201.4472961425781
 31
0.0
  0
LINE
  5
F4
330
22
100
AcDbEntity
  8
0
  6
Continuous
 62
     7
100
AcDbLine
 10
-102.8507537841797
 20
196.6192932128906
 30
0.0
 11
-98.0227508544922
 21
201.4472961425781
 31
0.0
  0
LINE
  5
F5
330
22
100
AcDbEntity
  8
0
  6
Continuous
 62
     7
100
AcDbLine
 10
-99.93107604980469
 20
196.7105407714844
 30
0.0
 11
-95.19432067871093
 21
201.4472961425781
 31
0.0
  0
LINE
  5
F6
330
22
100
AcDbEntity
  8
0
  6
Continuous
 62
     7
100
AcDbLine
 10
-97.01140594482422
 20
196.8017883300781
 30
0.0
 11
-92.36589813232422
 21
201.4472961425781
 31
0.0
  0
LINE
  5
F7
330
22
100
AcDbEntity
  8
0
  6
Continuous
 62
     7
100
AcDbLine
 10
-94.09173583984376
 20
196.8930358886719
 30
0.0
 11
-89.53746795654296
 21
201.4472961425781
 31
0.0
  0
LINE
  5
F8
330
22
100
AcDbEntity
  8
0
  6
Continuous
 62
     7
100
AcDbLine
 10
-91.17206573486328
 20
196.9842681884766
 30
0.0
 11
-86.70903778076171
 21
201.4472961425781
 31
0.0
  0
LINE
  5
F9
330
22
100
AcDbEntity
  8
0
  6
Continuous
 62
     7
100
AcDbLine
 10
-88.25239562988281
 20
197.0755157470703
 30
0.0
 11
-83.880615234375
 21
201.4472961425781
 31
0.0
  0
LINE
  5
FA
330
22
100
AcDbEntity
  8
0
  6
Continuous
 62
     7
100
AcDbLine
 10
-85.33272552490235
 20
197.1667633056641
 30
0.0
 11
-81.05218505859374
 21
201.4472961425781
 31
0.0
  0
LINE
  5
FB
330
22
100
AcDbEntity
  8
0
  6
Continuous
 62
     7
100
AcDbLine
 10
-82.41304779052734
 20
197.2580108642578
 30
0.0
 11
-80.0079116821289
 21
199.6631469726563
 31
0.0
  0
LINE
  5
FC
330
22
100
AcDbEntity
  8
0
  6
Continuous
 62
     7
100
AcDbLine
 10
-168.0079040527344
 20
200.0773010253906
 30
0.0
 11
-171.4279022216797
 21
200.0773010253906
 31
0.0
  0
LINE
  5
FD
330
22
100
AcDbEntity
  8
0
  6
Continuous
 62
     7
100
AcDbLine
 10
-168.0079040527344
 20
195.8697967529296
 30
0.0
 11
-166.0079040527344
 21
195.8697967529296
 31
0.0
  0
LINE
  5
FE
330
22
100
AcDbEntity
  8
0
  6
Continuous
 62
     7
100
AcDbLine
 10
-113.0079116821289
 20
200.4472961425781
 30
0.0
 11
-137.0079040527344
 21
200.4472961425781
 31
0.0
  0
LINE
  5
FF
330
22
100
AcDbEntity
  8
0
  6
Continuous
 62
     7
100
AcDbLine
 10
-138.0079040527344
 20
197.3488006591797
 30
0.0
 11
-136.5289154052734
 21
195.8697967529296
 31
0.0
  0
LINE
  5
100
330
22
100
AcDbEntity
  8
0
  6
Continuous
 62
     7
100
AcDbLine
 10
-104.5079116821289
 20
202.4472961425781
 30
0.0
 11
-104.5079116821289
 21
249.9472961425781
 31
0.0
  0
LINE
  5
101
330
22
100
AcDbEntity
  8
0
  6
Continuous
 62
     7
100
AcDbLine
 10
-118.0079116821289
 20
195.8697967529296
 30
0.0
 11
-119.4779052734375
 21
197.3397979736328
 31
0.0
  0
LINE
  5
102
330
22
100
AcDbEntity
  8
0
  6
Continuous
 62
     7
100
AcDbLine
 10
-103.5079116821289
 20
201.4472961425781
 30
0.0
 11
-81.00791168212891
 21
201.4472961425781
 31
0.0
  0
LINE
  5
103
330
22
100
AcDbEntity
  8
0
  6
Continuous
 62
     7
100
AcDbLine
 10
-108.0394058227539
 20
196.6164245605469
 30
0.0
 11
-103.4427871704102
 21
196.6164245605469
 31
0.0
  0
LINE
  5
104
330
22
100
AcDbEntity
  8
0
  6
Continuous
 62
     7
100
AcDbLine
 10
-103.4427871704102
 20
196.6164245605469
 30
0.0
 11
-80.0079116821289
 21
197.3488006591797
 31
0.0
  0
LINE
  5
105
330
22
100
AcDbEntity
  8
0
  6
Continuous
 62
     7
100
AcDbLine
 10
-80.0079116821289
 20
197.3488006591797
 30
0.0
 11
-81.53536987304688
 21
195.8213348388672
 31
0.0
  0
LINE
  5
106
330
22
100
AcDbEntity
  8
0
  6
Continuous
 62
     7
100
AcDbLine
 10
-107.0079116821289
 20
217.6972961425781
 30
0.0
 11
-108.0079116821289
 21
218.6972961425781
 31
0.0
  0
LINE
  5
107
330
22
100
AcDbEntity
  8
0
  6
Continuous
 62
     7
100
AcDbLine
 10
-107.0079116821289
 20
233.69970703125
 30
0.0
 11
-108.0079116821289
 21
234.69970703125
 31
0.0
  0
LINE
  5
108
330
22
100
AcDbEntity
  8
0
  6
Continuous
 62
     7
100
AcDbLine
 10
-107.0079116821289
 20
217.6972961425781
 30
0.0
 11
-108.0079116821289
 21
216.6972961425781
 31
0.0
  0
LINE
  5
109
330
22
100
AcDbEntity
  8
0
  6
Continuous
 62
     7
100
AcDbLine
 10
-105.0079116821289
 20
250.4472961425781
 30
0.0
 11
-106.0079116821289
 21
250.4472961425781
 31
0.0
  0
LINE
  5
10A
330
22
100
AcDbEntity
  8
0
  6
Continuous
 62
     7
100
AcDbLine
 10
-108.0079116821289
 20
205.4472961425781
 30
0.0
 11
-108.0079116821289
 21
248.4472961425781
 31
0.0
  0
LINE
  5
10B
330
22
100
AcDbEntity
  8
0
  6
Continuous
 62
     7
100
AcDbLine
 10
-109.5184097290039
 20
195.8697967529296
 30
0.0
 11
-108.0394058227539
 21
197.3488006591797
 31
0.0
  0
LINE
  5
10C
330
22
100
AcDbEntity
  8
0
  6
Continuous
 62
     7
100
AcDbLine
 10
-107.0079116821289
 20
233.69970703125
 30
0.0
 11
-108.0079116821289
 21
232.69970703125
 31
0.0
  0
LINE
  5
10D
330
22
100
AcDbEntity
  8
0
  6
Continuous
 62
     7
100
AcDbLine
 10
-171.8079071044922
 20
203.6972961425781
 30
0.0
 11
-168.3879089355469
 21
203.6972961425781
 31
0.0
  0
LINE
  5
10E
330
22
100
AcDbEntity
  8
0
  6
Continuous
 62
     7
100
AcDbLine
 10
-171.8079071044922
 20
203.6972961425781
 30
0.0
 11
-171.4279022216797
 21
203.3172912597656
 31
0.0
  0
LINE
  5
10F
330
22
100
AcDbEntity
  8
0
  6
Continuous
 62
     7
100
AcDbLine
 10
-171.0079040527344
 20
209.4472961425781
 30
0.0
 11
-171.0079040527344
 21
203.6972961425781
 31
0.0
  0
LINE
  5
110
330
22
100
AcDbEntity
  8
0
  6
Continuous
 62
     7
100
AcDbLine
 10
-171.0079040527344
 20
199.4472961425781
 30
0.0
 11
-172.0579071044921
 21
199.4472961425781
 31
0.0
  0
LINE
  5
111
330
22
100
AcDbEntity
  8
0
  6
Continuous
 62
     7
100
AcDbLine
 10
-171.8079071044922
 20
199.6972961425781
 30
0.0
 11
-168.3879089355469
 21
199.6972961425781
 31
0.0
  0
LINE
  5
112
330
22
100
AcDbEntity
  8
0
  6
Continuous
 62
     7
100
AcDbLine
 10
-168.0079040527344
 20
200.0773010253906
 30
0.0
 11
-168.3879089355469
 21
199.6972961425781
 31
0.0
  0
LINE
  5
113
330
22
100
AcDbEntity
  8
0
  6
Continuous
 62
     7
100
AcDbLine
 10
-168.3879089355469
 20
199.6972961425781
 30
0.0
 11
-168.0079040527344
 21
199.6972961425781
 31
0.0
  0
LINE
  5
114
330
22
100
AcDbEntity
  8
0
  6
Continuous
 62
     7
100
AcDbLine
 10
-168.0079040527344
 20
217.9472961425781
 30
0.0
 11
-168.0079040527344
 21
195.8697967529296
 31
0.0
  0
LINE
  5
115
330
22
100
AcDbEntity
  8
0
  6
Continuous
 62
     7
100
AcDbLine
 10
-118.0079116821289
 20
193.539794921875
 30
0.0
 11
-171.0079040527344
 21
193.539794921875
 31
0.0
  0
LINE
  5
116
330
22
100
AcDbEntity
  8
0
  6
Continuous
 62
     7
100
AcDbLine
 10
-119.4779052734375
 20
197.3397979736328
 30
0.0
 11
-164.5379028320313
 21
197.3397979736328
 31
0.0
  0
LINE
  5
117
330
22
100
AcDbEntity
  8
0
  6
Continuous
 62
     7
100
AcDbLine
 10
-118.0079116821289
 20
195.8697967529296
 30
0.0
 11
-166.0079040527344
 21
195.8697967529296
 31
0.0
  0
LINE
  5
118
330
22
100
AcDbEntity
  8
0
  6
Continuous
 62
     7
100
AcDbLine
 10
-108.0079116821289
 20
248.4472961425781
 30
0.0
 11
-108.0079116821289
 21
234.0156555175781
 31
0.0
  0
LINE
  5
119
330
22
100
AcDbEntity
  8
0
  6
Continuous
 62
     7
100
AcDbLine
 10
-102.0079116821289
 20
195.1815338134766
 30
0.0
 11
-103.4427871704102
 21
196.6164245605469
 31
0.0
  0
LINE
  5
11A
330
22
100
AcDbEntity
  8
0
  6
Continuous
 62
     7
100
AcDbLine
 10
-102.0079116821289
 20
195.1815338134766
 30
0.0
 11
-81.53536987304688
 21
195.8213348388672
 31
0.0
  0
LINE
  5
11B
330
22
100
AcDbEntity
  8
0
  6
Continuous
 62
     7
100
AcDbLine
 10
-136.5289154052734
 20
195.8697967529296
 30
0.0
 11
-109.5184097290039
 21
195.8697967529296
 31
0.0
  0
LINE
  5
11C
330
22
100
AcDbEntity
  8
0
  6
Continuous
 62
     7
100
AcDbLine
 10
-138.0079040527344
 20
197.3488006591797
 30
0.0
 11
-108.0394058227539
 21
197.3488006591797
 31
0.0
  0
LINE
  5
11D
330
22
100
AcDbEntity
  8
0
  6
Continuous
 62
     7
100
AcDbLine
 10
-171.8079071044922
 20
199.6972961425781
 30
0.0
 11
-171.4279022216797
 21
200.0773010253906
 31
0.0
  0
LINE
  5
11E
330
22
100
AcDbEntity
  8
0
  6
Continuous
 62
     7
100
AcDbLine
 10
-168.0079040527344
 20
203.3172912597656
 30
0.0
 11
-168.0079040527344
 21
200.0773010253906
 31
0.0
  0
LINE
  5
11F
330
22
100
AcDbEntity
  8
0
  6
Continuous
 62
     7
100
AcDbLine
 10
-168.0079040527344
 20
203.3172912597656
 30
0.0
 11
-168.3879089355469
 21
203.6972961425781
 31
0.0
  0
LINE
  5
120
330
22
100
AcDbEntity
  8
0
  6
Continuous
 62
     7
100
AcDbLine
 10
-168.3879089355469
 20
203.6972961425781
 30
0.0
 11
-168.0079040527344
 21
203.6972961425781
 31
0.0
  0
LINE
  5
121
330
22
100
AcDbEntity
  8
0
  6
Continuous
 62
     7
100
AcDbLine
 10
-168.0079040527344
 20
217.9472961425781
 30
0.0
 11
-170.0079040527344
 21
217.9472961425781
 31
0.0
  0
LINE
  5
122
330
22
100
AcDbEntity
  8
0
  6
Continuous
 62
     7
100
AcDbLine
 10
-171.0079040527344
 20
203.9472961425781
 30
0.0
 11
-172.0579071044921
 21
203.9472961425781
 31
0.0
  0
LINE
  5
123
330
22
100
AcDbEntity
  8
0
  6
Continuous
 62
     7
100
AcDbLine
 10
-108.0079116821289
 20
98.44729614257813
 30
0.0
 11
-108.0079116821289
 21
173.4472961425781
 31
0.0
  0
LINE
  5
124
330
22
100
AcDbEntity
  8
0
  6
Continuous
 62
     7
100
AcDbLine
 10
-105.0079116821289
 20
96.44729614257812
 30
0.0
 11
-106.0079116821289
 21
96.44729614257812
 31
0.0
  0
LINE
  5
125
330
22
100
AcDbEntity
  8
0
  6
Continuous
 62
     7
100
AcDbLine
 10
-103.5079116821289
 20
145.4472961425781
 30
0.0
 11
-81.00791168212891
 21
145.4472961425781
 31
0.0
  0
LINE
  5
126
330
22
100
AcDbEntity
  8
0
  6
Continuous
 62
     7
100
AcDbLine
 10
-174.0079040527344
 20
209.4472961425781
 30
0.0
 11
-171.0079040527344
 21
209.4472961425781
 31
0.0
  0
LINE
  5
127
330
22
100
AcDbEntity
  8
0
  6
Continuous
 62
     7
100
AcDbLine
 10
-174.0079040527344
 20
205.8972930908203
 30
0.0
 11
-174.0079040527344
 21
197.4972991943359
 31
0.0
  0
LINE
  5
128
330
22
100
AcDbEntity
  8
0
  6
Continuous
 62
     7
100
AcDbLine
 10
-174.0079040527344
 20
197.4972991943359
 30
0.0
 11
-171.8079071044922
 21
199.6972961425781
 31
0.0
  0
LINE
  5
129
330
22
100
AcDbEntity
  8
0
  6
CENTER
 62
     7
100
AcDbLine
 10
-179.6035308837891
 20
201.6972961425781
 30
0.0
 11
-162.6701965332031
 21
201.6972961425781
 31
0.0
  0
LINE
  5
12A
330
22
100
AcDbEntity
  8
0
  6
Continuous
 62
     7
100
AcDbLine
 10
-171.3981475830078
 20
208.9472961425781
 30
0.0
 11
-171.0079040527344
 21
208.5570526123047
 31
0.0
  0
LINE
  5
12B
330
22
100
AcDbEntity
  8
0
  6
Continuous
 62
     7
100
AcDbLine
 10
-173.5194702148438
 20
208.9472961425781
 30
0.0
 11
-171.0079040527344
 21
206.4357299804688
 31
0.0
  0
LINE
  5
12C
330
22
100
AcDbEntity
  8
0
  6
Continuous
 62
     7
100
AcDbLine
 10
-174.0079040527344
 20
208.7286224365234
 30
0.0
 11
-171.0079040527344
 21
205.7286224365234
 31
0.0
  0
LINE
  5
12D
330
22
100
AcDbEntity
  8
0
  6
Continuous
 62
     7
100
AcDbLine
 10
-174.0079040527344
 20
206.6073150634766
 30
0.0
 11
-171.347900390625
 21
203.9472961425781
 31
0.0
  0
LINE
  5
12E
330
22
100
AcDbEntity
  8
0
  6
Continuous
 62
     7
100
AcDbLine
 10
-174.0079040527344
 20
205.9002075195313
 30
0.0
 11
-172.0550079345703
 21
203.9472961425781
 31
0.0
  0
LINE
  5
12F
330
22
100
AcDbEntity
  8
0
  6
Continuous
 62
     7
100
AcDbLine
 10
-174.0079040527344
 20
205.8972930908203
 30
0.0
 11
-171.8079071044922
 21
203.6972961425781
 31
0.0
  0
LINE
  5
130
330
22
100
AcDbEntity
  8
0
  6
Continuous
 62
     7
100
AcDbLine
 10
-174.0079040527344
 20
208.9472961425781
 30
0.0
 11
-171.0079040527344
 21
208.9472961425781
 31
0.0
  0
LINE
  5
131
330
22
100
AcDbEntity
  8
0
  6
Continuous
 62
     7
100
AcDbLine
 10
-170.0079040527344
 20
217.9472961425781
 30
0.0
 11
-174.0079040527344
 21
210.9472961425781
 31
0.0
  0
LINE
  5
132
330
22
100
AcDbEntity
  8
0
  6
Continuous
 62
     7
100
AcDbLine
 10
-170.0795135498047
 20
217.8219909667969
 30
0.0
 11
-169.9542083740234
 21
217.9472961425781
 31
0.0
  0
LINE
  5
133
330
22
100
AcDbEntity
  8
0
  6
Continuous
 62
     7
100
AcDbLine
 10
-173.8507537841797
 20
211.2223358154297
 30
0.0
 11
-168.0079040527344
 21
217.0651702880859
 31
0.0
  0
LINE
  5
134
330
22
100
AcDbEntity
  8
0
  6
Continuous
 62
     7
100
AcDbLine
 10
-172.7973480224609
 20
209.4472961425781
 30
0.0
 11
-168.0079040527344
 21
214.2367401123047
 31
0.0
  0
LINE
  5
135
330
22
100
AcDbEntity
  8
0
  6
Continuous
 62
     7
100
AcDbLine
 10
-171.0079040527344
 20
208.4083099365234
 30
0.0
 11
-168.0079040527344
 21
211.4083099365234
 31
0.0
  0
LINE
  5
136
330
22
100
AcDbEntity
  8
0
  6
Continuous
 62
     7
100
AcDbLine
 10
-171.0079040527344
 20
205.5798950195313
 30
0.0
 11
-168.0079040527344
 21
208.5798950195314
 31
0.0
  0
LINE
  5
137
330
22
100
AcDbEntity
  8
0
  6
Continuous
 62
     7
100
AcDbLine
 10
-170.0620727539063
 20
203.6972961425781
 30
0.0
 11
-168.0079040527344
 21
205.75146484375
 31
0.0
  0
LINE
  5
138
330
22
100
AcDbEntity
  8
0
  6
Continuous
 62
     7
100
AcDbLine
 10
-171.0079040527344
 20
197.0946044921875
 30
0.0
 11
-168.4052124023438
 21
199.6972961425781
 31
0.0
  0
LINE
  5
139
330
22
100
AcDbEntity
  8
0
  6
Continuous
 62
     7
100
AcDbLine
 10
-171.0079040527344
 20
194.2661743164063
 30
0.0
 11
-168.0079040527344
 21
197.2661743164063
 31
0.0
  0
LINE
  5
13A
330
22
100
AcDbEntity
  8
0
  6
Continuous
 62
     7
100
AcDbLine
 10
-168.9058685302734
 20
193.539794921875
 30
0.0
 11
-166.5758666992188
 21
195.8697967529296
 31
0.0
  0
LINE
  5
13B
330
22
100
AcDbEntity
  8
0
  6
Continuous
 62
     7
100
AcDbLine
 10
-166.0774383544922
 20
193.539794921875
 30
0.0
 11
-163.7474365234375
 21
195.8697967529296
 31
0.0
  0
LINE
  5
13C
330
22
100
AcDbEntity
  8
0
  6
Continuous
 62
     7
100
AcDbLine
 10
-163.2490081787109
 20
193.539794921875
 30
0.0
 11
-160.9190063476563
 21
195.8697967529296
 31
0.0
  0
LINE
  5
13D
330
22
100
AcDbEntity
  8
0
  6
Continuous
 62
     7
100
AcDbLine
 10
-160.4205780029297
 20
193.539794921875
 30
0.0
 11
-158.090576171875
 21
195.8697967529296
 31
0.0
  0
LINE
  5
13E
330
22
100
AcDbEntity
  8
0
  6
Continuous
 62
     7
100
AcDbLine
 10
-157.5921478271484
 20
193.539794921875
 30
0.0
 11
-155.2621612548828
 21
195.8697967529296
 31
0.0
  0
LINE
  5
13F
330
22
100
AcDbEntity
  8
0
  6
Continuous
 62
     7
100
AcDbLine
 10
-154.7637329101563
 20
193.539794921875
 30
0.0
 11
-152.4337310791016
 21
195.8697967529296
 31
0.0
  0
LINE
  5
140
330
22
100
AcDbEntity
  8
0
  6
Continuous
 62
     7
100
AcDbLine
 10
-151.935302734375
 20
193.539794921875
 30
0.0
 11
-149.6053009033203
 21
195.8697967529296
 31
0.0
  0
LINE
  5
141
330
22
100
AcDbEntity
  8
0
  6
Continuous
 62
     7
100
AcDbLine
 10
-149.1068725585938
 20
193.539794921875
 30
0.0
 11
-146.7768707275391
 21
195.8697967529296
 31
0.0
  0
LINE
  5
142
330
22
100
AcDbEntity
  8
0
  6
Continuous
 62
     7
100
AcDbLine
 10
-146.2784423828125
 20
193.539794921875
 30
0.0
 11
-143.9484405517578
 21
195.8697967529296
 31
0.0
  0
LINE
  5
143
330
22
100
AcDbEntity
  8
0
  6
Continuous
 62
     7
100
AcDbLine
 10
-143.4500122070313
 20
193.539794921875
 30
0.0
 11
-141.1200256347656
 21
195.8697967529296
 31
0.0
  0
LINE
  5
144
330
22
100
AcDbEntity
  8
0
  6
Continuous
 62
     7
100
AcDbLine
 10
-140.6215972900391
 20
193.539794921875
 30
0.0
 11
-138.2915954589844
 21
195.8697967529296
 31
0.0
  0
LINE
  5
145
330
22
100
AcDbEntity
  8
0
  6
Continuous
 62
     7
100
AcDbLine
 10
-137.7931671142578
 20
193.539794921875
 30
0.0
 11
-135.4631652832031
 21
195.8697967529296
 31
0.0
  0
LINE
  5
146
330
22
100
AcDbEntity
  8
0
  6
Continuous
 62
     7
100
AcDbLine
 10
-134.9647369384766
 20
193.539794921875
 30
0.0
 11
-132.6347351074219
 21
195.8697967529296
 31
0.0
  0
LINE
  5
147
330
22
100
AcDbEntity
  8
0
  6
Continuous
 62
     7
100
AcDbLine
 10
-132.1363067626952
 20
193.539794921875
 30
0.0
 11
-129.8063049316406
 21
195.8697967529296
 31
0.0
  0
LINE
  5
148
330
22
100
AcDbEntity
  8
0
  6
Continuous
 62
     7
100
AcDbLine
 10
-129.3078765869141
 20
193.539794921875
 30
0.0
 11
-126.9778823852539
 21
195.8697967529296
 31
0.0
  0
LINE
  5
149
330
22
100
AcDbEntity
  8
0
  6
Continuous
 62
     7
100
AcDbLine
 10
-126.4794540405273
 20
193.539794921875
 30
0.0
 11
-124.1494598388672
 21
195.8697967529296
 31
0.0
  0
LINE
  5
14A
330
22
100
AcDbEntity
  8
0
  6
Continuous
 62
     7
100
AcDbLine
 10
-123.6510314941406
 20
193.539794921875
 30
0.0
 11
-121.3210296630859
 21
195.8697967529296
 31
0.0
  0
LINE
  5
14B
330
22
100
AcDbEntity
  8
0
  6
Continuous
 62
     7
100
AcDbLine
 10
-120.8226013183594
 20
193.539794921875
 30
0.0
 11
-118.4925994873047
 21
195.8697967529296
 31
0.0
  0
LINE
  5
14C
330
22
100
AcDbEntity
  8
0
  6
Continuous
 62
     7
100
AcDbLine
 10
-168.0079040527344
 20
203.3172912597656
 30
0.0
 11
-171.4279022216797
 21
203.3172912597656
 31
0.0
  0
LINE
  5
14D
330
22
100
AcDbEntity
  8
0
  6
Continuous
 62
     7
100
AcDbLine
 10
-166.0079040527344
 20
195.8697967529296
 30
0.0
 11
-164.5379028320313
 21
197.3397979736328
 31
0.0
  0
LINE
  5
14E
330
22
100
AcDbEntity
  8
0
  6
Continuous
 62
     7
100
AcDbLine
 10
-170.0079040527344
 20
128.9472961425781
 30
0.0
 11
-174.0079040527344
 21
135.9472961425781
 31
0.0
  0
LINE
  5
14F
330
22
100
AcDbEntity
  8
0
  6
Continuous
 62
     7
100
AcDbLine
 10
-166.0079040527344
 20
150.6172943115234
 30
0.0
 11
-164.5379028320313
 21
149.1472930908203
 31
0.0
  0
LINE
  5
150
330
22
100
AcDbEntity
  8
0
  6
Continuous
 62
     7
100
AcDbLine
 10
-138.0079040527344
 20
149.1472930908203
 30
0.0
 11
-164.5379028320313
 21
149.1472930908203
 31
0.0
  0
LINE
  5
151
330
22
100
AcDbEntity
  8
0
  6
Continuous
 62
     7
100
AcDbLine
 10
-166.0079040527344
 20
150.6172943115234
 30
0.0
 11
-138.0079040527344
 21
150.6172943115234
 31
0.0
  0
LINE
  5
152
330
22
100
AcDbEntity
  8
0
  6
Continuous
 62
     7
100
AcDbLine
 10
-104.5079116821289
 20
131.4472961425781
 30
0.0
 11
-102.9474105834961
 21
131.4472961425781
 31
0.0
  0
LINE
  5
153
330
22
100
AcDbEntity
  8
0
  6
Continuous
 62
     7
100
AcDbLine
 10
-104.5079116821289
 20
173.4472961425781
 30
0.0
 11
-104.5079116821289
 21
96.94729614257813
 31
0.0
  0
LINE
  5
154
330
22
100
AcDbEntity
  8
0
  6
Continuous
 62
     7
100
AcDbLine
 10
-168.0079040527344
 20
128.9472961425781
 30
0.0
 11
-170.0079040527344
 21
128.9472961425781
 31
0.0
  0
LINE
  5
155
330
22
100
AcDbEntity
  8
0
  6
Continuous
 62
     7
100
AcDbLine
 10
-168.0079040527344
 20
150.6172943115234
 30
0.0
 11
-166.0079040527344
 21
150.6172943115234
 31
0.0
  0
LINE
  5
156
330
22
100
AcDbEntity
  8
0
  6
Continuous
 62
     7
100
AcDbLine
 10
-113.0079116821289
 20
146.4472961425781
 30
0.0
 11
-137.0079040527344
 21
146.4472961425781
 31
0.0
  0
LINE
  5
157
330
22
100
AcDbEntity
  8
0
  6
Continuous
 62
     7
100
AcDbLine
 10
-90.50791168212892
 20
145.4472961425781
 30
0.0
 11
-90.50791168212892
 21
143.0276641845703
 31
0.0
  0
LINE
  5
158
330
22
100
AcDbEntity
  8
0
  6
Continuous
 62
     7
100
AcDbLine
 10
-80.0079116821289
 20
146.4472961425781
 30
0.0
 11
-80.0079116821289
 21
200.4472961425781
 31
0.0
  0
LINE
  5
159
330
22
100
AcDbEntity
  8
0
  6
Continuous
 62
     7
100
AcDbLine
 10
-174.0079040527344
 20
176.4472961425781
 30
0.0
 11
-171.0079040527344
 21
176.4472961425781
 31
0.0
  0
LINE
  5
15A
330
22
100
AcDbEntity
  8
0
  6
Continuous
 62
     7
100
AcDbLine
 10
-174.0079040527344
 20
210.9472961425781
 30
0.0
 11
-174.0079040527344
 21
135.9472961425781
 31
0.0
  0
LINE
  5
15B
330
22
100
AcDbEntity
  8
0
  6
Continuous
 62
     7
100
AcDbLine
 10
-171.5410919189453
 20
199.4472961425781
 30
0.0
 11
-171.0079040527344
 21
198.9141082763672
 31
0.0
  0
LINE
  5
15C
330
22
100
AcDbEntity
  8
0
  6
Continuous
 62
     7
100
AcDbLine
 10
-172.8601531982422
 20
198.6450500488281
 30
0.0
 11
-171.0079040527344
 21
196.7928009033203
 31
0.0
  0
LINE
  5
15D
330
22
100
AcDbEntity
  8
0
  6
Continuous
 62
     7
100
AcDbLine
 10
-173.2137145996094
 20
198.2914886474609
 30
0.0
 11
-171.0079040527344
 21
196.085693359375
 31
0.0
  0
LINE
  5
15E
330
22
100
AcDbEntity
  8
0
  6
Continuous
 62
     7
100
AcDbLine
 10
-174.0079040527344
 20
196.9643707275391
 30
0.0
 11
-171.0079040527344
 21
193.9643707275391
 31
0.0
  0
LINE
  5
15F
330
22
100
AcDbEntity
  8
0
  6
Continuous
 62
     7
100
AcDbLine
 10
-174.0079040527344
 20
196.2572631835938
 30
0.0
 11
-171.0079040527344
 21
193.2572631835938
 31
0.0
  0
LINE
  5
160
330
22
100
AcDbEntity
  8
0
  6
Continuous
 62
     7
100
AcDbLine
 10
-174.0079040527344
 20
194.1359405517578
 30
0.0
 11
-171.0079040527344
 21
191.1359405517578
 31
0.0
  0
LINE
  5
161
330
22
100
AcDbEntity
  8
0
  6
Continuous
 62
     7
100
AcDbLine
 10
-174.0079040527344
 20
193.4288330078125
 30
0.0
 11
-171.0079040527344
 21
190.4288330078125
 31
0.0
  0
LINE
  5
162
330
22
100
AcDbEntity
  8
0
  6
Continuous
 62
     7
100
AcDbLine
 10
-174.0079040527344
 20
191.3075103759766
 30
0.0
 11
-171.0079040527344
 21
188.3075103759766
 31
0.0
  0
LINE
  5
163
330
22
100
AcDbEntity
  8
0
  6
Continuous
 62
     7
100
AcDbLine
 10
-174.0079040527344
 20
190.6004028320313
 30
0.0
 11
-171.0079040527344
 21
187.6004028320313
 31
0.0
  0
LINE
  5
164
330
22
100
AcDbEntity
  8
0
  6
Continuous
 62
     7
100
AcDbLine
 10
-174.0079040527344
 20
188.4790802001953
 30
0.0
 11
-171.0079040527344
 21
185.4790802001953
 31
0.0
  0
LINE
  5
165
330
22
100
AcDbEntity
  8
0
  6
Continuous
 62
     7
100
AcDbLine
 10
-174.0079040527344
 20
187.77197265625
 30
0.0
 11
-171.0079040527344
 21
184.77197265625
 31
0.0
  0
LINE
  5
166
330
22
100
AcDbEntity
  8
0
  6
Continuous
 62
     7
100
AcDbLine
 10
-174.0079040527344
 20
185.6506652832031
 30
0.0
 11
-171.0079040527344
 21
182.6506652832031
 31
0.0
  0
LINE
  5
167
330
22
100
AcDbEntity
  8
0
  6
Continuous
 62
     7
100
AcDbLine
 10
-174.0079040527344
 20
184.9435577392578
 30
0.0
 11
-171.0079040527344
 21
181.9435577392578
 31
0.0
  0
LINE
  5
168
330
22
100
AcDbEntity
  8
0
  6
Continuous
 62
     7
100
AcDbLine
 10
-174.0079040527344
 20
182.8222351074219
 30
0.0
 11
-171.0079040527344
 21
179.8222351074219
 31
0.0
  0
LINE
  5
169
330
22
100
AcDbEntity
  8
0
  6
Continuous
 62
     7
100
AcDbLine
 10
-174.0079040527344
 20
182.1151275634766
 30
0.0
 11
-171.0079040527344
 21
179.1151275634766
 31
0.0
  0
LINE
  5
16A
330
22
100
AcDbEntity
  8
0
  6
Continuous
 62
     7
100
AcDbLine
 10
-174.0079040527344
 20
179.9938049316406
 30
0.0
 11
-171.0079040527344
 21
176.9938049316406
 31
0.0
  0
LINE
  5
16B
330
22
100
AcDbEntity
  8
0
  6
Continuous
 62
     7
100
AcDbLine
 10
-174.0079040527344
 20
179.2866973876953
 30
0.0
 11
-171.1685028076172
 21
176.4472961425781
 31
0.0
  0
LINE
  5
16C
330
22
100
AcDbEntity
  8
0
  6
Continuous
 62
     7
100
AcDbLine
 10
-174.0079040527344
 20
177.1653747558594
 30
0.0
 11
-173.2898254394531
 21
176.4472961425781
 31
0.0
  0
LINE
  5
16D
330
22
100
AcDbEntity
  8
0
  6
Continuous
 62
     7
100
AcDbLine
 10
-174.0079040527344
 20
176.4582672119141
 30
0.0
 11
-173.9969329833984
 21
176.4472961425781
 31
0.0
  0
LINE
  5
16E
330
22
100
AcDbEntity
  8
0
  6
CENTER
 62
     7
100
AcDbLine
 10
-75.27156066894531
 20
173.4472961425781
 30
0.0
 11
-184.5958251953125
 21
173.4472961425781
 31
0.0
  0
LINE
  5
16F
330
22
100
AcDbEntity
  8
0
  6
Continuous
 62
     7
100
AcDbLine
 10
-170.0079040527344
 20
131.1753845214844
 30
0.0
 11
-170.0079040527344
 21
173.4472961425781
 31
0.0
  0
LINE
  5
170
330
22
100
AcDbEntity
  8
0
  6
Continuous
 62
     7
100
AcDbLine
 10
-174.0079040527344
 20
178.7086791992188
 30
0.0
 11
-174.0079040527344
 21
174.2270965576172
 31
0.0
  0
LINE
  5
171
330
22
100
AcDbEntity
  8
0
  6
Continuous
 62
     7
100
AcDbLine
 10
-118.0079116821289
 20
178.7086791992188
 30
0.0
 11
-118.0079116821289
 21
174.2270965576172
 31
0.0
  0
LINE
  5
172
330
22
100
AcDbEntity
  8
0
  6
Continuous
 62
     7
100
AcDbLine
 10
-108.0394058227539
 20
197.3488006591797
 30
0.0
 11
-108.0394058227539
 21
173.4472961425781
 31
0.0
  0
LINE
  5
173
330
22
100
AcDbEntity
  8
0
  6
Continuous
 62
     7
100
AcDbLine
 10
-166.0079040527344
 20
150.6172943115234
 30
0.0
 11
-166.0079040527344
 21
173.4472961425781
 31
0.0
  0
LINE
  5
174
330
22
100
AcDbEntity
  8
0
  6
Continuous
 62
     7
100
AcDbLine
 10
-171.0079040527344
 20
199.6972961425781
 30
0.0
 11
-171.0079040527344
 21
173.4472961425781
 31
0.0
  0
LINE
  5
175
330
22
100
AcDbEntity
  8
0
  6
Continuous
 62
     7
100
AcDbLine
 10
-168.0079040527344
 20
173.4472961425781
 30
0.0
 11
-168.0079040527344
 21
128.9472961425781
 31
0.0
  0
LINE
  5
176
330
22
100
AcDbEntity
  8
0
  6
Continuous
 62
     7
100
AcDbLine
 10
-138.0079040527344
 20
147.4472961425781
 30
0.0
 11
-138.0079040527344
 21
173.4472961425781
 31
0.0
  0
LINE
  5
177
330
22
100
AcDbEntity
  8
0
  6
Continuous
 62
     7
100
AcDbLine
 10
-118.0079116821289
 20
195.8697967529296
 30
0.0
 11
-118.0079116821289
 21
173.4472961425781
 31
0.0
  0
LINE
  5
178
330
22
100
AcDbEntity
  8
0
  6
Continuous
 62
     7
100
AcDbLine
 10
-103.4427871704102
 20
196.6164245605469
 30
0.0
 11
-103.4427871704102
 21
173.4472961425781
 31
0.0
  0
LINE
  5
179
330
22
100
AcDbEntity
  8
0
  6
Continuous
 62
     7
100
AcDbLine
 10
-102.0079116821289
 20
173.4472961425781
 30
0.0
 11
-102.0079116821289
 21
195.1815338134766
 31
0.0
  0
LINE
  5
17A
330
22
100
AcDbEntity
  8
0
  6
Continuous
 62
     7
100
AcDbLine
 10
-109.5079116821289
 20
173.4472961425781
 30
0.0
 11
-109.5079116821289
 21
195.8697967529296
 31
0.0
  0
LINE
  5
17B
330
22
100
AcDbEntity
  8
0
  6
Continuous
 62
     7
100
AcDbLine
 10
-81.53536987304688
 20
195.8213348388672
 30
0.0
 11
-81.53536987304688
 21
173.4472961425781
 31
0.0
  0
LINE
  5
17C
330
22
100
AcDbEntity
  8
0
  6
Continuous
 62
     7
100
AcDbLine
 10
-316.6139831542969
 20
199.1028137207031
 30
0.0
 11
-315.8204956054688
 21
202.0107116699219
 31
0.0
  0
LINE
  5
17D
330
22
100
AcDbEntity
  8
0
  6
Continuous
 62
     7
100
AcDbLine
 10
-318.0986633300781
 20
204.3370208740234
 30
0.0
 11
-315.1700439453125
 21
203.5343475341797
 31
0.0
  0
LINE
  5
17E
330
22
100
AcDbEntity
  8
0
  6
Continuous
 62
     7
100
AcDbLine
 10
-318.4258728027344
 20
203.570556640625
 30
0.0
 11
-315.8204956054688
 21
202.0107116699219
 31
0.0
  0
LINE
  5
17F
330
22
100
AcDbEntity
  8
0
  6
Continuous
 62
     7
100
AcDbLine
 10
-316.6139831542969
 20
199.1028137207031
 30
0.0
 11
-316.2310485839844
 21
198.9393310546875
 31
0.0
  0
LINE
  5
180
330
22
100
AcDbEntity
  8
0
  6
Continuous
 62
     7
100
AcDbLine
 10
-315.8480834960938
 20
198.7758483886719
 30
0.0
 11
-314.296875
 21
201.3602600097656
 31
0.0
  0
LINE
  5
181
330
22
100
AcDbEntity
  8
0
  6
Continuous
 62
     7
100
AcDbLine
 10
-311.2046508789063
 20
200.9408111572266
 30
0.0
 11
-311.0410461425781
 21
201.3240509033203
 31
0.0
  0
LINE
  5
182
330
22
100
AcDbEntity
  8
0
  6
Continuous
 62
     7
100
AcDbLine
 10
-311.0410461425781
 20
201.3240509033203
 30
0.0
 11
-313.6463928222656
 21
202.8838806152344
 31
0.0
  0
LINE
  5
183
330
22
100
AcDbEntity
  8
0
  6
Continuous
 62
     7
100
AcDbLine
 10
-311.3682556152344
 20
200.5575714111328
 30
0.0
 11
-314.296875
 21
201.3602600097656
 31
0.0
  0
LINE
  5
184
330
22
100
AcDbEntity
  8
0
  6
Continuous
 62
     7
100
AcDbLine
 10
-324.5834350585938
 20
182.5549163818359
 30
0.0
 11
-324.5834350585938
 21
190.2549285888672
 31
0.0
  0
LINE
  5
185
330
22
100
AcDbEntity
  8
0
  6
Continuous
 62
     7
100
AcDbLine
 10
-315.4834594726563
 20
177.6575469970703
 30
0.0
 11
-315.4834594726563
 21
191.8575592041016
 31
0.0
  0
LINE
  5
186
330
22
100
AcDbEntity
  8
0
  6
Continuous
 62
     7
100
AcDbLine
 10
-319.283447265625
 20
177.6570434570313
 30
0.0
 11
-319.283447265625
 21
191.8575592041016
 31
0.0
  0
LINE
  5
187
330
22
100
AcDbEntity
  8
0
  6
Continuous
 62
     7
100
AcDbLine
 10
-313.9834594726563
 20
177.6575469970703
 30
0.0
 11
-313.9834594726563
 21
191.8575592041016
 31
0.0
  0
LINE
  5
188
330
22
100
AcDbEntity
  8
0
  6
Continuous
 62
     7
100
AcDbLine
 10
-310.1834411621094
 20
177.6570434570313
 30
0.0
 11
-310.1834411621094
 21
191.8575592041016
 31
0.0
  0
LINE
  5
189
330
22
100
AcDbEntity
  8
0
  6
Continuous
 62
     7
100
AcDbLine
 10
-311.2046508789063
 20
200.9408111572266
 30
0.0
 11
-311.3682556152344
 21
200.5575714111328
 31
0.0
  0
LINE
  5
18A
330
22
100
AcDbEntity
  8
0
  6
Continuous
 62
     7
100
AcDbLine
 10
-313.6188049316406
 20
206.1187591552734
 30
0.0
 11
-313.2358703613281
 21
205.9552612304688
 31
0.0
  0
LINE
  5
18B
330
22
100
AcDbEntity
  8
0
  6
Continuous
 62
     7
100
AcDbLine
 10
-312.8529052734375
 20
205.7917785644531
 30
0.0
 11
-313.2358703613281
 21
205.9552612304688
 31
0.0
  0
LINE
  5
18C
330
22
100
AcDbEntity
  8
0
  6
Continuous
 62
     7
100
AcDbLine
 10
-315.8480834960938
 20
198.7758483886719
 30
0.0
 11
-316.2310485839844
 21
198.9393310546875
 31
0.0
  0
LINE
  5
18D
330
22
100
AcDbEntity
  8
0
  6
Continuous
 62
     7
100
AcDbLine
 10
-304.8834533691406
 20
182.5549163818359
 30
0.0
 11
-304.8834533691406
 21
190.2549285888672
 31
0.0
  0
LINE
  5
18E
330
22
100
AcDbEntity
  8
0
  6
Continuous
 62
     7
100
AcDbLine
 10
-318.2622680664063
 20
203.9537811279297
 30
0.0
 11
-318.0986633300781
 21
204.3370208740234
 31
0.0
  0
LINE
  5
18F
330
22
100
AcDbEntity
  8
0
  6
Continuous
 62
     7
100
AcDbLine
 10
-313.6188049316406
 20
206.1187591552734
 30
0.0
 11
-315.1700439453125
 21
203.5343475341797
 31
0.0
  0
LINE
  5
190
330
22
100
AcDbEntity
  8
0
  6
Continuous
 62
     7
100
AcDbLine
 10
-312.8529052734375
 20
205.7917785644531
 30
0.0
 11
-313.6463928222656
 21
202.8838806152344
 31
0.0
  0
LINE
  5
191
330
22
100
AcDbEntity
  8
0
  6
Continuous
 62
     7
100
AcDbLine
 10
-318.2622680664063
 20
203.9537811279297
 30
0.0
 11
-318.4258728027344
 21
203.570556640625
 31
0.0
  0
LINE
  5
192
330
22
100
AcDbEntity
  8
0
  6
Continuous
 62
     7
100
AcDbLine
 10
-315.8480834960938
 20
140.7758483886719
 30
0.0
 11
-316.2310485839844
 21
140.9393310546875
 31
0.0
  0
LINE
  5
193
330
22
100
AcDbEntity
  8
0
  6
Continuous
 62
     7
100
AcDbLine
 10
-311.2046508789063
 20
142.9408111572266
 30
0.0
 11
-311.3682556152344
 21
142.5575714111328
 31
0.0
  0
LINE
  5
194
330
22
100
AcDbEntity
  8
0
  6
Continuous
 62
     7
100
AcDbLine
 10
-311.3682556152344
 20
142.5575714111328
 30
0.0
 11
-314.296875
 21
143.3602600097656
 31
0.0
  0
LINE
  5
195
330
22
100
AcDbEntity
  8
0
  6
Continuous
 62
     7
100
AcDbLine
 10
-304.8834533691406
 20
164.3396759033203
 30
0.0
 11
-304.8834533691406
 21
156.6396789550781
 31
0.0
  0
LINE
  5
196
330
22
100
AcDbEntity
  8
0
  6
Continuous
 62
     7
100
AcDbLine
 10
-310.1834411621094
 20
169.237548828125
 30
0.0
 11
-310.1834411621094
 21
155.0370483398438
 31
0.0
  0
LINE
  5
197
330
22
100
AcDbEntity
  8
0
  6
Continuous
 62
     7
100
AcDbLine
 10
-313.9834594726563
 20
169.2370452880859
 30
0.0
 11
-313.9834594726563
 21
155.0370483398438
 31
0.0
  0
LINE
  5
198
330
22
100
AcDbEntity
  8
0
  6
Continuous
 62
     7
100
AcDbLine
 10
-318.4258728027344
 20
145.570556640625
 30
0.0
 11
-315.8204956054688
 21
144.0107116699219
 31
0.0
  0
LINE
  5
199
330
22
100
AcDbEntity
  8
0
  6
Continuous
 62
     7
100
AcDbLine
 10
-311.2046508789063
 20
142.9408111572266
 30
0.0
 11
-311.0410461425781
 21
143.3240509033203
 31
0.0
  0
LINE
  5
19A
330
22
100
AcDbEntity
  8
0
  6
Continuous
 62
     7
100
AcDbLine
 10
-318.0986633300781
 20
146.3370208740234
 30
0.0
 11
-315.1700439453125
 21
145.5343475341797
 31
0.0
  0
LINE
  5
19B
330
22
100
AcDbEntity
  8
0
  6
Continuous
 62
     7
100
AcDbLine
 10
-316.6139831542969
 20
141.1028137207031
 30
0.0
 11
-315.8204956054688
 21
144.0107116699219
 31
0.0
  0
LINE
  5
19C
330
22
100
AcDbEntity
  8
0
  6
Continuous
 62
     7
100
AcDbLine
 10
-315.8480834960938
 20
140.7758483886719
 30
0.0
 11
-314.296875
 21
143.3602600097656
 31
0.0
  0
LINE
  5
19D
330
22
100
AcDbEntity
  8
0
  6
Continuous
 62
     7
100
AcDbLine
 10
-312.8529052734375
 20
147.7917785644531
 30
0.0
 11
-313.6463928222656
 21
144.8838806152344
 31
0.0
  0
LINE
  5
19E
330
22
100
AcDbEntity
  8
0
  6
Continuous
 62
     7
100
AcDbLine
 10
-318.2622680664063
 20
145.9537811279297
 30
0.0
 11
-318.0986633300781
 21
146.3370208740234
 31
0.0
  0
LINE
  5
19F
330
22
100
AcDbEntity
  8
0
  6
Continuous
 62
     7
100
AcDbLine
 10
-313.6188049316406
 20
148.1187591552734
 30
0.0
 11
-313.2358703613281
 21
147.9552612304688
 31
0.0
  0
LINE
  5
1A0
330
22
100
AcDbEntity
  8
0
  6
Continuous
 62
     7
100
AcDbLine
 10
-318.2622680664063
 20
145.9537811279297
 30
0.0
 11
-318.4258728027344
 21
145.570556640625
 31
0.0
  0
LINE
  5
1A1
330
22
100
AcDbEntity
  8
0
  6
Continuous
 62
     7
100
AcDbLine
 10
-311.0410461425781
 20
143.3240509033203
 30
0.0
 11
-313.6463928222656
 21
144.8838806152344
 31
0.0
  0
LINE
  5
1A2
330
22
100
AcDbEntity
  8
0
  6
Continuous
 62
     7
100
AcDbLine
 10
-308.6834411621094
 20
182.5549163818359
 30
0.0
 11
-308.6834411621094
 21
190.2626953125
 31
0.0
  0
LINE
  5
1A3
330
22
100
AcDbEntity
  8
0
  6
Continuous
 62
     7
100
AcDbLine
 10
-320.783447265625
 20
182.5549163818359
 30
0.0
 11
-320.783447265625
 21
190.2626953125
 31
0.0
  0
LINE
  5
1A4
330
22
100
AcDbEntity
  8
0
  6
Continuous
 62
     7
100
AcDbLine
 10
-320.783447265625
 20
164.3396759033203
 30
0.0
 11
-320.783447265625
 21
156.6318969726563
 31
0.0
  0
LINE
  5
1A5
330
22
100
AcDbEntity
  8
0
  6
Continuous
 62
     7
100
AcDbLine
 10
-326.0834350585938
 20
170.5936584472656
 30
0.0
 11
-326.0834350585938
 21
160.3936614990234
 31
0.0
  0
LINE
  5
1A6
330
22
100
AcDbEntity
  8
0
  6
Continuous
 62
     7
100
AcDbLine
 10
-329.8834533691406
 20
170.5936584472656
 30
0.0
 11
-329.8834533691406
 21
160.3936614990234
 31
0.0
  0
LINE
  5
1A7
330
22
100
AcDbEntity
  8
0
  6
Continuous
 62
     7
100
AcDbLine
 10
-324.5834350585938
 20
164.3396759033203
 30
0.0
 11
-324.5834350585938
 21
156.6396789550781
 31
0.0
  0
LINE
  5
1A8
330
22
100
AcDbEntity
  8
0
  6
Continuous
 62
     7
100
AcDbLine
 10
-308.6834411621094
 20
164.3396759033203
 30
0.0
 11
-308.6834411621094
 21
156.6318969726563
 31
0.0
  0
LINE
  5
1A9
330
22
100
AcDbEntity
  8
0
  6
Continuous
 62
     7
100
AcDbLine
 10
-303.3834533691406
 20
170.5936584472656
 30
0.0
 11
-303.3834533691406
 21
160.3936614990234
 31
0.0
  0
LINE
  5
1AA
330
22
100
AcDbEntity
  8
0
  6
Continuous
 62
     7
100
AcDbLine
 10
-315.4834594726563
 20
169.2370452880859
 30
0.0
 11
-315.4834594726563
 21
155.0370483398438
 31
0.0
  0
LINE
  5
1AB
330
22
100
AcDbEntity
  8
0
  6
Continuous
 62
     7
100
AcDbLine
 10
-319.283447265625
 20
169.237548828125
 30
0.0
 11
-319.283447265625
 21
155.0370483398438
 31
0.0
  0
LINE
  5
1AC
330
22
100
AcDbEntity
  8
0
  6
Continuous
 62
     7
100
AcDbLine
 10
-299.5834350585938
 20
170.5936584472656
 30
0.0
 11
-299.5834350585938
 21
160.3936614990234
 31
0.0
  0
LINE
  5
1AD
330
22
100
AcDbEntity
  8
0
  6
Continuous
 62
     7
100
AcDbLine
 10
-313.6188049316406
 20
148.1187591552734
 30
0.0
 11
-315.1700439453125
 21
145.5343475341797
 31
0.0
  0
LINE
  5
1AE
330
22
100
AcDbEntity
  8
0
  6
Continuous
 62
     7
100
AcDbLine
 10
-312.8529052734375
 20
147.7917785644531
 30
0.0
 11
-313.2358703613281
 21
147.9552612304688
 31
0.0
  0
LINE
  5
1AF
330
22
100
AcDbEntity
  8
0
  6
Continuous
 62
     7
100
AcDbLine
 10
-316.6139831542969
 20
141.1028137207031
 30
0.0
 11
-316.2310485839844
 21
140.9393310546875
 31
0.0
  0
LINE
  5
1B0
330
22
100
AcDbEntity
  8
0
  6
CENTER
 62
     7
100
AcDbLine
 10
-230.0337066650391
 20
173.4472961425781
 30
0.0
 11
-399.4331970214844
 21
173.4472961425781
 31
0.0
  0
LINE
  5
1B1
330
22
100
AcDbEntity
  8
0
  6
Continuous
 62
     7
100
AcDbLine
 10
-329.8834533691406
 20
176.3009338378906
 30
0.0
 11
-329.8834533691406
 21
186.5009307861328
 31
0.0
  0
LINE
  5
1B2
330
22
100
AcDbEntity
  8
0
  6
Continuous
 62
     7
100
AcDbLine
 10
-331.3834533691406
 20
162.459228515625
 30
0.0
 11
-331.3834533691406
 21
184.4353637695313
 31
0.0
  0
LINE
  5
1B3
330
22
100
AcDbEntity
  8
0
  6
Continuous
 62
     7
100
AcDbLine
 10
-320.783447265625
 20
177.2973022460938
 30
0.0
 11
-320.783447265625
 21
169.5895233154297
 31
0.0
  0
LINE
  5
1B4
330
22
100
AcDbEntity
  8
0
  6
Continuous
 62
     7
100
AcDbLine
 10
-308.6834411621094
 20
177.2973022460938
 30
0.0
 11
-308.6834411621094
 21
169.5895233154297
 31
0.0
  0
LINE
  5
1B5
330
22
100
AcDbEntity
  8
0
  6
Continuous
 62
     7
100
AcDbLine
 10
-299.5834350585938
 20
176.3009338378906
 30
0.0
 11
-299.5834350585938
 21
186.5009307861328
 31
0.0
  0
LINE
  5
1B6
330
22
100
AcDbEntity
  8
0
  6
Continuous
 62
     7
100
AcDbLine
 10
-324.5834350585938
 20
177.2973022460938
 30
0.0
 11
-324.5834350585938
 21
169.5972900390625
 31
0.0
  0
LINE
  5
1B7
330
22
100
AcDbEntity
  8
0
  6
Continuous
 62
     7
100
AcDbLine
 10
-303.3834533691406
 20
176.3009338378906
 30
0.0
 11
-303.3834533691406
 21
186.5009307861328
 31
0.0
  0
LINE
  5
1B8
330
22
100
AcDbEntity
  8
0
  6
Continuous
 62
     7
100
AcDbLine
 10
-326.0834350585938
 20
176.3009338378906
 30
0.0
 11
-326.0834350585938
 21
186.5009307861328
 31
0.0
  0
LINE
  5
1B9
330
22
100
AcDbEntity
  8
0
  6
Continuous
 62
     7
100
AcDbLine
 10
-304.8834533691406
 20
177.2973022460938
 30
0.0
 11
-304.8834533691406
 21
169.5972900390625
 31
0.0
  0
LINE
  5
1BA
330
22
100
AcDbEntity
  8
0
  6
CENTER
 62
     7
100
AcDbLine
 10
-314.5079040527344
 20
86.98523712158204
 30
0.0
 11
-314.5079040527344
 21
256.8146667480469
 31
0.0
  0
LINE
  5
1BB
330
22
100
AcDbEntity
  8
0
  6
Continuous
 62
     7
100
AcDbLine
 10
-298.0834350585938
 20
162.459228515625
 30
0.0
 11
-298.0834350585938
 21
184.4353637695313
 31
0.0
  0
LINE
  5
1BC
330
22
100
AcDbEntity
  8
0
  6
PHANTOM
 62
     7
100
AcDbLine
 10
-168.0079040527344
 20
125.9472961425781
 30
0.0
 11
-171.7488708496094
 21
125.9472961425781
 31
0.0
  0
ARC
  5
1BD
330
22
100
AcDbEntity
  8
0
  6
Continuous
 62
     7
100
AcDbCircle
 10
-103.5079116821289
 20
202.4472961425781
 30
0.0
 40
1.0
100
AcDbArc
 50
180.0000000000004
 51
270.0000000000005
  0
ARC
  5
1BE
330
22
100
AcDbEntity
  8
0
  6
Continuous
 62
     7
100
AcDbCircle
 10
-137.0079040527344
 20
199.4472961425781
 30
0.0
 40
1.0
100
AcDbArc
 50
90.00000000000019
 51
180.0000000000004
  0
ARC
  5
1BF
330
22
100
AcDbEntity
  8
0
  6
Continuous
 62
     7
100
AcDbCircle
 10
-113.0079116821289
 20
205.4472961425781
 30
0.0
 40
5.0
100
AcDbArc
 50
270.0000000000005
 51
0.0
  0
ARC
  5
1C0
330
22
100
AcDbEntity
  8
0
  6
Continuous
 62
     7
100
AcDbCircle
 10
-105.0079116821289
 20
249.9472961425781
 30
0.0
 40
0.5
100
AcDbArc
 50
0.0
 51
90.00000000000019
  0
ARC
  5
1C1
330
22
100
AcDbEntity
  8
0
  6
Continuous
 62
     7
100
AcDbCircle
 10
-81.00791168212891
 20
200.4472961425781
 30
0.0
 40
1.0
100
AcDbArc
 50
0.0
 51
90.00000000000019
  0
ARC
  5
1C2
330
22
100
AcDbEntity
  8
0
  6
Continuous
 62
     7
100
AcDbCircle
 10
-106.0079116821289
 20
248.4472961425781
 30
0.0
 40
2.0
100
AcDbArc
 50
90.00000000000019
 51
180.0000000000004
  0
ARC
  5
1C3
330
22
100
AcDbEntity
  8
0
  6
Continuous
 62
     7
100
AcDbCircle
 10
-105.0079116821289
 20
96.94729614257813
 30
0.0
 40
0.5
100
AcDbArc
 50
270.0000000000005
 51
0.0
  0
ARC
  5
1C4
330
22
100
AcDbEntity
  8
0
  6
Continuous
 62
     7
100
AcDbCircle
 10
-102.9474105834961
 20
133.4472961425781
 30
0.0
 40
2.0
100
AcDbArc
 50
270.0000000000005
 51
338.8247746927407
  0
ARC
  5
1C5
330
22
100
AcDbEntity
  8
0
  6
Continuous
 62
     7
100
AcDbCircle
 10
-113.0079116821289
 20
141.4472961425781
 30
0.0
 40
5.0
100
AcDbArc
 50
0.0
 51
90.00000000000019
  0
ARC
  5
1C6
330
22
100
AcDbEntity
  8
0
  6
Continuous
 62
     7
100
AcDbCircle
 10
-103.5079116821289
 20
144.4472961425781
 30
0.0
 40
1.0
100
AcDbArc
 50
90.00000000000019
 51
180.0000000000004
  0
ARC
  5
1C7
330
22
100
AcDbEntity
  8
0
  6
Continuous
 62
     7
100
AcDbCircle
 10
-92.50791168212892
 20
143.0276641845703
 30
0.0
 40
2.0
100
AcDbArc
 50
286.2607817215492
 51
0.0
  0
ARC
  5
1C8
330
22
100
AcDbEntity
  8
0
  6
Continuous
 62
     7
100
AcDbCircle
 10
-81.00791168212891
 20
146.4472961425781
 30
0.0
 40
1.0
100
AcDbArc
 50
270.0000000000005
 51
0.0
  0
ARC
  5
1C9
330
22
100
AcDbEntity
  8
0
  6
Continuous
 62
     7
100
AcDbCircle
 10
-88.02774810791015
 20
127.6677093505859
 30
0.0
 40
14.0
100
AcDbArc
 50
106.2608166933283
 51
158.8245774423801
  0
ARC
  5
1CA
330
22
100
AcDbEntity
  8
0
  6
Continuous
 62
     7
100
AcDbCircle
 10
-106.0079116821289
 20
98.44729614257813
 30
0.0
 40
2.0
100
AcDbArc
 50
180.0000000000004
 51
270.0000000000005
  0
ARC
  5
1CB
330
22
100
AcDbEntity
  8
0
  6
Continuous
 62
     7
100
AcDbCircle
 10
-137.0079040527344
 20
147.4472961425781
 30
0.0
 40
1.0
100
AcDbArc
 50
180.0000000000004
 51
270.0000000000005
  0
ARC
  5
1CC
330
22
100
AcDbEntity
  8
0
  6
Continuous
 62
     7
100
AcDbCircle
 10
-306.783447265625
 20
177.2973022460938
 30
0.0
 40
1.899999976158141
100
AcDbArc
 50
0.0
 51
180.0000000000004
  0
ARC
  5
1CD
330
22
100
AcDbEntity
  8
0
  6
Continuous
 62
     7
100
AcDbCircle
 10
-322.6834411621094
 20
177.2973022460938
 30
0.0
 40
1.899999976158141
100
AcDbArc
 50
0.0
 51
180.0000000000004
  0
ARC
  5
1CE
330
22
100
AcDbEntity
  8
0
  6
Continuous
 62
     7
100
AcDbCircle
 10
-306.783447265625
 20
190.2626953125
 30
0.0
 40
1.899999976158141
100
AcDbArc
 50
359.7657897706786
 51
180.2342102293229
  0
ARC
  5
1CF
330
22
100
AcDbEntity
  8
0
  6
Continuous
 62
     7
100
AcDbCircle
 10
-297.783447265625
 20
184.4353637695313
 30
0.0
 40
0.3000000119209289
100
AcDbArc
 50
32.95129829976602
 51
180.0000000000004
  0
ARC
  5
1D0
330
22
100
AcDbEntity
  8
0
  6
Continuous
 62
     7
100
AcDbCircle
 10
-306.783447265625
 20
182.5549163818359
 30
0.0
 40
1.899999976158141
100
AcDbArc
 50
180.0000000000004
 51
0.0
  0
ARC
  5
1D1
330
22
100
AcDbEntity
  8
0
  6
Continuous
 62
     7
100
AcDbCircle
 10
-312.0834350585938
 20
191.8575592041016
 30
0.0
 40
1.899999976158141
100
AcDbArc
 50
0.0
 51
180.0000000000004
  0
ARC
  5
1D2
330
22
100
AcDbEntity
  8
0
  6
Continuous
 62
     7
100
AcDbCircle
 10
-327.9834594726563
 20
186.5009307861328
 30
0.0
 40
1.899999976158141
100
AcDbArc
 50
0.0
 51
180.0000000000004
  0
ARC
  5
1D3
330
22
100
AcDbEntity
  8
0
  6
Continuous
 62
     7
100
AcDbCircle
 10
-322.6834411621094
 20
190.2626953125
 30
0.0
 40
1.899999976158141
100
AcDbArc
 50
359.7657860087907
 51
180.2342102293229
  0
ARC
  5
1D4
330
22
100
AcDbEntity
  8
0
  6
Continuous
 62
     7
100
AcDbCircle
 10
-331.6834411621094
 20
184.4353637695313
 30
0.0
 40
0.3000000119209289
100
AcDbArc
 50
0.0
 51
147.048701700234
  0
ARC
  5
1D5
330
22
100
AcDbEntity
  8
0
  6
Continuous
 62
     7
100
AcDbCircle
 10
-322.6834411621094
 20
182.5549163818359
 30
0.0
 40
1.899999976158141
100
AcDbArc
 50
180.0000000000004
 51
0.0
  0
ARC
  5
1D6
330
22
100
AcDbEntity
  8
0
  6
Continuous
 62
     7
100
AcDbCircle
 10
-322.6834411621094
 20
190.2626953125
 30
0.0
 40
1.899999976158141
100
AcDbArc
 50
359.7657860087907
 51
180.2342102293229
  0
ARC
  5
1D7
330
22
100
AcDbEntity
  8
0
  6
Continuous
 62
     7
100
AcDbCircle
 10
-317.3834533691406
 20
191.8575592041016
 30
0.0
 40
1.899999976158141
100
AcDbArc
 50
0.0
 51
180.0000000000004
  0
CIRCLE
  5
1D8
330
22
100
AcDbEntity
  8
0
  6
Continuous
 62
     7
100
AcDbCircle
 10
-314.7334594726563
 20
202.4472961425781
 30
0.0
 40
4.5
  0
ARC
  5
1D9
330
22
100
AcDbEntity
  8
0
  6
Continuous
 62
     7
100
AcDbCircle
 10
-322.6834411621094
 20
156.6318969726563
 30
0.0
 40
1.899999976158141
100
AcDbArc
 50
179.7653296378437
 51
0.2346741314347575
  0
ARC
  5
1DA
330
22
100
AcDbEntity
  8
0
  6
Continuous
 62
     7
100
AcDbCircle
 10
-327.9834594726563
 20
160.3936614990234
 30
0.0
 40
1.899999976158141
100
AcDbArc
 50
180.0000000000004
 51
0.0
  0
CIRCLE
  5
1DB
330
22
100
AcDbEntity
  8
0
  6
Continuous
 62
     7
100
AcDbCircle
 10
-314.7334594726563
 20
144.4472961425781
 30
0.0
 40
4.5
  0
ARC
  5
1DC
330
22
100
AcDbEntity
  8
0
  6
Continuous
 62
     7
100
AcDbCircle
 10
-301.4834594726563
 20
170.5936584472656
 30
0.0
 40
1.899999976158141
100
AcDbArc
 50
0.0
 51
180.0000000000004
  0
ARC
  5
1DD
330
22
100
AcDbEntity
  8
0
  6
Continuous
 62
     7
100
AcDbCircle
 10
-327.9834594726563
 20
170.5936584472656
 30
0.0
 40
1.899999976158141
100
AcDbArc
 50
0.0
 51
180.0000000000004
  0
ARC
  5
1DE
330
22
100
AcDbEntity
  8
0
  6
Continuous
 62
     7
100
AcDbCircle
 10
-306.783447265625
 20
190.2626953125
 30
0.0
 40
1.899999976158141
100
AcDbArc
 50
359.7657897706786
 51
180.2342102293229
  0
ARC
  5
1DF
330
22
100
AcDbEntity
  8
0
  6
Continuous
 62
     7
100
AcDbCircle
 10
-301.4834594726563
 20
186.5009307861328
 30
0.0
 40
1.899999976158141
100
AcDbArc
 50
0.0
 51
180.0000000000004
  0
ARC
  5
1E0
330
22
100
AcDbEntity
  8
0
  6
Continuous
 62
     7
100
AcDbCircle
 10
-322.6834411621094
 20
164.3396759033203
 30
0.0
 40
1.899999976158141
100
AcDbArc
 50
0.0
 51
180.0000000000004
  0
ARC
  5
1E1
330
22
100
AcDbEntity
  8
0
  6
Continuous
 62
     7
100
AcDbCircle
 10
-301.4834594726563
 20
160.3936614990234
 30
0.0
 40
1.899999976158141
100
AcDbArc
 50
180.0000000000004
 51
0.0
  0
ARC
  5
1E2
330
22
100
AcDbEntity
  8
0
  6
Continuous
 62
     7
100
AcDbCircle
 10
-306.783447265625
 20
169.5895233154297
 30
0.0
 40
1.899999976158141
100
AcDbArc
 50
179.7657897706779
 51
0.2342102293221335
  0
ARC
  5
1E3
330
22
100
AcDbEntity
  8
0
  6
Continuous
 62
     7
100
AcDbCircle
 10
-306.783447265625
 20
156.6318969726563
 30
0.0
 40
1.899999976158141
100
AcDbArc
 50
179.7653296378437
 51
0.2346703621563089
  0
ARC
  5
1E4
330
22
100
AcDbEntity
  8
0
  6
Continuous
 62
     7
100
AcDbCircle
 10
-317.3834533691406
 20
169.2370452880859
 30
0.0
 40
1.899999976158141
100
AcDbArc
 50
0.0
 51
180.0156447779045
  0
ARC
  5
1E5
330
22
100
AcDbEntity
  8
0
  6
Continuous
 62
     7
100
AcDbCircle
 10
-317.3834533691406
 20
155.0370483398438
 30
0.0
 40
1.899999976158141
100
AcDbArc
 50
180.0000000000004
 51
0.0
  0
ARC
  5
1E6
330
22
100
AcDbEntity
  8
0
  6
Continuous
 62
     7
100
AcDbCircle
 10
-322.6834411621094
 20
169.5895233154297
 30
0.0
 40
1.899999976158141
100
AcDbArc
 50
179.7657897706779
 51
0.2342139912100873
  0
ARC
  5
1E7
330
22
100
AcDbEntity
  8
0
  6
Continuous
 62
     7
100
AcDbCircle
 10
-312.0834350585938
 20
155.0370483398438
 30
0.0
 40
1.899999976158141
100
AcDbArc
 50
180.0000000000004
 51
0.0
  0
ARC
  5
1E8
330
22
100
AcDbEntity
  8
0
  6
Continuous
 62
     7
100
AcDbCircle
 10
-297.783447265625
 20
162.459228515625
 30
0.0
 40
0.3000000119209289
100
AcDbArc
 50
180.0000000000004
 51
327.0487017002347
  0
ARC
  5
1E9
330
22
100
AcDbEntity
  8
0
  6
Continuous
 62
     7
100
AcDbCircle
 10
-331.6834411621094
 20
162.459228515625
 30
0.0
 40
0.3000000119209289
100
AcDbArc
 50
212.9512982997667
 51
0.0
  0
ARC
  5
1EA
330
22
100
AcDbEntity
  8
0
  6
Continuous
 62
     7
100
AcDbCircle
 10
-306.783447265625
 20
164.3396759033203
 30
0.0
 40
1.899999976158141
100
AcDbArc
 50
0.0
 51
180.0000000000004
  0
ARC
  5
1EB
330
22
100
AcDbEntity
  8
0
  6
Continuous
 62
     7
100
AcDbCircle
 10
-312.0834350585938
 20
169.2370452880859
 30
0.0
 40
1.899999976158141
100
AcDbArc
 50
359.9843552220968
 51
180.0000000000004
  0
CIRCLE
  5
1EC
330
22
100
AcDbEntity
  8
0
  6
Continuous
 62
     7
100
AcDbCircle
 10
-314.5079040527344
 20
173.4472961425781
 30
0.0
 40
61.25
  0
CIRCLE
  5
1ED
330
22
100
AcDbEntity
  8
0
  6
Continuous
 62
     7
100
AcDbCircle
 10
-314.5079040527344
 20
173.4472961425781
 30
0.0
 40
59.25
  0
CIRCLE
  5
1EE
330
22
100
AcDbEntity
  8
0
  6
Continuous
 62
     7
100
AcDbCircle
 10
-314.7334594726563
 20
173.4472961425781
 30
0.0
 40
36.0
  0
ARC
  5
1EF
330
22
100
AcDbEntity
  8
0
  6
Continuous
 62
     7
100
AcDbCircle
 10
-301.4834594726563
 20
176.3009338378906
 30
0.0
 40
1.899999976158141
100
AcDbArc
 50
180.0000000000004
 51
0.0
  0
ARC
  5
1F0
330
22
100
AcDbEntity
  8
0
  6
Continuous
 62
     7
100
AcDbCircle
 10
-327.9834594726563
 20
176.3009338378906
 30
0.0
 40
1.899999976158141
100
AcDbArc
 50
180.0000000000004
 51
0.0
  0
ARC
  5
1F1
330
22
100
AcDbEntity
  8
0
  6
Continuous
 62
     7
100
AcDbCircle
 10
-314.7334594726563
 20
173.4472961425781
 30
0.0
 40
20.5
100
AcDbArc
 50
327.046184218933
 51
32.95381578106769
  0
ARC
  5
1F2
330
22
100
AcDbEntity
  8
0
  6
Continuous
 62
     7
100
AcDbCircle
 10
-317.3834533691406
 20
177.6575469970703
 30
0.0
 40
1.899999976158141
100
AcDbArc
 50
179.9843552220962
 51
0.0
  0
ARC
  5
1F3
330
22
100
AcDbEntity
  8
0
  6
Continuous
 62
     7
100
AcDbCircle
 10
-312.0834350585938
 20
177.6575469970703
 30
0.0
 40
1.899999976158141
100
AcDbArc
 50
180.0000000000004
 51
0.0156447779038411
  0
ARC
  5
1F4
330
22
100
AcDbEntity
  8
0
  6
Continuous
 62
     7
100
AcDbCircle
 10
-314.7334594726563
 20
173.4472961425781
 30
0.0
 40
20.5
100
AcDbArc
 50
147.0461378220998
 51
212.9538621779009
  0
CIRCLE
  5
1F5
330
22
100
AcDbEntity
  8
0
  6
Continuous
 62
     7
100
AcDbCircle
 10
-314.7334594726563
 20
173.4472961425781
 30
0.0
 40
2.0
  0
CIRCLE
  5
1F6
330
22
100
AcDbEntity
  8
0
  6
Continuous
 62
     7
100
AcDbCircle
 10
-314.5079040527344
 20
173.4472961425781
 30
0.0
 40
60.25
  0
CIRCLE
  5
1F7
330
22
100
AcDbEntity
  8
0
  6
Continuous
 62
     7
100
AcDbCircle
 10
-314.7334594726563
 20
173.4472961425781
 30
0.0
 40
35.5
  0
CIRCLE
  5
1F8
330
22
100
AcDbEntity
  8
0
  6
Continuous
 62
     7
100
AcDbCircle
 10
-314.7334594726563
 20
173.4472961425781
 30
0.0
 40
44.5
  0
CIRCLE
  5
1F9
330
22
100
AcDbEntity
  8
0
  6
Continuous
 62
     7
100
AcDbCircle
 10
-314.5079040527344
 20
173.4472961425781
 30
0.0
 40
77.0
  0
TEXT
  5
1FA
330
22
100
AcDbEntity
  8
0
  6
Continuous
 62
     7
100
AcDbText
 10
-260.031792640686
 20
79.85478210449219
 30
0.0
 40
7.0
  1
ＤＬ－Ｕ４－４０Ｚ
 41
0.8448610808647003
100
AcDbText
  0
DIMENSION
  5
1FB
330
22
100
AcDbEntity
  8
0
  6
Continuous
 62
     7
100
AcDbDimension
  2
*D1
 10
-108.0079116821289
 20
265.4772033691406
 30
0.0
 11
-138.0079040527344
 21
265.4772033691406
 31
0.0
 71
     5
 42
-1.0
  3
DIMSTYLE1
100
AcDbAlignedDimension
 13
-168.0079040527344
 23
217.9472961425781
 33
0.0
 14
-108.0079116821289
 24
248.4472961425781
 34
0.0
100
AcDbRotatedDimension
  0
DIMENSION
  5
1FC
330
22
100
AcDbEntity
  8
0
  6
Continuous
 62
     7
100
AcDbDimension
  2
*D2
 10
-104.5079116821289
 20
265.4772033691406
 30
0.0
 11
-94.73805236816406
 21
265.4772033691406
 31
0.0
 71
     5
 42
-1.0
  3
DIMSTYLE2
100
AcDbAlignedDimension
 13
-108.0079116821289
 23
267.76318359375
 33
0.0
 14
-104.5079116821289
 24
249.9472961425781
 34
0.0
100
AcDbRotatedDimension
  0
DIMENSION
  5
1FD
330
22
100
AcDbEntity
  8
0
  6
Continuous
 62
     7
100
AcDbDimension
  2
*D3
 10
-138.0079040527344
 20
256.7499084472656
 30
0.0
 11
-123.0079116821289
 21
256.7499084472656
 31
0.0
 71
     5
 42
-1.0
  3
DIMSTYLE3
100
AcDbAlignedDimension
 13
-108.0079116821289
 23
267.76318359375
 33
0.0
 14
-138.0079040527344
 24
199.4472961425781
 34
0.0
100
AcDbRotatedDimension
  0
DIMENSION
  5
1FE
330
22
100
AcDbEntity
  8
0
  6
Continuous
 62
     7
100
AcDbDimension
  2
*D4
 10
-174.0079040527344
 20
265.4772033691406
 30
0.0
 11
-181.7747192382813
 21
265.4772033691406
 31
0.0
 71
     5
 42
-1.0
  3
DIMSTYLE4
100
AcDbAlignedDimension
 13
-168.0079040527344
 23
267.76318359375
 33
0.0
 14
-174.0079040527344
 24
210.9472961425781
 34
0.0
100
AcDbRotatedDimension
  0
DIMENSION
  5
1FF
330
22
100
AcDbEntity
  8
0
  6
Continuous
 62
     7
100
AcDbDimension
  2
*D5
 10
-174.0079040527344
 20
179.7446136474609
 30
0.0
 11
-146.0079040527344
 21
179.7446136474609
 31
0.0
 71
     5
 42
-1.0
  3
DIMSTYLE5
100
AcDbAlignedDimension
 13
-118.0079116821289
 23
173.4472961425781
 33
0.0
 14
-174.0079040527344
 24
206.4472961425781
 34
0.0
100
AcDbRotatedDimension
  0
DIMENSION
  5
200
330
22
100
AcDbEntity
  8
0
  6
Continuous
 62
     7
100
AcDbDimension
  2
*D6
 10
-60.34830856323242
 20
201.4472961425781
 30
0.0
 11
-60.34830856323242
 21
173.4472961425781
 31
0.0
 71
     5
 42
-1.0
  3
DIMSTYLE6
100
AcDbAlignedDimension
 13
-81.00791168212891
 23
145.4472961425781
 33
0.0
 14
-81.00791168212891
 24
201.4472961425781
 34
0.0
 50
90.0
100
AcDbRotatedDimension
  0
INSERT
  5
201
330
22
100
AcDbEntity
  8
0
  6
Continuous
 62
     7
100
AcDbBlockReference
  2
KOZU0001
 10
-89.76066589355468
 20
197.0283813476563
 30
0.0
  0
DIMENSION
  5
202
330
22
100
AcDbEntity
  8
0
  6
Continuous
 62
     7
100
AcDbDimension
  2
*D7
 10
-138.0079040527344
 20
83.16535186767579
 30
0.0
 11
-109.0079116821289
 21
83.16535186767579
 31
0.0
 71
     5
 42
-1.0
  3
DIMSTYLE7
100
AcDbAlignedDimension
 13
-80.0079116821289
 23
146.4472961425781
 33
0.0
 14
-138.0079040527344
 24
147.4472961425781
 34
0.0
100
AcDbRotatedDimension
  0
DIMENSION
  5
203
330
22
100
AcDbEntity
  8
0
  6
Continuous
 62
     7
100
AcDbDimension
  2
*D8
 10
-84.42031860351562
 20
131.4472961425781
 30
0.0
 11
-84.42031860351562
 21
138.4472961425781
 31
0.0
 71
     5
 42
-1.0
  3
DIMSTYLE8
100
AcDbAlignedDimension
 13
-81.00791168212891
 23
145.4472961425781
 33
0.0
 14
-102.9474105834961
 24
131.4472961425781
 34
0.0
 50
90.0
100
AcDbRotatedDimension
  0
DIMENSION
  5
204
330
22
100
AcDbEntity
  8
0
  6
Continuous
 62
     7
100
AcDbDimension
  2
*D9
 10
-90.50791168212892
 20
121.1973266601563
 30
0.0
 11
-97.50791168212892
 21
121.1973266601563
 31
0.0
 71
     5
 42
-1.0
  3
DIMSTYLE9
100
AcDbAlignedDimension
 13
-104.5079116821289
 23
96.94729614257813
 33
0.0
 14
-90.50791168212892
 24
143.0276641845703
 34
0.0
100
AcDbRotatedDimension
  0
INSERT
  5
205
330
22
100
AcDbEntity
  8
0
  6
Continuous
 62
     7
100
AcDbBlockReference
  2
KOZU0002
 10
-99.32153320312501
 20
141.8934631347656
 30
0.0
  0
DIMENSION
  5
206
330
22
100
AcDbEntity
  8
0
  6
Continuous
 62
     7
100
AcDbDimension
  2
*D10
 10
-352.8980138044178
 20
106.7000154994411
 30
0.0
 11
-265.3689880371094
 21
258.8830871582031
 31
0.0
 70
     3
 71
     5
 42
-1.0
  3
DIMSTYLE10
100
AcDbDiametricDimension
 15
-276.1177943010509
 25
240.1945767857152
 35
0.0
 40
0.0
  0
DIMENSION
  5
207
330
22
100
AcDbEntity
  8
0
  6
Continuous
 62
     7
100
AcDbDimension
  2
*D11
 10
-352.2761870516895
 20
149.5560089037855
 30
0.0
 11
-233.6894073486328
 21
225.0217742919922
 31
0.0
 70
     3
 71
     5
 42
-1.0
  3
DIMSTYLE11
100
AcDbDiametricDimension
 15
-277.190731893623
 25
197.3385833813708
 35
0.0
 40
0.0
  0
ENDSEC
  0
SECTION
  2
OBJECTS
  0
DICTIONARY
  5
C
330
0
100
AcDbDictionary
281
     1
  3
ACAD_COLOR
350
1B
  3
ACAD_GROUP
350
D
  3
ACAD_LAYOUT
350
19
  3
ACAD_MATERIAL
350
1A
  3
ACAD_MLINESTYLE
350
16
  3
ACAD_PLOTSETTINGS
350
18
  3
ACAD_PLOTSTYLENAME
350
E
  3
ACAD_TABLESTYLE
350
1C
  3
AcDbVariableDictionary
350
213
  0
DICTIONARY
  5
1B
102
{ACAD_REACTORS
330
C
102
}
330
C
100
AcDbDictionary
281
     1
  0
DICTIONARY
  5
D
102
{ACAD_REACTORS
330
C
102
}
330
C
100
AcDbDictionary
281
     1
  0
DICTIONARY
  5
19
102
{ACAD_REACTORS
330
C
102
}
330
C
100
AcDbDictionary
281
     1
  3
Model
350
25
  3
レイアウト1
350
21
  0
DICTIONARY
  5
1A
102
{ACAD_REACTORS
330
C
102
}
330
C
100
AcDbDictionary
281
     1
  0
DICTIONARY
  5
16
102
{ACAD_REACTORS
330
C
102
}
330
C
100
AcDbDictionary
281
     1
  3
Standard
350
17
  0
DICTIONARY
  5
18
102
{ACAD_REACTORS
330
C
102
}
330
C
100
AcDbDictionary
281
     1
  0
ACDBDICTIONARYWDFLT
  5
E
102
{ACAD_REACTORS
330
C
102
}
330
C
100
AcDbDictionary
281
     1
  3
Normal
350
F
100
AcDbDictionaryWithDefault
340
F
  0
DICTIONARY
  5
1C
102
{ACAD_REACTORS
330
C
102
}
330
C
100
AcDbDictionary
281
     1
  3
Standard
350
1D
  0
DICTIONARY
  5
213
102
{ACAD_REACTORS
330
C
102
}
330
C
100
AcDbDictionary
281
     1
  3
CTABLESTYLE
350
214
  0
LAYOUT
  5
25
102
{ACAD_REACTORS
330
19
102
}
330
19
100
AcDbPlotSettings
  1

  2
PDF reDirect v2
  4
A3
  6

 40
3.174999952316284
 41
3.174999952316284
 42
3.17498779296875
 43
3.17498779296875
 44
297.0530090332031
 45
420.1583251953125
 46
0.0
 47
0.0
 48
0.0
 49
0.0
140
0.0
141
0.0
142
1.0
143
1.0
 70
 11952
 72
     1
 73
     1
 74
     2
  7
C:\Users\ck\AppData\Roaming\Autodesk\AutoCAD 2005\R16.1\jpn\Plot Styles\black.ctb
 75
    16
147
1.0
 76
     0
 77
     2
 78
   300
148
423.0
149
2.0
100
AcDbLayout
  1
Model
 70
     1
 71
     0
 10
0.0
 20
0.0
 11
12.0
 21
9.0
 12
0.0
 22
0.0
 32
0.0
 14
0.0
 24
0.0
 34
0.0
 15
0.0
 25
0.0
 35
0.0
146
0.0
 13
0.0
 23
0.0
 33
0.0
 16
1.0
 26
0.0
 36
0.0
 17
0.0
 27
1.0
 37
0.0
 76
     0
330
22
1001
ACAD_PSEXT
1000
PDF reDirect v2
1000
PDF reDirect Pro
1000
PDF_REDIRECT_PORT:
1000
PDF reDirect provided by EXP Systems
1070
     0
  0
LAYOUT
  5
21
102
{ACAD_REACTORS
330
19
102
}
330
19
100
AcDbPlotSettings
  1

  2
PDF reDirect v2
  4

  6

 40
0.0
 41
0.0
 42
0.0
 43
0.0
 44
0.0
 45
0.0
 46
0.0
 47
0.0
 48
0.0
 49
0.0
140
0.0
141
0.0
142
1.0
143
1.0
 70
   688
 72
     0
 73
     0
 74
     5
  7
C:\Users\ck\AppData\Roaming\Autodesk\AutoCAD 2005\R16.1\jpn\Plot Styles\black.ctb
 75
    16
147
1.0
 76
     0
 77
     2
 78
   300
148
0.0
149
0.0
100
AcDbLayout
  1
レイアウト1
 70
     1
 71
     1
 10
-423.0
 20
-2.0
 11
-5.0
 21
293.0
 12
0.0
 22
0.0
 32
0.0
 14
1.000000000000000E+20
 24
1.000000000000000E+20
 34
1.000000000000000E+20
 15
-1.000000000000000E+20
 25
-1.000000000000000E+20
 35
-1.000000000000000E+20
146
0.0
 13
0.0
 23
0.0
 33
0.0
 16
1.0
 26
0.0
 36
0.0
 17
0.0
 27
1.0
 37
0.0
 76
     0
330
1E
  0
MLINESTYLE
  5
17
102
{ACAD_REACTORS
330
16
102
}
330
16
100
AcDbMlineStyle
  2
STANDARD
 70
     0
  3

 62
   256
 51
90.0
 52
90.0
 71
     2
 49
0.5
 62
   256
  6
BYLAYER
 49
-0.5
 62
   256
  6
BYLAYER
  0
ACDBPLACEHOLDER
  5
F
102
{ACAD_REACTORS
330
E
102
}
330
E
  0
TABLESTYLE
  5
1D
102
{ACAD_REACTORS
330
1C
102
}
330
1C
100
AcDbTableStyle
  3
Standard
 70
     0
 71
     0
 40
0.06
 41
0.06
280
     0
281
     0
  7
STANDARD
140
0.18
170
     2
 62
     0
 63
     7
283
     0
274
    -2
284
     1
 64
     0
275
    -2
285
     1
 65
     0
276
    -2
286
     1
 66
     0
277
    -2
287
     1
 67
     0
278
    -2
288
     1
 68
     0
279
    -2
289
     1
 69
     0
  7
STANDARD
140
0.25
170
     5
 62
     0
 63
     7
283
     0
274
    -2
284
     1
 64
     0
275
    -2
285
     1
 65
     0
276
    -2
286
     1
 66
     0
277
    -2
287
     1
 67
     0
278
    -2
288
     1
 68
     0
279
    -2
289
     1
 69
     0
  7
STANDARD
140
0.18
170
     5
 62
     0
 63
     7
283
     0
274
    -2
284
     1
 64
     0
275
    -2
285
     1
 65
     0
276
    -2
286
     1
 66
     0
277
    -2
287
     1
 67
     0
278
    -2
288
     1
 68
     0
279
    -2
289
     1
 69
     0
  0
DICTIONARYVAR
  5
214
102
{ACAD_REACTORS
330
213
102
}
330
213
100
DictionaryVariables
280
     0
  1
STANDARD
  0
ENDSEC
  0
EOF
