  0
SECTION
  2
HEADER
  9
$ACADVER
  1
AC1018
  9
$ACADMAINTVER
 70
    39
  9
$DWGCODEPAGE
  3
ANSI_932
  9
$INSBASE
 10
0.0
 20
0.0
 30
0.0
  9
$EXTMIN
 10
-395.2358083206179
 20
78.56503373962482
 30
-0.0015258207003583
  9
$EXTMAX
 10
-26.54547024325643
 20
272.4603735877438
 30
0.0000000349246037
  9
$LIMMIN
 10
-423.0
 20
-2.0
  9
$LIMMAX
 10
-5.0
 20
293.0
  9
$ORTHOMODE
 70
     0
  9
$REGENMODE
 70
     1
  9
$FILLMODE
 70
     1
  9
$QTEXTMODE
 70
     0
  9
$MIRRTEXT
 70
     0
  9
$LTSCALE
 40
1.0
  9
$ATTMODE
 70
     1
  9
$TEXTSIZE
 40
0.2
  9
$TRACEWID
 40
0.05
  9
$TEXTSTYLE
  7
STANDARD
  9
$CLAYER
  8
0
  9
$CELTYPE
  6
CONTINUOUS
  9
$CECOLOR
 62
   256
  9
$CELTSCALE
 40
1.0
  9
$DISPSILH
 70
     0
  9
$DIMSCALE
 40
1.0
  9
$DIMASZ
 40
1.0
  9
$DIMEXO
 40
2.54
  9
$DIMDLI
 40
0.38
  9
$DIMRND
 40
0.0
  9
$DIMDLE
 40
0.0
  9
$DIMEXE
 40
2.54
  9
$DIMTP
 40
0.0
  9
$DIMTM
 40
0.0
  9
$DIMTXT
 40
3.0
  9
$DIMCEN
 40
0.09
  9
$DIMTSZ
 40
0.0
  9
$DIMTOL
 70
     0
  9
$DIMLIM
 70
     0
  9
$DIMTIH
 70
     0
  9
$DIMTOH
 70
     0
  9
$DIMSE1
 70
     0
  9
$DIMSE2
 70
     0
  9
$DIMTAD
 70
     1
  9
$DIMZIN
 70
     0
  9
$DIMBLK
  1

  9
$DIMASO
 70
     1
  9
$DIMSHO
 70
     0
  9
$DIMPOST
  1

  9
$DIMAPOST
  1

  9
$DIMALT
 70
     0
  9
$DIMALTD
 70
     2
  9
$DIMALTF
 40
25.4
  9
$DIMLFAC
 40
1.0
  9
$DIMTOFL
 70
     0
  9
$DIMTVP
 40
1.0
  9
$DIMTIX
 70
     0
  9
$DIMSOXD
 70
     0
  9
$DIMSAH
 70
     1
  9
$DIMBLK1
  1

  9
$DIMBLK2
  1

  9
$DIMSTYLE
  2
DIMSTYLE1
  9
$DIMCLRD
 70
     0
  9
$DIMCLRE
 70
     0
  9
$DIMCLRT
 70
     0
  9
$DIMTFAC
 40
1.0
  9
$DIMGAP
 40
1.5
  9
$DIMJUST
 70
     0
  9
$DIMSD1
 70
     0
  9
$DIMSD2
 70
     0
  9
$DIMTOLJ
 70
     1
  9
$DIMTZIN
 70
     0
  9
$DIMALTZ
 70
     0
  9
$DIMALTTZ
 70
     0
  9
$DIMUPT
 70
     0
  9
$DIMDEC
 70
     4
  9
$DIMTDEC
 70
     4
  9
$DIMALTU
 70
     2
  9
$DIMALTTD
 70
     2
  9
$DIMTXSTY
  7
STANDARD
  9
$DIMAUNIT
 70
     0
  9
$DIMADEC
 70
     0
  9
$DIMALTRND
 40
0.0
  9
$DIMAZIN
 70
     0
  9
$DIMDSEP
 70
    46
  9
$DIMATFIT
 70
     3
  9
$DIMFRAC
 70
     0
  9
$DIMLDRBLK
  1

  9
$DIMLUNIT
 70
     2
  9
$DIMLWD
 70
    -2
  9
$DIMLWE
 70
    -2
  9
$DIMTMOVE
 70
     0
  9
$LUNITS
 70
     2
  9
$LUPREC
 70
     4
  9
$SKETCHINC
 40
0.1
  9
$FILLETRAD
 40
0.0
  9
$AUNITS
 70
     0
  9
$AUPREC
 70
     0
  9
$MENU
  1
.
  9
$ELEVATION
 40
0.0
  9
$PELEVATION
 40
0.0
  9
$THICKNESS
 40
0.0
  9
$LIMCHECK
 70
     0
  9
$CHAMFERA
 40
0.0
  9
$CHAMFERB
 40
0.0
  9
$CHAMFERC
 40
0.0
  9
$CHAMFERD
 40
0.0
  9
$SKPOLY
 70
     0
  9
$TDCREATE
 40
2457702.681461678
  9
$TDUCREATE
 40
2457702.306461678
  9
$TDUPDATE
 40
2457702.682285649
  9
$TDUUPDATE
 40
2457702.307285649
  9
$TDINDWG
 40
0.0008251273
  9
$TDUSRTIMER
 40
0.0008251273
  9
$USRTIMER
 70
     1
  9
$ANGBASE
 50
0.0
  9
$ANGDIR
 70
     0
  9
$PDMODE
 70
     0
  9
$PDSIZE
 40
0.0
  9
$PLINEWID
 40
0.0
  9
$SPLFRAME
 70
     0
  9
$SPLINETYPE
 70
     6
  9
$SPLINESEGS
 70
     8
  9
$HANDSEED
  5
206
  9
$SURFTAB1
 70
     6
  9
$SURFTAB2
 70
     6
  9
$SURFTYPE
 70
     6
  9
$SURFU
 70
     6
  9
$SURFV
 70
     6
  9
$UCSBASE
  2

  9
$UCSNAME
  2

  9
$UCSORG
 10
0.0
 20
0.0
 30
0.0
  9
$UCSXDIR
 10
1.0
 20
0.0
 30
0.0
  9
$UCSYDIR
 10
0.0
 20
1.0
 30
0.0
  9
$UCSORTHOREF
  2

  9
$UCSORTHOVIEW
 70
     0
  9
$UCSORGTOP
 10
0.0
 20
0.0
 30
0.0
  9
$UCSORGBOTTOM
 10
0.0
 20
0.0
 30
0.0
  9
$UCSORGLEFT
 10
0.0
 20
0.0
 30
0.0
  9
$UCSORGRIGHT
 10
0.0
 20
0.0
 30
0.0
  9
$UCSORGFRONT
 10
0.0
 20
0.0
 30
0.0
  9
$UCSORGBACK
 10
0.0
 20
0.0
 30
0.0
  9
$PUCSBASE
  2

  9
$PUCSNAME
  2

  9
$PUCSORG
 10
0.0
 20
0.0
 30
0.0
  9
$PUCSXDIR
 10
1.0
 20
0.0
 30
0.0
  9
$PUCSYDIR
 10
0.0
 20
1.0
 30
0.0
  9
$PUCSORTHOREF
  2

  9
$PUCSORTHOVIEW
 70
     0
  9
$PUCSORGTOP
 10
0.0
 20
0.0
 30
0.0
  9
$PUCSORGBOTTOM
 10
0.0
 20
0.0
 30
0.0
  9
$PUCSORGLEFT
 10
0.0
 20
0.0
 30
0.0
  9
$PUCSORGRIGHT
 10
0.0
 20
0.0
 30
0.0
  9
$PUCSORGFRONT
 10
0.0
 20
0.0
 30
0.0
  9
$PUCSORGBACK
 10
0.0
 20
0.0
 30
0.0
  9
$USERI1
 70
     0
  9
$USERI2
 70
     0
  9
$USERI3
 70
     0
  9
$USERI4
 70
     0
  9
$USERI5
 70
     0
  9
$USERR1
 40
0.0
  9
$USERR2
 40
0.0
  9
$USERR3
 40
0.0
  9
$USERR4
 40
0.0
  9
$USERR5
 40
0.0
  9
$WORLDVIEW
 70
     1
  9
$SHADEDGE
 70
     3
  9
$SHADEDIF
 70
    70
  9
$TILEMODE
 70
     1
  9
$MAXACTVP
 70
    64
  9
$PINSBASE
 10
0.0
 20
0.0
 30
0.0
  9
$PLIMCHECK
 70
     0
  9
$PEXTMIN
 10
1.000000000000000E+20
 20
1.000000000000000E+20
 30
1.000000000000000E+20
  9
$PEXTMAX
 10
-1.000000000000000E+20
 20
-1.000000000000000E+20
 30
-1.000000000000000E+20
  9
$PLIMMIN
 10
-423.0
 20
-2.0
  9
$PLIMMAX
 10
-5.0
 20
293.0
  9
$UNITMODE
 70
     0
  9
$VISRETAIN
 70
     1
  9
$PLINEGEN
 70
     0
  9
$PSLTSCALE
 70
     1
  9
$TREEDEPTH
 70
  3020
  9
$CMLSTYLE
  2
Standard
  9
$CMLJUST
 70
     0
  9
$CMLSCALE
 40
1.0
  9
$PROXYGRAPHICS
 70
     1
  9
$MEASUREMENT
 70
     0
  9
$CELWEIGHT
370
    -1
  9
$ENDCAPS
280
     0
  9
$JOINSTYLE
280
     0
  9
$LWDISPLAY
290
     0
  9
$INSUNITS
 70
     0
  9
$HYPERLINKBASE
  1

  9
$STYLESHEET
  1

  9
$XEDIT
290
     1
  9
$CEPSNTYPE
380
     0
  9
$PSTYLEMODE
290
     1
  9
$FINGERPRINTGUID
  2
{641D1032-8D1B-485B-8E23-BF4B783FB45C}
  9
$VERSIONGUID
  2
{6D3024B5-6362-471C-AA17-F589F9BA37A7}
  9
$EXTNAMES
290
     1
  9
$PSVPSCALE
 40
0.0
  9
$OLESTARTUP
290
     0
  9
$SORTENTS
280
   127
  9
$INDEXCTL
280
     0
  9
$HIDETEXT
280
     0
  9
$XCLIPFRAME
290
     0
  9
$HALOGAP
280
     0
  9
$OBSCOLOR
 70
   257
  9
$OBSLTYPE
280
     0
  9
$INTERSECTIONDISPLAY
280
     0
  9
$INTERSECTIONCOLOR
 70
   257
  9
$DIMASSOC
280
     1
  9
$PROJECTNAME
  1

  0
ENDSEC
  0
SECTION
  2
CLASSES
  0
CLASS
  1
ACDBDICTIONARYWDFLT
  2
AcDbDictionaryWithDefault
  3
ObjectDBX Classes
 90
        0
 91
        1
280
     0
281
     0
  0
CLASS
  1
TABLESTYLE
  2
AcDbTableStyle
  3
ObjectDBX Classes
 90
     2047
 91
        1
280
     0
281
     0
  0
CLASS
  1
DICTIONARYVAR
  2
AcDbDictionaryVar
  3
ObjectDBX Classes
 90
        0
 91
        1
280
     0
281
     0
  0
ENDSEC
  0
SECTION
  2
TABLES
  0
TABLE
  2
VPORT
  5
8
330
0
100
AcDbSymbolTable
 70
     2
  0
VPORT
  5
205
330
8
100
AcDbSymbolTableRecord
100
AcDbViewportTableRecord
  2
*Active
 70
     0
 10
0.0
 20
0.0
 11
1.0
 21
1.0
 12
-214.0
 22
145.5
 13
0.0
 23
0.0
 14
1.0
 24
1.0
 15
0.0
 25
0.0
 16
0.0
 26
0.0
 36
1.0
 17
0.0
 27
0.0
 37
0.0
 40
297.328947368421
 41
1.56258234519104
 42
50.0
 43
0.0
 44
0.0
 50
0.0
 51
0.0
 71
     0
 72
   100
 73
     1
 74
     1
 75
     0
 76
     0
 77
     0
 78
     0
281
     0
 65
     1
110
0.0
120
0.0
130
0.0
111
1.0
121
0.0
131
0.0
112
0.0
122
1.0
132
0.0
 79
     0
146
0.0
  0
ENDTAB
  0
TABLE
  2
LTYPE
  5
5
330
0
100
AcDbSymbolTable
 70
     6
  0
LTYPE
  5
13
330
5
100
AcDbSymbolTableRecord
100
AcDbLinetypeTableRecord
  2
ByBlock
 70
     0
  3

 72
    65
 73
     0
 40
0.0
  0
LTYPE
  5
14
330
5
100
AcDbSymbolTableRecord
100
AcDbLinetypeTableRecord
  2
ByLayer
 70
     0
  3

 72
    65
 73
     0
 40
0.0
  0
LTYPE
  5
15
330
5
100
AcDbSymbolTableRecord
100
AcDbLinetypeTableRecord
  2
CONTINUOUS
 70
     0
  3
Solid line
 72
    65
 73
     0
 40
0.0
  0
LTYPE
  5
26
330
5
100
AcDbSymbolTableRecord
100
AcDbLinetypeTableRecord
  2
DASHED
 70
     0
  3
__ __ __ __ __ __ __ __ __ __ __ __ __ __ __
 72
    65
 73
     2
 40
3.5
 49
2.0
 74
     0
 49
-1.5
 74
     0
  0
LTYPE
  5
27
330
5
100
AcDbSymbolTableRecord
100
AcDbLinetypeTableRecord
  2
CENTER
 70
     0
  3
____ _ ____ _ ____ _ ____ _ ____ _ ____ _ ____
 72
    65
 73
     4
 40
17.5
 49
13.0
 74
     0
 49
-1.5
 74
     0
 49
1.5
 74
     0
 49
-1.5
 74
     0
  0
LTYPE
  5
28
330
5
100
AcDbSymbolTableRecord
100
AcDbLinetypeTableRecord
  2
PHANTOM
 70
     0
  3
_____ _ _ _____ _ _ _____ _ _ _____ _ _ ____  
 72
    65
 73
     6
 40
15.5
 49
8.0
 74
     0
 49
-1.5
 74
     0
 49
1.5
 74
     0
 49
-1.5
 74
     0
 49
1.5
 74
     0
 49
-1.5
 74
     0
  0
LTYPE
  5
29
330
5
100
AcDbSymbolTableRecord
100
AcDbLinetypeTableRecord
  2
DOT
 70
     0
  3
. . . . . . . . . . . . . . . . . . . . . . . .
 72
    65
 73
     2
 40
0.25
 49
0.0
 74
     0
 49
-0.25
 74
     0
  0
LTYPE
  5
2A
330
5
100
AcDbSymbolTableRecord
100
AcDbLinetypeTableRecord
  2
HIDDEN
 70
     0
  3
__ __ __ __ __ __ __ __ __ __ __ __ __ __ __
 72
    65
 73
     2
 40
3.5
 49
2.0
 74
     0
 49
-1.5
 74
     0
  0
ENDTAB
  0
TABLE
  2
LAYER
  5
2
330
0
100
AcDbSymbolTable
 70
     3
  0
LAYER
  5
10
330
2
100
AcDbSymbolTableRecord
100
AcDbLayerTableRecord
  2
0
 70
     0
 62
     7
  6
CONTINUOUS
370
    -3
390
F
  0
LAYER
  5
2B
330
2
100
AcDbSymbolTableRecord
100
AcDbLayerTableRecord
  2
1
 70
     0
 62
     7
  6
CONTINUOUS
370
    -3
390
F
  0
LAYER
  5
2C
330
2
100
AcDbSymbolTableRecord
100
AcDbLayerTableRecord
  2
DEFPOINTS
 70
     0
 62
     7
  6
CONTINUOUS
290
     0
370
    -3
390
F
  0
ENDTAB
  0
TABLE
  2
STYLE
  5
3
330
0
100
AcDbSymbolTable
 70
     3
  0
STYLE
  5
11
330
3
100
AcDbSymbolTableRecord
100
AcDbTextStyleTableRecord
  2
STANDARD
 70
     0
 40
0.0
 41
1.0
 50
0.0
 71
     0
 42
0.2
  3

  4

1001
ACAD
1000
MS Gothic
1071
    32817
  0
ENDTAB
  0
TABLE
  2
VIEW
  5
6
330
0
100
AcDbSymbolTable
 70
     0
  0
ENDTAB
  0
TABLE
  2
UCS
  5
7
330
0
100
AcDbSymbolTable
 70
     0
  0
ENDTAB
  0
TABLE
  2
APPID
  5
9
330
0
100
AcDbSymbolTable
 70
     2
  0
APPID
  5
12
330
9
100
AcDbSymbolTableRecord
100
AcDbRegAppTableRecord
  2
ACAD
 70
     0
  0
APPID
  5
1F2
330
9
100
AcDbSymbolTableRecord
100
AcDbRegAppTableRecord
  2
ACAD_PSEXT
 70
     0
  0
ENDTAB
  0
TABLE
  2
DIMSTYLE
  5
A
330
0
100
AcDbSymbolTable
 70
    13
100
AcDbDimStyleTable
 71
     1
340
2D
  0
DIMSTYLE
105
2D
102
{ACAD_REACTORS
330
1E3
102
}
330
A
100
AcDbSymbolTableRecord
100
AcDbDimStyleTableRecord
  2
DIMSTYLE1
 70
     0
 41
1.0
 42
2.54
 44
2.54
 73
     0
 74
     0
 77
     1
140
3.0
145
1.0
147
1.5
172
     1
173
     1
279
     2
340
11
  0
DIMSTYLE
105
2E
102
{ACAD_REACTORS
330
1E4
102
}
330
A
100
AcDbSymbolTableRecord
100
AcDbDimStyleTableRecord
  2
DIMSTYLE2
 70
     0
 41
1.0
 42
2.54
 44
2.54
 73
     0
 74
     0
 77
     1
140
3.0
145
1.0
147
1.5
172
     1
173
     1
279
     2
340
11
  0
DIMSTYLE
105
2F
102
{ACAD_REACTORS
330
1E5
102
}
330
A
100
AcDbSymbolTableRecord
100
AcDbDimStyleTableRecord
  2
DIMSTYLE3
 70
     0
 41
1.0
 42
2.54
 44
2.54
 73
     0
 74
     0
 77
     1
140
3.0
145
1.0
147
1.5
172
     1
173
     1
279
     2
340
11
  0
DIMSTYLE
105
30
102
{ACAD_REACTORS
330
1E6
102
}
330
A
100
AcDbSymbolTableRecord
100
AcDbDimStyleTableRecord
  2
DIMSTYLE4
 70
     0
 41
1.0
 42
2.54
 44
2.54
 73
     0
 74
     0
 77
     1
140
3.0
145
1.0
147
1.5
172
     1
173
     1
279
     2
340
11
  0
DIMSTYLE
105
31
102
{ACAD_REACTORS
330
1E7
102
}
330
A
100
AcDbSymbolTableRecord
100
AcDbDimStyleTableRecord
  2
DIMSTYLE5
 70
     0
 41
1.0
 42
2.54
 44
2.54
 73
     0
 74
     0
 77
     1
140
3.0
145
1.0
147
1.5
172
     1
173
     1
279
     2
340
11
  0
DIMSTYLE
105
32
102
{ACAD_REACTORS
330
1E9
102
}
330
A
100
AcDbSymbolTableRecord
100
AcDbDimStyleTableRecord
  2
DIMSTYLE6
 70
     0
 41
1.0
 42
2.54
 44
2.54
 73
     0
 74
     0
 77
     1
140
3.0
145
1.0
147
1.5
172
     1
173
     1
279
     2
340
11
  0
DIMSTYLE
105
33
102
{ACAD_REACTORS
330
1EA
102
}
330
A
100
AcDbSymbolTableRecord
100
AcDbDimStyleTableRecord
  2
DIMSTYLE7
 70
     0
 41
1.0
 42
2.54
 44
2.54
 73
     0
 74
     0
 77
     1
140
3.0
145
1.0
147
1.5
172
     1
173
     1
279
     2
340
11
  0
DIMSTYLE
105
34
102
{ACAD_REACTORS
330
1EB
102
}
330
A
100
AcDbSymbolTableRecord
100
AcDbDimStyleTableRecord
  2
DIMSTYLE8
 70
     0
 41
1.0
 42
2.54
 44
2.54
 73
     0
 74
     0
 77
     1
140
3.0
145
1.0
147
1.5
172
     1
173
     1
279
     2
340
11
  0
DIMSTYLE
105
35
102
{ACAD_REACTORS
330
1ED
102
}
330
A
100
AcDbSymbolTableRecord
100
AcDbDimStyleTableRecord
  2
DIMSTYLE9
 70
     0
 41
1.0
 42
2.54
 44
2.54
 73
     0
 74
     0
 75
     1
 76
     1
 77
     1
140
3.0
145
1.0
147
1.5
172
     1
173
     1
279
     2
340
11
  0
DIMSTYLE
105
36
102
{ACAD_REACTORS
330
1EE
102
}
330
A
100
AcDbSymbolTableRecord
100
AcDbDimStyleTableRecord
  2
DIMSTYLE10
 70
     0
 41
1.0
 42
2.54
 44
2.54
 73
     0
 74
     0
 75
     1
 76
     1
 77
     1
140
3.0
145
1.0
147
1.5
172
     1
173
     1
279
     2
340
11
  0
DIMSTYLE
105
37
102
{ACAD_REACTORS
330
1EF
102
}
330
A
100
AcDbSymbolTableRecord
100
AcDbDimStyleTableRecord
  2
DIMSTYLE11
 70
     0
 41
1.0
 42
2.54
 44
2.54
 73
     0
 74
     0
 77
     1
140
3.0
145
1.0
147
1.5
172
     1
173
     1
279
     2
340
11
  0
ENDTAB
  0
TABLE
  2
BLOCK_RECORD
  5
1
330
0
100
AcDbSymbolTable
 70
    16
  0
BLOCK_RECORD
  5
22
330
1
100
AcDbSymbolTableRecord
100
AcDbBlockTableRecord
  2
*Model_Space
340
25
  0
BLOCK_RECORD
  5
1E
330
1
100
AcDbSymbolTableRecord
100
AcDbBlockTableRecord
  2
*Paper_Space
340
21
  0
BLOCK_RECORD
  5
3B
330
1
100
AcDbSymbolTableRecord
100
AcDbBlockTableRecord
  2
_OPEN30
340
0
102
{BLKREFS
331
44
331
45
331
51
331
53
331
5E
331
5F
331
6A
331
6C
331
77
331
78
331
83
331
84
331
8F
331
90
331
9A
331
9B
331
A6
331
A7
331
B0
331
B1
331
B9
331
BA
102
}
  0
BLOCK_RECORD
  5
41
330
1
100
AcDbSymbolTableRecord
100
AcDbBlockTableRecord
  2
*D1
340
0
  0
BLOCK_RECORD
  5
4D
330
1
100
AcDbSymbolTableRecord
100
AcDbBlockTableRecord
  2
*D2
340
0
  0
BLOCK_RECORD
  5
5B
330
1
100
AcDbSymbolTableRecord
100
AcDbBlockTableRecord
  2
*D3
340
0
  0
BLOCK_RECORD
  5
66
330
1
100
AcDbSymbolTableRecord
100
AcDbBlockTableRecord
  2
*D4
340
0
  0
BLOCK_RECORD
  5
74
330
1
100
AcDbSymbolTableRecord
100
AcDbBlockTableRecord
  2
*D5
340
0
  0
BLOCK_RECORD
  5
80
330
1
100
AcDbSymbolTableRecord
100
AcDbBlockTableRecord
  2
*D6
340
0
  0
BLOCK_RECORD
  5
8C
330
1
100
AcDbSymbolTableRecord
100
AcDbBlockTableRecord
  2
*D7
340
0
  0
BLOCK_RECORD
  5
97
330
1
100
AcDbSymbolTableRecord
100
AcDbBlockTableRecord
  2
*D8
340
0
  0
BLOCK_RECORD
  5
A2
330
1
100
AcDbSymbolTableRecord
100
AcDbBlockTableRecord
  2
*D9
340
0
  0
BLOCK_RECORD
  5
AC
330
1
100
AcDbSymbolTableRecord
100
AcDbBlockTableRecord
  2
*D10
340
0
  0
BLOCK_RECORD
  5
B6
330
1
100
AcDbSymbolTableRecord
100
AcDbBlockTableRecord
  2
*D11
340
0
  0
BLOCK_RECORD
  5
C0
330
1
100
AcDbSymbolTableRecord
100
AcDbBlockTableRecord
  2
KOZU0001
340
0
102
{BLKREFS
331
1E8
102
}
  0
BLOCK_RECORD
  5
C9
330
1
100
AcDbSymbolTableRecord
100
AcDbBlockTableRecord
  2
KOZU0002
340
0
102
{BLKREFS
331
1EC
102
}
  0
ENDTAB
  0
ENDSEC
  0
SECTION
  2
BLOCKS
  0
BLOCK
  5
23
330
22
100
AcDbEntity
  8
0
100
AcDbBlockBegin
  2
*Model_Space
 70
     0
 10
0.0
 20
0.0
 30
0.0
  3
*Model_Space
  1

  0
ENDBLK
  5
24
330
22
100
AcDbEntity
  8
0
100
AcDbBlockEnd
  0
BLOCK
  5
1F
330
1E
100
AcDbEntity
 67
     1
  8
0
100
AcDbBlockBegin
  2
*Paper_Space
 70
     0
 10
0.0
 20
0.0
 30
0.0
  3
*Paper_Space
  1

  0
ENDBLK
  5
20
330
1E
100
AcDbEntity
 67
     1
  8
0
100
AcDbBlockEnd
  0
BLOCK
  5
3C
330
3B
100
AcDbEntity
  8
0
100
AcDbBlockBegin
  2
_OPEN30
 70
     0
 10
0.0
 20
0.0
 30
0.0
  3
_OPEN30
  1

  0
LINE
  5
3D
330
3B
100
AcDbEntity
  8
0
  6
ByBlock
 62
     0
100
AcDbLine
 10
0.0
 20
0.0
 30
0.0
 11
-2.999999999999993
 21
-1.000000000000017
 31
0.0
  0
LINE
  5
3E
330
3B
100
AcDbEntity
  8
0
  6
ByBlock
 62
     0
100
AcDbLine
 10
0.0
 20
0.0
 30
0.0
 11
-3.000000000000006
 21
0.9999999999999815
 31
0.0
  0
LINE
  5
3F
330
3B
100
AcDbEntity
  8
0
  6
ByBlock
 62
     0
100
AcDbLine
 10
0.0
 20
0.0
 30
0.0
 11
-3.0
 21
0.0
 31
0.0
  0
ENDBLK
  5
40
330
3B
100
AcDbEntity
  8
0
100
AcDbBlockEnd
  0
BLOCK
  5
42
330
41
100
AcDbEntity
  8
0
100
AcDbBlockBegin
  2
*D1
 70
     1
 10
0.0
 20
0.0
 30
0.0
  3
*D1
  1

  0
LINE
  5
43
330
41
100
AcDbEntity
  8
0
  6
Continuous
 62
     7
100
AcDbLine
 10
-165.0079040527344
 20
265.4772033691406
 30
0.0
 11
-111.0079116821289
 21
265.4772033691406
 31
0.0
  0
INSERT
  5
44
330
41
100
AcDbEntity
  8
0
  6
Continuous
 62
     7
100
AcDbBlockReference
  2
_OPEN30
 10
-168.0079040527344
 20
265.4772033691406
 30
0.0
 50
180.0000000000004
  0
INSERT
  5
45
330
41
100
AcDbEntity
  8
0
  6
Continuous
 62
     7
100
AcDbBlockReference
  2
_OPEN30
 10
-108.0079116821289
 20
265.4772033691406
 30
0.0
  0
LINE
  5
46
330
41
100
AcDbEntity
  8
0
  6
Continuous
 62
     7
100
AcDbLine
 10
-168.0079040527344
 20
215.9872961425781
 30
0.0
 11
-168.0079040527344
 21
267.76318359375
 31
0.0
  0
LINE
  5
47
330
41
100
AcDbEntity
  8
0
  6
Continuous
 62
     7
100
AcDbLine
 10
-108.0079116821289
 20
247.9872961425781
 30
0.0
 11
-108.0079116821289
 21
267.76318359375
 31
0.0
  0
TEXT
  5
48
330
41
100
AcDbEntity
  8
0
  6
Continuous
 62
     7
100
AcDbText
 10
-152.5779046416283
 20
266.2272033691406
 30
0.0
 40
3.0
  1
６０　（５１～６８）
 41
0.8443929326254473
100
AcDbText
  0
POINT
  5
49
330
41
100
AcDbEntity
  8
DEFPOINTS
  6
Continuous
 62
     7
100
AcDbPoint
 10
-168.0079040527344
 20
213.4472961425781
 30
0.0
  0
POINT
  5
4A
330
41
100
AcDbEntity
  8
DEFPOINTS
  6
Continuous
 62
     7
100
AcDbPoint
 10
-108.0079116821289
 20
245.4472961425781
 30
0.0
  0
POINT
  5
4B
330
41
100
AcDbEntity
  8
DEFPOINTS
  6
Continuous
 62
     7
100
AcDbPoint
 10
-108.0079116821289
 20
265.4772033691406
 30
0.0
  0
ENDBLK
  5
4C
330
41
100
AcDbEntity
  8
0
100
AcDbBlockEnd
  0
BLOCK
  5
4E
330
4D
100
AcDbEntity
  8
0
100
AcDbBlockBegin
  2
*D2
 70
     1
 10
0.0
 20
0.0
 30
0.0
  3
*D2
  1

  0
LINE
  5
4F
330
4D
100
AcDbEntity
  8
0
  6
Continuous
 62
     7
100
AcDbLine
 10
-104.5079116821289
 20
265.4772033691406
 30
0.0
 11
-90.66805267333984
 21
265.4772033691406
 31
0.0
  0
LINE
  5
50
330
4D
100
AcDbEntity
  8
0
  6
Continuous
 62
     7
100
AcDbLine
 10
-108.0079116821289
 20
265.4772033691406
 30
0.0
 11
-104.5079116821289
 21
265.4772033691406
 31
0.0
  0
INSERT
  5
51
330
4D
100
AcDbEntity
  8
0
  6
Continuous
 62
     7
100
AcDbBlockReference
  2
_OPEN30
 10
-108.0079116821289
 20
265.4772033691406
 30
0.0
 50
0.0000000000003562
  0
LINE
  5
52
330
4D
100
AcDbEntity
  8
0
  6
Continuous
 62
     7
100
AcDbLine
 10
-111.0079116821289
 20
265.4772033691406
 30
0.0
 11
-114.3579116821289
 21
265.4772033691406
 31
0.0
  0
INSERT
  5
53
330
4D
100
AcDbEntity
  8
0
  6
Continuous
 62
     7
100
AcDbBlockReference
  2
_OPEN30
 10
-104.5079116821289
 20
265.4772033691406
 30
0.0
 50
180.0
  0
LINE
  5
54
330
4D
100
AcDbEntity
  8
0
  6
Continuous
 62
     7
100
AcDbLine
 10
-101.5079116821289
 20
265.4772033691406
 30
0.0
 11
-98.15791168212893
 21
265.4772033691406
 31
0.0
  0
LINE
  5
55
330
4D
100
AcDbEntity
  8
0
  6
Continuous
 62
     7
100
AcDbLine
 10
-104.5079116821289
 20
249.4872961425781
 30
0.0
 11
-104.5079116821289
 21
267.76318359375
 31
0.0
  0
TEXT
  5
56
330
4D
100
AcDbEntity
  8
0
  6
Continuous
 62
     7
100
AcDbText
 10
-98.80805253982543
 20
266.2272033691406
 30
0.0
 40
3.0
  1
3.5
 41
1.356666684150696
100
AcDbText
  0
POINT
  5
57
330
4D
100
AcDbEntity
  8
DEFPOINTS
  6
Continuous
 62
     7
100
AcDbPoint
 10
-108.0079116821289
 20
267.76318359375
 30
0.0
  0
POINT
  5
58
330
4D
100
AcDbEntity
  8
DEFPOINTS
  6
Continuous
 62
     7
100
AcDbPoint
 10
-104.5079116821289
 20
246.9472961425781
 30
0.0
  0
POINT
  5
59
330
4D
100
AcDbEntity
  8
DEFPOINTS
  6
Continuous
 62
     7
100
AcDbPoint
 10
-104.5079116821289
 20
265.4772033691406
 30
0.0
  0
ENDBLK
  5
5A
330
4D
100
AcDbEntity
  8
0
100
AcDbBlockEnd
  0
BLOCK
  5
5C
330
5B
100
AcDbEntity
  8
0
100
AcDbBlockBegin
  2
*D3
 70
     1
 10
0.0
 20
0.0
 30
0.0
  3
*D3
  1

  0
LINE
  5
5D
330
5B
100
AcDbEntity
  8
0
  6
Continuous
 62
     7
100
AcDbLine
 10
-111.0079116821289
 20
256.7499084472656
 30
0.0
 11
-135.0079040527344
 21
256.7499084472656
 31
0.0
  0
INSERT
  5
5E
330
5B
100
AcDbEntity
  8
0
  6
Continuous
 62
     7
100
AcDbBlockReference
  2
_OPEN30
 10
-108.0079116821289
 20
256.7499084472656
 30
0.0
  0
INSERT
  5
5F
330
5B
100
AcDbEntity
  8
0
  6
Continuous
 62
     7
100
AcDbBlockReference
  2
_OPEN30
 10
-138.0079040527344
 20
256.7499084472656
 30
0.0
 50
180.0000000000004
  0
LINE
  5
60
330
5B
100
AcDbEntity
  8
0
  6
Continuous
 62
     7
100
AcDbLine
 10
-138.0079040527344
 20
198.9872961425781
 30
0.0
 11
-138.0079040527344
 21
259.0359191894531
 31
0.0
  0
TEXT
  5
61
330
5B
100
AcDbEntity
  8
0
  6
Continuous
 62
     7
100
AcDbText
 10
-125.5779117941856
 20
257.4999084472656
 30
0.0
 40
3.0
  1
30
 41
1.101428593908038
100
AcDbText
  0
POINT
  5
62
330
5B
100
AcDbEntity
  8
DEFPOINTS
  6
Continuous
 62
     7
100
AcDbPoint
 10
-108.0079116821289
 20
267.76318359375
 30
0.0
  0
POINT
  5
63
330
5B
100
AcDbEntity
  8
DEFPOINTS
  6
Continuous
 62
     7
100
AcDbPoint
 10
-138.0079040527344
 20
196.4472961425781
 30
0.0
  0
POINT
  5
64
330
5B
100
AcDbEntity
  8
DEFPOINTS
  6
Continuous
 62
     7
100
AcDbPoint
 10
-138.0079040527344
 20
256.7499084472656
 30
0.0
  0
ENDBLK
  5
65
330
5B
100
AcDbEntity
  8
0
100
AcDbBlockEnd
  0
BLOCK
  5
67
330
66
100
AcDbEntity
  8
0
100
AcDbBlockBegin
  2
*D4
 70
     1
 10
0.0
 20
0.0
 30
0.0
  3
*D4
  1

  0
LINE
  5
68
330
66
100
AcDbEntity
  8
0
  6
Continuous
 62
     7
100
AcDbLine
 10
-174.0079040527344
 20
265.4772033691406
 30
0.0
 11
-182.8447265625
 21
265.4772033691406
 31
0.0
  0
LINE
  5
69
330
66
100
AcDbEntity
  8
0
  6
Continuous
 62
     7
100
AcDbLine
 10
-168.0079040527344
 20
265.4772033691406
 30
0.0
 11
-174.0079040527344
 21
265.4772033691406
 31
0.0
  0
INSERT
  5
6A
330
66
100
AcDbEntity
  8
0
  6
Continuous
 62
     7
100
AcDbBlockReference
  2
_OPEN30
 10
-168.0079040527344
 20
265.4772033691406
 30
0.0
 50
180.0
  0
LINE
  5
6B
330
66
100
AcDbEntity
  8
0
  6
Continuous
 62
     7
100
AcDbLine
 10
-165.0079040527344
 20
265.4772033691406
 30
0.0
 11
-161.6579040527344
 21
265.4772033691406
 31
0.0
  0
INSERT
  5
6C
330
66
100
AcDbEntity
  8
0
  6
Continuous
 62
     7
100
AcDbBlockReference
  2
_OPEN30
 10
-174.0079040527344
 20
265.4772033691406
 30
0.0
 50
0.0000000000003562
  0
LINE
  5
6D
330
66
100
AcDbEntity
  8
0
  6
Continuous
 62
     7
100
AcDbLine
 10
-177.0079040527344
 20
265.4772033691406
 30
0.0
 11
-180.3579040527344
 21
265.4772033691406
 31
0.0
  0
LINE
  5
6E
330
66
100
AcDbEntity
  8
0
  6
Continuous
 62
     7
100
AcDbLine
 10
-174.0079040527344
 20
208.9872961425781
 30
0.0
 11
-174.0079040527344
 21
267.76318359375
 31
0.0
  0
TEXT
  5
6F
330
66
100
AcDbEntity
  8
0
  6
Continuous
 62
     7
100
AcDbText
 10
-182.8447192907333
 20
266.2272033691406
 30
0.0
 40
3.0
  1
6
100
AcDbText
  0
POINT
  5
70
330
66
100
AcDbEntity
  8
DEFPOINTS
  6
Continuous
 62
     7
100
AcDbPoint
 10
-168.0079040527344
 20
267.76318359375
 30
0.0
  0
POINT
  5
71
330
66
100
AcDbEntity
  8
DEFPOINTS
  6
Continuous
 62
     7
100
AcDbPoint
 10
-174.0079040527344
 20
206.4472961425781
 30
0.0
  0
POINT
  5
72
330
66
100
AcDbEntity
  8
DEFPOINTS
  6
Continuous
 62
     7
100
AcDbPoint
 10
-174.0079040527344
 20
265.4772033691406
 30
0.0
  0
ENDBLK
  5
73
330
66
100
AcDbEntity
  8
0
100
AcDbBlockEnd
  0
BLOCK
  5
75
330
74
100
AcDbEntity
  8
0
100
AcDbBlockBegin
  2
*D5
 70
     1
 10
0.0
 20
0.0
 30
0.0
  3
*D5
  1

  0
LINE
  5
76
330
74
100
AcDbEntity
  8
0
  6
Continuous
 62
     7
100
AcDbLine
 10
-62.84680938720704
 20
151.9472961425781
 30
0.0
 11
-62.846809387207
 21
194.9472961425781
 31
0.0
  0
INSERT
  5
77
330
74
100
AcDbEntity
  8
0
  6
Continuous
 62
     7
100
AcDbBlockReference
  2
_OPEN30
 10
-62.84680938720703
 20
148.9472961425781
 30
0.0
 50
270.0000000000005
  0
INSERT
  5
78
330
74
100
AcDbEntity
  8
0
  6
Continuous
 62
     7
100
AcDbBlockReference
  2
_OPEN30
 10
-62.84680938720703
 20
197.9472961425781
 30
0.0
 50
90.00000000000019
  0
LINE
  5
79
330
74
100
AcDbEntity
  8
0
  6
Continuous
 62
     7
100
AcDbLine
 10
-78.4679116821289
 20
148.9472961425781
 30
0.0
 11
-60.56081008911132
 21
148.9472961425781
 31
0.0
  0
LINE
  5
7A
330
74
100
AcDbEntity
  8
0
  6
Continuous
 62
     7
100
AcDbLine
 10
-78.4679116821289
 20
197.9472961425781
 30
0.0
 11
-60.56081008911132
 21
197.9472961425781
 31
0.0
  0
TEXT
  5
7B
330
74
100
AcDbEntity
  8
0
  6
Continuous
 62
     7
100
AcDbText
 10
-63.59680920930167
 20
169.3772959381332
 30
0.0
 40
3.0
  1
%%C49
 50
90.00000250447815
 41
0.9498249830693319
100
AcDbText
  0
POINT
  5
7C
330
74
100
AcDbEntity
  8
DEFPOINTS
  6
Continuous
 62
     7
100
AcDbPoint
 10
-81.00791168212891
 20
148.9472961425781
 30
0.0
  0
POINT
  5
7D
330
74
100
AcDbEntity
  8
DEFPOINTS
  6
Continuous
 62
     7
100
AcDbPoint
 10
-81.00791168212891
 20
197.9472961425781
 30
0.0
  0
POINT
  5
7E
330
74
100
AcDbEntity
  8
DEFPOINTS
  6
Continuous
 62
     7
100
AcDbPoint
 10
-62.84680938720703
 20
197.9472961425781
 30
0.0
  0
ENDBLK
  5
7F
330
74
100
AcDbEntity
  8
0
100
AcDbBlockEnd
  0
BLOCK
  5
81
330
80
100
AcDbEntity
  8
0
100
AcDbBlockBegin
  2
*D6
 70
     1
 10
0.0
 20
0.0
 30
0.0
  3
*D6
  1

  0
LINE
  5
82
330
80
100
AcDbEntity
  8
0
  6
Continuous
 62
     7
100
AcDbLine
 10
-135.0079040527344
 20
84.35905456542968
 30
0.0
 11
-83.0079116821289
 21
84.35905456542966
 31
0.0
  0
INSERT
  5
83
330
80
100
AcDbEntity
  8
0
  6
Continuous
 62
     7
100
AcDbBlockReference
  2
_OPEN30
 10
-138.0079040527344
 20
84.35905456542968
 30
0.0
 50
180.0000000000004
  0
INSERT
  5
84
330
80
100
AcDbEntity
  8
0
  6
Continuous
 62
     7
100
AcDbBlockReference
  2
_OPEN30
 10
-80.0079116821289
 20
84.35905456542968
 30
0.0
  0
LINE
  5
85
330
80
100
AcDbEntity
  8
0
  6
Continuous
 62
     7
100
AcDbLine
 10
-138.0079040527344
 20
147.907296142578
 30
0.0
 11
-138.0079040527344
 21
82.07305145263672
 31
0.0
  0
LINE
  5
86
330
80
100
AcDbEntity
  8
0
  6
Continuous
 62
     7
100
AcDbLine
 10
-80.00791168212888
 20
147.4072961425781
 30
0.0
 11
-80.0079116821289
 21
82.07305145263672
 31
0.0
  0
TEXT
  5
87
330
80
100
AcDbEntity
  8
0
  6
Continuous
 62
     7
100
AcDbText
 10
-111.5779117941856
 20
85.10905456542969
 30
0.0
 40
3.0
  1
58
 41
1.028000020980834
100
AcDbText
  0
POINT
  5
88
330
80
100
AcDbEntity
  8
DEFPOINTS
  6
Continuous
 62
     7
100
AcDbPoint
 10
-138.0079040527344
 20
150.4472961425781
 30
0.0
  0
POINT
  5
89
330
80
100
AcDbEntity
  8
DEFPOINTS
  6
Continuous
 62
     7
100
AcDbPoint
 10
-80.0079116821289
 20
149.9472961425781
 30
0.0
  0
POINT
  5
8A
330
80
100
AcDbEntity
  8
DEFPOINTS
  6
Continuous
 62
     7
100
AcDbPoint
 10
-80.0079116821289
 20
84.35905456542968
 30
0.0
  0
ENDBLK
  5
8B
330
80
100
AcDbEntity
  8
0
100
AcDbBlockEnd
  0
BLOCK
  5
8D
330
8C
100
AcDbEntity
  8
0
100
AcDbBlockBegin
  2
*D7
 70
     1
 10
0.0
 20
0.0
 30
0.0
  3
*D7
  1

  0
LINE
  5
8E
330
8C
100
AcDbEntity
  8
0
  6
Continuous
 62
     7
100
AcDbLine
 10
-85.00476074218747
 20
145.9472961425781
 30
0.0
 11
-85.00476074218751
 21
138.9472961425781
 31
0.0
  0
INSERT
  5
8F
330
8C
100
AcDbEntity
  8
0
  6
Continuous
 62
     7
100
AcDbBlockReference
  2
_OPEN30
 10
-85.00476074218751
 20
148.9472961425781
 30
0.0
 50
90.00000000000019
  0
INSERT
  5
90
330
8C
100
AcDbEntity
  8
0
  6
Continuous
 62
     7
100
AcDbBlockReference
  2
_OPEN30
 10
-85.00476074218751
 20
135.9472961425781
 30
0.0
 50
270.0000000000005
  0
LINE
  5
91
330
8C
100
AcDbEntity
  8
0
  6
Continuous
 62
     7
100
AcDbLine
 10
-100.494553527832
 20
135.9472961425781
 30
0.0
 11
-82.71875762939453
 21
135.9472961425781
 31
0.0
  0
TEXT
  5
92
330
8C
100
AcDbEntity
  8
0
  6
Continuous
 62
     7
100
AcDbText
 10
-85.75476062984924
 20
139.8772959977379
 30
0.0
 40
3.0
  1
13
 50
90.00000250447815
 41
1.285000026226043
100
AcDbText
  0
POINT
  5
93
330
8C
100
AcDbEntity
  8
DEFPOINTS
  6
Continuous
 62
     7
100
AcDbPoint
 10
-81.00791168212891
 20
148.9472961425781
 30
0.0
  0
POINT
  5
94
330
8C
100
AcDbEntity
  8
DEFPOINTS
  6
Continuous
 62
     7
100
AcDbPoint
 10
-103.034553527832
 20
135.9472961425781
 30
0.0
  0
POINT
  5
95
330
8C
100
AcDbEntity
  8
DEFPOINTS
  6
Continuous
 62
     7
100
AcDbPoint
 10
-85.00476074218751
 20
135.9472961425781
 30
0.0
  0
ENDBLK
  5
96
330
8C
100
AcDbEntity
  8
0
100
AcDbBlockEnd
  0
BLOCK
  5
98
330
97
100
AcDbEntity
  8
0
100
AcDbBlockBegin
  2
*D8
 70
     1
 10
0.0
 20
0.0
 30
0.0
  3
*D8
  1

  0
LINE
  5
99
330
97
100
AcDbEntity
  8
0
  6
Continuous
 62
     7
100
AcDbLine
 10
-101.5079116821289
 20
127.0182113647461
 30
0.0
 11
-94.50791168212893
 21
127.0182113647461
 31
0.0
  0
INSERT
  5
9A
330
97
100
AcDbEntity
  8
0
  6
Continuous
 62
     7
100
AcDbBlockReference
  2
_OPEN30
 10
-104.5079116821289
 20
127.0182113647461
 30
0.0
 50
180.0000000000004
  0
INSERT
  5
9B
330
97
100
AcDbEntity
  8
0
  6
Continuous
 62
     7
100
AcDbBlockReference
  2
_OPEN30
 10
-91.50791168212892
 20
127.0182113647461
 30
0.0
  0
LINE
  5
9C
330
97
100
AcDbEntity
  8
0
  6
Continuous
 62
     7
100
AcDbLine
 10
-91.50791168212887
 20
144.9347772216797
 30
0.0
 11
-91.50791168212892
 21
124.7322082519531
 31
0.0
  0
TEXT
  5
9D
330
97
100
AcDbEntity
  8
0
  6
Continuous
 62
     7
100
AcDbText
 10
-100.5779117941856
 20
127.7682113647461
 30
0.0
 40
3.0
  1
13
 41
1.285000026226043
100
AcDbText
  0
POINT
  5
9E
330
97
100
AcDbEntity
  8
DEFPOINTS
  6
Continuous
 62
     7
100
AcDbPoint
 10
-104.5079116821289
 20
99.94729614257813
 30
0.0
  0
POINT
  5
9F
330
97
100
AcDbEntity
  8
DEFPOINTS
  6
Continuous
 62
     7
100
AcDbPoint
 10
-91.50791168212892
 20
147.4747772216797
 30
0.0
  0
POINT
  5
A0
330
97
100
AcDbEntity
  8
DEFPOINTS
  6
Continuous
 62
     7
100
AcDbPoint
 10
-91.50791168212892
 20
127.0182113647461
 30
0.0
  0
ENDBLK
  5
A1
330
97
100
AcDbEntity
  8
0
100
AcDbBlockEnd
  0
BLOCK
  5
A3
330
A2
100
AcDbEntity
  8
0
100
AcDbBlockBegin
  2
*D9
 70
     1
 10
0.0
 20
0.0
 30
0.0
  3
*D9
  1

  0
LINE
  5
A4
330
A2
100
AcDbEntity
  8
0
  6
Continuous
 62
     7
100
AcDbLine
 10
-276.421142578125
 20
236.8933258056641
 30
0.0
 11
-257.5840454101563
 21
268.272705078125
 31
0.0
  0
LINE
  5
A5
330
A2
100
AcDbEntity
  8
0
  6
Continuous
 62
     7
100
AcDbLine
 10
-351.0506075727073
 20
112.5734103869102
 30
0.0
 11
-277.9652005327613
 21
234.3211895276406
 31
0.0
  0
INSERT
  5
A6
330
A2
100
AcDbEntity
  8
0
  6
Continuous
 62
     7
100
AcDbBlockReference
  2
_OPEN30
 10
-352.5946655273438
 20
110.0012741088867
 30
0.0
 50
239.0235319108511
  0
INSERT
  5
A7
330
A2
100
AcDbEntity
  8
0
  6
Continuous
 62
     7
100
AcDbBlockReference
  2
_OPEN30
 10
-276.421142578125
 20
236.8933258056641
 30
0.0
 50
59.02353191085039
  0
TEXT
  5
A8
330
A2
100
AcDbEntity
  8
0
  6
Continuous
 62
     7
100
AcDbText
 10
-274.7745790595945
 20
241.1062283059016
 30
0.0
 40
3.0
  1
%%C１４８（防水皿外径）
 50
59.00000050345973
 41
0.8440126077968535
100
AcDbText
  0
POINT
  5
A9
330
A2
100
AcDbEntity
  8
DEFPOINTS
  6
Continuous
 62
     7
100
AcDbPoint
 10
-352.5946655273438
 20
110.0012741088867
 30
0.0
  0
POINT
  5
AA
330
A2
100
AcDbEntity
  8
DEFPOINTS
  6
Continuous
 62
     7
100
AcDbPoint
 10
-276.421142578125
 20
236.8933258056641
 30
0.0
  0
ENDBLK
  5
AB
330
A2
100
AcDbEntity
  8
0
100
AcDbBlockEnd
  0
BLOCK
  5
AD
330
AC
100
AcDbEntity
  8
0
100
AcDbBlockBegin
  2
*D10
 70
     1
 10
0.0
 20
0.0
 30
0.0
  3
*D10
  1

  0
LINE
  5
AE
330
AC
100
AcDbEntity
  8
0
  6
Continuous
 62
     7
100
AcDbLine
 10
-281.8303527832031
 20
196.5162506103516
 30
0.0
 11
-226.4511413574219
 21
235.6116027832031
 31
0.0
  0
LINE
  5
AF
330
AC
100
AcDbEntity
  8
0
  6
Continuous
 62
     7
100
AcDbLine
 10
-344.7346683612859
 20
152.1085132520754
 30
0.0
 11
-284.2811702617609
 21
194.7860790330808
 31
0.0
  0
INSERT
  5
B0
330
AC
100
AcDbEntity
  8
0
  6
Continuous
 62
     7
100
AcDbBlockReference
  2
_OPEN30
 10
-347.1854858398438
 20
150.3783416748047
 30
0.0
 50
215.2204446994412
  0
INSERT
  5
B1
330
AC
100
AcDbEntity
  8
0
  6
Continuous
 62
     7
100
AcDbBlockReference
  2
_OPEN30
 10
-281.8303527832031
 20
196.5162506103516
 30
0.0
 50
35.22044469944049
  0
TEXT
  5
B2
330
AC
100
AcDbEntity
  8
0
  6
Continuous
 62
     7
100
AcDbText
 10
-250.6920838219835
 20
219.4229641542986
 30
0.0
 40
3.0
  1
%%C８０（目皿部外径）
 50
35.20000143487518
 41
0.8443929326254473
100
AcDbText
  0
POINT
  5
B3
330
AC
100
AcDbEntity
  8
DEFPOINTS
  6
Continuous
 62
     7
100
AcDbPoint
 10
-347.1854858398438
 20
150.3783416748047
 30
0.0
  0
POINT
  5
B4
330
AC
100
AcDbEntity
  8
DEFPOINTS
  6
Continuous
 62
     7
100
AcDbPoint
 10
-281.8303527832031
 20
196.5162506103516
 30
0.0
  0
ENDBLK
  5
B5
330
AC
100
AcDbEntity
  8
0
100
AcDbBlockEnd
  0
BLOCK
  5
B7
330
B6
100
AcDbEntity
  8
0
100
AcDbBlockBegin
  2
*D11
 70
     1
 10
0.0
 20
0.0
 30
0.0
  3
*D11
  1

  0
LINE
  5
B8
330
B6
100
AcDbEntity
  8
0
  6
Continuous
 62
     7
100
AcDbLine
 10
-121.0079116821289
 20
179.7446136474609
 30
0.0
 11
-171.0079040527344
 21
179.7446136474609
 31
0.0
  0
INSERT
  5
B9
330
B6
100
AcDbEntity
  8
0
  6
Continuous
 62
     7
100
AcDbBlockReference
  2
_OPEN30
 10
-118.0079116821289
 20
179.7446136474609
 30
0.0
  0
INSERT
  5
BA
330
B6
100
AcDbEntity
  8
0
  6
Continuous
 62
     7
100
AcDbBlockReference
  2
_OPEN30
 10
-174.0079040527344
 20
179.7446136474609
 30
0.0
 50
180.0000000000004
  0
TEXT
  5
BB
330
B6
100
AcDbEntity
  8
0
  6
Continuous
 62
     7
100
AcDbText
 10
-148.5779041647911
 20
180.4946136474609
 30
0.0
 40
3.0
  1
56
 41
1.028000020980834
100
AcDbText
  0
POINT
  5
BC
330
B6
100
AcDbEntity
  8
DEFPOINTS
  6
Continuous
 62
     7
100
AcDbPoint
 10
-118.0079116821289
 20
173.4472961425781
 30
0.0
  0
POINT
  5
BD
330
B6
100
AcDbEntity
  8
DEFPOINTS
  6
Continuous
 62
     7
100
AcDbPoint
 10
-174.0079040527344
 20
206.4472961425781
 30
0.0
  0
POINT
  5
BE
330
B6
100
AcDbEntity
  8
DEFPOINTS
  6
Continuous
 62
     7
100
AcDbPoint
 10
-174.0079040527344
 20
179.7446136474609
 30
0.0
  0
ENDBLK
  5
BF
330
B6
100
AcDbEntity
  8
0
100
AcDbBlockEnd
  0
BLOCK
  5
C1
330
C0
100
AcDbEntity
  8
0
100
AcDbBlockBegin
  2
KOZU0001
 70
     0
 10
0.0
 20
0.0
 30
0.0
  3
KOZU0001
  1

  0
LINE
  5
C2
330
C0
100
AcDbEntity
  8
0
  6
Continuous
 62
     7
100
AcDbLine
 10
0.0
 20
0.0
 30
0.0
 11
22.3426513671875
 21
25.16014099121094
 31
0.0
  0
LINE
  5
C3
330
C0
100
AcDbEntity
  8
0
  6
Continuous
 62
     7
100
AcDbLine
 10
22.3426513671875
 20
25.16014099121094
 30
0.0
 11
61.08954238891602
 21
25.16014099121094
 31
0.0
  0
LINE
  5
C4
330
C0
100
AcDbEntity
  8
0
  6
Continuous
 62
     7
100
AcDbLine
 10
0.0
 20
0.0
 30
0.0
 11
1.244266957944457
 21
2.907197918506348
 31
0.0
  0
LINE
  5
C5
330
C0
100
AcDbEntity
  8
0
  6
Continuous
 62
     7
100
AcDbLine
 10
0.0
 20
0.0
 30
0.0
 11
2.739732317459373
 21
1.579198160038405
 31
0.0
  0
TEXT
  5
C6
330
C0
100
AcDbEntity
  8
0
  6
Continuous
 62
     7
100
AcDbText
 10
24.22954487800598
 20
25.91014099121094
 30
0.0
 40
3.0
  1
配管接続口
 41
0.8487395020950888
100
AcDbText
  0
TEXT
  5
C7
330
C0
100
AcDbEntity
  8
0
  6
Continuous
 62
     7
100
AcDbText
 10
24.22954487800598
 20
20.64514099121094
 30
0.0
 40
3.0
  1
Ｒｃ１　１／４（３２Ａ）
 41
0.8436974815103043
100
AcDbText
  0
ENDBLK
  5
C8
330
C0
100
AcDbEntity
  8
0
100
AcDbBlockEnd
  0
BLOCK
  5
CA
330
C9
100
AcDbEntity
  8
0
100
AcDbBlockBegin
  2
KOZU0002
 70
     0
 10
0.0
 20
0.0
 30
0.0
  3
KOZU0002
  1

  0
LINE
  5
CB
330
C9
100
AcDbEntity
  8
0
  6
Continuous
 62
     7
100
AcDbLine
 10
0.0
 20
0.0
 30
0.0
 11
27.98265075683594
 21
-20.80386352539063
 31
0.0
  0
LINE
  5
CC
330
C9
100
AcDbEntity
  8
0
  6
Continuous
 62
     7
100
AcDbLine
 10
27.98265075683594
 20
-20.80386352539063
 30
0.0
 11
53.70375442504883
 21
-20.80386352539063
 31
0.0
  0
LINE
  5
CD
330
C9
100
AcDbEntity
  8
0
  6
Continuous
 62
     7
100
AcDbLine
 10
0.0
 20
0.0
 30
0.0
 11
3.004174981206753
 21
-0.987386794671368
 31
0.0
  0
LINE
  5
CE
330
C9
100
AcDbEntity
  8
0
  6
Continuous
 62
     7
100
AcDbLine
 10
0.0
 20
0.0
 30
0.0
 11
1.810907908162583
 21
-2.592414424461146
 31
0.0
  0
TEXT
  5
CF
330
C9
100
AcDbEntity
  8
0
  6
Continuous
 62
     7
100
AcDbText
 10
29.57518696784973
 20
-20.05386352539063
 30
0.0
 40
3.0
  1
共廻り防止用羽根
 41
0.8454512278006642
100
AcDbText
  0
TEXT
  5
D0
330
C9
100
AcDbEntity
  8
0
  6
Continuous
 62
     7
100
AcDbText
 10
29.57518696784973
 20
-25.31886352539063
 30
0.0
 40
3.0
  1
３ヶ所
 41
0.8550420278260688
100
AcDbText
  0
ENDBLK
  5
D1
330
C9
100
AcDbEntity
  8
0
100
AcDbBlockEnd
  0
ENDSEC
  0
SECTION
  2
ENTITIES
  0
POINT
  5
D2
330
22
100
AcDbEntity
  8
0
  6
Continuous
 62
     7
100
AcDbPoint
 10
-104.5079116821289
 20
173.4472961425781
 30
0.0
  0
POINT
  5
D3
330
22
100
AcDbEntity
  8
0
  6
Continuous
 62
     7
100
AcDbPoint
 10
-314.5079040527344
 20
173.4472961425781
 30
0.0
  0
POINT
  5
D4
330
22
100
AcDbEntity
  8
0
  6
Continuous
 62
     7
100
AcDbPoint
 10
-104.5079116821289
 20
173.4472961425781
 30
0.0
  0
POINT
  5
D5
330
22
100
AcDbEntity
  8
0
  6
Continuous
 62
     7
100
AcDbPoint
 10
-314.5079040527344
 20
173.4472961425781
 30
0.0
  0
POINT
  5
D6
330
22
100
AcDbEntity
  8
0
  6
Continuous
 62
     7
100
AcDbPoint
 10
-90.26066589355469
 20
194.0818786621094
 30
0.0
  0
LINE
  5
D7
330
22
100
AcDbEntity
  8
0
  6
Continuous
 62
     7
100
AcDbLine
 10
-168.0079040527344
 20
191.7772979736328
 30
0.0
 11
-166.0079040527344
 21
191.7772979736328
 31
0.0
  0
LINE
  5
D8
330
22
100
AcDbEntity
  8
0
  6
Continuous
 62
     7
100
AcDbLine
 10
-168.3879089355469
 20
195.1972961425781
 30
0.0
 11
-168.0079040527344
 21
195.1972961425781
 31
0.0
  0
LINE
  5
D9
330
22
100
AcDbEntity
  8
0
  6
Continuous
 62
     7
100
AcDbLine
 10
-168.3879089355469
 20
199.1972961425781
 30
0.0
 11
-168.0079040527344
 21
199.1972961425781
 31
0.0
  0
LINE
  5
DA
330
22
100
AcDbEntity
  8
0
  6
Continuous
 62
     7
100
AcDbLine
 10
-168.0079040527344
 20
198.8172912597656
 30
0.0
 11
-168.3879089355469
 21
199.1972961425781
 31
0.0
  0
LINE
  5
DB
330
22
100
AcDbEntity
  8
0
  6
Continuous
 62
     7
100
AcDbLine
 10
-118.0079116821289
 20
191.7772979736328
 30
0.0
 11
-166.0079040527344
 21
191.7772979736328
 31
0.0
  0
LINE
  5
DC
330
22
100
AcDbEntity
  8
0
  6
Continuous
 62
     7
100
AcDbLine
 10
-173.29541015625
 20
207.6941680908203
 30
0.0
 11
-168.0079040527344
 21
212.9816741943359
 31
0.0
  0
LINE
  5
DD
330
22
100
AcDbEntity
  8
0
  6
Continuous
 62
     7
100
AcDbLine
 10
-173.2138519287109
 20
204.9472961425781
 30
0.0
 11
-168.0079040527344
 21
210.1532440185547
 31
0.0
  0
LINE
  5
DE
330
22
100
AcDbEntity
  8
0
  6
Continuous
 62
     7
100
AcDbLine
 10
-171.0079040527344
 20
204.3248138427734
 30
0.0
 11
-168.0079040527344
 21
207.3248138427734
 31
0.0
  0
LINE
  5
DF
330
22
100
AcDbEntity
  8
0
  6
Continuous
 62
     7
100
AcDbLine
 10
-171.0079040527344
 20
201.4963836669922
 30
0.0
 11
-168.0079040527344
 21
204.4963836669922
 31
0.0
  0
LINE
  5
E0
330
22
100
AcDbEntity
  8
0
  6
Continuous
 62
     7
100
AcDbLine
 10
-170.4785766601563
 20
199.1972961425781
 30
0.0
 11
-168.0079040527344
 21
201.66796875
 31
0.0
  0
LINE
  5
E1
330
22
100
AcDbEntity
  8
0
  6
Continuous
 62
     7
100
AcDbLine
 10
-171.0079040527344
 20
193.0111083984375
 30
0.0
 11
-168.8217163085938
 21
195.1972961425781
 31
0.0
  0
LINE
  5
E2
330
22
100
AcDbEntity
  8
0
  6
Continuous
 62
     7
100
AcDbLine
 10
-171.0079040527344
 20
190.1826782226563
 30
0.0
 11
-168.0079040527344
 21
193.1826782226563
 31
0.0
  0
LINE
  5
E3
330
22
100
AcDbEntity
  8
0
  6
Continuous
 62
     7
100
AcDbLine
 10
-168.9148712158203
 20
189.4472961425781
 30
0.0
 11
-166.5848693847656
 21
191.7772979736328
 31
0.0
  0
LINE
  5
E4
330
22
100
AcDbEntity
  8
0
  6
Continuous
 62
     7
100
AcDbLine
 10
-166.0864410400391
 20
189.4472961425781
 30
0.0
 11
-163.7564392089844
 21
191.7772979736328
 31
0.0
  0
LINE
  5
E5
330
22
100
AcDbEntity
  8
0
  6
Continuous
 62
     7
100
AcDbLine
 10
-163.2580108642578
 20
189.4472961425781
 30
0.0
 11
-160.9280090332031
 21
191.7772979736328
 31
0.0
  0
LINE
  5
E6
330
22
100
AcDbEntity
  8
0
  6
Continuous
 62
     7
100
AcDbLine
 10
-160.4295806884766
 20
189.4472961425781
 30
0.0
 11
-158.0995788574219
 21
191.7772979736328
 31
0.0
  0
LINE
  5
E7
330
22
100
AcDbEntity
  8
0
  6
Continuous
 62
     7
100
AcDbLine
 10
-157.6011505126953
 20
189.4472961425781
 30
0.0
 11
-155.2711486816406
 21
191.7772979736328
 31
0.0
  0
LINE
  5
E8
330
22
100
AcDbEntity
  8
0
  6
Continuous
 62
     7
100
AcDbLine
 10
-154.7727355957031
 20
189.4472961425781
 30
0.0
 11
-152.4427337646484
 21
191.7772979736328
 31
0.0
  0
LINE
  5
E9
330
22
100
AcDbEntity
  8
0
  6
Continuous
 62
     7
100
AcDbLine
 10
-151.9443054199219
 20
189.4472961425781
 30
0.0
 11
-149.6143035888672
 21
191.7772979736328
 31
0.0
  0
LINE
  5
EA
330
22
100
AcDbEntity
  8
0
  6
Continuous
 62
     7
100
AcDbLine
 10
-149.1158752441406
 20
189.4472961425781
 30
0.0
 11
-146.7858734130859
 21
191.7772979736328
 31
0.0
  0
LINE
  5
EB
330
22
100
AcDbEntity
  8
0
  6
Continuous
 62
     7
100
AcDbLine
 10
-146.2874450683594
 20
189.4472961425781
 30
0.0
 11
-143.9574432373047
 21
191.7772979736328
 31
0.0
  0
LINE
  5
EC
330
22
100
AcDbEntity
  8
0
  6
Continuous
 62
     7
100
AcDbLine
 10
-143.4590148925781
 20
189.4472961425781
 30
0.0
 11
-141.1290130615234
 21
191.7772979736328
 31
0.0
  0
LINE
  5
ED
330
22
100
AcDbEntity
  8
0
  6
Continuous
 62
     7
100
AcDbLine
 10
-140.6305999755859
 20
189.4472961425781
 30
0.0
 11
-138.3005981445313
 21
191.7772979736328
 31
0.0
  0
LINE
  5
EE
330
22
100
AcDbEntity
  8
0
  6
Continuous
 62
     7
100
AcDbLine
 10
-137.8021697998047
 20
189.4472961425781
 30
0.0
 11
-135.47216796875
 21
191.7772979736328
 31
0.0
  0
LINE
  5
EF
330
22
100
AcDbEntity
  8
0
  6
Continuous
 62
     7
100
AcDbLine
 10
-134.9737396240234
 20
189.4472961425781
 30
0.0
 11
-132.6437377929688
 21
191.7772979736328
 31
0.0
  0
LINE
  5
F0
330
22
100
AcDbEntity
  8
0
  6
Continuous
 62
     7
100
AcDbLine
 10
-132.1453094482422
 20
189.4472961425781
 30
0.0
 11
-129.8153076171875
 21
191.7772979736328
 31
0.0
  0
LINE
  5
F1
330
22
100
AcDbEntity
  8
0
  6
Continuous
 62
     7
100
AcDbLine
 10
-129.3168792724609
 20
189.4472961425781
 30
0.0
 11
-126.9868850708008
 21
191.7772979736328
 31
0.0
  0
LINE
  5
F2
330
22
100
AcDbEntity
  8
0
  6
Continuous
 62
     7
100
AcDbLine
 10
-126.4884567260742
 20
189.4472961425781
 30
0.0
 11
-124.1584548950195
 21
191.7772979736328
 31
0.0
  0
LINE
  5
F3
330
22
100
AcDbEntity
  8
0
  6
Continuous
 62
     7
100
AcDbLine
 10
-123.6600341796875
 20
189.4472961425781
 30
0.0
 11
-121.3300323486328
 21
191.7772979736328
 31
0.0
  0
LINE
  5
F4
330
22
100
AcDbEntity
  8
0
  6
Continuous
 62
     7
100
AcDbLine
 10
-120.8316040039063
 20
189.4472961425781
 30
0.0
 11
-118.5016021728516
 21
191.7772979736328
 31
0.0
  0
LINE
  5
F5
330
22
100
AcDbEntity
  8
0
  6
Continuous
 62
     7
100
AcDbLine
 10
-171.0079040527344
 20
199.4472961425781
 30
0.0
 11
-172.0579071044921
 21
199.4472961425781
 31
0.0
  0
LINE
  5
F6
330
22
100
AcDbEntity
  8
0
  6
Continuous
 62
     7
100
AcDbLine
 10
-108.0079116821289
 20
245.4472961425781
 30
0.0
 11
-108.0079116821289
 21
202.4472961425781
 31
0.0
  0
LINE
  5
F7
330
22
100
AcDbEntity
  8
0
  6
CENTER
 62
     7
100
AcDbLine
 10
-179.6035308837891
 20
197.1972961425781
 30
0.0
 11
-162.6701965332031
 21
197.1972961425781
 31
0.0
  0
LINE
  5
F8
330
22
100
AcDbEntity
  8
0
  6
Continuous
 62
     7
100
AcDbLine
 10
-118.0079116821289
 20
189.4472961425781
 30
0.0
 11
-171.0079040527344
 21
189.4472961425781
 31
0.0
  0
LINE
  5
F9
330
22
100
AcDbEntity
  8
0
  6
Continuous
 62
     7
100
AcDbLine
 10
-119.4779052734375
 20
193.2472991943359
 30
0.0
 11
-164.5379028320313
 21
193.2472991943359
 31
0.0
  0
LINE
  5
FA
330
22
100
AcDbEntity
  8
0
  6
Continuous
 62
     7
100
AcDbLine
 10
-171.8079071044922
 20
199.1972961425781
 30
0.0
 11
-168.3879089355469
 21
199.1972961425781
 31
0.0
  0
LINE
  5
FB
330
22
100
AcDbEntity
  8
0
  6
Continuous
 62
     7
100
AcDbLine
 10
-103.5079116821289
 20
197.9472961425781
 30
0.0
 11
-81.00791168212891
 21
197.9472961425781
 31
0.0
  0
LINE
  5
FC
330
22
100
AcDbEntity
  8
0
  6
Continuous
 62
     7
100
AcDbLine
 10
-107.0079116821289
 20
230.69970703125
 30
0.0
 11
-108.0079116821289
 21
231.69970703125
 31
0.0
  0
LINE
  5
FD
330
22
100
AcDbEntity
  8
0
  6
Continuous
 62
     7
100
AcDbLine
 10
-138.0079040527344
 20
193.2472991943359
 30
0.0
 11
-138.0079040527344
 21
196.4472961425781
 31
0.0
  0
LINE
  5
FE
330
22
100
AcDbEntity
  8
0
  6
Continuous
 62
     7
100
AcDbLine
 10
-174.0079040527344
 20
192.9972991943359
 30
0.0
 11
-171.8079071044922
 21
195.1972961425781
 31
0.0
  0
LINE
  5
FF
330
22
100
AcDbEntity
  8
0
  6
Continuous
 62
     7
100
AcDbLine
 10
-170.0079040527344
 20
213.4472961425781
 30
0.0
 11
-174.0079040527344
 21
206.4472961425781
 31
0.0
  0
LINE
  5
100
330
22
100
AcDbEntity
  8
0
  6
Continuous
 62
     7
100
AcDbLine
 10
-171.8079071044922
 20
199.1972961425781
 30
0.0
 11
-171.4279022216797
 21
198.8172912597656
 31
0.0
  0
LINE
  5
101
330
22
100
AcDbEntity
  8
0
  6
Continuous
 62
     7
100
AcDbLine
 10
-171.8079071044922
 20
195.1972961425781
 30
0.0
 11
-171.4279022216797
 21
195.5773010253906
 31
0.0
  0
LINE
  5
102
330
22
100
AcDbEntity
  8
0
  6
Continuous
 62
     7
100
AcDbLine
 10
-173.0067443847656
 20
204.4472961425781
 30
0.0
 11
-171.0079040527344
 21
202.4484710693359
 31
0.0
  0
LINE
  5
103
330
22
100
AcDbEntity
  8
0
  6
Continuous
 62
     7
100
AcDbLine
 10
-173.7138519287109
 20
204.4472961425781
 30
0.0
 11
-171.0079040527344
 21
201.7413635253906
 31
0.0
  0
LINE
  5
104
330
22
100
AcDbEntity
  8
0
  6
Continuous
 62
     7
100
AcDbLine
 10
-174.0079040527344
 20
202.6200408935547
 30
0.0
 11
-171.0079040527344
 21
199.6200408935547
 31
0.0
  0
LINE
  5
105
330
22
100
AcDbEntity
  8
0
  6
Continuous
 62
     7
100
AcDbLine
 10
-174.0079040527344
 20
201.9129333496094
 30
0.0
 11
-171.5422821044922
 21
199.4472961425781
 31
0.0
  0
LINE
  5
106
330
22
100
AcDbEntity
  8
0
  6
Continuous
 62
     7
100
AcDbLine
 10
-171.9920196533203
 20
194.9472961425781
 30
0.0
 11
-171.0079040527344
 21
193.9631805419922
 31
0.0
  0
LINE
  5
107
330
22
100
AcDbEntity
  8
0
  6
Continuous
 62
     7
100
AcDbLine
 10
-172.3785247802734
 20
194.6266937255859
 30
0.0
 11
-171.0079040527344
 21
193.2560729980469
 31
0.0
  0
LINE
  5
108
330
22
100
AcDbEntity
  8
0
  6
Continuous
 62
     7
100
AcDbLine
 10
-173.4391784667969
 20
193.5660247802734
 30
0.0
 11
-171.0079040527344
 21
191.1347503662109
 31
0.0
  0
LINE
  5
109
330
22
100
AcDbEntity
  8
0
  6
Continuous
 62
     7
100
AcDbLine
 10
-173.7927398681641
 20
193.2124786376953
 30
0.0
 11
-171.0079040527344
 21
190.4276428222656
 31
0.0
  0
LINE
  5
10A
330
22
100
AcDbEntity
  8
0
  6
Continuous
 62
     7
100
AcDbLine
 10
-174.0079040527344
 20
191.3063354492188
 30
0.0
 11
-171.0079040527344
 21
188.3063354492188
 31
0.0
  0
LINE
  5
10B
330
22
100
AcDbEntity
  8
0
  6
Continuous
 62
     7
100
AcDbLine
 10
-174.0079040527344
 20
190.5992279052734
 30
0.0
 11
-171.0079040527344
 21
187.5992279052734
 31
0.0
  0
LINE
  5
10C
330
22
100
AcDbEntity
  8
0
  6
Continuous
 62
     7
100
AcDbLine
 10
-174.0079040527344
 20
188.4779052734375
 30
0.0
 11
-171.0079040527344
 21
185.4779052734375
 31
0.0
  0
LINE
  5
10D
330
22
100
AcDbEntity
  8
0
  6
Continuous
 62
     7
100
AcDbLine
 10
-174.0079040527344
 20
187.7707977294922
 30
0.0
 11
-171.0079040527344
 21
184.7707977294922
 31
0.0
  0
LINE
  5
10E
330
22
100
AcDbEntity
  8
0
  6
Continuous
 62
     7
100
AcDbLine
 10
-174.0079040527344
 20
185.6494750976563
 30
0.0
 11
-171.0079040527344
 21
182.6494750976563
 31
0.0
  0
LINE
  5
10F
330
22
100
AcDbEntity
  8
0
  6
Continuous
 62
     7
100
AcDbLine
 10
-174.0079040527344
 20
184.9423675537109
 30
0.0
 11
-171.0079040527344
 21
181.9423675537109
 31
0.0
  0
LINE
  5
110
330
22
100
AcDbEntity
  8
0
  6
Continuous
 62
     7
100
AcDbLine
 10
-174.0079040527344
 20
182.821044921875
 30
0.0
 11
-171.0079040527344
 21
179.821044921875
 31
0.0
  0
LINE
  5
111
330
22
100
AcDbEntity
  8
0
  6
Continuous
 62
     7
100
AcDbLine
 10
-174.0079040527344
 20
182.1139373779297
 30
0.0
 11
-171.0079040527344
 21
179.1139373779297
 31
0.0
  0
LINE
  5
112
330
22
100
AcDbEntity
  8
0
  6
Continuous
 62
     7
100
AcDbLine
 10
-174.0079040527344
 20
179.9926147460938
 30
0.0
 11
-171.0079040527344
 21
176.9926147460938
 31
0.0
  0
LINE
  5
113
330
22
100
AcDbEntity
  8
0
  6
Continuous
 62
     7
100
AcDbLine
 10
-174.0079040527344
 20
179.2855072021484
 30
0.0
 11
-171.1696929931641
 21
176.4472961425781
 31
0.0
  0
LINE
  5
114
330
22
100
AcDbEntity
  8
0
  6
Continuous
 62
     7
100
AcDbLine
 10
-174.0079040527344
 20
177.1641998291016
 30
0.0
 11
-173.291015625
 21
176.4472961425781
 31
0.0
  0
LINE
  5
115
330
22
100
AcDbEntity
  8
0
  6
Continuous
 62
     7
100
AcDbLine
 10
-174.0079040527344
 20
176.4570922851563
 30
0.0
 11
-173.9981231689453
 21
176.4472961425781
 31
0.0
  0
LINE
  5
116
330
22
100
AcDbEntity
  8
0
  6
Continuous
 62
     7
100
AcDbLine
 10
-171.0079040527344
 20
204.9472961425781
 30
0.0
 11
-171.0079040527344
 21
199.1972961425781
 31
0.0
  0
LINE
  5
117
330
22
100
AcDbEntity
  8
0
  6
Continuous
 62
     7
100
AcDbLine
 10
-174.0079040527344
 20
204.4472961425781
 30
0.0
 11
-171.0079040527344
 21
204.4472961425781
 31
0.0
  0
LINE
  5
118
330
22
100
AcDbEntity
  8
0
  6
Continuous
 62
     7
100
AcDbLine
 10
-174.0079040527344
 20
201.3972930908203
 30
0.0
 11
-171.8079071044922
 21
199.1972961425781
 31
0.0
  0
LINE
  5
119
330
22
100
AcDbEntity
  8
0
  6
Continuous
 62
     7
100
AcDbLine
 10
-136.5289154052734
 20
192.9232940673828
 30
0.0
 11
-109.4869079589844
 21
192.9232940673828
 31
0.0
  0
LINE
  5
11A
330
22
100
AcDbEntity
  8
0
  6
Continuous
 62
     7
100
AcDbLine
 10
-168.0079040527344
 20
213.4472961425781
 30
0.0
 11
-170.0079040527344
 21
213.4472961425781
 31
0.0
  0
LINE
  5
11B
330
22
100
AcDbEntity
  8
0
  6
Continuous
 62
     7
100
AcDbLine
 10
-168.0079040527344
 20
198.8172912597656
 30
0.0
 11
-171.4279022216797
 21
198.8172912597656
 31
0.0
  0
LINE
  5
11C
330
22
100
AcDbEntity
  8
0
  6
Continuous
 62
     7
100
AcDbLine
 10
-168.0079040527344
 20
195.5773010253906
 30
0.0
 11
-171.4279022216797
 21
195.5773010253906
 31
0.0
  0
LINE
  5
11D
330
22
100
AcDbEntity
  8
0
  6
Continuous
 62
     7
100
AcDbLine
 10
-166.0079040527344
 20
191.7772979736328
 30
0.0
 11
-164.5379028320313
 21
193.2472991943359
 31
0.0
  0
LINE
  5
11E
330
22
100
AcDbEntity
  8
0
  6
Continuous
 62
     7
100
AcDbLine
 10
-168.0079040527344
 20
213.4472961425781
 30
0.0
 11
-168.0079040527344
 21
191.7772979736328
 31
0.0
  0
LINE
  5
11F
330
22
100
AcDbEntity
  8
0
  6
Continuous
 62
     7
100
AcDbLine
 10
-118.0079116821289
 20
191.7772979736328
 30
0.0
 11
-119.4779052734375
 21
193.2472991943359
 31
0.0
  0
LINE
  5
120
330
22
100
AcDbEntity
  8
0
  6
Continuous
 62
     7
100
AcDbLine
 10
-105.0079116821289
 20
247.4472961425781
 30
0.0
 11
-106.0079116821289
 21
247.4472961425781
 31
0.0
  0
LINE
  5
121
330
22
100
AcDbEntity
  8
0
  6
Continuous
 62
     7
100
AcDbLine
 10
-108.0079116821289
 20
193.669921875
 30
0.0
 11
-103.4427871704102
 21
193.669921875
 31
0.0
  0
LINE
  5
122
330
22
100
AcDbEntity
  8
0
  6
Continuous
 62
     7
100
AcDbLine
 10
-81.53536987304688
 20
192.8748474121094
 30
0.0
 11
-102.0079116821289
 21
192.2350463867188
 31
0.0
  0
LINE
  5
123
330
22
100
AcDbEntity
  8
0
  6
Continuous
 62
     7
100
AcDbLine
 10
-174.0079040527344
 20
204.9472961425781
 30
0.0
 11
-171.0079040527344
 21
204.9472961425781
 31
0.0
  0
LINE
  5
124
330
22
100
AcDbEntity
  8
0
  6
Continuous
 62
     7
100
AcDbLine
 10
-171.0079040527344
 20
194.9472961425781
 30
0.0
 11
-172.0579071044921
 21
194.9472961425781
 31
0.0
  0
LINE
  5
125
330
22
100
AcDbEntity
  8
0
  6
Continuous
 62
     7
100
AcDbLine
 10
-174.0079040527344
 20
176.4472961425781
 30
0.0
 11
-171.0079040527344
 21
176.4472961425781
 31
0.0
  0
LINE
  5
126
330
22
100
AcDbEntity
  8
0
  6
Continuous
 62
     7
100
AcDbLine
 10
-174.0079040527344
 20
201.3972930908203
 30
0.0
 11
-174.0079040527344
 21
192.9972991943359
 31
0.0
  0
LINE
  5
127
330
22
100
AcDbEntity
  8
0
  6
Continuous
 62
     7
100
AcDbLine
 10
-80.0079116821289
 20
194.4022979736328
 30
0.0
 11
-103.4427871704102
 21
193.669921875
 31
0.0
  0
LINE
  5
128
330
22
100
AcDbEntity
  8
0
  6
Continuous
 62
     7
100
AcDbLine
 10
-113.0079116821289
 20
197.4472961425781
 30
0.0
 11
-137.0079040527344
 21
197.4472961425781
 31
0.0
  0
LINE
  5
129
330
22
100
AcDbEntity
  8
0
  6
Continuous
 62
     7
100
AcDbLine
 10
-109.4869079589844
 20
192.9232940673828
 30
0.0
 11
-108.0079116821289
 21
194.4022979736328
 31
0.0
  0
LINE
  5
12A
330
22
100
AcDbEntity
  8
0
  6
Continuous
 62
     7
100
AcDbLine
 10
-102.0079116821289
 20
192.2350463867188
 30
0.0
 11
-103.4427871704102
 21
193.669921875
 31
0.0
  0
LINE
  5
12B
330
22
100
AcDbEntity
  8
0
  6
Continuous
 62
     7
100
AcDbLine
 10
-107.0079116821289
 20
214.6972961425781
 30
0.0
 11
-108.0079116821289
 21
213.6972961425781
 31
0.0
  0
LINE
  5
12C
330
22
100
AcDbEntity
  8
0
  6
Continuous
 62
     7
100
AcDbLine
 10
-104.5079116821289
 20
198.9472961425781
 30
0.0
 11
-104.5079116821289
 21
246.9472961425781
 31
0.0
  0
LINE
  5
12D
330
22
100
AcDbEntity
  8
0
  6
Continuous
 62
     7
100
AcDbLine
 10
-171.8079071044922
 20
195.1972961425781
 30
0.0
 11
-168.3879089355469
 21
195.1972961425781
 31
0.0
  0
LINE
  5
12E
330
22
100
AcDbEntity
  8
0
  6
Continuous
 62
     7
100
AcDbLine
 10
-174.0079040527344
 20
178.8542327880859
 30
0.0
 11
-174.0079040527344
 21
173.2828979492188
 31
0.0
  0
LINE
  5
12F
330
22
100
AcDbEntity
  8
0
  6
Continuous
 62
     7
100
AcDbLine
 10
-118.0079116821289
 20
178.8542327880859
 30
0.0
 11
-118.0079116821289
 21
173.2828979492188
 31
0.0
  0
LINE
  5
130
330
22
100
AcDbEntity
  8
0
  6
Continuous
 62
     7
100
AcDbLine
 10
-168.0079040527344
 20
195.5773010253906
 30
0.0
 11
-168.3879089355469
 21
195.1972961425781
 31
0.0
  0
LINE
  5
131
330
22
100
AcDbEntity
  8
0
  6
Continuous
 62
     7
100
AcDbLine
 10
-168.0079040527344
 20
198.8172912597656
 30
0.0
 11
-168.0079040527344
 21
195.5773010253906
 31
0.0
  0
LINE
  5
132
330
22
100
AcDbEntity
  8
0
  6
Continuous
 62
     7
100
AcDbLine
 10
-108.0079116821289
 20
101.4472961425781
 30
0.0
 11
-108.0079116821289
 21
173.4472961425781
 31
0.0
  0
LINE
  5
133
330
22
100
AcDbEntity
  8
0
  6
Continuous
 62
     7
100
AcDbLine
 10
-104.5079116821289
 20
135.9472961425781
 30
0.0
 11
-103.034553527832
 21
135.9472961425781
 31
0.0
  0
LINE
  5
134
330
22
100
AcDbEntity
  8
0
  6
Continuous
 62
     7
100
AcDbLine
 10
-104.5079116821289
 20
173.4472961425781
 30
0.0
 11
-104.5079116821289
 21
99.94729614257813
 31
0.0
  0
LINE
  5
135
330
22
100
AcDbEntity
  8
0
  6
Continuous
 62
     7
100
AcDbLine
 10
-166.0079040527344
 20
155.1172943115234
 30
0.0
 11
-164.5379028320313
 21
153.6472930908203
 31
0.0
  0
LINE
  5
136
330
22
100
AcDbEntity
  8
0
  6
Continuous
 62
     7
100
AcDbLine
 10
-168.0079040527344
 20
155.1172943115234
 30
0.0
 11
-166.0079040527344
 21
155.1172943115234
 31
0.0
  0
LINE
  5
137
330
22
100
AcDbEntity
  8
0
  6
Continuous
 62
     7
100
AcDbLine
 10
-166.0079040527344
 20
155.1172943115234
 30
0.0
 11
-138.0079040527344
 21
155.1172943115234
 31
0.0
  0
LINE
  5
138
330
22
100
AcDbEntity
  8
0
  6
Continuous
 62
     7
100
AcDbLine
 10
-138.0079040527344
 20
153.6472930908203
 30
0.0
 11
-164.5379028320313
 21
153.6472930908203
 31
0.0
  0
LINE
  5
139
330
22
100
AcDbEntity
  8
0
  6
Continuous
 62
     7
100
AcDbLine
 10
-168.0079040527344
 20
133.4472961425781
 30
0.0
 11
-170.0079040527344
 21
133.4472961425781
 31
0.0
  0
LINE
  5
13A
330
22
100
AcDbEntity
  8
0
  6
Continuous
 62
     7
100
AcDbLine
 10
-107.9738311767578
 20
245.6186370849609
 30
0.0
 11
-106.1792449951172
 21
247.4132232666016
 31
0.0
  0
LINE
  5
13B
330
22
100
AcDbEntity
  8
0
  6
Continuous
 62
     7
100
AcDbLine
 10
-108.0079116821289
 20
242.7561187744141
 30
0.0
 11
-104.5079116821289
 21
246.2561187744141
 31
0.0
  0
LINE
  5
13C
330
22
100
AcDbEntity
  8
0
  6
Continuous
 62
     7
100
AcDbLine
 10
-108.0079116821289
 20
239.9277038574219
 30
0.0
 11
-104.5079116821289
 21
243.4277038574219
 31
0.0
  0
LINE
  5
13D
330
22
100
AcDbEntity
  8
0
  6
Continuous
 62
     7
100
AcDbLine
 10
-108.0079116821289
 20
237.0992736816406
 30
0.0
 11
-104.5079116821289
 21
240.5992736816406
 31
0.0
  0
LINE
  5
13E
330
22
100
AcDbEntity
  8
0
  6
Continuous
 62
     7
100
AcDbLine
 10
-108.0079116821289
 20
234.2708435058594
 30
0.0
 11
-104.5079116821289
 21
237.7708435058594
 31
0.0
  0
LINE
  5
13F
330
22
100
AcDbEntity
  8
0
  6
Continuous
 62
     7
100
AcDbLine
 10
-107.879264831543
 20
231.5710601806641
 30
0.0
 11
-104.5079116821289
 21
234.9424133300781
 31
0.0
  0
LINE
  5
140
330
22
100
AcDbEntity
  8
0
  6
Continuous
 62
     7
100
AcDbLine
 10
-108.0079116821289
 20
228.6139831542969
 30
0.0
 11
-104.5079116821289
 21
232.1139831542969
 31
0.0
  0
LINE
  5
141
330
22
100
AcDbEntity
  8
0
  6
Continuous
 62
     7
100
AcDbLine
 10
-108.0079116821289
 20
225.7855682373047
 30
0.0
 11
-104.5079116821289
 21
229.2855682373047
 31
0.0
  0
LINE
  5
142
330
22
100
AcDbEntity
  8
0
  6
Continuous
 62
     7
100
AcDbLine
 10
-138.0079040527344
 20
195.7855682373047
 30
0.0
 11
-136.3461761474609
 21
197.4472961425781
 31
0.0
  0
LINE
  5
143
330
22
100
AcDbEntity
  8
0
  6
Continuous
 62
     7
100
AcDbLine
 10
-108.0079116821289
 20
222.9571380615234
 30
0.0
 11
-104.5079116821289
 21
226.4571380615234
 31
0.0
  0
LINE
  5
144
330
22
100
AcDbEntity
  8
0
  6
Continuous
 62
     7
100
AcDbLine
 10
-136.562744140625
 20
194.4022979736328
 30
0.0
 11
-133.5177459716797
 21
197.4472961425781
 31
0.0
  0
LINE
  5
145
330
22
100
AcDbEntity
  8
0
  6
Continuous
 62
     7
100
AcDbLine
 10
-108.0079116821289
 20
220.1287078857422
 30
0.0
 11
-104.5079116821289
 21
223.6287078857422
 31
0.0
  0
LINE
  5
146
330
22
100
AcDbEntity
  8
0
  6
Continuous
 62
     7
100
AcDbLine
 10
-133.7343139648438
 20
194.4022979736328
 30
0.0
 11
-130.6893157958984
 21
197.4472961425781
 31
0.0
  0
LINE
  5
147
330
22
100
AcDbEntity
  8
0
  6
Continuous
 62
     7
100
AcDbLine
 10
-108.0079116821289
 20
217.3002777099609
 30
0.0
 11
-104.5079116821289
 21
220.8002777099609
 31
0.0
  0
LINE
  5
148
330
22
100
AcDbEntity
  8
0
  6
Continuous
 62
     7
100
AcDbLine
 10
-130.9058990478516
 20
194.4022979736328
 30
0.0
 11
-127.8608932495117
 21
197.4472961425781
 31
0.0
  0
LINE
  5
149
330
22
100
AcDbEntity
  8
0
  6
Continuous
 62
     7
100
AcDbLine
 10
-107.3951873779297
 20
215.0845794677734
 30
0.0
 11
-104.5079116821289
 21
217.9718475341797
 31
0.0
  0
LINE
  5
14A
330
22
100
AcDbEntity
  8
0
  6
Continuous
 62
     7
100
AcDbLine
 10
-128.0774688720702
 20
194.4022979736328
 30
0.0
 11
-125.0324630737305
 21
197.4472961425781
 31
0.0
  0
LINE
  5
14B
330
22
100
AcDbEntity
  8
0
  6
Continuous
 62
     7
100
AcDbLine
 10
-108.0079116821289
 20
211.6434326171875
 30
0.0
 11
-104.5079116821289
 21
215.1434326171875
 31
0.0
  0
LINE
  5
14C
330
22
100
AcDbEntity
  8
0
  6
Continuous
 62
     7
100
AcDbLine
 10
-125.2490386962891
 20
194.4022979736328
 30
0.0
 11
-122.2040405273438
 21
197.4472961425781
 31
0.0
  0
LINE
  5
14D
330
22
100
AcDbEntity
  8
0
  6
Continuous
 62
     7
100
AcDbLine
 10
-108.0079116821289
 20
208.8150024414063
 30
0.0
 11
-104.5079116821289
 21
212.3150024414063
 31
0.0
  0
LINE
  5
14E
330
22
100
AcDbEntity
  8
0
  6
Continuous
 62
     7
100
AcDbLine
 10
-122.4206085205078
 20
194.4022979736328
 30
0.0
 11
-119.3756103515625
 21
197.4472961425781
 31
0.0
  0
LINE
  5
14F
330
22
100
AcDbEntity
  8
0
  6
Continuous
 62
     7
100
AcDbLine
 10
-108.0079116821289
 20
205.986572265625
 30
0.0
 11
-104.5079116821289
 21
209.486572265625
 31
0.0
  0
LINE
  5
150
330
22
100
AcDbEntity
  8
0
  6
Continuous
 62
     7
100
AcDbLine
 10
-119.5921859741211
 20
194.4022979736328
 30
0.0
 11
-116.5471878051758
 21
197.4472961425781
 31
0.0
  0
LINE
  5
151
330
22
100
AcDbEntity
  8
0
  6
Continuous
 62
     7
100
AcDbLine
 10
-108.0079116821289
 20
203.1581420898438
 30
0.0
 11
-104.5079116821289
 21
206.6581420898438
 31
0.0
  0
LINE
  5
152
330
22
100
AcDbEntity
  8
0
  6
Continuous
 62
     7
100
AcDbLine
 10
-116.7637557983398
 20
194.4022979736328
 30
0.0
 11
-113.7187576293945
 21
197.4472961425781
 31
0.0
  0
LINE
  5
153
330
22
100
AcDbEntity
  8
0
  6
Continuous
 62
     7
100
AcDbLine
 10
-113.9353332519531
 20
194.4022979736328
 30
0.0
 11
-104.5079116821289
 21
203.8297119140625
 31
0.0
  0
LINE
  5
154
330
22
100
AcDbEntity
  8
0
  6
Continuous
 62
     7
100
AcDbLine
 10
-111.1069030761719
 20
194.4022979736328
 30
0.0
 11
-104.5079116821289
 21
201.0012969970703
 31
0.0
  0
LINE
  5
155
330
22
100
AcDbEntity
  8
0
  6
Continuous
 62
     7
100
AcDbLine
 10
-108.2784729003906
 20
194.4022979736328
 30
0.0
 11
-104.3053665161133
 21
198.3754119873047
 31
0.0
  0
LINE
  5
156
330
22
100
AcDbEntity
  8
0
  6
Continuous
 62
     7
100
AcDbLine
 10
-105.4500503540039
 20
194.4022979736328
 30
0.0
 11
-101.9050521850586
 21
197.9472961425781
 31
0.0
  0
LINE
  5
157
330
22
100
AcDbEntity
  8
0
  6
Continuous
 62
     7
100
AcDbLine
 10
-103.2942657470703
 20
193.7296600341797
 30
0.0
 11
-99.07662200927735
 21
197.9472961425781
 31
0.0
  0
LINE
  5
158
330
22
100
AcDbEntity
  8
0
  6
Continuous
 62
     7
100
AcDbLine
 10
-100.4314651489258
 20
193.7640228271484
 30
0.0
 11
-96.24819183349607
 21
197.9472961425781
 31
0.0
  0
LINE
  5
159
330
22
100
AcDbEntity
  8
0
  6
Continuous
 62
     7
100
AcDbLine
 10
-97.51178741455078
 20
193.8552703857422
 30
0.0
 11
-93.41976928710938
 21
197.9472961425781
 31
0.0
  0
LINE
  5
15A
330
22
100
AcDbEntity
  8
0
  6
Continuous
 62
     7
100
AcDbLine
 10
-94.59211730957031
 20
193.9465179443359
 30
0.0
 11
-90.59133911132812
 21
197.9472961425781
 31
0.0
  0
LINE
  5
15B
330
22
100
AcDbEntity
  8
0
  6
Continuous
 62
     7
100
AcDbLine
 10
-91.67244720458985
 20
194.0377655029297
 30
0.0
 11
-87.76291656494141
 21
197.9472961425781
 31
0.0
  0
LINE
  5
15C
330
22
100
AcDbEntity
  8
0
  6
Continuous
 62
     7
100
AcDbLine
 10
-88.75277709960938
 20
194.1290130615234
 30
0.0
 11
-84.93448638916015
 21
197.9472961425781
 31
0.0
  0
LINE
  5
15D
330
22
100
AcDbEntity
  8
0
  6
Continuous
 62
     7
100
AcDbLine
 10
-85.8331069946289
 20
194.2202453613281
 30
0.0
 11
-82.1060562133789
 21
197.9472961425781
 31
0.0
  0
LINE
  5
15E
330
22
100
AcDbEntity
  8
0
  6
Continuous
 62
     7
100
AcDbLine
 10
-82.91343688964843
 20
194.3114929199219
 30
0.0
 11
-80.05265808105468
 21
197.1722717285156
 31
0.0
  0
LINE
  5
15F
330
22
100
AcDbEntity
  8
0
  6
Continuous
 62
     7
100
AcDbLine
 10
-138.0079040527344
 20
194.4022979736328
 30
0.0
 11
-108.0079116821289
 21
194.4022979736328
 31
0.0
  0
LINE
  5
160
330
22
100
AcDbEntity
  8
0
  6
Continuous
 62
     7
100
AcDbLine
 10
-138.0079040527344
 20
194.4022979736328
 30
0.0
 11
-136.5289154052734
 21
192.9232940673828
 31
0.0
  0
LINE
  5
161
330
22
100
AcDbEntity
  8
0
  6
Continuous
 62
     7
100
AcDbLine
 10
-107.0079116821289
 20
230.69970703125
 30
0.0
 11
-108.0079116821289
 21
229.69970703125
 31
0.0
  0
LINE
  5
162
330
22
100
AcDbEntity
  8
0
  6
Continuous
 62
     7
100
AcDbLine
 10
-80.0079116821289
 20
194.4022979736328
 30
0.0
 11
-81.53536987304688
 21
192.8748474121094
 31
0.0
  0
LINE
  5
163
330
22
100
AcDbEntity
  8
0
  6
Continuous
 62
     7
100
AcDbLine
 10
-107.0079116821289
 20
214.6972961425781
 30
0.0
 11
-108.0079116821289
 21
215.6972961425781
 31
0.0
  0
LINE
  5
164
330
22
100
AcDbEntity
  8
0
  6
Continuous
 62
     7
100
AcDbLine
 10
-103.5079116821289
 20
148.9472961425781
 30
0.0
 11
-81.00791168212891
 21
148.9472961425781
 31
0.0
  0
LINE
  5
165
330
22
100
AcDbEntity
  8
0
  6
Continuous
 62
     7
100
AcDbLine
 10
-91.50791168212892
 20
148.9472961425781
 30
0.0
 11
-91.50791168212892
 21
147.4747772216797
 31
0.0
  0
LINE
  5
166
330
22
100
AcDbEntity
  8
0
  6
Continuous
 62
     7
100
AcDbLine
 10
-105.0079116821289
 20
99.44729614257813
 30
0.0
 11
-106.0079116821289
 21
99.44729614257813
 31
0.0
  0
LINE
  5
167
330
22
100
AcDbEntity
  8
0
  6
Continuous
 62
     7
100
AcDbLine
 10
-113.0079116821289
 20
149.4472961425781
 30
0.0
 11
-137.0079040527344
 21
149.4472961425781
 31
0.0
  0
LINE
  5
168
330
22
100
AcDbEntity
  8
0
  6
Continuous
 62
     7
100
AcDbLine
 10
-170.0079040527344
 20
133.4472961425781
 30
0.0
 11
-174.0079040527344
 21
140.4472961425781
 31
0.0
  0
LINE
  5
169
330
22
100
AcDbEntity
  8
0
  6
Continuous
 62
     7
100
AcDbLine
 10
-80.0079116821289
 20
149.9472961425781
 30
0.0
 11
-80.0079116821289
 21
196.9472961425781
 31
0.0
  0
LINE
  5
16A
330
22
100
AcDbEntity
  8
0
  6
Continuous
 62
     7
100
AcDbLine
 10
-102.0079116821289
 20
192.2350463867188
 30
0.0
 11
-102.0079116821289
 21
173.4472961425781
 31
0.0
  0
LINE
  5
16B
330
22
100
AcDbEntity
  8
0
  6
Continuous
 62
     7
100
AcDbLine
 10
-108.0079116821289
 20
194.4022979736328
 30
0.0
 11
-108.0079116821289
 21
173.4472961425781
 31
0.0
  0
LINE
  5
16C
330
22
100
AcDbEntity
  8
0
  6
Continuous
 62
     7
100
AcDbLine
 10
-81.53536987304688
 20
192.8748474121094
 30
0.0
 11
-81.53536987304688
 21
173.4472961425781
 31
0.0
  0
LINE
  5
16D
330
22
100
AcDbEntity
  8
0
  6
Continuous
 62
     7
100
AcDbLine
 10
-103.4427871704102
 20
193.669921875
 30
0.0
 11
-103.4427871704102
 21
173.4472961425781
 31
0.0
  0
LINE
  5
16E
330
22
100
AcDbEntity
  8
0
  6
Continuous
 62
     7
100
AcDbLine
 10
-109.4869079589844
 20
173.4472961425781
 30
0.0
 11
-109.4869079589844
 21
192.9232940673828
 31
0.0
  0
LINE
  5
16F
330
22
100
AcDbEntity
  8
0
  6
Continuous
 62
     7
100
AcDbLine
 10
-174.0079040527344
 20
206.4472961425781
 30
0.0
 11
-174.0079040527344
 21
140.4472961425781
 31
0.0
  0
LINE
  5
170
330
22
100
AcDbEntity
  8
0
  6
Continuous
 62
     7
100
AcDbLine
 10
-171.0079040527344
 20
195.1972961425781
 30
0.0
 11
-171.0079040527344
 21
173.4472961425781
 31
0.0
  0
LINE
  5
171
330
22
100
AcDbEntity
  8
0
  6
Continuous
 62
     7
100
AcDbLine
 10
-170.0079040527344
 20
135.6753845214844
 30
0.0
 11
-170.0079040527344
 21
173.4472961425781
 31
0.0
  0
LINE
  5
172
330
22
100
AcDbEntity
  8
0
  6
Continuous
 62
     7
100
AcDbLine
 10
-118.0079116821289
 20
191.7772979736328
 30
0.0
 11
-118.0079116821289
 21
173.4472961425781
 31
0.0
  0
LINE
  5
173
330
22
100
AcDbEntity
  8
0
  6
Continuous
 62
     7
100
AcDbLine
 10
-168.0079040527344
 20
173.4472961425781
 30
0.0
 11
-168.0079040527344
 21
133.4472961425781
 31
0.0
  0
LINE
  5
174
330
22
100
AcDbEntity
  8
0
  6
Continuous
 62
     7
100
AcDbLine
 10
-138.0079040527344
 20
150.4472961425781
 30
0.0
 11
-138.0079040527344
 21
173.4472961425781
 31
0.0
  0
LINE
  5
175
330
22
100
AcDbEntity
  8
0
  6
Continuous
 62
     7
100
AcDbLine
 10
-166.0079040527344
 20
155.1172943115234
 30
0.0
 11
-166.0079040527344
 21
173.4472961425781
 31
0.0
  0
LINE
  5
176
330
22
100
AcDbEntity
  8
0
  6
CENTER
 62
     7
100
AcDbLine
 10
-77.32694244384766
 20
173.4472961425781
 30
0.0
 11
-184.1947631835938
 21
173.4472961425781
 31
0.0
  0
LINE
  5
177
330
22
100
AcDbEntity
  8
0
  6
Continuous
 62
     7
100
AcDbLine
 10
-313.3932495117188
 20
201.6187591552734
 30
0.0
 11
-313.0103149414063
 21
201.4552612304688
 31
0.0
  0
LINE
  5
178
330
22
100
AcDbEntity
  8
0
  6
Continuous
 62
     7
100
AcDbLine
 10
-310.9790954589844
 20
196.4408111572266
 30
0.0
 11
-310.8154907226563
 21
196.8240509033203
 31
0.0
  0
LINE
  5
179
330
22
100
AcDbEntity
  8
0
  6
Continuous
 62
     7
100
AcDbLine
 10
-307.5079040527344
 20
184.1710968017578
 30
0.0
 11
-307.5079040527344
 21
180.6710968017578
 31
0.0
  0
LINE
  5
17A
330
22
100
AcDbEntity
  8
0
  6
Continuous
 62
     7
100
AcDbLine
 10
-325.5079040527344
 20
184.1710968017578
 30
0.0
 11
-325.5079040527344
 21
180.6710968017578
 31
0.0
  0
LINE
  5
17B
330
22
100
AcDbEntity
  8
0
  6
Continuous
 62
     7
100
AcDbLine
 10
-319.5079040527344
 20
177.113525390625
 30
0.0
 11
-319.5079040527344
 21
187.113525390625
 31
0.0
  0
LINE
  5
17C
330
22
100
AcDbEntity
  8
0
  6
Continuous
 62
     7
100
AcDbLine
 10
-321.5079040527344
 20
184.1710968017578
 30
0.0
 11
-321.5079040527344
 21
180.6710968017578
 31
0.0
  0
LINE
  5
17D
330
22
100
AcDbEntity
  8
0
  6
Continuous
 62
     7
100
AcDbLine
 10
-325.5079040527344
 20
166.2234954833984
 30
0.0
 11
-325.5079040527344
 21
162.7234954833984
 31
0.0
  0
LINE
  5
17E
330
22
100
AcDbEntity
  8
0
  6
Continuous
 62
     7
100
AcDbLine
 10
-315.62255859375
 20
194.2758483886719
 30
0.0
 11
-316.0054931640625
 21
194.4393310546875
 31
0.0
  0
LINE
  5
17F
330
22
100
AcDbEntity
  8
0
  6
Continuous
 62
     7
100
AcDbLine
 10
-310.8154907226563
 20
196.8240509033203
 30
0.0
 11
-313.4208679199219
 21
198.3838806152344
 31
0.0
  0
LINE
  5
180
330
22
100
AcDbEntity
  8
0
  6
Continuous
 62
     7
100
AcDbLine
 10
-311.1427001953125
 20
196.0575714111328
 30
0.0
 11
-314.0713195800781
 21
196.8602600097656
 31
0.0
  0
LINE
  5
181
330
22
100
AcDbEntity
  8
0
  6
Continuous
 62
     7
100
AcDbLine
 10
-312.6273803710938
 20
201.2917785644531
 30
0.0
 11
-313.0103149414063
 21
201.4552612304688
 31
0.0
  0
LINE
  5
182
330
22
100
AcDbEntity
  8
0
  6
Continuous
 62
     7
100
AcDbLine
 10
-318.2003173828125
 20
199.070556640625
 30
0.0
 11
-315.5949401855469
 21
197.5107116699219
 31
0.0
  0
LINE
  5
183
330
22
100
AcDbEntity
  8
0
  6
Continuous
 62
     7
100
AcDbLine
 10
-317.8731079101563
 20
199.8370208740234
 30
0.0
 11
-314.9444885253906
 21
199.0343475341797
 31
0.0
  0
LINE
  5
184
330
22
100
AcDbEntity
  8
0
  6
Continuous
 62
     7
100
AcDbLine
 10
-318.0367126464844
 20
199.4537811279297
 30
0.0
 11
-317.8731079101563
 21
199.8370208740234
 31
0.0
  0
LINE
  5
185
330
22
100
AcDbEntity
  8
0
  6
Continuous
 62
     7
100
AcDbLine
 10
-315.5079040527344
 20
177.113525390625
 30
0.0
 11
-315.5079040527344
 21
187.113525390625
 31
0.0
  0
LINE
  5
186
330
22
100
AcDbEntity
  8
0
  6
Continuous
 62
     7
100
AcDbLine
 10
-313.3932495117188
 20
201.6187591552734
 30
0.0
 11
-314.9444885253906
 21
199.0343475341797
 31
0.0
  0
LINE
  5
187
330
22
100
AcDbEntity
  8
0
  6
Continuous
 62
     7
100
AcDbLine
 10
-312.6273803710938
 20
201.2917785644531
 30
0.0
 11
-313.4208679199219
 21
198.3838806152344
 31
0.0
  0
LINE
  5
188
330
22
100
AcDbEntity
  8
0
  6
Continuous
 62
     7
100
AcDbLine
 10
-309.5079040527344
 20
177.113525390625
 30
0.0
 11
-309.5079040527344
 21
187.113525390625
 31
0.0
  0
LINE
  5
189
330
22
100
AcDbEntity
  8
0
  6
Continuous
 62
     7
100
AcDbLine
 10
-316.3884582519531
 20
194.6028137207031
 30
0.0
 11
-315.5949401855469
 21
197.5107116699219
 31
0.0
  0
LINE
  5
18A
330
22
100
AcDbEntity
  8
0
  6
Continuous
 62
     7
100
AcDbLine
 10
-318.0367126464844
 20
199.4537811279297
 30
0.0
 11
-318.2003173828125
 21
199.070556640625
 31
0.0
  0
LINE
  5
18B
330
22
100
AcDbEntity
  8
0
  6
Continuous
 62
     7
100
AcDbLine
 10
-313.5079040527344
 20
177.113525390625
 30
0.0
 11
-313.5079040527344
 21
187.113525390625
 31
0.0
  0
LINE
  5
18C
330
22
100
AcDbEntity
  8
0
  6
Continuous
 62
     7
100
AcDbLine
 10
-303.5079040527344
 20
184.1710968017578
 30
0.0
 11
-303.5079040527344
 21
180.6710968017578
 31
0.0
  0
LINE
  5
18D
330
22
100
AcDbEntity
  8
0
  6
Continuous
 62
     7
100
AcDbLine
 10
-316.3884582519531
 20
194.6028137207031
 30
0.0
 11
-316.0054931640625
 21
194.4393310546875
 31
0.0
  0
LINE
  5
18E
330
22
100
AcDbEntity
  8
0
  6
Continuous
 62
     7
100
AcDbLine
 10
-310.9790954589844
 20
196.4408111572266
 30
0.0
 11
-311.1427001953125
 21
196.0575714111328
 31
0.0
  0
LINE
  5
18F
330
22
100
AcDbEntity
  8
0
  6
Continuous
 62
     7
100
AcDbLine
 10
-315.62255859375
 20
194.2758483886719
 30
0.0
 11
-314.0713195800781
 21
196.8602600097656
 31
0.0
  0
LINE
  5
190
330
22
100
AcDbEntity
  8
0
  6
Continuous
 62
     7
100
AcDbLine
 10
-312.6273803710938
 20
152.2917785644531
 30
0.0
 11
-313.4208679199219
 21
149.3838806152344
 31
0.0
  0
LINE
  5
191
330
22
100
AcDbEntity
  8
0
  6
Continuous
 62
     7
100
AcDbLine
 10
-313.3932495117188
 20
152.6187591552734
 30
0.0
 11
-314.9444885253906
 21
150.0343475341797
 31
0.0
  0
LINE
  5
192
330
22
100
AcDbEntity
  8
0
  6
Continuous
 62
     7
100
AcDbLine
 10
-318.2003173828125
 20
150.070556640625
 30
0.0
 11
-315.5949401855469
 21
148.5107116699219
 31
0.0
  0
LINE
  5
193
330
22
100
AcDbEntity
  8
0
  6
Continuous
 62
     7
100
AcDbLine
 10
-318.0367126464844
 20
150.4537811279297
 30
0.0
 11
-318.2003173828125
 21
150.070556640625
 31
0.0
  0
LINE
  5
194
330
22
100
AcDbEntity
  8
0
  6
Continuous
 62
     7
100
AcDbLine
 10
-316.3884582519531
 20
145.6028137207031
 30
0.0
 11
-315.5949401855469
 21
148.5107116699219
 31
0.0
  0
LINE
  5
195
330
22
100
AcDbEntity
  8
0
  6
Continuous
 62
     7
100
AcDbLine
 10
-315.62255859375
 20
145.2758483886719
 30
0.0
 11
-316.0054931640625
 21
145.4393310546875
 31
0.0
  0
LINE
  5
196
330
22
100
AcDbEntity
  8
0
  6
Continuous
 62
     7
100
AcDbLine
 10
-317.8731079101563
 20
150.8370208740234
 30
0.0
 11
-314.9444885253906
 21
150.0343475341797
 31
0.0
  0
LINE
  5
197
330
22
100
AcDbEntity
  8
0
  6
Continuous
 62
     7
100
AcDbLine
 10
-303.5079040527344
 20
166.2234954833984
 30
0.0
 11
-303.5079040527344
 21
162.7234954833984
 31
0.0
  0
LINE
  5
198
330
22
100
AcDbEntity
  8
0
  6
Continuous
 62
     7
100
AcDbLine
 10
-307.5079040527344
 20
166.2234954833984
 30
0.0
 11
-307.5079040527344
 21
162.7234954833984
 31
0.0
  0
LINE
  5
199
330
22
100
AcDbEntity
  8
0
  6
Continuous
 62
     7
100
AcDbLine
 10
-318.0367126464844
 20
150.4537811279297
 30
0.0
 11
-317.8731079101563
 21
150.8370208740234
 31
0.0
  0
LINE
  5
19A
330
22
100
AcDbEntity
  8
0
  6
Continuous
 62
     7
100
AcDbLine
 10
-310.9790954589844
 20
147.4408111572266
 30
0.0
 11
-311.1427001953125
 21
147.0575714111328
 31
0.0
  0
LINE
  5
19B
330
22
100
AcDbEntity
  8
0
  6
Continuous
 62
     7
100
AcDbLine
 10
-311.1427001953125
 20
147.0575714111328
 30
0.0
 11
-314.0713195800781
 21
147.8602600097656
 31
0.0
  0
LINE
  5
19C
330
22
100
AcDbEntity
  8
0
  6
Continuous
 62
     7
100
AcDbLine
 10
-312.6273803710938
 20
152.2917785644531
 30
0.0
 11
-313.0103149414063
 21
152.4552612304688
 31
0.0
  0
LINE
  5
19D
330
22
100
AcDbEntity
  8
0
  6
Continuous
 62
     7
100
AcDbLine
 10
-313.3932495117188
 20
152.6187591552734
 30
0.0
 11
-313.0103149414063
 21
152.4552612304688
 31
0.0
  0
LINE
  5
19E
330
22
100
AcDbEntity
  8
0
  6
Continuous
 62
     7
100
AcDbLine
 10
-316.3884582519531
 20
145.6028137207031
 30
0.0
 11
-316.0054931640625
 21
145.4393310546875
 31
0.0
  0
LINE
  5
19F
330
22
100
AcDbEntity
  8
0
  6
Continuous
 62
     7
100
AcDbLine
 10
-315.62255859375
 20
145.2758483886719
 30
0.0
 11
-314.0713195800781
 21
147.8602600097656
 31
0.0
  0
LINE
  5
1A0
330
22
100
AcDbEntity
  8
0
  6
Continuous
 62
     7
100
AcDbLine
 10
-321.5079040527344
 20
166.2234954833984
 30
0.0
 11
-321.5079040527344
 21
162.7234954833984
 31
0.0
  0
LINE
  5
1A1
330
22
100
AcDbEntity
  8
0
  6
Continuous
 62
     7
100
AcDbLine
 10
-307.5079040527344
 20
175.1972961425781
 30
0.0
 11
-307.5079040527344
 21
171.6972961425781
 31
0.0
  0
LINE
  5
1A2
330
22
100
AcDbEntity
  8
0
  6
Continuous
 62
     7
100
AcDbLine
 10
-319.5079040527344
 20
169.7810668945313
 30
0.0
 11
-319.5079040527344
 21
159.7810668945313
 31
0.0
  0
LINE
  5
1A3
330
22
100
AcDbEntity
  8
0
  6
Continuous
 62
     7
100
AcDbLine
 10
-315.5079040527344
 20
169.7810668945313
 30
0.0
 11
-315.5079040527344
 21
159.7810668945313
 31
0.0
  0
LINE
  5
1A4
330
22
100
AcDbEntity
  8
0
  6
Continuous
 62
     7
100
AcDbLine
 10
-301.5079040527344
 20
165.1046295166016
 30
0.0
 11
-301.5079040527344
 21
181.7899627685546
 31
0.0
  0
LINE
  5
1A5
330
22
100
AcDbEntity
  8
0
  6
Continuous
 62
     7
100
AcDbLine
 10
-310.8154907226563
 20
147.8240509033203
 30
0.0
 11
-313.4208679199219
 21
149.3838806152344
 31
0.0
  0
LINE
  5
1A6
330
22
100
AcDbEntity
  8
0
  6
Continuous
 62
     7
100
AcDbLine
 10
-310.9790954589844
 20
147.4408111572266
 30
0.0
 11
-310.8154907226563
 21
147.8240509033203
 31
0.0
  0
LINE
  5
1A7
330
22
100
AcDbEntity
  8
0
  6
CENTER
 62
     7
100
AcDbLine
 10
-314.5079040527344
 20
93.48004150390623
 30
0.0
 11
-314.5079040527344
 21
252.6035766601563
 31
0.0
  0
LINE
  5
1A8
330
22
100
AcDbEntity
  8
0
  6
CENTER
 62
     7
100
AcDbLine
 10
-233.8593292236328
 20
173.4472961425781
 30
0.0
 11
-395.2240295410156
 21
173.4472961425781
 31
0.0
  0
LINE
  5
1A9
330
22
100
AcDbEntity
  8
0
  6
Continuous
 62
     7
100
AcDbLine
 10
-309.5079040527344
 20
169.7810668945313
 30
0.0
 11
-309.5079040527344
 21
159.7810668945313
 31
0.0
  0
LINE
  5
1AA
330
22
100
AcDbEntity
  8
0
  6
Continuous
 62
     7
100
AcDbLine
 10
-313.5079040527344
 20
169.7810668945313
 30
0.0
 11
-313.5079040527344
 21
159.7810668945313
 31
0.0
  0
LINE
  5
1AB
330
22
100
AcDbEntity
  8
0
  6
Continuous
 62
     7
100
AcDbLine
 10
-325.5079040527344
 20
175.1972961425781
 30
0.0
 11
-325.5079040527344
 21
171.6972961425781
 31
0.0
  0
LINE
  5
1AC
330
22
100
AcDbEntity
  8
0
  6
Continuous
 62
     7
100
AcDbLine
 10
-321.5079040527344
 20
175.1972961425781
 30
0.0
 11
-321.5079040527344
 21
171.6972961425781
 31
0.0
  0
LINE
  5
1AD
330
22
100
AcDbEntity
  8
0
  6
Continuous
 62
     7
100
AcDbLine
 10
-327.5079040527344
 20
165.1046295166016
 30
0.0
 11
-327.5079040527344
 21
181.7899627685546
 31
0.0
  0
LINE
  5
1AE
330
22
100
AcDbEntity
  8
0
  6
Continuous
 62
     7
100
AcDbLine
 10
-303.5079040527344
 20
175.1972961425781
 30
0.0
 11
-303.5079040527344
 21
171.6972961425781
 31
0.0
  0
ARC
  5
1AF
330
22
100
AcDbEntity
  8
0
  6
Continuous
 62
     7
100
AcDbCircle
 10
-105.0079116821289
 20
246.9472961425781
 30
0.0
 40
0.5
100
AcDbArc
 50
0.0
 51
90.00000000000019
  0
ARC
  5
1B0
330
22
100
AcDbEntity
  8
0
  6
Continuous
 62
     7
100
AcDbCircle
 10
-137.0079040527344
 20
196.4472961425781
 30
0.0
 40
1.0
100
AcDbArc
 50
90.00000000000019
 51
180.0000000000004
  0
ARC
  5
1B1
330
22
100
AcDbEntity
  8
0
  6
Continuous
 62
     7
100
AcDbCircle
 10
-103.5079116821289
 20
198.9472961425781
 30
0.0
 40
1.0
100
AcDbArc
 50
180.0000000000004
 51
270.0000000000005
  0
ARC
  5
1B2
330
22
100
AcDbEntity
  8
0
  6
Continuous
 62
     7
100
AcDbCircle
 10
-106.0079116821289
 20
245.4472961425781
 30
0.0
 40
2.0
100
AcDbArc
 50
90.00000000000019
 51
180.0000000000004
  0
ARC
  5
1B3
330
22
100
AcDbEntity
  8
0
  6
Continuous
 62
     7
100
AcDbCircle
 10
-113.0079116821289
 20
202.4472961425781
 30
0.0
 40
5.0
100
AcDbArc
 50
270.0000000000005
 51
0.0
  0
ARC
  5
1B4
330
22
100
AcDbEntity
  8
0
  6
Continuous
 62
     7
100
AcDbCircle
 10
-103.034553527832
 20
137.9472961425781
 30
0.0
 40
2.0
100
AcDbArc
 50
270.0000000000005
 51
341.689253778268
  0
ARC
  5
1B5
330
22
100
AcDbEntity
  8
0
  6
Continuous
 62
     7
100
AcDbCircle
 10
-93.50791168212891
 20
147.4747772216797
 30
0.0
 40
2.0
100
AcDbArc
 50
288.3159993578893
 51
0.0
  0
ARC
  5
1B6
330
22
100
AcDbEntity
  8
0
  6
Continuous
 62
     7
100
AcDbCircle
 10
-113.0079116821289
 20
144.4472961425781
 30
0.0
 40
5.0
100
AcDbArc
 50
0.0
 51
90.00000000000019
  0
ARC
  5
1B7
330
22
100
AcDbEntity
  8
0
  6
Continuous
 62
     7
100
AcDbCircle
 10
-137.0079040527344
 20
150.4472961425781
 30
0.0
 40
1.0
100
AcDbArc
 50
180.0000000000004
 51
270.0000000000005
  0
ARC
  5
1B8
330
22
100
AcDbEntity
  8
0
  6
Continuous
 62
     7
100
AcDbCircle
 10
-106.0079116821289
 20
101.4472961425781
 30
0.0
 40
2.0
100
AcDbArc
 50
180.0000000000004
 51
270.0000000000005
  0
ARC
  5
1B9
330
22
100
AcDbEntity
  8
0
  6
Continuous
 62
     7
100
AcDbCircle
 10
-81.00791168212891
 20
196.9472961425781
 30
0.0
 40
1.0
100
AcDbArc
 50
0.0
 51
90.00000000000019
  0
ARC
  5
1BA
330
22
100
AcDbEntity
  8
0
  6
Continuous
 62
     7
100
AcDbCircle
 10
-105.0079116821289
 20
99.94729614257813
 30
0.0
 40
0.5
100
AcDbArc
 50
270.0000000000005
 51
0.0
  0
ARC
  5
1BB
330
22
100
AcDbEntity
  8
0
  6
Continuous
 62
     7
100
AcDbCircle
 10
-103.5079116821289
 20
147.9472961425781
 30
0.0
 40
1.0
100
AcDbArc
 50
90.00000000000019
 51
180.0000000000004
  0
ARC
  5
1BC
330
22
100
AcDbEntity
  8
0
  6
Continuous
 62
     7
100
AcDbCircle
 10
-88.7940673828125
 20
133.2347106933594
 30
0.0
 40
13.0
100
AcDbArc
 50
108.315919111301
 51
161.6891210347611
  0
ARC
  5
1BD
330
22
100
AcDbEntity
  8
0
  6
Continuous
 62
     7
100
AcDbCircle
 10
-81.00791168212891
 20
149.9472961425781
 30
0.0
 40
1.0
100
AcDbArc
 50
270.0000000000005
 51
0.0
  0
CIRCLE
  5
1BE
330
22
100
AcDbEntity
  8
0
  6
Continuous
 62
     7
100
AcDbCircle
 10
-314.5079040527344
 20
197.9472961425781
 30
0.0
 40
4.5
  0
ARC
  5
1BF
330
22
100
AcDbEntity
  8
0
  6
Continuous
 62
     7
100
AcDbCircle
 10
-311.5079040527344
 20
177.113525390625
 30
0.0
 40
2.0
100
AcDbArc
 50
180.0000000000004
 51
0.0
  0
ARC
  5
1C0
330
22
100
AcDbEntity
  8
0
  6
Continuous
 62
     7
100
AcDbCircle
 10
-317.5079040527344
 20
177.113525390625
 30
0.0
 40
2.0
100
AcDbArc
 50
180.0000000000004
 51
0.0
  0
ARC
  5
1C1
330
22
100
AcDbEntity
  8
0
  6
Continuous
 62
     7
100
AcDbCircle
 10
-311.5079040527344
 20
187.113525390625
 30
0.0
 40
2.0
100
AcDbArc
 50
0.0
 51
180.0000000000004
  0
ARC
  5
1C2
330
22
100
AcDbEntity
  8
0
  6
Continuous
 62
     7
100
AcDbCircle
 10
-323.5079040527344
 20
184.1710968017578
 30
0.0
 40
2.0
100
AcDbArc
 50
0.0
 51
180.0000000000004
  0
ARC
  5
1C3
330
22
100
AcDbEntity
  8
0
  6
Continuous
 62
     7
100
AcDbCircle
 10
-323.5079040527344
 20
180.6710968017578
 30
0.0
 40
2.0
100
AcDbArc
 50
180.0000000000004
 51
0.0
  0
ARC
  5
1C4
330
22
100
AcDbEntity
  8
0
  6
Continuous
 62
     7
100
AcDbCircle
 10
-305.5079040527344
 20
184.1710968017578
 30
0.0
 40
2.0
100
AcDbArc
 50
0.0
 51
180.0000000000004
  0
ARC
  5
1C5
330
22
100
AcDbEntity
  8
0
  6
Continuous
 62
     7
100
AcDbCircle
 10
-305.5079040527344
 20
175.1972961425781
 30
0.0
 40
2.0
100
AcDbArc
 50
0.0
 51
180.0000000000004
  0
ARC
  5
1C6
330
22
100
AcDbEntity
  8
0
  6
Continuous
 62
     7
100
AcDbCircle
 10
-305.5079040527344
 20
166.2234954833984
 30
0.0
 40
2.0
100
AcDbArc
 50
0.0
 51
180.0000000000004
  0
ARC
  5
1C7
330
22
100
AcDbEntity
  8
0
  6
Continuous
 62
     7
100
AcDbCircle
 10
-301.2079162597656
 20
181.7899627685546
 30
0.0
 40
0.3000000119209289
100
AcDbArc
 50
32.09681765942954
 51
180.0000000000004
  0
ARC
  5
1C8
330
22
100
AcDbEntity
  8
0
  6
Continuous
 62
     7
100
AcDbCircle
 10
-327.8079223632813
 20
181.7899627685546
 30
0.0
 40
0.3000000119209289
100
AcDbArc
 50
0.0
 51
147.9000851899474
  0
ARC
  5
1C9
330
22
100
AcDbEntity
  8
0
  6
Continuous
 62
     7
100
AcDbCircle
 10
-323.5079040527344
 20
175.1972961425781
 30
0.0
 40
2.0
100
AcDbArc
 50
0.0
 51
180.0000000000004
  0
ARC
  5
1CA
330
22
100
AcDbEntity
  8
0
  6
Continuous
 62
     7
100
AcDbCircle
 10
-317.5079040527344
 20
187.113525390625
 30
0.0
 40
2.0
100
AcDbArc
 50
0.0
 51
180.0000000000004
  0
ARC
  5
1CB
330
22
100
AcDbEntity
  8
0
  6
Continuous
 62
     7
100
AcDbCircle
 10
-305.5079040527344
 20
180.6710968017578
 30
0.0
 40
2.0
100
AcDbArc
 50
180.0000000000004
 51
0.0
  0
CIRCLE
  5
1CC
330
22
100
AcDbEntity
  8
0
  6
Continuous
 62
     7
100
AcDbCircle
 10
-314.5079040527344
 20
148.9472961425781
 30
0.0
 40
4.5
  0
ARC
  5
1CD
330
22
100
AcDbEntity
  8
0
  6
Continuous
 62
     7
100
AcDbCircle
 10
-317.5079040527344
 20
159.7810668945313
 30
0.0
 40
2.0
100
AcDbArc
 50
180.0000000000004
 51
0.0
  0
ARC
  5
1CE
330
22
100
AcDbEntity
  8
0
  6
Continuous
 62
     7
100
AcDbCircle
 10
-311.5079040527344
 20
159.7810668945313
 30
0.0
 40
2.0
100
AcDbArc
 50
180.0000000000004
 51
0.0
  0
ARC
  5
1CF
330
22
100
AcDbEntity
  8
0
  6
Continuous
 62
     7
100
AcDbCircle
 10
-301.2079162597656
 20
165.1046295166016
 30
0.0
 40
0.3000000119209289
100
AcDbArc
 50
180.0000000000004
 51
327.9031823405712
  0
ARC
  5
1D0
330
22
100
AcDbEntity
  8
0
  6
Continuous
 62
     7
100
AcDbCircle
 10
-327.8079223632813
 20
165.1046295166016
 30
0.0
 40
0.3000000119209289
100
AcDbArc
 50
212.0999148100534
 51
0.0
  0
ARC
  5
1D1
330
22
100
AcDbEntity
  8
0
  6
Continuous
 62
     7
100
AcDbCircle
 10
-323.5079040527344
 20
166.2234954833984
 30
0.0
 40
2.0
100
AcDbArc
 50
0.0
 51
180.0000000000004
  0
ARC
  5
1D2
330
22
100
AcDbEntity
  8
0
  6
Continuous
 62
     7
100
AcDbCircle
 10
-305.5079040527344
 20
162.7234954833984
 30
0.0
 40
2.0
100
AcDbArc
 50
180.0000000000004
 51
0.0
  0
ARC
  5
1D3
330
22
100
AcDbEntity
  8
0
  6
Continuous
 62
     7
100
AcDbCircle
 10
-323.5079040527344
 20
162.7234954833984
 30
0.0
 40
2.0
100
AcDbArc
 50
180.0000000000004
 51
0.0
  0
CIRCLE
  5
1D4
330
22
100
AcDbEntity
  8
0
  6
Continuous
 62
     7
100
AcDbCircle
 10
-314.5079040527344
 20
173.4472961425781
 30
0.0
 40
40.0
  0
CIRCLE
  5
1D5
330
22
100
AcDbEntity
  8
0
  6
Continuous
 62
     7
100
AcDbCircle
 10
-314.5079040527344
 20
173.4472961425781
 30
0.0
 40
31.5
  0
CIRCLE
  5
1D6
330
22
100
AcDbEntity
  8
0
  6
Continuous
 62
     7
100
AcDbCircle
 10
-314.5079040527344
 20
173.4472961425781
 30
0.0
 40
56.0
  0
CIRCLE
  5
1D7
330
22
100
AcDbEntity
  8
0
  6
Continuous
 62
     7
100
AcDbCircle
 10
-314.5079040527344
 20
173.4472961425781
 30
0.0
 40
57.0
  0
CIRCLE
  5
1D8
330
22
100
AcDbEntity
  8
0
  6
Continuous
 62
     7
100
AcDbCircle
 10
-314.5079040527344
 20
173.4472961425781
 30
0.0
 40
31.0
  0
CIRCLE
  5
1D9
330
22
100
AcDbEntity
  8
0
  6
Continuous
 62
     7
100
AcDbCircle
 10
-314.5079040527344
 20
173.4472961425781
 30
0.0
 40
74.0
  0
ARC
  5
1DA
330
22
100
AcDbEntity
  8
0
  6
Continuous
 62
     7
100
AcDbCircle
 10
-314.5079040527344
 20
173.4472961425781
 30
0.0
 40
16.0
100
AcDbArc
 50
327.9012730484926
 51
32.0987269515081
  0
ARC
  5
1DB
330
22
100
AcDbEntity
  8
0
  6
Continuous
 62
     7
100
AcDbCircle
 10
-314.5079040527344
 20
173.4472961425781
 30
0.0
 40
16.0
100
AcDbArc
 50
147.9012730484919
 51
212.0987269515088
  0
CIRCLE
  5
1DC
330
22
100
AcDbEntity
  8
0
  6
Continuous
 62
     7
100
AcDbCircle
 10
-314.5079040527344
 20
173.4472961425781
 30
0.0
 40
2.0
  0
CIRCLE
  5
1DD
330
22
100
AcDbEntity
  8
0
  6
Continuous
 62
     7
100
AcDbCircle
 10
-314.5079040527344
 20
173.4472961425781
 30
0.0
 40
58.0
  0
ARC
  5
1DE
330
22
100
AcDbEntity
  8
0
  6
Continuous
 62
     7
100
AcDbCircle
 10
-317.5079040527344
 20
169.7810668945313
 30
0.0
 40
2.0
100
AcDbArc
 50
0.0
 51
180.0000000000004
  0
ARC
  5
1DF
330
22
100
AcDbEntity
  8
0
  6
Continuous
 62
     7
100
AcDbCircle
 10
-323.5079040527344
 20
171.6972961425781
 30
0.0
 40
2.0
100
AcDbArc
 50
180.0000000000004
 51
0.0
  0
ARC
  5
1E0
330
22
100
AcDbEntity
  8
0
  6
Continuous
 62
     7
100
AcDbCircle
 10
-311.5079040527344
 20
169.7810668945313
 30
0.0
 40
2.0
100
AcDbArc
 50
0.0
 51
180.0000000000004
  0
ARC
  5
1E1
330
22
100
AcDbEntity
  8
0
  6
Continuous
 62
     7
100
AcDbCircle
 10
-305.5079040527344
 20
171.6972961425781
 30
0.0
 40
2.0
100
AcDbArc
 50
180.0000000000004
 51
0.0
  0
TEXT
  5
1E2
330
22
100
AcDbEntity
  8
0
  6
Continuous
 62
     7
100
AcDbText
 10
-260.031792640686
 20
79.85478210449219
 30
0.0
 40
7.0
  1
ＤＬ－Ｕ４－３２Ｚ
 41
0.8448610808647003
100
AcDbText
  0
DIMENSION
  5
1E3
330
22
100
AcDbEntity
  8
0
  6
Continuous
 62
     7
100
AcDbDimension
  2
*D1
 10
-108.0079116821289
 20
265.4772033691406
 30
0.0
 11
-138.0079040527344
 21
265.4772033691406
 31
0.0
 71
     5
 42
-1.0
  3
DIMSTYLE1
100
AcDbAlignedDimension
 13
-168.0079040527344
 23
213.4472961425781
 33
0.0
 14
-108.0079116821289
 24
245.4472961425781
 34
0.0
100
AcDbRotatedDimension
  0
DIMENSION
  5
1E4
330
22
100
AcDbEntity
  8
0
  6
Continuous
 62
     7
100
AcDbDimension
  2
*D2
 10
-104.5079116821289
 20
265.4772033691406
 30
0.0
 11
-94.73805236816406
 21
265.4772033691406
 31
0.0
 71
     5
 42
-1.0
  3
DIMSTYLE2
100
AcDbAlignedDimension
 13
-108.0079116821289
 23
267.76318359375
 33
0.0
 14
-104.5079116821289
 24
246.9472961425781
 34
0.0
100
AcDbRotatedDimension
  0
DIMENSION
  5
1E5
330
22
100
AcDbEntity
  8
0
  6
Continuous
 62
     7
100
AcDbDimension
  2
*D3
 10
-138.0079040527344
 20
256.7499084472656
 30
0.0
 11
-123.0079116821289
 21
256.7499084472656
 31
0.0
 71
     5
 42
-1.0
  3
DIMSTYLE3
100
AcDbAlignedDimension
 13
-108.0079116821289
 23
267.76318359375
 33
0.0
 14
-138.0079040527344
 24
196.4472961425781
 34
0.0
100
AcDbRotatedDimension
  0
DIMENSION
  5
1E6
330
22
100
AcDbEntity
  8
0
  6
Continuous
 62
     7
100
AcDbDimension
  2
*D4
 10
-174.0079040527344
 20
265.4772033691406
 30
0.0
 11
-181.7747192382813
 21
265.4772033691406
 31
0.0
 71
     5
 42
-1.0
  3
DIMSTYLE4
100
AcDbAlignedDimension
 13
-168.0079040527344
 23
267.76318359375
 33
0.0
 14
-174.0079040527344
 24
206.4472961425781
 34
0.0
100
AcDbRotatedDimension
  0
DIMENSION
  5
1E7
330
22
100
AcDbEntity
  8
0
  6
Continuous
 62
     7
100
AcDbDimension
  2
*D5
 10
-62.84680938720703
 20
197.9472961425781
 30
0.0
 11
-62.84680938720703
 21
173.4472961425781
 31
0.0
 71
     5
 42
-1.0
  3
DIMSTYLE5
100
AcDbAlignedDimension
 13
-81.00791168212891
 23
148.9472961425781
 33
0.0
 14
-81.00791168212891
 24
197.9472961425781
 34
0.0
 50
90.0
100
AcDbRotatedDimension
  0
INSERT
  5
1E8
330
22
100
AcDbEntity
  8
0
  6
Continuous
 62
     7
100
AcDbBlockReference
  2
KOZU0001
 10
-90.26066589355469
 20
194.0818786621094
 30
0.0
  0
DIMENSION
  5
1E9
330
22
100
AcDbEntity
  8
0
  6
Continuous
 62
     7
100
AcDbDimension
  2
*D6
 10
-80.0079116821289
 20
84.35905456542968
 30
0.0
 11
-109.0079116821289
 21
84.35905456542968
 31
0.0
 71
     5
 42
-1.0
  3
DIMSTYLE6
100
AcDbAlignedDimension
 13
-138.0079040527344
 23
150.4472961425781
 33
0.0
 14
-80.0079116821289
 24
149.9472961425781
 34
0.0
100
AcDbRotatedDimension
  0
DIMENSION
  5
1EA
330
22
100
AcDbEntity
  8
0
  6
Continuous
 62
     7
100
AcDbDimension
  2
*D7
 10
-85.00476074218751
 20
135.9472961425781
 30
0.0
 11
-85.00476074218751
 21
142.4472961425781
 31
0.0
 71
     5
 42
-1.0
  3
DIMSTYLE7
100
AcDbAlignedDimension
 13
-81.00791168212891
 23
148.9472961425781
 33
0.0
 14
-103.034553527832
 24
135.9472961425781
 34
0.0
 50
90.0
100
AcDbRotatedDimension
  0
DIMENSION
  5
1EB
330
22
100
AcDbEntity
  8
0
  6
Continuous
 62
     7
100
AcDbDimension
  2
*D8
 10
-91.50791168212892
 20
127.0182113647461
 30
0.0
 11
-98.00791168212892
 21
127.0182113647461
 31
0.0
 71
     5
 42
-1.0
  3
DIMSTYLE8
100
AcDbAlignedDimension
 13
-104.5079116821289
 23
99.94729614257813
 33
0.0
 14
-91.50791168212892
 24
147.4747772216797
 34
0.0
100
AcDbRotatedDimension
  0
INSERT
  5
1EC
330
22
100
AcDbEntity
  8
0
  6
Continuous
 62
     7
100
AcDbBlockReference
  2
KOZU0002
 10
-100.5311813354492
 20
144.9430847167969
 30
0.0
  0
DIMENSION
  5
1ED
330
22
100
AcDbEntity
  8
0
  6
Continuous
 62
     7
100
AcDbDimension
  2
*D9
 10
-352.5946684903552
 20
110.0012688857578
 30
0.0
 11
-265.8550415039063
 21
254.49462890625
 31
0.0
 70
     3
 71
     5
 42
-1.0
  3
DIMSTYLE9
100
AcDbDiametricDimension
 15
-276.4211396151137
 25
236.8933233993985
 35
0.0
 40
0.0
  0
DIMENSION
  5
1EE
330
22
100
AcDbEntity
  8
0
  6
Continuous
 62
     7
100
AcDbDimension
  2
*D10
 10
-347.1854678881598
 20
150.3783381734436
 30
0.0
 11
-238.3539581298828
 21
227.2087249755859
 31
0.0
 70
     3
 71
     5
 42
-1.0
  3
DIMSTYLE10
100
AcDbDiametricDimension
 15
-281.830340217309
 25
196.5162541117127
 35
0.0
 40
0.0
  0
DIMENSION
  5
1EF
330
22
100
AcDbEntity
  8
0
  6
Continuous
 62
     7
100
AcDbDimension
  2
*D11
 10
-174.0079040527344
 20
179.7446136474609
 30
0.0
 11
-146.0079040527344
 21
179.7446136474609
 31
0.0
 71
     5
 42
-1.0
  3
DIMSTYLE11
100
AcDbAlignedDimension
 13
-118.0079116821289
 23
173.4472961425781
 33
0.0
 14
-174.0079040527344
 24
206.4472961425781
 34
0.0
100
AcDbRotatedDimension
  0
ENDSEC
  0
SECTION
  2
OBJECTS
  0
DICTIONARY
  5
C
330
0
100
AcDbDictionary
281
     1
  3
ACAD_COLOR
350
1B
  3
ACAD_GROUP
350
D
  3
ACAD_LAYOUT
350
19
  3
ACAD_MATERIAL
350
1A
  3
ACAD_MLINESTYLE
350
16
  3
ACAD_PLOTSETTINGS
350
18
  3
ACAD_PLOTSTYLENAME
350
E
  3
ACAD_TABLESTYLE
350
1C
  3
AcDbVariableDictionary
350
203
  0
DICTIONARY
  5
1B
102
{ACAD_REACTORS
330
C
102
}
330
C
100
AcDbDictionary
281
     1
  0
DICTIONARY
  5
D
102
{ACAD_REACTORS
330
C
102
}
330
C
100
AcDbDictionary
281
     1
  0
DICTIONARY
  5
19
102
{ACAD_REACTORS
330
C
102
}
330
C
100
AcDbDictionary
281
     1
  3
Model
350
25
  3
レイアウト1
350
21
  0
DICTIONARY
  5
1A
102
{ACAD_REACTORS
330
C
102
}
330
C
100
AcDbDictionary
281
     1
  0
DICTIONARY
  5
16
102
{ACAD_REACTORS
330
C
102
}
330
C
100
AcDbDictionary
281
     1
  3
Standard
350
17
  0
DICTIONARY
  5
18
102
{ACAD_REACTORS
330
C
102
}
330
C
100
AcDbDictionary
281
     1
  0
ACDBDICTIONARYWDFLT
  5
E
102
{ACAD_REACTORS
330
C
102
}
330
C
100
AcDbDictionary
281
     1
  3
Normal
350
F
100
AcDbDictionaryWithDefault
340
F
  0
DICTIONARY
  5
1C
102
{ACAD_REACTORS
330
C
102
}
330
C
100
AcDbDictionary
281
     1
  3
Standard
350
1D
  0
DICTIONARY
  5
203
102
{ACAD_REACTORS
330
C
102
}
330
C
100
AcDbDictionary
281
     1
  3
CTABLESTYLE
350
204
  0
LAYOUT
  5
25
102
{ACAD_REACTORS
330
19
102
}
330
19
100
AcDbPlotSettings
  1

  2
PDF reDirect v2
  4
A3
  6

 40
3.174999952316284
 41
3.174999952316284
 42
3.17498779296875
 43
3.17498779296875
 44
297.0530090332031
 45
420.1583251953125
 46
0.0
 47
0.0
 48
0.0
 49
0.0
140
0.0
141
0.0
142
1.0
143
1.0
 70
 11952
 72
     1
 73
     1
 74
     2
  7
C:\Users\ck\AppData\Roaming\Autodesk\AutoCAD 2005\R16.1\jpn\Plot Styles\black.ctb
 75
    16
147
1.0
 76
     0
 77
     2
 78
   300
148
423.0
149
2.0
100
AcDbLayout
  1
Model
 70
     1
 71
     0
 10
0.0
 20
0.0
 11
12.0
 21
9.0
 12
0.0
 22
0.0
 32
0.0
 14
0.0
 24
0.0
 34
0.0
 15
0.0
 25
0.0
 35
0.0
146
0.0
 13
0.0
 23
0.0
 33
0.0
 16
1.0
 26
0.0
 36
0.0
 17
0.0
 27
1.0
 37
0.0
 76
     0
330
22
1001
ACAD_PSEXT
1000
PDF reDirect v2
1000
PDF reDirect Pro
1000
PDF_REDIRECT_PORT:
1000
PDF reDirect provided by EXP Systems
1070
     0
  0
LAYOUT
  5
21
102
{ACAD_REACTORS
330
19
102
}
330
19
100
AcDbPlotSettings
  1

  2
PDF reDirect v2
  4

  6

 40
0.0
 41
0.0
 42
0.0
 43
0.0
 44
0.0
 45
0.0
 46
0.0
 47
0.0
 48
0.0
 49
0.0
140
0.0
141
0.0
142
1.0
143
1.0
 70
   688
 72
     0
 73
     0
 74
     5
  7
C:\Users\ck\AppData\Roaming\Autodesk\AutoCAD 2005\R16.1\jpn\Plot Styles\black.ctb
 75
    16
147
1.0
 76
     0
 77
     2
 78
   300
148
0.0
149
0.0
100
AcDbLayout
  1
レイアウト1
 70
     1
 71
     1
 10
-423.0
 20
-2.0
 11
-5.0
 21
293.0
 12
0.0
 22
0.0
 32
0.0
 14
1.000000000000000E+20
 24
1.000000000000000E+20
 34
1.000000000000000E+20
 15
-1.000000000000000E+20
 25
-1.000000000000000E+20
 35
-1.000000000000000E+20
146
0.0
 13
0.0
 23
0.0
 33
0.0
 16
1.0
 26
0.0
 36
0.0
 17
0.0
 27
1.0
 37
0.0
 76
     0
330
1E
  0
MLINESTYLE
  5
17
102
{ACAD_REACTORS
330
16
102
}
330
16
100
AcDbMlineStyle
  2
STANDARD
 70
     0
  3

 62
   256
 51
90.0
 52
90.0
 71
     2
 49
0.5
 62
   256
  6
BYLAYER
 49
-0.5
 62
   256
  6
BYLAYER
  0
ACDBPLACEHOLDER
  5
F
102
{ACAD_REACTORS
330
E
102
}
330
E
  0
TABLESTYLE
  5
1D
102
{ACAD_REACTORS
330
1C
102
}
330
1C
100
AcDbTableStyle
  3
Standard
 70
     0
 71
     0
 40
0.06
 41
0.06
280
     0
281
     0
  7
STANDARD
140
0.18
170
     2
 62
     0
 63
     7
283
     0
274
    -2
284
     1
 64
     0
275
    -2
285
     1
 65
     0
276
    -2
286
     1
 66
     0
277
    -2
287
     1
 67
     0
278
    -2
288
     1
 68
     0
279
    -2
289
     1
 69
     0
  7
STANDARD
140
0.25
170
     5
 62
     0
 63
     7
283
     0
274
    -2
284
     1
 64
     0
275
    -2
285
     1
 65
     0
276
    -2
286
     1
 66
     0
277
    -2
287
     1
 67
     0
278
    -2
288
     1
 68
     0
279
    -2
289
     1
 69
     0
  7
STANDARD
140
0.18
170
     5
 62
     0
 63
     7
283
     0
274
    -2
284
     1
 64
     0
275
    -2
285
     1
 65
     0
276
    -2
286
     1
 66
     0
277
    -2
287
     1
 67
     0
278
    -2
288
     1
 68
     0
279
    -2
289
     1
 69
     0
  0
DICTIONARYVAR
  5
204
102
{ACAD_REACTORS
330
203
102
}
330
203
100
DictionaryVariables
280
     0
  1
STANDARD
  0
ENDSEC
  0
EOF
