  0
SECTION
  2
HEADER
  9
$ACADVER
  1
AC1018
  9
$ACADMAINTVER
 70
    39
  9
$DWGCODEPAGE
  3
ANSI_932
  9
$INSBASE
 10
0.0
 20
0.0
 30
0.0
  9
$EXTMIN
 10
-556.7434067837234
 20
89.76004136092967
 30
-0.0015258207003583
  9
$EXTMAX
 10
-50.20654164884058
 20
367.7208566275901
 30
0.0000000349246037
  9
$LIMMIN
 10
-592.0
 20
0.0
  9
$LIMMAX
 10
0.0
 20
418.0
  9
$ORTHOMODE
 70
     0
  9
$REGENMODE
 70
     1
  9
$FILLMODE
 70
     1
  9
$QTEXTMODE
 70
     0
  9
$MIRRTEXT
 70
     0
  9
$LTSCALE
 40
1.0
  9
$ATTMODE
 70
     1
  9
$TEXTSIZE
 40
0.2
  9
$TRACEWID
 40
0.05
  9
$TEXTSTYLE
  7
STANDARD
  9
$CLAYER
  8
0
  9
$CELTYPE
  6
CONTINUOUS
  9
$CECOLOR
 62
   256
  9
$CELTSCALE
 40
1.0
  9
$DISPSILH
 70
     0
  9
$DIMSCALE
 40
1.0
  9
$DIMASZ
 40
1.0
  9
$DIMEXO
 40
2.54
  9
$DIMDLI
 40
0.38
  9
$DIMRND
 40
0.0
  9
$DIMDLE
 40
0.0
  9
$DIMEXE
 40
2.54
  9
$DIMTP
 40
0.0
  9
$DIMTM
 40
0.0
  9
$DIMTXT
 40
3.0
  9
$DIMCEN
 40
0.09
  9
$DIMTSZ
 40
0.0
  9
$DIMTOL
 70
     0
  9
$DIMLIM
 70
     0
  9
$DIMTIH
 70
     0
  9
$DIMTOH
 70
     0
  9
$DIMSE1
 70
     0
  9
$DIMSE2
 70
     0
  9
$DIMTAD
 70
     1
  9
$DIMZIN
 70
     0
  9
$DIMBLK
  1

  9
$DIMASO
 70
     1
  9
$DIMSHO
 70
     0
  9
$DIMPOST
  1

  9
$DIMAPOST
  1

  9
$DIMALT
 70
     0
  9
$DIMALTD
 70
     2
  9
$DIMALTF
 40
25.4
  9
$DIMLFAC
 40
1.0
  9
$DIMTOFL
 70
     0
  9
$DIMTVP
 40
1.0
  9
$DIMTIX
 70
     0
  9
$DIMSOXD
 70
     0
  9
$DIMSAH
 70
     1
  9
$DIMBLK1
  1

  9
$DIMBLK2
  1

  9
$DIMSTYLE
  2
DIMSTYLE1
  9
$DIMCLRD
 70
     0
  9
$DIMCLRE
 70
     0
  9
$DIMCLRT
 70
     0
  9
$DIMTFAC
 40
1.0
  9
$DIMGAP
 40
1.5
  9
$DIMJUST
 70
     0
  9
$DIMSD1
 70
     0
  9
$DIMSD2
 70
     0
  9
$DIMTOLJ
 70
     1
  9
$DIMTZIN
 70
     0
  9
$DIMALTZ
 70
     0
  9
$DIMALTTZ
 70
     0
  9
$DIMUPT
 70
     0
  9
$DIMDEC
 70
     4
  9
$DIMTDEC
 70
     4
  9
$DIMALTU
 70
     2
  9
$DIMALTTD
 70
     2
  9
$DIMTXSTY
  7
STANDARD
  9
$DIMAUNIT
 70
     0
  9
$DIMADEC
 70
     0
  9
$DIMALTRND
 40
0.0
  9
$DIMAZIN
 70
     0
  9
$DIMDSEP
 70
    46
  9
$DIMATFIT
 70
     3
  9
$DIMFRAC
 70
     0
  9
$DIMLDRBLK
  1

  9
$DIMLUNIT
 70
     2
  9
$DIMLWD
 70
    -2
  9
$DIMLWE
 70
    -2
  9
$DIMTMOVE
 70
     0
  9
$LUNITS
 70
     2
  9
$LUPREC
 70
     4
  9
$SKETCHINC
 40
0.1
  9
$FILLETRAD
 40
0.0
  9
$AUNITS
 70
     0
  9
$AUPREC
 70
     0
  9
$MENU
  1
.
  9
$ELEVATION
 40
0.0
  9
$PELEVATION
 40
0.0
  9
$THICKNESS
 40
0.0
  9
$LIMCHECK
 70
     0
  9
$CHAMFERA
 40
0.0
  9
$CHAMFERB
 40
0.0
  9
$CHAMFERC
 40
0.0
  9
$CHAMFERD
 40
0.0
  9
$SKPOLY
 70
     0
  9
$TDCREATE
 40
2457702.685660197
  9
$TDUCREATE
 40
2457702.310660197
  9
$TDUPDATE
 40
2457702.686304190
  9
$TDUUPDATE
 40
2457702.311304190
  9
$TDINDWG
 40
0.0006451505
  9
$TDUSRTIMER
 40
0.0006451505
  9
$USRTIMER
 70
     1
  9
$ANGBASE
 50
0.0
  9
$ANGDIR
 70
     0
  9
$PDMODE
 70
     0
  9
$PDSIZE
 40
0.0
  9
$PLINEWID
 40
0.0
  9
$SPLFRAME
 70
     0
  9
$SPLINETYPE
 70
     6
  9
$SPLINESEGS
 70
     8
  9
$HANDSEED
  5
25C
  9
$SURFTAB1
 70
     6
  9
$SURFTAB2
 70
     6
  9
$SURFTYPE
 70
     6
  9
$SURFU
 70
     6
  9
$SURFV
 70
     6
  9
$UCSBASE
  2

  9
$UCSNAME
  2

  9
$UCSORG
 10
0.0
 20
0.0
 30
0.0
  9
$UCSXDIR
 10
1.0
 20
0.0
 30
0.0
  9
$UCSYDIR
 10
0.0
 20
1.0
 30
0.0
  9
$UCSORTHOREF
  2

  9
$UCSORTHOVIEW
 70
     0
  9
$UCSORGTOP
 10
0.0
 20
0.0
 30
0.0
  9
$UCSORGBOTTOM
 10
0.0
 20
0.0
 30
0.0
  9
$UCSORGLEFT
 10
0.0
 20
0.0
 30
0.0
  9
$UCSORGRIGHT
 10
0.0
 20
0.0
 30
0.0
  9
$UCSORGFRONT
 10
0.0
 20
0.0
 30
0.0
  9
$UCSORGBACK
 10
0.0
 20
0.0
 30
0.0
  9
$PUCSBASE
  2

  9
$PUCSNAME
  2

  9
$PUCSORG
 10
0.0
 20
0.0
 30
0.0
  9
$PUCSXDIR
 10
1.0
 20
0.0
 30
0.0
  9
$PUCSYDIR
 10
0.0
 20
1.0
 30
0.0
  9
$PUCSORTHOREF
  2

  9
$PUCSORTHOVIEW
 70
     0
  9
$PUCSORGTOP
 10
0.0
 20
0.0
 30
0.0
  9
$PUCSORGBOTTOM
 10
0.0
 20
0.0
 30
0.0
  9
$PUCSORGLEFT
 10
0.0
 20
0.0
 30
0.0
  9
$PUCSORGRIGHT
 10
0.0
 20
0.0
 30
0.0
  9
$PUCSORGFRONT
 10
0.0
 20
0.0
 30
0.0
  9
$PUCSORGBACK
 10
0.0
 20
0.0
 30
0.0
  9
$USERI1
 70
     0
  9
$USERI2
 70
     0
  9
$USERI3
 70
     0
  9
$USERI4
 70
     0
  9
$USERI5
 70
     0
  9
$USERR1
 40
0.0
  9
$USERR2
 40
0.0
  9
$USERR3
 40
0.0
  9
$USERR4
 40
0.0
  9
$USERR5
 40
0.0
  9
$WORLDVIEW
 70
     1
  9
$SHADEDGE
 70
     3
  9
$SHADEDIF
 70
    70
  9
$TILEMODE
 70
     1
  9
$MAXACTVP
 70
    64
  9
$PINSBASE
 10
0.0
 20
0.0
 30
0.0
  9
$PLIMCHECK
 70
     0
  9
$PEXTMIN
 10
1.000000000000000E+20
 20
1.000000000000000E+20
 30
1.000000000000000E+20
  9
$PEXTMAX
 10
-1.000000000000000E+20
 20
-1.000000000000000E+20
 30
-1.000000000000000E+20
  9
$PLIMMIN
 10
-592.0
 20
0.0
  9
$PLIMMAX
 10
0.0
 20
418.0
  9
$UNITMODE
 70
     0
  9
$VISRETAIN
 70
     1
  9
$PLINEGEN
 70
     0
  9
$PSLTSCALE
 70
     1
  9
$TREEDEPTH
 70
  3020
  9
$CMLSTYLE
  2
Standard
  9
$CMLJUST
 70
     0
  9
$CMLSCALE
 40
1.0
  9
$PROXYGRAPHICS
 70
     1
  9
$MEASUREMENT
 70
     0
  9
$CELWEIGHT
370
    -1
  9
$ENDCAPS
280
     0
  9
$JOINSTYLE
280
     0
  9
$LWDISPLAY
290
     0
  9
$INSUNITS
 70
     0
  9
$HYPERLINKBASE
  1

  9
$STYLESHEET
  1

  9
$XEDIT
290
     1
  9
$CEPSNTYPE
380
     0
  9
$PSTYLEMODE
290
     1
  9
$FINGERPRINTGUID
  2
{DA993B98-826D-4184-8320-C9BEF6769DD1}
  9
$VERSIONGUID
  2
{82FD7BC9-E94E-464F-BE02-2F65EEFB181C}
  9
$EXTNAMES
290
     1
  9
$PSVPSCALE
 40
0.0
  9
$OLESTARTUP
290
     0
  9
$SORTENTS
280
   127
  9
$INDEXCTL
280
     0
  9
$HIDETEXT
280
     0
  9
$XCLIPFRAME
290
     0
  9
$HALOGAP
280
     0
  9
$OBSCOLOR
 70
   257
  9
$OBSLTYPE
280
     0
  9
$INTERSECTIONDISPLAY
280
     0
  9
$INTERSECTIONCOLOR
 70
   257
  9
$DIMASSOC
280
     1
  9
$PROJECTNAME
  1

  0
ENDSEC
  0
SECTION
  2
CLASSES
  0
CLASS
  1
ACDBDICTIONARYWDFLT
  2
AcDbDictionaryWithDefault
  3
ObjectDBX Classes
 90
        0
 91
        1
280
     0
281
     0
  0
CLASS
  1
TABLESTYLE
  2
AcDbTableStyle
  3
ObjectDBX Classes
 90
     2047
 91
        1
280
     0
281
     0
  0
CLASS
  1
DICTIONARYVAR
  2
AcDbDictionaryVar
  3
ObjectDBX Classes
 90
        0
 91
        1
280
     0
281
     0
  0
ENDSEC
  0
SECTION
  2
TABLES
  0
TABLE
  2
VPORT
  5
8
330
0
100
AcDbSymbolTable
 70
     2
  0
VPORT
  5
25B
330
8
100
AcDbSymbolTableRecord
100
AcDbViewportTableRecord
  2
*Active
 70
     0
 10
0.0
 20
0.0
 11
1.0
 21
1.0
 12
-296.0
 22
209.0
 13
0.0
 23
0.0
 14
1.0
 24
1.0
 15
0.0
 25
0.0
 16
0.0
 26
0.0
 36
1.0
 17
0.0
 27
0.0
 37
0.0
 40
421.2999999999999
 41
1.56258234519104
 42
50.0
 43
0.0
 44
0.0
 50
0.0
 51
0.0
 71
     0
 72
   100
 73
     1
 74
     1
 75
     0
 76
     0
 77
     0
 78
     0
281
     0
 65
     1
110
0.0
120
0.0
130
0.0
111
1.0
121
0.0
131
0.0
112
0.0
122
1.0
132
0.0
 79
     0
146
0.0
  0
ENDTAB
  0
TABLE
  2
LTYPE
  5
5
330
0
100
AcDbSymbolTable
 70
     6
  0
LTYPE
  5
13
330
5
100
AcDbSymbolTableRecord
100
AcDbLinetypeTableRecord
  2
ByBlock
 70
     0
  3

 72
    65
 73
     0
 40
0.0
  0
LTYPE
  5
14
330
5
100
AcDbSymbolTableRecord
100
AcDbLinetypeTableRecord
  2
ByLayer
 70
     0
  3

 72
    65
 73
     0
 40
0.0
  0
LTYPE
  5
15
330
5
100
AcDbSymbolTableRecord
100
AcDbLinetypeTableRecord
  2
CONTINUOUS
 70
     0
  3
Solid line
 72
    65
 73
     0
 40
0.0
  0
LTYPE
  5
26
330
5
100
AcDbSymbolTableRecord
100
AcDbLinetypeTableRecord
  2
DASHED
 70
     0
  3
__ __ __ __ __ __ __ __ __ __ __ __ __ __ __
 72
    65
 73
     2
 40
3.5
 49
2.0
 74
     0
 49
-1.5
 74
     0
  0
LTYPE
  5
27
330
5
100
AcDbSymbolTableRecord
100
AcDbLinetypeTableRecord
  2
CENTER
 70
     0
  3
____ _ ____ _ ____ _ ____ _ ____ _ ____ _ ____
 72
    65
 73
     4
 40
17.5
 49
13.0
 74
     0
 49
-1.5
 74
     0
 49
1.5
 74
     0
 49
-1.5
 74
     0
  0
LTYPE
  5
28
330
5
100
AcDbSymbolTableRecord
100
AcDbLinetypeTableRecord
  2
PHANTOM
 70
     0
  3
_____ _ _ _____ _ _ _____ _ _ _____ _ _ ____  
 72
    65
 73
     6
 40
15.5
 49
8.0
 74
     0
 49
-1.5
 74
     0
 49
1.5
 74
     0
 49
-1.5
 74
     0
 49
1.5
 74
     0
 49
-1.5
 74
     0
  0
LTYPE
  5
29
330
5
100
AcDbSymbolTableRecord
100
AcDbLinetypeTableRecord
  2
DOT
 70
     0
  3
. . . . . . . . . . . . . . . . . . . . . . . .
 72
    65
 73
     2
 40
0.25
 49
0.0
 74
     0
 49
-0.25
 74
     0
  0
LTYPE
  5
2A
330
5
100
AcDbSymbolTableRecord
100
AcDbLinetypeTableRecord
  2
HIDDEN
 70
     0
  3
__ __ __ __ __ __ __ __ __ __ __ __ __ __ __
 72
    65
 73
     2
 40
3.5
 49
2.0
 74
     0
 49
-1.5
 74
     0
  0
ENDTAB
  0
TABLE
  2
LAYER
  5
2
330
0
100
AcDbSymbolTable
 70
     2
  0
LAYER
  5
10
330
2
100
AcDbSymbolTableRecord
100
AcDbLayerTableRecord
  2
0
 70
     0
 62
     7
  6
CONTINUOUS
370
    -3
390
F
  0
LAYER
  5
2B
330
2
100
AcDbSymbolTableRecord
100
AcDbLayerTableRecord
  2
DEFPOINTS
 70
     0
 62
     7
  6
CONTINUOUS
290
     0
370
    -3
390
F
  0
ENDTAB
  0
TABLE
  2
STYLE
  5
3
330
0
100
AcDbSymbolTable
 70
     3
  0
STYLE
  5
11
330
3
100
AcDbSymbolTableRecord
100
AcDbTextStyleTableRecord
  2
STANDARD
 70
     0
 40
0.0
 41
1.0
 50
0.0
 71
     0
 42
0.2
  3

  4

1001
ACAD
1000
MS Gothic
1071
    32817
  0
ENDTAB
  0
TABLE
  2
VIEW
  5
6
330
0
100
AcDbSymbolTable
 70
     0
  0
ENDTAB
  0
TABLE
  2
UCS
  5
7
330
0
100
AcDbSymbolTable
 70
     0
  0
ENDTAB
  0
TABLE
  2
APPID
  5
9
330
0
100
AcDbSymbolTable
 70
     2
  0
APPID
  5
12
330
9
100
AcDbSymbolTableRecord
100
AcDbRegAppTableRecord
  2
ACAD
 70
     0
  0
APPID
  5
248
330
9
100
AcDbSymbolTableRecord
100
AcDbRegAppTableRecord
  2
ACAD_PSEXT
 70
     0
  0
ENDTAB
  0
TABLE
  2
DIMSTYLE
  5
A
330
0
100
AcDbSymbolTable
 70
    12
100
AcDbDimStyleTable
 71
     1
340
2C
  0
DIMSTYLE
105
2C
102
{ACAD_REACTORS
330
23A
102
}
330
A
100
AcDbSymbolTableRecord
100
AcDbDimStyleTableRecord
  2
DIMSTYLE1
 70
     0
 41
1.0
 42
2.54
 44
2.54
 73
     0
 74
     0
 77
     1
140
3.0
145
1.0
147
1.5
172
     1
173
     1
279
     2
340
11
  0
DIMSTYLE
105
2D
102
{ACAD_REACTORS
330
23B
102
}
330
A
100
AcDbSymbolTableRecord
100
AcDbDimStyleTableRecord
  2
DIMSTYLE2
 70
     0
 41
1.0
 42
2.54
 44
2.54
 73
     0
 74
     0
 77
     1
140
3.0
145
1.0
147
1.5
172
     1
173
     1
279
     2
340
11
  0
DIMSTYLE
105
2E
102
{ACAD_REACTORS
330
23C
102
}
330
A
100
AcDbSymbolTableRecord
100
AcDbDimStyleTableRecord
  2
DIMSTYLE3
 70
     0
 41
1.0
 42
2.54
 44
2.54
 73
     0
 74
     0
 77
     1
140
3.0
145
1.0
147
1.5
172
     1
173
     1
279
     2
340
11
  0
DIMSTYLE
105
2F
102
{ACAD_REACTORS
330
23D
102
}
330
A
100
AcDbSymbolTableRecord
100
AcDbDimStyleTableRecord
  2
DIMSTYLE4
 70
     0
 41
1.0
 42
2.54
 44
2.54
 73
     0
 74
     0
 77
     1
140
3.0
145
1.0
147
1.5
172
     1
173
     1
279
     2
340
11
  0
DIMSTYLE
105
30
102
{ACAD_REACTORS
330
23E
102
}
330
A
100
AcDbSymbolTableRecord
100
AcDbDimStyleTableRecord
  2
DIMSTYLE5
 70
     0
 41
1.0
 42
2.54
 44
2.54
 73
     0
 74
     0
 77
     1
140
3.0
145
1.0
147
1.5
172
     1
173
     1
279
     2
340
11
  0
DIMSTYLE
105
31
102
{ACAD_REACTORS
330
23F
102
}
330
A
100
AcDbSymbolTableRecord
100
AcDbDimStyleTableRecord
  2
DIMSTYLE6
 70
     0
 41
1.0
 42
2.54
 44
2.54
 73
     0
 74
     0
 77
     1
140
3.0
145
1.0
147
1.5
172
     1
173
     1
279
     2
340
11
  0
DIMSTYLE
105
32
102
{ACAD_REACTORS
330
240
102
}
330
A
100
AcDbSymbolTableRecord
100
AcDbDimStyleTableRecord
  2
DIMSTYLE7
 70
     0
 41
1.0
 42
2.54
 44
2.54
 73
     0
 74
     0
 77
     1
140
3.0
145
1.0
147
1.5
172
     1
173
     1
279
     2
340
11
  0
DIMSTYLE
105
33
102
{ACAD_REACTORS
330
242
102
}
330
A
100
AcDbSymbolTableRecord
100
AcDbDimStyleTableRecord
  2
DIMSTYLE8
 70
     0
 41
1.0
 42
2.54
 44
2.54
 73
     0
 74
     0
 77
     1
140
3.0
145
1.0
147
1.5
172
     1
173
     1
279
     2
340
11
  0
DIMSTYLE
105
34
102
{ACAD_REACTORS
330
244
102
}
330
A
100
AcDbSymbolTableRecord
100
AcDbDimStyleTableRecord
  2
DIMSTYLE9
 70
     0
 41
1.0
 42
2.54
 44
2.54
 73
     0
 74
     0
 75
     1
 76
     1
 77
     1
140
3.0
145
1.0
147
1.5
172
     1
173
     1
279
     2
340
11
  0
DIMSTYLE
105
35
102
{ACAD_REACTORS
330
245
102
}
330
A
100
AcDbSymbolTableRecord
100
AcDbDimStyleTableRecord
  2
DIMSTYLE10
 70
     0
 41
1.0
 42
2.54
 44
2.54
 73
     0
 74
     0
 75
     1
 76
     1
 77
     1
140
3.0
145
1.0
147
1.5
172
     1
173
     1
279
     2
340
11
  0
ENDTAB
  0
TABLE
  2
BLOCK_RECORD
  5
1
330
0
100
AcDbSymbolTable
 70
    15
  0
BLOCK_RECORD
  5
22
330
1
100
AcDbSymbolTableRecord
100
AcDbBlockTableRecord
  2
*Model_Space
340
25
  0
BLOCK_RECORD
  5
1E
330
1
100
AcDbSymbolTableRecord
100
AcDbBlockTableRecord
  2
*Paper_Space
340
21
  0
BLOCK_RECORD
  5
39
330
1
100
AcDbSymbolTableRecord
100
AcDbBlockTableRecord
  2
_OPEN30
340
0
102
{BLKREFS
331
42
331
43
331
4F
331
51
331
5C
331
5D
331
67
331
68
331
71
331
72
331
7D
331
7E
331
88
331
89
331
93
331
94
331
A0
331
A1
331
AA
331
AB
102
}
  0
BLOCK_RECORD
  5
3F
330
1
100
AcDbSymbolTableRecord
100
AcDbBlockTableRecord
  2
*D1
340
0
  0
BLOCK_RECORD
  5
4B
330
1
100
AcDbSymbolTableRecord
100
AcDbBlockTableRecord
  2
*D2
340
0
  0
BLOCK_RECORD
  5
59
330
1
100
AcDbSymbolTableRecord
100
AcDbBlockTableRecord
  2
*D3
340
0
  0
BLOCK_RECORD
  5
64
330
1
100
AcDbSymbolTableRecord
100
AcDbBlockTableRecord
  2
*D4
340
0
  0
BLOCK_RECORD
  5
6E
330
1
100
AcDbSymbolTableRecord
100
AcDbBlockTableRecord
  2
*D5
340
0
  0
BLOCK_RECORD
  5
7A
330
1
100
AcDbSymbolTableRecord
100
AcDbBlockTableRecord
  2
*D6
340
0
  0
BLOCK_RECORD
  5
85
330
1
100
AcDbSymbolTableRecord
100
AcDbBlockTableRecord
  2
*D7
340
0
  0
BLOCK_RECORD
  5
90
330
1
100
AcDbSymbolTableRecord
100
AcDbBlockTableRecord
  2
*D8
340
0
  0
BLOCK_RECORD
  5
9C
330
1
100
AcDbSymbolTableRecord
100
AcDbBlockTableRecord
  2
*D9
340
0
  0
BLOCK_RECORD
  5
A6
330
1
100
AcDbSymbolTableRecord
100
AcDbBlockTableRecord
  2
*D10
340
0
  0
BLOCK_RECORD
  5
B0
330
1
100
AcDbSymbolTableRecord
100
AcDbBlockTableRecord
  2
KOZU0001
340
0
102
{BLKREFS
331
241
102
}
  0
BLOCK_RECORD
  5
B9
330
1
100
AcDbSymbolTableRecord
100
AcDbBlockTableRecord
  2
KOZU0002
340
0
102
{BLKREFS
331
243
102
}
  0
ENDTAB
  0
ENDSEC
  0
SECTION
  2
BLOCKS
  0
BLOCK
  5
23
330
22
100
AcDbEntity
  8
0
100
AcDbBlockBegin
  2
*Model_Space
 70
     0
 10
0.0
 20
0.0
 30
0.0
  3
*Model_Space
  1

  0
ENDBLK
  5
24
330
22
100
AcDbEntity
  8
0
100
AcDbBlockEnd
  0
BLOCK
  5
1F
330
1E
100
AcDbEntity
 67
     1
  8
0
100
AcDbBlockBegin
  2
*Paper_Space
 70
     0
 10
0.0
 20
0.0
 30
0.0
  3
*Paper_Space
  1

  0
ENDBLK
  5
20
330
1E
100
AcDbEntity
 67
     1
  8
0
100
AcDbBlockEnd
  0
BLOCK
  5
3A
330
39
100
AcDbEntity
  8
0
100
AcDbBlockBegin
  2
_OPEN30
 70
     0
 10
0.0
 20
0.0
 30
0.0
  3
_OPEN30
  1

  0
LINE
  5
3B
330
39
100
AcDbEntity
  8
0
  6
ByBlock
 62
     0
100
AcDbLine
 10
0.0
 20
0.0
 30
0.0
 11
-2.999999999999993
 21
-1.000000000000017
 31
0.0
  0
LINE
  5
3C
330
39
100
AcDbEntity
  8
0
  6
ByBlock
 62
     0
100
AcDbLine
 10
0.0
 20
0.0
 30
0.0
 11
-3.000000000000006
 21
0.9999999999999815
 31
0.0
  0
LINE
  5
3D
330
39
100
AcDbEntity
  8
0
  6
ByBlock
 62
     0
100
AcDbLine
 10
0.0
 20
0.0
 30
0.0
 11
-3.0
 21
0.0
 31
0.0
  0
ENDBLK
  5
3E
330
39
100
AcDbEntity
  8
0
100
AcDbBlockEnd
  0
BLOCK
  5
40
330
3F
100
AcDbEntity
  8
0
100
AcDbBlockBegin
  2
*D1
 70
     1
 10
0.0
 20
0.0
 30
0.0
  3
*D1
  1

  0
LINE
  5
41
330
3F
100
AcDbEntity
  8
0
  6
Continuous
 62
     7
100
AcDbLine
 10
-141.9337768554688
 20
363.6138916015625
 30
0.0
 11
-212.2337646484375
 21
363.6138916015625
 31
0.0
  0
INSERT
  5
42
330
3F
100
AcDbEntity
  8
0
  6
Continuous
 62
     7
100
AcDbBlockReference
  2
_OPEN30
 10
-138.9337768554687
 20
363.6138916015625
 30
0.0
  0
INSERT
  5
43
330
3F
100
AcDbEntity
  8
0
  6
Continuous
 62
     7
100
AcDbBlockReference
  2
_OPEN30
 10
-215.2337646484375
 20
363.6138916015625
 30
0.0
 50
180.0000000000004
  0
LINE
  5
44
330
3F
100
AcDbEntity
  8
0
  6
Continuous
 62
     7
100
AcDbLine
 10
-138.9337768554687
 20
344.9079504394532
 30
0.0
 11
-138.9337768554687
 21
365.89990234375
 31
0.0
  0
LINE
  5
45
330
3F
100
AcDbEntity
  8
0
  6
Continuous
 62
     7
100
AcDbLine
 10
-215.2337646484375
 20
303.4079504394532
 30
0.0
 11
-215.2337646484375
 21
365.89990234375
 31
0.0
  0
TEXT
  5
46
330
3F
100
AcDbEntity
  8
0
  6
Continuous
 62
     7
100
AcDbText
 10
-191.653771340847
 20
364.3638916015625
 30
0.0
 40
3.0
  1
７６　（５１～７８）
 41
0.8443929326254473
100
AcDbText
  0
POINT
  5
47
330
3F
100
AcDbEntity
  8
DEFPOINTS
  6
Continuous
 62
     7
100
AcDbPoint
 10
-138.9337768554687
 20
342.3679504394531
 30
0.0
  0
POINT
  5
48
330
3F
100
AcDbEntity
  8
DEFPOINTS
  6
Continuous
 62
     7
100
AcDbPoint
 10
-215.2337646484375
 20
300.8679504394531
 30
0.0
  0
POINT
  5
49
330
3F
100
AcDbEntity
  8
DEFPOINTS
  6
Continuous
 62
     7
100
AcDbPoint
 10
-215.2337646484375
 20
363.6138916015625
 30
0.0
  0
ENDBLK
  5
4A
330
3F
100
AcDbEntity
  8
0
100
AcDbBlockEnd
  0
BLOCK
  5
4C
330
4B
100
AcDbEntity
  8
0
100
AcDbBlockBegin
  2
*D2
 70
     1
 10
0.0
 20
0.0
 30
0.0
  3
*D2
  1

  0
LINE
  5
4D
330
4B
100
AcDbEntity
  8
0
  6
Continuous
 62
     7
100
AcDbLine
 10
-135.4337768554688
 20
363.6138916015625
 30
0.0
 11
-118.7298812866211
 21
363.6138916015625
 31
0.0
  0
LINE
  5
4E
330
4B
100
AcDbEntity
  8
0
  6
Continuous
 62
     7
100
AcDbLine
 10
-138.9337768554687
 20
363.6138916015625
 30
0.0
 11
-135.4337768554688
 21
363.6138916015625
 31
0.0
  0
INSERT
  5
4F
330
4B
100
AcDbEntity
  8
0
  6
Continuous
 62
     7
100
AcDbBlockReference
  2
_OPEN30
 10
-138.9337768554687
 20
363.6138916015625
 30
0.0
 50
0.0000000000003562
  0
LINE
  5
50
330
4B
100
AcDbEntity
  8
0
  6
Continuous
 62
     7
100
AcDbLine
 10
-141.9337768554688
 20
363.6138916015625
 30
0.0
 11
-145.2837768554687
 21
363.6138916015623
 31
0.0
  0
INSERT
  5
51
330
4B
100
AcDbEntity
  8
0
  6
Continuous
 62
     7
100
AcDbBlockReference
  2
_OPEN30
 10
-135.4337768554688
 20
363.6138916015625
 30
0.0
 50
180.0
  0
LINE
  5
52
330
4B
100
AcDbEntity
  8
0
  6
Continuous
 62
     7
100
AcDbLine
 10
-132.4337768554687
 20
363.6138916015625
 30
0.0
 11
-129.0837768554688
 21
363.6138916015625
 31
0.0
  0
LINE
  5
53
330
4B
100
AcDbEntity
  8
0
  6
Continuous
 62
     7
100
AcDbLine
 10
-135.4337768554688
 20
346.4079504394532
 30
0.0
 11
-135.4337768554688
 21
365.89990234375
 31
0.0
  0
TEXT
  5
54
330
4B
100
AcDbEntity
  8
0
  6
Continuous
 62
     7
100
AcDbText
 10
-126.8698811531067
 20
364.3638916015625
 30
0.0
 40
3.0
  1
3.5
 41
1.356666684150696
100
AcDbText
  0
POINT
  5
55
330
4B
100
AcDbEntity
  8
DEFPOINTS
  6
Continuous
 62
     7
100
AcDbPoint
 10
-138.9337768554687
 20
365.89990234375
 30
0.0
  0
POINT
  5
56
330
4B
100
AcDbEntity
  8
DEFPOINTS
  6
Continuous
 62
     7
100
AcDbPoint
 10
-135.4337768554688
 20
343.8679504394531
 30
0.0
  0
POINT
  5
57
330
4B
100
AcDbEntity
  8
DEFPOINTS
  6
Continuous
 62
     7
100
AcDbPoint
 10
-135.4337768554688
 20
363.6138916015625
 30
0.0
  0
ENDBLK
  5
58
330
4B
100
AcDbEntity
  8
0
100
AcDbBlockEnd
  0
BLOCK
  5
5A
330
59
100
AcDbEntity
  8
0
100
AcDbBlockBegin
  2
*D3
 70
     1
 10
0.0
 20
0.0
 30
0.0
  3
*D3
  1

  0
LINE
  5
5B
330
59
100
AcDbEntity
  8
0
  6
Continuous
 62
     7
100
AcDbLine
 10
-141.9337768554688
 20
353.4266357421875
 30
0.0
 11
-175.9337768554688
 21
353.4266357421875
 31
0.0
  0
INSERT
  5
5C
330
59
100
AcDbEntity
  8
0
  6
Continuous
 62
     7
100
AcDbBlockReference
  2
_OPEN30
 10
-138.9337768554687
 20
353.4266357421875
 30
0.0
  0
INSERT
  5
5D
330
59
100
AcDbEntity
  8
0
  6
Continuous
 62
     7
100
AcDbBlockReference
  2
_OPEN30
 10
-178.9337768554688
 20
353.4266357421875
 30
0.0
 50
180.0000000000004
  0
LINE
  5
5E
330
59
100
AcDbEntity
  8
0
  6
Continuous
 62
     7
100
AcDbLine
 10
-178.9337768554688
 20
295.9079504394532
 30
0.0
 11
-178.9337768554688
 21
355.712646484375
 31
0.0
  0
TEXT
  5
5F
330
59
100
AcDbEntity
  8
0
  6
Continuous
 62
     7
100
AcDbText
 10
-161.5037769675255
 20
354.1766357421875
 30
0.0
 40
3.0
  1
40
 41
1.101428593908038
100
AcDbText
  0
POINT
  5
60
330
59
100
AcDbEntity
  8
DEFPOINTS
  6
Continuous
 62
     7
100
AcDbPoint
 10
-138.9337768554687
 20
342.3679504394531
 30
0.0
  0
POINT
  5
61
330
59
100
AcDbEntity
  8
DEFPOINTS
  6
Continuous
 62
     7
100
AcDbPoint
 10
-178.9337768554688
 20
293.3679504394531
 30
0.0
  0
POINT
  5
62
330
59
100
AcDbEntity
  8
DEFPOINTS
  6
Continuous
 62
     7
100
AcDbPoint
 10
-178.9337768554688
 20
353.4266357421875
 30
0.0
  0
ENDBLK
  5
63
330
59
100
AcDbEntity
  8
0
100
AcDbBlockEnd
  0
BLOCK
  5
65
330
64
100
AcDbEntity
  8
0
100
AcDbBlockBegin
  2
*D4
 70
     1
 10
0.0
 20
0.0
 30
0.0
  3
*D4
  1

  0
LINE
  5
66
330
64
100
AcDbEntity
  8
0
  6
Continuous
 62
     7
100
AcDbLine
 10
-162.2337646484375
 20
251.1092376708984
 30
0.0
 11
-212.2337646484375
 21
251.1092376708984
 31
0.0
  0
INSERT
  5
67
330
64
100
AcDbEntity
  8
0
  6
Continuous
 62
     7
100
AcDbBlockReference
  2
_OPEN30
 10
-159.2337646484375
 20
251.1092376708984
 30
0.0
  0
INSERT
  5
68
330
64
100
AcDbEntity
  8
0
  6
Continuous
 62
     7
100
AcDbBlockReference
  2
_OPEN30
 10
-215.2337646484375
 20
251.1092376708984
 30
0.0
 50
180.0000000000004
  0
TEXT
  5
69
330
64
100
AcDbEntity
  8
0
  6
Continuous
 62
     7
100
AcDbText
 10
-189.8037647604942
 20
251.8592376708984
 30
0.0
 40
3.0
  1
56
 41
1.028000020980834
100
AcDbText
  0
POINT
  5
6A
330
64
100
AcDbEntity
  8
DEFPOINTS
  6
Continuous
 62
     7
100
AcDbPoint
 10
-159.2337646484375
 20
233.3679351806641
 30
0.0
  0
POINT
  5
6B
330
64
100
AcDbEntity
  8
DEFPOINTS
  6
Continuous
 62
     7
100
AcDbPoint
 10
-215.2337646484375
 20
300.8679504394531
 30
0.0
  0
POINT
  5
6C
330
64
100
AcDbEntity
  8
DEFPOINTS
  6
Continuous
 62
     7
100
AcDbPoint
 10
-215.2337646484375
 20
251.1092376708984
 30
0.0
  0
ENDBLK
  5
6D
330
64
100
AcDbEntity
  8
0
100
AcDbBlockEnd
  0
BLOCK
  5
6F
330
6E
100
AcDbEntity
  8
0
100
AcDbBlockBegin
  2
*D5
 70
     1
 10
0.0
 20
0.0
 30
0.0
  3
*D5
  1

  0
LINE
  5
70
330
6E
100
AcDbEntity
  8
0
  6
Continuous
 62
     7
100
AcDbLine
 10
-175.9337768554688
 20
99.80557250976564
 30
0.0
 11
-96.93376922607422
 21
99.80557250976559
 31
0.0
  0
INSERT
  5
71
330
6E
100
AcDbEntity
  8
0
  6
Continuous
 62
     7
100
AcDbBlockReference
  2
_OPEN30
 10
-178.9337768554688
 20
99.80557250976564
 30
0.0
 50
180.0000000000004
  0
INSERT
  5
72
330
6E
100
AcDbEntity
  8
0
  6
Continuous
 62
     7
100
AcDbBlockReference
  2
_OPEN30
 10
-93.93376922607421
 20
99.80557250976564
 30
0.0
  0
LINE
  5
73
330
6E
100
AcDbEntity
  8
0
  6
Continuous
 62
     7
100
AcDbLine
 10
-178.9337768554687
 20
170.8279351806641
 30
0.0
 11
-178.9337768554688
 21
97.51956939697265
 31
0.0
  0
LINE
  5
74
330
6E
100
AcDbEntity
  8
0
  6
Continuous
 62
     7
100
AcDbLine
 10
-93.93376922607421
 20
169.3279351806641
 30
0.0
 11
-93.93376922607421
 21
97.51956939697265
 31
0.0
  0
TEXT
  5
75
330
6E
100
AcDbEntity
  8
0
  6
Continuous
 62
     7
100
AcDbText
 10
-139.0037769675255
 20
100.5555725097656
 30
0.0
 40
3.0
  1
85
 41
1.028000020980834
100
AcDbText
  0
POINT
  5
76
330
6E
100
AcDbEntity
  8
DEFPOINTS
  6
Continuous
 62
     7
100
AcDbPoint
 10
-178.9337768554688
 20
173.3679351806641
 30
0.0
  0
POINT
  5
77
330
6E
100
AcDbEntity
  8
DEFPOINTS
  6
Continuous
 62
     7
100
AcDbPoint
 10
-93.93376922607421
 20
171.8679351806641
 30
0.0
  0
POINT
  5
78
330
6E
100
AcDbEntity
  8
DEFPOINTS
  6
Continuous
 62
     7
100
AcDbPoint
 10
-93.93376922607421
 20
99.80557250976564
 30
0.0
  0
ENDBLK
  5
79
330
6E
100
AcDbEntity
  8
0
100
AcDbBlockEnd
  0
BLOCK
  5
7B
330
7A
100
AcDbEntity
  8
0
100
AcDbBlockBegin
  2
*D6
 70
     1
 10
0.0
 20
0.0
 30
0.0
  3
*D6
  1

  0
LINE
  5
7C
330
7A
100
AcDbEntity
  8
0
  6
Continuous
 62
     7
100
AcDbLine
 10
-103.1996154785156
 20
167.8679351806641
 30
0.0
 11
-103.1996154785156
 21
155.8679351806641
 31
0.0
  0
INSERT
  5
7D
330
7A
100
AcDbEntity
  8
0
  6
Continuous
 62
     7
100
AcDbBlockReference
  2
_OPEN30
 10
-103.1996154785156
 20
170.8679351806641
 30
0.0
 50
90.00000000000019
  0
INSERT
  5
7E
330
7A
100
AcDbEntity
  8
0
  6
Continuous
 62
     7
100
AcDbBlockReference
  2
_OPEN30
 10
-103.1996154785156
 20
152.8679351806641
 30
0.0
 50
270.0000000000005
  0
LINE
  5
7F
330
7A
100
AcDbEntity
  8
0
  6
Continuous
 62
     7
100
AcDbLine
 10
-131.4389123535155
 20
152.8679351806641
 30
0.0
 11
-100.9136199951172
 21
152.8679351806641
 31
0.0
  0
TEXT
  5
80
330
7A
100
AcDbEntity
  8
0
  6
Continuous
 62
     7
100
AcDbText
 10
-103.9496153661774
 20
159.2979350358238
 30
0.0
 40
3.0
  1
18
 50
90.00000250447815
 41
1.285000026226043
100
AcDbText
  0
POINT
  5
81
330
7A
100
AcDbEntity
  8
DEFPOINTS
  6
Continuous
 62
     7
100
AcDbPoint
 10
-95.90058135986328
 20
170.8679351806641
 30
0.0
  0
POINT
  5
82
330
7A
100
AcDbEntity
  8
DEFPOINTS
  6
Continuous
 62
     7
100
AcDbPoint
 10
-133.9789123535156
 20
152.8679351806641
 30
0.0
  0
POINT
  5
83
330
7A
100
AcDbEntity
  8
DEFPOINTS
  6
Continuous
 62
     7
100
AcDbPoint
 10
-103.1996154785156
 20
152.8679351806641
 30
0.0
  0
ENDBLK
  5
84
330
7A
100
AcDbEntity
  8
0
100
AcDbBlockEnd
  0
BLOCK
  5
86
330
85
100
AcDbEntity
  8
0
100
AcDbBlockBegin
  2
*D7
 70
     1
 10
0.0
 20
0.0
 30
0.0
  3
*D7
  1

  0
LINE
  5
87
330
85
100
AcDbEntity
  8
0
  6
Continuous
 62
     7
100
AcDbLine
 10
-132.4337768554687
 20
140.9410247802734
 30
0.0
 11
-116.4337692260742
 21
140.9410247802734
 31
0.0
  0
INSERT
  5
88
330
85
100
AcDbEntity
  8
0
  6
Continuous
 62
     7
100
AcDbBlockReference
  2
_OPEN30
 10
-135.4337768554688
 20
140.9410247802734
 30
0.0
 50
180.0000000000004
  0
INSERT
  5
89
330
85
100
AcDbEntity
  8
0
  6
Continuous
 62
     7
100
AcDbBlockReference
  2
_OPEN30
 10
-113.4337692260742
 20
140.9410247802734
 30
0.0
  0
LINE
  5
8A
330
85
100
AcDbEntity
  8
0
  6
Continuous
 62
     7
100
AcDbLine
 10
-113.4337692260742
 20
166.3279809570313
 30
0.0
 11
-113.4337692260742
 21
138.655029296875
 31
0.0
  0
TEXT
  5
8B
330
85
100
AcDbEntity
  8
0
  6
Continuous
 62
     7
100
AcDbText
 10
-127.003769338131
 20
141.6910247802734
 30
0.0
 40
3.0
  1
22
 41
1.028000020980834
100
AcDbText
  0
POINT
  5
8C
330
85
100
AcDbEntity
  8
DEFPOINTS
  6
Continuous
 62
     7
100
AcDbPoint
 10
-135.4337768554688
 20
122.8679351806641
 30
0.0
  0
POINT
  5
8D
330
85
100
AcDbEntity
  8
DEFPOINTS
  6
Continuous
 62
     7
100
AcDbPoint
 10
-113.4337692260742
 20
168.8679809570313
 30
0.0
  0
POINT
  5
8E
330
85
100
AcDbEntity
  8
DEFPOINTS
  6
Continuous
 62
     7
100
AcDbPoint
 10
-113.4337692260742
 20
140.9410247802734
 30
0.0
  0
ENDBLK
  5
8F
330
85
100
AcDbEntity
  8
0
100
AcDbBlockEnd
  0
BLOCK
  5
91
330
90
100
AcDbEntity
  8
0
100
AcDbBlockBegin
  2
*D8
 70
     1
 10
0.0
 20
0.0
 30
0.0
  3
*D8
  1

  0
LINE
  5
92
330
90
100
AcDbEntity
  8
0
  6
Continuous
 62
     7
100
AcDbLine
 10
-59.99692916870118
 20
173.8679351806641
 30
0.0
 11
-59.99692916870114
 21
292.8679504394531
 31
0.0
  0
INSERT
  5
93
330
90
100
AcDbEntity
  8
0
  6
Continuous
 62
     7
100
AcDbBlockReference
  2
_OPEN30
 10
-59.99692916870117
 20
170.8679351806641
 30
0.0
 50
270.0000000000005
  0
INSERT
  5
94
330
90
100
AcDbEntity
  8
0
  6
Continuous
 62
     7
100
AcDbBlockReference
  2
_OPEN30
 10
-59.99692916870117
 20
295.8679504394531
 30
0.0
 50
90.00000000000019
  0
LINE
  5
95
330
90
100
AcDbEntity
  8
0
  6
Continuous
 62
     7
100
AcDbLine
 10
-92.39376922607419
 20
170.8679351806641
 30
0.0
 11
-57.71092987060547
 21
170.8679351806641
 31
0.0
  0
LINE
  5
96
330
90
100
AcDbEntity
  8
0
  6
Continuous
 62
     7
100
AcDbLine
 10
-92.39376922607419
 20
295.8679504394531
 30
0.0
 11
-57.71092987060547
 21
295.8679504394531
 31
0.0
  0
TEXT
  5
97
330
90
100
AcDbEntity
  8
0
  6
Continuous
 62
     7
100
AcDbText
 10
-60.74692892522872
 20
227.7979349166145
 30
0.0
 40
3.0
  1
%%C125
 50
90.00000250447815
 41
1.053926216168795
100
AcDbText
  0
POINT
  5
98
330
90
100
AcDbEntity
  8
DEFPOINTS
  6
Continuous
 62
     7
100
AcDbPoint
 10
-94.93376922607422
 20
170.8679351806641
 30
0.0
  0
POINT
  5
99
330
90
100
AcDbEntity
  8
DEFPOINTS
  6
Continuous
 62
     7
100
AcDbPoint
 10
-94.93376922607422
 20
295.8679504394531
 30
0.0
  0
POINT
  5
9A
330
90
100
AcDbEntity
  8
DEFPOINTS
  6
Continuous
 62
     7
100
AcDbPoint
 10
-59.99692916870117
 20
295.8679504394531
 30
0.0
  0
ENDBLK
  5
9B
330
90
100
AcDbEntity
  8
0
100
AcDbBlockEnd
  0
BLOCK
  5
9D
330
9C
100
AcDbEntity
  8
0
100
AcDbBlockBegin
  2
*D9
 70
     1
 10
0.0
 20
0.0
 30
0.0
  3
*D9
  1

  0
LINE
  5
9E
330
9C
100
AcDbEntity
  8
0
  6
Continuous
 62
     7
100
AcDbLine
 10
-370.8731994628906
 20
325.579345703125
 30
0.0
 11
-348.9741821289063
 21
358.2597961425781
 31
0.0
  0
LINE
  5
9F
330
9C
100
AcDbEntity
  8
0
  6
Continuous
 62
     7
100
AcDbLine
 10
-492.7839989489717
 20
143.6487251029559
 30
0.0
 11
-372.5432105236845
 21
323.0871452583722
 31
0.0
  0
INSERT
  5
A0
330
9C
100
AcDbEntity
  8
0
  6
Continuous
 62
     7
100
AcDbBlockReference
  2
_OPEN30
 10
-494.4540100097656
 20
141.1565246582031
 30
0.0
 50
236.1741581764305
  0
INSERT
  5
A1
330
9C
100
AcDbEntity
  8
0
  6
Continuous
 62
     7
100
AcDbBlockReference
  2
_OPEN30
 10
-370.8731994628906
 20
325.579345703125
 30
0.0
 50
56.1741581764298
  0
TEXT
  5
A2
330
9C
100
AcDbEntity
  8
0
  6
Continuous
 62
     7
100
AcDbText
 10
-367.4828009263886
 20
331.9732130938414
 30
0.0
 40
3.0
  1
%%C２２２（防水皿外径）
 50
56.19999860415884
 41
0.8440126077968535
100
AcDbText
  0
POINT
  5
A3
330
9C
100
AcDbEntity
  8
DEFPOINTS
  6
Continuous
 62
     7
100
AcDbPoint
 10
-494.4540100097656
 20
141.1565246582031
 30
0.0
  0
POINT
  5
A4
330
9C
100
AcDbEntity
  8
DEFPOINTS
  6
Continuous
 62
     7
100
AcDbPoint
 10
-370.8731994628906
 20
325.579345703125
 30
0.0
  0
ENDBLK
  5
A5
330
9C
100
AcDbEntity
  8
0
100
AcDbBlockEnd
  0
BLOCK
  5
A7
330
A6
100
AcDbEntity
  8
0
100
AcDbBlockBegin
  2
*D10
 70
     1
 10
0.0
 20
0.0
 30
0.0
  3
*D10
  1

  0
LINE
  5
A8
330
A6
100
AcDbEntity
  8
0
  6
Continuous
 62
     7
100
AcDbLine
 10
-373.6518859863281
 20
279.3105163574219
 30
0.0
 11
-315.9971923828125
 21
324.475341796875
 31
0.0
  0
LINE
  5
A9
330
A6
100
AcDbEntity
  8
0
  6
Continuous
 62
     7
100
AcDbLine
 10
-488.5852247365975
 20
189.2753909932858
 30
0.0
 11
-376.0135301462149
 21
277.4604793680423
 31
0.0
  0
INSERT
  5
AA
330
A6
100
AcDbEntity
  8
0
  6
Continuous
 62
     7
100
AcDbBlockReference
  2
_OPEN30
 10
-490.9468688964843
 20
187.4253540039063
 30
0.0
 50
218.0740207156686
  0
INSERT
  5
AB
330
A6
100
AcDbEntity
  8
0
  6
Continuous
 62
     7
100
AcDbBlockReference
  2
_OPEN30
 10
-373.6518859863281
 20
279.3105163574219
 30
0.0
 50
38.07402071566789
  0
TEXT
  5
AC
330
A6
100
AcDbEntity
  8
0
  6
Continuous
 62
     7
100
AcDbText
 10
-341.7565586983235
 20
305.2397723231406
 30
0.0
 40
3.0
  1
%%C１４９（目皿部外径）
 50
38.10000071871964
 41
0.8440126077968535
100
AcDbText
  0
POINT
  5
AD
330
A6
100
AcDbEntity
  8
DEFPOINTS
  6
Continuous
 62
     7
100
AcDbPoint
 10
-490.9468688964843
 20
187.4253540039063
 30
0.0
  0
POINT
  5
AE
330
A6
100
AcDbEntity
  8
DEFPOINTS
  6
Continuous
 62
     7
100
AcDbPoint
 10
-373.6518859863281
 20
279.3105163574219
 30
0.0
  0
ENDBLK
  5
AF
330
A6
100
AcDbEntity
  8
0
100
AcDbBlockEnd
  0
BLOCK
  5
B1
330
B0
100
AcDbEntity
  8
0
100
AcDbBlockBegin
  2
KOZU0001
 70
     0
 10
0.0
 20
0.0
 30
0.0
  3
KOZU0001
  1

  0
LINE
  5
B2
330
B0
100
AcDbEntity
  8
0
  6
Continuous
 62
     7
100
AcDbLine
 10
0.0
 20
0.0
 30
0.0
 11
51.74990844726563
 21
-34.0378875732422
 31
0.0
  0
LINE
  5
B3
330
B0
100
AcDbEntity
  8
0
  6
Continuous
 62
     7
100
AcDbLine
 10
51.74990844726563
 20
-34.0378875732422
 30
0.0
 11
77.47101211547851
 21
-34.0378875732422
 31
0.0
  0
LINE
  5
B4
330
B0
100
AcDbEntity
  8
0
  6
Continuous
 62
     7
100
AcDbLine
 10
0.0
 20
0.0
 30
0.0
 11
3.055956648738406
 21
-0.8130983710668289
 31
0.0
  0
LINE
  5
B5
330
B0
100
AcDbEntity
  8
0
  6
Continuous
 62
     7
100
AcDbLine
 10
0.0
 20
0.0
 30
0.0
 11
1.956906296350627
 21
-2.484052686096505
 31
0.0
  0
TEXT
  5
B6
330
B0
100
AcDbEntity
  8
0
  6
Continuous
 62
     7
100
AcDbText
 10
53.22598195075989
 20
-33.2878875732422
 30
0.0
 40
3.0
  1
共廻り防止用羽根
 41
0.8454512278006642
100
AcDbText
  0
TEXT
  5
B7
330
B0
100
AcDbEntity
  8
0
  6
Continuous
 62
     7
100
AcDbText
 10
53.22598195075989
 20
-38.55288757324219
 30
0.0
 40
3.0
  1
３ヶ所
 41
0.8550420278260688
100
AcDbText
  0
ENDBLK
  5
B8
330
B0
100
AcDbEntity
  8
0
100
AcDbBlockEnd
  0
BLOCK
  5
BA
330
B9
100
AcDbEntity
  8
0
100
AcDbBlockBegin
  2
KOZU0002
 70
     0
 10
0.0
 20
0.0
 30
0.0
  3
KOZU0002
  1

  0
LINE
  5
BB
330
B9
100
AcDbEntity
  8
0
  6
Continuous
 62
     7
100
AcDbLine
 10
0.0
 20
0.0
 30
0.0
 11
32.84779357910156
 21
34.27468872070313
 31
0.0
  0
LINE
  5
BC
330
B9
100
AcDbEntity
  8
0
  6
Continuous
 62
     7
100
AcDbLine
 10
32.84779357910156
 20
34.27468872070313
 30
0.0
 11
61.56889343261719
 21
34.27468872070313
 31
0.0
  0
LINE
  5
BD
330
B9
100
AcDbEntity
  8
0
  6
Continuous
 62
     7
100
AcDbLine
 10
0.0
 20
0.0
 30
0.0
 11
1.353780774194442
 21
2.857844925012813
 31
0.0
  0
LINE
  5
BE
330
B9
100
AcDbEntity
  8
0
  6
Continuous
 62
     7
100
AcDbLine
 10
0.0
 20
0.0
 30
0.0
 11
2.797731574363242
 21
1.474007475493586
 31
0.0
  0
TEXT
  5
BF
330
B9
100
AcDbEntity
  8
0
  6
Continuous
 62
     7
100
AcDbText
 10
33.80798268318176
 20
35.02468872070313
 30
0.0
 40
3.0
  1
配管接続口
 41
0.8487395020950888
100
AcDbText
  0
TEXT
  5
C0
330
B9
100
AcDbEntity
  8
0
  6
Continuous
 62
     7
100
AcDbText
 10
33.80798268318176
 20
29.75968872070312
 30
0.0
 40
3.0
  1
Ｒｃ４（１００Ａ）
 41
0.8448610247221777
100
AcDbText
  0
ENDBLK
  5
C1
330
B9
100
AcDbEntity
  8
0
100
AcDbBlockEnd
  0
ENDSEC
  0
SECTION
  2
ENTITIES
  0
POINT
  5
C2
330
22
100
AcDbEntity
  8
0
  6
Continuous
 62
     7
100
AcDbPoint
 10
-135.4337768554688
 20
233.3679351806641
 30
0.0
  0
POINT
  5
C3
330
22
100
AcDbEntity
  8
0
  6
Continuous
 62
     7
100
AcDbPoint
 10
-432.6636047363281
 20
233.3679351806641
 30
0.0
  0
POINT
  5
C4
330
22
100
AcDbEntity
  8
0
  6
Continuous
 62
     7
100
AcDbPoint
 10
-135.4337768554688
 20
233.3679351806641
 30
0.0
  0
POINT
  5
C5
330
22
100
AcDbEntity
  8
0
  6
Continuous
 62
     7
100
AcDbPoint
 10
-432.6636047363281
 20
233.3679351806641
 30
0.0
  0
POINT
  5
C6
330
22
100
AcDbEntity
  8
0
  6
Continuous
 62
     7
100
AcDbPoint
 10
-113.6613998413086
 20
289.2514038085938
 30
0.0
  0
LINE
  5
C7
330
22
100
AcDbEntity
  8
0
  6
Continuous
 62
     7
100
AcDbLine
 10
-213.0337677001953
 20
293.6179504394531
 30
0.0
 11
-209.61376953125
 21
293.6179504394531
 31
0.0
  0
LINE
  5
C8
330
22
100
AcDbEntity
  8
0
  6
Continuous
 62
     7
100
AcDbLine
 10
-209.61376953125
 20
289.6179504394531
 30
0.0
 11
-208.9337768554688
 21
289.6179504394531
 31
0.0
  0
LINE
  5
C9
330
22
100
AcDbEntity
  8
0
  6
Continuous
 62
     7
100
AcDbLine
 10
-215.2337646484375
 20
298.8679504394531
 30
0.0
 11
-212.2337646484375
 21
298.8679504394531
 31
0.0
  0
LINE
  5
CA
330
22
100
AcDbEntity
  8
0
  6
Continuous
 62
     7
100
AcDbLine
 10
-211.2337646484375
 20
307.8679504394531
 30
0.0
 11
-215.2337646484375
 21
300.8679504394531
 31
0.0
  0
LINE
  5
CB
330
22
100
AcDbEntity
  8
0
  6
Continuous
 62
     7
100
AcDbLine
 10
-215.2337646484375
 20
287.4179382324219
 30
0.0
 11
-213.0337677001953
 21
289.6179504394531
 31
0.0
  0
LINE
  5
CC
330
22
100
AcDbEntity
  8
0
  6
Continuous
 62
     7
100
AcDbLine
 10
-178.9337768554688
 20
289.8679504394531
 30
0.0
 11
-177.4337768554688
 21
288.3679504394531
 31
0.0
  0
LINE
  5
CD
330
22
100
AcDbEntity
  8
0
  6
Continuous
 62
     7
100
AcDbLine
 10
-209.2337646484375
 20
289.9979248046875
 30
0.0
 11
-209.61376953125
 21
289.6179504394531
 31
0.0
  0
LINE
  5
CE
330
22
100
AcDbEntity
  8
0
  6
Continuous
 62
     7
100
AcDbLine
 10
-131.9337768554688
 20
287.1796569824219
 30
0.0
 11
-133.3890228271484
 21
288.6348876953125
 31
0.0
  0
LINE
  5
CF
330
22
100
AcDbEntity
  8
0
  6
Continuous
 62
     7
100
AcDbLine
 10
-204.9337768554688
 20
289.8379516601563
 30
0.0
 11
-204.9337768554688
 21
288.3679504394531
 31
0.0
  0
LINE
  5
D0
330
22
100
AcDbEntity
  8
0
  6
Continuous
 62
     7
100
AcDbLine
 10
-95.48291778564452
 20
288.3187866210938
 30
0.0
 11
-95.48291778564452
 21
233.3679351806641
 31
0.0
  0
LINE
  5
D1
330
22
100
AcDbEntity
  8
0
  6
Continuous
 62
     7
100
AcDbLine
 10
-140.4337768554688
 20
288.3679504394531
 30
0.0
 11
-140.4337768554688
 21
233.3679351806641
 31
0.0
  0
LINE
  5
D2
330
22
100
AcDbEntity
  8
0
  6
Continuous
 62
     7
100
AcDbLine
 10
-135.4337768554688
 20
296.8679504394531
 30
0.0
 11
-135.4337768554688
 21
343.8679504394531
 31
0.0
  0
LINE
  5
D3
330
22
100
AcDbEntity
  8
0
  6
Continuous
 62
     7
100
AcDbLine
 10
-135.9337768554688
 20
344.3679504394531
 30
0.0
 11
-136.9337768554688
 21
344.3679504394531
 31
0.0
  0
LINE
  5
D4
330
22
100
AcDbEntity
  8
0
  6
Continuous
 62
     7
100
AcDbLine
 10
-159.2337646484375
 20
283.8679504394531
 30
0.0
 11
-212.2337646484375
 21
283.8679504394531
 31
0.0
  0
LINE
  5
D5
330
22
100
AcDbEntity
  8
0
  6
Continuous
 62
     7
100
AcDbLine
 10
-159.2337646484375
 20
260.8679504394531
 30
0.0
 11
-159.2337646484375
 21
269.7172241210938
 31
0.0
  0
LINE
  5
D6
330
22
100
AcDbEntity
  8
0
  6
Continuous
 62
     7
100
AcDbLine
 10
-215.2337646484375
 20
261.4929504394531
 30
0.0
 11
-215.2337646484375
 21
269.7172241210938
 31
0.0
  0
LINE
  5
D7
330
22
100
AcDbEntity
  8
0
  6
Continuous
 62
     7
100
AcDbLine
 10
-143.9337768554688
 20
294.3679504394531
 30
0.0
 11
-177.9337768554688
 21
294.3679504394531
 31
0.0
  0
LINE
  5
D8
330
22
100
AcDbEntity
  8
0
  6
Continuous
 62
     7
100
AcDbLine
 10
-178.9337768554688
 20
289.8679504394531
 30
0.0
 11
-138.9337768554687
 21
289.8679504394531
 31
0.0
  0
LINE
  5
D9
330
22
100
AcDbEntity
  8
0
  6
Continuous
 62
     7
100
AcDbLine
 10
-138.914306640625
 20
342.4657897949219
 30
0.0
 11
-137.0316314697266
 21
344.3484802246094
 31
0.0
  0
LINE
  5
DA
330
22
100
AcDbEntity
  8
0
  6
Continuous
 62
     7
100
AcDbLine
 10
-138.9337768554687
 20
338.2037048339844
 30
0.0
 11
-135.4337768554688
 21
341.7037048339844
 31
0.0
  0
LINE
  5
DB
330
22
100
AcDbEntity
  8
0
  6
Continuous
 62
     7
100
AcDbLine
 10
-138.9337768554687
 20
333.9610595703125
 30
0.0
 11
-135.4337768554688
 21
337.4610595703125
 31
0.0
  0
LINE
  5
DC
330
22
100
AcDbEntity
  8
0
  6
Continuous
 62
     7
100
AcDbLine
 10
-138.9337768554687
 20
329.7184143066406
 30
0.0
 11
-135.4337768554688
 21
333.2184143066406
 31
0.0
  0
LINE
  5
DD
330
22
100
AcDbEntity
  8
0
  6
Continuous
 62
     7
100
AcDbLine
 10
-178.7842407226563
 20
289.8679504394531
 30
0.0
 11
-174.2842407226563
 21
294.3679504394531
 31
0.0
  0
LINE
  5
DE
330
22
100
AcDbEntity
  8
0
  6
Continuous
 62
     7
100
AcDbLine
 10
-138.9337768554687
 20
325.4757690429688
 30
0.0
 11
-135.4337768554688
 21
328.9757690429688
 31
0.0
  0
LINE
  5
DF
330
22
100
AcDbEntity
  8
0
  6
Continuous
 62
     7
100
AcDbLine
 10
-174.5416107177734
 20
289.8679504394531
 30
0.0
 11
-170.0416107177734
 21
294.3679504394531
 31
0.0
  0
LINE
  5
E0
330
22
100
AcDbEntity
  8
0
  6
Continuous
 62
     7
100
AcDbLine
 10
-138.9337768554687
 20
321.2331237792969
 30
0.0
 11
-135.4337768554688
 21
324.7331237792969
 31
0.0
  0
LINE
  5
E1
330
22
100
AcDbEntity
  8
0
  6
Continuous
 62
     7
100
AcDbLine
 10
-170.2989654541016
 20
289.8679504394531
 30
0.0
 11
-165.7989654541016
 21
294.3679504394531
 31
0.0
  0
LINE
  5
E2
330
22
100
AcDbEntity
  8
0
  6
Continuous
 62
     7
100
AcDbLine
 10
-138.9337768554687
 20
316.990478515625
 30
0.0
 11
-135.4337768554688
 21
320.490478515625
 31
0.0
  0
LINE
  5
E3
330
22
100
AcDbEntity
  8
0
  6
Continuous
 62
     7
100
AcDbLine
 10
-166.0563201904297
 20
289.8679504394531
 30
0.0
 11
-161.5563201904297
 21
294.3679504394531
 31
0.0
  0
LINE
  5
E4
330
22
100
AcDbEntity
  8
0
  6
Continuous
 62
     7
100
AcDbLine
 10
-138.9337768554687
 20
312.7478637695313
 30
0.0
 11
-135.4337768554688
 21
316.2478637695313
 31
0.0
  0
LINE
  5
E5
330
22
100
AcDbEntity
  8
0
  6
Continuous
 62
     7
100
AcDbLine
 10
-161.8136901855469
 20
289.8679504394531
 30
0.0
 11
-157.3136901855469
 21
294.3679504394531
 31
0.0
  0
LINE
  5
E6
330
22
100
AcDbEntity
  8
0
  6
Continuous
 62
     7
100
AcDbLine
 10
-138.9337768554687
 20
308.5052185058594
 30
0.0
 11
-135.4337768554688
 21
312.0052185058594
 31
0.0
  0
LINE
  5
E7
330
22
100
AcDbEntity
  8
0
  6
Continuous
 62
     7
100
AcDbLine
 10
-157.571044921875
 20
289.8679504394531
 30
0.0
 11
-153.071044921875
 21
294.3679504394531
 31
0.0
  0
LINE
  5
E8
330
22
100
AcDbEntity
  8
0
  6
Continuous
 62
     7
100
AcDbLine
 10
-138.9337768554687
 20
304.2625732421875
 30
0.0
 11
-135.4337768554688
 21
307.7625732421875
 31
0.0
  0
LINE
  5
E9
330
22
100
AcDbEntity
  8
0
  6
Continuous
 62
     7
100
AcDbLine
 10
-153.3283996582031
 20
289.8679504394531
 30
0.0
 11
-148.8283996582031
 21
294.3679504394531
 31
0.0
  0
LINE
  5
EA
330
22
100
AcDbEntity
  8
0
  6
Continuous
 62
     7
100
AcDbLine
 10
-138.9337768554687
 20
300.0199279785156
 30
0.0
 11
-135.4337768554688
 21
303.5199279785156
 31
0.0
  0
LINE
  5
EB
330
22
100
AcDbEntity
  8
0
  6
Continuous
 62
     7
100
AcDbLine
 10
-149.0857696533203
 20
289.8679504394531
 30
0.0
 11
-144.5857696533203
 21
294.3679504394531
 31
0.0
  0
LINE
  5
EC
330
22
100
AcDbEntity
  8
0
  6
Continuous
 62
     7
100
AcDbLine
 10
-144.8431243896484
 20
289.8679504394531
 30
0.0
 11
-135.4337768554688
 21
299.2772827148438
 31
0.0
  0
LINE
  5
ED
330
22
100
AcDbEntity
  8
0
  6
Continuous
 62
     7
100
AcDbLine
 10
-140.6004791259766
 20
289.8679504394531
 30
0.0
 11
-134.5728302001953
 21
295.8955993652344
 31
0.0
  0
LINE
  5
EE
330
22
100
AcDbEntity
  8
0
  6
Continuous
 62
     7
100
AcDbLine
 10
-136.8264617919922
 20
289.3993225097656
 30
0.0
 11
-130.3578338623047
 21
295.8679504394531
 31
0.0
  0
LINE
  5
EF
330
22
100
AcDbEntity
  8
0
  6
Continuous
 62
     7
100
AcDbLine
 10
-133.346923828125
 20
288.6361999511719
 30
0.0
 11
-126.1152038574219
 21
295.8679504394531
 31
0.0
  0
LINE
  5
F0
330
22
100
AcDbEntity
  8
0
  6
Continuous
 62
     7
100
AcDbLine
 10
-128.9674224853516
 20
288.7730712890625
 30
0.0
 11
-121.87255859375
 21
295.8679504394531
 31
0.0
  0
LINE
  5
F1
330
22
100
AcDbEntity
  8
0
  6
Continuous
 62
     7
100
AcDbLine
 10
-124.5879058837891
 20
288.9099426269531
 30
0.0
 11
-117.6299209594727
 21
295.8679504394531
 31
0.0
  0
LINE
  5
F2
330
22
100
AcDbEntity
  8
0
  6
Continuous
 62
     7
100
AcDbLine
 10
-120.2084045410156
 20
289.0468139648438
 30
0.0
 11
-113.3872756958008
 21
295.8679504394531
 31
0.0
  0
LINE
  5
F3
330
22
100
AcDbEntity
  8
0
  6
Continuous
 62
     7
100
AcDbLine
 10
-115.8288955688477
 20
289.1836853027344
 30
0.0
 11
-109.1446380615234
 21
295.8679504394531
 31
0.0
  0
LINE
  5
F4
330
22
100
AcDbEntity
  8
0
  6
Continuous
 62
     7
100
AcDbLine
 10
-111.4493865966797
 20
289.320556640625
 30
0.0
 11
-104.9020004272461
 21
295.8679504394531
 31
0.0
  0
LINE
  5
F5
330
22
100
AcDbEntity
  8
0
  6
Continuous
 62
     7
100
AcDbLine
 10
-107.0698776245117
 20
289.4574279785156
 30
0.0
 11
-100.6593551635742
 21
295.8679504394531
 31
0.0
  0
LINE
  5
F6
330
22
100
AcDbEntity
  8
0
  6
Continuous
 62
     7
100
AcDbLine
 10
-102.6903762817383
 20
289.5942687988281
 30
0.0
 11
-96.41671752929688
 21
295.8679504394531
 31
0.0
  0
LINE
  5
F7
330
22
100
AcDbEntity
  8
0
  6
Continuous
 62
     7
100
AcDbLine
 10
-98.31086730957032
 20
289.7311401367188
 30
0.0
 11
-93.93376922607421
 21
294.1082458496094
 31
0.0
  0
LINE
  5
F8
330
22
100
AcDbEntity
  8
0
  6
Continuous
 62
     7
100
AcDbLine
 10
-133.3890228271484
 20
288.6348876953125
 30
0.0
 11
-133.3890228271484
 21
233.3679351806641
 31
0.0
  0
LINE
  5
F9
330
22
100
AcDbEntity
  8
0
  6
Continuous
 62
     7
100
AcDbLine
 10
-138.9337768554687
 20
289.8679504394531
 30
0.0
 11
-138.9337768554687
 21
233.3679351806641
 31
0.0
  0
LINE
  5
FA
330
22
100
AcDbEntity
  8
0
  6
Continuous
 62
     7
100
AcDbLine
 10
-131.9337768554688
 20
233.3679351806641
 30
0.0
 11
-131.9337768554688
 21
287.1796569824219
 31
0.0
  0
LINE
  5
FB
330
22
100
AcDbEntity
  8
0
  6
Continuous
 62
     7
100
AcDbLine
 10
-94.93376922607422
 20
295.8679504394531
 30
0.0
 11
-134.4337768554688
 21
295.8679504394531
 31
0.0
  0
LINE
  5
FC
330
22
100
AcDbEntity
  8
0
  6
Continuous
 62
     7
100
AcDbLine
 10
-137.9337768554687
 20
327.6203308105469
 30
0.0
 11
-138.9337768554687
 21
328.6203308105469
 31
0.0
  0
LINE
  5
FD
330
22
100
AcDbEntity
  8
0
  6
Continuous
 62
     7
100
AcDbLine
 10
-93.93376922607421
 20
289.8679504394531
 30
0.0
 11
-95.48291778564452
 21
288.3187866210938
 31
0.0
  0
LINE
  5
FE
330
22
100
AcDbEntity
  8
0
  6
Continuous
 62
     7
100
AcDbLine
 10
-140.4337768554688
 20
288.3679504394531
 30
0.0
 11
-138.9337768554687
 21
289.8679504394531
 31
0.0
  0
LINE
  5
FF
330
22
100
AcDbEntity
  8
0
  6
Continuous
 62
     7
100
AcDbLine
 10
-215.2337646484375
 20
299.3679504394531
 30
0.0
 11
-212.2337646484375
 21
299.3679504394531
 31
0.0
  0
LINE
  5
100
330
22
100
AcDbEntity
  8
0
  6
Continuous
 62
     7
100
AcDbLine
 10
-213.0272521972656
 20
298.8679504394531
 30
0.0
 11
-212.2337646484375
 21
298.074462890625
 31
0.0
  0
LINE
  5
101
330
22
100
AcDbEntity
  8
0
  6
Continuous
 62
     7
100
AcDbLine
 10
-214.0879211425781
 20
298.8679504394531
 30
0.0
 11
-212.2337646484375
 21
297.0137939453125
 31
0.0
  0
LINE
  5
102
330
22
100
AcDbEntity
  8
0
  6
Continuous
 62
     7
100
AcDbLine
 10
-215.2337646484375
 20
296.8318176269531
 30
0.0
 11
-212.2698974609375
 21
293.8679504394531
 31
0.0
  0
LINE
  5
103
330
22
100
AcDbEntity
  8
0
  6
Continuous
 62
     7
100
AcDbLine
 10
-213.0731964111328
 20
289.3679504394531
 30
0.0
 11
-212.2337646484375
 21
288.5285034179688
 31
0.0
  0
LINE
  5
104
330
22
100
AcDbEntity
  8
0
  6
Continuous
 62
     7
100
AcDbLine
 10
-214.7694702148438
 20
287.8822326660156
 30
0.0
 11
-212.2337646484375
 21
285.3465270996094
 31
0.0
  0
LINE
  5
105
330
22
100
AcDbEntity
  8
0
  6
Continuous
 62
     7
100
AcDbLine
 10
-215.2337646484375
 20
287.2858581542969
 30
0.0
 11
-212.2337646484375
 21
284.2858581542969
 31
0.0
  0
LINE
  5
106
330
22
100
AcDbEntity
  8
0
  6
Continuous
 62
     7
100
AcDbLine
 10
-215.2337646484375
 20
284.1038818359375
 30
0.0
 11
-212.2337646484375
 21
281.1038818359375
 31
0.0
  0
LINE
  5
107
330
22
100
AcDbEntity
  8
0
  6
Continuous
 62
     7
100
AcDbLine
 10
-215.2337646484375
 20
283.0432434082031
 30
0.0
 11
-212.2337646484375
 21
280.0432434082031
 31
0.0
  0
LINE
  5
108
330
22
100
AcDbEntity
  8
0
  6
Continuous
 62
     7
100
AcDbLine
 10
-215.2337646484375
 20
279.8612365722656
 30
0.0
 11
-212.2337646484375
 21
276.8612365722656
 31
0.0
  0
LINE
  5
109
330
22
100
AcDbEntity
  8
0
  6
Continuous
 62
     7
100
AcDbLine
 10
-215.2337646484375
 20
278.8005981445313
 30
0.0
 11
-212.2337646484375
 21
275.8005981445313
 31
0.0
  0
LINE
  5
10A
330
22
100
AcDbEntity
  8
0
  6
Continuous
 62
     7
100
AcDbLine
 10
-215.2337646484375
 20
275.6186218261719
 30
0.0
 11
-212.2337646484375
 21
272.618621826172
 31
0.0
  0
LINE
  5
10B
330
22
100
AcDbEntity
  8
0
  6
Continuous
 62
     7
100
AcDbLine
 10
-215.2337646484375
 20
274.5579528808594
 30
0.0
 11
-212.2337646484375
 21
271.5579528808594
 31
0.0
  0
LINE
  5
10C
330
22
100
AcDbEntity
  8
0
  6
Continuous
 62
     7
100
AcDbLine
 10
-215.2337646484375
 20
271.3759765625
 30
0.0
 11
-212.2337646484375
 21
268.3759765625
 31
0.0
  0
LINE
  5
10D
330
22
100
AcDbEntity
  8
0
  6
Continuous
 62
     7
100
AcDbLine
 10
-215.2337646484375
 20
270.3153076171875
 30
0.0
 11
-212.2337646484375
 21
267.3153076171875
 31
0.0
  0
LINE
  5
10E
330
22
100
AcDbEntity
  8
0
  6
Continuous
 62
     7
100
AcDbLine
 10
-215.2337646484375
 20
267.1333312988281
 30
0.0
 11
-212.2337646484375
 21
264.1333312988281
 31
0.0
  0
LINE
  5
10F
330
22
100
AcDbEntity
  8
0
  6
Continuous
 62
     7
100
AcDbLine
 10
-215.2337646484375
 20
266.0726623535156
 30
0.0
 11
-212.2337646484375
 21
263.0726623535156
 31
0.0
  0
LINE
  5
110
330
22
100
AcDbEntity
  8
0
  6
Continuous
 62
     7
100
AcDbLine
 10
-215.2337646484375
 20
262.8906860351563
 30
0.0
 11
-212.2337646484375
 21
259.8906860351563
 31
0.0
  0
LINE
  5
111
330
22
100
AcDbEntity
  8
0
  6
Continuous
 62
     7
100
AcDbLine
 10
-215.2337646484375
 20
261.8300170898438
 30
0.0
 11
-212.2337646484375
 21
258.8300170898438
 31
0.0
  0
LINE
  5
112
330
22
100
AcDbEntity
  8
0
  6
Continuous
 62
     7
100
AcDbLine
 10
-215.2337646484375
 20
258.6480407714844
 30
0.0
 11
-212.2337646484375
 21
255.6480407714844
 31
0.0
  0
LINE
  5
113
330
22
100
AcDbEntity
  8
0
  6
Continuous
 62
     7
100
AcDbLine
 10
-215.2337646484375
 20
257.5873718261719
 30
0.0
 11
-212.2337646484375
 21
254.5873870849609
 31
0.0
  0
LINE
  5
114
330
22
100
AcDbEntity
  8
0
  6
Continuous
 62
     7
100
AcDbLine
 10
-215.2337646484375
 20
254.4054107666016
 30
0.0
 11
-212.2337646484375
 21
251.4054107666016
 31
0.0
  0
LINE
  5
115
330
22
100
AcDbEntity
  8
0
  6
Continuous
 62
     7
100
AcDbLine
 10
-215.2337646484375
 20
253.3447418212891
 30
0.0
 11
-212.2337646484375
 21
250.3447418212891
 31
0.0
  0
LINE
  5
116
330
22
100
AcDbEntity
  8
0
  6
Continuous
 62
     7
100
AcDbLine
 10
-215.2337646484375
 20
250.1627655029297
 30
0.0
 11
-212.2337646484375
 21
247.1627655029297
 31
0.0
  0
LINE
  5
117
330
22
100
AcDbEntity
  8
0
  6
Continuous
 62
     7
100
AcDbLine
 10
-215.2337646484375
 20
249.1021118164063
 30
0.0
 11
-212.2337646484375
 21
246.1021118164063
 31
0.0
  0
LINE
  5
118
330
22
100
AcDbEntity
  8
0
  6
Continuous
 62
     7
100
AcDbLine
 10
-215.2337646484375
 20
245.9201202392578
 30
0.0
 11
-212.2337646484375
 21
242.9201202392578
 31
0.0
  0
LINE
  5
119
330
22
100
AcDbEntity
  8
0
  6
Continuous
 62
     7
100
AcDbLine
 10
-215.2337646484375
 20
244.8594665527344
 30
0.0
 11
-212.2337646484375
 21
241.8594665527344
 31
0.0
  0
LINE
  5
11A
330
22
100
AcDbEntity
  8
0
  6
Continuous
 62
     7
100
AcDbLine
 10
-215.2337646484375
 20
241.677490234375
 30
0.0
 11
-212.2337646484375
 21
238.677490234375
 31
0.0
  0
LINE
  5
11B
330
22
100
AcDbEntity
  8
0
  6
Continuous
 62
     7
100
AcDbLine
 10
-215.2337646484375
 20
240.6168212890625
 30
0.0
 11
-212.2337646484375
 21
237.6168212890625
 31
0.0
  0
LINE
  5
11C
330
22
100
AcDbEntity
  8
0
  6
Continuous
 62
     7
100
AcDbLine
 10
-215.2337646484375
 20
237.4348449707031
 30
0.0
 11
-214.1668701171875
 21
236.3679351806641
 31
0.0
  0
LINE
  5
11D
330
22
100
AcDbEntity
  8
0
  6
Continuous
 62
     7
100
AcDbLine
 10
-215.2337646484375
 20
236.3741760253906
 30
0.0
 11
-215.2275238037109
 21
236.3679351806641
 31
0.0
  0
LINE
  5
11E
330
22
100
AcDbEntity
  8
0
  6
Continuous
 62
     7
100
AcDbLine
 10
-209.2337646484375
 20
293.2379455566406
 30
0.0
 11
-209.61376953125
 21
293.6179504394531
 31
0.0
  0
LINE
  5
11F
330
22
100
AcDbEntity
  8
0
  6
Continuous
 62
     7
100
AcDbLine
 10
-209.61376953125
 20
293.6179504394531
 30
0.0
 11
-208.9337768554688
 21
293.6179504394531
 31
0.0
  0
LINE
  5
120
330
22
100
AcDbEntity
  8
0
  6
Continuous
 62
     7
100
AcDbLine
 10
-208.9337768554688
 20
307.8679504394531
 30
0.0
 11
-211.2337646484375
 21
307.8679504394531
 31
0.0
  0
LINE
  5
121
330
22
100
AcDbEntity
  8
0
  6
Continuous
 62
     7
100
AcDbLine
 10
-215.2337646484375
 20
236.3679351806641
 30
0.0
 11
-212.2337646484375
 21
236.3679351806641
 31
0.0
  0
LINE
  5
122
330
22
100
AcDbEntity
  8
0
  6
Continuous
 62
     7
100
AcDbLine
 10
-208.9337768554688
 20
293.2379455566406
 30
0.0
 11
-208.9337768554688
 21
289.9979248046875
 31
0.0
  0
LINE
  5
123
330
22
100
AcDbEntity
  8
0
  6
Continuous
 62
     7
100
AcDbLine
 10
-213.0337677001953
 20
293.6179504394531
 30
0.0
 11
-212.6537780761719
 21
293.2379455566406
 31
0.0
  0
LINE
  5
124
330
22
100
AcDbEntity
  8
0
  6
Continuous
 62
     7
100
AcDbLine
 10
-208.9337768554688
 20
293.2379455566406
 30
0.0
 11
-212.6537780761719
 21
293.2379455566406
 31
0.0
  0
LINE
  5
125
330
22
100
AcDbEntity
  8
0
  6
Continuous
 62
     7
100
AcDbLine
 10
-208.9337768554688
 20
307.8679504394531
 30
0.0
 11
-208.9337768554688
 21
288.3679504394531
 31
0.0
  0
LINE
  5
126
330
22
100
AcDbEntity
  8
0
  6
Continuous
 62
     7
100
AcDbLine
 10
-178.9337768554688
 20
289.8379516601563
 30
0.0
 11
-178.9337768554688
 21
293.3679504394531
 31
0.0
  0
LINE
  5
127
330
22
100
AcDbEntity
  8
0
  6
Continuous
 62
     7
100
AcDbLine
 10
-215.2337646484375
 20
295.8179321289063
 30
0.0
 11
-213.0337677001953
 21
293.6179504394531
 31
0.0
  0
LINE
  5
128
330
22
100
AcDbEntity
  8
0
  6
Continuous
 62
     7
100
AcDbLine
 10
-212.2337646484375
 20
293.8679504394531
 30
0.0
 11
-213.2837677001953
 21
293.8679504394531
 31
0.0
  0
LINE
  5
129
330
22
100
AcDbEntity
  8
0
  6
Continuous
 62
     7
100
AcDbLine
 10
-215.2337646484375
 20
295.8179321289063
 30
0.0
 11
-215.2337646484375
 21
287.4179382324219
 31
0.0
  0
LINE
  5
12A
330
22
100
AcDbEntity
  8
0
  6
Continuous
 62
     7
100
AcDbLine
 10
-212.2337646484375
 20
299.3679504394531
 30
0.0
 11
-212.2337646484375
 21
293.6179504394531
 31
0.0
  0
LINE
  5
12B
330
22
100
AcDbEntity
  8
0
  6
Continuous
 62
     7
100
AcDbLine
 10
-208.9337768554688
 20
288.3679504394531
 30
0.0
 11
-206.9337768554688
 21
288.3679504394531
 31
0.0
  0
LINE
  5
12C
330
22
100
AcDbEntity
  8
0
  6
Continuous
 62
     7
100
AcDbLine
 10
-93.93376922607421
 20
289.8679504394531
 30
0.0
 11
-133.3890228271484
 21
288.6348876953125
 31
0.0
  0
LINE
  5
12D
330
22
100
AcDbEntity
  8
0
  6
Continuous
 62
     7
100
AcDbLine
 10
-137.9337768554687
 20
311.6179504394531
 30
0.0
 11
-138.9337768554687
 21
310.6179504394531
 31
0.0
  0
LINE
  5
12E
330
22
100
AcDbEntity
  8
0
  6
Continuous
 62
     7
100
AcDbLine
 10
-133.3890228271484
 20
288.6348876953125
 30
0.0
 11
-138.9337768554687
 21
288.6348876953125
 31
0.0
  0
LINE
  5
12F
330
22
100
AcDbEntity
  8
0
  6
Continuous
 62
     7
100
AcDbLine
 10
-137.9337768554687
 20
327.6203308105469
 30
0.0
 11
-138.9337768554687
 21
326.6203308105469
 31
0.0
  0
LINE
  5
130
330
22
100
AcDbEntity
  8
0
  6
Continuous
 62
     7
100
AcDbLine
 10
-95.43606567382813
 20
288.3202514648438
 30
0.0
 11
-131.9337768554688
 21
287.1796569824219
 31
0.0
  0
LINE
  5
131
330
22
100
AcDbEntity
  8
0
  6
Continuous
 62
     7
100
AcDbLine
 10
-113.4337692260742
 20
168.8679809570313
 30
0.0
 11
-113.4337692260742
 21
170.8679351806641
 31
0.0
  0
LINE
  5
132
330
22
100
AcDbEntity
  8
0
  6
Continuous
 62
     7
100
AcDbLine
 10
-135.4337768554688
 20
152.8679351806641
 30
0.0
 11
-133.9789123535156
 21
152.8679351806641
 31
0.0
  0
LINE
  5
133
330
22
100
AcDbEntity
  8
0
  6
Continuous
 62
     7
100
AcDbLine
 10
-135.9337768554688
 20
122.3679351806641
 30
0.0
 11
-136.9337768554688
 21
122.3679351806641
 31
0.0
  0
LINE
  5
134
330
22
100
AcDbEntity
  8
0
  6
Continuous
 62
     7
100
AcDbLine
 10
-160.7037658691406
 20
289.8379516601563
 30
0.0
 11
-204.9337768554688
 21
289.8379516601563
 31
0.0
  0
LINE
  5
135
330
22
100
AcDbEntity
  8
0
  6
Continuous
 62
     7
100
AcDbLine
 10
-159.2337646484375
 20
288.3679504394531
 30
0.0
 11
-160.7037658691406
 21
289.8379516601563
 31
0.0
  0
LINE
  5
136
330
22
100
AcDbEntity
  8
0
  6
Continuous
 62
     7
100
AcDbLine
 10
-159.2337646484375
 20
288.3679504394531
 30
0.0
 11
-206.9337768554688
 21
288.3679504394531
 31
0.0
  0
LINE
  5
137
330
22
100
AcDbEntity
  8
0
  6
Continuous
 62
     7
100
AcDbLine
 10
-159.2337646484375
 20
288.3679504394531
 30
0.0
 11
-159.2337646484375
 21
233.3679351806641
 31
0.0
  0
LINE
  5
138
330
22
100
AcDbEntity
  8
0
  6
Continuous
 62
     7
100
AcDbLine
 10
-213.8153839111328
 20
302.8251342773438
 30
0.0
 11
-208.9337768554688
 21
307.7067260742188
 31
0.0
  0
LINE
  5
139
330
22
100
AcDbEntity
  8
0
  6
Continuous
 62
     7
100
AcDbLine
 10
-214.4441375732422
 20
299.3679504394531
 30
0.0
 11
-208.9337768554688
 21
304.8782958984375
 31
0.0
  0
LINE
  5
13A
330
22
100
AcDbEntity
  8
0
  6
Continuous
 62
     7
100
AcDbLine
 10
-211.9337768554689
 20
299.0498657226563
 30
0.0
 11
-208.9337768554688
 21
302.0498657226563
 31
0.0
  0
LINE
  5
13B
330
22
100
AcDbEntity
  8
0
  6
Continuous
 62
     7
100
AcDbLine
 10
-211.9337768554689
 20
296.221435546875
 30
0.0
 11
-208.9337768554688
 21
299.221435546875
 31
0.0
  0
LINE
  5
13C
330
22
100
AcDbEntity
  8
0
  6
Continuous
 62
     7
100
AcDbLine
 10
-211.7088623046875
 20
293.6179504394531
 30
0.0
 11
-208.9337768554688
 21
296.3930358886719
 31
0.0
  0
LINE
  5
13D
330
22
100
AcDbEntity
  8
0
  6
Continuous
 62
     7
100
AcDbLine
 10
-211.9337768554689
 20
287.7361755371094
 30
0.0
 11
-210.052001953125
 21
289.6179504394531
 31
0.0
  0
LINE
  5
13E
330
22
100
AcDbEntity
  8
0
  6
Continuous
 62
     7
100
AcDbLine
 10
-211.9337768554689
 20
284.9077453613281
 30
0.0
 11
-208.4735717773438
 21
288.3679504394531
 31
0.0
  0
LINE
  5
13F
330
22
100
AcDbEntity
  8
0
  6
Continuous
 62
     7
100
AcDbLine
 10
-210.1451416015625
 20
283.8679504394531
 30
0.0
 11
-205.6451416015625
 21
288.3679504394531
 31
0.0
  0
LINE
  5
140
330
22
100
AcDbEntity
  8
0
  6
Continuous
 62
     7
100
AcDbLine
 10
-207.3167266845703
 20
283.8679504394531
 30
0.0
 11
-202.8167266845703
 21
288.3679504394531
 31
0.0
  0
LINE
  5
141
330
22
100
AcDbEntity
  8
0
  6
Continuous
 62
     7
100
AcDbLine
 10
-204.4882965087891
 20
283.8679504394531
 30
0.0
 11
-199.9882965087891
 21
288.3679504394531
 31
0.0
  0
LINE
  5
142
330
22
100
AcDbEntity
  8
0
  6
Continuous
 62
     7
100
AcDbLine
 10
-201.6598663330078
 20
283.8679504394531
 30
0.0
 11
-197.1598663330078
 21
288.3679504394531
 31
0.0
  0
LINE
  5
143
330
22
100
AcDbEntity
  8
0
  6
Continuous
 62
     7
100
AcDbLine
 10
-198.8314361572266
 20
283.8679504394531
 30
0.0
 11
-194.3314361572266
 21
288.3679504394531
 31
0.0
  0
LINE
  5
144
330
22
100
AcDbEntity
  8
0
  6
Continuous
 62
     7
100
AcDbLine
 10
-196.0030059814453
 20
283.8679504394531
 30
0.0
 11
-191.5030059814453
 21
288.3679504394531
 31
0.0
  0
LINE
  5
145
330
22
100
AcDbEntity
  8
0
  6
Continuous
 62
     7
100
AcDbLine
 10
-193.1745910644531
 20
283.8679504394531
 30
0.0
 11
-188.6745910644531
 21
288.3679504394531
 31
0.0
  0
LINE
  5
146
330
22
100
AcDbEntity
  8
0
  6
Continuous
 62
     7
100
AcDbLine
 10
-190.3461608886719
 20
283.8679504394531
 30
0.0
 11
-185.8461608886719
 21
288.3679504394531
 31
0.0
  0
LINE
  5
147
330
22
100
AcDbEntity
  8
0
  6
Continuous
 62
     7
100
AcDbLine
 10
-187.5177307128906
 20
283.8679504394531
 30
0.0
 11
-183.0177307128906
 21
288.3679504394531
 31
0.0
  0
LINE
  5
148
330
22
100
AcDbEntity
  8
0
  6
Continuous
 62
     7
100
AcDbLine
 10
-184.6893005371094
 20
283.8679504394531
 30
0.0
 11
-180.1893005371094
 21
288.3679504394531
 31
0.0
  0
LINE
  5
149
330
22
100
AcDbEntity
  8
0
  6
Continuous
 62
     7
100
AcDbLine
 10
-181.8608703613281
 20
283.8679504394531
 30
0.0
 11
-177.3608703613281
 21
288.3679504394531
 31
0.0
  0
LINE
  5
14A
330
22
100
AcDbEntity
  8
0
  6
Continuous
 62
     7
100
AcDbLine
 10
-179.0324554443359
 20
283.8679504394531
 30
0.0
 11
-174.5324554443359
 21
288.3679504394531
 31
0.0
  0
LINE
  5
14B
330
22
100
AcDbEntity
  8
0
  6
Continuous
 62
     7
100
AcDbLine
 10
-176.2040252685547
 20
283.8679504394531
 30
0.0
 11
-171.7040252685547
 21
288.3679504394531
 31
0.0
  0
LINE
  5
14C
330
22
100
AcDbEntity
  8
0
  6
Continuous
 62
     7
100
AcDbLine
 10
-173.3755950927734
 20
283.8679504394531
 30
0.0
 11
-168.8755950927734
 21
288.3679504394531
 31
0.0
  0
LINE
  5
14D
330
22
100
AcDbEntity
  8
0
  6
Continuous
 62
     7
100
AcDbLine
 10
-170.5471649169922
 20
283.8679504394531
 30
0.0
 11
-166.0471649169922
 21
288.3679504394531
 31
0.0
  0
LINE
  5
14E
330
22
100
AcDbEntity
  8
0
  6
Continuous
 62
     7
100
AcDbLine
 10
-167.7187347412109
 20
283.8679504394531
 30
0.0
 11
-163.2187347412109
 21
288.3679504394531
 31
0.0
  0
LINE
  5
14F
330
22
100
AcDbEntity
  8
0
  6
Continuous
 62
     7
100
AcDbLine
 10
-164.8903198242188
 20
283.8679504394531
 30
0.0
 11
-160.3903198242188
 21
288.3679504394531
 31
0.0
  0
LINE
  5
150
330
22
100
AcDbEntity
  8
0
  6
Continuous
 62
     7
100
AcDbLine
 10
-162.0618896484375
 20
283.8679504394531
 30
0.0
 11
-159.2337646484375
 21
286.696044921875
 31
0.0
  0
LINE
  5
151
330
22
100
AcDbEntity
  8
0
  6
Continuous
 62
     7
100
AcDbLine
 10
-177.4337768554688
 20
288.3679504394531
 30
0.0
 11
-140.4337768554688
 21
288.3679504394531
 31
0.0
  0
LINE
  5
152
330
22
100
AcDbEntity
  8
0
  6
Continuous
 62
     7
100
AcDbLine
 10
-208.9337768554688
 20
289.9979248046875
 30
0.0
 11
-212.6537780761719
 21
289.9979248046875
 31
0.0
  0
LINE
  5
153
330
22
100
AcDbEntity
  8
0
  6
Continuous
 62
     7
100
AcDbLine
 10
-213.0337677001953
 20
289.6179504394531
 30
0.0
 11
-212.6537780761719
 21
289.9979248046875
 31
0.0
  0
LINE
  5
154
330
22
100
AcDbEntity
  8
0
  6
Continuous
 62
     7
100
AcDbLine
 10
-213.0337677001953
 20
289.6179504394531
 30
0.0
 11
-209.61376953125
 21
289.6179504394531
 31
0.0
  0
LINE
  5
155
330
22
100
AcDbEntity
  8
0
  6
Continuous
 62
     7
100
AcDbLine
 10
-212.2337646484375
 20
289.3679504394531
 30
0.0
 11
-213.2837677001953
 21
289.3679504394531
 31
0.0
  0
LINE
  5
156
330
22
100
AcDbEntity
  8
0
  6
Continuous
 62
     7
100
AcDbLine
 10
-212.2337646484375
 20
289.6179504394531
 30
0.0
 11
-212.2337646484375
 21
233.3679351806641
 31
0.0
  0
LINE
  5
157
330
22
100
AcDbEntity
  8
0
  6
Continuous
 62
     7
100
AcDbLine
 10
-137.9337768554687
 20
311.6179504394531
 30
0.0
 11
-138.9337768554687
 21
312.6179504394531
 31
0.0
  0
LINE
  5
158
330
22
100
AcDbEntity
  8
0
  6
CENTER
 62
     7
100
AcDbLine
 10
-86.1932144165039
 20
233.3679351806641
 30
0.0
 11
-222.5922088623047
 21
233.3679351806641
 31
0.0
  0
LINE
  5
159
330
22
100
AcDbEntity
  8
0
  6
CENTER
 62
     7
100
AcDbLine
 10
-220.8293914794922
 20
291.6179504394531
 30
0.0
 11
-203.5960693359375
 21
291.6179504394531
 31
0.0
  0
LINE
  5
15A
330
22
100
AcDbEntity
  8
0
  6
Continuous
 62
     7
100
AcDbLine
 10
-138.9337768554687
 20
124.3679351806641
 30
0.0
 11
-138.9337768554687
 21
233.3679351806641
 31
0.0
  0
LINE
  5
15B
330
22
100
AcDbEntity
  8
0
  6
Continuous
 62
     7
100
AcDbLine
 10
-143.9337768554688
 20
172.3679351806641
 30
0.0
 11
-177.9337768554688
 21
172.3679351806641
 31
0.0
  0
LINE
  5
15C
330
22
100
AcDbEntity
  8
0
  6
Continuous
 62
     7
100
AcDbLine
 10
-211.2337646484375
 20
158.8679351806641
 30
0.0
 11
-215.2337646484375
 21
165.8679351806641
 31
0.0
  0
LINE
  5
15D
330
22
100
AcDbEntity
  8
0
  6
Continuous
 62
     7
100
AcDbLine
 10
-208.9337768554688
 20
158.8679351806641
 30
0.0
 11
-211.2337646484375
 21
158.8679351806641
 31
0.0
  0
LINE
  5
15E
330
22
100
AcDbEntity
  8
0
  6
Continuous
 62
     7
100
AcDbLine
 10
-204.9337768554688
 20
176.8679351806641
 30
0.0
 11
-204.9337768554688
 21
178.3379364013672
 31
0.0
  0
LINE
  5
15F
330
22
100
AcDbEntity
  8
0
  6
Continuous
 62
     7
100
AcDbLine
 10
-117.4337692260742
 20
166.8679809570313
 30
0.0
 11
-115.368782043457
 21
166.8679809570313
 31
0.0
  0
LINE
  5
160
330
22
100
AcDbEntity
  8
0
  6
Continuous
 62
     7
100
AcDbLine
 10
-94.93376922607422
 20
170.8679351806641
 30
0.0
 11
-134.4337768554688
 21
170.8679351806641
 31
0.0
  0
LINE
  5
161
330
22
100
AcDbEntity
  8
0
  6
Continuous
 62
     7
100
AcDbLine
 10
-135.4337768554688
 20
233.3679351806641
 30
0.0
 11
-135.4337768554688
 21
122.8679351806641
 31
0.0
  0
LINE
  5
162
330
22
100
AcDbEntity
  8
0
  6
Continuous
 62
     7
100
AcDbLine
 10
-208.9337768554688
 20
178.3379364013672
 30
0.0
 11
-204.9337768554688
 21
178.3379364013672
 31
0.0
  0
LINE
  5
163
330
22
100
AcDbEntity
  8
0
  6
Continuous
 62
     7
100
AcDbLine
 10
-204.9337768554688
 20
178.3379364013672
 30
0.0
 11
-178.9337768554688
 21
178.3379364013672
 31
0.0
  0
LINE
  5
164
330
22
100
AcDbEntity
  8
0
  6
Continuous
 62
     7
100
AcDbLine
 10
-178.9337768554688
 20
176.8679351806641
 30
0.0
 11
-204.9337768554688
 21
176.8679351806641
 31
0.0
  0
LINE
  5
165
330
22
100
AcDbEntity
  8
0
  6
Continuous
 62
     7
100
AcDbLine
 10
-204.9337768554688
 20
178.3379364013672
 30
0.0
 11
-204.9337768554688
 21
233.3679351806641
 31
0.0
  0
LINE
  5
166
330
22
100
AcDbEntity
  8
0
  6
Continuous
 62
     7
100
AcDbLine
 10
-93.93376922607421
 20
171.8679351806641
 30
0.0
 11
-93.93376922607421
 21
294.8679504394531
 31
0.0
  0
LINE
  5
167
330
22
100
AcDbEntity
  8
0
  6
Continuous
 62
     7
100
AcDbLine
 10
-215.2337646484375
 20
300.8679504394531
 30
0.0
 11
-215.2337646484375
 21
165.8679351806641
 31
0.0
  0
LINE
  5
168
330
22
100
AcDbEntity
  8
0
  6
Continuous
 62
     7
100
AcDbLine
 10
-211.2337646484375
 20
161.0960235595703
 30
0.0
 11
-211.2337646484375
 21
233.3679351806641
 31
0.0
  0
LINE
  5
169
330
22
100
AcDbEntity
  8
0
  6
Continuous
 62
     7
100
AcDbLine
 10
-208.9337768554688
 20
233.3679351806641
 30
0.0
 11
-208.9337768554688
 21
158.8679351806641
 31
0.0
  0
LINE
  5
16A
330
22
100
AcDbEntity
  8
0
  6
Continuous
 62
     7
100
AcDbLine
 10
-178.9337768554688
 20
173.3679351806641
 30
0.0
 11
-178.9337768554688
 21
233.3679351806641
 31
0.0
  0
LINE
  5
16B
330
22
100
AcDbEntity
  8
0
  6
Continuous
 62
     7
100
AcDbLine
 10
-431.1847229003906
 20
296.1156005859375
 30
0.0
 11
-432.7359619140625
 21
293.5311889648438
 31
0.0
  0
LINE
  5
16C
330
22
100
AcDbEntity
  8
0
  6
Continuous
 62
     7
100
AcDbLine
 10
-433.4140319824219
 20
288.772705078125
 30
0.0
 11
-431.86279296875
 21
291.3571166992188
 31
0.0
  0
LINE
  5
16D
330
22
100
AcDbEntity
  8
0
  6
Continuous
 62
     7
100
AcDbLine
 10
-434.179931640625
 20
289.0996704101563
 30
0.0
 11
-433.3864135742188
 21
292.007568359375
 31
0.0
  0
LINE
  5
16E
330
22
100
AcDbEntity
  8
0
  6
Continuous
 62
     7
100
AcDbLine
 10
-428.7705688476562
 20
290.9376831054688
 30
0.0
 11
-428.9341735839843
 21
290.554443359375
 31
0.0
  0
LINE
  5
16F
330
22
100
AcDbEntity
  8
0
  6
Continuous
 62
     7
100
AcDbLine
 10
-433.4140319824219
 20
288.772705078125
 30
0.0
 11
-433.7969665527343
 21
288.9361877441406
 31
0.0
  0
LINE
  5
170
330
22
100
AcDbEntity
  8
0
  6
Continuous
 62
     7
100
AcDbLine
 10
-434.179931640625
 20
289.0996704101563
 30
0.0
 11
-433.7969665527343
 21
288.9361877441406
 31
0.0
  0
LINE
  5
171
330
22
100
AcDbEntity
  8
0
  6
Continuous
 62
     7
100
AcDbLine
 10
-431.1847229003906
 20
296.1156005859375
 30
0.0
 11
-430.8017883300781
 21
295.9521179199219
 31
0.0
  0
LINE
  5
172
330
22
100
AcDbEntity
  8
0
  6
Continuous
 62
     7
100
AcDbLine
 10
-418.4993896484375
 20
254.2612762451172
 30
0.0
 11
-418.4993896484375
 21
279.8612670898438
 31
0.0
  0
LINE
  5
173
330
22
100
AcDbEntity
  8
0
  6
Continuous
 62
     7
100
AcDbLine
 10
-440.6993713378906
 20
254.2612762451172
 30
0.0
 11
-440.6993713378906
 21
279.8612670898438
 31
0.0
  0
LINE
  5
174
330
22
100
AcDbEntity
  8
0
  6
Continuous
 62
     7
100
AcDbLine
 10
-446.0993652343749
 20
254.2612762451172
 30
0.0
 11
-446.0993652343749
 21
279.8612670898438
 31
0.0
  0
LINE
  5
175
330
22
100
AcDbEntity
  8
0
  6
Continuous
 62
     7
100
AcDbLine
 10
-433.2993774414062
 20
239.4164123535156
 30
0.0
 11
-433.2993774414062
 21
281.0245361328125
 31
0.0
  0
LINE
  5
176
330
22
100
AcDbEntity
  8
0
  6
Continuous
 62
     7
100
AcDbLine
 10
-394.2993774414063
 20
258.4348449707031
 30
0.0
 11
-394.2993774414063
 21
246.8348541259766
 31
0.0
  0
LINE
  5
177
330
22
100
AcDbEntity
  8
0
  6
Continuous
 62
     7
100
AcDbLine
 10
-453.4993896484374
 20
237.8270568847656
 30
0.0
 11
-453.4993896484374
 21
277.4270629882813
 31
0.0
  0
LINE
  5
178
330
22
100
AcDbEntity
  8
0
  6
Continuous
 62
     7
100
AcDbLine
 10
-435.8281860351563
 20
293.9506530761719
 30
0.0
 11
-435.9917907714843
 21
293.5674133300781
 31
0.0
  0
LINE
  5
179
330
22
100
AcDbEntity
  8
0
  6
Continuous
 62
     7
100
AcDbLine
 10
-428.7705688476562
 20
290.9376831054688
 30
0.0
 11
-428.6069641113281
 21
291.3208923339844
 31
0.0
  0
LINE
  5
17A
330
22
100
AcDbEntity
  8
0
  6
Continuous
 62
     7
100
AcDbLine
 10
-428.6069641113281
 20
291.3208923339844
 30
0.0
 11
-431.2123413085938
 21
292.8807373046875
 31
0.0
  0
LINE
  5
17B
330
22
100
AcDbEntity
  8
0
  6
Continuous
 62
     7
100
AcDbLine
 10
-428.9341735839843
 20
290.554443359375
 30
0.0
 11
-431.86279296875
 21
291.3571166992188
 31
0.0
  0
LINE
  5
17C
330
22
100
AcDbEntity
  8
0
  6
Continuous
 62
     7
100
AcDbLine
 10
-430.4188232421875
 20
295.7886352539063
 30
0.0
 11
-430.8017883300781
 21
295.9521179199219
 31
0.0
  0
LINE
  5
17D
330
22
100
AcDbEntity
  8
0
  6
Continuous
 62
     7
100
AcDbLine
 10
-435.6645812988281
 20
294.3338928222656
 30
0.0
 11
-432.7359619140625
 21
293.5311889648438
 31
0.0
  0
LINE
  5
17E
330
22
100
AcDbEntity
  8
0
  6
Continuous
 62
     7
100
AcDbLine
 10
-435.9917907714843
 20
293.5674133300781
 30
0.0
 11
-433.3864135742188
 21
292.007568359375
 31
0.0
  0
LINE
  5
17F
330
22
100
AcDbEntity
  8
0
  6
Continuous
 62
     7
100
AcDbLine
 10
-460.8993835449219
 20
251.9429321289063
 30
0.0
 11
-460.8993835449219
 21
273.5429382324219
 31
0.0
  0
LINE
  5
180
330
22
100
AcDbEntity
  8
0
  6
Continuous
 62
     7
100
AcDbLine
 10
-475.6993713378906
 20
258.4348449707031
 30
0.0
 11
-475.6993713378906
 21
246.8348541259766
 31
0.0
  0
LINE
  5
181
330
22
100
AcDbEntity
  8
0
  6
Continuous
 62
     7
100
AcDbLine
 10
-455.4993896484375
 20
251.9429321289063
 30
0.0
 11
-455.4993896484375
 21
273.5429382324219
 31
0.0
  0
LINE
  5
182
330
22
100
AcDbEntity
  8
0
  6
Continuous
 62
     7
100
AcDbLine
 10
-425.8993835449218
 20
239.4164123535156
 30
0.0
 11
-425.8993835449218
 21
281.0164184570313
 31
0.0
  0
LINE
  5
183
330
22
100
AcDbEntity
  8
0
  6
Continuous
 62
     7
100
AcDbLine
 10
-388.8993835449219
 20
258.4348449707031
 30
0.0
 11
-388.8993835449219
 21
246.8348541259766
 31
0.0
  0
LINE
  5
184
330
22
100
AcDbEntity
  8
0
  6
Continuous
 62
     7
100
AcDbLine
 10
-396.2993774414063
 20
267.6600646972655
 30
0.0
 11
-396.2993774414063
 21
237.56005859375
 31
0.0
  0
LINE
  5
185
330
22
100
AcDbEntity
  8
0
  6
Continuous
 62
     7
100
AcDbLine
 10
-411.099365234375
 20
237.8270568847656
 30
0.0
 11
-411.099365234375
 21
277.4270629882813
 31
0.0
  0
LINE
  5
186
330
22
100
AcDbEntity
  8
0
  6
Continuous
 62
     7
100
AcDbLine
 10
-409.0993652343749
 20
251.9429321289063
 30
0.0
 11
-409.0993652343749
 21
273.5429382324219
 31
0.0
  0
LINE
  5
187
330
22
100
AcDbEntity
  8
0
  6
Continuous
 62
     7
100
AcDbLine
 10
-468.2993774414063
 20
267.6600646972655
 30
0.0
 11
-468.2993774414063
 21
237.56005859375
 31
0.0
  0
LINE
  5
188
330
22
100
AcDbEntity
  8
0
  6
Continuous
 62
     7
100
AcDbLine
 10
-431.2993774414063
 20
239.4164123535156
 30
0.0
 11
-431.2993774414063
 21
281.0245361328125
 31
0.0
  0
LINE
  5
189
330
22
100
AcDbEntity
  8
0
  6
Continuous
 62
     7
100
AcDbLine
 10
-462.8993835449218
 20
267.6600646972655
 30
0.0
 11
-462.8993835449218
 21
237.56005859375
 31
0.0
  0
LINE
  5
18A
330
22
100
AcDbEntity
  8
0
  6
Continuous
 62
     7
100
AcDbLine
 10
-435.8281860351563
 20
293.9506530761719
 30
0.0
 11
-435.6645812988281
 21
294.3338928222656
 31
0.0
  0
LINE
  5
18B
330
22
100
AcDbEntity
  8
0
  6
Continuous
 62
     7
100
AcDbLine
 10
-430.4188232421875
 20
295.7886352539063
 30
0.0
 11
-431.2123413085938
 21
292.8807373046875
 31
0.0
  0
LINE
  5
18C
330
22
100
AcDbEntity
  8
0
  6
CENTER
 62
     7
100
AcDbLine
 10
-556.7199096679688
 20
233.3679351806641
 30
0.0
 11
-307.8788452148438
 21
233.3679351806641
 31
0.0
  0
LINE
  5
18D
330
22
100
AcDbEntity
  8
0
  6
Continuous
 62
     7
100
AcDbLine
 10
-423.8993835449218
 20
254.2612762451172
 30
0.0
 11
-423.8993835449218
 21
279.8612670898438
 31
0.0
  0
LINE
  5
18E
330
22
100
AcDbEntity
  8
0
  6
Continuous
 62
     7
100
AcDbLine
 10
-448.099365234375
 20
237.8270568847656
 30
0.0
 11
-448.0994262695313
 21
277.4270629882813
 31
0.0
  0
LINE
  5
18F
330
22
100
AcDbEntity
  8
0
  6
Continuous
 62
     7
100
AcDbLine
 10
-438.6993713378906
 20
239.4164123535156
 30
0.0
 11
-438.6993713378906
 21
281.0164184570313
 31
0.0
  0
LINE
  5
190
330
22
100
AcDbEntity
  8
0
  6
Continuous
 62
     7
100
AcDbLine
 10
-403.6993713378906
 20
251.9429321289063
 30
0.0
 11
-403.6993713378906
 21
273.5429382324219
 31
0.0
  0
LINE
  5
191
330
22
100
AcDbEntity
  8
0
  6
Continuous
 62
     7
100
AcDbLine
 10
-416.4993896484374
 20
237.8270568847656
 30
0.0
 11
-416.4993286132813
 21
277.4270629882813
 31
0.0
  0
LINE
  5
192
330
22
100
AcDbEntity
  8
0
  6
Continuous
 62
     7
100
AcDbLine
 10
-401.6993713378906
 20
267.6600646972655
 30
0.0
 11
-401.6993713378906
 21
237.56005859375
 31
0.0
  0
LINE
  5
193
330
22
100
AcDbEntity
  8
0
  6
Continuous
 62
     7
100
AcDbLine
 10
-470.2993774414062
 20
258.4348449707031
 30
0.0
 11
-470.2993774414062
 21
246.8348541259766
 31
0.0
  0
LINE
  5
194
330
22
100
AcDbEntity
  8
0
  6
Continuous
 62
     7
100
AcDbLine
 10
-409.0993652343749
 20
214.7929382324219
 30
0.0
 11
-409.0993652343749
 21
193.1929473876953
 31
0.0
  0
LINE
  5
195
330
22
100
AcDbEntity
  8
0
  6
Continuous
 62
     7
100
AcDbLine
 10
-383.95703125
 20
201.1936187744141
 30
0.0
 11
-381.303466796875
 21
202.6700134277344
 31
0.0
  0
LINE
  5
196
330
22
100
AcDbEntity
  8
0
  6
Continuous
 62
     7
100
AcDbLine
 10
-384.2071228027344
 20
201.5269317626953
 30
0.0
 11
-384.4572143554688
 21
201.8602294921875
 31
0.0
  0
LINE
  5
197
330
22
100
AcDbEntity
  8
0
  6
Continuous
 62
     7
100
AcDbLine
 10
-479.6243896484375
 20
203.8735809326172
 30
0.0
 11
-479.6742858886719
 21
204.2869567871094
 31
0.0
  0
LINE
  5
198
330
22
100
AcDbEntity
  8
0
  6
Continuous
 62
     7
100
AcDbLine
 10
-383.0941772460938
 20
207.1305541992188
 30
0.0
 11
-383.42724609375
 21
206.8806610107422
 31
0.0
  0
LINE
  5
199
330
22
100
AcDbEntity
  8
0
  6
Continuous
 62
     7
100
AcDbLine
 10
-479.7241821289063
 20
204.7003479003906
 30
0.0
 11
-479.6742858886719
 21
204.2869567871094
 31
0.0
  0
LINE
  5
19A
330
22
100
AcDbEntity
  8
0
  6
Continuous
 62
     7
100
AcDbLine
 10
-379.1819152832031
 20
200.5288848876953
 30
0.0
 11
-381.303466796875
 21
202.6700134277344
 31
0.0
  0
LINE
  5
19B
330
22
100
AcDbEntity
  8
0
  6
Continuous
 62
     7
100
AcDbLine
 10
-378.5158081054688
 20
201.0286865234375
 30
0.0
 11
-379.9783630371094
 21
203.6642913818359
 31
0.0
  0
LINE
  5
19C
330
22
100
AcDbEntity
  8
0
  6
Continuous
 62
     7
100
AcDbLine
 10
-384.4572143554688
 20
201.8602294921875
 30
0.0
 11
-382.2977600097656
 21
203.9951477050781
 31
0.0
  0
LINE
  5
19D
330
22
100
AcDbEntity
  8
0
  6
Continuous
 62
     7
100
AcDbLine
 10
-384.2071228027344
 20
201.5269317626953
 30
0.0
 11
-383.95703125
 21
201.1936187744141
 31
0.0
  0
LINE
  5
19E
330
22
100
AcDbEntity
  8
0
  6
Continuous
 62
     7
100
AcDbLine
 10
-423.8993835449218
 20
212.474609375
 30
0.0
 11
-423.8993835449218
 21
186.8746032714844
 31
0.0
  0
LINE
  5
19F
330
22
100
AcDbEntity
  8
0
  6
Continuous
 62
     7
100
AcDbLine
 10
-470.2993774414062
 20
208.301025390625
 30
0.0
 11
-470.2993774414062
 21
219.9010314941406
 31
0.0
  0
LINE
  5
1A0
330
22
100
AcDbEntity
  8
0
  6
Continuous
 62
     7
100
AcDbLine
 10
-383.7603149414063
 20
206.6307525634766
 30
0.0
 11
-383.42724609375
 21
206.8806610107422
 31
0.0
  0
LINE
  5
1A1
330
22
100
AcDbEntity
  8
0
  6
Continuous
 62
     7
100
AcDbLine
 10
-383.7603149414063
 20
206.6307525634766
 30
0.0
 11
-382.2977600097656
 21
203.9951477050781
 31
0.0
  0
LINE
  5
1A2
330
22
100
AcDbEntity
  8
0
  6
Continuous
 62
     7
100
AcDbLine
 10
-383.0941772460938
 20
207.1305541992188
 30
0.0
 11
-380.9726257324219
 21
204.9894256591797
 31
0.0
  0
LINE
  5
1A3
330
22
100
AcDbEntity
  8
0
  6
Continuous
 62
     7
100
AcDbLine
 10
-484.3345031738281
 20
207.5892944335938
 30
0.0
 11
-484.3826904296874
 21
204.5530548095703
 31
0.0
  0
LINE
  5
1A4
330
22
100
AcDbEntity
  8
0
  6
Continuous
 62
     7
100
AcDbLine
 10
-483.4150390625
 20
199.9707183837891
 30
0.0
 11
-484.1841735839843
 21
202.9083099365234
 31
0.0
  0
LINE
  5
1A5
330
22
100
AcDbEntity
  8
0
  6
Continuous
 62
     7
100
AcDbLine
 10
-483.9208068847656
 20
207.6392211914063
 30
0.0
 11
-483.5071105957031
 21
207.6891479492188
 31
0.0
  0
LINE
  5
1A6
330
22
100
AcDbEntity
  8
0
  6
Continuous
 62
     7
100
AcDbLine
 10
-487.1979675292968
 20
202.9595184326172
 30
0.0
 11
-487.2478637695313
 21
203.3729095458984
 31
0.0
  0
LINE
  5
1A7
330
22
100
AcDbEntity
  8
0
  6
Continuous
 62
     7
100
AcDbLine
 10
-487.1979675292968
 20
202.9595184326172
 30
0.0
 11
-484.1841735839843
 21
202.9083099365234
 31
0.0
  0
LINE
  5
1A8
330
22
100
AcDbEntity
  8
0
  6
Continuous
 62
     7
100
AcDbLine
 10
-487.2977600097656
 20
203.7862854003906
 30
0.0
 11
-487.2478637695313
 21
203.3729095458984
 31
0.0
  0
LINE
  5
1A9
330
22
100
AcDbEntity
  8
0
  6
Continuous
 62
     7
100
AcDbLine
 10
-378.0690002441406
 20
206.1325073242188
 30
0.0
 11
-377.8189086914063
 21
205.7992095947266
 31
0.0
  0
LINE
  5
1AA
330
22
100
AcDbEntity
  8
0
  6
Continuous
 62
     7
100
AcDbLine
 10
-377.8189086914063
 20
205.7992095947266
 30
0.0
 11
-379.9783630371094
 21
203.6642913818359
 31
0.0
  0
LINE
  5
1AB
330
22
100
AcDbEntity
  8
0
  6
Continuous
 62
     7
100
AcDbLine
 10
-378.319091796875
 20
206.4658203125
 30
0.0
 11
-380.9726257324219
 21
204.9894256591797
 31
0.0
  0
LINE
  5
1AC
330
22
100
AcDbEntity
  8
0
  6
Continuous
 62
     7
100
AcDbLine
 10
-378.0690002441406
 20
206.1325073242188
 30
0.0
 11
-378.319091796875
 21
206.4658203125
 31
0.0
  0
LINE
  5
1AD
330
22
100
AcDbEntity
  8
0
  6
Continuous
 62
     7
100
AcDbLine
 10
-378.5158081054688
 20
201.0286865234375
 30
0.0
 11
-378.8488464355469
 21
200.7787780761719
 31
0.0
  0
LINE
  5
1AE
330
22
100
AcDbEntity
  8
0
  6
Continuous
 62
     7
100
AcDbLine
 10
-379.1819152832031
 20
200.5288848876953
 30
0.0
 11
-378.8488464355469
 21
200.7787780761719
 31
0.0
  0
LINE
  5
1AF
330
22
100
AcDbEntity
  8
0
  6
Continuous
 62
     7
100
AcDbLine
 10
-388.8993835449219
 20
208.301025390625
 30
0.0
 11
-388.8993835449219
 21
219.9010314941406
 31
0.0
  0
LINE
  5
1B0
330
22
100
AcDbEntity
  8
0
  6
Continuous
 62
     7
100
AcDbLine
 10
-394.2993774414063
 20
208.301025390625
 30
0.0
 11
-394.2993774414063
 21
219.9010314941406
 31
0.0
  0
LINE
  5
1B1
330
22
100
AcDbEntity
  8
0
  6
Continuous
 62
     7
100
AcDbLine
 10
-487.2977600097656
 20
203.7862854003906
 30
0.0
 11
-484.3826904296874
 21
204.5530548095703
 31
0.0
  0
LINE
  5
1B2
330
22
100
AcDbEntity
  8
0
  6
Continuous
 62
     7
100
AcDbLine
 10
-475.6993713378906
 20
208.301025390625
 30
0.0
 11
-475.6993713378906
 21
219.9010314941406
 31
0.0
  0
LINE
  5
1B3
330
22
100
AcDbEntity
  8
0
  6
Continuous
 62
     7
100
AcDbLine
 10
-440.6993713378906
 20
212.474609375
 30
0.0
 11
-440.6993713378906
 21
186.8746032714844
 31
0.0
  0
LINE
  5
1B4
330
22
100
AcDbEntity
  8
0
  6
Continuous
 62
     7
100
AcDbLine
 10
-479.6243896484375
 20
203.8735809326172
 30
0.0
 11
-482.5394592285156
 21
203.1068115234375
 31
0.0
  0
LINE
  5
1B5
330
22
100
AcDbEntity
  8
0
  6
Continuous
 62
     7
100
AcDbLine
 10
-479.7241821289063
 20
204.7003479003906
 30
0.0
 11
-482.7379455566406
 21
204.7515563964844
 31
0.0
  0
LINE
  5
1B6
330
22
100
AcDbEntity
  8
0
  6
Continuous
 62
     7
100
AcDbLine
 10
-483.0013122558593
 20
200.0206451416016
 30
0.0
 11
-482.5876159667968
 21
200.0705718994141
 31
0.0
  0
LINE
  5
1B7
330
22
100
AcDbEntity
  8
0
  6
Continuous
 62
     7
100
AcDbLine
 10
-482.5876159667968
 20
200.0705718994141
 30
0.0
 11
-482.5394592285156
 21
203.1068115234375
 31
0.0
  0
LINE
  5
1B8
330
22
100
AcDbEntity
  8
0
  6
Continuous
 62
     7
100
AcDbLine
 10
-483.5071105957031
 20
207.6891479492188
 30
0.0
 11
-482.7379455566406
 21
204.7515563964844
 31
0.0
  0
LINE
  5
1B9
330
22
100
AcDbEntity
  8
0
  6
Continuous
 62
     7
100
AcDbLine
 10
-483.0013122558593
 20
200.0206451416016
 30
0.0
 11
-483.4150390625
 21
199.9707183837891
 31
0.0
  0
LINE
  5
1BA
330
22
100
AcDbEntity
  8
0
  6
Continuous
 62
     7
100
AcDbLine
 10
-483.9208068847656
 20
207.6392211914063
 30
0.0
 11
-484.3345031738281
 21
207.5892944335938
 31
0.0
  0
LINE
  5
1BB
330
22
100
AcDbEntity
  8
0
  6
Continuous
 62
     7
100
AcDbLine
 10
-403.6993713378906
 20
214.7929382324219
 30
0.0
 11
-403.6993713378906
 21
193.1929473876953
 31
0.0
  0
LINE
  5
1BC
330
22
100
AcDbEntity
  8
0
  6
Continuous
 62
     7
100
AcDbLine
 10
-460.8993835449219
 20
214.7929382324219
 30
0.0
 11
-460.8993835449219
 21
193.1929473876953
 31
0.0
  0
LINE
  5
1BD
330
22
100
AcDbEntity
  8
0
  6
Continuous
 62
     7
100
AcDbLine
 10
-418.4993896484375
 20
212.474609375
 30
0.0
 11
-418.4993896484375
 21
186.8746032714844
 31
0.0
  0
LINE
  5
1BE
330
22
100
AcDbEntity
  8
0
  6
Continuous
 62
     7
100
AcDbLine
 10
-446.0993652343749
 20
212.474609375
 30
0.0
 11
-446.0993652343749
 21
186.8746032714844
 31
0.0
  0
LINE
  5
1BF
330
22
100
AcDbEntity
  8
0
  6
Continuous
 62
     7
100
AcDbLine
 10
-455.4993896484375
 20
214.7929382324219
 30
0.0
 11
-455.4993896484375
 21
193.1929473876953
 31
0.0
  0
LINE
  5
1C0
330
22
100
AcDbEntity
  8
0
  6
Continuous
 62
     7
100
AcDbLine
 10
-416.4993896484374
 20
228.9088134765625
 30
0.0
 11
-416.4993286132813
 21
189.3088226318359
 31
0.0
  0
LINE
  5
1C1
330
22
100
AcDbEntity
  8
0
  6
Continuous
 62
     7
100
AcDbLine
 10
-401.6993713378906
 20
199.0758056640625
 30
0.0
 11
-401.6993713378906
 21
229.1758117675781
 31
0.0
  0
LINE
  5
1C2
330
22
100
AcDbEntity
  8
0
  6
Continuous
 62
     7
100
AcDbLine
 10
-411.099365234375
 20
228.9088134765625
 30
0.0
 11
-411.099365234375
 21
189.3088226318359
 31
0.0
  0
LINE
  5
1C3
330
22
100
AcDbEntity
  8
0
  6
Continuous
 62
     7
100
AcDbLine
 10
-470.2993774414062
 20
239.1679382324219
 30
0.0
 11
-470.2993774414062
 21
227.5679321289064
 31
0.0
  0
LINE
  5
1C4
330
22
100
AcDbEntity
  8
0
  6
Continuous
 62
     7
100
AcDbLine
 10
-446.0993652343749
 20
246.1679382324219
 30
0.0
 11
-446.0993652343749
 21
220.5679321289063
 31
0.0
  0
LINE
  5
1C5
330
22
100
AcDbEntity
  8
0
  6
Continuous
 62
     7
100
AcDbLine
 10
-409.0993652343749
 20
244.1679382324219
 30
0.0
 11
-409.0993652343749
 21
222.5679321289063
 31
0.0
  0
LINE
  5
1C6
330
22
100
AcDbEntity
  8
0
  6
Continuous
 62
     7
100
AcDbLine
 10
-418.4993896484375
 20
246.1679382324219
 30
0.0
 11
-418.4993896484375
 21
220.5679321289063
 31
0.0
  0
LINE
  5
1C7
330
22
100
AcDbEntity
  8
0
  6
Continuous
 62
     7
100
AcDbLine
 10
-477.6993713378906
 20
216.1258392333984
 30
0.0
 11
-477.6993713378906
 21
250.6100311279297
 31
0.0
  0
LINE
  5
1C8
330
22
100
AcDbEntity
  8
0
  6
Continuous
 62
     7
100
AcDbLine
 10
-388.8993835449219
 20
239.1679382324219
 30
0.0
 11
-388.8993835449219
 21
227.5679321289064
 31
0.0
  0
LINE
  5
1C9
330
22
100
AcDbEntity
  8
0
  6
Continuous
 62
     7
100
AcDbLine
 10
-394.2993774414063
 20
239.1679382324219
 30
0.0
 11
-394.2993774414063
 21
227.5679321289064
 31
0.0
  0
LINE
  5
1CA
330
22
100
AcDbEntity
  8
0
  6
Continuous
 62
     7
100
AcDbLine
 10
-423.8993835449218
 20
246.1679382324219
 30
0.0
 11
-423.8993835449218
 21
220.5679321289063
 31
0.0
  0
LINE
  5
1CB
330
22
100
AcDbEntity
  8
0
  6
Continuous
 62
     7
100
AcDbLine
 10
-403.6993713378906
 20
244.1679382324219
 30
0.0
 11
-403.6993713378906
 21
222.5679321289063
 31
0.0
  0
LINE
  5
1CC
330
22
100
AcDbEntity
  8
0
  6
Continuous
 62
     7
100
AcDbLine
 10
-460.8993835449219
 20
244.1679382324219
 30
0.0
 11
-460.8993835449219
 21
222.5679321289063
 31
0.0
  0
LINE
  5
1CD
330
22
100
AcDbEntity
  8
0
  6
Continuous
 62
     7
100
AcDbLine
 10
-475.6993713378906
 20
239.1679382324219
 30
0.0
 11
-475.6993713378906
 21
227.5679321289064
 31
0.0
  0
LINE
  5
1CE
330
22
100
AcDbEntity
  8
0
  6
Continuous
 62
     7
100
AcDbLine
 10
-440.6993713378906
 20
246.1679382324219
 30
0.0
 11
-440.6993713378906
 21
220.5679321289063
 31
0.0
  0
LINE
  5
1CF
330
22
100
AcDbEntity
  8
0
  6
Continuous
 62
     7
100
AcDbLine
 10
-386.8993835449219
 20
216.1258392333984
 30
0.0
 11
-386.8993835449219
 21
250.6100311279297
 31
0.0
  0
LINE
  5
1D0
330
22
100
AcDbEntity
  8
0
  6
Continuous
 62
     7
100
AcDbLine
 10
-455.4993896484375
 20
244.1679382324219
 30
0.0
 11
-455.4993896484375
 21
222.5679321289063
 31
0.0
  0
LINE
  5
1D1
330
22
100
AcDbEntity
  8
0
  6
Continuous
 62
     7
100
AcDbLine
 10
-425.8993835449218
 20
227.3194580078125
 30
0.0
 11
-425.8993835449218
 21
185.7194519042969
 31
0.0
  0
LINE
  5
1D2
330
22
100
AcDbEntity
  8
0
  6
Continuous
 62
     7
100
AcDbLine
 10
-468.2993774414063
 20
199.0758056640625
 30
0.0
 11
-468.2993774414063
 21
229.1758117675781
 31
0.0
  0
LINE
  5
1D3
330
22
100
AcDbEntity
  8
0
  6
Continuous
 62
     7
100
AcDbLine
 10
-462.8993835449218
 20
199.0758056640625
 30
0.0
 11
-462.8993835449218
 21
229.1758117675781
 31
0.0
  0
LINE
  5
1D4
330
22
100
AcDbEntity
  8
0
  6
Continuous
 62
     7
100
AcDbLine
 10
-453.4993896484374
 20
228.9088134765625
 30
0.0
 11
-453.4993896484374
 21
189.3088226318359
 31
0.0
  0
LINE
  5
1D5
330
22
100
AcDbEntity
  8
0
  6
Continuous
 62
     7
100
AcDbLine
 10
-438.6993713378906
 20
227.3194580078125
 30
0.0
 11
-438.6993713378906
 21
185.7194519042969
 31
0.0
  0
LINE
  5
1D6
330
22
100
AcDbEntity
  8
0
  6
Continuous
 62
     7
100
AcDbLine
 10
-448.099365234375
 20
228.9088134765625
 30
0.0
 11
-448.0994262695313
 21
189.3088226318359
 31
0.0
  0
LINE
  5
1D7
330
22
100
AcDbEntity
  8
0
  6
Continuous
 62
     7
100
AcDbLine
 10
-433.2993774414062
 20
227.3194580078125
 30
0.0
 11
-433.2993774414062
 21
185.7113494873047
 31
0.0
  0
LINE
  5
1D8
330
22
100
AcDbEntity
  8
0
  6
Continuous
 62
     7
100
AcDbLine
 10
-431.2993774414063
 20
227.3194580078125
 30
0.0
 11
-431.2993774414063
 21
185.7113494873047
 31
0.0
  0
LINE
  5
1D9
330
22
100
AcDbEntity
  8
0
  6
CENTER
 62
     7
100
AcDbLine
 10
-432.6636047363281
 20
107.6123657226563
 30
0.0
 11
-432.6636047363281
 21
354.4686279296875
 31
0.0
  0
LINE
  5
1DA
330
22
100
AcDbEntity
  8
0
  6
Continuous
 62
     7
100
AcDbLine
 10
-396.2993774414063
 20
199.0758056640625
 30
0.0
 11
-396.2993774414063
 21
229.1758117675781
 31
0.0
  0
LINE
  5
1DB
330
22
100
AcDbEntity
  8
0
  6
Continuous
 62
     7
100
AcDbLine
 10
-138.9337768554687
 20
299.3679504394531
 30
0.0
 11
-138.9337768554687
 21
342.3679504394531
 31
0.0
  0
ARC
  5
1DC
330
22
100
AcDbEntity
  8
0
  6
Continuous
 62
     7
100
AcDbCircle
 10
-136.9337768554688
 20
342.3679504394531
 30
0.0
 40
2.0
100
AcDbArc
 50
90.00000000000019
 51
180.0000000000004
  0
ARC
  5
1DD
330
22
100
AcDbEntity
  8
0
  6
Continuous
 62
     7
100
AcDbCircle
 10
-135.9337768554688
 20
343.8679504394531
 30
0.0
 40
0.5
100
AcDbArc
 50
0.0
 51
90.00000000000019
  0
ARC
  5
1DE
330
22
100
AcDbEntity
  8
0
  6
Continuous
 62
     7
100
AcDbCircle
 10
-134.4337768554688
 20
296.8679504394531
 30
0.0
 40
1.0
100
AcDbArc
 50
180.0000000000004
 51
270.0000000000005
  0
ARC
  5
1DF
330
22
100
AcDbEntity
  8
0
  6
Continuous
 62
     7
100
AcDbCircle
 10
-177.9337768554688
 20
293.3679504394531
 30
0.0
 40
1.0
100
AcDbArc
 50
90.00000000000019
 51
180.0000000000004
  0
ARC
  5
1E0
330
22
100
AcDbEntity
  8
0
  6
Continuous
 62
     7
100
AcDbCircle
 10
-134.4337768554688
 20
169.8679351806641
 30
0.0
 40
1.0
100
AcDbArc
 50
90.00000000000019
 51
180.0000000000004
  0
ARC
  5
1E1
330
22
100
AcDbEntity
  8
0
  6
Continuous
 62
     7
100
AcDbCircle
 10
-133.9789123535156
 20
154.8679351806641
 30
0.0
 40
2.0
100
AcDbArc
 50
270.0000000000005
 51
343.1050150192331
  0
ARC
  5
1E2
330
22
100
AcDbEntity
  8
0
  6
Continuous
 62
     7
100
AcDbCircle
 10
-94.93376922607422
 20
294.8679504394531
 30
0.0
 40
1.0
100
AcDbArc
 50
0.0
 51
90.00000000000019
  0
ARC
  5
1E3
330
22
100
AcDbEntity
  8
0
  6
Continuous
 62
     7
100
AcDbCircle
 10
-143.9337768554688
 20
299.3679504394531
 30
0.0
 40
5.0
100
AcDbArc
 50
270.0000000000005
 51
0.0
  0
ARC
  5
1E4
330
22
100
AcDbEntity
  8
0
  6
Continuous
 62
     7
100
AcDbCircle
 10
-136.9337768554688
 20
124.3679351806641
 30
0.0
 40
2.0
100
AcDbArc
 50
180.0000000000004
 51
270.0000000000005
  0
ARC
  5
1E5
330
22
100
AcDbEntity
  8
0
  6
Continuous
 62
     7
100
AcDbCircle
 10
-177.9337768554688
 20
173.3679351806641
 30
0.0
 40
1.0
100
AcDbArc
 50
180.0000000000004
 51
270.0000000000005
  0
ARC
  5
1E6
330
22
100
AcDbEntity
  8
0
  6
Continuous
 62
     7
100
AcDbCircle
 10
-143.9337768554688
 20
167.3679351806641
 30
0.0
 40
5.0
100
AcDbArc
 50
0.0
 51
90.00000000000019
  0
ARC
  5
1E7
330
22
100
AcDbEntity
  8
0
  6
Continuous
 62
     7
100
AcDbCircle
 10
-94.93376922607422
 20
171.8679351806641
 30
0.0
 40
1.0
100
AcDbArc
 50
270.0000000000005
 51
0.0
  0
ARC
  5
1E8
330
22
100
AcDbEntity
  8
0
  6
Continuous
 62
     7
100
AcDbCircle
 10
-115.4337692260742
 20
168.8679809570313
 30
0.0
 40
2.0
100
AcDbArc
 50
270.0000000000005
 51
0.0
  0
ARC
  5
1E9
330
22
100
AcDbEntity
  8
0
  6
Continuous
 62
     7
100
AcDbCircle
 10
-114.8421401977539
 20
149.0555419921875
 30
0.0
 40
18.0
100
AcDbArc
 50
98.27818856143988
 51
163.104933256804
  0
ARC
  5
1EA
330
22
100
AcDbEntity
  8
0
  6
Continuous
 62
     7
100
AcDbCircle
 10
-135.9337768554688
 20
122.8679351806641
 30
0.0
 40
0.5
100
AcDbArc
 50
270.0000000000005
 51
0.0
  0
CIRCLE
  5
1EB
330
22
100
AcDbEntity
  8
0
  6
Continuous
 62
     7
100
AcDbCircle
 10
-432.2993774414062
 20
233.3679351806641
 30
0.0
 40
2.5
  0
ARC
  5
1EC
330
22
100
AcDbEntity
  8
0
  6
Continuous
 62
     7
100
AcDbCircle
 10
-421.1993713378906
 20
246.1679382324219
 30
0.0
 40
2.700000047683715
100
AcDbArc
 50
0.0
 51
180.0000000000004
  0
ARC
  5
1ED
330
22
100
AcDbEntity
  8
0
  6
Continuous
 62
     7
100
AcDbCircle
 10
-472.9993896484375
 20
246.8348541259766
 30
0.0
 40
2.700000047683715
100
AcDbArc
 50
180.0000000000004
 51
0.0
  0
ARC
  5
1EE
330
22
100
AcDbEntity
  8
0
  6
Continuous
 62
     7
100
AcDbCircle
 10
-443.3993835449219
 20
279.8612670898438
 30
0.0
 40
2.700000047683715
100
AcDbArc
 50
0.0
 51
180.0000000000004
  0
ARC
  5
1EF
330
22
100
AcDbEntity
  8
0
  6
Continuous
 62
     7
100
AcDbCircle
 10
-435.9993896484374
 20
281.0245361328125
 30
0.0
 40
2.700000047683715
100
AcDbArc
 50
359.7934140985346
 51
180.1722630794521
  0
ARC
  5
1F0
330
22
100
AcDbEntity
  8
0
  6
Continuous
 62
     7
100
AcDbCircle
 10
-421.1993713378906
 20
279.8612670898438
 30
0.0
 40
2.700000047683715
100
AcDbArc
 50
0.0
 51
180.0000000000004
  0
ARC
  5
1F1
330
22
100
AcDbEntity
  8
0
  6
Continuous
 62
     7
100
AcDbCircle
 10
-450.7993774414063
 20
277.4427490234375
 30
0.0
 40
2.700000047683715
100
AcDbArc
 50
359.6671297209014
 51
180.0000000000004
  0
ARC
  5
1F2
330
22
100
AcDbEntity
  8
0
  6
Continuous
 62
     7
100
AcDbCircle
 10
-385.8993835449219
 20
250.6100311279297
 30
0.0
 40
1.0
100
AcDbArc
 50
20.38495856990432
 51
180.0000000000004
  0
ARC
  5
1F3
330
22
100
AcDbEntity
  8
0
  6
Continuous
 62
     7
100
AcDbCircle
 10
-478.6993713378906
 20
250.6100311279297
 30
0.0
 40
1.0
100
AcDbArc
 50
0.0
 51
159.6150414300957
  0
ARC
  5
1F4
330
22
100
AcDbEntity
  8
0
  6
Continuous
 62
     7
100
AcDbCircle
 10
-450.7993774414063
 20
237.8270568847656
 30
0.0
 40
2.700000047683715
100
AcDbArc
 50
180.0000000000004
 51
0.0
  0
ARC
  5
1F5
330
22
100
AcDbEntity
  8
0
  6
Continuous
 62
     7
100
AcDbCircle
 10
-465.599365234375
 20
237.56005859375
 30
0.0
 40
2.700000047683715
100
AcDbArc
 50
180.0000000000004
 51
0.0
  0
ARC
  5
1F6
330
22
100
AcDbEntity
  8
0
  6
Continuous
 62
     7
100
AcDbCircle
 10
-458.1993713378905
 20
251.9429321289063
 30
0.0
 40
2.700000047683715
100
AcDbArc
 50
180.0000000000004
 51
0.0
  0
ARC
  5
1F7
330
22
100
AcDbEntity
  8
0
  6
Continuous
 62
     7
100
AcDbCircle
 10
-391.599365234375
 20
239.1679382324219
 30
0.0
 40
2.700000047683715
100
AcDbArc
 50
0.0
 51
180.0000000000004
  0
ARC
  5
1F8
330
22
100
AcDbEntity
  8
0
  6
Continuous
 62
     7
100
AcDbCircle
 10
-391.599365234375
 20
258.4348449707031
 30
0.0
 40
2.700000047683715
100
AcDbArc
 50
0.0
 51
180.0000000000004
  0
ARC
  5
1F9
330
22
100
AcDbEntity
  8
0
  6
Continuous
 62
     7
100
AcDbCircle
 10
-391.599365234375
 20
246.8348541259766
 30
0.0
 40
2.700000047683715
100
AcDbArc
 50
180.0000000000004
 51
0.0
  0
ARC
  5
1FA
330
22
100
AcDbEntity
  8
0
  6
Continuous
 62
     7
100
AcDbCircle
 10
-398.9993896484375
 20
237.56005859375
 30
0.0
 40
2.700000047683715
100
AcDbArc
 50
180.0000000000004
 51
0.0
  0
ARC
  5
1FB
330
22
100
AcDbEntity
  8
0
  6
Continuous
 62
     7
100
AcDbCircle
 10
-428.599365234375
 20
281.0245361328125
 30
0.0
 40
2.700000047683715
100
AcDbArc
 50
359.8277369205494
 51
180.2065859014669
  0
ARC
  5
1FC
330
22
100
AcDbEntity
  8
0
  6
Continuous
 62
     7
100
AcDbCircle
 10
-458.1993713378905
 20
273.5429382324219
 30
0.0
 40
2.700000047683715
100
AcDbArc
 50
0.0
 51
180.0000000000004
  0
ARC
  5
1FD
330
22
100
AcDbEntity
  8
0
  6
Continuous
 62
     7
100
AcDbCircle
 10
-443.3993835449219
 20
246.1679382324219
 30
0.0
 40
2.700000047683715
100
AcDbArc
 50
0.0
 51
180.0000000000004
  0
ARC
  5
1FE
330
22
100
AcDbEntity
  8
0
  6
Continuous
 62
     7
100
AcDbCircle
 10
-443.3993835449219
 20
254.2612762451172
 30
0.0
 40
2.700000047683715
100
AcDbArc
 50
180.0000000000004
 51
0.0
  0
ARC
  5
1FF
330
22
100
AcDbEntity
  8
0
  6
Continuous
 62
     7
100
AcDbCircle
 10
-428.599365234375
 20
239.4164123535156
 30
0.0
 40
2.700000047683715
100
AcDbArc
 50
180.0000000000004
 51
0.0
  0
ARC
  5
200
330
22
100
AcDbEntity
  8
0
  6
Continuous
 62
     7
100
AcDbCircle
 10
-458.1993713378905
 20
222.5679321289063
 30
0.0
 40
2.700000047683715
100
AcDbArc
 50
180.0000000000004
 51
0.0
  0
ARC
  5
201
330
22
100
AcDbEntity
  8
0
  6
Continuous
 62
     7
100
AcDbCircle
 10
-385.8993835449219
 20
216.1258392333984
 30
0.0
 40
1.0
100
AcDbArc
 50
180.0000000000004
 51
339.6150414300964
  0
CIRCLE
  5
202
330
22
100
AcDbEntity
  8
0
  6
Continuous
 62
     7
100
AcDbCircle
 10
-432.2993774414062
 20
292.4441528320313
 30
0.0
 40
4.5
  0
ARC
  5
203
330
22
100
AcDbEntity
  8
0
  6
Continuous
 62
     7
100
AcDbCircle
 10
-465.599365234375
 20
267.6600646972655
 30
0.0
 40
2.700000047683715
100
AcDbArc
 50
0.0
 51
180.0000000000004
  0
ARC
  5
204
330
22
100
AcDbEntity
  8
0
  6
Continuous
 62
     7
100
AcDbCircle
 10
-458.1993713378905
 20
244.1679382324219
 30
0.0
 40
2.700000047683715
100
AcDbArc
 50
0.0
 51
180.0000000000004
  0
ARC
  5
205
330
22
100
AcDbEntity
  8
0
  6
Continuous
 62
     7
100
AcDbCircle
 10
-472.9993896484375
 20
239.1679382324219
 30
0.0
 40
2.700000047683715
100
AcDbArc
 50
0.0
 51
180.0000000000004
  0
ARC
  5
206
330
22
100
AcDbEntity
  8
0
  6
Continuous
 62
     7
100
AcDbCircle
 10
-398.9993896484375
 20
267.6600646972655
 30
0.0
 40
2.700000047683715
100
AcDbArc
 50
0.0
 51
180.0000000000004
  0
ARC
  5
207
330
22
100
AcDbEntity
  8
0
  6
Continuous
 62
     7
100
AcDbCircle
 10
-413.7993774414063
 20
277.4427490234375
 30
0.0
 40
2.700000047683715
100
AcDbArc
 50
0.0
 51
180.3328702791001
  0
ARC
  5
208
330
22
100
AcDbEntity
  8
0
  6
Continuous
 62
     7
100
AcDbCircle
 10
-413.7993774414063
 20
237.8270568847656
 30
0.0
 40
2.700000047683715
100
AcDbArc
 50
180.0000000000004
 51
0.0
  0
ARC
  5
209
330
22
100
AcDbEntity
  8
0
  6
Continuous
 62
     7
100
AcDbCircle
 10
-406.3993835449219
 20
251.9429321289063
 30
0.0
 40
2.700000047683715
100
AcDbArc
 50
180.0000000000004
 51
0.0
  0
ARC
  5
20A
330
22
100
AcDbEntity
  8
0
  6
Continuous
 62
     7
100
AcDbCircle
 10
-406.3993835449219
 20
244.1679382324219
 30
0.0
 40
2.700000047683715
100
AcDbArc
 50
0.0
 51
180.0000000000004
  0
ARC
  5
20B
330
22
100
AcDbEntity
  8
0
  6
Continuous
 62
     7
100
AcDbCircle
 10
-421.1993713378906
 20
254.2612762451172
 30
0.0
 40
2.700000047683715
100
AcDbArc
 50
180.0000000000004
 51
0.0
  0
ARC
  5
20C
330
22
100
AcDbEntity
  8
0
  6
Continuous
 62
     7
100
AcDbCircle
 10
-435.9993896484374
 20
239.4164123535156
 30
0.0
 40
2.700000047683715
100
AcDbArc
 50
180.0000000000004
 51
0.0
  0
ARC
  5
20D
330
22
100
AcDbEntity
  8
0
  6
Continuous
 62
     7
100
AcDbCircle
 10
-472.9993896484375
 20
258.4348449707031
 30
0.0
 40
2.700000047683715
100
AcDbArc
 50
0.0
 51
180.0000000000004
  0
ARC
  5
20E
330
22
100
AcDbEntity
  8
0
  6
Continuous
 62
     7
100
AcDbCircle
 10
-406.3993835449219
 20
273.5429382324219
 30
0.0
 40
2.700000047683715
100
AcDbArc
 50
0.0
 51
180.0000000000004
  0
ARC
  5
20F
330
22
100
AcDbEntity
  8
0
  6
Continuous
 62
     7
100
AcDbCircle
 10
-472.9993896484375
 20
219.9010314941406
 30
0.0
 40
2.700000047683715
100
AcDbArc
 50
0.0
 51
180.0000000000004
  0
ARC
  5
210
330
22
100
AcDbEntity
  8
0
  6
Continuous
 62
     7
100
AcDbCircle
 10
-443.3993835449219
 20
220.5679321289063
 30
0.0
 40
2.700000047683715
100
AcDbArc
 50
180.0000000000004
 51
0.0
  0
ARC
  5
211
330
22
100
AcDbEntity
  8
0
  6
Continuous
 62
     7
100
AcDbCircle
 10
-391.599365234375
 20
219.9010314941406
 30
0.0
 40
2.700000047683715
100
AcDbArc
 50
0.0
 51
180.0000000000004
  0
ARC
  5
212
330
22
100
AcDbEntity
  8
0
  6
Continuous
 62
     7
100
AcDbCircle
 10
-398.9993896484375
 20
199.0758056640625
 30
0.0
 40
2.700000047683715
100
AcDbArc
 50
180.0000000000004
 51
0.0
  0
ARC
  5
213
330
22
100
AcDbEntity
  8
0
  6
Continuous
 62
     7
100
AcDbCircle
 10
-406.3993835449219
 20
193.1929473876953
 30
0.0
 40
2.700000047683715
100
AcDbArc
 50
180.0000000000004
 51
0.0
  0
ARC
  5
214
330
22
100
AcDbEntity
  8
0
  6
Continuous
 62
     7
100
AcDbCircle
 10
-413.7993774414063
 20
189.2931213378906
 30
0.0
 40
2.700000047683715
100
AcDbArc
 50
179.6668059244238
 51
0.0
  0
ARC
  5
215
330
22
100
AcDbEntity
  8
0
  6
Continuous
 62
     7
100
AcDbCircle
 10
-458.1993713378905
 20
193.1929473876953
 30
0.0
 40
2.700000047683715
100
AcDbArc
 50
180.0000000000004
 51
0.0
  0
ARC
  5
216
330
22
100
AcDbEntity
  8
0
  6
Continuous
 62
     7
100
AcDbCircle
 10
-465.599365234375
 20
199.0758056640625
 30
0.0
 40
2.700000047683715
100
AcDbArc
 50
180.0000000000004
 51
0.0
  0
ARC
  5
217
330
22
100
AcDbEntity
  8
0
  6
Continuous
 62
     7
100
AcDbCircle
 10
-421.1993713378906
 20
186.8746032714844
 30
0.0
 40
2.700000047683715
100
AcDbArc
 50
180.0000000000004
 51
0.0
  0
ARC
  5
218
330
22
100
AcDbEntity
  8
0
  6
Continuous
 62
     7
100
AcDbCircle
 10
-443.3993835449219
 20
186.8746032714844
 30
0.0
 40
2.700000047683715
100
AcDbArc
 50
180.0000000000004
 51
0.0
  0
ARC
  5
219
330
22
100
AcDbEntity
  8
0
  6
Continuous
 62
     7
100
AcDbCircle
 10
-435.9993896484374
 20
185.7113494873047
 30
0.0
 40
2.700000047683715
100
AcDbArc
 50
179.8280607213837
 51
0.2062621019125252
  0
ARC
  5
21A
330
22
100
AcDbEntity
  8
0
  6
Continuous
 62
     7
100
AcDbCircle
 10
-428.599365234375
 20
185.7113494873047
 30
0.0
 40
2.700000047683715
100
AcDbArc
 50
179.7937378980875
 51
0.1719392786163373
  0
ARC
  5
21B
330
22
100
AcDbEntity
  8
0
  6
Continuous
 62
     7
100
AcDbCircle
 10
-450.7993774414063
 20
189.2931213378906
 30
0.0
 40
2.700000047683715
100
AcDbArc
 50
180.0000000000004
 51
0.3331940755761853
  0
ARC
  5
21C
330
22
100
AcDbEntity
  8
0
  6
Continuous
 62
     7
100
AcDbCircle
 10
-406.3993835449219
 20
214.7929382324219
 30
0.0
 40
2.700000047683715
100
AcDbArc
 50
0.0
 51
180.0000000000004
  0
ARC
  5
21D
330
22
100
AcDbEntity
  8
0
  6
Continuous
 62
     7
100
AcDbCircle
 10
-406.3993835449219
 20
222.5679321289063
 30
0.0
 40
2.700000047683715
100
AcDbArc
 50
180.0000000000004
 51
0.0
  0
ARC
  5
21E
330
22
100
AcDbEntity
  8
0
  6
Continuous
 62
     7
100
AcDbCircle
 10
-421.1993713378906
 20
220.5679321289063
 30
0.0
 40
2.700000047683715
100
AcDbArc
 50
180.0000000000004
 51
0.0
  0
ARC
  5
21F
330
22
100
AcDbEntity
  8
0
  6
Continuous
 62
     7
100
AcDbCircle
 10
-478.6993713378906
 20
216.1258392333984
 30
0.0
 40
1.0
100
AcDbArc
 50
200.384958569905
 51
0.0
  0
ARC
  5
220
330
22
100
AcDbEntity
  8
0
  6
Continuous
 62
     7
100
AcDbCircle
 10
-458.1993713378905
 20
214.7929382324219
 30
0.0
 40
2.700000047683715
100
AcDbArc
 50
0.0
 51
180.0000000000004
  0
ARC
  5
221
330
22
100
AcDbEntity
  8
0
  6
Continuous
 62
     7
100
AcDbCircle
 10
-421.1993713378906
 20
212.474609375
 30
0.0
 40
2.700000047683715
100
AcDbArc
 50
0.0
 51
180.0000000000004
  0
ARC
  5
222
330
22
100
AcDbEntity
  8
0
  6
Continuous
 62
     7
100
AcDbCircle
 10
-443.3993835449219
 20
212.474609375
 30
0.0
 40
2.700000047683715
100
AcDbArc
 50
0.0
 51
180.0000000000004
  0
ARC
  5
223
330
22
100
AcDbEntity
  8
0
  6
Continuous
 62
     7
100
AcDbCircle
 10
-472.9993896484375
 20
208.301025390625
 30
0.0
 40
2.700000047683715
100
AcDbArc
 50
180.0000000000004
 51
0.0
  0
ARC
  5
224
330
22
100
AcDbEntity
  8
0
  6
Continuous
 62
     7
100
AcDbCircle
 10
-391.599365234375
 20
208.301025390625
 30
0.0
 40
2.700000047683715
100
AcDbArc
 50
180.0000000000004
 51
0.0
  0
CIRCLE
  5
225
330
22
100
AcDbEntity
  8
0
  6
Continuous
 62
     7
100
AcDbCircle
 10
-483.4610595703124
 20
203.8299407958984
 30
0.0
 40
4.5
  0
CIRCLE
  5
226
330
22
100
AcDbEntity
  8
0
  6
Continuous
 62
     7
100
AcDbCircle
 10
-381.1380615234375
 20
203.8297119140625
 30
0.0
 40
4.5
  0
ARC
  5
227
330
22
100
AcDbEntity
  8
0
  6
Continuous
 62
     7
100
AcDbCircle
 10
-428.599365234375
 20
227.3194580078125
 30
0.0
 40
2.700000047683715
100
AcDbArc
 50
0.0
 51
180.0000000000004
  0
ARC
  5
228
330
22
100
AcDbEntity
  8
0
  6
Continuous
 62
     7
100
AcDbCircle
 10
-465.599365234375
 20
229.1758117675781
 30
0.0
 40
2.700000047683715
100
AcDbArc
 50
0.0
 51
180.0000000000004
  0
ARC
  5
229
330
22
100
AcDbEntity
  8
0
  6
Continuous
 62
     7
100
AcDbCircle
 10
-398.9993896484375
 20
229.1758117675781
 30
0.0
 40
2.700000047683715
100
AcDbArc
 50
0.0
 51
180.0000000000004
  0
ARC
  5
22A
330
22
100
AcDbEntity
  8
0
  6
Continuous
 62
     7
100
AcDbCircle
 10
-413.7993774414063
 20
228.9088134765625
 30
0.0
 40
2.700000047683715
100
AcDbArc
 50
0.0
 51
180.0000000000004
  0
ARC
  5
22B
330
22
100
AcDbEntity
  8
0
  6
Continuous
 62
     7
100
AcDbCircle
 10
-435.9993896484374
 20
227.3194580078125
 30
0.0
 40
2.700000047683715
100
AcDbArc
 50
0.0
 51
180.0000000000004
  0
ARC
  5
22C
330
22
100
AcDbEntity
  8
0
  6
Continuous
 62
     7
100
AcDbCircle
 10
-391.599365234375
 20
227.5679321289064
 30
0.0
 40
2.700000047683715
100
AcDbArc
 50
180.0000000000004
 51
0.0
  0
ARC
  5
22D
330
22
100
AcDbEntity
  8
0
  6
Continuous
 62
     7
100
AcDbCircle
 10
-432.2993774414062
 20
233.3679351806641
 30
0.0
 40
50.5
100
AcDbArc
 50
339.6150868299299
 51
20.3849131700709
  0
ARC
  5
22E
330
22
100
AcDbEntity
  8
0
  6
Continuous
 62
     7
100
AcDbCircle
 10
-450.7993774414063
 20
228.9088134765625
 30
0.0
 40
2.700000047683715
100
AcDbArc
 50
0.0
 51
180.0000000000004
  0
ARC
  5
22F
330
22
100
AcDbEntity
  8
0
  6
Continuous
 62
     7
100
AcDbCircle
 10
-472.9993896484375
 20
227.5679321289064
 30
0.0
 40
2.700000047683715
100
AcDbArc
 50
180.0000000000004
 51
0.0
  0
CIRCLE
  5
230
330
22
100
AcDbEntity
  8
0
  6
Continuous
 62
     7
100
AcDbCircle
 10
-432.2993774414062
 20
233.3679351806641
 30
0.0
 40
66.0
  0
CIRCLE
  5
231
330
22
100
AcDbEntity
  8
0
  6
Continuous
 62
     7
100
AcDbCircle
 10
-432.2993774414062
 20
233.3679351806641
 30
0.0
 40
65.5
  0
CIRCLE
  5
232
330
22
100
AcDbEntity
  8
0
  6
Continuous
 62
     7
100
AcDbCircle
 10
-432.2993774414062
 20
233.3679351806641
 30
0.0
 40
74.5
  0
CIRCLE
  5
233
330
22
100
AcDbEntity
  8
0
  6
Continuous
 62
     7
100
AcDbCircle
 10
-432.2993774414062
 20
233.3679351806641
 30
0.0
 40
65.5
  0
CIRCLE
  5
234
330
22
100
AcDbEntity
  8
0
  6
Continuous
 62
     7
100
AcDbCircle
 10
-432.6636047363281
 20
233.3679351806641
 30
0.0
 40
111.0
  0
CIRCLE
  5
235
330
22
100
AcDbEntity
  8
0
  6
Continuous
 62
     7
100
AcDbCircle
 10
-432.6636047363281
 20
233.3679351806641
 30
0.0
 40
95.25
  0
CIRCLE
  5
236
330
22
100
AcDbEntity
  8
0
  6
Continuous
 62
     7
100
AcDbCircle
 10
-432.6636047363281
 20
233.3679351806641
 30
0.0
 40
93.25000000000001
  0
CIRCLE
  5
237
330
22
100
AcDbEntity
  8
0
  6
Continuous
 62
     7
100
AcDbCircle
 10
-432.6636047363281
 20
233.3679351806641
 30
0.0
 40
94.25
  0
ARC
  5
238
330
22
100
AcDbEntity
  8
0
  6
Continuous
 62
     7
100
AcDbCircle
 10
-432.2993774414062
 20
233.3679351806641
 30
0.0
 40
50.5
100
AcDbArc
 50
159.6150868299291
 51
200.3849131700716
  0
TEXT
  5
239
330
22
100
AcDbEntity
  8
0
  6
Continuous
 62
     7
100
AcDbText
 10
-346.4677057266235
 20
91.05020141601563
 30
0.0
 40
7.0
  1
ＤＬ－Ｕ４－１００Ｚ
 41
0.8443929888818491
100
AcDbText
  0
DIMENSION
  5
23A
330
22
100
AcDbEntity
  8
0
  6
Continuous
 62
     7
100
AcDbDimension
  2
*D1
 10
-215.2337646484375
 20
363.6138916015625
 30
0.0
 11
-177.0837707519531
 21
363.6138916015625
 31
0.0
 71
     5
 42
-1.0
  3
DIMSTYLE1
100
AcDbAlignedDimension
 13
-138.9337768554687
 23
342.3679504394531
 33
0.0
 14
-215.2337646484375
 24
300.8679504394531
 34
0.0
100
AcDbRotatedDimension
  0
DIMENSION
  5
23B
330
22
100
AcDbEntity
  8
0
  6
Continuous
 62
     7
100
AcDbDimension
  2
*D2
 10
-135.4337768554688
 20
363.6138916015625
 30
0.0
 11
-122.7998809814453
 21
363.6138916015625
 31
0.0
 71
     5
 42
-1.0
  3
DIMSTYLE2
100
AcDbAlignedDimension
 13
-138.9337768554687
 23
365.89990234375
 33
0.0
 14
-135.4337768554688
 24
343.8679504394531
 34
0.0
100
AcDbRotatedDimension
  0
DIMENSION
  5
23C
330
22
100
AcDbEntity
  8
0
  6
Continuous
 62
     7
100
AcDbDimension
  2
*D3
 10
-178.9337768554688
 20
353.4266357421875
 30
0.0
 11
-158.9337768554688
 21
353.4266357421875
 31
0.0
 71
     5
 42
-1.0
  3
DIMSTYLE3
100
AcDbAlignedDimension
 13
-138.9337768554687
 23
342.3679504394531
 33
0.0
 14
-178.9337768554688
 24
293.3679504394531
 34
0.0
100
AcDbRotatedDimension
  0
DIMENSION
  5
23D
330
22
100
AcDbEntity
  8
0
  6
Continuous
 62
     7
100
AcDbDimension
  2
*D4
 10
-215.2337646484375
 20
251.1092376708984
 30
0.0
 11
-187.2337646484375
 21
251.1092376708984
 31
0.0
 71
     5
 42
-1.0
  3
DIMSTYLE4
100
AcDbAlignedDimension
 13
-159.2337646484375
 23
233.3679351806641
 33
0.0
 14
-215.2337646484375
 24
300.8679504394531
 34
0.0
100
AcDbRotatedDimension
  0
DIMENSION
  5
23E
330
22
100
AcDbEntity
  8
0
  6
Continuous
 62
     7
100
AcDbDimension
  2
*D5
 10
-93.93376922607421
 20
99.80557250976564
 30
0.0
 11
-136.4337768554688
 21
99.80557250976564
 31
0.0
 71
     5
 42
-1.0
  3
DIMSTYLE5
100
AcDbAlignedDimension
 13
-178.9337768554688
 23
173.3679351806641
 33
0.0
 14
-93.93376922607421
 24
171.8679351806641
 34
0.0
100
AcDbRotatedDimension
  0
DIMENSION
  5
23F
330
22
100
AcDbEntity
  8
0
  6
Continuous
 62
     7
100
AcDbDimension
  2
*D6
 10
-103.1996154785156
 20
152.8679351806641
 30
0.0
 11
-103.1996154785156
 21
161.8679351806641
 31
0.0
 71
     5
 42
-1.0
  3
DIMSTYLE6
100
AcDbAlignedDimension
 13
-95.90058135986328
 23
170.8679351806641
 33
0.0
 14
-133.9789123535156
 24
152.8679351806641
 34
0.0
 50
90.0
100
AcDbRotatedDimension
  0
DIMENSION
  5
240
330
22
100
AcDbEntity
  8
0
  6
Continuous
 62
     7
100
AcDbDimension
  2
*D7
 10
-113.4337692260742
 20
140.9410247802734
 30
0.0
 11
-124.4337692260742
 21
140.9410247802734
 31
0.0
 71
     5
 42
-1.0
  3
DIMSTYLE7
100
AcDbAlignedDimension
 13
-135.4337768554688
 23
122.8679351806641
 33
0.0
 14
-113.4337692260742
 24
168.8679809570313
 34
0.0
100
AcDbRotatedDimension
  0
INSERT
  5
241
330
22
100
AcDbEntity
  8
0
  6
Continuous
 62
     7
100
AcDbBlockReference
  2
KOZU0001
 10
-129.8438568115234
 20
166.3398132324219
 30
0.0
  0
DIMENSION
  5
242
330
22
100
AcDbEntity
  8
0
  6
Continuous
 62
     7
100
AcDbDimension
  2
*D8
 10
-59.99692916870117
 20
295.8679504394531
 30
0.0
 11
-59.99692916870117
 21
233.3679351806641
 31
0.0
 71
     5
 42
-1.0
  3
DIMSTYLE8
100
AcDbAlignedDimension
 13
-94.93376922607422
 23
170.8679351806641
 33
0.0
 14
-94.93376922607422
 24
295.8679504394531
 34
0.0
 50
90.0
100
AcDbRotatedDimension
  0
INSERT
  5
243
330
22
100
AcDbEntity
  8
0
  6
Continuous
 62
     7
100
AcDbBlockReference
  2
KOZU0002
 10
-113.6613998413086
 20
289.2514038085938
 30
0.0
  0
DIMENSION
  5
244
330
22
100
AcDbEntity
  8
0
  6
Continuous
 62
     7
100
AcDbDimension
  2
*D9
 10
-494.4540165494581
 20
141.1565204427706
 30
0.0
 11
-357.9198913574219
 21
344.909912109375
 31
0.0
 70
     3
 71
     5
 42
-1.0
  3
DIMSTYLE9
100
AcDbDiametricDimension
 15
-370.8731929231981
 25
325.5793499185576
 35
0.0
 40
0.0
  0
DIMENSION
  5
245
330
22
100
AcDbEntity
  8
0
  6
Continuous
 62
     7
100
AcDbDimension
  2
*D10
 10
-490.9468757116023
 20
187.4253520290024
 30
0.0
 11
-328.6477355957031
 21
314.5653381347656
 31
0.0
 70
     3
 71
     5
 42
-1.0
  3
DIMSTYLE10
100
AcDbDiametricDimension
 15
-373.6518791712102
 25
279.3105183323257
 35
0.0
 40
0.0
  0
ENDSEC
  0
SECTION
  2
OBJECTS
  0
DICTIONARY
  5
C
330
0
100
AcDbDictionary
281
     1
  3
ACAD_COLOR
350
1B
  3
ACAD_GROUP
350
D
  3
ACAD_LAYOUT
350
19
  3
ACAD_MATERIAL
350
1A
  3
ACAD_MLINESTYLE
350
16
  3
ACAD_PLOTSETTINGS
350
18
  3
ACAD_PLOTSTYLENAME
350
E
  3
ACAD_TABLESTYLE
350
1C
  3
AcDbVariableDictionary
350
259
  0
DICTIONARY
  5
1B
102
{ACAD_REACTORS
330
C
102
}
330
C
100
AcDbDictionary
281
     1
  0
DICTIONARY
  5
D
102
{ACAD_REACTORS
330
C
102
}
330
C
100
AcDbDictionary
281
     1
  0
DICTIONARY
  5
19
102
{ACAD_REACTORS
330
C
102
}
330
C
100
AcDbDictionary
281
     1
  3
Model
350
25
  3
レイアウト1
350
21
  0
DICTIONARY
  5
1A
102
{ACAD_REACTORS
330
C
102
}
330
C
100
AcDbDictionary
281
     1
  0
DICTIONARY
  5
16
102
{ACAD_REACTORS
330
C
102
}
330
C
100
AcDbDictionary
281
     1
  3
Standard
350
17
  0
DICTIONARY
  5
18
102
{ACAD_REACTORS
330
C
102
}
330
C
100
AcDbDictionary
281
     1
  0
ACDBDICTIONARYWDFLT
  5
E
102
{ACAD_REACTORS
330
C
102
}
330
C
100
AcDbDictionary
281
     1
  3
Normal
350
F
100
AcDbDictionaryWithDefault
340
F
  0
DICTIONARY
  5
1C
102
{ACAD_REACTORS
330
C
102
}
330
C
100
AcDbDictionary
281
     1
  3
Standard
350
1D
  0
DICTIONARY
  5
259
102
{ACAD_REACTORS
330
C
102
}
330
C
100
AcDbDictionary
281
     1
  3
CTABLESTYLE
350
25A
  0
LAYOUT
  5
25
102
{ACAD_REACTORS
330
19
102
}
330
19
100
AcDbPlotSettings
  1

  2
PDF reDirect v2
  4
User66
  6

 40
3.174999952316284
 41
3.174999952316284
 42
3.17498779296875
 43
3.17498779296875
 44
420.0
 45
594.0
 46
0.0
 47
0.0
 48
0.0
 49
0.0
140
0.0
141
0.0
142
1.0
143
1.0
 70
 11952
 72
     1
 73
     1
 74
     2
  7
C:\Users\ck\AppData\Roaming\Autodesk\AutoCAD 2005\R16.1\jpn\Plot Styles\black.ctb
 75
    16
147
1.0
 76
     0
 77
     2
 78
   300
148
592.0
149
0.0
100
AcDbLayout
  1
Model
 70
     1
 71
     0
 10
0.0
 20
0.0
 11
12.0
 21
9.0
 12
0.0
 22
0.0
 32
0.0
 14
0.0
 24
0.0
 34
0.0
 15
0.0
 25
0.0
 35
0.0
146
0.0
 13
0.0
 23
0.0
 33
0.0
 16
1.0
 26
0.0
 36
0.0
 17
0.0
 27
1.0
 37
0.0
 76
     0
330
22
1001
ACAD_PSEXT
1000
PDF reDirect v2
1000
PDF reDirect Pro
1000
PDF_REDIRECT_PORT:
1000
PDF reDirect provided by EXP Systems
1070
     0
  0
LAYOUT
  5
21
102
{ACAD_REACTORS
330
19
102
}
330
19
100
AcDbPlotSettings
  1

  2
PDF reDirect v2
  4

  6

 40
0.0
 41
0.0
 42
0.0
 43
0.0
 44
0.0
 45
0.0
 46
0.0
 47
0.0
 48
0.0
 49
0.0
140
0.0
141
0.0
142
1.0
143
1.0
 70
   688
 72
     0
 73
     0
 74
     5
  7
C:\Users\ck\AppData\Roaming\Autodesk\AutoCAD 2005\R16.1\jpn\Plot Styles\black.ctb
 75
    16
147
1.0
 76
     0
 77
     2
 78
   300
148
0.0
149
0.0
100
AcDbLayout
  1
レイアウト1
 70
     1
 71
     1
 10
-592.0
 20
0.0
 11
0.0
 21
418.0
 12
0.0
 22
0.0
 32
0.0
 14
1.000000000000000E+20
 24
1.000000000000000E+20
 34
1.000000000000000E+20
 15
-1.000000000000000E+20
 25
-1.000000000000000E+20
 35
-1.000000000000000E+20
146
0.0
 13
0.0
 23
0.0
 33
0.0
 16
1.0
 26
0.0
 36
0.0
 17
0.0
 27
1.0
 37
0.0
 76
     0
330
1E
  0
MLINESTYLE
  5
17
102
{ACAD_REACTORS
330
16
102
}
330
16
100
AcDbMlineStyle
  2
STANDARD
 70
     0
  3

 62
   256
 51
90.0
 52
90.0
 71
     2
 49
0.5
 62
   256
  6
BYLAYER
 49
-0.5
 62
   256
  6
BYLAYER
  0
ACDBPLACEHOLDER
  5
F
102
{ACAD_REACTORS
330
E
102
}
330
E
  0
TABLESTYLE
  5
1D
102
{ACAD_REACTORS
330
1C
102
}
330
1C
100
AcDbTableStyle
  3
Standard
 70
     0
 71
     0
 40
0.06
 41
0.06
280
     0
281
     0
  7
STANDARD
140
0.18
170
     2
 62
     0
 63
     7
283
     0
274
    -2
284
     1
 64
     0
275
    -2
285
     1
 65
     0
276
    -2
286
     1
 66
     0
277
    -2
287
     1
 67
     0
278
    -2
288
     1
 68
     0
279
    -2
289
     1
 69
     0
  7
STANDARD
140
0.25
170
     5
 62
     0
 63
     7
283
     0
274
    -2
284
     1
 64
     0
275
    -2
285
     1
 65
     0
276
    -2
286
     1
 66
     0
277
    -2
287
     1
 67
     0
278
    -2
288
     1
 68
     0
279
    -2
289
     1
 69
     0
  7
STANDARD
140
0.18
170
     5
 62
     0
 63
     7
283
     0
274
    -2
284
     1
 64
     0
275
    -2
285
     1
 65
     0
276
    -2
286
     1
 66
     0
277
    -2
287
     1
 67
     0
278
    -2
288
     1
 68
     0
279
    -2
289
     1
 69
     0
  0
DICTIONARYVAR
  5
25A
102
{ACAD_REACTORS
330
259
102
}
330
259
100
DictionaryVariables
280
     0
  1
STANDARD
  0
ENDSEC
  0
EOF
