  0
SECTION
  2
HEADER
  9
$ACADVER
  1
AC1018
  9
$ACADMAINTVER
 70
    39
  9
$DWGCODEPAGE
  3
ANSI_932
  9
$INSBASE
 10
0.0
 20
0.0
 30
0.0
  9
$EXTMIN
 10
-392.5569753096869
 20
74.73889237774869
 30
-0.0015258207003583
  9
$EXTMAX
 10
-86.50030429742788
 20
261.9272314856379
 30
0.0000000349246037
  9
$LIMMIN
 10
-423.0
 20
-2.0
  9
$LIMMAX
 10
-5.0
 20
293.0
  9
$ORTHOMODE
 70
     0
  9
$REGENMODE
 70
     1
  9
$FILLMODE
 70
     1
  9
$QTEXTMODE
 70
     0
  9
$MIRRTEXT
 70
     0
  9
$LTSCALE
 40
1.0
  9
$ATTMODE
 70
     1
  9
$TEXTSIZE
 40
0.2
  9
$TRACEWID
 40
0.05
  9
$TEXTSTYLE
  7
STANDARD
  9
$CLAYER
  8
0
  9
$CELTYPE
  6
CONTINUOUS
  9
$CECOLOR
 62
   256
  9
$CELTSCALE
 40
1.0
  9
$DISPSILH
 70
     0
  9
$DIMSCALE
 40
1.0
  9
$DIMASZ
 40
1.0
  9
$DIMEXO
 40
2.54
  9
$DIMDLI
 40
0.38
  9
$DIMRND
 40
0.0
  9
$DIMDLE
 40
0.0
  9
$DIMEXE
 40
2.54
  9
$DIMTP
 40
0.0
  9
$DIMTM
 40
0.0
  9
$DIMTXT
 40
3.0
  9
$DIMCEN
 40
0.09
  9
$DIMTSZ
 40
0.0
  9
$DIMTOL
 70
     0
  9
$DIMLIM
 70
     0
  9
$DIMTIH
 70
     0
  9
$DIMTOH
 70
     0
  9
$DIMSE1
 70
     0
  9
$DIMSE2
 70
     0
  9
$DIMTAD
 70
     1
  9
$DIMZIN
 70
     0
  9
$DIMBLK
  1

  9
$DIMASO
 70
     1
  9
$DIMSHO
 70
     0
  9
$DIMPOST
  1

  9
$DIMAPOST
  1

  9
$DIMALT
 70
     0
  9
$DIMALTD
 70
     2
  9
$DIMALTF
 40
25.4
  9
$DIMLFAC
 40
1.0
  9
$DIMTOFL
 70
     0
  9
$DIMTVP
 40
1.0
  9
$DIMTIX
 70
     0
  9
$DIMSOXD
 70
     0
  9
$DIMSAH
 70
     1
  9
$DIMBLK1
  1

  9
$DIMBLK2
  1

  9
$DIMSTYLE
  2
DIMSTYLE1
  9
$DIMCLRD
 70
     0
  9
$DIMCLRE
 70
     0
  9
$DIMCLRT
 70
     0
  9
$DIMTFAC
 40
1.0
  9
$DIMGAP
 40
1.5
  9
$DIMJUST
 70
     0
  9
$DIMSD1
 70
     0
  9
$DIMSD2
 70
     0
  9
$DIMTOLJ
 70
     1
  9
$DIMTZIN
 70
     0
  9
$DIMALTZ
 70
     0
  9
$DIMALTTZ
 70
     0
  9
$DIMUPT
 70
     0
  9
$DIMDEC
 70
     4
  9
$DIMTDEC
 70
     4
  9
$DIMALTU
 70
     2
  9
$DIMALTTD
 70
     2
  9
$DIMTXSTY
  7
STANDARD
  9
$DIMAUNIT
 70
     0
  9
$DIMADEC
 70
     0
  9
$DIMALTRND
 40
0.0
  9
$DIMAZIN
 70
     0
  9
$DIMDSEP
 70
    46
  9
$DIMATFIT
 70
     3
  9
$DIMFRAC
 70
     0
  9
$DIMLDRBLK
  1

  9
$DIMLUNIT
 70
     2
  9
$DIMLWD
 70
    -2
  9
$DIMLWE
 70
    -2
  9
$DIMTMOVE
 70
     0
  9
$LUNITS
 70
     2
  9
$LUPREC
 70
     4
  9
$SKETCHINC
 40
0.1
  9
$FILLETRAD
 40
0.0
  9
$AUNITS
 70
     0
  9
$AUPREC
 70
     0
  9
$MENU
  1
.
  9
$ELEVATION
 40
0.0
  9
$PELEVATION
 40
0.0
  9
$THICKNESS
 40
0.0
  9
$LIMCHECK
 70
     0
  9
$CHAMFERA
 40
0.0
  9
$CHAMFERB
 40
0.0
  9
$CHAMFERC
 40
0.0
  9
$CHAMFERD
 40
0.0
  9
$SKPOLY
 70
     0
  9
$TDCREATE
 40
2457844.029324792
  9
$TDUCREATE
 40
2457843.654324792
  9
$TDUPDATE
 40
2457844.029866285
  9
$TDUUPDATE
 40
2457843.654866285
  9
$TDINDWG
 40
0.0005426505
  9
$TDUSRTIMER
 40
0.0005426505
  9
$USRTIMER
 70
     1
  9
$ANGBASE
 50
0.0
  9
$ANGDIR
 70
     0
  9
$PDMODE
 70
     0
  9
$PDSIZE
 40
0.0
  9
$PLINEWID
 40
0.0
  9
$SPLFRAME
 70
     0
  9
$SPLINETYPE
 70
     6
  9
$SPLINESEGS
 70
     8
  9
$HANDSEED
  5
13E
  9
$SURFTAB1
 70
     6
  9
$SURFTAB2
 70
     6
  9
$SURFTYPE
 70
     6
  9
$SURFU
 70
     6
  9
$SURFV
 70
     6
  9
$UCSBASE
  2

  9
$UCSNAME
  2

  9
$UCSORG
 10
0.0
 20
0.0
 30
0.0
  9
$UCSXDIR
 10
1.0
 20
0.0
 30
0.0
  9
$UCSYDIR
 10
0.0
 20
1.0
 30
0.0
  9
$UCSORTHOREF
  2

  9
$UCSORTHOVIEW
 70
     0
  9
$UCSORGTOP
 10
0.0
 20
0.0
 30
0.0
  9
$UCSORGBOTTOM
 10
0.0
 20
0.0
 30
0.0
  9
$UCSORGLEFT
 10
0.0
 20
0.0
 30
0.0
  9
$UCSORGRIGHT
 10
0.0
 20
0.0
 30
0.0
  9
$UCSORGFRONT
 10
0.0
 20
0.0
 30
0.0
  9
$UCSORGBACK
 10
0.0
 20
0.0
 30
0.0
  9
$PUCSBASE
  2

  9
$PUCSNAME
  2

  9
$PUCSORG
 10
0.0
 20
0.0
 30
0.0
  9
$PUCSXDIR
 10
1.0
 20
0.0
 30
0.0
  9
$PUCSYDIR
 10
0.0
 20
1.0
 30
0.0
  9
$PUCSORTHOREF
  2

  9
$PUCSORTHOVIEW
 70
     0
  9
$PUCSORGTOP
 10
0.0
 20
0.0
 30
0.0
  9
$PUCSORGBOTTOM
 10
0.0
 20
0.0
 30
0.0
  9
$PUCSORGLEFT
 10
0.0
 20
0.0
 30
0.0
  9
$PUCSORGRIGHT
 10
0.0
 20
0.0
 30
0.0
  9
$PUCSORGFRONT
 10
0.0
 20
0.0
 30
0.0
  9
$PUCSORGBACK
 10
0.0
 20
0.0
 30
0.0
  9
$USERI1
 70
     0
  9
$USERI2
 70
     0
  9
$USERI3
 70
     0
  9
$USERI4
 70
     0
  9
$USERI5
 70
     0
  9
$USERR1
 40
0.0
  9
$USERR2
 40
0.0
  9
$USERR3
 40
0.0
  9
$USERR4
 40
0.0
  9
$USERR5
 40
0.0
  9
$WORLDVIEW
 70
     1
  9
$SHADEDGE
 70
     3
  9
$SHADEDIF
 70
    70
  9
$TILEMODE
 70
     1
  9
$MAXACTVP
 70
    64
  9
$PINSBASE
 10
0.0
 20
0.0
 30
0.0
  9
$PLIMCHECK
 70
     0
  9
$PEXTMIN
 10
1.000000000000000E+20
 20
1.000000000000000E+20
 30
1.000000000000000E+20
  9
$PEXTMAX
 10
-1.000000000000000E+20
 20
-1.000000000000000E+20
 30
-1.000000000000000E+20
  9
$PLIMMIN
 10
-423.0
 20
-2.0
  9
$PLIMMAX
 10
-5.0
 20
293.0
  9
$UNITMODE
 70
     0
  9
$VISRETAIN
 70
     1
  9
$PLINEGEN
 70
     0
  9
$PSLTSCALE
 70
     1
  9
$TREEDEPTH
 70
  3020
  9
$CMLSTYLE
  2
Standard
  9
$CMLJUST
 70
     0
  9
$CMLSCALE
 40
1.0
  9
$PROXYGRAPHICS
 70
     1
  9
$MEASUREMENT
 70
     0
  9
$CELWEIGHT
370
    -1
  9
$ENDCAPS
280
     0
  9
$JOINSTYLE
280
     0
  9
$LWDISPLAY
290
     0
  9
$INSUNITS
 70
     0
  9
$HYPERLINKBASE
  1

  9
$STYLESHEET
  1

  9
$XEDIT
290
     1
  9
$CEPSNTYPE
380
     0
  9
$PSTYLEMODE
290
     1
  9
$FINGERPRINTGUID
  2
{C4EC1A72-0EC8-415A-8585-98AAE0FCBA1A}
  9
$VERSIONGUID
  2
{C9E6896F-870D-4F80-A279-D6F3E45E9FDE}
  9
$EXTNAMES
290
     1
  9
$PSVPSCALE
 40
0.0
  9
$OLESTARTUP
290
     0
  9
$SORTENTS
280
   127
  9
$INDEXCTL
280
     0
  9
$HIDETEXT
280
     0
  9
$XCLIPFRAME
290
     0
  9
$HALOGAP
280
     0
  9
$OBSCOLOR
 70
   257
  9
$OBSLTYPE
280
     0
  9
$INTERSECTIONDISPLAY
280
     0
  9
$INTERSECTIONCOLOR
 70
   257
  9
$DIMASSOC
280
     1
  9
$PROJECTNAME
  1

  0
ENDSEC
  0
SECTION
  2
CLASSES
  0
CLASS
  1
ACDBDICTIONARYWDFLT
  2
AcDbDictionaryWithDefault
  3
ObjectDBX Classes
 90
        0
 91
        1
280
     0
281
     0
  0
CLASS
  1
TABLESTYLE
  2
AcDbTableStyle
  3
ObjectDBX Classes
 90
     2047
 91
        1
280
     0
281
     0
  0
CLASS
  1
DICTIONARYVAR
  2
AcDbDictionaryVar
  3
ObjectDBX Classes
 90
        0
 91
        1
280
     0
281
     0
  0
ENDSEC
  0
SECTION
  2
TABLES
  0
TABLE
  2
VPORT
  5
8
330
0
100
AcDbSymbolTable
 70
     2
  0
VPORT
  5
13D
330
8
100
AcDbSymbolTableRecord
100
AcDbViewportTableRecord
  2
*Active
 70
     0
 10
0.0
 20
0.0
 11
1.0
 21
1.0
 12
-214.0
 22
145.5
 13
0.0
 23
0.0
 14
1.0
 24
1.0
 15
0.0
 25
0.0
 16
0.0
 26
0.0
 36
1.0
 17
0.0
 27
0.0
 37
0.0
 40
297.3320158102766
 41
1.707124010554089
 42
50.0
 43
0.0
 44
0.0
 50
0.0
 51
0.0
 71
     0
 72
   100
 73
     1
 74
     1
 75
     0
 76
     0
 77
     0
 78
     0
281
     0
 65
     1
110
0.0
120
0.0
130
0.0
111
1.0
121
0.0
131
0.0
112
0.0
122
1.0
132
0.0
 79
     0
146
0.0
  0
ENDTAB
  0
TABLE
  2
LTYPE
  5
5
330
0
100
AcDbSymbolTable
 70
     6
  0
LTYPE
  5
13
330
5
100
AcDbSymbolTableRecord
100
AcDbLinetypeTableRecord
  2
ByBlock
 70
     0
  3

 72
    65
 73
     0
 40
0.0
  0
LTYPE
  5
14
330
5
100
AcDbSymbolTableRecord
100
AcDbLinetypeTableRecord
  2
ByLayer
 70
     0
  3

 72
    65
 73
     0
 40
0.0
  0
LTYPE
  5
15
330
5
100
AcDbSymbolTableRecord
100
AcDbLinetypeTableRecord
  2
CONTINUOUS
 70
     0
  3
Solid line
 72
    65
 73
     0
 40
0.0
  0
LTYPE
  5
26
330
5
100
AcDbSymbolTableRecord
100
AcDbLinetypeTableRecord
  2
DASHED
 70
     0
  3
__ __ __ __ __ __ __ __ __ __ __ __ __ __ __
 72
    65
 73
     2
 40
3.5
 49
2.0
 74
     0
 49
-1.5
 74
     0
  0
LTYPE
  5
27
330
5
100
AcDbSymbolTableRecord
100
AcDbLinetypeTableRecord
  2
CENTER
 70
     0
  3
____ _ ____ _ ____ _ ____ _ ____ _ ____ _ ____
 72
    65
 73
     4
 40
17.5
 49
13.0
 74
     0
 49
-1.5
 74
     0
 49
1.5
 74
     0
 49
-1.5
 74
     0
  0
LTYPE
  5
28
330
5
100
AcDbSymbolTableRecord
100
AcDbLinetypeTableRecord
  2
PHANTOM
 70
     0
  3
_____ _ _ _____ _ _ _____ _ _ _____ _ _ ____  
 72
    65
 73
     6
 40
15.5
 49
8.0
 74
     0
 49
-1.5
 74
     0
 49
1.5
 74
     0
 49
-1.5
 74
     0
 49
1.5
 74
     0
 49
-1.5
 74
     0
  0
LTYPE
  5
29
330
5
100
AcDbSymbolTableRecord
100
AcDbLinetypeTableRecord
  2
DOT
 70
     0
  3
. . . . . . . . . . . . . . . . . . . . . . . .
 72
    65
 73
     2
 40
0.25
 49
0.0
 74
     0
 49
-0.25
 74
     0
  0
LTYPE
  5
2A
330
5
100
AcDbSymbolTableRecord
100
AcDbLinetypeTableRecord
  2
HIDDEN
 70
     0
  3
__ __ __ __ __ __ __ __ __ __ __ __ __ __ __
 72
    65
 73
     2
 40
3.5
 49
2.0
 74
     0
 49
-1.5
 74
     0
  0
ENDTAB
  0
TABLE
  2
LAYER
  5
2
330
0
100
AcDbSymbolTable
 70
     3
  0
LAYER
  5
10
330
2
100
AcDbSymbolTableRecord
100
AcDbLayerTableRecord
  2
0
 70
     0
 62
     7
  6
CONTINUOUS
370
    -3
390
F
  0
LAYER
  5
2B
330
2
100
AcDbSymbolTableRecord
100
AcDbLayerTableRecord
  2
1
 70
     0
 62
     7
  6
CONTINUOUS
370
    -3
390
F
  0
LAYER
  5
2C
330
2
100
AcDbSymbolTableRecord
100
AcDbLayerTableRecord
  2
DEFPOINTS
 70
     0
 62
     7
  6
CONTINUOUS
290
     0
370
    -3
390
F
  0
ENDTAB
  0
TABLE
  2
STYLE
  5
3
330
0
100
AcDbSymbolTable
 70
     2
  0
STYLE
  5
11
330
3
100
AcDbSymbolTableRecord
100
AcDbTextStyleTableRecord
  2
STANDARD
 70
     0
 40
0.0
 41
1.0
 50
0.0
 71
     0
 42
0.2
  3

  4

1001
ACAD
1000
MS Gothic
1071
    32817
  0
ENDTAB
  0
TABLE
  2
VIEW
  5
6
330
0
100
AcDbSymbolTable
 70
     0
  0
ENDTAB
  0
TABLE
  2
UCS
  5
7
330
0
100
AcDbSymbolTable
 70
     0
  0
ENDTAB
  0
TABLE
  2
APPID
  5
9
330
0
100
AcDbSymbolTable
 70
     2
  0
APPID
  5
12
330
9
100
AcDbSymbolTableRecord
100
AcDbRegAppTableRecord
  2
ACAD
 70
     0
  0
APPID
  5
132
330
9
100
AcDbSymbolTableRecord
100
AcDbRegAppTableRecord
  2
ACAD_PSEXT
 70
     0
  0
ENDTAB
  0
TABLE
  2
DIMSTYLE
  5
A
330
0
100
AcDbSymbolTable
 70
     6
100
AcDbDimStyleTable
 71
     1
340
2D
  0
DIMSTYLE
105
2D
102
{ACAD_REACTORS
330
12A
102
}
330
A
100
AcDbSymbolTableRecord
100
AcDbDimStyleTableRecord
  2
DIMSTYLE1
 70
     0
 41
1.0
 42
2.54
 44
2.54
 73
     0
 74
     0
 77
     1
140
3.0
145
1.0
147
1.5
172
     1
173
     1
279
     2
340
11
  0
DIMSTYLE
105
2E
102
{ACAD_REACTORS
330
12B
102
}
330
A
100
AcDbSymbolTableRecord
100
AcDbDimStyleTableRecord
  2
DIMSTYLE2
 70
     0
 41
1.0
 42
2.54
 44
2.54
 73
     0
 74
     0
 77
     1
140
3.0
145
1.0
147
1.5
172
     1
173
     1
279
     2
340
11
  0
DIMSTYLE
105
2F
102
{ACAD_REACTORS
330
12C
102
}
330
A
100
AcDbSymbolTableRecord
100
AcDbDimStyleTableRecord
  2
DIMSTYLE3
 70
     0
 41
1.0
 42
2.54
 44
2.54
 73
     0
 74
     0
 77
     1
140
3.0
145
1.0
147
1.5
172
     1
173
     1
279
     2
340
11
  0
DIMSTYLE
105
30
102
{ACAD_REACTORS
330
12D
102
}
330
A
100
AcDbSymbolTableRecord
100
AcDbDimStyleTableRecord
  2
DIMSTYLE4
 70
     0
 41
1.0
 42
2.54
 44
2.54
 73
     0
 74
     0
 75
     1
 76
     1
 77
     1
140
3.0
145
1.0
147
1.5
172
     1
173
     1
279
     2
340
11
  0
DIMSTYLE
105
31
102
{ACAD_REACTORS
330
12E
102
}
330
A
100
AcDbSymbolTableRecord
100
AcDbDimStyleTableRecord
  2
DIMSTYLE5
 70
     0
 41
1.0
 42
2.54
 44
2.54
 73
     0
 74
     0
 75
     1
 76
     1
 77
     1
140
3.0
145
1.0
147
1.5
172
     1
173
     1
279
     2
340
11
  0
ENDTAB
  0
TABLE
  2
BLOCK_RECORD
  5
1
330
0
100
AcDbSymbolTable
 70
     8
  0
BLOCK_RECORD
  5
22
330
1
100
AcDbSymbolTableRecord
100
AcDbBlockTableRecord
  2
*Model_Space
340
25
  0
BLOCK_RECORD
  5
1E
330
1
100
AcDbSymbolTableRecord
100
AcDbBlockTableRecord
  2
*Paper_Space
340
21
  0
BLOCK_RECORD
  5
35
330
1
100
AcDbSymbolTableRecord
100
AcDbBlockTableRecord
  2
_OPEN30
340
0
102
{BLKREFS
331
3E
331
3F
331
4A
331
4B
331
55
331
56
331
62
331
63
331
6C
331
6D
102
}
  0
BLOCK_RECORD
  5
3B
330
1
100
AcDbSymbolTableRecord
100
AcDbBlockTableRecord
  2
*D1
340
0
  0
BLOCK_RECORD
  5
47
330
1
100
AcDbSymbolTableRecord
100
AcDbBlockTableRecord
  2
*D2
340
0
  0
BLOCK_RECORD
  5
52
330
1
100
AcDbSymbolTableRecord
100
AcDbBlockTableRecord
  2
*D3
340
0
  0
BLOCK_RECORD
  5
5E
330
1
100
AcDbSymbolTableRecord
100
AcDbBlockTableRecord
  2
*D4
340
0
  0
BLOCK_RECORD
  5
68
330
1
100
AcDbSymbolTableRecord
100
AcDbBlockTableRecord
  2
*D5
340
0
  0
BLOCK_RECORD
  5
72
330
1
100
AcDbSymbolTableRecord
100
AcDbBlockTableRecord
  2
KOZU0001
340
0
102
{BLKREFS
331
12F
102
}
  0
ENDTAB
  0
ENDSEC
  0
SECTION
  2
BLOCKS
  0
BLOCK
  5
23
330
22
100
AcDbEntity
  8
0
100
AcDbBlockBegin
  2
*Model_Space
 70
     0
 10
0.0
 20
0.0
 30
0.0
  3
*Model_Space
  1

  0
ENDBLK
  5
24
330
22
100
AcDbEntity
  8
0
100
AcDbBlockEnd
  0
BLOCK
  5
1F
330
1E
100
AcDbEntity
 67
     1
  8
0
100
AcDbBlockBegin
  2
*Paper_Space
 70
     0
 10
0.0
 20
0.0
 30
0.0
  3
*Paper_Space
  1

  0
ENDBLK
  5
20
330
1E
100
AcDbEntity
 67
     1
  8
0
100
AcDbBlockEnd
  0
BLOCK
  5
36
330
35
100
AcDbEntity
  8
0
100
AcDbBlockBegin
  2
_OPEN30
 70
     0
 10
0.0
 20
0.0
 30
0.0
  3
_OPEN30
  1

  0
LINE
  5
37
330
35
100
AcDbEntity
  8
0
  6
ByBlock
 62
     0
100
AcDbLine
 10
0.0
 20
0.0
 30
0.0
 11
-2.999999999999993
 21
-1.000000000000017
 31
0.0
  0
LINE
  5
38
330
35
100
AcDbEntity
  8
0
  6
ByBlock
 62
     0
100
AcDbLine
 10
0.0
 20
0.0
 30
0.0
 11
-3.000000000000006
 21
0.9999999999999815
 31
0.0
  0
LINE
  5
39
330
35
100
AcDbEntity
  8
0
  6
ByBlock
 62
     0
100
AcDbLine
 10
0.0
 20
0.0
 30
0.0
 11
-3.0
 21
0.0
 31
0.0
  0
ENDBLK
  5
3A
330
35
100
AcDbEntity
  8
0
100
AcDbBlockEnd
  0
BLOCK
  5
3C
330
3B
100
AcDbEntity
  8
0
100
AcDbBlockBegin
  2
*D1
 70
     1
 10
0.0
 20
0.0
 30
0.0
  3
*D1
  1

  0
LINE
  5
3D
330
3B
100
AcDbEntity
  8
0
  6
Continuous
 62
     7
100
AcDbLine
 10
-124.5895690917969
 20
257.8114013671875
 30
0.0
 11
-168.5895690917969
 21
257.8114013671875
 31
0.0
  0
INSERT
  5
3E
330
3B
100
AcDbEntity
  8
0
  6
Continuous
 62
     7
100
AcDbBlockReference
  2
_OPEN30
 10
-121.5895690917969
 20
257.8114013671875
 30
0.0
  0
INSERT
  5
3F
330
3B
100
AcDbEntity
  8
0
  6
Continuous
 62
     7
100
AcDbBlockReference
  2
_OPEN30
 10
-171.5895690917969
 20
257.8114013671875
 30
0.0
 50
180.0000000000004
  0
LINE
  5
40
330
3B
100
AcDbEntity
  8
0
  6
Continuous
 62
     7
100
AcDbLine
 10
-121.5895690917969
 20
215.8086309814453
 30
0.0
 11
-121.5895690917969
 21
260.0973815917969
 31
0.0
  0
LINE
  5
41
330
3B
100
AcDbEntity
  8
0
  6
Continuous
 62
     7
100
AcDbLine
 10
-171.5895690917969
 20
242.3086309814453
 30
0.0
 11
-171.5895690917969
 21
260.0973815917969
 31
0.0
  0
TEXT
  5
42
330
3B
100
AcDbEntity
  8
0
  6
Continuous
 62
     7
100
AcDbText
 10
-149.1595692038536
 20
258.5614013671875
 30
0.0
 40
3.0
  1
50
 41
1.101428593908038
100
AcDbText
  0
POINT
  5
43
330
3B
100
AcDbEntity
  8
DEFPOINTS
  6
Continuous
 62
     7
100
AcDbPoint
 10
-121.5895690917969
 20
213.2686309814453
 30
0.0
  0
POINT
  5
44
330
3B
100
AcDbEntity
  8
DEFPOINTS
  6
Continuous
 62
     7
100
AcDbPoint
 10
-171.5895690917969
 20
239.7686309814453
 30
0.0
  0
POINT
  5
45
330
3B
100
AcDbEntity
  8
DEFPOINTS
  6
Continuous
 62
     7
100
AcDbPoint
 10
-171.5895690917969
 20
257.8114013671875
 30
0.0
  0
ENDBLK
  5
46
330
3B
100
AcDbEntity
  8
0
100
AcDbBlockEnd
  0
BLOCK
  5
48
330
47
100
AcDbEntity
  8
0
100
AcDbBlockBegin
  2
*D2
 70
     1
 10
0.0
 20
0.0
 30
0.0
  3
*D2
  1

  0
LINE
  5
49
330
47
100
AcDbEntity
  8
0
  6
Continuous
 62
     7
100
AcDbLine
 10
-174.5895690917969
 20
257.8114013671875
 30
0.0
 11
-178.5895690917969
 21
257.8114013671875
 31
0.0
  0
INSERT
  5
4A
330
47
100
AcDbEntity
  8
0
  6
Continuous
 62
     7
100
AcDbBlockReference
  2
_OPEN30
 10
-171.5895690917969
 20
257.8114013671875
 30
0.0
  0
INSERT
  5
4B
330
47
100
AcDbEntity
  8
0
  6
Continuous
 62
     7
100
AcDbBlockReference
  2
_OPEN30
 10
-181.5895690917969
 20
257.8114013671875
 30
0.0
 50
180.0000000000004
  0
LINE
  5
4C
330
47
100
AcDbEntity
  8
0
  6
Continuous
 62
     7
100
AcDbLine
 10
-181.5895690917969
 20
232.2508001708984
 30
0.0
 11
-181.5895690917969
 21
260.0973815917969
 31
0.0
  0
TEXT
  5
4D
330
47
100
AcDbEntity
  8
0
  6
Continuous
 62
     7
100
AcDbText
 10
-179.1595692038536
 20
258.5614013671875
 30
0.0
 40
3.0
  1
10
 41
1.40181821042841
100
AcDbText
  0
POINT
  5
4E
330
47
100
AcDbEntity
  8
DEFPOINTS
  6
Continuous
 62
     7
100
AcDbPoint
 10
-171.5895690917969
 20
237.7096252441406
 30
0.0
  0
POINT
  5
4F
330
47
100
AcDbEntity
  8
DEFPOINTS
  6
Continuous
 62
     7
100
AcDbPoint
 10
-181.5895690917969
 20
229.7108001708984
 30
0.0
  0
POINT
  5
50
330
47
100
AcDbEntity
  8
DEFPOINTS
  6
Continuous
 62
     7
100
AcDbPoint
 10
-181.5895690917969
 20
257.8114013671875
 30
0.0
  0
ENDBLK
  5
51
330
47
100
AcDbEntity
  8
0
100
AcDbBlockEnd
  0
BLOCK
  5
53
330
52
100
AcDbEntity
  8
0
100
AcDbBlockBegin
  2
*D3
 70
     1
 10
0.0
 20
0.0
 30
0.0
  3
*D3
  1

  0
LINE
  5
54
330
52
100
AcDbEntity
  8
0
  6
Continuous
 62
     7
100
AcDbLine
 10
-148.5895690917969
 20
104.1071929931641
 30
0.0
 11
-124.5895690917969
 21
104.1071929931641
 31
0.0
  0
INSERT
  5
55
330
52
100
AcDbEntity
  8
0
  6
Continuous
 62
     7
100
AcDbBlockReference
  2
_OPEN30
 10
-151.5895690917969
 20
104.1071929931641
 30
0.0
 50
180.0000000000004
  0
INSERT
  5
56
330
52
100
AcDbEntity
  8
0
  6
Continuous
 62
     7
100
AcDbBlockReference
  2
_OPEN30
 10
-121.5895690917969
 20
104.1071929931641
 30
0.0
  0
LINE
  5
57
330
52
100
AcDbEntity
  8
0
  6
Continuous
 62
     7
100
AcDbLine
 10
-151.5895690917969
 20
124.2786264038086
 30
0.0
 11
-151.5895690917969
 21
101.8211975097656
 31
0.0
  0
LINE
  5
58
330
52
100
AcDbEntity
  8
0
  6
Continuous
 62
     7
100
AcDbLine
 10
-121.5895690917969
 20
125.7286309814453
 30
0.0
 11
-121.5895690917969
 21
101.8211975097656
 31
0.0
  0
TEXT
  5
59
330
52
100
AcDbEntity
  8
0
  6
Continuous
 62
     7
100
AcDbText
 10
-145.1595694422722
 20
104.8571929931641
 30
0.0
 40
3.0
  1
ネジ部　３０
 41
0.8472565548642696
100
AcDbText
  0
POINT
  5
5A
330
52
100
AcDbEntity
  8
DEFPOINTS
  6
Continuous
 62
     7
100
AcDbPoint
 10
-151.5895690917969
 20
126.8186264038086
 30
0.0
  0
POINT
  5
5B
330
52
100
AcDbEntity
  8
DEFPOINTS
  6
Continuous
 62
     7
100
AcDbPoint
 10
-121.5895690917969
 20
128.2686309814453
 30
0.0
  0
POINT
  5
5C
330
52
100
AcDbEntity
  8
DEFPOINTS
  6
Continuous
 62
     7
100
AcDbPoint
 10
-121.5895690917969
 20
104.1071929931641
 30
0.0
  0
ENDBLK
  5
5D
330
52
100
AcDbEntity
  8
0
100
AcDbBlockEnd
  0
BLOCK
  5
5F
330
5E
100
AcDbEntity
  8
0
100
AcDbBlockBegin
  2
*D4
 70
     1
 10
0.0
 20
0.0
 30
0.0
  3
*D4
  1

  0
LINE
  5
60
330
5E
100
AcDbEntity
  8
0
  6
Continuous
 62
     7
100
AcDbLine
 10
-259.3694152832031
 20
206.072021484375
 30
0.0
 11
-247.2668762207031
 21
213.2789611816406
 31
0.0
  0
LINE
  5
61
330
5E
100
AcDbEntity
  8
0
  6
Continuous
 62
     7
100
AcDbLine
 10
-375.3611269521846
 20
137.0001705925967
 30
0.0
 11
-261.9470090341435
 21
204.5370913702939
 31
0.0
  0
INSERT
  5
62
330
5E
100
AcDbEntity
  8
0
  6
Continuous
 62
     7
100
AcDbBlockReference
  2
_OPEN30
 10
-377.938720703125
 20
135.4652404785156
 30
0.0
 50
210.7733560078371
  0
INSERT
  5
63
330
5E
100
AcDbEntity
  8
0
  6
Continuous
 62
     7
100
AcDbBlockReference
  2
_OPEN30
 10
-259.3694152832031
 20
206.072021484375
 30
0.0
 50
30.77335600783645
  0
TEXT
  5
64
330
5E
100
AcDbEntity
  8
0
  6
Continuous
 62
     7
100
AcDbText
 10
-257.2210360036225
 20
208.2212486767268
 30
0.0
 40
3.0
  1
%%C１３８
 50
30.80000040174214
 41
0.8510313296336267
100
AcDbText
  0
POINT
  5
65
330
5E
100
AcDbEntity
  8
DEFPOINTS
  6
Continuous
 62
     7
100
AcDbPoint
 10
-377.938720703125
 20
135.4652404785156
 30
0.0
  0
POINT
  5
66
330
5E
100
AcDbEntity
  8
DEFPOINTS
  6
Continuous
 62
     7
100
AcDbPoint
 10
-259.3694152832031
 20
206.072021484375
 30
0.0
  0
ENDBLK
  5
67
330
5E
100
AcDbEntity
  8
0
100
AcDbBlockEnd
  0
BLOCK
  5
69
330
68
100
AcDbEntity
  8
0
100
AcDbBlockBegin
  2
*D5
 70
     1
 10
0.0
 20
0.0
 30
0.0
  3
*D5
  1

  0
LINE
  5
6A
330
68
100
AcDbEntity
  8
0
  6
Continuous
 62
     7
100
AcDbLine
 10
-274.0699768066406
 20
140.3012847900391
 30
0.0
 11
-246.4894256591797
 21
121.4536056518555
 31
0.0
  0
LINE
  5
6B
330
68
100
AcDbEntity
  8
0
  6
Continuous
 62
     7
100
AcDbLine
 10
-360.7612653823941
 20
199.5433469365242
 30
0.0
 11
-276.546870603934
 21
141.9939150263664
 31
0.0
  0
INSERT
  5
6C
330
68
100
AcDbEntity
  8
0
  6
Continuous
 62
     7
100
AcDbBlockReference
  2
_OPEN30
 10
-363.2381591796875
 20
201.2359771728516
 30
0.0
 50
145.652544264518
  0
INSERT
  5
6D
330
68
100
AcDbEntity
  8
0
  6
Continuous
 62
     7
100
AcDbBlockReference
  2
_OPEN30
 10
-274.0699768066406
 20
140.3012847900391
 30
0.0
 50
325.6525442645187
  0
TEXT
  5
6E
330
68
100
AcDbEntity
  8
0
  6
Continuous
 62
     7
100
AcDbText
 10
-255.2669188853896
 20
128.3546664631001
 30
0.0
 40
3.0
  1
%%C１０８
 50
325.699998931679
 41
0.8510313296336267
100
AcDbText
  0
POINT
  5
6F
330
68
100
AcDbEntity
  8
DEFPOINTS
  6
Continuous
 62
     7
100
AcDbPoint
 10
-363.2381591796875
 20
201.2359771728516
 30
0.0
  0
POINT
  5
70
330
68
100
AcDbEntity
  8
DEFPOINTS
  6
Continuous
 62
     7
100
AcDbPoint
 10
-274.0699768066406
 20
140.3012847900391
 30
0.0
  0
ENDBLK
  5
71
330
68
100
AcDbEntity
  8
0
100
AcDbBlockEnd
  0
BLOCK
  5
73
330
72
100
AcDbEntity
  8
0
100
AcDbBlockBegin
  2
KOZU0001
 70
     0
 10
0.0
 20
0.0
 30
0.0
  3
KOZU0001
  1

  0
LINE
  5
74
330
72
100
AcDbEntity
  8
0
  6
Continuous
 62
     7
100
AcDbLine
 10
0.0
 20
0.0
 30
0.0
 11
14.57135009765625
 21
-16.03530120849609
 31
0.0
  0
LINE
  5
75
330
72
100
AcDbEntity
  8
0
  6
Continuous
 62
     7
100
AcDbLine
 10
14.57135009765625
 20
-16.03530120849609
 30
0.0
 11
41.277099609375
 21
-16.03530120849609
 31
0.0
  0
LINE
  5
76
330
72
100
AcDbEntity
  8
0
  6
Continuous
 62
     7
100
AcDbLine
 10
0.0
 20
0.0
 30
0.0
 11
2.757630996751062
 21
-1.54773101208115
 31
0.0
  0
LINE
  5
77
330
72
100
AcDbEntity
  8
0
  6
Continuous
 62
     7
100
AcDbLine
 10
0.0
 20
0.0
 30
0.0
 11
1.277466190152159
 21
-2.892763407715557
 31
0.0
  0
TEXT
  5
78
330
72
100
AcDbEntity
  8
0
  6
Continuous
 62
     7
100
AcDbText
 10
19.41710591316223
 20
-15.28530120849609
 30
0.0
 40
3.0
  1
配管接続口
 41
0.8487395020950888
100
AcDbText
  0
TEXT
  5
79
330
72
100
AcDbEntity
  8
0
  6
Continuous
 62
     7
100
AcDbText
 10
19.41710591316223
 20
-20.55030120849609
 30
0.0
 40
3.0
  1
Ｇ３（８０Ａ）
 41
0.8462184918026965
100
AcDbText
  0
ENDBLK
  5
7A
330
72
100
AcDbEntity
  8
0
100
AcDbBlockEnd
  0
ENDSEC
  0
SECTION
  2
ENTITIES
  0
LINE
  5
7B
330
22
100
AcDbEntity
  8
0
  6
CENTER
 62
     7
100
AcDbLine
 10
-318.6540832519531
 20
245.7909545898438
 30
0.0
 11
-318.6540832519531
 21
96.30677795410157
 31
0.0
  0
LINE
  5
7C
330
22
100
AcDbEntity
  8
0
  6
Continuous
 62
     7
100
AcDbLine
 10
-320.4241333007813
 20
147.6656036376953
 30
0.0
 11
-320.4241333007813
 21
136.3775024414062
 31
0.0
  0
LINE
  5
7D
330
22
100
AcDbEntity
  8
0
  6
Continuous
 62
     7
100
AcDbLine
 10
-315.4241333007813
 20
147.6656036376953
 30
0.0
 11
-315.4241333007813
 21
136.3775024414062
 31
0.0
  0
LINE
  5
7E
330
22
100
AcDbEntity
  8
0
  6
Continuous
 62
     7
100
AcDbLine
 10
-322.8921508789063
 20
123.3059768676758
 30
0.0
 11
-322.8921508789063
 21
123.7686309814453
 31
0.0
  0
LINE
  5
7F
330
22
100
AcDbEntity
  8
0
  6
Continuous
 62
     7
100
AcDbLine
 10
-314.416015625
 20
124.2312774658203
 30
0.0
 11
-317.7337036132813
 21
124.6890029907227
 31
0.0
  0
LINE
  5
80
330
22
100
AcDbEntity
  8
0
  6
Continuous
 62
     7
100
AcDbLine
 10
-314.416015625
 20
123.3059768676758
 30
0.0
 11
-317.7337036132813
 21
122.848258972168
 31
0.0
  0
LINE
  5
81
330
22
100
AcDbEntity
  8
0
  6
Continuous
 62
     7
100
AcDbLine
 10
-322.8921508789063
 20
123.3059768676758
 30
0.0
 11
-319.5744323730469
 21
122.848258972168
 31
0.0
  0
LINE
  5
82
330
22
100
AcDbEntity
  8
0
  6
Continuous
 62
     7
100
AcDbLine
 10
-318.1910705566406
 20
119.5053787231445
 30
0.0
 11
-317.7337036132813
 21
122.848258972168
 31
0.0
  0
LINE
  5
83
330
22
100
AcDbEntity
  8
0
  6
Continuous
 62
     7
100
AcDbLine
 10
-318.6540832519531
 20
119.5053787231445
 30
0.0
 11
-319.1170654296875
 21
119.5053787231445
 31
0.0
  0
LINE
  5
84
330
22
100
AcDbEntity
  8
0
  6
Continuous
 62
     7
100
AcDbLine
 10
-318.6540832519531
 20
119.5053787231445
 30
0.0
 11
-318.1910705566406
 21
119.5053787231445
 31
0.0
  0
LINE
  5
85
330
22
100
AcDbEntity
  8
0
  6
Continuous
 62
     7
100
AcDbLine
 10
-319.1170654296875
 20
119.5053787231445
 30
0.0
 11
-319.5744323730469
 21
122.848258972168
 31
0.0
  0
LINE
  5
86
330
22
100
AcDbEntity
  8
0
  6
Continuous
 62
     7
100
AcDbLine
 10
-314.416015625
 20
123.3059768676758
 30
0.0
 11
-314.416015625
 21
123.7686309814453
 31
0.0
  0
LINE
  5
87
330
22
100
AcDbEntity
  8
0
  6
Continuous
 62
     7
100
AcDbLine
 10
-314.416015625
 20
124.2312774658203
 30
0.0
 11
-314.416015625
 21
123.7686309814453
 31
0.0
  0
LINE
  5
88
330
22
100
AcDbEntity
  8
0
  6
Continuous
 62
     7
100
AcDbLine
 10
-322.8921508789063
 20
124.2312774658203
 30
0.0
 11
-322.8921508789063
 21
123.7686309814453
 31
0.0
  0
LINE
  5
89
330
22
100
AcDbEntity
  8
0
  6
Continuous
 62
     7
100
AcDbLine
 10
-319.1170654296875
 20
128.0318756103516
 30
0.0
 11
-319.5744323730469
 21
124.6890029907227
 31
0.0
  0
LINE
  5
8A
330
22
100
AcDbEntity
  8
0
  6
Continuous
 62
     7
100
AcDbLine
 10
-318.1910705566406
 20
128.0318756103516
 30
0.0
 11
-317.7337036132813
 21
124.6890029907227
 31
0.0
  0
LINE
  5
8B
330
22
100
AcDbEntity
  8
0
  6
Continuous
 62
     7
100
AcDbLine
 10
-322.8921508789063
 20
124.2312774658203
 30
0.0
 11
-319.5744323730469
 21
124.6890029907227
 31
0.0
  0
LINE
  5
8C
330
22
100
AcDbEntity
  8
0
  6
Continuous
 62
     7
100
AcDbLine
 10
-318.6540832519531
 20
128.0318756103516
 30
0.0
 11
-319.1170654296875
 21
128.0318756103516
 31
0.0
  0
LINE
  5
8D
330
22
100
AcDbEntity
  8
0
  6
Continuous
 62
     7
100
AcDbLine
 10
-318.6540832519531
 20
128.0318756103516
 30
0.0
 11
-318.1910705566406
 21
128.0318756103516
 31
0.0
  0
LINE
  5
8E
330
22
100
AcDbEntity
  8
0
  6
Continuous
 62
     7
100
AcDbLine
 10
-314.416015625
 20
218.2312774658203
 30
0.0
 11
-314.416015625
 21
217.7686309814453
 31
0.0
  0
LINE
  5
8F
330
22
100
AcDbEntity
  8
0
  6
Continuous
 62
     7
100
AcDbLine
 10
-314.416015625
 20
217.3059692382814
 30
0.0
 11
-314.416015625
 21
217.7686309814453
 31
0.0
  0
LINE
  5
90
330
22
100
AcDbEntity
  8
0
  6
Continuous
 62
     7
100
AcDbLine
 10
-322.8921508789063
 20
218.2312774658203
 30
0.0
 11
-322.8921508789063
 21
217.7686309814453
 31
0.0
  0
LINE
  5
91
330
22
100
AcDbEntity
  8
0
  6
Continuous
 62
     7
100
AcDbLine
 10
-322.8921508789063
 20
217.3059692382814
 30
0.0
 11
-319.5744323730469
 21
216.8482513427734
 31
0.0
  0
LINE
  5
92
330
22
100
AcDbEntity
  8
0
  6
Continuous
 62
     7
100
AcDbLine
 10
-318.6540832519531
 20
213.50537109375
 30
0.0
 11
-319.1170654296875
 21
213.50537109375
 31
0.0
  0
LINE
  5
93
330
22
100
AcDbEntity
  8
0
  6
Continuous
 62
     7
100
AcDbLine
 10
-318.6540832519531
 20
222.0318756103516
 30
0.0
 11
-318.1910705566406
 21
222.0318756103516
 31
0.0
  0
LINE
  5
94
330
22
100
AcDbEntity
  8
0
  6
Continuous
 62
     7
100
AcDbLine
 10
-318.1910705566406
 20
222.0318756103516
 30
0.0
 11
-317.7337036132813
 21
218.6889953613281
 31
0.0
  0
LINE
  5
95
330
22
100
AcDbEntity
  8
0
  6
Continuous
 62
     7
100
AcDbLine
 10
-319.1170654296875
 20
222.0318756103516
 30
0.0
 11
-319.5744323730469
 21
218.6889953613281
 31
0.0
  0
LINE
  5
96
330
22
100
AcDbEntity
  8
0
  6
Continuous
 62
     7
100
AcDbLine
 10
-318.6540832519531
 20
222.0318756103516
 30
0.0
 11
-319.1170654296875
 21
222.0318756103516
 31
0.0
  0
LINE
  5
97
330
22
100
AcDbEntity
  8
0
  6
Continuous
 62
     7
100
AcDbLine
 10
-322.8921508789063
 20
218.2312774658203
 30
0.0
 11
-319.5744323730469
 21
218.6889953613281
 31
0.0
  0
LINE
  5
98
330
22
100
AcDbEntity
  8
0
  6
Continuous
 62
     7
100
AcDbLine
 10
-322.8921508789063
 20
217.3059692382814
 30
0.0
 11
-322.8921508789063
 21
217.7686309814453
 31
0.0
  0
LINE
  5
99
330
22
100
AcDbEntity
  8
0
  6
Continuous
 62
     7
100
AcDbLine
 10
-319.1170654296875
 20
213.50537109375
 30
0.0
 11
-319.5744323730469
 21
216.8482513427734
 31
0.0
  0
LINE
  5
9A
330
22
100
AcDbEntity
  8
0
  6
Continuous
 62
     7
100
AcDbLine
 10
-318.1910705566406
 20
213.50537109375
 30
0.0
 11
-317.7337036132813
 21
216.8482513427734
 31
0.0
  0
LINE
  5
9B
330
22
100
AcDbEntity
  8
0
  6
Continuous
 62
     7
100
AcDbLine
 10
-318.6540832519531
 20
213.50537109375
 30
0.0
 11
-318.1910705566406
 21
213.50537109375
 31
0.0
  0
LINE
  5
9C
330
22
100
AcDbEntity
  8
0
  6
CENTER
 62
     7
100
AcDbLine
 10
-392.5355834960938
 20
170.7686309814453
 30
0.0
 11
-243.0514068603516
 21
170.7686309814453
 31
0.0
  0
LINE
  5
9D
330
22
100
AcDbEntity
  8
0
  6
Continuous
 62
     7
100
AcDbLine
 10
-314.416015625
 20
217.3059692382814
 30
0.0
 11
-317.7337036132813
 21
216.8482513427734
 31
0.0
  0
LINE
  5
9E
330
22
100
AcDbEntity
  8
0
  6
Continuous
 62
     7
100
AcDbLine
 10
-314.416015625
 20
218.2312774658203
 30
0.0
 11
-317.7337036132813
 21
218.6889953613281
 31
0.0
  0
LINE
  5
9F
330
22
100
AcDbEntity
  8
0
  6
Continuous
 62
     7
100
AcDbLine
 10
-296.66650390625
 20
180.1557922363281
 30
0.0
 11
-286.8907775878906
 21
185.7998046875
 31
0.0
  0
LINE
  5
A0
330
22
100
AcDbEntity
  8
0
  6
Continuous
 62
     7
100
AcDbLine
 10
-336.6824645996094
 20
184.4846954345703
 30
0.0
 11
-346.4581909179688
 21
190.1287078857422
 31
0.0
  0
LINE
  5
A1
330
22
100
AcDbEntity
  8
0
  6
Continuous
 62
     7
100
AcDbLine
 10
-339.18212890625
 20
180.1543731689453
 30
0.0
 11
-348.9579467773438
 21
185.7984619140625
 31
0.0
  0
LINE
  5
A2
330
22
100
AcDbEntity
  8
0
  6
Continuous
 62
     7
100
AcDbLine
 10
-299.1668395996094
 20
184.4857177734375
 30
0.0
 11
-289.3909912109375
 21
190.1298065185547
 31
0.0
  0
LINE
  5
A3
330
22
100
AcDbEntity
  8
0
  6
Continuous
 62
     7
100
AcDbLine
 10
-121.5895690917969
 20
128.2686309814453
 30
0.0
 11
-123.0395660400391
 21
126.8186264038086
 31
0.0
  0
LINE
  5
A4
330
22
100
AcDbEntity
  8
0
  6
Continuous
 62
     7
100
AcDbLine
 10
-151.5895690917969
 20
126.8186264038086
 30
0.0
 11
-151.5895690917969
 21
170.7686309814453
 31
0.0
  0
LINE
  5
A5
330
22
100
AcDbEntity
  8
0
  6
Continuous
 62
     7
100
AcDbLine
 10
-181.5895690917969
 20
227.7961730957031
 30
0.0
 11
-181.5895690917969
 21
113.7410888671875
 31
0.0
  0
LINE
  5
A6
330
22
100
AcDbEntity
  8
0
  6
Continuous
 62
     7
100
AcDbLine
 10
-176.0895690917969
 20
170.7686309814453
 30
0.0
 11
-176.0895690917969
 21
104.8937606811523
 31
0.0
  0
LINE
  5
A7
330
22
100
AcDbEntity
  8
0
  6
Continuous
 62
     7
100
AcDbLine
 10
-171.5895690917969
 20
101.7686309814453
 30
0.0
 11
-171.5895690917969
 21
170.7686309814453
 31
0.0
  0
LINE
  5
A8
330
22
100
AcDbEntity
  8
0
  6
Continuous
 62
     7
100
AcDbLine
 10
-153.5895690917969
 20
126.2686309814453
 30
0.0
 11
-171.5895690917969
 21
126.2686309814453
 31
0.0
  0
LINE
  5
A9
330
22
100
AcDbEntity
  8
0
  6
Continuous
 62
     7
100
AcDbLine
 10
-151.5895690917969
 20
128.2686309814453
 30
0.0
 11
-153.5895690917969
 21
126.2686309814453
 31
0.0
  0
LINE
  5
AA
330
22
100
AcDbEntity
  8
0
  6
Continuous
 62
     7
100
AcDbLine
 10
-121.5895690917969
 20
170.7686309814453
 30
0.0
 11
-121.5895690917969
 21
213.2686309814453
 31
0.0
  0
LINE
  5
AB
330
22
100
AcDbEntity
  8
0
  6
CENTER
 62
     7
100
AcDbLine
 10
-184.5904846191406
 20
217.7686309814453
 30
0.0
 11
-171.6197662353516
 21
217.7686309814453
 31
0.0
  0
LINE
  5
AC
330
22
100
AcDbEntity
  8
0
  6
Continuous
 62
     7
100
AcDbLine
 10
-123.0395660400391
 20
126.8186264038086
 30
0.0
 11
-123.0395660400391
 21
170.7686309814453
 31
0.0
  0
LINE
  5
AD
330
22
100
AcDbEntity
  8
0
  6
Continuous
 62
     7
100
AcDbLine
 10
-121.5895690917969
 20
128.2686309814453
 30
0.0
 11
-151.5895690917969
 21
128.2686309814453
 31
0.0
  0
LINE
  5
AE
330
22
100
AcDbEntity
  8
0
  6
Continuous
 62
     7
100
AcDbLine
 10
-123.0395660400391
 20
126.8186264038086
 30
0.0
 11
-153.0395660400391
 21
126.8186264038086
 31
0.0
  0
LINE
  5
AF
330
22
100
AcDbEntity
  8
0
  6
Continuous
 62
     7
100
AcDbLine
 10
-121.5895690917969
 20
213.2686309814453
 30
0.0
 11
-123.0395660400391
 21
214.7186279296875
 31
0.0
  0
LINE
  5
B0
330
22
100
AcDbEntity
  8
0
  6
Continuous
 62
     7
100
AcDbLine
 10
-121.5895690917969
 20
170.7686309814453
 30
0.0
 11
-121.5895690917969
 21
128.2686309814453
 31
0.0
  0
LINE
  5
B1
330
22
100
AcDbEntity
  8
0
  6
Continuous
 62
     7
100
AcDbLine
 10
-181.4952545166016
 20
113.3171463012695
 30
0.0
 11
-176.2243957519531
 21
102.0566558837891
 31
0.0
  0
LINE
  5
B2
330
22
100
AcDbEntity
  8
0
  6
Continuous
 62
     7
100
AcDbLine
 10
-175.7715454101563
 20
101.7686309814453
 30
0.0
 11
-171.5895690917969
 21
101.7686309814453
 31
0.0
  0
LINE
  5
B3
330
22
100
AcDbEntity
  8
0
  6
Continuous
 62
     7
100
AcDbLine
 10
-171.5895690917969
 20
213.1186218261719
 30
0.0
 11
-172.7395629882813
 21
214.2686309814453
 31
0.0
  0
LINE
  5
B4
330
22
100
AcDbEntity
  8
0
  6
Continuous
 62
     7
100
AcDbLine
 10
-178.5895690917969
 20
215.7686309814453
 30
0.0
 11
-171.6197662353516
 21
215.7686309814453
 31
0.0
  0
LINE
  5
B5
330
22
100
AcDbEntity
  8
0
  6
Continuous
 62
     7
100
AcDbLine
 10
-123.0395660400391
 20
214.7186279296875
 30
0.0
 11
-153.0395660400391
 21
214.7186279296875
 31
0.0
  0
LINE
  5
B6
330
22
100
AcDbEntity
  8
0
  6
Continuous
 62
     7
100
AcDbLine
 10
-121.5895690917969
 20
213.2686309814453
 30
0.0
 11
-151.5895690917969
 21
213.2686309814453
 31
0.0
  0
LINE
  5
B7
330
22
100
AcDbEntity
  8
0
  6
Continuous
 62
     7
100
AcDbLine
 10
-124.0171356201172
 20
209.2686309814453
 30
0.0
 11
-121.5895690917969
 21
211.6961975097656
 31
0.0
  0
LINE
  5
B8
330
22
100
AcDbEntity
  8
0
  6
Continuous
 62
     7
100
AcDbLine
 10
-128.2597808837891
 20
209.2686309814453
 30
0.0
 11
-124.2597808837891
 21
213.2686309814453
 31
0.0
  0
LINE
  5
B9
330
22
100
AcDbEntity
  8
0
  6
Continuous
 62
     7
100
AcDbLine
 10
-132.5024261474609
 20
209.2686309814453
 30
0.0
 11
-128.5024261474609
 21
213.2686309814453
 31
0.0
  0
LINE
  5
BA
330
22
100
AcDbEntity
  8
0
  6
Continuous
 62
     7
100
AcDbLine
 10
-136.7450561523438
 20
209.2686309814453
 30
0.0
 11
-132.7450561523437
 21
213.2686309814453
 31
0.0
  0
LINE
  5
BB
330
22
100
AcDbEntity
  8
0
  6
Continuous
 62
     7
100
AcDbLine
 10
-140.9877014160156
 20
209.2686309814453
 30
0.0
 11
-136.9877014160156
 21
213.2686309814453
 31
0.0
  0
LINE
  5
BC
330
22
100
AcDbEntity
  8
0
  6
Continuous
 62
     7
100
AcDbLine
 10
-145.2303466796875
 20
209.2686309814453
 30
0.0
 11
-141.2303466796875
 21
213.2686309814453
 31
0.0
  0
LINE
  5
BD
330
22
100
AcDbEntity
  8
0
  6
Continuous
 62
     7
100
AcDbLine
 10
-149.4729766845703
 20
209.2686309814453
 30
0.0
 11
-145.4729766845703
 21
213.2686309814453
 31
0.0
  0
LINE
  5
BE
330
22
100
AcDbEntity
  8
0
  6
Continuous
 62
     7
100
AcDbLine
 10
-153.7156219482422
 20
209.2686309814453
 30
0.0
 11
-149.7156219482422
 21
213.2686309814453
 31
0.0
  0
LINE
  5
BF
330
22
100
AcDbEntity
  8
0
  6
Continuous
 62
     7
100
AcDbLine
 10
-157.9582672119141
 20
209.2686309814453
 30
0.0
 11
-152.7739105224609
 21
214.4529724121094
 31
0.0
  0
LINE
  5
C0
330
22
100
AcDbEntity
  8
0
  6
Continuous
 62
     7
100
AcDbLine
 10
-162.2008972167969
 20
209.2686309814453
 30
0.0
 11
-156.2008972167969
 21
215.2686309814453
 31
0.0
  0
LINE
  5
C1
330
22
100
AcDbEntity
  8
0
  6
Continuous
 62
     7
100
AcDbLine
 10
-166.4435424804688
 20
209.2686309814453
 30
0.0
 11
-160.4435424804688
 21
215.2686309814453
 31
0.0
  0
LINE
  5
C2
330
22
100
AcDbEntity
  8
0
  6
Continuous
 62
     7
100
AcDbLine
 10
-170.6861877441406
 20
209.2686309814453
 30
0.0
 11
-164.6861877441406
 21
215.2686309814453
 31
0.0
  0
LINE
  5
C3
330
22
100
AcDbEntity
  8
0
  6
Continuous
 62
     7
100
AcDbLine
 10
-174.9288330078125
 20
209.2686309814453
 30
0.0
 11
-168.9288330078125
 21
215.2686309814453
 31
0.0
  0
LINE
  5
C4
330
22
100
AcDbEntity
  8
0
  6
Continuous
 62
     7
100
AcDbLine
 10
-178.5895690917969
 20
209.8505249023439
 30
0.0
 11
-175.3214721679688
 21
213.1186218261719
 31
0.0
  0
LINE
  5
C5
330
22
100
AcDbEntity
  8
0
  6
Continuous
 62
     7
100
AcDbLine
 10
-121.8958206176758
 20
209.2686309814453
 30
0.0
 11
-121.5895690917969
 21
209.5748748779297
 31
0.0
  0
LINE
  5
C6
330
22
100
AcDbEntity
  8
0
  6
Continuous
 62
     7
100
AcDbLine
 10
-126.1384582519531
 20
209.2686309814453
 30
0.0
 11
-122.1384582519531
 21
213.2686309814453
 31
0.0
  0
LINE
  5
C7
330
22
100
AcDbEntity
  8
0
  6
Continuous
 62
     7
100
AcDbLine
 10
-130.381103515625
 20
209.2686309814453
 30
0.0
 11
-126.3810958862305
 21
213.2686309814453
 31
0.0
  0
LINE
  5
C8
330
22
100
AcDbEntity
  8
0
  6
Continuous
 62
     7
100
AcDbLine
 10
-134.6237335205078
 20
209.2686309814453
 30
0.0
 11
-130.6237335205078
 21
213.2686309814453
 31
0.0
  0
LINE
  5
C9
330
22
100
AcDbEntity
  8
0
  6
Continuous
 62
     7
100
AcDbLine
 10
-138.8663787841797
 20
209.2686309814453
 30
0.0
 11
-134.8663787841797
 21
213.2686309814453
 31
0.0
  0
LINE
  5
CA
330
22
100
AcDbEntity
  8
0
  6
Continuous
 62
     7
100
AcDbLine
 10
-143.1090240478516
 20
209.2686309814453
 30
0.0
 11
-139.1090240478516
 21
213.2686309814453
 31
0.0
  0
LINE
  5
CB
330
22
100
AcDbEntity
  8
0
  6
Continuous
 62
     7
100
AcDbLine
 10
-147.3516540527344
 20
209.2686309814453
 30
0.0
 11
-143.3516540527344
 21
213.2686309814453
 31
0.0
  0
LINE
  5
CC
330
22
100
AcDbEntity
  8
0
  6
Continuous
 62
     7
100
AcDbLine
 10
-151.5942993164063
 20
209.2686309814453
 30
0.0
 11
-147.5942993164063
 21
213.2686309814453
 31
0.0
  0
LINE
  5
CD
330
22
100
AcDbEntity
  8
0
  6
Continuous
 62
     7
100
AcDbLine
 10
-155.8369445800781
 20
209.2686309814453
 30
0.0
 11
-151.7132568359375
 21
213.3923187255859
 31
0.0
  0
LINE
  5
CE
330
22
100
AcDbEntity
  8
0
  6
Continuous
 62
     7
100
AcDbLine
 10
-160.07958984375
 20
209.2686309814453
 30
0.0
 11
-154.07958984375
 21
215.2686309814453
 31
0.0
  0
LINE
  5
CF
330
22
100
AcDbEntity
  8
0
  6
Continuous
 62
     7
100
AcDbLine
 10
-164.3222198486328
 20
209.2686309814453
 30
0.0
 11
-158.3222198486328
 21
215.2686309814453
 31
0.0
  0
LINE
  5
D0
330
22
100
AcDbEntity
  8
0
  6
Continuous
 62
     7
100
AcDbLine
 10
-168.5648651123047
 20
209.2686309814453
 30
0.0
 11
-162.5648651123047
 21
215.2686309814453
 31
0.0
  0
LINE
  5
D1
330
22
100
AcDbEntity
  8
0
  6
Continuous
 62
     7
100
AcDbLine
 10
-172.8075103759766
 20
209.2686309814453
 30
0.0
 11
-166.8075103759766
 21
215.2686309814453
 31
0.0
  0
LINE
  5
D2
330
22
100
AcDbEntity
  8
0
  6
Continuous
 62
     7
100
AcDbLine
 10
-177.0501403808594
 20
209.2686309814453
 30
0.0
 11
-173.2001495361328
 21
213.1186218261719
 31
0.0
  0
LINE
  5
D3
330
22
100
AcDbEntity
  8
0
  6
Continuous
 62
     7
100
AcDbLine
 10
-171.5895690917969
 20
214.7292022705078
 30
0.0
 11
-171.0501403808594
 21
215.2686309814453
 31
0.0
  0
LINE
  5
D4
330
22
100
AcDbEntity
  8
0
  6
Continuous
 62
     7
100
AcDbLine
 10
-178.5895690917969
 20
211.9718475341797
 30
0.0
 11
-177.4427795410156
 21
213.1186218261719
 31
0.0
  0
LINE
  5
D5
330
22
100
AcDbEntity
  8
0
  6
Continuous
 62
     7
100
AcDbLine
 10
-178.5895690917969
 20
209.2686309814453
 30
0.0
 11
-121.5895690917969
 21
209.2686309814453
 31
0.0
  0
LINE
  5
D6
330
22
100
AcDbEntity
  8
0
  6
Continuous
 62
     7
100
AcDbLine
 10
-153.5895690917969
 20
215.2686309814453
 30
0.0
 11
-171.5895690917969
 21
215.2686309814453
 31
0.0
  0
LINE
  5
D7
330
22
100
AcDbEntity
  8
0
  6
Continuous
 62
     7
100
AcDbLine
 10
-151.5895690917969
 20
213.2686309814453
 30
0.0
 11
-153.5895690917969
 21
215.2686309814453
 31
0.0
  0
LINE
  5
D8
330
22
100
AcDbEntity
  8
0
  6
Continuous
 62
     7
100
AcDbLine
 10
-178.5895690917969
 20
213.1186218261719
 30
0.0
 11
-177.4395751953125
 21
214.2686309814453
 31
0.0
  0
LINE
  5
D9
330
22
100
AcDbEntity
  8
0
  6
Continuous
 62
     7
100
AcDbLine
 10
-178.5895690917969
 20
225.1686248779297
 30
0.0
 11
-178.5895690917969
 21
219.7686309814453
 31
0.0
  0
LINE
  5
DA
330
22
100
AcDbEntity
  8
0
  6
Continuous
 62
     7
100
AcDbLine
 10
-171.5895690917969
 20
239.7686309814453
 30
0.0
 11
-175.7715454101563
 21
239.7686309814453
 31
0.0
  0
LINE
  5
DB
330
22
100
AcDbEntity
  8
0
  6
Continuous
 62
     7
100
AcDbLine
 10
-181.5895690917969
 20
193.2686309814453
 30
0.0
 11
-181.5895690917969
 21
185.2019653320313
 31
0.0
  0
LINE
  5
DC
330
22
100
AcDbEntity
  8
0
  6
Continuous
 62
     7
100
AcDbLine
 10
-121.5895690917969
 20
192.0186309814453
 30
0.0
 11
-121.5895690917969
 21
185.2019653320313
 31
0.0
  0
LINE
  5
DD
330
22
100
AcDbEntity
  8
0
  6
Continuous
 62
     7
100
AcDbLine
 10
-181.5895690917969
 20
224.7686309814453
 30
0.0
 11
-178.5895690917969
 21
224.7686309814453
 31
0.0
  0
LINE
  5
DE
330
22
100
AcDbEntity
  8
0
  6
Continuous
 62
     7
100
AcDbLine
 10
-181.5895690917969
 20
222.7686309814453
 30
0.0
 11
-181.5895690917969
 21
212.7686309814453
 31
0.0
  0
LINE
  5
DF
330
22
100
AcDbEntity
  8
0
  6
Continuous
 62
     7
100
AcDbLine
 10
-181.5895690917969
 20
212.7686309814453
 30
0.0
 11
-178.5895690917969
 21
215.7686309814453
 31
0.0
  0
LINE
  5
E0
330
22
100
AcDbEntity
  8
0
  6
Continuous
 62
     7
100
AcDbLine
 10
-181.5895690917969
 20
222.7686309814453
 30
0.0
 11
-178.5895690917969
 21
219.7686309814453
 31
0.0
  0
LINE
  5
E1
330
22
100
AcDbEntity
  8
0
  6
CENTER
 62
     7
100
AcDbLine
 10
-197.1056365966797
 20
170.7686309814453
 30
0.0
 11
-114.228630065918
 21
170.7686309814453
 31
0.0
  0
LINE
  5
E2
330
22
100
AcDbEntity
  8
0
  6
Continuous
 62
     7
100
AcDbLine
 10
-178.5895690917969
 20
219.7686309814453
 30
0.0
 11
-171.6197662353516
 21
219.7686309814453
 31
0.0
  0
LINE
  5
E3
330
22
100
AcDbEntity
  8
0
  6
Continuous
 62
     7
100
AcDbLine
 10
-171.5895690917969
 20
214.2686309814453
 30
0.0
 11
-178.5895690917969
 21
214.2686309814453
 31
0.0
  0
LINE
  5
E4
330
22
100
AcDbEntity
  8
0
  6
Continuous
 62
     7
100
AcDbLine
 10
-171.5895690917969
 20
213.1186218261719
 30
0.0
 11
-178.5895690917969
 21
213.1186218261719
 31
0.0
  0
LINE
  5
E5
330
22
100
AcDbEntity
  8
0
  6
Continuous
 62
     7
100
AcDbLine
 10
-171.5895690917969
 20
213.1186218261719
 30
0.0
 11
-171.5895690917969
 21
239.7686309814453
 31
0.0
  0
LINE
  5
E6
330
22
100
AcDbEntity
  8
0
  6
Continuous
 62
     7
100
AcDbLine
 10
-178.5895690917969
 20
215.7686309814453
 30
0.0
 11
-178.5895690917969
 21
170.7686309814453
 31
0.0
  0
LINE
  5
E7
330
22
100
AcDbEntity
  8
0
  6
Continuous
 62
     7
100
AcDbLine
 10
-172.3986358642578
 20
218.7369689941406
 30
0.0
 11
-173.2286987304688
 21
219.7686309814453
 31
0.0
  0
LINE
  5
E8
330
22
100
AcDbEntity
  8
0
  6
Continuous
 62
     7
100
AcDbLine
 10
-172.3986358642578
 20
216.7686309814453
 30
0.0
 11
-173.3986358642578
 21
215.7686309814453
 31
0.0
  0
LINE
  5
E9
330
22
100
AcDbEntity
  8
0
  6
Continuous
 62
     7
100
AcDbLine
 10
-172.3986358642578
 20
218.7369689941406
 30
0.0
 11
-172.3986358642578
 21
216.7686309814453
 31
0.0
  0
LINE
  5
EA
330
22
100
AcDbEntity
  8
0
  6
Continuous
 62
     7
100
AcDbLine
 10
-178.5895690917969
 20
214.2721557617188
 30
0.0
 11
-178.5860443115234
 21
214.2686309814453
 31
0.0
  0
LINE
  5
EB
330
22
100
AcDbEntity
  8
0
  6
Continuous
 62
     7
100
AcDbLine
 10
-178.5895690917969
 20
214.9792633056641
 30
0.0
 11
-177.8789367675781
 21
214.2686309814453
 31
0.0
  0
LINE
  5
EC
330
22
100
AcDbEntity
  8
0
  6
Continuous
 62
     7
100
AcDbLine
 10
-177.2576141357422
 20
215.7686309814453
 30
0.0
 11
-175.7576141357422
 21
214.2686309814453
 31
0.0
  0
LINE
  5
ED
330
22
100
AcDbEntity
  8
0
  6
Continuous
 62
     7
100
AcDbLine
 10
-176.5505065917969
 20
215.7686309814453
 30
0.0
 11
-175.0505065917969
 21
214.2686309814453
 31
0.0
  0
LINE
  5
EE
330
22
100
AcDbEntity
  8
0
  6
Continuous
 62
     7
100
AcDbLine
 10
-178.5895690917969
 20
219.9290008544922
 30
0.0
 11
-178.4291839599609
 21
219.7686309814453
 31
0.0
  0
LINE
  5
EF
330
22
100
AcDbEntity
  8
0
  6
Continuous
 62
     7
100
AcDbLine
 10
-174.4291839599609
 20
215.7686309814453
 30
0.0
 11
-172.9291839599609
 21
214.2686309814453
 31
0.0
  0
LINE
  5
F0
330
22
100
AcDbEntity
  8
0
  6
Continuous
 62
     7
100
AcDbLine
 10
-178.5895690917969
 20
220.6361083984375
 30
0.0
 11
-177.7220764160156
 21
219.7686309814453
 31
0.0
  0
LINE
  5
F1
330
22
100
AcDbEntity
  8
0
  6
Continuous
 62
     7
100
AcDbLine
 10
-181.5895690917969
 20
225.7574310302734
 30
0.0
 11
-181.0007629394531
 21
225.1686248779297
 31
0.0
  0
LINE
  5
F2
330
22
100
AcDbEntity
  8
0
  6
Continuous
 62
     7
100
AcDbLine
 10
-178.5895690917969
 20
222.7574310302734
 30
0.0
 11
-175.6007690429688
 21
219.7686309814453
 31
0.0
  0
LINE
  5
F3
330
22
100
AcDbEntity
  8
0
  6
Continuous
 62
     7
100
AcDbLine
 10
-181.5895690917969
 20
226.4645385742188
 30
0.0
 11
-180.2936553955078
 21
225.1686248779297
 31
0.0
  0
LINE
  5
F4
330
22
100
AcDbEntity
  8
0
  6
Continuous
 62
     7
100
AcDbLine
 10
-178.5895690917969
 20
223.4645385742188
 30
0.0
 11
-174.8936614990234
 21
219.7686309814453
 31
0.0
  0
LINE
  5
F5
330
22
100
AcDbEntity
  8
0
  6
Continuous
 62
     7
100
AcDbLine
 10
-181.4087066650391
 20
228.4049987792969
 30
0.0
 11
-172.7723388671875
 21
219.7686309814453
 31
0.0
  0
LINE
  5
F6
330
22
100
AcDbEntity
  8
0
  6
Continuous
 62
     7
100
AcDbLine
 10
-181.1832580566406
 20
228.8866577148438
 30
0.0
 11
-172.0652313232422
 21
219.7686309814453
 31
0.0
  0
LINE
  5
F7
330
22
100
AcDbEntity
  8
0
  6
Continuous
 62
     7
100
AcDbLine
 10
-180.5068969726563
 20
230.3316192626953
 30
0.0
 11
-171.5895690917969
 21
221.4142913818359
 31
0.0
  0
LINE
  5
F8
330
22
100
AcDbEntity
  8
0
  6
Continuous
 62
     7
100
AcDbLine
 10
-180.2814331054688
 20
230.8132629394531
 30
0.0
 11
-171.5895690917969
 21
222.1213989257813
 31
0.0
  0
LINE
  5
F9
330
22
100
AcDbEntity
  8
0
  6
Continuous
 62
     7
100
AcDbLine
 10
-179.6050720214844
 20
232.2582244873047
 30
0.0
 11
-171.5895690917969
 21
224.2427215576172
 31
0.0
  0
LINE
  5
FA
330
22
100
AcDbEntity
  8
0
  6
Continuous
 62
     7
100
AcDbLine
 10
-179.3796234130859
 20
232.7398834228516
 30
0.0
 11
-171.5895690917969
 21
224.9498291015625
 31
0.0
  0
LINE
  5
FB
330
22
100
AcDbEntity
  8
0
  6
Continuous
 62
     7
100
AcDbLine
 10
-178.7032623291016
 20
234.1848297119141
 30
0.0
 11
-171.5895690917969
 21
227.0711364746094
 31
0.0
  0
LINE
  5
FC
330
22
100
AcDbEntity
  8
0
  6
Continuous
 62
     7
100
AcDbLine
 10
-178.4777984619141
 20
234.6664886474609
 30
0.0
 11
-171.5895690917969
 21
227.7782440185547
 31
0.0
  0
LINE
  5
FD
330
22
100
AcDbEntity
  8
0
  6
Continuous
 62
     7
100
AcDbLine
 10
-177.8014373779297
 20
236.1114501953125
 30
0.0
 11
-171.5895690917969
 21
229.8995666503906
 31
0.0
  0
LINE
  5
FE
330
22
100
AcDbEntity
  8
0
  6
Continuous
 62
     7
100
AcDbLine
 10
-177.5759887695313
 20
236.5930938720703
 30
0.0
 11
-171.5895690917969
 21
230.6066741943359
 31
0.0
  0
LINE
  5
FF
330
22
100
AcDbEntity
  8
0
  6
Continuous
 62
     7
100
AcDbLine
 10
-176.8996276855469
 20
238.0380554199219
 30
0.0
 11
-171.5895690917969
 21
232.7279968261719
 31
0.0
  0
LINE
  5
100
330
22
100
AcDbEntity
  8
0
  6
Continuous
 62
     7
100
AcDbLine
 10
-176.6741638183594
 20
238.5196990966797
 30
0.0
 11
-171.5895690917969
 21
233.4351043701172
 31
0.0
  0
LINE
  5
101
330
22
100
AcDbEntity
  8
0
  6
Continuous
 62
     7
100
AcDbLine
 10
-175.7972564697266
 20
239.7641143798828
 30
0.0
 11
-171.5895690917969
 21
235.5564270019531
 31
0.0
  0
LINE
  5
102
330
22
100
AcDbEntity
  8
0
  6
Continuous
 62
     7
100
AcDbLine
 10
-175.0946655273438
 20
239.7686309814453
 30
0.0
 11
-171.5895690917969
 21
236.2635345458984
 31
0.0
  0
LINE
  5
103
330
22
100
AcDbEntity
  8
0
  6
Continuous
 62
     7
100
AcDbLine
 10
-172.9733428955078
 20
239.7686309814453
 30
0.0
 11
-171.5895690917969
 21
238.3848571777344
 31
0.0
  0
LINE
  5
104
330
22
100
AcDbEntity
  8
0
  6
Continuous
 62
     7
100
AcDbLine
 10
-172.2662353515625
 20
239.7686309814453
 30
0.0
 11
-171.5895690917969
 21
239.0919647216797
 31
0.0
  0
LINE
  5
105
330
22
100
AcDbEntity
  8
0
  6
Continuous
 62
     7
100
AcDbLine
 10
-181.4952545166016
 20
228.2201080322266
 30
0.0
 11
-176.2243957519531
 21
239.4805908203125
 31
0.0
  0
LINE
  5
106
330
22
100
AcDbEntity
  8
0
  6
Continuous
 62
     7
100
AcDbLine
 10
-181.5895690917969
 20
225.1686248779297
 30
0.0
 11
-178.5895690917969
 21
225.1686248779297
 31
0.0
  0
ARC
  5
107
330
22
100
AcDbEntity
  8
0
  6
Continuous
 62
     7
100
AcDbCircle
 10
-317.9241333007813
 20
170.7686309814453
 30
0.0
 40
38.5
100
AcDbArc
 50
277.6798953428116
 51
22.32129320036653
  0
ARC
  5
108
330
22
100
AcDbEntity
  8
0
  6
Continuous
 62
     7
100
AcDbCircle
 10
-317.9241333007813
 20
170.7686309814453
 30
0.0
 40
39.0
100
AcDbArc
 50
280.7027819691636
 51
19.29838690218226
  0
ARC
  5
109
330
22
100
AcDbEntity
  8
0
  6
Continuous
 62
     7
100
AcDbCircle
 10
-317.9241333007813
 20
170.7686309814453
 30
0.0
 40
39.0
100
AcDbArc
 50
160.7039384169204
 51
259.2972180308379
  0
ARC
  5
10A
330
22
100
AcDbEntity
  8
0
  6
Continuous
 62
     7
100
AcDbCircle
 10
-317.9241333007813
 20
170.7686309814453
 30
0.0
 40
38.5
100
AcDbArc
 50
157.681051168424
 51
262.3201496661374
  0
CIRCLE
  5
10B
330
22
100
AcDbEntity
  8
0
  6
Continuous
 62
     7
100
AcDbCircle
 10
-318.6540832519531
 20
170.7686309814453
 30
0.0
 40
69.0
  0
CIRCLE
  5
10C
330
22
100
AcDbEntity
  8
0
  6
Continuous
 62
     7
100
AcDbCircle
 10
-318.6540832519531
 20
170.7686309814453
 30
0.0
 40
54.0
  0
ARC
  5
10D
330
22
100
AcDbEntity
  8
0
  6
Continuous
 62
     7
100
AcDbCircle
 10
-311.4241333007813
 20
147.6656036376953
 30
0.0
 40
4.0
100
AcDbArc
 50
105.7136217653641
 51
180.0000000000004
  0
ARC
  5
10E
330
22
100
AcDbEntity
  8
0
  6
Continuous
 62
     7
100
AcDbCircle
 10
-324.4241333007813
 20
147.6656036376953
 30
0.0
 40
4.0
100
AcDbArc
 50
0.0
 51
74.28595743851186
  0
CIRCLE
  5
10F
330
22
100
AcDbEntity
  8
0
  6
Continuous
 62
     7
100
AcDbCircle
 10
-318.6540832519531
 20
123.7686309814453
 30
0.0
 40
5.25
  0
CIRCLE
  5
110
330
22
100
AcDbEntity
  8
0
  6
Continuous
 62
     7
100
AcDbCircle
 10
-318.6540832519531
 20
123.7686309814453
 30
0.0
 40
5.0
  0
ARC
  5
111
330
22
100
AcDbEntity
  8
0
  6
Continuous
 62
     7
100
AcDbCircle
 10
-317.9241333007813
 20
170.7686309814453
 30
0.0
 40
20.0
100
AcDbArc
 50
45.71558274821165
 51
134.2878788930103
  0
ARC
  5
112
330
22
100
AcDbEntity
  8
0
  6
Continuous
 62
     7
100
AcDbCircle
 10
-294.66650390625
 20
176.6916809082031
 30
0.0
 40
4.0
100
AcDbArc
 50
119.9999304359993
 51
194.2878313867423
  0
CIRCLE
  5
113
330
22
100
AcDbEntity
  8
0
  6
Continuous
 62
     7
100
AcDbCircle
 10
-318.6540832519531
 20
217.7686309814453
 30
0.0
 40
5.25
  0
CIRCLE
  5
114
330
22
100
AcDbEntity
  8
0
  6
Continuous
 62
     7
100
AcDbCircle
 10
-271.4040832519531
 20
170.7686309814453
 30
0.0
 40
3.5
  0
CIRCLE
  5
115
330
22
100
AcDbEntity
  8
0
  6
Continuous
 62
     7
100
AcDbCircle
 10
-365.9040832519531
 20
170.7686309814453
 30
0.0
 40
3.5
  0
ARC
  5
116
330
22
100
AcDbEntity
  8
0
  6
Continuous
 62
     7
100
AcDbCircle
 10
-324.4241333007813
 20
136.3775024414062
 30
0.0
 40
4.0
100
AcDbArc
 50
259.2972084932817
 51
0.0
  0
ARC
  5
117
330
22
100
AcDbEntity
  8
0
  6
Continuous
 62
     7
100
AcDbCircle
 10
-311.4241333007813
 20
136.3775024414062
 30
0.0
 40
4.0
100
AcDbArc
 50
180.0000000000004
 51
280.7027915067197
  0
ARC
  5
118
330
22
100
AcDbEntity
  8
0
  6
Continuous
 62
     7
100
AcDbCircle
 10
-317.9241333007813
 20
170.7686309814453
 30
0.0
 40
20.0
100
AcDbArc
 50
285.7139110461698
 51
14.28787216495893
  0
ARC
  5
119
330
22
100
AcDbEntity
  8
0
  6
Continuous
 62
     7
100
AcDbCircle
 10
-317.9241333007813
 20
170.7686309814453
 30
0.0
 40
20.0
100
AcDbArc
 50
165.7156261870319
 51
254.2861731127591
  0
CIRCLE
  5
11A
330
22
100
AcDbEntity
  8
0
  6
Continuous
 62
     7
100
AcDbCircle
 10
-317.9241333007813
 20
170.7686309814453
 30
0.0
 40
16.0
  0
ARC
  5
11B
330
22
100
AcDbEntity
  8
0
  6
Continuous
 62
     7
100
AcDbCircle
 10
-334.6824645996094
 20
187.9487915039063
 30
0.0
 40
4.0
100
AcDbArc
 50
239.9999602810733
 51
314.2879719997303
  0
ARC
  5
11C
330
22
100
AcDbEntity
  8
0
  6
Continuous
 62
     7
100
AcDbCircle
 10
-341.18212890625
 20
176.6902770996094
 30
0.0
 40
4.0
100
AcDbArc
 50
345.715457521226
 51
59.99996028107254
  0
CIRCLE
  5
11D
330
22
100
AcDbEntity
  8
0
  6
Continuous
 62
     7
100
AcDbCircle
 10
-318.6540832519531
 20
217.7686309814453
 30
0.0
 40
5.0
  0
ARC
  5
11E
330
22
100
AcDbEntity
  8
0
  6
Continuous
 62
     7
100
AcDbCircle
 10
-301.1668395996094
 20
187.9498138427734
 30
0.0
 40
4.0
100
AcDbArc
 50
225.7155842923444
 51
300.0000397189282
  0
ARC
  5
11F
330
22
100
AcDbEntity
  8
0
  6
Continuous
 62
     7
100
AcDbCircle
 10
-291.3909912109375
 20
193.5939025878906
 30
0.0
 40
4.0
100
AcDbArc
 50
300.0000397189282
 51
40.7039691955724
  0
ARC
  5
120
330
22
100
AcDbEntity
  8
0
  6
Continuous
 62
     7
100
AcDbCircle
 10
-317.9241333007813
 20
170.7686309814453
 30
0.0
 40
38.5
100
AcDbArc
 50
37.68102372759316
 51
142.3212925940579
  0
ARC
  5
121
330
22
100
AcDbEntity
  8
0
  6
Continuous
 62
     7
100
AcDbCircle
 10
-317.9241333007813
 20
170.7686309814453
 30
0.0
 40
39.0
100
AcDbArc
 50
40.70393671069818
 51
139.298399935453
  0
ARC
  5
122
330
22
100
AcDbEntity
  8
0
  6
Continuous
 62
     7
100
AcDbCircle
 10
-344.4581909179688
 20
193.5928192138672
 30
0.0
 40
4.0
100
AcDbArc
 50
139.2984966478387
 51
240.0000695640013
  0
ARC
  5
123
330
22
100
AcDbEntity
  8
0
  6
Continuous
 62
     7
100
AcDbCircle
 10
-350.9579467773438
 20
182.3343505859375
 30
0.0
 40
4.0
100
AcDbArc
 50
60.00006956400067
 51
160.7038268188568
  0
ARC
  5
124
330
22
100
AcDbEntity
  8
0
  6
Continuous
 62
     7
100
AcDbCircle
 10
-284.8907775878906
 20
182.3357086181641
 30
0.0
 40
4.0
100
AcDbArc
 50
19.29831867459385
 51
120.0000397189275
  0
ARC
  5
125
330
22
100
AcDbEntity
  8
0
  6
Continuous
 62
     7
100
AcDbCircle
 10
-180.5895690917969
 20
113.7410888671875
 30
0.0
 40
1.0
100
AcDbArc
 50
180.0000000000004
 51
205.0838382895956
  0
ARC
  5
126
330
22
100
AcDbEntity
  8
0
  6
Continuous
 62
     7
100
AcDbCircle
 10
-175.7715454101563
 20
102.2686309814453
 30
0.0
 40
0.5
100
AcDbArc
 50
205.0838635556956
 51
270.0000000000005
  0
ARC
  5
127
330
22
100
AcDbEntity
  8
0
  6
Continuous
 62
     7
100
AcDbCircle
 10
-180.5895690917969
 20
227.7961730957031
 30
0.0
 40
1.0
100
AcDbArc
 50
154.9165576184813
 51
180.0000000000004
  0
ARC
  5
128
330
22
100
AcDbEntity
  8
0
  6
Continuous
 62
     7
100
AcDbCircle
 10
-175.7715454101563
 20
239.2686309814453
 30
0.0
 40
0.5
100
AcDbArc
 50
90.00000000000019
 51
154.9177200646417
  0
TEXT
  5
129
330
22
100
AcDbEntity
  8
0
  6
Continuous
 62
     7
100
AcDbText
 10
-254.8554773330689
 20
76.03224945068359
 30
0.0
 40
7.0
  1
ＤＬ－ＴＰ－８０Ｇ
 41
0.8448610808647003
100
AcDbText
  0
DIMENSION
  5
12A
330
22
100
AcDbEntity
  8
0
  6
Continuous
 62
     7
100
AcDbDimension
  2
*D1
 10
-171.5895690917969
 20
257.8114013671875
 30
0.0
 11
-146.5895690917969
 21
257.8114013671875
 31
0.0
 71
     5
 42
-1.0
  3
DIMSTYLE1
100
AcDbAlignedDimension
 13
-121.5895690917969
 23
213.2686309814453
 33
0.0
 14
-171.5895690917969
 24
239.7686309814453
 34
0.0
100
AcDbRotatedDimension
  0
DIMENSION
  5
12B
330
22
100
AcDbEntity
  8
0
  6
Continuous
 62
     7
100
AcDbDimension
  2
*D2
 10
-181.5895690917969
 20
257.8114013671875
 30
0.0
 11
-176.5895690917969
 21
257.8114013671875
 31
0.0
 71
     5
 42
-1.0
  3
DIMSTYLE2
100
AcDbAlignedDimension
 13
-171.5895690917969
 23
237.7096252441406
 33
0.0
 14
-181.5895690917969
 24
229.7108001708984
 34
0.0
100
AcDbRotatedDimension
  0
DIMENSION
  5
12C
330
22
100
AcDbEntity
  8
0
  6
Continuous
 62
     7
100
AcDbDimension
  2
*D3
 10
-121.5895690917969
 20
104.1071929931641
 30
0.0
 11
-136.5895690917969
 21
104.1071929931641
 31
0.0
 71
     5
 42
-1.0
  3
DIMSTYLE3
100
AcDbAlignedDimension
 13
-151.5895690917969
 23
126.8186264038086
 33
0.0
 14
-121.5895690917969
 24
128.2686309814453
 34
0.0
100
AcDbRotatedDimension
  0
DIMENSION
  5
12D
330
22
100
AcDbEntity
  8
0
  6
Continuous
 62
     7
100
AcDbDimension
  2
*D4
 10
-377.9387396308226
 20
135.4652385376677
 30
0.0
 11
-252.0525970458984
 21
210.4291076660156
 31
0.0
 70
     3
 71
     5
 42
-1.0
  3
DIMSTYLE4
100
AcDbDiametricDimension
 15
-259.3694268730837
 25
206.0720234252229
 35
0.0
 40
0.0
  0
DIMENSION
  5
12E
330
22
100
AcDbEntity
  8
0
  6
Continuous
 62
     7
100
AcDbDimension
  2
*D5
 10
-363.2381708124116
 20
201.2359763925798
 30
0.0
 11
-251.0881958007813
 21
124.5962524414063
 31
0.0
 70
     3
 71
     5
 42
-1.0
  3
DIMSTYLE5
100
AcDbDiametricDimension
 15
-274.0699956914947
 25
140.3012855703109
 35
0.0
 40
0.0
  0
INSERT
  5
12F
330
22
100
AcDbEntity
  8
0
  6
Continuous
 62
     7
100
AcDbBlockReference
  2
KOZU0001
 10
-129.0395660400391
 20
126.8186264038086
 30
0.0
  0
ENDSEC
  0
SECTION
  2
OBJECTS
  0
DICTIONARY
  5
C
330
0
100
AcDbDictionary
281
     1
  3
ACAD_COLOR
350
1B
  3
ACAD_GROUP
350
D
  3
ACAD_LAYOUT
350
19
  3
ACAD_MATERIAL
350
1A
  3
ACAD_MLINESTYLE
350
16
  3
ACAD_PLOTSETTINGS
350
18
  3
ACAD_PLOTSTYLENAME
350
E
  3
ACAD_TABLESTYLE
350
1C
  3
AcDbVariableDictionary
350
13B
  0
DICTIONARY
  5
1B
102
{ACAD_REACTORS
330
C
102
}
330
C
100
AcDbDictionary
281
     1
  0
DICTIONARY
  5
D
102
{ACAD_REACTORS
330
C
102
}
330
C
100
AcDbDictionary
281
     1
  0
DICTIONARY
  5
19
102
{ACAD_REACTORS
330
C
102
}
330
C
100
AcDbDictionary
281
     1
  3
Model
350
25
  3
レイアウト1
350
21
  0
DICTIONARY
  5
1A
102
{ACAD_REACTORS
330
C
102
}
330
C
100
AcDbDictionary
281
     1
  0
DICTIONARY
  5
16
102
{ACAD_REACTORS
330
C
102
}
330
C
100
AcDbDictionary
281
     1
  3
Standard
350
17
  0
DICTIONARY
  5
18
102
{ACAD_REACTORS
330
C
102
}
330
C
100
AcDbDictionary
281
     1
  0
ACDBDICTIONARYWDFLT
  5
E
102
{ACAD_REACTORS
330
C
102
}
330
C
100
AcDbDictionary
281
     1
  3
Normal
350
F
100
AcDbDictionaryWithDefault
340
F
  0
DICTIONARY
  5
1C
102
{ACAD_REACTORS
330
C
102
}
330
C
100
AcDbDictionary
281
     1
  3
Standard
350
1D
  0
DICTIONARY
  5
13B
102
{ACAD_REACTORS
330
C
102
}
330
C
100
AcDbDictionary
281
     1
  3
CTABLESTYLE
350
13C
  0
LAYOUT
  5
25
102
{ACAD_REACTORS
330
19
102
}
330
19
100
AcDbPlotSettings
  1

  2
PDF reDirect v2
  4
A3
  6

 40
3.174999952316284
 41
3.174999952316284
 42
3.17498779296875
 43
3.17498779296875
 44
297.0530090332031
 45
420.1583251953125
 46
0.0
 47
0.0
 48
0.0
 49
0.0
140
0.0
141
0.0
142
1.0
143
1.0
 70
 11952
 72
     1
 73
     1
 74
     2
  7
C:\Users\ck\AppData\Roaming\Autodesk\AutoCAD 2005\R16.1\jpn\Plot Styles\black.ctb
 75
    16
147
1.0
 76
     0
 77
     2
 78
   300
148
423.0
149
2.0
100
AcDbLayout
  1
Model
 70
     1
 71
     0
 10
0.0
 20
0.0
 11
12.0
 21
9.0
 12
0.0
 22
0.0
 32
0.0
 14
0.0
 24
0.0
 34
0.0
 15
0.0
 25
0.0
 35
0.0
146
0.0
 13
0.0
 23
0.0
 33
0.0
 16
1.0
 26
0.0
 36
0.0
 17
0.0
 27
1.0
 37
0.0
 76
     0
330
22
1001
ACAD_PSEXT
1000
PDF reDirect v2
1000
PDF reDirect Pro
1000
PDF_REDIRECT_PORT:
1000
PDF reDirect provided by EXP Systems
1070
     0
  0
LAYOUT
  5
21
102
{ACAD_REACTORS
330
19
102
}
330
19
100
AcDbPlotSettings
  1

  2
PDF reDirect v2
  4

  6

 40
0.0
 41
0.0
 42
0.0
 43
0.0
 44
0.0
 45
0.0
 46
0.0
 47
0.0
 48
0.0
 49
0.0
140
0.0
141
0.0
142
1.0
143
1.0
 70
   688
 72
     0
 73
     0
 74
     5
  7
C:\Users\ck\AppData\Roaming\Autodesk\AutoCAD 2005\R16.1\jpn\Plot Styles\black.ctb
 75
    16
147
1.0
 76
     0
 77
     2
 78
   300
148
0.0
149
0.0
100
AcDbLayout
  1
レイアウト1
 70
     1
 71
     1
 10
-423.0
 20
-2.0
 11
-5.0
 21
293.0
 12
0.0
 22
0.0
 32
0.0
 14
1.000000000000000E+20
 24
1.000000000000000E+20
 34
1.000000000000000E+20
 15
-1.000000000000000E+20
 25
-1.000000000000000E+20
 35
-1.000000000000000E+20
146
0.0
 13
0.0
 23
0.0
 33
0.0
 16
1.0
 26
0.0
 36
0.0
 17
0.0
 27
1.0
 37
0.0
 76
     0
330
1E
  0
MLINESTYLE
  5
17
102
{ACAD_REACTORS
330
16
102
}
330
16
100
AcDbMlineStyle
  2
STANDARD
 70
     0
  3

 62
   256
 51
90.0
 52
90.0
 71
     2
 49
0.5
 62
   256
  6
BYLAYER
 49
-0.5
 62
   256
  6
BYLAYER
  0
ACDBPLACEHOLDER
  5
F
102
{ACAD_REACTORS
330
E
102
}
330
E
  0
TABLESTYLE
  5
1D
102
{ACAD_REACTORS
330
1C
102
}
330
1C
100
AcDbTableStyle
  3
Standard
 70
     0
 71
     0
 40
0.06
 41
0.06
280
     0
281
     0
  7
STANDARD
140
0.18
170
     2
 62
     0
 63
     7
283
     0
274
    -2
284
     1
 64
     0
275
    -2
285
     1
 65
     0
276
    -2
286
     1
 66
     0
277
    -2
287
     1
 67
     0
278
    -2
288
     1
 68
     0
279
    -2
289
     1
 69
     0
  7
STANDARD
140
0.25
170
     5
 62
     0
 63
     7
283
     0
274
    -2
284
     1
 64
     0
275
    -2
285
     1
 65
     0
276
    -2
286
     1
 66
     0
277
    -2
287
     1
 67
     0
278
    -2
288
     1
 68
     0
279
    -2
289
     1
 69
     0
  7
STANDARD
140
0.18
170
     5
 62
     0
 63
     7
283
     0
274
    -2
284
     1
 64
     0
275
    -2
285
     1
 65
     0
276
    -2
286
     1
 66
     0
277
    -2
287
     1
 67
     0
278
    -2
288
     1
 68
     0
279
    -2
289
     1
 69
     0
  0
DICTIONARYVAR
  5
13C
102
{ACAD_REACTORS
330
13B
102
}
330
13B
100
DictionaryVariables
280
     0
  1
STANDARD
  0
ENDSEC
  0
EOF
