  0
SECTION
  2
HEADER
  9
$ACADVER
  1
AC1018
  9
$ACADMAINTVER
 70
    39
  9
$DWGCODEPAGE
  3
ANSI_932
  9
$INSBASE
 10
0.0
 20
0.0
 30
0.0
  9
$EXTMIN
 10
-506.4736313345767
 20
69.41366682552462
 30
-0.0015258207003583
  9
$EXTMAX
 10
-64.70483268134376
 20
342.1762704162118
 30
0.0000000349246037
  9
$LIMMIN
 10
-592.0
 20
0.0
  9
$LIMMAX
 10
0.0
 20
418.0
  9
$ORTHOMODE
 70
     0
  9
$REGENMODE
 70
     1
  9
$FILLMODE
 70
     1
  9
$QTEXTMODE
 70
     0
  9
$MIRRTEXT
 70
     0
  9
$LTSCALE
 40
1.0
  9
$ATTMODE
 70
     1
  9
$TEXTSIZE
 40
0.2
  9
$TRACEWID
 40
0.05
  9
$TEXTSTYLE
  7
STANDARD
  9
$CLAYER
  8
0
  9
$CELTYPE
  6
CONTINUOUS
  9
$CECOLOR
 62
   256
  9
$CELTSCALE
 40
1.0
  9
$DISPSILH
 70
     0
  9
$DIMSCALE
 40
1.0
  9
$DIMASZ
 40
1.0
  9
$DIMEXO
 40
2.54
  9
$DIMDLI
 40
0.38
  9
$DIMRND
 40
0.0
  9
$DIMDLE
 40
0.0
  9
$DIMEXE
 40
2.54
  9
$DIMTP
 40
0.0
  9
$DIMTM
 40
0.0
  9
$DIMTXT
 40
3.0
  9
$DIMCEN
 40
0.09
  9
$DIMTSZ
 40
0.0
  9
$DIMTOL
 70
     0
  9
$DIMLIM
 70
     0
  9
$DIMTIH
 70
     0
  9
$DIMTOH
 70
     0
  9
$DIMSE1
 70
     0
  9
$DIMSE2
 70
     0
  9
$DIMTAD
 70
     1
  9
$DIMZIN
 70
     0
  9
$DIMBLK
  1

  9
$DIMASO
 70
     1
  9
$DIMSHO
 70
     0
  9
$DIMPOST
  1

  9
$DIMAPOST
  1

  9
$DIMALT
 70
     0
  9
$DIMALTD
 70
     2
  9
$DIMALTF
 40
25.4
  9
$DIMLFAC
 40
1.0
  9
$DIMTOFL
 70
     0
  9
$DIMTVP
 40
1.0
  9
$DIMTIX
 70
     0
  9
$DIMSOXD
 70
     0
  9
$DIMSAH
 70
     1
  9
$DIMBLK1
  1

  9
$DIMBLK2
  1

  9
$DIMSTYLE
  2
DIMSTYLE1
  9
$DIMCLRD
 70
     0
  9
$DIMCLRE
 70
     0
  9
$DIMCLRT
 70
     0
  9
$DIMTFAC
 40
1.0
  9
$DIMGAP
 40
1.5
  9
$DIMJUST
 70
     0
  9
$DIMSD1
 70
     0
  9
$DIMSD2
 70
     0
  9
$DIMTOLJ
 70
     1
  9
$DIMTZIN
 70
     0
  9
$DIMALTZ
 70
     0
  9
$DIMALTTZ
 70
     0
  9
$DIMUPT
 70
     0
  9
$DIMDEC
 70
     4
  9
$DIMTDEC
 70
     4
  9
$DIMALTU
 70
     2
  9
$DIMALTTD
 70
     2
  9
$DIMTXSTY
  7
STANDARD
  9
$DIMAUNIT
 70
     0
  9
$DIMADEC
 70
     0
  9
$DIMALTRND
 40
0.0
  9
$DIMAZIN
 70
     0
  9
$DIMDSEP
 70
    46
  9
$DIMATFIT
 70
     3
  9
$DIMFRAC
 70
     0
  9
$DIMLDRBLK
  1

  9
$DIMLUNIT
 70
     2
  9
$DIMLWD
 70
    -2
  9
$DIMLWE
 70
    -2
  9
$DIMTMOVE
 70
     0
  9
$LUNITS
 70
     2
  9
$LUPREC
 70
     4
  9
$SKETCHINC
 40
0.1
  9
$FILLETRAD
 40
0.0
  9
$AUNITS
 70
     0
  9
$AUPREC
 70
     0
  9
$MENU
  1
.
  9
$ELEVATION
 40
0.0
  9
$PELEVATION
 40
0.0
  9
$THICKNESS
 40
0.0
  9
$LIMCHECK
 70
     0
  9
$CHAMFERA
 40
0.0
  9
$CHAMFERB
 40
0.0
  9
$CHAMFERC
 40
0.0
  9
$CHAMFERD
 40
0.0
  9
$SKPOLY
 70
     0
  9
$TDCREATE
 40
2457843.598490255
  9
$TDUCREATE
 40
2457843.223490255
  9
$TDUPDATE
 40
2457843.599026783
  9
$TDUUPDATE
 40
2457843.224026782
  9
$TDINDWG
 40
0.0005380324
  9
$TDUSRTIMER
 40
0.0005380324
  9
$USRTIMER
 70
     1
  9
$ANGBASE
 50
0.0
  9
$ANGDIR
 70
     0
  9
$PDMODE
 70
     0
  9
$PDSIZE
 40
0.0
  9
$PLINEWID
 40
0.0
  9
$SPLFRAME
 70
     0
  9
$SPLINETYPE
 70
     6
  9
$SPLINESEGS
 70
     8
  9
$HANDSEED
  5
1FE
  9
$SURFTAB1
 70
     6
  9
$SURFTAB2
 70
     6
  9
$SURFTYPE
 70
     6
  9
$SURFU
 70
     6
  9
$SURFV
 70
     6
  9
$UCSBASE
  2

  9
$UCSNAME
  2

  9
$UCSORG
 10
0.0
 20
0.0
 30
0.0
  9
$UCSXDIR
 10
1.0
 20
0.0
 30
0.0
  9
$UCSYDIR
 10
0.0
 20
1.0
 30
0.0
  9
$UCSORTHOREF
  2

  9
$UCSORTHOVIEW
 70
     0
  9
$UCSORGTOP
 10
0.0
 20
0.0
 30
0.0
  9
$UCSORGBOTTOM
 10
0.0
 20
0.0
 30
0.0
  9
$UCSORGLEFT
 10
0.0
 20
0.0
 30
0.0
  9
$UCSORGRIGHT
 10
0.0
 20
0.0
 30
0.0
  9
$UCSORGFRONT
 10
0.0
 20
0.0
 30
0.0
  9
$UCSORGBACK
 10
0.0
 20
0.0
 30
0.0
  9
$PUCSBASE
  2

  9
$PUCSNAME
  2

  9
$PUCSORG
 10
0.0
 20
0.0
 30
0.0
  9
$PUCSXDIR
 10
1.0
 20
0.0
 30
0.0
  9
$PUCSYDIR
 10
0.0
 20
1.0
 30
0.0
  9
$PUCSORTHOREF
  2

  9
$PUCSORTHOVIEW
 70
     0
  9
$PUCSORGTOP
 10
0.0
 20
0.0
 30
0.0
  9
$PUCSORGBOTTOM
 10
0.0
 20
0.0
 30
0.0
  9
$PUCSORGLEFT
 10
0.0
 20
0.0
 30
0.0
  9
$PUCSORGRIGHT
 10
0.0
 20
0.0
 30
0.0
  9
$PUCSORGFRONT
 10
0.0
 20
0.0
 30
0.0
  9
$PUCSORGBACK
 10
0.0
 20
0.0
 30
0.0
  9
$USERI1
 70
     0
  9
$USERI2
 70
     0
  9
$USERI3
 70
     0
  9
$USERI4
 70
     0
  9
$USERI5
 70
     0
  9
$USERR1
 40
0.0
  9
$USERR2
 40
0.0
  9
$USERR3
 40
0.0
  9
$USERR4
 40
0.0
  9
$USERR5
 40
0.0
  9
$WORLDVIEW
 70
     1
  9
$SHADEDGE
 70
     3
  9
$SHADEDIF
 70
    70
  9
$TILEMODE
 70
     1
  9
$MAXACTVP
 70
    64
  9
$PINSBASE
 10
0.0
 20
0.0
 30
0.0
  9
$PLIMCHECK
 70
     0
  9
$PEXTMIN
 10
1.000000000000000E+20
 20
1.000000000000000E+20
 30
1.000000000000000E+20
  9
$PEXTMAX
 10
-1.000000000000000E+20
 20
-1.000000000000000E+20
 30
-1.000000000000000E+20
  9
$PLIMMIN
 10
-592.0
 20
0.0
  9
$PLIMMAX
 10
0.0
 20
418.0
  9
$UNITMODE
 70
     0
  9
$VISRETAIN
 70
     1
  9
$PLINEGEN
 70
     0
  9
$PSLTSCALE
 70
     1
  9
$TREEDEPTH
 70
  3020
  9
$CMLSTYLE
  2
Standard
  9
$CMLJUST
 70
     0
  9
$CMLSCALE
 40
1.0
  9
$PROXYGRAPHICS
 70
     1
  9
$MEASUREMENT
 70
     0
  9
$CELWEIGHT
370
    -1
  9
$ENDCAPS
280
     0
  9
$JOINSTYLE
280
     0
  9
$LWDISPLAY
290
     0
  9
$INSUNITS
 70
     0
  9
$HYPERLINKBASE
  1

  9
$STYLESHEET
  1

  9
$XEDIT
290
     1
  9
$CEPSNTYPE
380
     0
  9
$PSTYLEMODE
290
     1
  9
$FINGERPRINTGUID
  2
{0AA3026A-252B-47C6-A7A4-0F9A7B8B1E04}
  9
$VERSIONGUID
  2
{E314DFBC-E9DD-4E76-84A6-B57D27819C7E}
  9
$EXTNAMES
290
     1
  9
$PSVPSCALE
 40
0.0
  9
$OLESTARTUP
290
     0
  9
$SORTENTS
280
   127
  9
$INDEXCTL
280
     0
  9
$HIDETEXT
280
     0
  9
$XCLIPFRAME
290
     0
  9
$HALOGAP
280
     0
  9
$OBSCOLOR
 70
   257
  9
$OBSLTYPE
280
     0
  9
$INTERSECTIONDISPLAY
280
     0
  9
$INTERSECTIONCOLOR
 70
   257
  9
$DIMASSOC
280
     1
  9
$PROJECTNAME
  1

  0
ENDSEC
  0
SECTION
  2
CLASSES
  0
CLASS
  1
ACDBDICTIONARYWDFLT
  2
AcDbDictionaryWithDefault
  3
ObjectDBX Classes
 90
        0
 91
        1
280
     0
281
     0
  0
CLASS
  1
TABLESTYLE
  2
AcDbTableStyle
  3
ObjectDBX Classes
 90
     2047
 91
        1
280
     0
281
     0
  0
CLASS
  1
DICTIONARYVAR
  2
AcDbDictionaryVar
  3
ObjectDBX Classes
 90
        0
 91
        1
280
     0
281
     0
  0
ENDSEC
  0
SECTION
  2
TABLES
  0
TABLE
  2
VPORT
  5
8
330
0
100
AcDbSymbolTable
 70
     2
  0
VPORT
  5
1FD
330
8
100
AcDbSymbolTableRecord
100
AcDbViewportTableRecord
  2
*Active
 70
     0
 10
0.0
 20
0.0
 11
1.0
 21
1.0
 12
-296.0
 22
209.0
 13
0.0
 23
0.0
 14
1.0
 24
1.0
 15
0.0
 25
0.0
 16
0.0
 26
0.0
 36
1.0
 17
0.0
 27
0.0
 37
0.0
 40
421.3043478260869
 41
1.707124010554089
 42
50.0
 43
0.0
 44
0.0
 50
0.0
 51
0.0
 71
     0
 72
   100
 73
     1
 74
     1
 75
     0
 76
     0
 77
     0
 78
     0
281
     0
 65
     1
110
0.0
120
0.0
130
0.0
111
1.0
121
0.0
131
0.0
112
0.0
122
1.0
132
0.0
 79
     0
146
0.0
  0
ENDTAB
  0
TABLE
  2
LTYPE
  5
5
330
0
100
AcDbSymbolTable
 70
     6
  0
LTYPE
  5
13
330
5
100
AcDbSymbolTableRecord
100
AcDbLinetypeTableRecord
  2
ByBlock
 70
     0
  3

 72
    65
 73
     0
 40
0.0
  0
LTYPE
  5
14
330
5
100
AcDbSymbolTableRecord
100
AcDbLinetypeTableRecord
  2
ByLayer
 70
     0
  3

 72
    65
 73
     0
 40
0.0
  0
LTYPE
  5
15
330
5
100
AcDbSymbolTableRecord
100
AcDbLinetypeTableRecord
  2
CONTINUOUS
 70
     0
  3
Solid line
 72
    65
 73
     0
 40
0.0
  0
LTYPE
  5
26
330
5
100
AcDbSymbolTableRecord
100
AcDbLinetypeTableRecord
  2
DASHED
 70
     0
  3
__ __ __ __ __ __ __ __ __ __ __ __ __ __ __
 72
    65
 73
     2
 40
3.5
 49
2.0
 74
     0
 49
-1.5
 74
     0
  0
LTYPE
  5
27
330
5
100
AcDbSymbolTableRecord
100
AcDbLinetypeTableRecord
  2
CENTER
 70
     0
  3
____ _ ____ _ ____ _ ____ _ ____ _ ____ _ ____
 72
    65
 73
     4
 40
17.5
 49
13.0
 74
     0
 49
-1.5
 74
     0
 49
1.5
 74
     0
 49
-1.5
 74
     0
  0
LTYPE
  5
28
330
5
100
AcDbSymbolTableRecord
100
AcDbLinetypeTableRecord
  2
PHANTOM
 70
     0
  3
_____ _ _ _____ _ _ _____ _ _ _____ _ _ ____  
 72
    65
 73
     6
 40
15.5
 49
8.0
 74
     0
 49
-1.5
 74
     0
 49
1.5
 74
     0
 49
-1.5
 74
     0
 49
1.5
 74
     0
 49
-1.5
 74
     0
  0
LTYPE
  5
29
330
5
100
AcDbSymbolTableRecord
100
AcDbLinetypeTableRecord
  2
DOT
 70
     0
  3
. . . . . . . . . . . . . . . . . . . . . . . .
 72
    65
 73
     2
 40
0.25
 49
0.0
 74
     0
 49
-0.25
 74
     0
  0
LTYPE
  5
2A
330
5
100
AcDbSymbolTableRecord
100
AcDbLinetypeTableRecord
  2
HIDDEN
 70
     0
  3
__ __ __ __ __ __ __ __ __ __ __ __ __ __ __
 72
    65
 73
     2
 40
3.5
 49
2.0
 74
     0
 49
-1.5
 74
     0
  0
ENDTAB
  0
TABLE
  2
LAYER
  5
2
330
0
100
AcDbSymbolTable
 70
     2
  0
LAYER
  5
10
330
2
100
AcDbSymbolTableRecord
100
AcDbLayerTableRecord
  2
0
 70
     0
 62
     7
  6
CONTINUOUS
370
    -3
390
F
  0
LAYER
  5
2B
330
2
100
AcDbSymbolTableRecord
100
AcDbLayerTableRecord
  2
DEFPOINTS
 70
     0
 62
     7
  6
CONTINUOUS
290
     0
370
    -3
390
F
  0
ENDTAB
  0
TABLE
  2
STYLE
  5
3
330
0
100
AcDbSymbolTable
 70
     2
  0
STYLE
  5
11
330
3
100
AcDbSymbolTableRecord
100
AcDbTextStyleTableRecord
  2
STANDARD
 70
     0
 40
0.0
 41
1.0
 50
0.0
 71
     0
 42
0.2
  3

  4

1001
ACAD
1000
MS Gothic
1071
    32817
  0
ENDTAB
  0
TABLE
  2
VIEW
  5
6
330
0
100
AcDbSymbolTable
 70
     0
  0
ENDTAB
  0
TABLE
  2
UCS
  5
7
330
0
100
AcDbSymbolTable
 70
     0
  0
ENDTAB
  0
TABLE
  2
APPID
  5
9
330
0
100
AcDbSymbolTable
 70
     2
  0
APPID
  5
12
330
9
100
AcDbSymbolTableRecord
100
AcDbRegAppTableRecord
  2
ACAD
 70
     0
  0
APPID
  5
1F2
330
9
100
AcDbSymbolTableRecord
100
AcDbRegAppTableRecord
  2
ACAD_PSEXT
 70
     0
  0
ENDTAB
  0
TABLE
  2
DIMSTYLE
  5
A
330
0
100
AcDbSymbolTable
 70
    12
100
AcDbDimStyleTable
 71
     1
340
2C
  0
DIMSTYLE
105
2C
102
{ACAD_REACTORS
330
1E3
102
}
330
A
100
AcDbSymbolTableRecord
100
AcDbDimStyleTableRecord
  2
DIMSTYLE1
 70
     0
 41
1.0
 42
2.54
 44
2.54
 73
     0
 74
     0
 77
     1
140
3.0
145
1.0
147
1.5
172
     1
173
     1
279
     2
340
11
  0
DIMSTYLE
105
2D
102
{ACAD_REACTORS
330
1E4
102
}
330
A
100
AcDbSymbolTableRecord
100
AcDbDimStyleTableRecord
  2
DIMSTYLE2
 70
     0
 41
1.0
 42
2.54
 44
2.54
 73
     0
 74
     0
 77
     1
140
3.0
145
1.0
147
1.5
172
     1
173
     1
279
     2
340
11
  0
DIMSTYLE
105
2E
102
{ACAD_REACTORS
330
1E5
102
}
330
A
100
AcDbSymbolTableRecord
100
AcDbDimStyleTableRecord
  2
DIMSTYLE3
 70
     0
 41
1.0
 42
2.54
 44
2.54
 73
     0
 74
     0
 77
     1
140
3.0
145
1.0
147
1.5
172
     1
173
     1
279
     2
340
11
  0
DIMSTYLE
105
2F
102
{ACAD_REACTORS
330
1E7
102
}
330
A
100
AcDbSymbolTableRecord
100
AcDbDimStyleTableRecord
  2
DIMSTYLE4
 70
     0
 41
1.0
 42
2.54
 44
2.54
 73
     0
 74
     0
 77
     1
140
3.0
145
1.0
147
1.5
172
     1
173
     1
279
     2
340
11
  0
DIMSTYLE
105
30
102
{ACAD_REACTORS
330
1E8
102
}
330
A
100
AcDbSymbolTableRecord
100
AcDbDimStyleTableRecord
  2
DIMSTYLE5
 70
     0
 41
1.0
 42
2.54
 44
2.54
 73
     0
 74
     0
 77
     1
140
3.0
145
1.0
147
1.5
172
     1
173
     1
279
     2
340
11
  0
DIMSTYLE
105
31
102
{ACAD_REACTORS
330
1E9
102
}
330
A
100
AcDbSymbolTableRecord
100
AcDbDimStyleTableRecord
  2
DIMSTYLE6
 70
     0
 41
1.0
 42
2.54
 44
2.54
 73
     0
 74
     0
 77
     1
140
3.0
145
1.0
147
1.5
172
     1
173
     1
279
     2
340
11
  0
DIMSTYLE
105
32
102
{ACAD_REACTORS
330
1EA
102
}
330
A
100
AcDbSymbolTableRecord
100
AcDbDimStyleTableRecord
  2
DIMSTYLE7
 70
     0
 41
1.0
 42
2.54
 44
2.54
 73
     0
 74
     0
 77
     1
140
3.0
145
1.0
147
1.5
172
     1
173
     1
279
     2
340
11
  0
DIMSTYLE
105
33
102
{ACAD_REACTORS
330
1EB
102
}
330
A
100
AcDbSymbolTableRecord
100
AcDbDimStyleTableRecord
  2
DIMSTYLE8
 70
     0
 41
1.0
 42
2.54
 44
2.54
 73
     0
 74
     0
 75
     1
 76
     1
 77
     1
140
3.0
145
1.0
147
1.5
172
     1
173
     1
279
     2
340
11
  0
DIMSTYLE
105
34
102
{ACAD_REACTORS
330
1EC
102
}
330
A
100
AcDbSymbolTableRecord
100
AcDbDimStyleTableRecord
  2
DIMSTYLE9
 70
     0
 41
1.0
 42
2.54
 44
2.54
 73
     0
 74
     0
 75
     1
 76
     1
 77
     1
140
3.0
145
1.0
147
1.5
172
     1
173
     1
279
     2
340
11
  0
DIMSTYLE
105
35
102
{ACAD_REACTORS
330
1ED
102
}
330
A
100
AcDbSymbolTableRecord
100
AcDbDimStyleTableRecord
  2
DIMSTYLE10
 70
     0
 41
1.0
 42
2.54
 44
2.54
 73
     0
 74
     0
 75
     1
 76
     1
 77
     1
140
3.0
145
1.0
147
1.5
172
     1
173
     1
279
     2
340
11
  0
DIMSTYLE
105
36
102
{ACAD_REACTORS
330
1EE
102
}
330
A
100
AcDbSymbolTableRecord
100
AcDbDimStyleTableRecord
  2
DIMSTYLE11
 70
     0
 41
1.0
 42
2.54
 44
2.54
 73
     0
 74
     0
 75
     1
 76
     1
 77
     1
140
3.0
145
1.0
147
1.5
172
     1
173
     1
279
     2
340
11
  0
ENDTAB
  0
TABLE
  2
BLOCK_RECORD
  5
1
330
0
100
AcDbSymbolTable
 70
    15
  0
BLOCK_RECORD
  5
22
330
1
100
AcDbSymbolTableRecord
100
AcDbBlockTableRecord
  2
*Model_Space
340
25
  0
BLOCK_RECORD
  5
1E
330
1
100
AcDbSymbolTableRecord
100
AcDbBlockTableRecord
  2
*Paper_Space
340
21
  0
BLOCK_RECORD
  5
3A
330
1
100
AcDbSymbolTableRecord
100
AcDbBlockTableRecord
  2
_OPEN30
340
0
102
{BLKREFS
331
44
331
46
331
51
331
52
331
5D
331
5E
331
69
331
6A
331
75
331
76
331
80
331
81
331
8B
331
8C
331
96
331
97
331
A0
331
A1
331
AA
331
AB
331
B4
331
B5
102
}
  0
BLOCK_RECORD
  5
40
330
1
100
AcDbSymbolTableRecord
100
AcDbBlockTableRecord
  2
*D1
340
0
  0
BLOCK_RECORD
  5
4E
330
1
100
AcDbSymbolTableRecord
100
AcDbBlockTableRecord
  2
*D2
340
0
  0
BLOCK_RECORD
  5
5A
330
1
100
AcDbSymbolTableRecord
100
AcDbBlockTableRecord
  2
*D3
340
0
  0
BLOCK_RECORD
  5
66
330
1
100
AcDbSymbolTableRecord
100
AcDbBlockTableRecord
  2
*D4
340
0
  0
BLOCK_RECORD
  5
72
330
1
100
AcDbSymbolTableRecord
100
AcDbBlockTableRecord
  2
*D5
340
0
  0
BLOCK_RECORD
  5
7D
330
1
100
AcDbSymbolTableRecord
100
AcDbBlockTableRecord
  2
*D6
340
0
  0
BLOCK_RECORD
  5
88
330
1
100
AcDbSymbolTableRecord
100
AcDbBlockTableRecord
  2
*D7
340
0
  0
BLOCK_RECORD
  5
92
330
1
100
AcDbSymbolTableRecord
100
AcDbBlockTableRecord
  2
*D8
340
0
  0
BLOCK_RECORD
  5
9C
330
1
100
AcDbSymbolTableRecord
100
AcDbBlockTableRecord
  2
*D9
340
0
  0
BLOCK_RECORD
  5
A6
330
1
100
AcDbSymbolTableRecord
100
AcDbBlockTableRecord
  2
*D10
340
0
  0
BLOCK_RECORD
  5
B0
330
1
100
AcDbSymbolTableRecord
100
AcDbBlockTableRecord
  2
*D11
340
0
  0
BLOCK_RECORD
  5
BA
330
1
100
AcDbSymbolTableRecord
100
AcDbBlockTableRecord
  2
KOZU0001
340
0
102
{BLKREFS
331
1E6
102
}
  0
BLOCK_RECORD
  5
C3
330
1
100
AcDbSymbolTableRecord
100
AcDbBlockTableRecord
  2
KOZU0002
340
0
102
{BLKREFS
331
1EF
102
}
  0
ENDTAB
  0
ENDSEC
  0
SECTION
  2
BLOCKS
  0
BLOCK
  5
23
330
22
100
AcDbEntity
  8
0
100
AcDbBlockBegin
  2
*Model_Space
 70
     0
 10
0.0
 20
0.0
 30
0.0
  3
*Model_Space
  1

  0
ENDBLK
  5
24
330
22
100
AcDbEntity
  8
0
100
AcDbBlockEnd
  0
BLOCK
  5
1F
330
1E
100
AcDbEntity
 67
     1
  8
0
100
AcDbBlockBegin
  2
*Paper_Space
 70
     0
 10
0.0
 20
0.0
 30
0.0
  3
*Paper_Space
  1

  0
ENDBLK
  5
20
330
1E
100
AcDbEntity
 67
     1
  8
0
100
AcDbBlockEnd
  0
BLOCK
  5
3B
330
3A
100
AcDbEntity
  8
0
100
AcDbBlockBegin
  2
_OPEN30
 70
     0
 10
0.0
 20
0.0
 30
0.0
  3
_OPEN30
  1

  0
LINE
  5
3C
330
3A
100
AcDbEntity
  8
0
  6
ByBlock
 62
     0
100
AcDbLine
 10
0.0
 20
0.0
 30
0.0
 11
-2.999999999999993
 21
-1.000000000000017
 31
0.0
  0
LINE
  5
3D
330
3A
100
AcDbEntity
  8
0
  6
ByBlock
 62
     0
100
AcDbLine
 10
0.0
 20
0.0
 30
0.0
 11
-3.000000000000006
 21
0.9999999999999815
 31
0.0
  0
LINE
  5
3E
330
3A
100
AcDbEntity
  8
0
  6
ByBlock
 62
     0
100
AcDbLine
 10
0.0
 20
0.0
 30
0.0
 11
-3.0
 21
0.0
 31
0.0
  0
ENDBLK
  5
3F
330
3A
100
AcDbEntity
  8
0
100
AcDbBlockEnd
  0
BLOCK
  5
41
330
40
100
AcDbEntity
  8
0
100
AcDbBlockBegin
  2
*D1
 70
     1
 10
0.0
 20
0.0
 30
0.0
  3
*D1
  1

  0
LINE
  5
42
330
40
100
AcDbEntity
  8
0
  6
Continuous
 62
     7
100
AcDbLine
 10
-144.7904510498046
 20
335.69775390625
 30
0.0
 11
-137.7913513183594
 21
335.69775390625
 31
0.0
  0
LINE
  5
43
330
40
100
AcDbEntity
  8
0
  6
Continuous
 62
     7
100
AcDbLine
 10
-147.7904510498047
 20
335.69775390625
 30
0.0
 11
-144.7904510498046
 21
335.69775390625
 31
0.0
  0
INSERT
  5
44
330
40
100
AcDbEntity
  8
0
  6
Continuous
 62
     7
100
AcDbBlockReference
  2
_OPEN30
 10
-147.7904510498047
 20
335.69775390625
 30
0.0
 50
0.0000000000003562
  0
LINE
  5
45
330
40
100
AcDbEntity
  8
0
  6
Continuous
 62
     7
100
AcDbLine
 10
-150.7904510498047
 20
335.69775390625
 30
0.0
 11
-154.1404510498047
 21
335.6977539062499
 31
0.0
  0
INSERT
  5
46
330
40
100
AcDbEntity
  8
0
  6
Continuous
 62
     7
100
AcDbBlockReference
  2
_OPEN30
 10
-144.7904510498046
 20
335.69775390625
 30
0.0
 50
180.0
  0
LINE
  5
47
330
40
100
AcDbEntity
  8
0
  6
Continuous
 62
     7
100
AcDbLine
 10
-141.7904510498047
 20
335.69775390625
 30
0.0
 11
-138.4404510498047
 21
335.69775390625
 31
0.0
  0
LINE
  5
48
330
40
100
AcDbEntity
  8
0
  6
Continuous
 62
     7
100
AcDbLine
 10
-144.7904510498046
 20
313.4079504394532
 30
0.0
 11
-144.7904510498046
 21
337.9837341308594
 31
0.0
  0
TEXT
  5
49
330
40
100
AcDbEntity
  8
0
  6
Continuous
 62
     7
100
AcDbText
 10
-139.9313586950302
 20
336.44775390625
 30
0.0
 40
3.0
  1
3
100
AcDbText
  0
POINT
  5
4A
330
40
100
AcDbEntity
  8
DEFPOINTS
  6
Continuous
 62
     7
100
AcDbPoint
 10
-147.7904510498047
 20
315.9647827148438
 30
0.0
  0
POINT
  5
4B
330
40
100
AcDbEntity
  8
DEFPOINTS
  6
Continuous
 62
     7
100
AcDbPoint
 10
-144.7904510498046
 20
310.8679504394531
 30
0.0
  0
POINT
  5
4C
330
40
100
AcDbEntity
  8
DEFPOINTS
  6
Continuous
 62
     7
100
AcDbPoint
 10
-144.7904510498046
 20
335.69775390625
 30
0.0
  0
ENDBLK
  5
4D
330
40
100
AcDbEntity
  8
0
100
AcDbBlockEnd
  0
BLOCK
  5
4F
330
4E
100
AcDbEntity
  8
0
100
AcDbBlockBegin
  2
*D2
 70
     1
 10
0.0
 20
0.0
 30
0.0
  3
*D2
  1

  0
LINE
  5
50
330
4E
100
AcDbEntity
  8
0
  6
Continuous
 62
     7
100
AcDbLine
 10
-177.7929534912109
 20
98.45533752441406
 30
0.0
 11
-102.7929534912109
 21
98.45533752441404
 31
0.0
  0
INSERT
  5
51
330
4E
100
AcDbEntity
  8
0
  6
Continuous
 62
     7
100
AcDbBlockReference
  2
_OPEN30
 10
-180.7929534912109
 20
98.45533752441406
 30
0.0
 50
180.0000000000004
  0
INSERT
  5
52
330
4E
100
AcDbEntity
  8
0
  6
Continuous
 62
     7
100
AcDbBlockReference
  2
_OPEN30
 10
-99.79295349121095
 20
98.45533752441406
 30
0.0
  0
LINE
  5
53
330
4E
100
AcDbEntity
  8
0
  6
Continuous
 62
     7
100
AcDbLine
 10
-180.7929534912109
 20
162.3279351806641
 30
0.0
 11
-180.7929534912109
 21
96.16933441162109
 31
0.0
  0
LINE
  5
54
330
4E
100
AcDbEntity
  8
0
  6
Continuous
 62
     7
100
AcDbLine
 10
-99.79295349121093
 20
162.3279351806641
 30
0.0
 11
-99.79295349121095
 21
96.16933441162109
 31
0.0
  0
TEXT
  5
55
330
4E
100
AcDbEntity
  8
0
  6
Continuous
 62
     7
100
AcDbText
 10
-142.8629536032677
 20
99.20533752441407
 30
0.0
 40
3.0
  1
81
 41
1.186153870362501
100
AcDbText
  0
POINT
  5
56
330
4E
100
AcDbEntity
  8
DEFPOINTS
  6
Continuous
 62
     7
100
AcDbPoint
 10
-180.7929534912109
 20
164.8679351806641
 30
0.0
  0
POINT
  5
57
330
4E
100
AcDbEntity
  8
DEFPOINTS
  6
Continuous
 62
     7
100
AcDbPoint
 10
-99.79295349121095
 20
164.8679351806641
 30
0.0
  0
POINT
  5
58
330
4E
100
AcDbEntity
  8
DEFPOINTS
  6
Continuous
 62
     7
100
AcDbPoint
 10
-99.79295349121095
 20
98.45533752441406
 30
0.0
  0
ENDBLK
  5
59
330
4E
100
AcDbEntity
  8
0
100
AcDbBlockEnd
  0
BLOCK
  5
5B
330
5A
100
AcDbEntity
  8
0
100
AcDbBlockBegin
  2
*D3
 70
     1
 10
0.0
 20
0.0
 30
0.0
  3
*D3
  1

  0
LINE
  5
5C
330
5A
100
AcDbEntity
  8
0
  6
Continuous
 62
     7
100
AcDbLine
 10
-70.39951324462892
 20
167.8679351806641
 30
0.0
 11
-70.39951324462887
 21
258.867950439453
 31
0.0
  0
INSERT
  5
5D
330
5A
100
AcDbEntity
  8
0
  6
Continuous
 62
     7
100
AcDbBlockReference
  2
_OPEN30
 10
-70.3995132446289
 20
164.8679351806641
 30
0.0
 50
270.0000000000005
  0
INSERT
  5
5E
330
5A
100
AcDbEntity
  8
0
  6
Continuous
 62
     7
100
AcDbBlockReference
  2
_OPEN30
 10
-70.3995132446289
 20
261.8679504394531
 30
0.0
 50
90.00000000000019
  0
LINE
  5
5F
330
5A
100
AcDbEntity
  8
0
  6
Continuous
 62
     7
100
AcDbLine
 10
-97.25295349121092
 20
164.8679351806641
 30
0.0
 11
-68.11351013183593
 21
164.8679351806641
 31
0.0
  0
LINE
  5
60
330
5A
100
AcDbEntity
  8
0
  6
Continuous
 62
     7
100
AcDbLine
 10
-97.25295349121092
 20
261.8679504394531
 30
0.0
 11
-68.11351013183593
 21
261.8679504394531
 31
0.0
  0
TEXT
  5
61
330
5A
100
AcDbEntity
  8
0
  6
Continuous
 62
     7
100
AcDbText
 10
-71.14951306672354
 20
209.2979349762192
 30
0.0
 40
3.0
  1
%%C97
 50
90.00000250447815
 41
0.9498249830693319
100
AcDbText
  0
POINT
  5
62
330
5A
100
AcDbEntity
  8
DEFPOINTS
  6
Continuous
 62
     7
100
AcDbPoint
 10
-99.79295349121095
 20
164.8679351806641
 30
0.0
  0
POINT
  5
63
330
5A
100
AcDbEntity
  8
DEFPOINTS
  6
Continuous
 62
     7
100
AcDbPoint
 10
-99.79295349121095
 20
261.8679504394531
 30
0.0
  0
POINT
  5
64
330
5A
100
AcDbEntity
  8
DEFPOINTS
  6
Continuous
 62
     7
100
AcDbPoint
 10
-70.3995132446289
 20
261.8679504394531
 30
0.0
  0
ENDBLK
  5
65
330
5A
100
AcDbEntity
  8
0
100
AcDbBlockEnd
  0
BLOCK
  5
67
330
66
100
AcDbEntity
  8
0
100
AcDbBlockBegin
  2
*D4
 70
     1
 10
0.0
 20
0.0
 30
0.0
  3
*D4
  1

  0
LINE
  5
68
330
66
100
AcDbEntity
  8
0
  6
Continuous
 62
     7
100
AcDbLine
 10
-150.7929534912109
 20
335.69775390625
 30
0.0
 11
-207.7929534912109
 21
335.69775390625
 31
0.0
  0
INSERT
  5
69
330
66
100
AcDbEntity
  8
0
  6
Continuous
 62
     7
100
AcDbBlockReference
  2
_OPEN30
 10
-147.7929534912109
 20
335.69775390625
 30
0.0
  0
INSERT
  5
6A
330
66
100
AcDbEntity
  8
0
  6
Continuous
 62
     7
100
AcDbBlockReference
  2
_OPEN30
 10
-210.7929534912109
 20
335.69775390625
 30
0.0
 50
180.0000000000004
  0
LINE
  5
6B
330
66
100
AcDbEntity
  8
0
  6
Continuous
 62
     7
100
AcDbLine
 10
-147.7929534912109
 20
313.4079504394532
 30
0.0
 11
-147.7929534912109
 21
337.9837341308594
 31
0.0
  0
LINE
  5
6C
330
66
100
AcDbEntity
  8
0
  6
Continuous
 62
     7
100
AcDbLine
 10
-210.7929534912109
 20
284.9079504394532
 30
0.0
 11
-210.7929534912109
 21
337.9837341308594
 31
0.0
  0
TEXT
  5
6D
330
66
100
AcDbEntity
  8
0
  6
Continuous
 62
     7
100
AcDbText
 10
-193.8629540801048
 20
336.44775390625
 30
0.0
 40
3.0
  1
６３　（５８～７３）
 41
0.8443929326254473
100
AcDbText
  0
POINT
  5
6E
330
66
100
AcDbEntity
  8
DEFPOINTS
  6
Continuous
 62
     7
100
AcDbPoint
 10
-147.7929534912109
 20
310.8679504394531
 30
0.0
  0
POINT
  5
6F
330
66
100
AcDbEntity
  8
DEFPOINTS
  6
Continuous
 62
     7
100
AcDbPoint
 10
-210.7929534912109
 20
282.3679504394531
 30
0.0
  0
POINT
  5
70
330
66
100
AcDbEntity
  8
DEFPOINTS
  6
Continuous
 62
     7
100
AcDbPoint
 10
-210.7929534912109
 20
335.69775390625
 30
0.0
  0
ENDBLK
  5
71
330
66
100
AcDbEntity
  8
0
100
AcDbBlockEnd
  0
BLOCK
  5
73
330
72
100
AcDbEntity
  8
0
100
AcDbBlockBegin
  2
*D5
 70
     1
 10
0.0
 20
0.0
 30
0.0
  3
*D5
  1

  0
LINE
  5
74
330
72
100
AcDbEntity
  8
0
  6
Continuous
 62
     7
100
AcDbLine
 10
-213.7929534912109
 20
335.69775390625
 30
0.0
 11
-217.7929534912109
 21
335.69775390625
 31
0.0
  0
INSERT
  5
75
330
72
100
AcDbEntity
  8
0
  6
Continuous
 62
     7
100
AcDbBlockReference
  2
_OPEN30
 10
-210.7929534912109
 20
335.69775390625
 30
0.0
  0
INSERT
  5
76
330
72
100
AcDbEntity
  8
0
  6
Continuous
 62
     7
100
AcDbBlockReference
  2
_OPEN30
 10
-220.7929534912109
 20
335.69775390625
 30
0.0
 50
180.0000000000004
  0
LINE
  5
77
330
72
100
AcDbEntity
  8
0
  6
Continuous
 62
     7
100
AcDbLine
 10
-220.7929534912109
 20
272.9354772949219
 30
0.0
 11
-220.7929534912109
 21
337.9837341308594
 31
0.0
  0
TEXT
  5
78
330
72
100
AcDbEntity
  8
0
  6
Continuous
 62
     7
100
AcDbText
 10
-218.3629536032677
 20
336.44775390625
 30
0.0
 40
3.0
  1
10
 41
1.40181821042841
100
AcDbText
  0
POINT
  5
79
330
72
100
AcDbEntity
  8
DEFPOINTS
  6
Continuous
 62
     7
100
AcDbPoint
 10
-210.7929534912109
 20
337.9837341308594
 30
0.0
  0
POINT
  5
7A
330
72
100
AcDbEntity
  8
DEFPOINTS
  6
Continuous
 62
     7
100
AcDbPoint
 10
-220.7929534912109
 20
270.3954772949219
 30
0.0
  0
POINT
  5
7B
330
72
100
AcDbEntity
  8
DEFPOINTS
  6
Continuous
 62
     7
100
AcDbPoint
 10
-220.7929534912109
 20
335.69775390625
 30
0.0
  0
ENDBLK
  5
7C
330
72
100
AcDbEntity
  8
0
100
AcDbBlockEnd
  0
BLOCK
  5
7E
330
7D
100
AcDbEntity
  8
0
100
AcDbBlockBegin
  2
*D6
 70
     1
 10
0.0
 20
0.0
 30
0.0
  3
*D6
  1

  0
LINE
  5
7F
330
7D
100
AcDbEntity
  8
0
  6
Continuous
 62
     7
100
AcDbLine
 10
-150.7929534912109
 20
325.5467529296875
 30
0.0
 11
-177.7929534912109
 21
325.5467529296875
 31
0.0
  0
INSERT
  5
80
330
7D
100
AcDbEntity
  8
0
  6
Continuous
 62
     7
100
AcDbBlockReference
  2
_OPEN30
 10
-147.7929534912109
 20
325.5467529296875
 30
0.0
  0
INSERT
  5
81
330
7D
100
AcDbEntity
  8
0
  6
Continuous
 62
     7
100
AcDbBlockReference
  2
_OPEN30
 10
-180.7929534912109
 20
325.5467529296875
 30
0.0
 50
180.0000000000004
  0
LINE
  5
82
330
7D
100
AcDbEntity
  8
0
  6
Continuous
 62
     7
100
AcDbLine
 10
-180.7929534912109
 20
264.4079504394532
 30
0.0
 11
-180.7929534912109
 21
327.8327331542969
 31
0.0
  0
TEXT
  5
83
330
7D
100
AcDbEntity
  8
0
  6
Continuous
 62
     7
100
AcDbText
 10
-166.8629536032677
 20
326.2967529296875
 30
0.0
 40
3.0
  1
33
 41
1.028000020980834
100
AcDbText
  0
POINT
  5
84
330
7D
100
AcDbEntity
  8
DEFPOINTS
  6
Continuous
 62
     7
100
AcDbPoint
 10
-147.7929534912109
 20
337.9837341308594
 30
0.0
  0
POINT
  5
85
330
7D
100
AcDbEntity
  8
DEFPOINTS
  6
Continuous
 62
     7
100
AcDbPoint
 10
-180.7929534912109
 20
261.8679504394531
 30
0.0
  0
POINT
  5
86
330
7D
100
AcDbEntity
  8
DEFPOINTS
  6
Continuous
 62
     7
100
AcDbPoint
 10
-180.7929534912109
 20
325.5467529296875
 30
0.0
  0
ENDBLK
  5
87
330
7D
100
AcDbEntity
  8
0
100
AcDbBlockEnd
  0
BLOCK
  5
89
330
88
100
AcDbEntity
  8
0
100
AcDbBlockBegin
  2
*D7
 70
     1
 10
0.0
 20
0.0
 30
0.0
  3
*D7
  1

  0
LINE
  5
8A
330
88
100
AcDbEntity
  8
0
  6
Continuous
 62
     7
100
AcDbLine
 10
-217.7929534912109
 20
223.4529571533203
 30
0.0
 11
-163.7929534912109
 21
223.4529571533203
 31
0.0
  0
INSERT
  5
8B
330
88
100
AcDbEntity
  8
0
  6
Continuous
 62
     7
100
AcDbBlockReference
  2
_OPEN30
 10
-220.7929534912109
 20
223.4529571533203
 30
0.0
 50
180.0000000000004
  0
INSERT
  5
8C
330
88
100
AcDbEntity
  8
0
  6
Continuous
 62
     7
100
AcDbBlockReference
  2
_OPEN30
 10
-160.7929534912109
 20
223.4529571533203
 30
0.0
  0
TEXT
  5
8D
330
88
100
AcDbEntity
  8
0
  6
Continuous
 62
     7
100
AcDbText
 10
-193.3629536032676
 20
224.2029571533203
 30
0.0
 40
3.0
  1
60
 41
1.101428593908038
100
AcDbText
  0
POINT
  5
8E
330
88
100
AcDbEntity
  8
DEFPOINTS
  6
Continuous
 62
     7
100
AcDbPoint
 10
-220.7929534912109
 20
270.3954772949219
 30
0.0
  0
POINT
  5
8F
330
88
100
AcDbEntity
  8
DEFPOINTS
  6
Continuous
 62
     7
100
AcDbPoint
 10
-160.7929534912109
 20
213.3679351806641
 30
0.0
  0
POINT
  5
90
330
88
100
AcDbEntity
  8
DEFPOINTS
  6
Continuous
 62
     7
100
AcDbPoint
 10
-160.7929534912109
 20
223.4529571533203
 30
0.0
  0
ENDBLK
  5
91
330
88
100
AcDbEntity
  8
0
100
AcDbBlockEnd
  0
BLOCK
  5
93
330
92
100
AcDbEntity
  8
0
100
AcDbBlockBegin
  2
*D8
 70
     1
 10
0.0
 20
0.0
 30
0.0
  3
*D8
  1

  0
LINE
  5
94
330
92
100
AcDbEntity
  8
0
  6
Continuous
 62
     7
100
AcDbLine
 10
-354.218994140625
 20
302.968505859375
 30
0.0
 11
-339.0405883789063
 21
338.3439331054688
 31
0.0
  0
LINE
  5
95
330
92
100
AcDbEntity
  8
0
  6
Continuous
 62
     7
100
AcDbLine
 10
-429.9253042585428
 20
126.5243050874969
 30
0.0
 11
-355.4019052141133
 21
300.2115652738312
 31
0.0
  0
INSERT
  5
96
330
92
100
AcDbEntity
  8
0
  6
Continuous
 62
     7
100
AcDbBlockReference
  2
_OPEN30
 10
-431.1082153320312
 20
123.7673645019531
 30
0.0
 50
246.7774458607039
  0
INSERT
  5
97
330
92
100
AcDbEntity
  8
0
  6
Continuous
 62
     7
100
AcDbBlockReference
  2
_OPEN30
 10
-354.218994140625
 20
302.968505859375
 30
0.0
 50
66.77744586070314
  0
TEXT
  5
98
330
92
100
AcDbEntity
  8
0
  6
Continuous
 62
     7
100
AcDbText
 10
-352.3970425701883
 20
309.1008784967148
 30
0.0
 40
3.0
  1
%%C１９５（防水皿外径）
 50
66.80000140353341
 41
0.8440126077968535
100
AcDbText
  0
POINT
  5
99
330
92
100
AcDbEntity
  8
DEFPOINTS
  6
Continuous
 62
     7
100
AcDbPoint
 10
-431.1082153320312
 20
123.7673645019531
 30
0.0
  0
POINT
  5
9A
330
92
100
AcDbEntity
  8
DEFPOINTS
  6
Continuous
 62
     7
100
AcDbPoint
 10
-354.218994140625
 20
302.968505859375
 30
0.0
  0
ENDBLK
  5
9B
330
92
100
AcDbEntity
  8
0
100
AcDbBlockEnd
  0
BLOCK
  5
9D
330
9C
100
AcDbEntity
  8
0
100
AcDbBlockBegin
  2
*D9
 70
     1
 10
0.0
 20
0.0
 30
0.0
  3
*D9
  1

  0
LINE
  5
9E
330
9C
100
AcDbEntity
  8
0
  6
Continuous
 62
     7
100
AcDbLine
 10
-350.4155578613281
 20
267.9216003417969
 30
0.0
 11
-309.26123046875
 21
321.0630187988281
 31
0.0
  0
LINE
  5
9F
330
9C
100
AcDbEntity
  8
0
  6
Continuous
 62
     7
100
AcDbLine
 10
-433.0747799786035
 20
161.1861685428436
 30
0.0
 11
-352.2524294940528
 21
265.5497018184845
 31
0.0
  0
INSERT
  5
A0
330
9C
100
AcDbEntity
  8
0
  6
Continuous
 62
     7
100
AcDbBlockReference
  2
_OPEN30
 10
-434.9116516113281
 20
158.8142700195313
 30
0.0
 50
232.2446908615049
  0
INSERT
  5
A1
330
9C
100
AcDbEntity
  8
0
  6
Continuous
 62
     7
100
AcDbBlockReference
  2
_OPEN30
 10
-350.4155578613281
 20
267.9216003417969
 30
0.0
 50
52.24469086150419
  0
TEXT
  5
A2
330
9C
100
AcDbEntity
  8
0
  6
Continuous
 62
     7
100
AcDbText
 10
-331.3805584847305
 20
293.7482563524818
 30
0.0
 40
3.0
  1
%%C１３８（ノズル部外径）
 50
52.20000076957841
 41
0.8436974815103043
100
AcDbText
  0
POINT
  5
A3
330
9C
100
AcDbEntity
  8
DEFPOINTS
  6
Continuous
 62
     7
100
AcDbPoint
 10
-434.9116516113281
 20
158.8142700195313
 30
0.0
  0
POINT
  5
A4
330
9C
100
AcDbEntity
  8
DEFPOINTS
  6
Continuous
 62
     7
100
AcDbPoint
 10
-350.4155578613281
 20
267.9216003417969
 30
0.0
  0
ENDBLK
  5
A5
330
9C
100
AcDbEntity
  8
0
100
AcDbBlockEnd
  0
BLOCK
  5
A7
330
A6
100
AcDbEntity
  8
0
100
AcDbBlockBegin
  2
*D10
 70
     1
 10
0.0
 20
0.0
 30
0.0
  3
*D10
  1

  0
LINE
  5
A8
330
A6
100
AcDbEntity
  8
0
  6
Continuous
 62
     7
100
AcDbLine
 10
-346.3601379394531
 20
241.1526184082031
 30
0.0
 11
-281.9160461425781
 21
279.8226928710938
 31
0.0
  0
LINE
  5
A9
330
A6
100
AcDbEntity
  8
0
  6
Continuous
 62
     7
100
AcDbLine
 10
-436.3946565609488
 20
187.1268455558979
 30
0.0
 11
-348.9325529117075
 21
239.6090248054302
 31
0.0
  0
INSERT
  5
AA
330
A6
100
AcDbEntity
  8
0
  6
Continuous
 62
     7
100
AcDbBlockReference
  2
_OPEN30
 10
-438.9670715332031
 20
185.583251953125
 30
0.0
 50
210.9661249510942
  0
INSERT
  5
AB
330
A6
100
AcDbEntity
  8
0
  6
Continuous
 62
     7
100
AcDbBlockReference
  2
_OPEN30
 10
-346.3601379394531
 20
241.1526184082031
 30
0.0
 50
30.96612495109348
  0
TEXT
  5
AC
330
A6
100
AcDbEntity
  8
0
  6
Continuous
 62
     7
100
AcDbText
 10
-307.2846001120769
 20
265.4647289905012
 30
0.0
 40
3.0
  1
%%C１０８（目皿外径）
 50
30.99999858592387
 41
0.8443929326254473
100
AcDbText
  0
POINT
  5
AD
330
A6
100
AcDbEntity
  8
DEFPOINTS
  6
Continuous
 62
     7
100
AcDbPoint
 10
-438.9670715332031
 20
185.583251953125
 30
0.0
  0
POINT
  5
AE
330
A6
100
AcDbEntity
  8
DEFPOINTS
  6
Continuous
 62
     7
100
AcDbPoint
 10
-346.3601379394531
 20
241.1526184082031
 30
0.0
  0
ENDBLK
  5
AF
330
A6
100
AcDbEntity
  8
0
100
AcDbBlockEnd
  0
BLOCK
  5
B1
330
B0
100
AcDbEntity
  8
0
100
AcDbBlockBegin
  2
*D11
 70
     1
 10
0.0
 20
0.0
 30
0.0
  3
*D11
  1

  0
LINE
  5
B2
330
B0
100
AcDbEntity
  8
0
  6
Continuous
 62
     7
100
AcDbLine
 10
-459.1196594238281
 20
270.2875671386719
 30
0.0
 11
-484.3325805664063
 21
291.8824462890625
 31
0.0
  0
LINE
  5
B3
330
B0
100
AcDbEntity
  8
0
  6
Continuous
 62
     7
100
AcDbLine
 10
-328.4860430984192
 20
158.3998332436822
 30
0.0
 11
-456.8411663742371
 21
268.336037117646
 31
0.0
  0
INSERT
  5
B4
330
B0
100
AcDbEntity
  8
0
  6
Continuous
 62
     7
100
AcDbBlockReference
  2
_OPEN30
 10
-326.2075500488281
 20
156.4483032226563
 30
0.0
 50
319.4199347400216
  0
INSERT
  5
B5
330
B0
100
AcDbEntity
  8
0
  6
Continuous
 62
     7
100
AcDbBlockReference
  2
_OPEN30
 10
-459.1196594238281
 20
270.2875671386719
 30
0.0
 50
139.4199347400209
  0
TEXT
  5
B6
330
B0
100
AcDbEntity
  8
0
  6
Continuous
 62
     7
100
AcDbText
 10
-483.8425746346829
 20
292.4541754434886
 30
0.0
 40
3.0
  1
PCD175
 50
319.399999780894
 41
1.07125000655651
100
AcDbText
  0
POINT
  5
B7
330
B0
100
AcDbEntity
  8
DEFPOINTS
  6
Continuous
 62
     7
100
AcDbPoint
 10
-326.2075500488281
 20
156.4483032226563
 30
0.0
  0
POINT
  5
B8
330
B0
100
AcDbEntity
  8
DEFPOINTS
  6
Continuous
 62
     7
100
AcDbPoint
 10
-459.1196594238281
 20
270.2875671386719
 30
0.0
  0
ENDBLK
  5
B9
330
B0
100
AcDbEntity
  8
0
100
AcDbBlockEnd
  0
BLOCK
  5
BB
330
BA
100
AcDbEntity
  8
0
100
AcDbBlockBegin
  2
KOZU0001
 70
     0
 10
0.0
 20
0.0
 30
0.0
  3
KOZU0001
  1

  0
LINE
  5
BC
330
BA
100
AcDbEntity
  8
0
  6
Continuous
 62
     7
100
AcDbLine
 10
0.0
 20
0.0
 30
0.0
 11
24.54917144775391
 21
25.40982055664063
 31
0.0
  0
LINE
  5
BD
330
BA
100
AcDbEntity
  8
0
  6
Continuous
 62
     7
100
AcDbLine
 10
24.54917144775391
 20
25.40982055664063
 30
0.0
 11
50.27027130126953
 21
25.40982055664063
 31
0.0
  0
LINE
  5
BE
330
BA
100
AcDbEntity
  8
0
  6
Continuous
 62
     7
100
AcDbLine
 10
0.0
 20
0.0
 30
0.0
 11
1.365285358744257
 21
2.852366717166388
 31
0.0
  0
LINE
  5
BF
330
BA
100
AcDbEntity
  8
0
  6
Continuous
 62
     7
100
AcDbLine
 10
0.0
 20
0.0
 30
0.0
 11
2.80364831729524
 21
1.462722158486557
 31
0.0
  0
TEXT
  5
C0
330
BA
100
AcDbEntity
  8
0
  6
Continuous
 62
     7
100
AcDbText
 10
25.67555165290833
 20
26.15982055664063
 30
0.0
 40
3.0
  1
配管接続口
 41
0.8487395020950888
100
AcDbText
  0
TEXT
  5
C1
330
BA
100
AcDbEntity
  8
0
  6
Continuous
 62
     7
100
AcDbText
 10
25.67555165290833
 20
20.89482055664062
 30
0.0
 40
3.0
  1
Ｒｃ３（８０Ａ）
 41
0.8454512278006642
100
AcDbText
  0
ENDBLK
  5
C2
330
BA
100
AcDbEntity
  8
0
100
AcDbBlockEnd
  0
BLOCK
  5
C4
330
C3
100
AcDbEntity
  8
0
100
AcDbBlockBegin
  2
KOZU0002
 70
     0
 10
0.0
 20
0.0
 30
0.0
  3
KOZU0002
  1

  0
LINE
  5
C5
330
C3
100
AcDbEntity
  8
0
  6
Continuous
 62
     7
100
AcDbLine
 10
0.0
 20
0.0
 30
0.0
 11
-9.83905029296875
 21
19.00381469726563
 31
0.0
  0
LINE
  5
C6
330
C3
100
AcDbEntity
  8
0
  6
Continuous
 62
     7
100
AcDbLine
 10
-9.83905029296875
 20
19.00381469726563
 30
0.0
 11
-31.21737670898438
 21
19.00381469726563
 31
0.0
  0
LINE
  5
C7
330
C3
100
AcDbEntity
  8
0
  6
Continuous
 62
     7
100
AcDbLine
 10
0.0
 20
0.0
 30
0.0
 11
-2.267354931914586
 21
2.204337000715319
 31
0.0
  0
LINE
  5
C8
330
C3
100
AcDbEntity
  8
0
  6
Continuous
 62
     7
100
AcDbLine
 10
0.0
 20
0.0
 30
0.0
 11
-0.4912817451024776
 21
3.123882559721006
 31
0.0
  0
TEXT
  5
C9
330
C3
100
AcDbEntity
  8
0
  6
Continuous
 62
     7
100
AcDbText
 10
-29.4973760843277
 20
19.75381469726563
 30
0.0
 40
3.0
  1
３－Ｍ５皿穴
 41
0.8472565548642696
100
AcDbText
  0
ENDBLK
  5
CA
330
C3
100
AcDbEntity
  8
0
100
AcDbBlockEnd
  0
ENDSEC
  0
SECTION
  2
ENTITIES
  0
LINE
  5
CB
330
22
100
AcDbEntity
  8
0
  6
Continuous
 62
     7
100
AcDbLine
 10
-373.1763610839844
 20
227.0850219726563
 30
0.0
 11
-363.4005432128906
 21
232.7291107177734
 31
0.0
  0
LINE
  5
CC
330
22
100
AcDbEntity
  8
0
  6
Continuous
 62
     7
100
AcDbLine
 10
-413.191650390625
 20
222.7536773681641
 30
0.0
 11
-422.9674987792968
 21
228.3977661132813
 31
0.0
  0
LINE
  5
CD
330
22
100
AcDbEntity
  8
0
  6
Continuous
 62
     7
100
AcDbLine
 10
-410.6919860839843
 20
227.0839996337891
 30
0.0
 11
-420.4677124023437
 21
232.72802734375
 31
0.0
  0
LINE
  5
CE
330
22
100
AcDbEntity
  8
0
  6
Continuous
 62
     7
100
AcDbLine
 10
-370.676025390625
 20
222.7550964355469
 30
0.0
 11
-360.9002990722656
 21
228.3991088867189
 31
0.0
  0
LINE
  5
CF
330
22
100
AcDbEntity
  8
0
  6
Continuous
 62
     7
100
AcDbLine
 10
-388.425537109375
 20
260.8305969238281
 30
0.0
 11
-391.7432250976563
 21
261.2882995605469
 31
0.0
  0
LINE
  5
D0
330
22
100
AcDbEntity
  8
0
  6
Continuous
 62
     7
100
AcDbLine
 10
-388.425537109375
 20
259.9052734375
 30
0.0
 11
-391.7432250976563
 21
259.4475708007813
 31
0.0
  0
LINE
  5
D1
330
22
100
AcDbEntity
  8
0
  6
CENTER
 62
     7
100
AcDbLine
 10
-506.4569091796875
 20
213.3679351806641
 30
0.0
 11
-277.410430908203
 21
213.3679351806641
 31
0.0
  0
LINE
  5
D2
330
22
100
AcDbEntity
  8
0
  6
Continuous
 62
     7
100
AcDbLine
 10
-392.6636047363281
 20
256.1046752929688
 30
0.0
 11
-392.2005920410157
 21
256.1046752929688
 31
0.0
  0
LINE
  5
D3
330
22
100
AcDbEntity
  8
0
  6
Continuous
 62
     7
100
AcDbLine
 10
-392.2005920410157
 20
256.1046752929688
 30
0.0
 11
-391.7432250976563
 21
259.4475708007813
 31
0.0
  0
LINE
  5
D4
330
22
100
AcDbEntity
  8
0
  6
Continuous
 62
     7
100
AcDbLine
 10
-393.1266174316406
 20
256.1046752929688
 30
0.0
 11
-393.583984375
 21
259.4475708007813
 31
0.0
  0
LINE
  5
D5
330
22
100
AcDbEntity
  8
0
  6
Continuous
 62
     7
100
AcDbLine
 10
-396.9016723632813
 20
259.9052734375
 30
0.0
 11
-396.9016723632813
 21
260.3679504394531
 31
0.0
  0
LINE
  5
D6
330
22
100
AcDbEntity
  8
0
  6
Continuous
 62
     7
100
AcDbLine
 10
-396.9016723632813
 20
260.8305969238281
 30
0.0
 11
-393.583984375
 21
261.2882995605469
 31
0.0
  0
LINE
  5
D7
330
22
100
AcDbEntity
  8
0
  6
Continuous
 62
     7
100
AcDbLine
 10
-392.6636047363281
 20
264.6311950683594
 30
0.0
 11
-393.1266174316406
 21
264.6311950683594
 31
0.0
  0
LINE
  5
D8
330
22
100
AcDbEntity
  8
0
  6
Continuous
 62
     7
100
AcDbLine
 10
-393.1266174316406
 20
264.6311950683594
 30
0.0
 11
-393.583984375
 21
261.2882995605469
 31
0.0
  0
LINE
  5
D9
330
22
100
AcDbEntity
  8
0
  6
Continuous
 62
     7
100
AcDbLine
 10
-392.2005920410157
 20
264.6311950683594
 30
0.0
 11
-391.7432250976563
 21
261.2882995605469
 31
0.0
  0
LINE
  5
DA
330
22
100
AcDbEntity
  8
0
  6
Continuous
 62
     7
100
AcDbLine
 10
-392.6636047363281
 20
264.6311950683594
 30
0.0
 11
-392.2005920410157
 21
264.6311950683594
 31
0.0
  0
LINE
  5
DB
330
22
100
AcDbEntity
  8
0
  6
Continuous
 62
     7
100
AcDbLine
 10
-392.6636047363281
 20
256.1046752929688
 30
0.0
 11
-393.1266174316406
 21
256.1046752929688
 31
0.0
  0
LINE
  5
DC
330
22
100
AcDbEntity
  8
0
  6
Continuous
 62
     7
100
AcDbLine
 10
-396.9016723632813
 20
259.9052734375
 30
0.0
 11
-393.583984375
 21
259.4475708007813
 31
0.0
  0
LINE
  5
DD
330
22
100
AcDbEntity
  8
0
  6
Continuous
 62
     7
100
AcDbLine
 10
-396.9016723632813
 20
260.8305969238281
 30
0.0
 11
-396.9016723632813
 21
260.3679504394531
 31
0.0
  0
LINE
  5
DE
330
22
100
AcDbEntity
  8
0
  6
Continuous
 62
     7
100
AcDbLine
 10
-388.425537109375
 20
259.9052734375
 30
0.0
 11
-388.425537109375
 21
260.3679504394531
 31
0.0
  0
LINE
  5
DF
330
22
100
AcDbEntity
  8
0
  6
Continuous
 62
     7
100
AcDbLine
 10
-388.425537109375
 20
260.8305969238281
 30
0.0
 11
-388.425537109375
 21
260.3679504394531
 31
0.0
  0
LINE
  5
E0
330
22
100
AcDbEntity
  8
0
  6
Continuous
 62
     7
100
AcDbLine
 10
-392.6636047363281
 20
170.6311950683594
 30
0.0
 11
-392.2005920410157
 21
170.6311950683594
 31
0.0
  0
LINE
  5
E1
330
22
100
AcDbEntity
  8
0
  6
Continuous
 62
     7
100
AcDbLine
 10
-392.6636047363281
 20
170.6311950683594
 30
0.0
 11
-393.1266174316406
 21
170.6311950683594
 31
0.0
  0
LINE
  5
E2
330
22
100
AcDbEntity
  8
0
  6
Continuous
 62
     7
100
AcDbLine
 10
-396.9016723632813
 20
166.8305816650391
 30
0.0
 11
-393.583984375
 21
167.2883148193359
 31
0.0
  0
LINE
  5
E3
330
22
100
AcDbEntity
  8
0
  6
Continuous
 62
     7
100
AcDbLine
 10
-392.2005920410157
 20
170.6311950683594
 30
0.0
 11
-391.7432250976563
 21
167.2883148193359
 31
0.0
  0
LINE
  5
E4
330
22
100
AcDbEntity
  8
0
  6
Continuous
 62
     7
100
AcDbLine
 10
-393.1266174316406
 20
170.6311950683594
 30
0.0
 11
-393.583984375
 21
167.2883148193359
 31
0.0
  0
LINE
  5
E5
330
22
100
AcDbEntity
  8
0
  6
Continuous
 62
     7
100
AcDbLine
 10
-396.9016723632813
 20
166.8305816650391
 30
0.0
 11
-396.9016723632813
 21
166.3679351806641
 31
0.0
  0
LINE
  5
E6
330
22
100
AcDbEntity
  8
0
  6
Continuous
 62
     7
100
AcDbLine
 10
-388.425537109375
 20
166.8305816650391
 30
0.0
 11
-388.425537109375
 21
166.3679351806641
 31
0.0
  0
LINE
  5
E7
330
22
100
AcDbEntity
  8
0
  6
Continuous
 62
     7
100
AcDbLine
 10
-388.425537109375
 20
165.9052886962891
 30
0.0
 11
-388.425537109375
 21
166.3679351806641
 31
0.0
  0
LINE
  5
E8
330
22
100
AcDbEntity
  8
0
  6
Continuous
 62
     7
100
AcDbLine
 10
-393.1266174316406
 20
162.1046905517578
 30
0.0
 11
-393.583984375
 21
165.4475708007813
 31
0.0
  0
LINE
  5
E9
330
22
100
AcDbEntity
  8
0
  6
Continuous
 62
     7
100
AcDbLine
 10
-392.6636047363281
 20
162.1046905517578
 30
0.0
 11
-392.2005920410157
 21
162.1046905517578
 31
0.0
  0
LINE
  5
EA
330
22
100
AcDbEntity
  8
0
  6
Continuous
 62
     7
100
AcDbLine
 10
-392.6636047363281
 20
162.1046905517578
 30
0.0
 11
-393.1266174316406
 21
162.1046905517578
 31
0.0
  0
LINE
  5
EB
330
22
100
AcDbEntity
  8
0
  6
Continuous
 62
     7
100
AcDbLine
 10
-392.2005920410157
 20
162.1046905517578
 30
0.0
 11
-391.7432250976563
 21
165.4475708007813
 31
0.0
  0
LINE
  5
EC
330
22
100
AcDbEntity
  8
0
  6
Continuous
 62
     7
100
AcDbLine
 10
-396.9016723632813
 20
165.9052886962891
 30
0.0
 11
-393.583984375
 21
165.4475708007813
 31
0.0
  0
LINE
  5
ED
330
22
100
AcDbEntity
  8
0
  6
Continuous
 62
     7
100
AcDbLine
 10
-388.425537109375
 20
165.9052886962891
 30
0.0
 11
-391.7432250976563
 21
165.4475708007813
 31
0.0
  0
LINE
  5
EE
330
22
100
AcDbEntity
  8
0
  6
Continuous
 62
     7
100
AcDbLine
 10
-388.425537109375
 20
166.8305816650391
 30
0.0
 11
-391.7432250976563
 21
167.2883148193359
 31
0.0
  0
LINE
  5
EF
330
22
100
AcDbEntity
  8
0
  6
Continuous
 62
     7
100
AcDbLine
 10
-396.9016723632813
 20
165.9052886962891
 30
0.0
 11
-396.9016723632813
 21
166.3679351806641
 31
0.0
  0
LINE
  5
F0
330
22
100
AcDbEntity
  8
0
  6
Continuous
 62
     7
100
AcDbLine
 10
-389.4336547851563
 20
190.2649078369141
 30
0.0
 11
-389.4336547851563
 21
178.976806640625
 31
0.0
  0
LINE
  5
F1
330
22
100
AcDbEntity
  8
0
  6
Continuous
 62
     7
100
AcDbLine
 10
-394.4336547851563
 20
190.2649078369141
 30
0.0
 11
-394.4336547851563
 21
178.976806640625
 31
0.0
  0
LINE
  5
F2
330
22
100
AcDbEntity
  8
0
  6
CENTER
 62
     7
100
AcDbLine
 10
-392.6636047363281
 20
324.1286926269531
 30
0.0
 11
-392.6636047363281
 21
99.32381439208985
 31
0.0
  0
LINE
  5
F3
330
22
100
AcDbEntity
  8
0
  6
Continuous
 62
     7
100
AcDbLine
 10
-220.7929534912109
 20
267.7679443359375
 30
0.0
 11
-217.7929534912109
 21
267.7679443359375
 31
0.0
  0
LINE
  5
F4
330
22
100
AcDbEntity
  8
0
  6
Continuous
 62
     7
100
AcDbLine
 10
-220.6986389160156
 20
270.8194274902344
 30
0.0
 11
-215.4277801513672
 21
282.0798950195313
 31
0.0
  0
LINE
  5
F5
330
22
100
AcDbEntity
  8
0
  6
Continuous
 62
     7
100
AcDbLine
 10
-211.4696197509766
 20
282.3679504394531
 30
0.0
 11
-210.7929534912109
 21
281.6912536621094
 31
0.0
  0
LINE
  5
F6
330
22
100
AcDbEntity
  8
0
  6
Continuous
 62
     7
100
AcDbLine
 10
-212.1767272949219
 20
282.3679504394531
 30
0.0
 11
-210.7929534912109
 21
280.9841613769531
 31
0.0
  0
LINE
  5
F7
330
22
100
AcDbEntity
  8
0
  6
Continuous
 62
     7
100
AcDbLine
 10
-214.2980499267578
 20
282.3679504394531
 30
0.0
 11
-210.7929534912109
 21
278.8628540039063
 31
0.0
  0
LINE
  5
F8
330
22
100
AcDbEntity
  8
0
  6
Continuous
 62
     7
100
AcDbLine
 10
-215.0006408691406
 20
282.3634338378906
 30
0.0
 11
-210.7929534912109
 21
278.1557312011719
 31
0.0
  0
LINE
  5
F9
330
22
100
AcDbEntity
  8
0
  6
Continuous
 62
     7
100
AcDbLine
 10
-215.8775482177734
 20
281.1190185546875
 30
0.0
 11
-210.7929534912109
 21
276.034423828125
 31
0.0
  0
LINE
  5
FA
330
22
100
AcDbEntity
  8
0
  6
Continuous
 62
     7
100
AcDbLine
 10
-216.1030120849609
 20
280.6373596191406
 30
0.0
 11
-210.7929534912109
 21
275.3273010253906
 31
0.0
  0
LINE
  5
FB
330
22
100
AcDbEntity
  8
0
  6
Continuous
 62
     7
100
AcDbLine
 10
-216.7793731689453
 20
279.1924133300781
 30
0.0
 11
-210.7929534912109
 21
273.2059936523438
 31
0.0
  0
LINE
  5
FC
330
22
100
AcDbEntity
  8
0
  6
Continuous
 62
     7
100
AcDbLine
 10
-217.0048217773438
 20
278.7107543945313
 30
0.0
 11
-210.7929534912109
 21
272.4988708496094
 31
0.0
  0
LINE
  5
FD
330
22
100
AcDbEntity
  8
0
  6
Continuous
 62
     7
100
AcDbLine
 10
-217.6811828613281
 20
277.2658081054688
 30
0.0
 11
-210.7929534912109
 21
270.3775634765625
 31
0.0
  0
LINE
  5
FE
330
22
100
AcDbEntity
  8
0
  6
Continuous
 62
     7
100
AcDbLine
 10
-217.9066467285156
 20
276.7841491699219
 30
0.0
 11
-210.7929534912109
 21
269.6704406738281
 31
0.0
  0
LINE
  5
FF
330
22
100
AcDbEntity
  8
0
  6
Continuous
 62
     7
100
AcDbLine
 10
-218.5830078125
 20
275.3391723632813
 30
0.0
 11
-210.7929534912109
 21
267.5491333007813
 31
0.0
  0
LINE
  5
100
330
22
100
AcDbEntity
  8
0
  6
Continuous
 62
     7
100
AcDbLine
 10
-218.8084564208984
 20
274.8575439453125
 30
0.0
 11
-210.7929534912109
 21
266.8420104980469
 31
0.0
  0
LINE
  5
101
330
22
100
AcDbEntity
  8
0
  6
Continuous
 62
     7
100
AcDbLine
 10
-219.4848175048828
 20
273.4125671386719
 30
0.0
 11
-210.7929534912109
 21
264.720703125
 31
0.0
  0
LINE
  5
102
330
22
100
AcDbEntity
  8
0
  6
Continuous
 62
     7
100
AcDbLine
 10
-219.7102813720703
 20
272.930908203125
 30
0.0
 11
-210.7929534912109
 21
264.0136108398438
 31
0.0
  0
LINE
  5
103
330
22
100
AcDbEntity
  8
0
  6
Continuous
 62
     7
100
AcDbLine
 10
-220.3866424560547
 20
271.4859619140625
 30
0.0
 11
-211.2686157226563
 21
262.3679504394531
 31
0.0
  0
LINE
  5
104
330
22
100
AcDbEntity
  8
0
  6
Continuous
 62
     7
100
AcDbLine
 10
-220.6120910644531
 20
271.0043029785156
 30
0.0
 11
-211.9757232666016
 21
262.3679504394531
 31
0.0
  0
LINE
  5
105
330
22
100
AcDbEntity
  8
0
  6
Continuous
 62
     7
100
AcDbLine
 10
-217.7929534912109
 20
266.0638427734375
 30
0.0
 11
-214.0970306396484
 21
262.3679504394531
 31
0.0
  0
LINE
  5
106
330
22
100
AcDbEntity
  8
0
  6
Continuous
 62
     7
100
AcDbLine
 10
-220.7929534912109
 20
269.0638427734375
 30
0.0
 11
-219.4970397949219
 21
267.7679443359375
 31
0.0
  0
LINE
  5
107
330
22
100
AcDbEntity
  8
0
  6
Continuous
 62
     7
100
AcDbLine
 10
-217.7929534912109
 20
265.3567504882813
 30
0.0
 11
-214.8041381835938
 21
262.3679504394531
 31
0.0
  0
LINE
  5
108
330
22
100
AcDbEntity
  8
0
  6
Continuous
 62
     7
100
AcDbLine
 10
-220.7929534912109
 20
268.3567504882813
 30
0.0
 11
-220.2041473388672
 21
267.7679443359375
 31
0.0
  0
LINE
  5
109
330
22
100
AcDbEntity
  8
0
  6
Continuous
 62
     7
100
AcDbLine
 10
-217.7929534912109
 20
263.2354125976563
 30
0.0
 11
-216.9254608154297
 21
262.3679504394531
 31
0.0
  0
LINE
  5
10A
330
22
100
AcDbEntity
  8
0
  6
Continuous
 62
     7
100
AcDbLine
 10
-213.632568359375
 20
258.3679504394531
 30
0.0
 11
-212.132568359375
 21
256.867950439453
 31
0.0
  0
LINE
  5
10B
330
22
100
AcDbEntity
  8
0
  6
Continuous
 62
     7
100
AcDbLine
 10
-217.7929534912109
 20
262.5283203125
 30
0.0
 11
-217.632568359375
 21
262.3679504394531
 31
0.0
  0
LINE
  5
10C
330
22
100
AcDbEntity
  8
0
  6
Continuous
 62
     7
100
AcDbLine
 10
-215.7538909912109
 20
258.3679504394531
 30
0.0
 11
-214.2538909912109
 21
256.867950439453
 31
0.0
  0
LINE
  5
10D
330
22
100
AcDbEntity
  8
0
  6
Continuous
 62
     7
100
AcDbLine
 10
-216.4609985351563
 20
258.3679504394531
 30
0.0
 11
-214.9609985351563
 21
256.867950439453
 31
0.0
  0
LINE
  5
10E
330
22
100
AcDbEntity
  8
0
  6
Continuous
 62
     7
100
AcDbLine
 10
-217.7929534912109
 20
257.5785827636719
 30
0.0
 11
-217.0823211669922
 21
256.867950439453
 31
0.0
  0
LINE
  5
10F
330
22
100
AcDbEntity
  8
0
  6
Continuous
 62
     7
100
AcDbLine
 10
-217.7929534912109
 20
256.8714599609375
 30
0.0
 11
-217.7894287109375
 21
256.867950439453
 31
0.0
  0
LINE
  5
110
330
22
100
AcDbEntity
  8
0
  6
Continuous
 62
     7
100
AcDbLine
 10
-211.6020202636719
 20
261.3362731933595
 30
0.0
 11
-211.6020202636719
 21
259.3679504394531
 31
0.0
  0
LINE
  5
111
330
22
100
AcDbEntity
  8
0
  6
Continuous
 62
     7
100
AcDbLine
 10
-211.6020202636719
 20
259.3679504394531
 30
0.0
 11
-212.6020202636719
 21
258.3679504394531
 31
0.0
  0
LINE
  5
112
330
22
100
AcDbEntity
  8
0
  6
Continuous
 62
     7
100
AcDbLine
 10
-211.6020202636719
 20
261.3362731933595
 30
0.0
 11
-212.4320831298828
 21
262.3679504394531
 31
0.0
  0
LINE
  5
113
330
22
100
AcDbEntity
  8
0
  6
Continuous
 62
     7
100
AcDbLine
 10
-217.7929534912109
 20
258.3679504394531
 30
0.0
 11
-217.7929534912109
 21
213.3679351806641
 31
0.0
  0
LINE
  5
114
330
22
100
AcDbEntity
  8
0
  6
Continuous
 62
     7
100
AcDbLine
 10
-210.7929534912109
 20
255.7179412841797
 30
0.0
 11
-210.7929534912109
 21
282.3679504394531
 31
0.0
  0
LINE
  5
115
330
22
100
AcDbEntity
  8
0
  6
Continuous
 62
     7
100
AcDbLine
 10
-147.79345703125
 20
295.8679504394531
 30
0.0
 11
-145.54345703125
 21
298.1179504394532
 31
0.0
  0
LINE
  5
116
330
22
100
AcDbEntity
  8
0
  6
CENTER
 62
     7
100
AcDbLine
 10
-148.9757385253906
 20
300.8679504394531
 30
0.0
 11
-143.5460205078125
 21
300.8679504394531
 31
0.0
  0
LINE
  5
117
330
22
100
AcDbEntity
  8
0
  6
Continuous
 62
     7
100
AcDbLine
 10
-178.8929443359375
 20
255.775390625
 30
0.0
 11
-142.7929534912109
 21
255.775390625
 31
0.0
  0
LINE
  5
118
330
22
100
AcDbEntity
  8
0
  6
Continuous
 62
     7
100
AcDbLine
 10
-210.7929534912109
 20
255.7179412841797
 30
0.0
 11
-217.7929534912109
 21
255.7179412841797
 31
0.0
  0
LINE
  5
119
330
22
100
AcDbEntity
  8
0
  6
Continuous
 62
     7
100
AcDbLine
 10
-210.7929534912109
 20
256.867950439453
 30
0.0
 11
-217.7929534912109
 21
256.867950439453
 31
0.0
  0
LINE
  5
11A
330
22
100
AcDbEntity
  8
0
  6
Continuous
 62
     7
100
AcDbLine
 10
-217.7929534912109
 20
262.3679504394531
 30
0.0
 11
-210.8231506347656
 21
262.3679504394531
 31
0.0
  0
LINE
  5
11B
330
22
100
AcDbEntity
  8
0
  6
Continuous
 62
     7
100
AcDbLine
 10
-147.7929534912109
 20
310.8679504394531
 30
0.0
 11
-147.7929534912109
 21
261.8679504394531
 31
0.0
  0
LINE
  5
11C
330
22
100
AcDbEntity
  8
0
  6
Continuous
 62
     7
100
AcDbLine
 10
-146.4184112548828
 20
310.8679504394531
 30
0.0
 11
-144.7929534912109
 21
309.2424926757813
 31
0.0
  0
LINE
  5
11D
330
22
100
AcDbEntity
  8
0
  6
Continuous
 62
     7
100
AcDbLine
 10
-147.1255187988281
 20
310.8679504394531
 30
0.0
 11
-144.7929534912109
 21
308.5353698730469
 31
0.0
  0
LINE
  5
11E
330
22
100
AcDbEntity
  8
0
  6
Continuous
 62
     7
100
AcDbLine
 10
-147.7929534912109
 20
309.4140625
 30
0.0
 11
-144.7929534912109
 21
306.4140625
 31
0.0
  0
LINE
  5
11F
330
22
100
AcDbEntity
  8
0
  6
Continuous
 62
     7
100
AcDbLine
 10
-147.7929534912109
 20
308.7069396972656
 30
0.0
 11
-144.7929534912109
 21
305.7069396972656
 31
0.0
  0
LINE
  5
120
330
22
100
AcDbEntity
  8
0
  6
Continuous
 62
     7
100
AcDbLine
 10
-147.7929534912109
 20
306.5856323242188
 30
0.0
 11
-144.8673248291016
 21
303.6600036621094
 31
0.0
  0
LINE
  5
121
330
22
100
AcDbEntity
  8
0
  6
Continuous
 62
     7
100
AcDbLine
 10
-147.7929534912109
 20
305.8785095214844
 30
0.0
 11
-145.5323638916016
 21
303.6179504394531
 31
0.0
  0
LINE
  5
122
330
22
100
AcDbEntity
  8
0
  6
Continuous
 62
     7
100
AcDbLine
 10
-144.7929534912109
 20
310.8679504394531
 30
0.0
 11
-144.7929534912109
 21
261.8679504394531
 31
0.0
  0
LINE
  5
123
330
22
100
AcDbEntity
  8
0
  6
Continuous
 62
     7
100
AcDbLine
 10
-147.7929534912109
 20
310.8679504394531
 30
0.0
 11
-144.7929534912109
 21
310.8679504394531
 31
0.0
  0
LINE
  5
124
330
22
100
AcDbEntity
  8
0
  6
CENTER
 62
     7
100
AcDbLine
 10
-236.3090209960938
 20
213.3679351806641
 30
0.0
 11
-80.11361694335937
 21
213.3679351806641
 31
0.0
  0
LINE
  5
125
330
22
100
AcDbEntity
  8
0
  6
Continuous
 62
     7
100
AcDbLine
 10
-220.7929534912109
 20
265.3679504394531
 30
0.0
 11
-217.7929534912109
 21
262.3679504394531
 31
0.0
  0
LINE
  5
126
330
22
100
AcDbEntity
  8
0
  6
Continuous
 62
     7
100
AcDbLine
 10
-220.7929534912109
 20
255.3679351806641
 30
0.0
 11
-217.7929534912109
 21
258.3679504394531
 31
0.0
  0
LINE
  5
127
330
22
100
AcDbEntity
  8
0
  6
Continuous
 62
     7
100
AcDbLine
 10
-220.7929534912109
 20
265.3679504394531
 30
0.0
 11
-220.7929534912109
 21
255.3679351806641
 31
0.0
  0
LINE
  5
128
330
22
100
AcDbEntity
  8
0
  6
Continuous
 62
     7
100
AcDbLine
 10
-220.7929534912109
 20
267.3679504394531
 30
0.0
 11
-217.7929534912109
 21
267.3679504394531
 31
0.0
  0
LINE
  5
129
330
22
100
AcDbEntity
  8
0
  6
Continuous
 62
     7
100
AcDbLine
 10
-101.3332595825195
 20
255.7265319824219
 30
0.0
 11
-101.3332595825195
 21
213.3679351806641
 31
0.0
  0
LINE
  5
12A
330
22
100
AcDbEntity
  8
0
  6
Continuous
 62
     7
100
AcDbLine
 10
-160.7929534912109
 20
234.6179351806641
 30
0.0
 11
-160.7929534912109
 21
227.80126953125
 31
0.0
  0
LINE
  5
12B
330
22
100
AcDbEntity
  8
0
  6
Continuous
 62
     7
100
AcDbLine
 10
-220.7929534912109
 20
235.8679351806641
 30
0.0
 11
-220.7929534912109
 21
227.80126953125
 31
0.0
  0
LINE
  5
12C
330
22
100
AcDbEntity
  8
0
  6
Continuous
 62
     7
100
AcDbLine
 10
-180.7929534912109
 20
257.266845703125
 30
0.0
 11
-144.2843933105469
 21
257.266845703125
 31
0.0
  0
LINE
  5
12D
330
22
100
AcDbEntity
  8
0
  6
Continuous
 62
     7
100
AcDbLine
 10
-142.7929534912109
 20
255.775390625
 30
0.0
 11
-144.2843933105469
 21
257.266845703125
 31
0.0
  0
LINE
  5
12E
330
22
100
AcDbEntity
  8
0
  6
Continuous
 62
     7
100
AcDbLine
 10
-129.5929565429688
 20
254.8433685302734
 30
0.0
 11
-128.0526428222656
 21
256.3836669921875
 31
0.0
  0
LINE
  5
12F
330
22
100
AcDbEntity
  8
0
  6
Continuous
 62
     7
100
AcDbLine
 10
-129.5929565429688
 20
254.8433685302734
 30
0.0
 11
-142.7929534912109
 21
254.8433685302734
 31
0.0
  0
LINE
  5
130
330
22
100
AcDbEntity
  8
0
  6
Continuous
 62
     7
100
AcDbLine
 10
-142.7929534912109
 20
254.8433685302734
 30
0.0
 11
-142.7929534912109
 21
255.775390625
 31
0.0
  0
LINE
  5
131
330
22
100
AcDbEntity
  8
0
  6
Continuous
 62
     7
100
AcDbLine
 10
-142.7929534912109
 20
254.8433685302734
 30
0.0
 11
-142.7929534912109
 21
213.3679351806641
 31
0.0
  0
LINE
  5
132
330
22
100
AcDbEntity
  8
0
  6
Continuous
 62
     7
100
AcDbLine
 10
-144.2843933105469
 20
257.266845703125
 30
0.0
 11
-144.2843933105469
 21
213.3679351806641
 31
0.0
  0
LINE
  5
133
330
22
100
AcDbEntity
  8
0
  6
Continuous
 62
     7
100
AcDbLine
 10
-144.79345703125
 20
303.6179504394531
 30
0.0
 11
-145.54345703125
 21
303.6179504394531
 31
0.0
  0
LINE
  5
134
330
22
100
AcDbEntity
  8
0
  6
Continuous
 62
     7
100
AcDbLine
 10
-210.7929534912109
 20
282.3679504394531
 30
0.0
 11
-214.9749298095703
 21
282.3679504394531
 31
0.0
  0
LINE
  5
135
330
22
100
AcDbEntity
  8
0
  6
Continuous
 62
     7
100
AcDbLine
 10
-217.7929534912109
 20
267.7679443359375
 30
0.0
 11
-217.7929534912109
 21
262.3679504394531
 31
0.0
  0
LINE
  5
136
330
22
100
AcDbEntity
  8
0
  6
Continuous
 62
     7
100
AcDbLine
 10
-217.7929534912109
 20
255.7179412841797
 30
0.0
 11
-216.6429443359375
 21
256.867950439453
 31
0.0
  0
LINE
  5
137
330
22
100
AcDbEntity
  8
0
  6
Continuous
 62
     7
100
AcDbLine
 10
-190.7929534912109
 20
255.8679351806641
 30
0.0
 11
-192.7929534912109
 21
257.8679504394531
 31
0.0
  0
LINE
  5
138
330
22
100
AcDbEntity
  8
0
  6
Continuous
 62
     7
100
AcDbLine
 10
-192.7929534912109
 20
257.8679504394531
 30
0.0
 11
-210.7929534912109
 21
257.8679504394531
 31
0.0
  0
LINE
  5
139
330
22
100
AcDbEntity
  8
0
  6
Continuous
 62
     7
100
AcDbLine
 10
-217.7929534912109
 20
251.8679351806641
 30
0.0
 11
-160.7929534912109
 21
251.8679351806641
 31
0.0
  0
LINE
  5
13A
330
22
100
AcDbEntity
  8
0
  6
Continuous
 62
     7
100
AcDbLine
 10
-217.7929534912109
 20
254.5711517333984
 30
0.0
 11
-216.6461639404297
 21
255.7179412841797
 31
0.0
  0
LINE
  5
13B
330
22
100
AcDbEntity
  8
0
  6
Continuous
 62
     7
100
AcDbLine
 10
-210.7929534912109
 20
257.3285217285156
 30
0.0
 11
-210.2535247802734
 21
257.8679504394531
 31
0.0
  0
LINE
  5
13C
330
22
100
AcDbEntity
  8
0
  6
Continuous
 62
     7
100
AcDbLine
 10
-216.2535247802734
 20
251.8679351806641
 30
0.0
 11
-212.4035339355469
 21
255.7179412841797
 31
0.0
  0
LINE
  5
13D
330
22
100
AcDbEntity
  8
0
  6
Continuous
 62
     7
100
AcDbLine
 10
-212.0108795166016
 20
251.8679351806641
 30
0.0
 11
-206.0108795166016
 21
257.8679504394531
 31
0.0
  0
LINE
  5
13E
330
22
100
AcDbEntity
  8
0
  6
Continuous
 62
     7
100
AcDbLine
 10
-207.7682495117188
 20
251.8679351806641
 30
0.0
 11
-201.7682495117188
 21
257.8679504394531
 31
0.0
  0
LINE
  5
13F
330
22
100
AcDbEntity
  8
0
  6
Continuous
 62
     7
100
AcDbLine
 10
-203.5256042480469
 20
251.8679351806641
 30
0.0
 11
-197.5256042480469
 21
257.8679504394531
 31
0.0
  0
LINE
  5
140
330
22
100
AcDbEntity
  8
0
  6
Continuous
 62
     7
100
AcDbLine
 10
-199.282958984375
 20
251.8679351806641
 30
0.0
 11
-193.282958984375
 21
257.8679504394531
 31
0.0
  0
LINE
  5
141
330
22
100
AcDbEntity
  8
0
  6
Continuous
 62
     7
100
AcDbLine
 10
-195.0403289794922
 20
251.8679351806641
 30
0.0
 11
-190.9166412353516
 21
255.9916229248047
 31
0.0
  0
LINE
  5
142
330
22
100
AcDbEntity
  8
0
  6
Continuous
 62
     7
100
AcDbLine
 10
-190.7976837158203
 20
251.8679351806641
 30
0.0
 11
-186.7976837158203
 21
255.8679351806641
 31
0.0
  0
LINE
  5
143
330
22
100
AcDbEntity
  8
0
  6
Continuous
 62
     7
100
AcDbLine
 10
-186.5550384521484
 20
251.8679351806641
 30
0.0
 11
-182.5550384521484
 21
255.8679351806641
 31
0.0
  0
LINE
  5
144
330
22
100
AcDbEntity
  8
0
  6
Continuous
 62
     7
100
AcDbLine
 10
-182.3124084472656
 20
251.8679351806641
 30
0.0
 11
-178.3124084472656
 21
255.8679351806641
 31
0.0
  0
LINE
  5
145
330
22
100
AcDbEntity
  8
0
  6
Continuous
 62
     7
100
AcDbLine
 10
-178.0697631835938
 20
251.8679351806641
 30
0.0
 11
-174.0697631835938
 21
255.8679351806641
 31
0.0
  0
LINE
  5
146
330
22
100
AcDbEntity
  8
0
  6
Continuous
 62
     7
100
AcDbLine
 10
-173.8271179199219
 20
251.8679351806641
 30
0.0
 11
-169.8271179199219
 21
255.8679351806641
 31
0.0
  0
LINE
  5
147
330
22
100
AcDbEntity
  8
0
  6
Continuous
 62
     7
100
AcDbLine
 10
-169.58447265625
 20
251.8679351806641
 30
0.0
 11
-165.58447265625
 21
255.8679351806641
 31
0.0
  0
LINE
  5
148
330
22
100
AcDbEntity
  8
0
  6
Continuous
 62
     7
100
AcDbLine
 10
-165.3418426513672
 20
251.8679351806641
 30
0.0
 11
-161.3418426513672
 21
255.8679351806641
 31
0.0
  0
LINE
  5
149
330
22
100
AcDbEntity
  8
0
  6
Continuous
 62
     7
100
AcDbLine
 10
-161.0991973876953
 20
251.8679351806641
 30
0.0
 11
-160.7929534912109
 21
252.1741790771484
 31
0.0
  0
LINE
  5
14A
330
22
100
AcDbEntity
  8
0
  6
Continuous
 62
     7
100
AcDbLine
 10
-217.7929534912109
 20
252.4498291015625
 30
0.0
 11
-214.5248413085938
 21
255.7179412841797
 31
0.0
  0
LINE
  5
14B
330
22
100
AcDbEntity
  8
0
  6
Continuous
 62
     7
100
AcDbLine
 10
-214.1322021484375
 20
251.8679351806641
 30
0.0
 11
-208.1322021484375
 21
257.8679504394531
 31
0.0
  0
LINE
  5
14C
330
22
100
AcDbEntity
  8
0
  6
Continuous
 62
     7
100
AcDbLine
 10
-209.8895721435547
 20
251.8679351806641
 30
0.0
 11
-203.8895721435547
 21
257.8679504394531
 31
0.0
  0
LINE
  5
14D
330
22
100
AcDbEntity
  8
0
  6
Continuous
 62
     7
100
AcDbLine
 10
-205.6469268798828
 20
251.8679351806641
 30
0.0
 11
-199.6469268798828
 21
257.8679504394531
 31
0.0
  0
LINE
  5
14E
330
22
100
AcDbEntity
  8
0
  6
Continuous
 62
     7
100
AcDbLine
 10
-201.4042816162109
 20
251.8679351806641
 30
0.0
 11
-195.4042816162109
 21
257.8679504394531
 31
0.0
  0
LINE
  5
14F
330
22
100
AcDbEntity
  8
0
  6
Continuous
 62
     7
100
AcDbLine
 10
-197.1616516113281
 20
251.8679351806641
 30
0.0
 11
-191.977294921875
 21
257.0522766113281
 31
0.0
  0
LINE
  5
150
330
22
100
AcDbEntity
  8
0
  6
Continuous
 62
     7
100
AcDbLine
 10
-192.9190063476563
 20
251.8679351806641
 30
0.0
 11
-188.9190063476563
 21
255.8679351806641
 31
0.0
  0
LINE
  5
151
330
22
100
AcDbEntity
  8
0
  6
Continuous
 62
     7
100
AcDbLine
 10
-188.6763610839844
 20
251.8679351806641
 30
0.0
 11
-184.6763610839844
 21
255.8679351806641
 31
0.0
  0
LINE
  5
152
330
22
100
AcDbEntity
  8
0
  6
Continuous
 62
     7
100
AcDbLine
 10
-184.4337158203125
 20
251.8679351806641
 30
0.0
 11
-180.4337158203125
 21
255.8679351806641
 31
0.0
  0
LINE
  5
153
330
22
100
AcDbEntity
  8
0
  6
Continuous
 62
     7
100
AcDbLine
 10
-180.1910858154297
 20
251.8679351806641
 30
0.0
 11
-176.1910858154297
 21
255.8679351806641
 31
0.0
  0
LINE
  5
154
330
22
100
AcDbEntity
  8
0
  6
Continuous
 62
     7
100
AcDbLine
 10
-175.9484405517578
 20
251.8679351806641
 30
0.0
 11
-171.9484405517578
 21
255.8679351806641
 31
0.0
  0
LINE
  5
155
330
22
100
AcDbEntity
  8
0
  6
Continuous
 62
     7
100
AcDbLine
 10
-171.7057952880859
 20
251.8679351806641
 30
0.0
 11
-167.7057952880859
 21
255.8679351806641
 31
0.0
  0
LINE
  5
156
330
22
100
AcDbEntity
  8
0
  6
Continuous
 62
     7
100
AcDbLine
 10
-167.4631652832031
 20
251.8679351806641
 30
0.0
 11
-163.4631652832031
 21
255.8679351806641
 31
0.0
  0
LINE
  5
157
330
22
100
AcDbEntity
  8
0
  6
Continuous
 62
     7
100
AcDbLine
 10
-163.2205200195313
 20
251.8679351806641
 30
0.0
 11
-160.7929534912109
 21
254.2955017089844
 31
0.0
  0
LINE
  5
158
330
22
100
AcDbEntity
  8
0
  6
Continuous
 62
     7
100
AcDbLine
 10
-160.7929534912109
 20
255.8679351806641
 30
0.0
 11
-190.7929534912109
 21
255.8679351806641
 31
0.0
  0
LINE
  5
159
330
22
100
AcDbEntity
  8
0
  6
Continuous
 62
     7
100
AcDbLine
 10
-162.2429504394531
 20
257.3179321289063
 30
0.0
 11
-192.2429504394531
 21
257.3179321289063
 31
0.0
  0
LINE
  5
15A
330
22
100
AcDbEntity
  8
0
  6
Continuous
 62
     7
100
AcDbLine
 10
-128.0526428222656
 20
256.3836669921875
 30
0.0
 11
-128.0526428222656
 21
213.3679351806641
 31
0.0
  0
LINE
  5
15B
330
22
100
AcDbEntity
  8
0
  6
Continuous
 62
     7
100
AcDbLine
 10
-99.79295349121095
 20
257.266845703125
 30
0.0
 11
-101.3332595825195
 21
255.7265319824219
 31
0.0
  0
LINE
  5
15C
330
22
100
AcDbEntity
  8
0
  6
Continuous
 62
     7
100
AcDbLine
 10
-217.7929534912109
 20
258.3679504394531
 30
0.0
 11
-210.8231506347656
 21
258.3679504394531
 31
0.0
  0
LINE
  5
15D
330
22
100
AcDbEntity
  8
0
  6
Continuous
 62
     7
100
AcDbLine
 10
-210.7929534912109
 20
255.7179412841797
 30
0.0
 11
-211.9429473876953
 21
256.867950439453
 31
0.0
  0
LINE
  5
15E
330
22
100
AcDbEntity
  8
0
  6
Continuous
 62
     7
100
AcDbLine
 10
-144.7929534912109
 20
115.8679351806641
 30
0.0
 11
-147.7929534912109
 21
115.8679351806641
 31
0.0
  0
LINE
  5
15F
330
22
100
AcDbEntity
  8
0
  6
Continuous
 62
     7
100
AcDbLine
 10
-144.7929534912109
 20
164.8679351806641
 30
0.0
 11
-99.79295349121095
 21
164.8679351806641
 31
0.0
  0
LINE
  5
160
330
22
100
AcDbEntity
  8
0
  6
Continuous
 62
     7
100
AcDbLine
 10
-180.7929534912109
 20
164.8679351806641
 30
0.0
 11
-147.7929534912109
 21
164.8679351806641
 31
0.0
  0
LINE
  5
161
330
22
100
AcDbEntity
  8
0
  6
Continuous
 62
     7
100
AcDbLine
 10
-214.9749298095703
 20
144.3679351806641
 30
0.0
 11
-210.7929534912109
 21
144.3679351806641
 31
0.0
  0
LINE
  5
162
330
22
100
AcDbEntity
  8
0
  6
Continuous
 62
     7
100
AcDbLine
 10
-220.6986389160156
 20
155.9164581298828
 30
0.0
 11
-215.4277801513672
 21
144.6559600830078
 31
0.0
  0
LINE
  5
163
330
22
100
AcDbEntity
  8
0
  6
Continuous
 62
     7
100
AcDbLine
 10
-147.7929534912109
 20
310.8679504394531
 30
0.0
 11
-147.7929534912109
 21
287.4075012207031
 31
0.0
  0
LINE
  5
164
330
22
100
AcDbEntity
  8
0
  6
Continuous
 62
     7
100
AcDbLine
 10
-129.5929565429688
 20
254.8433685302734
 30
0.0
 11
-101.3332595825195
 21
255.7265319824219
 31
0.0
  0
LINE
  5
165
330
22
100
AcDbEntity
  8
0
  6
Continuous
 62
     7
100
AcDbLine
 10
-146.7929534912109
 20
294.15234375
 30
0.0
 11
-147.7929534912109
 21
293.15234375
 31
0.0
  0
LINE
  5
166
330
22
100
AcDbEntity
  8
0
  6
Continuous
 62
     7
100
AcDbLine
 10
-147.7929534912109
 20
295.15234375
 30
0.0
 11
-146.7929534912109
 21
294.15234375
 31
0.0
  0
LINE
  5
167
330
22
100
AcDbEntity
  8
0
  6
Continuous
 62
     7
100
AcDbLine
 10
-147.7929534912109
 20
278.5679321289063
 30
0.0
 11
-146.7929534912109
 21
277.5679321289063
 31
0.0
  0
LINE
  5
168
330
22
100
AcDbEntity
  8
0
  6
Continuous
 62
     7
100
AcDbLine
 10
-178.8929443359375
 20
255.775390625
 30
0.0
 11
-180.7929534912109
 21
257.266845703125
 31
0.0
  0
LINE
  5
169
330
22
100
AcDbEntity
  8
0
  6
Continuous
 62
     7
100
AcDbLine
 10
-146.7929534912109
 20
277.5679321289063
 30
0.0
 11
-147.7929534912109
 21
276.5679321289063
 31
0.0
  0
LINE
  5
16A
330
22
100
AcDbEntity
  8
0
  6
Continuous
 62
     7
100
AcDbLine
 10
-128.0526428222656
 20
256.3836669921875
 30
0.0
 11
-99.79295349121095
 21
257.266845703125
 31
0.0
  0
LINE
  5
16B
330
22
100
AcDbEntity
  8
0
  6
Continuous
 62
     7
100
AcDbLine
 10
-180.7929534912109
 20
261.8679504394531
 30
0.0
 11
-99.79295349121095
 21
261.8679504394531
 31
0.0
  0
LINE
  5
16C
330
22
100
AcDbEntity
  8
0
  6
Continuous
 62
     7
100
AcDbLine
 10
-160.7929534912109
 20
255.8679351806641
 30
0.0
 11
-162.2429504394531
 21
257.3179321289063
 31
0.0
  0
LINE
  5
16D
330
22
100
AcDbEntity
  8
0
  6
Continuous
 62
     7
100
AcDbLine
 10
-180.7929534912109
 20
261.1161804199219
 30
0.0
 11
-180.0411834716797
 21
261.8679504394531
 31
0.0
  0
LINE
  5
16E
330
22
100
AcDbEntity
  8
0
  6
Continuous
 62
     7
100
AcDbLine
 10
-180.7929534912109
 20
258.2877502441406
 30
0.0
 11
-177.2127532958984
 21
261.8679504394531
 31
0.0
  0
LINE
  5
16F
330
22
100
AcDbEntity
  8
0
  6
Continuous
 62
     7
100
AcDbLine
 10
-178.9854278564453
 20
257.266845703125
 30
0.0
 11
-174.3843231201172
 21
261.8679504394531
 31
0.0
  0
LINE
  5
170
330
22
100
AcDbEntity
  8
0
  6
Continuous
 62
     7
100
AcDbLine
 10
-176.1569976806641
 20
257.266845703125
 30
0.0
 11
-171.5558929443359
 21
261.8679504394531
 31
0.0
  0
LINE
  5
171
330
22
100
AcDbEntity
  8
0
  6
Continuous
 62
     7
100
AcDbLine
 10
-173.3285675048828
 20
257.266845703125
 30
0.0
 11
-168.7274780273438
 21
261.8679504394531
 31
0.0
  0
LINE
  5
172
330
22
100
AcDbEntity
  8
0
  6
Continuous
 62
     7
100
AcDbLine
 10
-170.5001373291016
 20
257.266845703125
 30
0.0
 11
-165.8990478515625
 21
261.8679504394531
 31
0.0
  0
LINE
  5
173
330
22
100
AcDbEntity
  8
0
  6
Continuous
 62
     7
100
AcDbLine
 10
-167.6717224121094
 20
257.266845703125
 30
0.0
 11
-163.0706176757813
 21
261.8679504394531
 31
0.0
  0
LINE
  5
174
330
22
100
AcDbEntity
  8
0
  6
Continuous
 62
     7
100
AcDbLine
 10
-164.8432922363281
 20
257.266845703125
 30
0.0
 11
-160.2421875
 21
261.8679504394531
 31
0.0
  0
LINE
  5
175
330
22
100
AcDbEntity
  8
0
  6
Continuous
 62
     7
100
AcDbLine
 10
-162.0148620605469
 20
257.266845703125
 30
0.0
 11
-157.4137573242188
 21
261.8679504394531
 31
0.0
  0
LINE
  5
176
330
22
100
AcDbEntity
  8
0
  6
Continuous
 62
     7
100
AcDbLine
 10
-159.1864318847656
 20
257.266845703125
 30
0.0
 11
-154.5853424072266
 21
261.8679504394531
 31
0.0
  0
LINE
  5
177
330
22
100
AcDbEntity
  8
0
  6
Continuous
 62
     7
100
AcDbLine
 10
-156.3580017089844
 20
257.266845703125
 30
0.0
 11
-151.7569122314453
 21
261.8679504394531
 31
0.0
  0
LINE
  5
178
330
22
100
AcDbEntity
  8
0
  6
Continuous
 62
     7
100
AcDbLine
 10
-153.5295867919922
 20
257.266845703125
 30
0.0
 11
-148.9284820556641
 21
261.8679504394531
 31
0.0
  0
LINE
  5
179
330
22
100
AcDbEntity
  8
0
  6
Continuous
 62
     7
100
AcDbLine
 10
-150.7011566162109
 20
257.266845703125
 30
0.0
 11
-146.1000518798828
 21
261.8679504394531
 31
0.0
  0
LINE
  5
17A
330
22
100
AcDbEntity
  8
0
  6
Continuous
 62
     7
100
AcDbLine
 10
-147.8727264404296
 20
257.266845703125
 30
0.0
 11
-143.2716217041016
 21
261.8679504394531
 31
0.0
  0
LINE
  5
17B
330
22
100
AcDbEntity
  8
0
  6
Continuous
 62
     7
100
AcDbLine
 10
-145.0442962646484
 20
257.266845703125
 30
0.0
 11
-140.4432067871094
 21
261.8679504394531
 31
0.0
  0
LINE
  5
17C
330
22
100
AcDbEntity
  8
0
  6
Continuous
 62
     7
100
AcDbLine
 10
-143.2501373291016
 20
256.2325744628906
 30
0.0
 11
-137.6147766113281
 21
261.8679504394531
 31
0.0
  0
LINE
  5
17D
330
22
100
AcDbEntity
  8
0
  6
Continuous
 62
     7
100
AcDbLine
 10
-141.8109130859375
 20
254.8433685302734
 30
0.0
 11
-134.7863464355469
 21
261.8679504394531
 31
0.0
  0
LINE
  5
17E
330
22
100
AcDbEntity
  8
0
  6
Continuous
 62
     7
100
AcDbLine
 10
-138.9824829101563
 20
254.8433685302734
 30
0.0
 11
-131.9579162597656
 21
261.8679504394531
 31
0.0
  0
LINE
  5
17F
330
22
100
AcDbEntity
  8
0
  6
Continuous
 62
     7
100
AcDbLine
 10
-136.154052734375
 20
254.8433685302734
 30
0.0
 11
-129.1294860839844
 21
261.8679504394531
 31
0.0
  0
LINE
  5
180
330
22
100
AcDbEntity
  8
0
  6
Continuous
 62
     7
100
AcDbLine
 10
-133.3256378173828
 20
254.8433685302734
 30
0.0
 11
-126.3010635375977
 21
261.8679504394531
 31
0.0
  0
LINE
  5
181
330
22
100
AcDbEntity
  8
0
  6
Continuous
 62
     7
100
AcDbLine
 10
-130.4972076416016
 20
254.8433685302734
 30
0.0
 11
-123.4726409912109
 21
261.8679504394531
 31
0.0
  0
LINE
  5
182
330
22
100
AcDbEntity
  8
0
  6
Continuous
 62
     7
100
AcDbLine
 10
-126.0663986206055
 20
256.4457397460938
 30
0.0
 11
-120.6442108154297
 21
261.8679504394531
 31
0.0
  0
LINE
  5
183
330
22
100
AcDbEntity
  8
0
  6
Continuous
 62
     7
100
AcDbLine
 10
-123.1467208862305
 20
256.5369873046875
 30
0.0
 11
-117.8157806396484
 21
261.8679504394531
 31
0.0
  0
LINE
  5
184
330
22
100
AcDbEntity
  8
0
  6
Continuous
 62
     7
100
AcDbLine
 10
-120.22705078125
 20
256.6282348632813
 30
0.0
 11
-114.9873580932617
 21
261.8679504394531
 31
0.0
  0
LINE
  5
185
330
22
100
AcDbEntity
  8
0
  6
Continuous
 62
     7
100
AcDbLine
 10
-117.3073806762695
 20
256.719482421875
 30
0.0
 11
-112.1589279174805
 21
261.8679504394531
 31
0.0
  0
LINE
  5
186
330
22
100
AcDbEntity
  8
0
  6
Continuous
 62
     7
100
AcDbLine
 10
-114.3877105712891
 20
256.8107299804688
 30
0.0
 11
-109.3305053710938
 21
261.8679504394531
 31
0.0
  0
LINE
  5
187
330
22
100
AcDbEntity
  8
0
  6
Continuous
 62
     7
100
AcDbLine
 10
-111.4680404663086
 20
256.9019775390625
 30
0.0
 11
-106.5020751953125
 21
261.8679504394531
 31
0.0
  0
LINE
  5
188
330
22
100
AcDbEntity
  8
0
  6
Continuous
 62
     7
100
AcDbLine
 10
-108.5483703613281
 20
256.9932250976563
 30
0.0
 11
-103.6736450195313
 21
261.8679504394531
 31
0.0
  0
LINE
  5
189
330
22
100
AcDbEntity
  8
0
  6
Continuous
 62
     7
100
AcDbLine
 10
-105.6286926269531
 20
257.08447265625
 30
0.0
 11
-100.8452224731445
 21
261.8679504394531
 31
0.0
  0
LINE
  5
18A
330
22
100
AcDbEntity
  8
0
  6
Continuous
 62
     7
100
AcDbLine
 10
-102.7090225219727
 20
257.1757202148438
 30
0.0
 11
-99.79295349121095
 21
260.0917663574219
 31
0.0
  0
LINE
  5
18B
330
22
100
AcDbEntity
  8
0
  6
Continuous
 62
     7
100
AcDbLine
 10
-146.0509796142578
 20
297.6104125976563
 30
0.0
 11
-144.7929534912109
 21
296.3523864746094
 31
0.0
  0
LINE
  5
18C
330
22
100
AcDbEntity
  8
0
  6
Continuous
 62
     7
100
AcDbLine
 10
-146.404541015625
 20
297.2568664550781
 30
0.0
 11
-144.7929534912109
 21
295.645263671875
 31
0.0
  0
LINE
  5
18D
330
22
100
AcDbEntity
  8
0
  6
Continuous
 62
     7
100
AcDbLine
 10
-147.4651947021484
 20
296.1961975097656
 30
0.0
 11
-144.7929534912109
 21
293.5239562988281
 31
0.0
  0
LINE
  5
18E
330
22
100
AcDbEntity
  8
0
  6
Continuous
 62
     7
100
AcDbLine
 10
-147.7929534912109
 20
295.8168334960938
 30
0.0
 11
-144.7929534912109
 21
292.8168334960938
 31
0.0
  0
LINE
  5
18F
330
22
100
AcDbEntity
  8
0
  6
Continuous
 62
     7
100
AcDbLine
 10
-147.5213623046875
 20
293.4239196777344
 30
0.0
 11
-144.7929534912109
 21
290.6955261230469
 31
0.0
  0
LINE
  5
190
330
22
100
AcDbEntity
  8
0
  6
Continuous
 62
     7
100
AcDbLine
 10
-147.7929534912109
 20
292.9884033203125
 30
0.0
 11
-144.7929534912109
 21
289.9884033203125
 31
0.0
  0
LINE
  5
191
330
22
100
AcDbEntity
  8
0
  6
Continuous
 62
     7
100
AcDbLine
 10
-147.7929534912109
 20
290.8670959472656
 30
0.0
 11
-144.7929534912109
 21
287.8670959472657
 31
0.0
  0
LINE
  5
192
330
22
100
AcDbEntity
  8
0
  6
Continuous
 62
     7
100
AcDbLine
 10
-147.7929534912109
 20
290.1600036621094
 30
0.0
 11
-144.7929534912109
 21
287.1600036621094
 31
0.0
  0
LINE
  5
193
330
22
100
AcDbEntity
  8
0
  6
Continuous
 62
     7
100
AcDbLine
 10
-147.7929534912109
 20
288.0386657714844
 30
0.0
 11
-144.7929534912109
 21
285.0386657714844
 31
0.0
  0
LINE
  5
194
330
22
100
AcDbEntity
  8
0
  6
Continuous
 62
     7
100
AcDbLine
 10
-147.7929534912109
 20
287.3315734863281
 30
0.0
 11
-144.7929534912109
 21
284.3315734863281
 31
0.0
  0
LINE
  5
195
330
22
100
AcDbEntity
  8
0
  6
Continuous
 62
     7
100
AcDbLine
 10
-147.7929534912109
 20
285.2102355957031
 30
0.0
 11
-144.7929534912109
 21
282.2102355957031
 31
0.0
  0
LINE
  5
196
330
22
100
AcDbEntity
  8
0
  6
Continuous
 62
     7
100
AcDbLine
 10
-147.7929534912109
 20
284.5031433105469
 30
0.0
 11
-144.7929534912109
 21
281.5031433105469
 31
0.0
  0
LINE
  5
197
330
22
100
AcDbEntity
  8
0
  6
Continuous
 62
     7
100
AcDbLine
 10
-147.7929534912109
 20
282.3818054199218
 30
0.0
 11
-144.7929534912109
 21
279.3818054199219
 31
0.0
  0
LINE
  5
198
330
22
100
AcDbEntity
  8
0
  6
Continuous
 62
     7
100
AcDbLine
 10
-147.7929534912109
 20
281.6747131347656
 30
0.0
 11
-144.7929534912109
 21
278.6747131347656
 31
0.0
  0
LINE
  5
199
330
22
100
AcDbEntity
  8
0
  6
Continuous
 62
     7
100
AcDbLine
 10
-147.7929534912109
 20
279.5533752441406
 30
0.0
 11
-144.7929534912109
 21
276.5533752441406
 31
0.0
  0
LINE
  5
19A
330
22
100
AcDbEntity
  8
0
  6
Continuous
 62
     7
100
AcDbLine
 10
-147.7929534912109
 20
278.8462829589844
 30
0.0
 11
-144.7929534912109
 21
275.8462829589845
 31
0.0
  0
LINE
  5
19B
330
22
100
AcDbEntity
  8
0
  6
Continuous
 62
     7
100
AcDbLine
 10
-147.7144317626953
 20
276.6464538574219
 30
0.0
 11
-144.7929534912109
 21
273.7249755859375
 31
0.0
  0
LINE
  5
19C
330
22
100
AcDbEntity
  8
0
  6
Continuous
 62
     7
100
AcDbLine
 10
-147.7929534912109
 20
276.0178527832031
 30
0.0
 11
-144.7929534912109
 21
273.017852783203
 31
0.0
  0
LINE
  5
19D
330
22
100
AcDbEntity
  8
0
  6
Continuous
 62
     7
100
AcDbLine
 10
-147.7929534912109
 20
273.8965454101563
 30
0.0
 11
-144.7929534912109
 21
270.8965454101563
 31
0.0
  0
LINE
  5
19E
330
22
100
AcDbEntity
  8
0
  6
Continuous
 62
     7
100
AcDbLine
 10
-147.7929534912109
 20
273.1894226074219
 30
0.0
 11
-144.7929534912109
 21
270.189422607422
 31
0.0
  0
LINE
  5
19F
330
22
100
AcDbEntity
  8
0
  6
Continuous
 62
     7
100
AcDbLine
 10
-147.7929534912109
 20
271.068115234375
 30
0.0
 11
-144.7929534912109
 21
268.068115234375
 31
0.0
  0
LINE
  5
1A0
330
22
100
AcDbEntity
  8
0
  6
Continuous
 62
     7
100
AcDbLine
 10
-147.7929534912109
 20
270.3609924316406
 30
0.0
 11
-144.7929534912109
 21
267.3609924316405
 31
0.0
  0
LINE
  5
1A1
330
22
100
AcDbEntity
  8
0
  6
Continuous
 62
     7
100
AcDbLine
 10
-147.7929534912109
 20
268.2396850585938
 30
0.0
 11
-144.7929534912109
 21
265.2396850585938
 31
0.0
  0
LINE
  5
1A2
330
22
100
AcDbEntity
  8
0
  6
Continuous
 62
     7
100
AcDbLine
 10
-147.7929534912109
 20
267.5325622558594
 30
0.0
 11
-144.7929534912109
 21
264.5325622558594
 31
0.0
  0
LINE
  5
1A3
330
22
100
AcDbEntity
  8
0
  6
Continuous
 62
     7
100
AcDbLine
 10
-147.7929534912109
 20
265.4112548828125
 30
0.0
 11
-144.7929534912109
 21
262.4112548828125
 31
0.0
  0
LINE
  5
1A4
330
22
100
AcDbEntity
  8
0
  6
Continuous
 62
     7
100
AcDbLine
 10
-147.7929534912109
 20
264.7041320800781
 30
0.0
 11
-144.9567413330078
 21
261.8679504394531
 31
0.0
  0
LINE
  5
1A5
330
22
100
AcDbEntity
  8
0
  6
Continuous
 62
     7
100
AcDbLine
 10
-147.7929534912109
 20
262.5828247070313
 30
0.0
 11
-147.0780639648438
 21
261.8679504394531
 31
0.0
  0
LINE
  5
1A6
330
22
100
AcDbEntity
  8
0
  6
Continuous
 62
     7
100
AcDbLine
 10
-147.7929534912109
 20
261.875732421875
 30
0.0
 11
-147.7851715087891
 21
261.8679504394531
 31
0.0
  0
LINE
  5
1A7
330
22
100
AcDbEntity
  8
0
  6
Continuous
 62
     7
100
AcDbLine
 10
-144.79345703125
 20
298.1179504394532
 30
0.0
 11
-145.54345703125
 21
298.1179504394532
 31
0.0
  0
LINE
  5
1A8
330
22
100
AcDbEntity
  8
0
  6
Continuous
 62
     7
100
AcDbLine
 10
-147.79345703125
 20
305.8679504394531
 30
0.0
 11
-145.54345703125
 21
303.6179504394531
 31
0.0
  0
LINE
  5
1A9
330
22
100
AcDbEntity
  8
0
  6
Continuous
 62
     7
100
AcDbLine
 10
-160.7929534912109
 20
213.3679351806641
 30
0.0
 11
-160.7929534912109
 21
255.8679351806641
 31
0.0
  0
LINE
  5
1AA
330
22
100
AcDbEntity
  8
0
  6
Continuous
 62
     7
100
AcDbLine
 10
-180.7929534912109
 20
261.8679504394531
 30
0.0
 11
-180.7929534912109
 21
257.3179321289063
 31
0.0
  0
LINE
  5
1AB
330
22
100
AcDbEntity
  8
0
  6
Continuous
 62
     7
100
AcDbLine
 10
-190.7929534912109
 20
170.8679351806641
 30
0.0
 11
-192.7929534912109
 21
168.8679351806641
 31
0.0
  0
LINE
  5
1AC
330
22
100
AcDbEntity
  8
0
  6
Continuous
 62
     7
100
AcDbLine
 10
-192.7929534912109
 20
168.8679351806641
 30
0.0
 11
-210.7929534912109
 21
168.8679351806641
 31
0.0
  0
LINE
  5
1AD
330
22
100
AcDbEntity
  8
0
  6
Continuous
 62
     7
100
AcDbLine
 10
-180.7929534912109
 20
170.8679351806641
 30
0.0
 11
-190.7929534912109
 21
170.8679351806641
 31
0.0
  0
LINE
  5
1AE
330
22
100
AcDbEntity
  8
0
  6
Continuous
 62
     7
100
AcDbLine
 10
-180.7929534912109
 20
169.4179382324219
 30
0.0
 11
-192.2429504394531
 21
169.4179382324219
 31
0.0
  0
LINE
  5
1AF
330
22
100
AcDbEntity
  8
0
  6
Continuous
 62
     7
100
AcDbLine
 10
-210.7929534912109
 20
144.3679351806641
 30
0.0
 11
-210.7929534912109
 21
213.3679351806641
 31
0.0
  0
LINE
  5
1B0
330
22
100
AcDbEntity
  8
0
  6
Continuous
 62
     7
100
AcDbLine
 10
-215.2929534912109
 20
213.3679351806641
 30
0.0
 11
-215.2929534912109
 21
147.4930725097656
 31
0.0
  0
LINE
  5
1B1
330
22
100
AcDbEntity
  8
0
  6
Continuous
 62
     7
100
AcDbLine
 10
-220.7929534912109
 20
270.3954772949219
 30
0.0
 11
-220.7929534912109
 21
156.3403930664063
 31
0.0
  0
LINE
  5
1B2
330
22
100
AcDbEntity
  8
0
  6
Continuous
 62
     7
100
AcDbLine
 10
-190.7929534912109
 20
170.8679351806641
 30
0.0
 11
-190.7929534912109
 21
213.3679351806641
 31
0.0
  0
LINE
  5
1B3
330
22
100
AcDbEntity
  8
0
  6
Continuous
 62
     7
100
AcDbLine
 10
-180.7929534912109
 20
213.3679351806641
 30
0.0
 11
-180.7929534912109
 21
164.8679351806641
 31
0.0
  0
LINE
  5
1B4
330
22
100
AcDbEntity
  8
0
  6
Continuous
 62
     7
100
AcDbLine
 10
-144.7929534912109
 20
213.3679351806641
 30
0.0
 11
-144.7929534912109
 21
115.8679351806641
 31
0.0
  0
LINE
  5
1B5
330
22
100
AcDbEntity
  8
0
  6
Continuous
 62
     7
100
AcDbLine
 10
-147.7929534912109
 20
213.3679351806641
 30
0.0
 11
-147.7929534912109
 21
115.8679351806641
 31
0.0
  0
LINE
  5
1B6
330
22
100
AcDbEntity
  8
0
  6
Continuous
 62
     7
100
AcDbLine
 10
-99.79295349121095
 20
261.8679504394531
 30
0.0
 11
-99.79295349121095
 21
164.8679351806641
 31
0.0
  0
ARC
  5
1B7
330
22
100
AcDbEntity
  8
0
  6
Continuous
 62
     7
100
AcDbCircle
 10
-358.9002990722656
 20
224.9350128173828
 30
0.0
 40
4.0
100
AcDbArc
 50
19.29831867459385
 51
120.0000397189275
  0
ARC
  5
1B8
330
22
100
AcDbEntity
  8
0
  6
Continuous
 62
     7
100
AcDbCircle
 10
-424.9674987792968
 20
224.9336700439453
 30
0.0
 40
4.0
100
AcDbArc
 50
59.99996028107254
 51
160.7040331064094
  0
ARC
  5
1B9
330
22
100
AcDbEntity
  8
0
  6
Continuous
 62
     7
100
AcDbCircle
 10
-418.4677124023438
 20
236.1921234130859
 30
0.0
 40
4.0
100
AcDbArc
 50
139.2984966478387
 51
239.9999602810733
  0
ARC
  5
1BA
330
22
100
AcDbEntity
  8
0
  6
Continuous
 62
     7
100
AcDbCircle
 10
-391.9336547851563
 20
213.3679351806641
 30
0.0
 40
39.0
100
AcDbArc
 50
40.70395370481096
 51
139.298399935453
  0
ARC
  5
1BB
330
22
100
AcDbEntity
  8
0
  6
Continuous
 62
     7
100
AcDbCircle
 10
-391.9336547851563
 20
213.3679351806641
 30
0.0
 40
38.5
100
AcDbArc
 50
37.68106946083572
 51
142.3212925940579
  0
ARC
  5
1BC
330
22
100
AcDbEntity
  8
0
  6
Continuous
 62
     7
100
AcDbCircle
 10
-365.4005432128906
 20
236.1932067871094
 30
0.0
 40
4.0
100
AcDbArc
 50
300.0000397189282
 51
40.70384981269378
  0
ARC
  5
1BD
330
22
100
AcDbEntity
  8
0
  6
Continuous
 62
     7
100
AcDbCircle
 10
-375.1763610839844
 20
230.5491333007813
 30
0.0
 40
4.0
100
AcDbArc
 50
225.71573689953
 51
299.9999304360001
  0
CIRCLE
  5
1BE
330
22
100
AcDbEntity
  8
0
  6
Continuous
 62
     7
100
AcDbCircle
 10
-392.6636047363281
 20
260.3679504394531
 30
0.0
 40
5.0
  0
ARC
  5
1BF
330
22
100
AcDbEntity
  8
0
  6
Continuous
 62
     7
100
AcDbCircle
 10
-415.191650390625
 20
219.2895812988281
 30
0.0
 40
4.0
100
AcDbArc
 50
345.7156693291918
 51
59.99996028107254
  0
ARC
  5
1C0
330
22
100
AcDbEntity
  8
0
  6
Continuous
 62
     7
100
AcDbCircle
 10
-408.6919860839843
 20
230.5481109619141
 30
0.0
 40
4.0
100
AcDbArc
 50
240.0000695640013
 51
314.2878193831269
  0
CIRCLE
  5
1C1
330
22
100
AcDbEntity
  8
0
  6
Continuous
 62
     7
100
AcDbCircle
 10
-391.9336547851563
 20
213.3679351806641
 30
0.0
 40
16.0
  0
ARC
  5
1C2
330
22
100
AcDbEntity
  8
0
  6
Continuous
 62
     7
100
AcDbCircle
 10
-391.9336547851563
 20
213.3679351806641
 30
0.0
 40
20.0
100
AcDbArc
 50
165.7155838252896
 51
254.2861612737837
  0
ARC
  5
1C3
330
22
100
AcDbEntity
  8
0
  6
Continuous
 62
     7
100
AcDbCircle
 10
-391.9336547851563
 20
213.3679351806641
 30
0.0
 40
20.0
100
AcDbArc
 50
285.7138387262176
 51
14.28789374127748
  0
CIRCLE
  5
1C4
330
22
100
AcDbEntity
  8
0
  6
Continuous
 62
     7
100
AcDbCircle
 10
-468.4403381347656
 20
169.6176452636719
 30
0.0
 40
2.75
  0
CIRCLE
  5
1C5
330
22
100
AcDbEntity
  8
0
  6
Continuous
 62
     7
100
AcDbCircle
 10
-468.4403381347656
 20
169.6176452636719
 30
0.0
 40
5.0
  0
ARC
  5
1C6
330
22
100
AcDbEntity
  8
0
  6
Continuous
 62
     7
100
AcDbCircle
 10
-385.4336547851563
 20
178.976806640625
 30
0.0
 40
4.0
100
AcDbArc
 50
180.0000000000004
 51
280.7027915067197
  0
ARC
  5
1C7
330
22
100
AcDbEntity
  8
0
  6
Continuous
 62
     7
100
AcDbCircle
 10
-398.4336547851563
 20
178.976806640625
 30
0.0
 40
4.0
100
AcDbArc
 50
259.2972084932817
 51
0.0
  0
CIRCLE
  5
1C8
330
22
100
AcDbEntity
  8
0
  6
Continuous
 62
     7
100
AcDbCircle
 10
-439.9136047363281
 20
213.3679351806641
 30
0.0
 40
3.5
  0
CIRCLE
  5
1C9
330
22
100
AcDbEntity
  8
0
  6
Continuous
 62
     7
100
AcDbCircle
 10
-345.4136047363281
 20
213.3679351806641
 30
0.0
 40
3.5
  0
CIRCLE
  5
1CA
330
22
100
AcDbEntity
  8
0
  6
Continuous
 62
     7
100
AcDbCircle
 10
-392.6636047363281
 20
300.8679504394531
 30
0.0
 40
5.0
  0
CIRCLE
  5
1CB
330
22
100
AcDbEntity
  8
0
  6
Continuous
 62
     7
100
AcDbCircle
 10
-392.6636047363281
 20
300.8679504394531
 30
0.0
 40
2.75
  0
CIRCLE
  5
1CC
330
22
100
AcDbEntity
  8
0
  6
Continuous
 62
     7
100
AcDbCircle
 10
-392.6636047363281
 20
260.3679504394531
 30
0.0
 40
5.25
  0
ARC
  5
1CD
330
22
100
AcDbEntity
  8
0
  6
Continuous
 62
     7
100
AcDbCircle
 10
-368.676025390625
 20
219.2910003662109
 30
0.0
 40
4.0
100
AcDbArc
 50
120.0000397189275
 51
194.2879353106223
  0
ARC
  5
1CE
330
22
100
AcDbEntity
  8
0
  6
Continuous
 62
     7
100
AcDbCircle
 10
-391.9336547851563
 20
213.3679351806641
 30
0.0
 40
20.0
100
AcDbArc
 50
45.71558274821165
 51
134.2878788930103
  0
CIRCLE
  5
1CF
330
22
100
AcDbEntity
  8
0
  6
Continuous
 62
     7
100
AcDbCircle
 10
-392.6636047363281
 20
166.3679351806641
 30
0.0
 40
5.0
  0
CIRCLE
  5
1D0
330
22
100
AcDbEntity
  8
0
  6
Continuous
 62
     7
100
AcDbCircle
 10
-392.6636047363281
 20
166.3679351806641
 30
0.0
 40
5.25
  0
CIRCLE
  5
1D1
330
22
100
AcDbEntity
  8
0
  6
Continuous
 62
     7
100
AcDbCircle
 10
-316.8858947753906
 20
169.6182250976563
 30
0.0
 40
5.0
  0
CIRCLE
  5
1D2
330
22
100
AcDbEntity
  8
0
  6
Continuous
 62
     7
100
AcDbCircle
 10
-316.8858947753906
 20
169.6182250976563
 30
0.0
 40
2.75
  0
ARC
  5
1D3
330
22
100
AcDbEntity
  8
0
  6
Continuous
 62
     7
100
AcDbCircle
 10
-398.4336547851563
 20
190.2649078369141
 30
0.0
 40
4.0
100
AcDbArc
 50
0.0
 51
74.28601663404453
  0
ARC
  5
1D4
330
22
100
AcDbEntity
  8
0
  6
Continuous
 62
     7
100
AcDbCircle
 10
-385.4336547851563
 20
190.2649078369141
 30
0.0
 40
4.0
100
AcDbArc
 50
105.7139833659555
 51
180.0000000000004
  0
CIRCLE
  5
1D5
330
22
100
AcDbEntity
  8
0
  6
Continuous
 62
     7
100
AcDbCircle
 10
-392.6636047363281
 20
213.3679351806641
 30
0.0
 40
54.0
  0
CIRCLE
  5
1D6
330
22
100
AcDbEntity
  8
0
  6
Continuous
 62
     7
100
AcDbCircle
 10
-392.6636047363281
 20
213.3679351806641
 30
0.0
 40
69.0
  0
CIRCLE
  5
1D7
330
22
100
AcDbEntity
  8
0
  6
Continuous
 62
     7
100
AcDbCircle
 10
-392.6636047363281
 20
213.3679351806641
 30
0.0
 40
80.5
  0
CIRCLE
  5
1D8
330
22
100
AcDbEntity
  8
0
  6
Continuous
 62
     7
100
AcDbCircle
 10
-392.6636047363281
 20
213.3679351806641
 30
0.0
 40
97.5
  0
CIRCLE
  5
1D9
330
22
100
AcDbEntity
  8
0
  6
CENTER
 62
     7
100
AcDbCircle
 10
-392.6636047363281
 20
213.3679351806641
 30
0.0
 40
87.5
  0
ARC
  5
1DA
330
22
100
AcDbEntity
  8
0
  6
Continuous
 62
     7
100
AcDbCircle
 10
-391.9336547851563
 20
213.3679351806641
 30
0.0
 40
38.5
100
AcDbArc
 50
157.6810474088638
 51
262.32010465719
  0
ARC
  5
1DB
330
22
100
AcDbEntity
  8
0
  6
Continuous
 62
     7
100
AcDbCircle
 10
-391.9336547851563
 20
213.3679351806641
 30
0.0
 40
39.0
100
AcDbArc
 50
160.7039532323078
 51
259.2972180308379
  0
ARC
  5
1DC
330
22
100
AcDbEntity
  8
0
  6
Continuous
 62
     7
100
AcDbCircle
 10
-391.9336547851563
 20
213.3679351806641
 30
0.0
 40
39.0
100
AcDbArc
 50
280.7027819691636
 51
19.29838690218226
  0
ARC
  5
1DD
330
22
100
AcDbEntity
  8
0
  6
Continuous
 62
     7
100
AcDbCircle
 10
-391.9336547851563
 20
213.3679351806641
 30
0.0
 40
38.5
100
AcDbArc
 50
277.679850333864
 51
22.32129320036653
  0
ARC
  5
1DE
330
22
100
AcDbEntity
  8
0
  6
Continuous
 62
     7
100
AcDbCircle
 10
-214.9749298095703
 20
281.8679504394531
 30
0.0
 40
0.5
100
AcDbArc
 50
90.00000000000019
 51
154.9193037259535
  0
ARC
  5
1DF
330
22
100
AcDbEntity
  8
0
  6
Continuous
 62
     7
100
AcDbCircle
 10
-219.7929534912109
 20
270.3954772949219
 30
0.0
 40
1.0
100
AcDbArc
 50
154.9157658048899
 51
180.0000000000004
  0
ARC
  5
1E0
330
22
100
AcDbEntity
  8
0
  6
Continuous
 62
     7
100
AcDbCircle
 10
-214.9749298095703
 20
144.8679351806641
 30
0.0
 40
0.5
100
AcDbArc
 50
205.0838635556956
 51
270.0000000000005
  0
ARC
  5
1E1
330
22
100
AcDbEntity
  8
0
  6
Continuous
 62
     7
100
AcDbCircle
 10
-219.7929534912109
 20
156.3403930664063
 30
0.0
 40
1.0
100
AcDbArc
 50
180.0000000000004
 51
205.0834423815194
  0
TEXT
  5
1E2
330
22
100
AcDbEntity
  8
0
  6
Continuous
 62
     7
100
AcDbText
 10
-313.029839515686
 20
70.71831512451172
 30
0.0
 40
7.0
  1
DL-TP-80
 41
1.020882425188017
100
AcDbText
  0
DIMENSION
  5
1E3
330
22
100
AcDbEntity
  8
0
  6
Continuous
 62
     7
100
AcDbDimension
  2
*D1
 10
-144.7904510498046
 20
335.69775390625
 30
0.0
 11
-138.8613586425781
 21
335.69775390625
 31
0.0
 71
     5
 42
-1.0
  3
DIMSTYLE1
100
AcDbAlignedDimension
 13
-147.7904510498047
 23
315.9647827148438
 33
0.0
 14
-144.7904510498046
 24
310.8679504394531
 34
0.0
100
AcDbRotatedDimension
  0
DIMENSION
  5
1E4
330
22
100
AcDbEntity
  8
0
  6
Continuous
 62
     7
100
AcDbDimension
  2
*D2
 10
-99.79295349121095
 20
98.45533752441406
 30
0.0
 11
-140.2929534912109
 21
98.45533752441406
 31
0.0
 71
     5
 42
-1.0
  3
DIMSTYLE2
100
AcDbAlignedDimension
 13
-180.7929534912109
 23
164.8679351806641
 33
0.0
 14
-99.79295349121095
 24
164.8679351806641
 34
0.0
100
AcDbRotatedDimension
  0
DIMENSION
  5
1E5
330
22
100
AcDbEntity
  8
0
  6
Continuous
 62
     7
100
AcDbDimension
  2
*D3
 10
-70.3995132446289
 20
261.8679504394531
 30
0.0
 11
-70.3995132446289
 21
213.3679351806641
 31
0.0
 71
     5
 42
-1.0
  3
DIMSTYLE3
100
AcDbAlignedDimension
 13
-99.79295349121095
 23
164.8679351806641
 33
0.0
 14
-99.79295349121095
 24
261.8679504394531
 34
0.0
 50
90.0
100
AcDbRotatedDimension
  0
INSERT
  5
1E6
330
22
100
AcDbEntity
  8
0
  6
Continuous
 62
     7
100
AcDbBlockReference
  2
KOZU0001
 10
-116.7487640380859
 20
256.7369384765625
 30
0.0
  0
DIMENSION
  5
1E7
330
22
100
AcDbEntity
  8
0
  6
Continuous
 62
     7
100
AcDbDimension
  2
*D4
 10
-210.7929534912109
 20
335.69775390625
 30
0.0
 11
-179.2929534912109
 21
335.69775390625
 31
0.0
 71
     5
 42
-1.0
  3
DIMSTYLE4
100
AcDbAlignedDimension
 13
-147.7929534912109
 23
310.8679504394531
 33
0.0
 14
-210.7929534912109
 24
282.3679504394531
 34
0.0
100
AcDbRotatedDimension
  0
DIMENSION
  5
1E8
330
22
100
AcDbEntity
  8
0
  6
Continuous
 62
     7
100
AcDbDimension
  2
*D5
 10
-220.7929534912109
 20
335.69775390625
 30
0.0
 11
-215.7929534912109
 21
335.69775390625
 31
0.0
 71
     5
 42
-1.0
  3
DIMSTYLE5
100
AcDbAlignedDimension
 13
-210.7929534912109
 23
337.9837341308594
 33
0.0
 14
-220.7929534912109
 24
270.3954772949219
 34
0.0
100
AcDbRotatedDimension
  0
DIMENSION
  5
1E9
330
22
100
AcDbEntity
  8
0
  6
Continuous
 62
     7
100
AcDbDimension
  2
*D6
 10
-180.7929534912109
 20
325.5467529296875
 30
0.0
 11
-164.2929534912109
 21
325.5467529296875
 31
0.0
 71
     5
 42
-1.0
  3
DIMSTYLE6
100
AcDbAlignedDimension
 13
-147.7929534912109
 23
337.9837341308594
 33
0.0
 14
-180.7929534912109
 24
261.8679504394531
 34
0.0
100
AcDbRotatedDimension
  0
DIMENSION
  5
1EA
330
22
100
AcDbEntity
  8
0
  6
Continuous
 62
     7
100
AcDbDimension
  2
*D7
 10
-160.7929534912109
 20
223.4529571533203
 30
0.0
 11
-190.7929534912109
 21
223.4529571533203
 31
0.0
 71
     5
 42
-1.0
  3
DIMSTYLE7
100
AcDbAlignedDimension
 13
-220.7929534912109
 23
270.3954772949219
 33
0.0
 14
-160.7929534912109
 24
213.3679351806641
 34
0.0
100
AcDbRotatedDimension
  0
DIMENSION
  5
1EB
330
22
100
AcDbEntity
  8
0
  6
Continuous
 62
     7
100
AcDbDimension
  2
*D8
 10
-431.1082110932838
 20
123.7673646352779
 30
0.0
 11
-345.3770446777344
 21
323.575927734375
 31
0.0
 70
     3
 71
     5
 42
-1.0
  3
DIMSTYLE8
100
AcDbDiametricDimension
 15
-354.2189983793724
 25
302.9685057260502
 35
0.0
 40
0.0
  0
DIMENSION
  5
1EC
330
22
100
AcDbEntity
  8
0
  6
Continuous
 62
     7
100
AcDbDimension
  2
*D9
 10
-434.9116426903676
 20
158.8142617110063
 30
0.0
 11
-320.0191650390625
 21
307.1716003417969
 31
0.0
 70
     3
 71
     5
 42
-1.0
  3
DIMSTYLE9
100
AcDbDiametricDimension
 15
-350.4155667822886
 25
267.9216086503218
 35
0.0
 40
0.0
  0
DIMENSION
  5
1ED
330
22
100
AcDbEntity
  8
0
  6
Continuous
 62
     7
100
AcDbDimension
  2
*D10
 10
-438.9670762268113
 20
185.5832536469482
 30
0.0
 11
-294.4093933105469
 21
272.3259582519531
 31
0.0
 70
     3
 71
     5
 42
-1.0
  3
DIMSTYLE10
100
AcDbDiametricDimension
 15
-346.360133245845
 25
241.15261671438
 35
0.0
 40
0.0
  0
DIMENSION
  5
1EE
330
22
100
AcDbEntity
  8
0
  6
Continuous
 62
     7
100
AcDbDimension
  2
*D11
 10
-326.2075535256466
 20
156.4483141569496
 30
0.0
 11
-477.8236999511718
 21
286.3075866699219
 31
0.0
 70
     3
 71
     5
 42
-1.0
  3
DIMSTYLE11
100
AcDbDiametricDimension
 15
-459.1196559470096
 25
270.2875562043785
 35
0.0
 40
0.0
  0
INSERT
  5
1EF
330
22
100
AcDbEntity
  8
0
  6
Continuous
 62
     7
100
AcDbBlockReference
  2
KOZU0002
 10
-395.1702270507813
 20
305.1942443847656
 30
0.0
  0
ENDSEC
  0
SECTION
  2
OBJECTS
  0
DICTIONARY
  5
C
330
0
100
AcDbDictionary
281
     1
  3
ACAD_COLOR
350
1B
  3
ACAD_GROUP
350
D
  3
ACAD_LAYOUT
350
19
  3
ACAD_MATERIAL
350
1A
  3
ACAD_MLINESTYLE
350
16
  3
ACAD_PLOTSETTINGS
350
18
  3
ACAD_PLOTSTYLENAME
350
E
  3
ACAD_TABLESTYLE
350
1C
  3
AcDbVariableDictionary
350
1FB
  0
DICTIONARY
  5
1B
102
{ACAD_REACTORS
330
C
102
}
330
C
100
AcDbDictionary
281
     1
  0
DICTIONARY
  5
D
102
{ACAD_REACTORS
330
C
102
}
330
C
100
AcDbDictionary
281
     1
  0
DICTIONARY
  5
19
102
{ACAD_REACTORS
330
C
102
}
330
C
100
AcDbDictionary
281
     1
  3
Model
350
25
  3
レイアウト1
350
21
  0
DICTIONARY
  5
1A
102
{ACAD_REACTORS
330
C
102
}
330
C
100
AcDbDictionary
281
     1
  0
DICTIONARY
  5
16
102
{ACAD_REACTORS
330
C
102
}
330
C
100
AcDbDictionary
281
     1
  3
Standard
350
17
  0
DICTIONARY
  5
18
102
{ACAD_REACTORS
330
C
102
}
330
C
100
AcDbDictionary
281
     1
  0
ACDBDICTIONARYWDFLT
  5
E
102
{ACAD_REACTORS
330
C
102
}
330
C
100
AcDbDictionary
281
     1
  3
Normal
350
F
100
AcDbDictionaryWithDefault
340
F
  0
DICTIONARY
  5
1C
102
{ACAD_REACTORS
330
C
102
}
330
C
100
AcDbDictionary
281
     1
  3
Standard
350
1D
  0
DICTIONARY
  5
1FB
102
{ACAD_REACTORS
330
C
102
}
330
C
100
AcDbDictionary
281
     1
  3
CTABLESTYLE
350
1FC
  0
LAYOUT
  5
25
102
{ACAD_REACTORS
330
19
102
}
330
19
100
AcDbPlotSettings
  1

  2
PDF reDirect v2
  4
User66
  6

 40
3.174999952316284
 41
3.174999952316284
 42
3.17498779296875
 43
3.17498779296875
 44
420.0
 45
594.0
 46
0.0
 47
0.0
 48
0.0
 49
0.0
140
0.0
141
0.0
142
1.0
143
1.0
 70
 11952
 72
     1
 73
     1
 74
     2
  7
C:\Users\ck\AppData\Roaming\Autodesk\AutoCAD 2005\R16.1\jpn\Plot Styles\black.ctb
 75
    16
147
1.0
 76
     0
 77
     2
 78
   300
148
592.0
149
0.0
100
AcDbLayout
  1
Model
 70
     1
 71
     0
 10
0.0
 20
0.0
 11
12.0
 21
9.0
 12
0.0
 22
0.0
 32
0.0
 14
0.0
 24
0.0
 34
0.0
 15
0.0
 25
0.0
 35
0.0
146
0.0
 13
0.0
 23
0.0
 33
0.0
 16
1.0
 26
0.0
 36
0.0
 17
0.0
 27
1.0
 37
0.0
 76
     0
330
22
1001
ACAD_PSEXT
1000
PDF reDirect v2
1000
PDF reDirect Pro
1000
PDF_REDIRECT_PORT:
1000
PDF reDirect provided by EXP Systems
1070
     0
  0
LAYOUT
  5
21
102
{ACAD_REACTORS
330
19
102
}
330
19
100
AcDbPlotSettings
  1

  2
PDF reDirect v2
  4

  6

 40
0.0
 41
0.0
 42
0.0
 43
0.0
 44
0.0
 45
0.0
 46
0.0
 47
0.0
 48
0.0
 49
0.0
140
0.0
141
0.0
142
1.0
143
1.0
 70
   688
 72
     0
 73
     0
 74
     5
  7
C:\Users\ck\AppData\Roaming\Autodesk\AutoCAD 2005\R16.1\jpn\Plot Styles\black.ctb
 75
    16
147
1.0
 76
     0
 77
     2
 78
   300
148
0.0
149
0.0
100
AcDbLayout
  1
レイアウト1
 70
     1
 71
     1
 10
-592.0
 20
0.0
 11
0.0
 21
418.0
 12
0.0
 22
0.0
 32
0.0
 14
1.000000000000000E+20
 24
1.000000000000000E+20
 34
1.000000000000000E+20
 15
-1.000000000000000E+20
 25
-1.000000000000000E+20
 35
-1.000000000000000E+20
146
0.0
 13
0.0
 23
0.0
 33
0.0
 16
1.0
 26
0.0
 36
0.0
 17
0.0
 27
1.0
 37
0.0
 76
     0
330
1E
  0
MLINESTYLE
  5
17
102
{ACAD_REACTORS
330
16
102
}
330
16
100
AcDbMlineStyle
  2
STANDARD
 70
     0
  3

 62
   256
 51
90.0
 52
90.0
 71
     2
 49
0.5
 62
   256
  6
BYLAYER
 49
-0.5
 62
   256
  6
BYLAYER
  0
ACDBPLACEHOLDER
  5
F
102
{ACAD_REACTORS
330
E
102
}
330
E
  0
TABLESTYLE
  5
1D
102
{ACAD_REACTORS
330
1C
102
}
330
1C
100
AcDbTableStyle
  3
Standard
 70
     0
 71
     0
 40
0.06
 41
0.06
280
     0
281
     0
  7
STANDARD
140
0.18
170
     2
 62
     0
 63
     7
283
     0
274
    -2
284
     1
 64
     0
275
    -2
285
     1
 65
     0
276
    -2
286
     1
 66
     0
277
    -2
287
     1
 67
     0
278
    -2
288
     1
 68
     0
279
    -2
289
     1
 69
     0
  7
STANDARD
140
0.25
170
     5
 62
     0
 63
     7
283
     0
274
    -2
284
     1
 64
     0
275
    -2
285
     1
 65
     0
276
    -2
286
     1
 66
     0
277
    -2
287
     1
 67
     0
278
    -2
288
     1
 68
     0
279
    -2
289
     1
 69
     0
  7
STANDARD
140
0.18
170
     5
 62
     0
 63
     7
283
     0
274
    -2
284
     1
 64
     0
275
    -2
285
     1
 65
     0
276
    -2
286
     1
 66
     0
277
    -2
287
     1
 67
     0
278
    -2
288
     1
 68
     0
279
    -2
289
     1
 69
     0
  0
DICTIONARYVAR
  5
1FC
102
{ACAD_REACTORS
330
1FB
102
}
330
1FB
100
DictionaryVariables
280
     0
  1
STANDARD
  0
ENDSEC
  0
EOF
