  0
SECTION
  2
HEADER
  9
$ACADVER
  1
AC1018
  9
$ACADMAINTVER
 70
    39
  9
$DWGCODEPAGE
  3
ANSI_932
  9
$INSBASE
 10
0.0
 20
0.0
 30
0.0
  9
$EXTMIN
 10
-388.3792714474015
 20
74.73889237774869
 30
-0.0015258207003583
  9
$EXTMAX
 10
-63.28375153602542
 20
261.9272314856379
 30
0.0000000349246037
  9
$LIMMIN
 10
-423.0
 20
-2.0
  9
$LIMMAX
 10
-5.0
 20
293.0
  9
$ORTHOMODE
 70
     0
  9
$REGENMODE
 70
     1
  9
$FILLMODE
 70
     1
  9
$QTEXTMODE
 70
     0
  9
$MIRRTEXT
 70
     0
  9
$LTSCALE
 40
1.0
  9
$ATTMODE
 70
     1
  9
$TEXTSIZE
 40
0.2
  9
$TRACEWID
 40
0.05
  9
$TEXTSTYLE
  7
STANDARD
  9
$CLAYER
  8
0
  9
$CELTYPE
  6
CONTINUOUS
  9
$CECOLOR
 62
   256
  9
$CELTSCALE
 40
1.0
  9
$DISPSILH
 70
     0
  9
$DIMSCALE
 40
1.0
  9
$DIMASZ
 40
1.0
  9
$DIMEXO
 40
2.54
  9
$DIMDLI
 40
0.38
  9
$DIMRND
 40
0.0
  9
$DIMDLE
 40
0.0
  9
$DIMEXE
 40
2.54
  9
$DIMTP
 40
0.0
  9
$DIMTM
 40
0.0
  9
$DIMTXT
 40
3.0
  9
$DIMCEN
 40
0.09
  9
$DIMTSZ
 40
0.0
  9
$DIMTOL
 70
     0
  9
$DIMLIM
 70
     0
  9
$DIMTIH
 70
     0
  9
$DIMTOH
 70
     0
  9
$DIMSE1
 70
     0
  9
$DIMSE2
 70
     0
  9
$DIMTAD
 70
     1
  9
$DIMZIN
 70
     0
  9
$DIMBLK
  1

  9
$DIMASO
 70
     1
  9
$DIMSHO
 70
     0
  9
$DIMPOST
  1

  9
$DIMAPOST
  1

  9
$DIMALT
 70
     0
  9
$DIMALTD
 70
     2
  9
$DIMALTF
 40
25.4
  9
$DIMLFAC
 40
1.0
  9
$DIMTOFL
 70
     0
  9
$DIMTVP
 40
1.0
  9
$DIMTIX
 70
     0
  9
$DIMSOXD
 70
     0
  9
$DIMSAH
 70
     1
  9
$DIMBLK1
  1

  9
$DIMBLK2
  1

  9
$DIMSTYLE
  2
DIMSTYLE1
  9
$DIMCLRD
 70
     0
  9
$DIMCLRE
 70
     0
  9
$DIMCLRT
 70
     0
  9
$DIMTFAC
 40
1.0
  9
$DIMGAP
 40
1.5
  9
$DIMJUST
 70
     0
  9
$DIMSD1
 70
     0
  9
$DIMSD2
 70
     0
  9
$DIMTOLJ
 70
     1
  9
$DIMTZIN
 70
     0
  9
$DIMALTZ
 70
     0
  9
$DIMALTTZ
 70
     0
  9
$DIMUPT
 70
     0
  9
$DIMDEC
 70
     4
  9
$DIMTDEC
 70
     4
  9
$DIMALTU
 70
     2
  9
$DIMALTTD
 70
     2
  9
$DIMTXSTY
  7
STANDARD
  9
$DIMAUNIT
 70
     0
  9
$DIMADEC
 70
     0
  9
$DIMALTRND
 40
0.0
  9
$DIMAZIN
 70
     0
  9
$DIMDSEP
 70
    46
  9
$DIMATFIT
 70
     3
  9
$DIMFRAC
 70
     0
  9
$DIMLDRBLK
  1

  9
$DIMLUNIT
 70
     2
  9
$DIMLWD
 70
    -2
  9
$DIMLWE
 70
    -2
  9
$DIMTMOVE
 70
     0
  9
$LUNITS
 70
     2
  9
$LUPREC
 70
     4
  9
$SKETCHINC
 40
0.1
  9
$FILLETRAD
 40
0.0
  9
$AUNITS
 70
     0
  9
$AUPREC
 70
     0
  9
$MENU
  1
.
  9
$ELEVATION
 40
0.0
  9
$PELEVATION
 40
0.0
  9
$THICKNESS
 40
0.0
  9
$LIMCHECK
 70
     0
  9
$CHAMFERA
 40
0.0
  9
$CHAMFERB
 40
0.0
  9
$CHAMFERC
 40
0.0
  9
$CHAMFERD
 40
0.0
  9
$SKPOLY
 70
     0
  9
$TDCREATE
 40
2457844.021943762
  9
$TDUCREATE
 40
2457843.646943762
  9
$TDUPDATE
 40
2457844.022507211
  9
$TDUUPDATE
 40
2457843.647507211
  9
$TDINDWG
 40
0.0005649537
  9
$TDUSRTIMER
 40
0.0005649537
  9
$USRTIMER
 70
     1
  9
$ANGBASE
 50
0.0
  9
$ANGDIR
 70
     0
  9
$PDMODE
 70
     0
  9
$PDSIZE
 40
0.0
  9
$PLINEWID
 40
0.0
  9
$SPLFRAME
 70
     0
  9
$SPLINETYPE
 70
     6
  9
$SPLINESEGS
 70
     8
  9
$HANDSEED
  5
150
  9
$SURFTAB1
 70
     6
  9
$SURFTAB2
 70
     6
  9
$SURFTYPE
 70
     6
  9
$SURFU
 70
     6
  9
$SURFV
 70
     6
  9
$UCSBASE
  2

  9
$UCSNAME
  2

  9
$UCSORG
 10
0.0
 20
0.0
 30
0.0
  9
$UCSXDIR
 10
1.0
 20
0.0
 30
0.0
  9
$UCSYDIR
 10
0.0
 20
1.0
 30
0.0
  9
$UCSORTHOREF
  2

  9
$UCSORTHOVIEW
 70
     0
  9
$UCSORGTOP
 10
0.0
 20
0.0
 30
0.0
  9
$UCSORGBOTTOM
 10
0.0
 20
0.0
 30
0.0
  9
$UCSORGLEFT
 10
0.0
 20
0.0
 30
0.0
  9
$UCSORGRIGHT
 10
0.0
 20
0.0
 30
0.0
  9
$UCSORGFRONT
 10
0.0
 20
0.0
 30
0.0
  9
$UCSORGBACK
 10
0.0
 20
0.0
 30
0.0
  9
$PUCSBASE
  2

  9
$PUCSNAME
  2

  9
$PUCSORG
 10
0.0
 20
0.0
 30
0.0
  9
$PUCSXDIR
 10
1.0
 20
0.0
 30
0.0
  9
$PUCSYDIR
 10
0.0
 20
1.0
 30
0.0
  9
$PUCSORTHOREF
  2

  9
$PUCSORTHOVIEW
 70
     0
  9
$PUCSORGTOP
 10
0.0
 20
0.0
 30
0.0
  9
$PUCSORGBOTTOM
 10
0.0
 20
0.0
 30
0.0
  9
$PUCSORGLEFT
 10
0.0
 20
0.0
 30
0.0
  9
$PUCSORGRIGHT
 10
0.0
 20
0.0
 30
0.0
  9
$PUCSORGFRONT
 10
0.0
 20
0.0
 30
0.0
  9
$PUCSORGBACK
 10
0.0
 20
0.0
 30
0.0
  9
$USERI1
 70
     0
  9
$USERI2
 70
     0
  9
$USERI3
 70
     0
  9
$USERI4
 70
     0
  9
$USERI5
 70
     0
  9
$USERR1
 40
0.0
  9
$USERR2
 40
0.0
  9
$USERR3
 40
0.0
  9
$USERR4
 40
0.0
  9
$USERR5
 40
0.0
  9
$WORLDVIEW
 70
     1
  9
$SHADEDGE
 70
     3
  9
$SHADEDIF
 70
    70
  9
$TILEMODE
 70
     1
  9
$MAXACTVP
 70
    64
  9
$PINSBASE
 10
0.0
 20
0.0
 30
0.0
  9
$PLIMCHECK
 70
     0
  9
$PEXTMIN
 10
1.000000000000000E+20
 20
1.000000000000000E+20
 30
1.000000000000000E+20
  9
$PEXTMAX
 10
-1.000000000000000E+20
 20
-1.000000000000000E+20
 30
-1.000000000000000E+20
  9
$PLIMMIN
 10
-423.0
 20
-2.0
  9
$PLIMMAX
 10
-5.0
 20
293.0
  9
$UNITMODE
 70
     0
  9
$VISRETAIN
 70
     1
  9
$PLINEGEN
 70
     0
  9
$PSLTSCALE
 70
     1
  9
$TREEDEPTH
 70
  3020
  9
$CMLSTYLE
  2
Standard
  9
$CMLJUST
 70
     0
  9
$CMLSCALE
 40
1.0
  9
$PROXYGRAPHICS
 70
     1
  9
$MEASUREMENT
 70
     0
  9
$CELWEIGHT
370
    -1
  9
$ENDCAPS
280
     0
  9
$JOINSTYLE
280
     0
  9
$LWDISPLAY
290
     0
  9
$INSUNITS
 70
     0
  9
$HYPERLINKBASE
  1

  9
$STYLESHEET
  1

  9
$XEDIT
290
     1
  9
$CEPSNTYPE
380
     0
  9
$PSTYLEMODE
290
     1
  9
$FINGERPRINTGUID
  2
{50885E86-753E-4DC2-A48B-34B56F4FC890}
  9
$VERSIONGUID
  2
{E7BEB442-8E72-44F8-9BD9-9143D51FD516}
  9
$EXTNAMES
290
     1
  9
$PSVPSCALE
 40
0.0
  9
$OLESTARTUP
290
     0
  9
$SORTENTS
280
   127
  9
$INDEXCTL
280
     0
  9
$HIDETEXT
280
     0
  9
$XCLIPFRAME
290
     0
  9
$HALOGAP
280
     0
  9
$OBSCOLOR
 70
   257
  9
$OBSLTYPE
280
     0
  9
$INTERSECTIONDISPLAY
280
     0
  9
$INTERSECTIONCOLOR
 70
   257
  9
$DIMASSOC
280
     1
  9
$PROJECTNAME
  1

  0
ENDSEC
  0
SECTION
  2
CLASSES
  0
CLASS
  1
ACDBDICTIONARYWDFLT
  2
AcDbDictionaryWithDefault
  3
ObjectDBX Classes
 90
        0
 91
        1
280
     0
281
     0
  0
CLASS
  1
TABLESTYLE
  2
AcDbTableStyle
  3
ObjectDBX Classes
 90
     2047
 91
        1
280
     0
281
     0
  0
CLASS
  1
DICTIONARYVAR
  2
AcDbDictionaryVar
  3
ObjectDBX Classes
 90
        0
 91
        1
280
     0
281
     0
  0
ENDSEC
  0
SECTION
  2
TABLES
  0
TABLE
  2
VPORT
  5
8
330
0
100
AcDbSymbolTable
 70
     2
  0
VPORT
  5
14F
330
8
100
AcDbSymbolTableRecord
100
AcDbViewportTableRecord
  2
*Active
 70
     0
 10
0.0
 20
0.0
 11
1.0
 21
1.0
 12
-214.0
 22
145.5
 13
0.0
 23
0.0
 14
1.0
 24
1.0
 15
0.0
 25
0.0
 16
0.0
 26
0.0
 36
1.0
 17
0.0
 27
0.0
 37
0.0
 40
297.3320158102766
 41
1.707124010554089
 42
50.0
 43
0.0
 44
0.0
 50
0.0
 51
0.0
 71
     0
 72
   100
 73
     1
 74
     1
 75
     0
 76
     0
 77
     0
 78
     0
281
     0
 65
     1
110
0.0
120
0.0
130
0.0
111
1.0
121
0.0
131
0.0
112
0.0
122
1.0
132
0.0
 79
     0
146
0.0
  0
ENDTAB
  0
TABLE
  2
LTYPE
  5
5
330
0
100
AcDbSymbolTable
 70
     6
  0
LTYPE
  5
13
330
5
100
AcDbSymbolTableRecord
100
AcDbLinetypeTableRecord
  2
ByBlock
 70
     0
  3

 72
    65
 73
     0
 40
0.0
  0
LTYPE
  5
14
330
5
100
AcDbSymbolTableRecord
100
AcDbLinetypeTableRecord
  2
ByLayer
 70
     0
  3

 72
    65
 73
     0
 40
0.0
  0
LTYPE
  5
15
330
5
100
AcDbSymbolTableRecord
100
AcDbLinetypeTableRecord
  2
CONTINUOUS
 70
     0
  3
Solid line
 72
    65
 73
     0
 40
0.0
  0
LTYPE
  5
26
330
5
100
AcDbSymbolTableRecord
100
AcDbLinetypeTableRecord
  2
DASHED
 70
     0
  3
__ __ __ __ __ __ __ __ __ __ __ __ __ __ __
 72
    65
 73
     2
 40
3.5
 49
2.0
 74
     0
 49
-1.5
 74
     0
  0
LTYPE
  5
27
330
5
100
AcDbSymbolTableRecord
100
AcDbLinetypeTableRecord
  2
CENTER
 70
     0
  3
____ _ ____ _ ____ _ ____ _ ____ _ ____ _ ____
 72
    65
 73
     4
 40
17.5
 49
13.0
 74
     0
 49
-1.5
 74
     0
 49
1.5
 74
     0
 49
-1.5
 74
     0
  0
LTYPE
  5
28
330
5
100
AcDbSymbolTableRecord
100
AcDbLinetypeTableRecord
  2
PHANTOM
 70
     0
  3
_____ _ _ _____ _ _ _____ _ _ _____ _ _ ____  
 72
    65
 73
     6
 40
15.5
 49
8.0
 74
     0
 49
-1.5
 74
     0
 49
1.5
 74
     0
 49
-1.5
 74
     0
 49
1.5
 74
     0
 49
-1.5
 74
     0
  0
LTYPE
  5
29
330
5
100
AcDbSymbolTableRecord
100
AcDbLinetypeTableRecord
  2
DOT
 70
     0
  3
. . . . . . . . . . . . . . . . . . . . . . . .
 72
    65
 73
     2
 40
0.25
 49
0.0
 74
     0
 49
-0.25
 74
     0
  0
LTYPE
  5
2A
330
5
100
AcDbSymbolTableRecord
100
AcDbLinetypeTableRecord
  2
HIDDEN
 70
     0
  3
__ __ __ __ __ __ __ __ __ __ __ __ __ __ __
 72
    65
 73
     2
 40
3.5
 49
2.0
 74
     0
 49
-1.5
 74
     0
  0
ENDTAB
  0
TABLE
  2
LAYER
  5
2
330
0
100
AcDbSymbolTable
 70
     3
  0
LAYER
  5
10
330
2
100
AcDbSymbolTableRecord
100
AcDbLayerTableRecord
  2
0
 70
     0
 62
     7
  6
CONTINUOUS
370
    -3
390
F
  0
LAYER
  5
2B
330
2
100
AcDbSymbolTableRecord
100
AcDbLayerTableRecord
  2
1
 70
     0
 62
     7
  6
CONTINUOUS
370
    -3
390
F
  0
LAYER
  5
2C
330
2
100
AcDbSymbolTableRecord
100
AcDbLayerTableRecord
  2
DEFPOINTS
 70
     0
 62
     7
  6
CONTINUOUS
290
     0
370
    -3
390
F
  0
ENDTAB
  0
TABLE
  2
STYLE
  5
3
330
0
100
AcDbSymbolTable
 70
     2
  0
STYLE
  5
11
330
3
100
AcDbSymbolTableRecord
100
AcDbTextStyleTableRecord
  2
STANDARD
 70
     0
 40
0.0
 41
1.0
 50
0.0
 71
     0
 42
0.2
  3

  4

1001
ACAD
1000
MS Gothic
1071
    32817
  0
ENDTAB
  0
TABLE
  2
VIEW
  5
6
330
0
100
AcDbSymbolTable
 70
     0
  0
ENDTAB
  0
TABLE
  2
UCS
  5
7
330
0
100
AcDbSymbolTable
 70
     0
  0
ENDTAB
  0
TABLE
  2
APPID
  5
9
330
0
100
AcDbSymbolTable
 70
     2
  0
APPID
  5
12
330
9
100
AcDbSymbolTableRecord
100
AcDbRegAppTableRecord
  2
ACAD
 70
     0
  0
APPID
  5
144
330
9
100
AcDbSymbolTableRecord
100
AcDbRegAppTableRecord
  2
ACAD_PSEXT
 70
     0
  0
ENDTAB
  0
TABLE
  2
DIMSTYLE
  5
A
330
0
100
AcDbSymbolTable
 70
     6
100
AcDbDimStyleTable
 71
     1
340
2D
  0
DIMSTYLE
105
2D
102
{ACAD_REACTORS
330
13C
102
}
330
A
100
AcDbSymbolTableRecord
100
AcDbDimStyleTableRecord
  2
DIMSTYLE1
 70
     0
 41
1.0
 42
2.54
 44
2.54
 73
     0
 74
     0
 77
     1
140
3.0
145
1.0
147
1.5
172
     1
173
     1
279
     2
340
11
  0
DIMSTYLE
105
2E
102
{ACAD_REACTORS
330
13D
102
}
330
A
100
AcDbSymbolTableRecord
100
AcDbDimStyleTableRecord
  2
DIMSTYLE2
 70
     0
 41
1.0
 42
2.54
 44
2.54
 73
     0
 74
     0
 77
     1
140
3.0
145
1.0
147
1.5
172
     1
173
     1
279
     2
340
11
  0
DIMSTYLE
105
2F
102
{ACAD_REACTORS
330
13E
102
}
330
A
100
AcDbSymbolTableRecord
100
AcDbDimStyleTableRecord
  2
DIMSTYLE3
 70
     0
 41
1.0
 42
2.54
 44
2.54
 73
     0
 74
     0
 77
     1
140
3.0
145
1.0
147
1.5
172
     1
173
     1
279
     2
340
11
  0
DIMSTYLE
105
30
102
{ACAD_REACTORS
330
13F
102
}
330
A
100
AcDbSymbolTableRecord
100
AcDbDimStyleTableRecord
  2
DIMSTYLE4
 70
     0
 41
1.0
 42
2.54
 44
2.54
 73
     0
 74
     0
 75
     1
 76
     1
 77
     1
140
3.0
145
1.0
147
1.5
172
     1
173
     1
279
     2
340
11
  0
DIMSTYLE
105
31
102
{ACAD_REACTORS
330
140
102
}
330
A
100
AcDbSymbolTableRecord
100
AcDbDimStyleTableRecord
  2
DIMSTYLE5
 70
     0
 41
1.0
 42
2.54
 44
2.54
 73
     0
 74
     0
 75
     1
 76
     1
 77
     1
140
3.0
145
1.0
147
1.5
172
     1
173
     1
279
     2
340
11
  0
ENDTAB
  0
TABLE
  2
BLOCK_RECORD
  5
1
330
0
100
AcDbSymbolTable
 70
     8
  0
BLOCK_RECORD
  5
22
330
1
100
AcDbSymbolTableRecord
100
AcDbBlockTableRecord
  2
*Model_Space
340
25
  0
BLOCK_RECORD
  5
1E
330
1
100
AcDbSymbolTableRecord
100
AcDbBlockTableRecord
  2
*Paper_Space
340
21
  0
BLOCK_RECORD
  5
35
330
1
100
AcDbSymbolTableRecord
100
AcDbBlockTableRecord
  2
_OPEN30
340
0
102
{BLKREFS
331
3E
331
3F
331
4A
331
4B
331
55
331
56
331
62
331
63
331
6C
331
6D
102
}
  0
BLOCK_RECORD
  5
3B
330
1
100
AcDbSymbolTableRecord
100
AcDbBlockTableRecord
  2
*D1
340
0
  0
BLOCK_RECORD
  5
47
330
1
100
AcDbSymbolTableRecord
100
AcDbBlockTableRecord
  2
*D2
340
0
  0
BLOCK_RECORD
  5
52
330
1
100
AcDbSymbolTableRecord
100
AcDbBlockTableRecord
  2
*D3
340
0
  0
BLOCK_RECORD
  5
5E
330
1
100
AcDbSymbolTableRecord
100
AcDbBlockTableRecord
  2
*D4
340
0
  0
BLOCK_RECORD
  5
68
330
1
100
AcDbSymbolTableRecord
100
AcDbBlockTableRecord
  2
*D5
340
0
  0
BLOCK_RECORD
  5
72
330
1
100
AcDbSymbolTableRecord
100
AcDbBlockTableRecord
  2
KOZU0001
340
0
102
{BLKREFS
331
141
102
}
  0
ENDTAB
  0
ENDSEC
  0
SECTION
  2
BLOCKS
  0
BLOCK
  5
23
330
22
100
AcDbEntity
  8
0
100
AcDbBlockBegin
  2
*Model_Space
 70
     0
 10
0.0
 20
0.0
 30
0.0
  3
*Model_Space
  1

  0
ENDBLK
  5
24
330
22
100
AcDbEntity
  8
0
100
AcDbBlockEnd
  0
BLOCK
  5
1F
330
1E
100
AcDbEntity
 67
     1
  8
0
100
AcDbBlockBegin
  2
*Paper_Space
 70
     0
 10
0.0
 20
0.0
 30
0.0
  3
*Paper_Space
  1

  0
ENDBLK
  5
20
330
1E
100
AcDbEntity
 67
     1
  8
0
100
AcDbBlockEnd
  0
BLOCK
  5
36
330
35
100
AcDbEntity
  8
0
100
AcDbBlockBegin
  2
_OPEN30
 70
     0
 10
0.0
 20
0.0
 30
0.0
  3
_OPEN30
  1

  0
LINE
  5
37
330
35
100
AcDbEntity
  8
0
  6
ByBlock
 62
     0
100
AcDbLine
 10
0.0
 20
0.0
 30
0.0
 11
-2.999999999999993
 21
-1.000000000000017
 31
0.0
  0
LINE
  5
38
330
35
100
AcDbEntity
  8
0
  6
ByBlock
 62
     0
100
AcDbLine
 10
0.0
 20
0.0
 30
0.0
 11
-3.000000000000006
 21
0.9999999999999815
 31
0.0
  0
LINE
  5
39
330
35
100
AcDbEntity
  8
0
  6
ByBlock
 62
     0
100
AcDbLine
 10
0.0
 20
0.0
 30
0.0
 11
-3.0
 21
0.0
 31
0.0
  0
ENDBLK
  5
3A
330
35
100
AcDbEntity
  8
0
100
AcDbBlockEnd
  0
BLOCK
  5
3C
330
3B
100
AcDbEntity
  8
0
100
AcDbBlockBegin
  2
*D1
 70
     1
 10
0.0
 20
0.0
 30
0.0
  3
*D1
  1

  0
LINE
  5
3D
330
3B
100
AcDbEntity
  8
0
  6
Continuous
 62
     7
100
AcDbLine
 10
-124.5895690917969
 20
257.8114013671875
 30
0.0
 11
-168.5895690917969
 21
257.8114013671875
 31
0.0
  0
INSERT
  5
3E
330
3B
100
AcDbEntity
  8
0
  6
Continuous
 62
     7
100
AcDbBlockReference
  2
_OPEN30
 10
-121.5895690917969
 20
257.8114013671875
 30
0.0
  0
INSERT
  5
3F
330
3B
100
AcDbEntity
  8
0
  6
Continuous
 62
     7
100
AcDbBlockReference
  2
_OPEN30
 10
-171.5895690917969
 20
257.8114013671875
 30
0.0
 50
180.0000000000004
  0
LINE
  5
40
330
3B
100
AcDbEntity
  8
0
  6
Continuous
 62
     7
100
AcDbLine
 10
-121.5895690917969
 20
209.4086218261719
 30
0.0
 11
-121.5895690917969
 21
260.0973815917969
 31
0.0
  0
LINE
  5
41
330
3B
100
AcDbEntity
  8
0
  6
Continuous
 62
     7
100
AcDbLine
 10
-171.5895690917969
 20
237.3086309814453
 30
0.0
 11
-171.5895690917969
 21
260.0973815917969
 31
0.0
  0
TEXT
  5
42
330
3B
100
AcDbEntity
  8
0
  6
Continuous
 62
     7
100
AcDbText
 10
-149.1595692038536
 20
258.5614013671875
 30
0.0
 40
3.0
  1
50
 41
1.101428593908038
100
AcDbText
  0
POINT
  5
43
330
3B
100
AcDbEntity
  8
DEFPOINTS
  6
Continuous
 62
     7
100
AcDbPoint
 10
-121.5895690917969
 20
206.8686218261719
 30
0.0
  0
POINT
  5
44
330
3B
100
AcDbEntity
  8
DEFPOINTS
  6
Continuous
 62
     7
100
AcDbPoint
 10
-171.5895690917969
 20
234.7686309814453
 30
0.0
  0
POINT
  5
45
330
3B
100
AcDbEntity
  8
DEFPOINTS
  6
Continuous
 62
     7
100
AcDbPoint
 10
-171.5895690917969
 20
257.8114013671875
 30
0.0
  0
ENDBLK
  5
46
330
3B
100
AcDbEntity
  8
0
100
AcDbBlockEnd
  0
BLOCK
  5
48
330
47
100
AcDbEntity
  8
0
100
AcDbBlockBegin
  2
*D2
 70
     1
 10
0.0
 20
0.0
 30
0.0
  3
*D2
  1

  0
LINE
  5
49
330
47
100
AcDbEntity
  8
0
  6
Continuous
 62
     7
100
AcDbLine
 10
-174.5895690917969
 20
257.8114013671875
 30
0.0
 11
-178.5895690917969
 21
257.8114013671875
 31
0.0
  0
INSERT
  5
4A
330
47
100
AcDbEntity
  8
0
  6
Continuous
 62
     7
100
AcDbBlockReference
  2
_OPEN30
 10
-171.5895690917969
 20
257.8114013671875
 30
0.0
  0
INSERT
  5
4B
330
47
100
AcDbEntity
  8
0
  6
Continuous
 62
     7
100
AcDbBlockReference
  2
_OPEN30
 10
-181.5895690917969
 20
257.8114013671875
 30
0.0
 50
180.0000000000004
  0
LINE
  5
4C
330
47
100
AcDbEntity
  8
0
  6
Continuous
 62
     7
100
AcDbLine
 10
-181.5895690917969
 20
225.8086309814453
 30
0.0
 11
-181.5895690917969
 21
260.0973815917969
 31
0.0
  0
TEXT
  5
4D
330
47
100
AcDbEntity
  8
0
  6
Continuous
 62
     7
100
AcDbText
 10
-179.1595692038536
 20
258.5614013671875
 30
0.0
 40
3.0
  1
10
 41
1.40181821042841
100
AcDbText
  0
POINT
  5
4E
330
47
100
AcDbEntity
  8
DEFPOINTS
  6
Continuous
 62
     7
100
AcDbPoint
 10
-171.5895690917969
 20
237.7096252441406
 30
0.0
  0
POINT
  5
4F
330
47
100
AcDbEntity
  8
DEFPOINTS
  6
Continuous
 62
     7
100
AcDbPoint
 10
-181.5895690917969
 20
223.2686309814453
 30
0.0
  0
POINT
  5
50
330
47
100
AcDbEntity
  8
DEFPOINTS
  6
Continuous
 62
     7
100
AcDbPoint
 10
-181.5895690917969
 20
257.8114013671875
 30
0.0
  0
ENDBLK
  5
51
330
47
100
AcDbEntity
  8
0
100
AcDbBlockEnd
  0
BLOCK
  5
53
330
52
100
AcDbEntity
  8
0
100
AcDbBlockBegin
  2
*D3
 70
     1
 10
0.0
 20
0.0
 30
0.0
  3
*D3
  1

  0
LINE
  5
54
330
52
100
AcDbEntity
  8
0
  6
Continuous
 62
     7
100
AcDbLine
 10
-148.5895690917969
 20
114.3105239868164
 30
0.0
 11
-124.5895690917969
 21
114.3105239868164
 31
0.0
  0
INSERT
  5
55
330
52
100
AcDbEntity
  8
0
  6
Continuous
 62
     7
100
AcDbBlockReference
  2
_OPEN30
 10
-151.5895690917969
 20
114.3105239868164
 30
0.0
 50
180.0000000000004
  0
INSERT
  5
56
330
52
100
AcDbEntity
  8
0
  6
Continuous
 62
     7
100
AcDbBlockReference
  2
_OPEN30
 10
-121.5895690917969
 20
114.3105239868164
 30
0.0
  0
LINE
  5
57
330
52
100
AcDbEntity
  8
0
  6
Continuous
 62
     7
100
AcDbLine
 10
-151.5895690917969
 20
130.6286248779297
 30
0.0
 11
-151.5895690917969
 21
112.0245208740234
 31
0.0
  0
LINE
  5
58
330
52
100
AcDbEntity
  8
0
  6
Continuous
 62
     7
100
AcDbLine
 10
-121.5895690917969
 20
132.1286248779297
 30
0.0
 11
-121.5895690917969
 21
112.0245208740234
 31
0.0
  0
TEXT
  5
59
330
52
100
AcDbEntity
  8
0
  6
Continuous
 62
     7
100
AcDbText
 10
-145.1595694422722
 20
115.0605239868164
 30
0.0
 40
3.0
  1
ネジ部　３０
 41
0.8472565548642696
100
AcDbText
  0
POINT
  5
5A
330
52
100
AcDbEntity
  8
DEFPOINTS
  6
Continuous
 62
     7
100
AcDbPoint
 10
-151.5895690917969
 20
133.1686248779297
 30
0.0
  0
POINT
  5
5B
330
52
100
AcDbEntity
  8
DEFPOINTS
  6
Continuous
 62
     7
100
AcDbPoint
 10
-121.5895690917969
 20
134.6686248779297
 30
0.0
  0
POINT
  5
5C
330
52
100
AcDbEntity
  8
DEFPOINTS
  6
Continuous
 62
     7
100
AcDbPoint
 10
-121.5895690917969
 20
114.3105239868164
 30
0.0
  0
ENDBLK
  5
5D
330
52
100
AcDbEntity
  8
0
100
AcDbBlockEnd
  0
BLOCK
  5
5F
330
5E
100
AcDbEntity
  8
0
100
AcDbBlockBegin
  2
*D4
 70
     1
 10
0.0
 20
0.0
 30
0.0
  3
*D4
  1

  0
LINE
  5
60
330
5E
100
AcDbEntity
  8
0
  6
Continuous
 62
     7
100
AcDbLine
 10
-262.7391357421875
 20
201.9057464599609
 30
0.0
 11
-248.3489532470703
 21
209.9191436767578
 31
0.0
  0
LINE
  5
61
330
5E
100
AcDbEntity
  8
0
  6
Continuous
 62
     7
100
AcDbLine
 10
-371.9479876697616
 20
141.091067860657
 30
0.0
 11
-265.3601483165664
 21
200.4461941022335
 31
0.0
  0
INSERT
  5
62
330
5E
100
AcDbEntity
  8
0
  6
Continuous
 62
     7
100
AcDbBlockReference
  2
_OPEN30
 10
-374.5690002441406
 20
139.6315155029297
 30
0.0
 50
209.1119396917345
  0
INSERT
  5
63
330
5E
100
AcDbEntity
  8
0
  6
Continuous
 62
     7
100
AcDbBlockReference
  2
_OPEN30
 10
-262.7391357421875
 20
201.9057464599609
 30
0.0
 50
29.11193969173379
  0
TEXT
  5
64
330
5E
100
AcDbEntity
  8
0
  6
Continuous
 62
     7
100
AcDbText
 10
-258.4469645165873
 20
205.1556847175012
 30
0.0
 40
3.0
  1
%%C１２８
 50
29.10000046827182
 41
0.8510313296336267
100
AcDbText
  0
POINT
  5
65
330
5E
100
AcDbEntity
  8
DEFPOINTS
  6
Continuous
 62
     7
100
AcDbPoint
 10
-374.5690002441406
 20
139.6315155029297
 30
0.0
  0
POINT
  5
66
330
5E
100
AcDbEntity
  8
DEFPOINTS
  6
Continuous
 62
     7
100
AcDbPoint
 10
-262.7391357421875
 20
201.9057464599609
 30
0.0
  0
ENDBLK
  5
67
330
5E
100
AcDbEntity
  8
0
100
AcDbBlockEnd
  0
BLOCK
  5
69
330
68
100
AcDbEntity
  8
0
100
AcDbBlockBegin
  2
*D5
 70
     1
 10
0.0
 20
0.0
 30
0.0
  3
*D5
  1

  0
LINE
  5
6A
330
68
100
AcDbEntity
  8
0
  6
Continuous
 62
     7
100
AcDbLine
 10
-277.3670654296875
 20
144.3795471191406
 30
0.0
 11
-252.7239685058594
 21
128.6286315917969
 31
0.0
  0
LINE
  5
6B
330
68
100
AcDbEntity
  8
0
  6
Continuous
 62
     7
100
AcDbLine
 10
-357.4132948500631
 20
195.5420418312159
 30
0.0
 11
-279.894841136265
 21
145.9952048728857
 31
0.0
  0
INSERT
  5
6C
330
68
100
AcDbEntity
  8
0
  6
Continuous
 62
     7
100
AcDbBlockReference
  2
_OPEN30
 10
-359.9410705566406
 20
197.1576995849609
 30
0.0
 50
147.4148387355595
  0
INSERT
  5
6D
330
68
100
AcDbEntity
  8
0
  6
Continuous
 62
     7
100
AcDbBlockReference
  2
_OPEN30
 10
-277.3670654296875
 20
144.3795471191406
 30
0.0
 50
327.4148387355602
  0
TEXT
  5
6E
330
68
100
AcDbEntity
  8
0
  6
Continuous
 62
     7
100
AcDbText
 10
-259.1780235682332
 20
133.6451779269653
 30
0.0
 40
3.0
  1
%%C９８
 50
327.3999988651494
 41
0.8550420278260688
100
AcDbText
  0
POINT
  5
6F
330
68
100
AcDbEntity
  8
DEFPOINTS
  6
Continuous
 62
     7
100
AcDbPoint
 10
-359.9410705566406
 20
197.1576995849609
 30
0.0
  0
POINT
  5
70
330
68
100
AcDbEntity
  8
DEFPOINTS
  6
Continuous
 62
     7
100
AcDbPoint
 10
-277.3670654296875
 20
144.3795471191406
 30
0.0
  0
ENDBLK
  5
71
330
68
100
AcDbEntity
  8
0
100
AcDbBlockEnd
  0
BLOCK
  5
73
330
72
100
AcDbEntity
  8
0
100
AcDbBlockBegin
  2
KOZU0001
 70
     0
 10
0.0
 20
0.0
 30
0.0
  3
KOZU0001
  1

  0
LINE
  5
74
330
72
100
AcDbEntity
  8
0
  6
Continuous
 62
     7
100
AcDbLine
 10
0.0
 20
0.0
 30
0.0
 11
26.39902496337891
 21
-20.37088012695313
 31
0.0
  0
LINE
  5
75
330
72
100
AcDbEntity
  8
0
  6
Continuous
 62
     7
100
AcDbLine
 10
26.39902496337891
 20
-20.37088012695313
 30
0.0
 11
63.44078826904297
 21
-20.37088012695313
 31
0.0
  0
LINE
  5
76
330
72
100
AcDbEntity
  8
0
  6
Continuous
 62
     7
100
AcDbLine
 10
0.0
 20
0.0
 30
0.0
 11
2.986003957627711
 21
-1.041047724665709
 31
0.0
  0
LINE
  5
77
330
72
100
AcDbEntity
  8
0
  6
Continuous
 62
     7
100
AcDbLine
 10
0.0
 20
0.0
 30
0.0
 11
1.764174531302743
 21
-2.624440554309193
 31
0.0
  0
TEXT
  5
78
330
72
100
AcDbEntity
  8
0
  6
Continuous
 62
     7
100
AcDbText
 10
29.58078694343567
 20
-19.62088012695313
 30
0.0
 40
3.0
  1
配管接続口
 41
0.8487395020950888
100
AcDbText
  0
TEXT
  5
79
330
72
100
AcDbEntity
  8
0
  6
Continuous
 62
     7
100
AcDbText
 10
29.58078694343567
 20
-24.88588012695313
 30
0.0
 40
3.0
  1
Ｇ２　１／２（６５Ａ）
 41
0.8440126077968535
100
AcDbText
  0
ENDBLK
  5
7A
330
72
100
AcDbEntity
  8
0
100
AcDbBlockEnd
  0
ENDSEC
  0
SECTION
  2
ENTITIES
  0
LINE
  5
7B
330
22
100
AcDbEntity
  8
0
  6
CENTER
 62
     7
100
AcDbLine
 10
-318.6540832519531
 20
238.6461334228516
 30
0.0
 11
-318.6540832519531
 21
102.3216781616211
 31
0.0
  0
LINE
  5
7C
330
22
100
AcDbEntity
  8
0
  6
Continuous
 62
     7
100
AcDbLine
 10
-320.3724365234375
 20
124.8670196533203
 30
0.0
 11
-320.7731018066406
 21
125.0983505249023
 31
0.0
  0
LINE
  5
7D
330
22
100
AcDbEntity
  8
0
  6
Continuous
 62
     7
100
AcDbLine
 10
-315.1934814453125
 20
126.2360305786133
 30
0.0
 11
-318.3171997070313
 21
127.5113754272461
 31
0.0
  0
LINE
  5
7E
330
22
100
AcDbEntity
  8
0
  6
Continuous
 62
     7
100
AcDbLine
 10
-321.1737670898438
 20
125.3296737670898
 30
0.0
 11
-320.7731018066406
 21
125.0983505249023
 31
0.0
  0
LINE
  5
7F
330
22
100
AcDbEntity
  8
0
  6
Continuous
 62
     7
100
AcDbLine
 10
-321.1737670898438
 20
125.3296737670898
 30
0.0
 11
-319.9113159179688
 21
128.4317474365234
 31
0.0
  0
LINE
  5
80
330
22
100
AcDbEntity
  8
0
  6
Continuous
 62
     7
100
AcDbLine
 10
-316.1343688964844
 20
132.2075805664063
 30
0.0
 11
-316.5350341796875
 21
132.4389038085937
 31
0.0
  0
LINE
  5
81
330
22
100
AcDbEntity
  8
0
  6
Continuous
 62
     7
100
AcDbLine
 10
-316.1343688964844
 20
132.2075805664063
 30
0.0
 11
-317.3968200683594
 21
129.1055145263672
 31
0.0
  0
LINE
  5
82
330
22
100
AcDbEntity
  8
0
  6
Continuous
 62
     7
100
AcDbLine
 10
-316.9356994628906
 20
132.6702270507813
 30
0.0
 11
-316.5350341796875
 21
132.4389038085937
 31
0.0
  0
LINE
  5
83
330
22
100
AcDbEntity
  8
0
  6
Continuous
 62
     7
100
AcDbLine
 10
-316.9356994628906
 20
132.6702270507813
 30
0.0
 11
-318.990966796875
 21
130.02587890625
 31
0.0
  0
LINE
  5
84
330
22
100
AcDbEntity
  8
0
  6
Continuous
 62
     7
100
AcDbLine
 10
-316.6540832519531
 20
150.8877258300781
 30
0.0
 11
-316.6540832519531
 21
141.374755859375
 31
0.0
  0
LINE
  5
85
330
22
100
AcDbEntity
  8
0
  6
Continuous
 62
     7
100
AcDbLine
 10
-320.6540832519531
 20
150.8877258300781
 30
0.0
 11
-320.6540832519531
 21
141.374755859375
 31
0.0
  0
LINE
  5
86
330
22
100
AcDbEntity
  8
0
  6
Continuous
 62
     7
100
AcDbLine
 10
-314.7304992675781
 20
211.0379791259766
 30
0.0
 11
-317.3968200683594
 21
213.1055145263672
 31
0.0
  0
LINE
  5
87
330
22
100
AcDbEntity
  8
0
  6
Continuous
 62
     7
100
AcDbLine
 10
-316.9356994628906
 20
216.6702270507813
 30
0.0
 11
-316.5350341796875
 21
216.4389038085938
 31
0.0
  0
LINE
  5
88
330
22
100
AcDbEntity
  8
0
  6
Continuous
 62
     7
100
AcDbLine
 10
-321.1737670898438
 20
209.3296661376953
 30
0.0
 11
-319.9113159179688
 21
212.4317474365234
 31
0.0
  0
LINE
  5
89
330
22
100
AcDbEntity
  8
0
  6
Continuous
 62
     7
100
AcDbLine
 10
-322.1146545410156
 20
215.3012237548828
 30
0.0
 11
-318.990966796875
 21
214.02587890625
 31
0.0
  0
LINE
  5
8A
330
22
100
AcDbEntity
  8
0
  6
Continuous
 62
     7
100
AcDbLine
 10
-322.5776672363281
 20
214.4992828369141
 30
0.0
 11
-319.9113159179688
 21
212.4317474365234
 31
0.0
  0
LINE
  5
8B
330
22
100
AcDbEntity
  8
0
  6
Continuous
 62
     7
100
AcDbLine
 10
-316.1343688964844
 20
216.2075805664063
 30
0.0
 11
-317.3968200683594
 21
213.1055145263672
 31
0.0
  0
LINE
  5
8C
330
22
100
AcDbEntity
  8
0
  6
Continuous
 62
     7
100
AcDbLine
 10
-316.1343688964844
 20
216.2075805664063
 30
0.0
 11
-316.5350341796875
 21
216.4389038085938
 31
0.0
  0
LINE
  5
8D
330
22
100
AcDbEntity
  8
0
  6
Continuous
 62
     7
100
AcDbLine
 10
-336.8713989257813
 20
178.9771423339844
 30
0.0
 11
-345.1098937988281
 21
183.7336273193359
 31
0.0
  0
LINE
  5
8E
330
22
100
AcDbEntity
  8
0
  6
Continuous
 62
     7
100
AcDbLine
 10
-334.871337890625
 20
182.4412078857422
 30
0.0
 11
-343.1098327636719
 21
187.1977081298828
 31
0.0
  0
LINE
  5
8F
330
22
100
AcDbEntity
  8
0
  6
CENTER
 62
     7
100
AcDbLine
 10
-388.3645324707032
 20
170.7686309814453
 30
0.0
 11
-248.2206573486328
 21
170.7686309814453
 31
0.0
  0
LINE
  5
90
330
22
100
AcDbEntity
  8
0
  6
Continuous
 62
     7
100
AcDbLine
 10
-314.7304992675781
 20
127.037971496582
 30
0.0
 11
-317.3968200683594
 21
129.1055145263672
 31
0.0
  0
LINE
  5
91
330
22
100
AcDbEntity
  8
0
  6
Continuous
 62
     7
100
AcDbLine
 10
-322.5776672363281
 20
130.4992828369141
 30
0.0
 11
-319.9113159179688
 21
128.4317474365234
 31
0.0
  0
LINE
  5
92
330
22
100
AcDbEntity
  8
0
  6
Continuous
 62
     7
100
AcDbLine
 10
-322.3461608886719
 20
130.9002532958984
 30
0.0
 11
-322.5776672363281
 21
130.4992828369141
 31
0.0
  0
LINE
  5
93
330
22
100
AcDbEntity
  8
0
  6
Continuous
 62
     7
100
AcDbLine
 10
-322.3461608886719
 20
130.9002532958984
 30
0.0
 11
-322.1146545410156
 21
131.3012237548828
 31
0.0
  0
LINE
  5
94
330
22
100
AcDbEntity
  8
0
  6
Continuous
 62
     7
100
AcDbLine
 10
-322.1146545410156
 20
131.3012237548828
 30
0.0
 11
-318.990966796875
 21
130.02587890625
 31
0.0
  0
LINE
  5
95
330
22
100
AcDbEntity
  8
0
  6
Continuous
 62
     7
100
AcDbLine
 10
-314.9620056152344
 20
126.6370010375977
 30
0.0
 11
-315.1934814453125
 21
126.2360305786133
 31
0.0
  0
LINE
  5
96
330
22
100
AcDbEntity
  8
0
  6
Continuous
 62
     7
100
AcDbLine
 10
-314.9620056152344
 20
126.6370010375977
 30
0.0
 11
-314.7304992675781
 21
127.037971496582
 31
0.0
  0
LINE
  5
97
330
22
100
AcDbEntity
  8
0
  6
Continuous
 62
     7
100
AcDbLine
 10
-320.3724365234375
 20
124.8670196533203
 30
0.0
 11
-318.3171997070313
 21
127.5113754272461
 31
0.0
  0
LINE
  5
98
330
22
100
AcDbEntity
  8
0
  6
Continuous
 62
     7
100
AcDbLine
 10
-315.1934814453125
 20
210.2360382080078
 30
0.0
 11
-318.3171997070313
 21
211.5113830566406
 31
0.0
  0
LINE
  5
99
330
22
100
AcDbEntity
  8
0
  6
Continuous
 62
     7
100
AcDbLine
 10
-314.9620056152344
 20
210.6370086669922
 30
0.0
 11
-315.1934814453125
 21
210.2360382080078
 31
0.0
  0
LINE
  5
9A
330
22
100
AcDbEntity
  8
0
  6
Continuous
 62
     7
100
AcDbLine
 10
-322.3461608886719
 20
214.9002532958984
 30
0.0
 11
-322.1146545410156
 21
215.3012237548828
 31
0.0
  0
LINE
  5
9B
330
22
100
AcDbEntity
  8
0
  6
Continuous
 62
     7
100
AcDbLine
 10
-321.1737670898438
 20
209.3296661376953
 30
0.0
 11
-320.7731018066406
 21
209.0983428955078
 31
0.0
  0
LINE
  5
9C
330
22
100
AcDbEntity
  8
0
  6
Continuous
 62
     7
100
AcDbLine
 10
-322.3461608886719
 20
214.9002532958984
 30
0.0
 11
-322.5776672363281
 21
214.4992828369141
 31
0.0
  0
LINE
  5
9D
330
22
100
AcDbEntity
  8
0
  6
Continuous
 62
     7
100
AcDbLine
 10
-320.3724365234375
 20
208.8670196533203
 30
0.0
 11
-320.7731018066406
 21
209.0983428955078
 31
0.0
  0
LINE
  5
9E
330
22
100
AcDbEntity
  8
0
  6
Continuous
 62
     7
100
AcDbLine
 10
-320.3724365234375
 20
208.8670196533203
 30
0.0
 11
-318.3171997070313
 21
211.5113830566406
 31
0.0
  0
LINE
  5
9F
330
22
100
AcDbEntity
  8
0
  6
Continuous
 62
     7
100
AcDbLine
 10
-316.9356994628906
 20
216.6702270507813
 30
0.0
 11
-318.990966796875
 21
214.02587890625
 31
0.0
  0
LINE
  5
A0
330
22
100
AcDbEntity
  8
0
  6
Continuous
 62
     7
100
AcDbLine
 10
-302.4366455078125
 20
182.4410400390625
 30
0.0
 11
-294.1981506347656
 21
187.1975250244141
 31
0.0
  0
LINE
  5
A1
330
22
100
AcDbEntity
  8
0
  6
Continuous
 62
     7
100
AcDbLine
 10
-300.4366760253906
 20
178.9769134521484
 30
0.0
 11
-292.1981811523438
 21
183.7333984375
 31
0.0
  0
LINE
  5
A2
330
22
100
AcDbEntity
  8
0
  6
Continuous
 62
     7
100
AcDbLine
 10
-314.9620056152344
 20
210.6370086669922
 30
0.0
 11
-314.7304992675781
 21
211.0379791259766
 31
0.0
  0
LINE
  5
A3
330
22
100
AcDbEntity
  8
0
  6
CENTER
 62
     7
100
AcDbLine
 10
-188.6419067382813
 20
170.7686309814453
 30
0.0
 11
-115.5532302856445
 21
170.7686309814453
 31
0.0
  0
LINE
  5
A4
330
22
100
AcDbEntity
  8
0
  6
Continuous
 62
     7
100
AcDbLine
 10
-171.5895690917969
 20
106.7686309814453
 30
0.0
 11
-174.8291320800781
 21
106.7686309814453
 31
0.0
  0
LINE
  5
A5
330
22
100
AcDbEntity
  8
0
  6
Continuous
 62
     7
100
AcDbLine
 10
-181.2959747314453
 20
117.6547393798828
 30
0.0
 11
-176.6333923339844
 21
107.9057159423828
 31
0.0
  0
LINE
  5
A6
330
22
100
AcDbEntity
  8
0
  6
Continuous
 62
     7
100
AcDbLine
 10
-171.5895690917969
 20
208.7686309814453
 30
0.0
 11
-171.5895690917969
 21
234.7686309814453
 31
0.0
  0
LINE
  5
A7
330
22
100
AcDbEntity
  8
0
  6
Continuous
 62
     7
100
AcDbLine
 10
-121.5895690917969
 20
206.8686218261719
 30
0.0
 11
-123.0895690917969
 21
208.3686218261719
 31
0.0
  0
LINE
  5
A8
330
22
100
AcDbEntity
  8
0
  6
Continuous
 62
     7
100
AcDbLine
 10
-153.0895690917969
 20
208.3686218261719
 30
0.0
 11
-153.4895629882813
 21
208.7686309814453
 31
0.0
  0
LINE
  5
A9
330
22
100
AcDbEntity
  8
0
  6
Continuous
 62
     7
100
AcDbLine
 10
-153.4895629882813
 20
208.7686309814453
 30
0.0
 11
-171.5895690917969
 21
208.7686309814453
 31
0.0
  0
LINE
  5
AA
330
22
100
AcDbEntity
  8
0
  6
Continuous
 62
     7
100
AcDbLine
 10
-181.5895690917969
 20
220.2686309814453
 30
0.0
 11
-178.5895690917969
 21
220.2686309814453
 31
0.0
  0
LINE
  5
AB
330
22
100
AcDbEntity
  8
0
  6
Continuous
 62
     7
100
AcDbLine
 10
-181.2959747314453
 20
223.8825073242189
 30
0.0
 11
-176.6333923339844
 21
233.6315460205078
 31
0.0
  0
LINE
  5
AC
330
22
100
AcDbEntity
  8
0
  6
Continuous
 62
     7
100
AcDbLine
 10
-181.5895690917969
 20
217.7686309814453
 30
0.0
 11
-178.5895690917969
 21
214.7686309814453
 31
0.0
  0
LINE
  5
AD
330
22
100
AcDbEntity
  8
0
  6
Continuous
 62
     7
100
AcDbLine
 10
-181.5895690917969
 20
207.7686309814453
 30
0.0
 11
-178.5895690917969
 21
210.7686309814453
 31
0.0
  0
LINE
  5
AE
330
22
100
AcDbEntity
  8
0
  6
Continuous
 62
     7
100
AcDbLine
 10
-181.5895690917969
 20
190.7686309814453
 30
0.0
 11
-181.5895690917969
 21
183.7992248535156
 31
0.0
  0
LINE
  5
AF
330
22
100
AcDbEntity
  8
0
  6
Continuous
 62
     7
100
AcDbLine
 10
-121.5895690917969
 20
188.8186340332031
 30
0.0
 11
-121.5895690917969
 21
183.7992248535156
 31
0.0
  0
LINE
  5
B0
330
22
100
AcDbEntity
  8
0
  6
Continuous
 62
     7
100
AcDbLine
 10
-121.5895690917969
 20
203.7686309814453
 30
0.0
 11
-178.5895690917969
 21
203.7686309814453
 31
0.0
  0
LINE
  5
B1
330
22
100
AcDbEntity
  8
0
  6
Continuous
 62
     7
100
AcDbLine
 10
-181.5895690917969
 20
217.7686309814453
 30
0.0
 11
-181.5895690917969
 21
207.7686309814453
 31
0.0
  0
LINE
  5
B2
330
22
100
AcDbEntity
  8
0
  6
Continuous
 62
     7
100
AcDbLine
 10
-171.5895690917969
 20
207.2686309814453
 30
0.0
 11
-171.5895690917969
 21
208.7686309814453
 31
0.0
  0
LINE
  5
B3
330
22
100
AcDbEntity
  8
0
  6
Continuous
 62
     7
100
AcDbLine
 10
-178.5895690917969
 20
208.7686309814453
 30
0.0
 11
-178.5895690917969
 21
207.2686309814453
 31
0.0
  0
LINE
  5
B4
330
22
100
AcDbEntity
  8
0
  6
Continuous
 62
     7
100
AcDbLine
 10
-178.5895690917969
 20
207.2686309814453
 30
0.0
 11
-171.5895690917969
 21
207.2686309814453
 31
0.0
  0
LINE
  5
B5
330
22
100
AcDbEntity
  8
0
  6
Continuous
 62
     7
100
AcDbLine
 10
-121.5895690917969
 20
170.7686309814453
 30
0.0
 11
-121.5895690917969
 21
206.8686218261719
 31
0.0
  0
LINE
  5
B6
330
22
100
AcDbEntity
  8
0
  6
Continuous
 62
     7
100
AcDbLine
 10
-123.0895690917969
 20
208.3686218261719
 30
0.0
 11
-153.0895690917969
 21
208.3686218261719
 31
0.0
  0
LINE
  5
B7
330
22
100
AcDbEntity
  8
0
  6
Continuous
 62
     7
100
AcDbLine
 10
-121.5895690917969
 20
206.8686218261719
 30
0.0
 11
-151.5895690917969
 21
206.8686218261719
 31
0.0
  0
LINE
  5
B8
330
22
100
AcDbEntity
  8
0
  6
Continuous
 62
     7
100
AcDbLine
 10
-121.5895690917969
 20
134.6686248779297
 30
0.0
 11
-123.0895690917969
 21
133.1686248779297
 31
0.0
  0
LINE
  5
B9
330
22
100
AcDbEntity
  8
0
  6
Continuous
 62
     7
100
AcDbLine
 10
-121.7572937011719
 20
203.7686309814453
 30
0.0
 11
-121.5895690917969
 21
203.9363555908203
 31
0.0
  0
LINE
  5
BA
330
22
100
AcDbEntity
  8
0
  6
Continuous
 62
     7
100
AcDbLine
 10
-124.7271423339844
 20
203.7686309814453
 30
0.0
 11
-121.6271438598633
 21
206.8686218261719
 31
0.0
  0
LINE
  5
BB
330
22
100
AcDbEntity
  8
0
  6
Continuous
 62
     7
100
AcDbLine
 10
-127.6969909667969
 20
203.7686309814453
 30
0.0
 11
-124.5969924926758
 21
206.8686218261719
 31
0.0
  0
LINE
  5
BC
330
22
100
AcDbEntity
  8
0
  6
Continuous
 62
     7
100
AcDbLine
 10
-130.6668395996094
 20
203.7686309814453
 30
0.0
 11
-127.5668411254883
 21
206.8686218261719
 31
0.0
  0
LINE
  5
BD
330
22
100
AcDbEntity
  8
0
  6
Continuous
 62
     7
100
AcDbLine
 10
-133.6366882324219
 20
203.7686309814453
 30
0.0
 11
-130.5366821289063
 21
206.8686218261719
 31
0.0
  0
LINE
  5
BE
330
22
100
AcDbEntity
  8
0
  6
Continuous
 62
     7
100
AcDbLine
 10
-136.6065368652344
 20
203.7686309814453
 30
0.0
 11
-133.5065307617188
 21
206.8686218261719
 31
0.0
  0
LINE
  5
BF
330
22
100
AcDbEntity
  8
0
  6
Continuous
 62
     7
100
AcDbLine
 10
-139.5763854980469
 20
203.7686309814453
 30
0.0
 11
-136.4763793945312
 21
206.8686218261719
 31
0.0
  0
LINE
  5
C0
330
22
100
AcDbEntity
  8
0
  6
Continuous
 62
     7
100
AcDbLine
 10
-142.5462341308594
 20
203.7686309814453
 30
0.0
 11
-139.4462280273438
 21
206.8686218261719
 31
0.0
  0
LINE
  5
C1
330
22
100
AcDbEntity
  8
0
  6
Continuous
 62
     7
100
AcDbLine
 10
-145.5160827636719
 20
203.7686309814453
 30
0.0
 11
-142.4160766601563
 21
206.8686218261719
 31
0.0
  0
LINE
  5
C2
330
22
100
AcDbEntity
  8
0
  6
Continuous
 62
     7
100
AcDbLine
 10
-148.4859313964844
 20
203.7686309814453
 30
0.0
 11
-145.3859252929688
 21
206.8686218261719
 31
0.0
  0
LINE
  5
C3
330
22
100
AcDbEntity
  8
0
  6
Continuous
 62
     7
100
AcDbLine
 10
-121.5895690917969
 20
170.7686309814453
 30
0.0
 11
-121.5895690917969
 21
134.6686248779297
 31
0.0
  0
LINE
  5
C4
330
22
100
AcDbEntity
  8
0
  6
Continuous
 62
     7
100
AcDbLine
 10
-151.4557800292969
 20
203.7686309814453
 30
0.0
 11
-148.3557739257813
 21
206.8686218261719
 31
0.0
  0
LINE
  5
C5
330
22
100
AcDbEntity
  8
0
  6
Continuous
 62
     7
100
AcDbLine
 10
-154.4256286621094
 20
203.7686309814453
 30
0.0
 11
-151.3256225585938
 21
206.8686218261719
 31
0.0
  0
LINE
  5
C6
330
22
100
AcDbEntity
  8
0
  6
Continuous
 62
     7
100
AcDbLine
 10
-157.3954772949219
 20
203.7686309814453
 30
0.0
 11
-152.9425201416016
 21
208.2215881347656
 31
0.0
  0
LINE
  5
C7
330
22
100
AcDbEntity
  8
0
  6
Continuous
 62
     7
100
AcDbLine
 10
-160.3653259277344
 20
203.7686309814453
 30
0.0
 11
-155.3653259277344
 21
208.7686309814453
 31
0.0
  0
LINE
  5
C8
330
22
100
AcDbEntity
  8
0
  6
Continuous
 62
     7
100
AcDbLine
 10
-163.3351745605469
 20
203.7686309814453
 30
0.0
 11
-158.3351745605469
 21
208.7686309814453
 31
0.0
  0
LINE
  5
C9
330
22
100
AcDbEntity
  8
0
  6
Continuous
 62
     7
100
AcDbLine
 10
-166.3050231933594
 20
203.7686309814453
 30
0.0
 11
-161.3050231933594
 21
208.7686309814453
 31
0.0
  0
LINE
  5
CA
330
22
100
AcDbEntity
  8
0
  6
Continuous
 62
     7
100
AcDbLine
 10
-169.2748718261719
 20
203.7686309814453
 30
0.0
 11
-164.2748718261719
 21
208.7686309814453
 31
0.0
  0
LINE
  5
CB
330
22
100
AcDbEntity
  8
0
  6
Continuous
 62
     7
100
AcDbLine
 10
-172.2447204589844
 20
203.7686309814453
 30
0.0
 11
-167.2447204589844
 21
208.7686309814453
 31
0.0
  0
LINE
  5
CC
330
22
100
AcDbEntity
  8
0
  6
Continuous
 62
     7
100
AcDbLine
 10
-175.2145690917969
 20
203.7686309814453
 30
0.0
 11
-171.7145690917969
 21
207.2686309814453
 31
0.0
  0
LINE
  5
CD
330
22
100
AcDbEntity
  8
0
  6
Continuous
 62
     7
100
AcDbLine
 10
-171.5895690917969
 20
207.3936309814453
 30
0.0
 11
-170.2145690917969
 21
208.7686309814453
 31
0.0
  0
LINE
  5
CE
330
22
100
AcDbEntity
  8
0
  6
Continuous
 62
     7
100
AcDbLine
 10
-178.1844177246094
 20
203.7686309814453
 30
0.0
 11
-174.6844177246094
 21
207.2686309814453
 31
0.0
  0
LINE
  5
CF
330
22
100
AcDbEntity
  8
0
  6
Continuous
 62
     7
100
AcDbLine
 10
-178.5895690917969
 20
206.3333282470703
 30
0.0
 11
-177.6542663574219
 21
207.2686309814453
 31
0.0
  0
LINE
  5
D0
330
22
100
AcDbEntity
  8
0
  6
Continuous
 62
     7
100
AcDbLine
 10
-123.2422180175781
 20
203.7686309814453
 30
0.0
 11
-121.5895690917969
 21
205.4212799072266
 31
0.0
  0
LINE
  5
D1
330
22
100
AcDbEntity
  8
0
  6
Continuous
 62
     7
100
AcDbLine
 10
-126.2120666503905
 20
203.7686309814453
 30
0.0
 11
-123.1120681762695
 21
206.8686218261719
 31
0.0
  0
LINE
  5
D2
330
22
100
AcDbEntity
  8
0
  6
Continuous
 62
     7
100
AcDbLine
 10
-129.1819152832031
 20
203.7686309814453
 30
0.0
 11
-126.081916809082
 21
206.8686218261719
 31
0.0
  0
LINE
  5
D3
330
22
100
AcDbEntity
  8
0
  6
Continuous
 62
     7
100
AcDbLine
 10
-132.1517639160156
 20
203.7686309814453
 30
0.0
 11
-129.0517578125
 21
206.8686218261719
 31
0.0
  0
LINE
  5
D4
330
22
100
AcDbEntity
  8
0
  6
Continuous
 62
     7
100
AcDbLine
 10
-135.1216125488281
 20
203.7686309814453
 30
0.0
 11
-132.0216064453125
 21
206.8686218261719
 31
0.0
  0
LINE
  5
D5
330
22
100
AcDbEntity
  8
0
  6
Continuous
 62
     7
100
AcDbLine
 10
-138.0914611816406
 20
203.7686309814453
 30
0.0
 11
-134.991455078125
 21
206.8686218261719
 31
0.0
  0
LINE
  5
D6
330
22
100
AcDbEntity
  8
0
  6
Continuous
 62
     7
100
AcDbLine
 10
-141.0613098144531
 20
203.7686309814453
 30
0.0
 11
-137.9613037109375
 21
206.8686218261719
 31
0.0
  0
LINE
  5
D7
330
22
100
AcDbEntity
  8
0
  6
Continuous
 62
     7
100
AcDbLine
 10
-144.0311584472656
 20
203.7686309814453
 30
0.0
 11
-140.93115234375
 21
206.8686218261719
 31
0.0
  0
LINE
  5
D8
330
22
100
AcDbEntity
  8
0
  6
Continuous
 62
     7
100
AcDbLine
 10
-147.0010070800781
 20
203.7686309814453
 30
0.0
 11
-143.9010009765625
 21
206.8686218261719
 31
0.0
  0
LINE
  5
D9
330
22
100
AcDbEntity
  8
0
  6
Continuous
 62
     7
100
AcDbLine
 10
-149.9708557128906
 20
203.7686309814453
 30
0.0
 11
-146.870849609375
 21
206.8686218261719
 31
0.0
  0
LINE
  5
DA
330
22
100
AcDbEntity
  8
0
  6
Continuous
 62
     7
100
AcDbLine
 10
-152.9407043457031
 20
203.7686309814453
 30
0.0
 11
-149.8406982421875
 21
206.8686218261719
 31
0.0
  0
LINE
  5
DB
330
22
100
AcDbEntity
  8
0
  6
Continuous
 62
     7
100
AcDbLine
 10
-155.9105529785156
 20
203.7686309814453
 30
0.0
 11
-152.2000579833984
 21
207.4791259765625
 31
0.0
  0
LINE
  5
DC
330
22
100
AcDbEntity
  8
0
  6
Continuous
 62
     7
100
AcDbLine
 10
-158.8804016113281
 20
203.7686309814453
 30
0.0
 11
-153.8804016113281
 21
208.7686309814453
 31
0.0
  0
LINE
  5
DD
330
22
100
AcDbEntity
  8
0
  6
Continuous
 62
     7
100
AcDbLine
 10
-161.8502502441406
 20
203.7686309814453
 30
0.0
 11
-156.8502502441406
 21
208.7686309814453
 31
0.0
  0
LINE
  5
DE
330
22
100
AcDbEntity
  8
0
  6
Continuous
 62
     7
100
AcDbLine
 10
-164.8200988769531
 20
203.7686309814453
 30
0.0
 11
-159.8200988769531
 21
208.7686309814453
 31
0.0
  0
LINE
  5
DF
330
22
100
AcDbEntity
  8
0
  6
Continuous
 62
     7
100
AcDbLine
 10
-167.7899475097656
 20
203.7686309814453
 30
0.0
 11
-162.7899475097656
 21
208.7686309814453
 31
0.0
  0
LINE
  5
E0
330
22
100
AcDbEntity
  8
0
  6
Continuous
 62
     7
100
AcDbLine
 10
-170.7597961425781
 20
203.7686309814453
 30
0.0
 11
-165.7597961425781
 21
208.7686309814453
 31
0.0
  0
LINE
  5
E1
330
22
100
AcDbEntity
  8
0
  6
Continuous
 62
     7
100
AcDbLine
 10
-173.7296447753906
 20
203.7686309814453
 30
0.0
 11
-168.7296447753906
 21
208.7686309814453
 31
0.0
  0
LINE
  5
E2
330
22
100
AcDbEntity
  8
0
  6
Continuous
 62
     7
100
AcDbLine
 10
-176.6994934082031
 20
203.7686309814453
 30
0.0
 11
-173.1994934082031
 21
207.2686309814453
 31
0.0
  0
LINE
  5
E3
330
22
100
AcDbEntity
  8
0
  6
Continuous
 62
     7
100
AcDbLine
 10
-178.5895690917969
 20
204.8484039306641
 30
0.0
 11
-176.1693420410156
 21
207.2686309814453
 31
0.0
  0
LINE
  5
E4
330
22
100
AcDbEntity
  8
0
  6
Continuous
 62
     7
100
AcDbLine
 10
-178.5895690917969
 20
208.7768402099609
 30
0.0
 11
-178.5813598632813
 21
208.7686309814453
 31
0.0
  0
LINE
  5
E5
330
22
100
AcDbEntity
  8
0
  6
Continuous
 62
     7
100
AcDbLine
 10
-178.5895690917969
 20
209.4839477539063
 30
0.0
 11
-177.8742523193359
 21
208.7686309814453
 31
0.0
  0
LINE
  5
E6
330
22
100
AcDbEntity
  8
0
  6
Continuous
 62
     7
100
AcDbLine
 10
-177.7529296875
 20
210.7686309814453
 30
0.0
 11
-175.7529296875
 21
208.7686309814453
 31
0.0
  0
LINE
  5
E7
330
22
100
AcDbEntity
  8
0
  6
Continuous
 62
     7
100
AcDbLine
 10
-177.0458221435547
 20
210.7686309814453
 30
0.0
 11
-175.0458221435547
 21
208.7686309814453
 31
0.0
  0
LINE
  5
E8
330
22
100
AcDbEntity
  8
0
  6
Continuous
 62
     7
100
AcDbLine
 10
-174.9244995117188
 20
210.7686309814453
 30
0.0
 11
-172.9244995117188
 21
208.7686309814453
 31
0.0
  0
LINE
  5
E9
330
22
100
AcDbEntity
  8
0
  6
Continuous
 62
     7
100
AcDbLine
 10
-178.5895690917969
 20
215.1408081054688
 30
0.0
 11
-178.2173919677734
 21
214.7686309814453
 31
0.0
  0
LINE
  5
EA
330
22
100
AcDbEntity
  8
0
  6
Continuous
 62
     7
100
AcDbLine
 10
-174.2173919677734
 20
210.7686309814453
 30
0.0
 11
-172.2173919677734
 21
208.7686309814453
 31
0.0
  0
LINE
  5
EB
330
22
100
AcDbEntity
  8
0
  6
Continuous
 62
     7
100
AcDbLine
 10
-178.5895690917969
 20
217.2621307373047
 30
0.0
 11
-176.0960693359375
 21
214.7686309814453
 31
0.0
  0
LINE
  5
EC
330
22
100
AcDbEntity
  8
0
  6
Continuous
 62
     7
100
AcDbLine
 10
-172.0960693359375
 20
210.7686309814453
 30
0.0
 11
-171.5895690917969
 21
210.2621307373047
 31
0.0
  0
LINE
  5
ED
330
22
100
AcDbEntity
  8
0
  6
Continuous
 62
     7
100
AcDbLine
 10
-181.5895690917969
 20
220.9692230224609
 30
0.0
 11
-180.8889617919922
 21
220.2686309814453
 31
0.0
  0
LINE
  5
EE
330
22
100
AcDbEntity
  8
0
  6
Continuous
 62
     7
100
AcDbLine
 10
-178.5895690917969
 20
217.9692230224609
 30
0.0
 11
-175.3889617919922
 21
214.7686309814453
 31
0.0
  0
LINE
  5
EF
330
22
100
AcDbEntity
  8
0
  6
Continuous
 62
     7
100
AcDbLine
 10
-181.5407867431641
 20
223.0417633056641
 30
0.0
 11
-178.7676391601563
 21
220.2686309814453
 31
0.0
  0
LINE
  5
F0
330
22
100
AcDbEntity
  8
0
  6
Continuous
 62
     7
100
AcDbLine
 10
-178.5895690917969
 20
220.0905456542969
 30
0.0
 11
-173.2676391601563
 21
214.7686309814453
 31
0.0
  0
LINE
  5
F1
330
22
100
AcDbEntity
  8
0
  6
Continuous
 62
     7
100
AcDbLine
 10
-181.3969116210938
 20
223.6049957275391
 30
0.0
 11
-172.560546875
 21
214.7686309814453
 31
0.0
  0
LINE
  5
F2
330
22
100
AcDbEntity
  8
0
  6
Continuous
 62
     7
100
AcDbLine
 10
-180.7321014404297
 20
225.0615081787109
 30
0.0
 11
-171.5895690917969
 21
215.9189758300781
 31
0.0
  0
LINE
  5
F3
330
22
100
AcDbEntity
  8
0
  6
Continuous
 62
     7
100
AcDbLine
 10
-180.5033264160156
 20
225.5398559570313
 30
0.0
 11
-171.5895690917969
 21
216.6260833740234
 31
0.0
  0
LINE
  5
F4
330
22
100
AcDbEntity
  8
0
  6
Continuous
 62
     7
100
AcDbLine
 10
-179.8170166015625
 20
226.974853515625
 30
0.0
 11
-171.5895690917969
 21
218.7474060058594
 31
0.0
  0
LINE
  5
F5
330
22
100
AcDbEntity
  8
0
  6
Continuous
 62
     7
100
AcDbLine
 10
-179.5882568359375
 20
227.4532012939453
 30
0.0
 11
-171.5895690917969
 21
219.4545135498047
 31
0.0
  0
LINE
  5
F6
330
22
100
AcDbEntity
  8
0
  6
Continuous
 62
     7
100
AcDbLine
 10
-178.9019470214844
 20
228.8882141113281
 30
0.0
 11
-171.5895690917969
 21
221.5758361816406
 31
0.0
  0
LINE
  5
F7
330
22
100
AcDbEntity
  8
0
  6
Continuous
 62
     7
100
AcDbLine
 10
-178.6731719970703
 20
229.3665466308594
 30
0.0
 11
-171.5895690917969
 21
222.2829437255859
 31
0.0
  0
LINE
  5
F8
330
22
100
AcDbEntity
  8
0
  6
Continuous
 62
     7
100
AcDbLine
 10
-177.9868621826172
 20
230.8015594482422
 30
0.0
 11
-171.5895690917969
 21
224.4042663574219
 31
0.0
  0
LINE
  5
F9
330
22
100
AcDbEntity
  8
0
  6
Continuous
 62
     7
100
AcDbLine
 10
-177.7581024169922
 20
231.2798919677734
 30
0.0
 11
-171.5895690917969
 21
225.1113586425781
 31
0.0
  0
LINE
  5
FA
330
22
100
AcDbEntity
  8
0
  6
Continuous
 62
     7
100
AcDbLine
 10
-177.0717926025391
 20
232.7149047851563
 30
0.0
 11
-171.5895690917969
 21
227.2326812744141
 31
0.0
  0
LINE
  5
FB
330
22
100
AcDbEntity
  8
0
  6
Continuous
 62
     7
100
AcDbLine
 10
-176.843017578125
 20
233.1932373046875
 30
0.0
 11
-171.5895690917969
 21
227.9397888183594
 31
0.0
  0
LINE
  5
FC
330
22
100
AcDbEntity
  8
0
  6
Continuous
 62
     7
100
AcDbLine
 10
-175.9510650634766
 20
234.422607421875
 30
0.0
 11
-171.5895690917969
 21
230.0611114501953
 31
0.0
  0
LINE
  5
FD
330
22
100
AcDbEntity
  8
0
  6
Continuous
 62
     7
100
AcDbLine
 10
-175.4735717773438
 20
234.6522369384766
 30
0.0
 11
-171.5895690917969
 21
230.7682189941406
 31
0.0
  0
LINE
  5
FE
330
22
100
AcDbEntity
  8
0
  6
Continuous
 62
     7
100
AcDbLine
 10
-173.4686584472656
 20
234.7686309814453
 30
0.0
 11
-171.5895690917969
 21
232.8895416259766
 31
0.0
  0
LINE
  5
FF
330
22
100
AcDbEntity
  8
0
  6
Continuous
 62
     7
100
AcDbLine
 10
-172.7615509033203
 20
234.7686309814453
 30
0.0
 11
-171.5895690917969
 21
233.5966491699219
 31
0.0
  0
LINE
  5
100
330
22
100
AcDbEntity
  8
0
  6
Continuous
 62
     7
100
AcDbLine
 10
-123.0895690917969
 20
170.7686309814453
 30
0.0
 11
-123.0895690917969
 21
133.1686248779297
 31
0.0
  0
LINE
  5
101
330
22
100
AcDbEntity
  8
0
  6
Continuous
 62
     7
100
AcDbLine
 10
-121.5895690917969
 20
134.6686248779297
 30
0.0
 11
-151.5895690917969
 21
134.6686248779297
 31
0.0
  0
LINE
  5
102
330
22
100
AcDbEntity
  8
0
  6
Continuous
 62
     7
100
AcDbLine
 10
-123.0895690917969
 20
133.1686248779297
 30
0.0
 11
-153.0895690917969
 21
133.1686248779297
 31
0.0
  0
LINE
  5
103
330
22
100
AcDbEntity
  8
0
  6
Continuous
 62
     7
100
AcDbLine
 10
-153.0895690917969
 20
208.3686218261719
 30
0.0
 11
-151.5895690917969
 21
206.8686218261719
 31
0.0
  0
LINE
  5
104
330
22
100
AcDbEntity
  8
0
  6
Continuous
 62
     7
100
AcDbLine
 10
-181.5895690917969
 20
219.7686309814453
 30
0.0
 11
-178.5895690917969
 21
219.7686309814453
 31
0.0
  0
LINE
  5
105
330
22
100
AcDbEntity
  8
0
  6
Continuous
 62
     7
100
AcDbLine
 10
-171.5895690917969
 20
234.7686309814453
 30
0.0
 11
-174.8291320800781
 21
234.7686309814453
 31
0.0
  0
LINE
  5
106
330
22
100
AcDbEntity
  8
0
  6
Continuous
 62
     7
100
AcDbLine
 10
-178.5895690917969
 20
214.7686309814453
 30
0.0
 11
-171.6197662353516
 21
214.7686309814453
 31
0.0
  0
LINE
  5
107
330
22
100
AcDbEntity
  8
0
  6
Continuous
 62
     7
100
AcDbLine
 10
-171.5895690917969
 20
208.7686309814453
 30
0.0
 11
-173.0895690917969
 21
207.2686309814453
 31
0.0
  0
LINE
  5
108
330
22
100
AcDbEntity
  8
0
  6
Continuous
 62
     7
100
AcDbLine
 10
-178.5895690917969
 20
208.7686309814453
 30
0.0
 11
-177.0895690917969
 21
207.2686309814453
 31
0.0
  0
LINE
  5
109
330
22
100
AcDbEntity
  8
0
  6
Continuous
 62
     7
100
AcDbLine
 10
-178.5895690917969
 20
220.2686309814453
 30
0.0
 11
-178.5895690917969
 21
214.7686309814453
 31
0.0
  0
LINE
  5
10A
330
22
100
AcDbEntity
  8
0
  6
Continuous
 62
     7
100
AcDbLine
 10
-178.5895690917969
 20
210.7686309814453
 30
0.0
 11
-171.6197662353516
 21
210.7686309814453
 31
0.0
  0
LINE
  5
10B
330
22
100
AcDbEntity
  8
0
  6
Continuous
 62
     7
100
AcDbLine
 10
-172.3986358642578
 20
213.7369689941406
 30
0.0
 11
-173.2286987304688
 21
214.7686309814453
 31
0.0
  0
LINE
  5
10C
330
22
100
AcDbEntity
  8
0
  6
Continuous
 62
     7
100
AcDbLine
 10
-171.5895690917969
 20
208.7686309814453
 30
0.0
 11
-178.5895690917969
 21
208.7686309814453
 31
0.0
  0
LINE
  5
10D
330
22
100
AcDbEntity
  8
0
  6
Continuous
 62
     7
100
AcDbLine
 10
-172.3986358642578
 20
213.7369689941406
 30
0.0
 11
-172.3986358642578
 21
211.7686309814453
 31
0.0
  0
LINE
  5
10E
330
22
100
AcDbEntity
  8
0
  6
Continuous
 62
     7
100
AcDbLine
 10
-172.3986358642578
 20
211.7686309814453
 30
0.0
 11
-173.3986358642578
 21
210.7686309814453
 31
0.0
  0
LINE
  5
10F
330
22
100
AcDbEntity
  8
0
  6
Continuous
 62
     7
100
AcDbLine
 10
-178.5895690917969
 20
210.7686309814453
 30
0.0
 11
-178.5895690917969
 21
170.7686309814453
 31
0.0
  0
LINE
  5
110
330
22
100
AcDbEntity
  8
0
  6
Continuous
 62
     7
100
AcDbLine
 10
-153.0895690917969
 20
133.1686248779297
 30
0.0
 11
-151.5895690917969
 21
134.6686248779297
 31
0.0
  0
LINE
  5
111
330
22
100
AcDbEntity
  8
0
  6
Continuous
 62
     7
100
AcDbLine
 10
-153.4895629882813
 20
132.7686309814453
 30
0.0
 11
-171.5895690917969
 21
132.7686309814453
 31
0.0
  0
LINE
  5
112
330
22
100
AcDbEntity
  8
0
  6
Continuous
 62
     7
100
AcDbLine
 10
-153.0895690917969
 20
133.1686248779297
 30
0.0
 11
-153.4895629882813
 21
132.7686309814453
 31
0.0
  0
LINE
  5
113
330
22
100
AcDbEntity
  8
0
  6
Continuous
 62
     7
100
AcDbLine
 10
-174.8291320800781
 20
108.7686309814453
 30
0.0
 11
-174.8291320800781
 21
170.7686309814453
 31
0.0
  0
LINE
  5
114
330
22
100
AcDbEntity
  8
0
  6
Continuous
 62
     7
100
AcDbLine
 10
-181.5895690917969
 20
118.9491119384766
 30
0.0
 11
-181.5895690917969
 21
222.5881500244141
 31
0.0
  0
LINE
  5
115
330
22
100
AcDbEntity
  8
0
  6
Continuous
 62
     7
100
AcDbLine
 10
-151.5895690917969
 20
133.1686248779297
 30
0.0
 11
-151.5895690917969
 21
170.7686309814453
 31
0.0
  0
LINE
  5
116
330
22
100
AcDbEntity
  8
0
  6
Continuous
 62
     7
100
AcDbLine
 10
-171.5895690917969
 20
106.7686309814453
 30
0.0
 11
-171.5895690917969
 21
170.7686309814453
 31
0.0
  0
LINE
  5
117
330
22
100
AcDbEntity
  8
0
  6
CENTER
 62
     7
100
AcDbLine
 10
-182.8096923828125
 20
212.7686309814453
 30
0.0
 11
-171.6197662353516
 21
212.7686309814453
 31
0.0
  0
CIRCLE
  5
118
330
22
100
AcDbEntity
  8
0
  6
Continuous
 62
     7
100
AcDbCircle
 10
-360.6540832519531
 20
170.7686309814453
 30
0.0
 40
3.5
  0
CIRCLE
  5
119
330
22
100
AcDbEntity
  8
0
  6
Continuous
 62
     7
100
AcDbCircle
 10
-276.6540832519531
 20
170.7686309814453
 30
0.0
 40
3.5
  0
ARC
  5
11A
330
22
100
AcDbEntity
  8
0
  6
Continuous
 62
     7
100
AcDbCircle
 10
-318.6540832519531
 20
170.7686309814453
 30
0.0
 40
17.5
100
AcDbArc
 50
164.1166252087354
 51
255.883060045122
  0
ARC
  5
11B
330
22
100
AcDbEntity
  8
0
  6
Continuous
 62
     7
100
AcDbCircle
 10
-318.6540832519531
 20
170.7686309814453
 30
0.0
 40
17.5
100
AcDbArc
 50
284.1170368532967
 51
15.8826680992087
  0
CIRCLE
  5
11C
330
22
100
AcDbEntity
  8
0
  6
Continuous
 62
     7
100
AcDbCircle
 10
-318.6540832519531
 20
170.7686309814453
 30
0.0
 40
14.5
  0
CIRCLE
  5
11D
330
22
100
AcDbEntity
  8
0
  6
Continuous
 62
     7
100
AcDbCircle
 10
-318.6540832519531
 20
170.7686309814453
 30
0.0
 40
49.5
  0
CIRCLE
  5
11E
330
22
100
AcDbEntity
  8
0
  6
Continuous
 62
     7
100
AcDbCircle
 10
-318.6540832519531
 20
170.7686309814453
 30
0.0
 40
49.0
  0
CIRCLE
  5
11F
330
22
100
AcDbEntity
  8
0
  6
Continuous
 62
     7
100
AcDbCircle
 10
-318.6540832519531
 20
170.7686309814453
 30
0.0
 40
64.0
  0
ARC
  5
120
330
22
100
AcDbEntity
  8
0
  6
Continuous
 62
     7
100
AcDbCircle
 10
-318.6540832519531
 20
170.7686309814453
 30
0.0
 40
34.0
100
AcDbArc
 50
161.5367296057098
 51
258.4630624953454
  0
ARC
  5
121
330
22
100
AcDbEntity
  8
0
  6
Continuous
 62
     7
100
AcDbCircle
 10
-318.6540832519531
 20
170.7686309814453
 30
0.0
 40
34.0
100
AcDbArc
 50
281.5369878929127
 51
18.46280690216224
  0
ARC
  5
122
330
22
100
AcDbEntity
  8
0
  6
Continuous
 62
     7
100
AcDbCircle
 10
-318.6540832519531
 20
170.7686309814453
 30
0.0
 40
33.5
100
AcDbArc
 50
158.0362871377058
 51
261.9634836523803
  0
ARC
  5
123
330
22
100
AcDbEntity
  8
0
  6
Continuous
 62
     7
100
AcDbCircle
 10
-318.6540832519531
 20
170.7686309814453
 30
0.0
 40
33.5
100
AcDbArc
 50
278.0365163476211
 51
21.96324284020182
  0
CIRCLE
  5
124
330
22
100
AcDbEntity
  8
0
  6
Continuous
 62
     7
100
AcDbCircle
 10
-318.6540832519531
 20
128.7686309814453
 30
0.0
 40
5.0
  0
CIRCLE
  5
125
330
22
100
AcDbEntity
  8
0
  6
Continuous
 62
     7
100
AcDbCircle
 10
-318.6540832519531
 20
128.7686309814453
 30
0.0
 40
5.25
  0
ARC
  5
126
330
22
100
AcDbEntity
  8
0
  6
Continuous
 62
     7
100
AcDbCircle
 10
-312.6540832519531
 20
141.374755859375
 30
0.0
 40
4.0
100
AcDbArc
 50
180.0000000000004
 51
281.5371992113507
  0
ARC
  5
127
330
22
100
AcDbEntity
  8
0
  6
Continuous
 62
     7
100
AcDbCircle
 10
-324.6540832519531
 20
141.374755859375
 30
0.0
 40
4.0
100
AcDbArc
 50
258.4632290881752
 51
0.0
  0
ARC
  5
128
330
22
100
AcDbEntity
  8
0
  6
Continuous
 62
     7
100
AcDbCircle
 10
-323.6540832519531
 20
150.8877258300781
 30
0.0
 40
3.0
100
AcDbArc
 50
0.0
 51
75.88282814737571
  0
ARC
  5
129
330
22
100
AcDbEntity
  8
0
  6
Continuous
 62
     7
100
AcDbCircle
 10
-313.6540832519531
 20
150.8877258300781
 30
0.0
 40
3.0
100
AcDbArc
 50
104.1166066131439
 51
180.0000000000004
  0
CIRCLE
  5
12A
330
22
100
AcDbEntity
  8
0
  6
Continuous
 62
     7
100
AcDbCircle
 10
-318.6540832519531
 20
212.7686309814453
 30
0.0
 40
5.25
  0
CIRCLE
  5
12B
330
22
100
AcDbEntity
  8
0
  6
Continuous
 62
     7
100
AcDbCircle
 10
-318.6540832519531
 20
212.7686309814453
 30
0.0
 40
5.0
  0
ARC
  5
12C
330
22
100
AcDbEntity
  8
0
  6
Continuous
 62
     7
100
AcDbCircle
 10
-290.1981811523438
 20
180.2693023681641
 30
0.0
 40
4.0
100
AcDbArc
 50
18.46287208786188
 51
120.0000397189275
  0
ARC
  5
12D
330
22
100
AcDbEntity
  8
0
  6
Continuous
 62
     7
100
AcDbCircle
 10
-333.371337890625
 20
185.0392913818359
 30
0.0
 40
3.0
100
AcDbArc
 50
240.0000695640013
 51
315.8826148863632
  0
ARC
  5
12E
330
22
100
AcDbEntity
  8
0
  6
Continuous
 62
     7
100
AcDbCircle
 10
-347.1098937988281
 20
180.26953125
 30
0.0
 40
4.0
100
AcDbArc
 50
59.99996028107254
 51
161.5367132786198
  0
ARC
  5
12F
330
22
100
AcDbEntity
  8
0
  6
Continuous
 62
     7
100
AcDbCircle
 10
-341.1098327636719
 20
190.6618041992188
 30
0.0
 40
4.0
100
AcDbArc
 50
138.4627691789376
 51
239.9999602810733
  0
ARC
  5
130
330
22
100
AcDbEntity
  8
0
  6
Continuous
 62
     7
100
AcDbCircle
 10
-338.3713989257813
 20
176.3790588378906
 30
0.0
 40
3.0
100
AcDbArc
 50
344.1168504200405
 51
60.00006956400067
  0
ARC
  5
131
330
22
100
AcDbEntity
  8
0
  6
Continuous
 62
     7
100
AcDbCircle
 10
-298.9366760253906
 20
176.3788299560547
 30
0.0
 40
3.0
100
AcDbArc
 50
119.9999304359993
 51
195.8825889878497
  0
ARC
  5
132
330
22
100
AcDbEntity
  8
0
  6
Continuous
 62
     7
100
AcDbCircle
 10
-303.9366455078125
 20
185.0391235351563
 30
0.0
 40
3.0
100
AcDbArc
 50
224.1171758972869
 51
299.9999304360001
  0
ARC
  5
133
330
22
100
AcDbEntity
  8
0
  6
Continuous
 62
     7
100
AcDbCircle
 10
-318.6540832519531
 20
170.7686309814453
 30
0.0
 40
17.5
100
AcDbArc
 50
44.11657779197709
 51
135.8826462254474
  0
ARC
  5
134
330
22
100
AcDbEntity
  8
0
  6
Continuous
 62
     7
100
AcDbCircle
 10
-318.6540832519531
 20
170.7686309814453
 30
0.0
 40
34.0
100
AcDbArc
 50
41.53672651846217
 51
138.4627994083494
  0
ARC
  5
135
330
22
100
AcDbEntity
  8
0
  6
Continuous
 62
     7
100
AcDbCircle
 10
-318.6540832519531
 20
170.7686309814453
 30
0.0
 40
33.5
100
AcDbArc
 50
38.03629390455191
 51
141.963257525053
  0
ARC
  5
136
330
22
100
AcDbEntity
  8
0
  6
Continuous
 62
     7
100
AcDbCircle
 10
-296.1981506347656
 20
190.6616363525391
 30
0.0
 40
4.0
100
AcDbArc
 50
299.9999304360001
 51
41.53674001253978
  0
ARC
  5
137
330
22
100
AcDbEntity
  8
0
  6
Continuous
 62
     7
100
AcDbCircle
 10
-174.8291320800781
 20
108.7686309814453
 30
0.0
 40
2.0
100
AcDbArc
 50
205.5601709211875
 51
270.0000000000005
  0
ARC
  5
138
330
22
100
AcDbEntity
  8
0
  6
Continuous
 62
     7
100
AcDbCircle
 10
-178.5895690917969
 20
118.9491119384766
 30
0.0
 40
3.0
100
AcDbArc
 50
180.0000000000004
 51
205.5600451850985
  0
ARC
  5
139
330
22
100
AcDbEntity
  8
0
  6
Continuous
 62
     7
100
AcDbCircle
 10
-178.5895690917969
 20
222.5881500244141
 30
0.0
 40
3.0
100
AcDbArc
 50
154.440217716061
 51
180.0000000000004
  0
ARC
  5
13A
330
22
100
AcDbEntity
  8
0
  6
Continuous
 62
     7
100
AcDbCircle
 10
-174.8291320800781
 20
232.7686309814453
 30
0.0
 40
2.0
100
AcDbArc
 50
90.00000000000019
 51
154.4398290788133
  0
TEXT
  5
13B
330
22
100
AcDbEntity
  8
0
  6
Continuous
 62
     7
100
AcDbText
 10
-254.8554773330689
 20
76.03224945068359
 30
0.0
 40
7.0
  1
ＤＬ－ＴＰ－６５Ｇ
 41
0.8448610808647003
100
AcDbText
  0
DIMENSION
  5
13C
330
22
100
AcDbEntity
  8
0
  6
Continuous
 62
     7
100
AcDbDimension
  2
*D1
 10
-171.5895690917969
 20
257.8114013671875
 30
0.0
 11
-146.5895690917969
 21
257.8114013671875
 31
0.0
 71
     5
 42
-1.0
  3
DIMSTYLE1
100
AcDbAlignedDimension
 13
-121.5895690917969
 23
206.8686218261719
 33
0.0
 14
-171.5895690917969
 24
234.7686309814453
 34
0.0
100
AcDbRotatedDimension
  0
DIMENSION
  5
13D
330
22
100
AcDbEntity
  8
0
  6
Continuous
 62
     7
100
AcDbDimension
  2
*D2
 10
-181.5895690917969
 20
257.8114013671875
 30
0.0
 11
-176.5895690917969
 21
257.8114013671875
 31
0.0
 71
     5
 42
-1.0
  3
DIMSTYLE2
100
AcDbAlignedDimension
 13
-171.5895690917969
 23
237.7096252441406
 33
0.0
 14
-181.5895690917969
 24
223.2686309814453
 34
0.0
100
AcDbRotatedDimension
  0
DIMENSION
  5
13E
330
22
100
AcDbEntity
  8
0
  6
Continuous
 62
     7
100
AcDbDimension
  2
*D3
 10
-121.5895690917969
 20
114.3105239868164
 30
0.0
 11
-136.5895690917969
 21
114.3105239868164
 31
0.0
 71
     5
 42
-1.0
  3
DIMSTYLE3
100
AcDbAlignedDimension
 13
-151.5895690917969
 23
133.1686248779297
 33
0.0
 14
-121.5895690917969
 24
134.6686248779297
 34
0.0
100
AcDbRotatedDimension
  0
DIMENSION
  5
13F
330
22
100
AcDbEntity
  8
0
  6
Continuous
 62
     7
100
AcDbDimension
  2
*D4
 10
-374.5690219125604
 20
139.6315207336953
 30
0.0
 11
-253.2153015136719
 21
207.2092437744141
 31
0.0
 70
     3
 71
     5
 42
-1.0
  3
DIMSTYLE4
100
AcDbDiametricDimension
 15
-262.739144591346
 25
201.9057412291953
 35
0.0
 40
0.0
  0
DIMENSION
  5
140
330
22
100
AcDbEntity
  8
0
  6
Continuous
 62
     7
100
AcDbDimension
  2
*D5
 10
-359.9410874407158
 20
197.1577060906093
 30
0.0
 11
-256.1533203125
 21
130.8205413818359
 31
0.0
 70
     3
 71
     5
 42
-1.0
  3
DIMSTYLE5
100
AcDbDiametricDimension
 15
-277.3670790631905
 25
144.3795558722814
 35
0.0
 40
0.0
  0
INSERT
  5
141
330
22
100
AcDbEntity
  8
0
  6
Continuous
 62
     7
100
AcDbBlockReference
  2
KOZU0001
 10
-129.0895690917969
 20
133.1686248779297
 30
0.0
  0
ENDSEC
  0
SECTION
  2
OBJECTS
  0
DICTIONARY
  5
C
330
0
100
AcDbDictionary
281
     1
  3
ACAD_COLOR
350
1B
  3
ACAD_GROUP
350
D
  3
ACAD_LAYOUT
350
19
  3
ACAD_MATERIAL
350
1A
  3
ACAD_MLINESTYLE
350
16
  3
ACAD_PLOTSETTINGS
350
18
  3
ACAD_PLOTSTYLENAME
350
E
  3
ACAD_TABLESTYLE
350
1C
  3
AcDbVariableDictionary
350
14D
  0
DICTIONARY
  5
1B
102
{ACAD_REACTORS
330
C
102
}
330
C
100
AcDbDictionary
281
     1
  0
DICTIONARY
  5
D
102
{ACAD_REACTORS
330
C
102
}
330
C
100
AcDbDictionary
281
     1
  0
DICTIONARY
  5
19
102
{ACAD_REACTORS
330
C
102
}
330
C
100
AcDbDictionary
281
     1
  3
Model
350
25
  3
レイアウト1
350
21
  0
DICTIONARY
  5
1A
102
{ACAD_REACTORS
330
C
102
}
330
C
100
AcDbDictionary
281
     1
  0
DICTIONARY
  5
16
102
{ACAD_REACTORS
330
C
102
}
330
C
100
AcDbDictionary
281
     1
  3
Standard
350
17
  0
DICTIONARY
  5
18
102
{ACAD_REACTORS
330
C
102
}
330
C
100
AcDbDictionary
281
     1
  0
ACDBDICTIONARYWDFLT
  5
E
102
{ACAD_REACTORS
330
C
102
}
330
C
100
AcDbDictionary
281
     1
  3
Normal
350
F
100
AcDbDictionaryWithDefault
340
F
  0
DICTIONARY
  5
1C
102
{ACAD_REACTORS
330
C
102
}
330
C
100
AcDbDictionary
281
     1
  3
Standard
350
1D
  0
DICTIONARY
  5
14D
102
{ACAD_REACTORS
330
C
102
}
330
C
100
AcDbDictionary
281
     1
  3
CTABLESTYLE
350
14E
  0
LAYOUT
  5
25
102
{ACAD_REACTORS
330
19
102
}
330
19
100
AcDbPlotSettings
  1

  2
PDF reDirect v2
  4
A3
  6

 40
3.174999952316284
 41
3.174999952316284
 42
3.17498779296875
 43
3.17498779296875
 44
297.0530090332031
 45
420.1583251953125
 46
0.0
 47
0.0
 48
0.0
 49
0.0
140
0.0
141
0.0
142
1.0
143
1.0
 70
 11952
 72
     1
 73
     1
 74
     2
  7
C:\Users\ck\AppData\Roaming\Autodesk\AutoCAD 2005\R16.1\jpn\Plot Styles\black.ctb
 75
    16
147
1.0
 76
     0
 77
     2
 78
   300
148
423.0
149
2.0
100
AcDbLayout
  1
Model
 70
     1
 71
     0
 10
0.0
 20
0.0
 11
12.0
 21
9.0
 12
0.0
 22
0.0
 32
0.0
 14
0.0
 24
0.0
 34
0.0
 15
0.0
 25
0.0
 35
0.0
146
0.0
 13
0.0
 23
0.0
 33
0.0
 16
1.0
 26
0.0
 36
0.0
 17
0.0
 27
1.0
 37
0.0
 76
     0
330
22
1001
ACAD_PSEXT
1000
PDF reDirect v2
1000
PDF reDirect Pro
1000
PDF_REDIRECT_PORT:
1000
PDF reDirect provided by EXP Systems
1070
     0
  0
LAYOUT
  5
21
102
{ACAD_REACTORS
330
19
102
}
330
19
100
AcDbPlotSettings
  1

  2
PDF reDirect v2
  4

  6

 40
0.0
 41
0.0
 42
0.0
 43
0.0
 44
0.0
 45
0.0
 46
0.0
 47
0.0
 48
0.0
 49
0.0
140
0.0
141
0.0
142
1.0
143
1.0
 70
   688
 72
     0
 73
     0
 74
     5
  7
C:\Users\ck\AppData\Roaming\Autodesk\AutoCAD 2005\R16.1\jpn\Plot Styles\black.ctb
 75
    16
147
1.0
 76
     0
 77
     2
 78
   300
148
0.0
149
0.0
100
AcDbLayout
  1
レイアウト1
 70
     1
 71
     1
 10
-423.0
 20
-2.0
 11
-5.0
 21
293.0
 12
0.0
 22
0.0
 32
0.0
 14
1.000000000000000E+20
 24
1.000000000000000E+20
 34
1.000000000000000E+20
 15
-1.000000000000000E+20
 25
-1.000000000000000E+20
 35
-1.000000000000000E+20
146
0.0
 13
0.0
 23
0.0
 33
0.0
 16
1.0
 26
0.0
 36
0.0
 17
0.0
 27
1.0
 37
0.0
 76
     0
330
1E
  0
MLINESTYLE
  5
17
102
{ACAD_REACTORS
330
16
102
}
330
16
100
AcDbMlineStyle
  2
STANDARD
 70
     0
  3

 62
   256
 51
90.0
 52
90.0
 71
     2
 49
0.5
 62
   256
  6
BYLAYER
 49
-0.5
 62
   256
  6
BYLAYER
  0
ACDBPLACEHOLDER
  5
F
102
{ACAD_REACTORS
330
E
102
}
330
E
  0
TABLESTYLE
  5
1D
102
{ACAD_REACTORS
330
1C
102
}
330
1C
100
AcDbTableStyle
  3
Standard
 70
     0
 71
     0
 40
0.06
 41
0.06
280
     0
281
     0
  7
STANDARD
140
0.18
170
     2
 62
     0
 63
     7
283
     0
274
    -2
284
     1
 64
     0
275
    -2
285
     1
 65
     0
276
    -2
286
     1
 66
     0
277
    -2
287
     1
 67
     0
278
    -2
288
     1
 68
     0
279
    -2
289
     1
 69
     0
  7
STANDARD
140
0.25
170
     5
 62
     0
 63
     7
283
     0
274
    -2
284
     1
 64
     0
275
    -2
285
     1
 65
     0
276
    -2
286
     1
 66
     0
277
    -2
287
     1
 67
     0
278
    -2
288
     1
 68
     0
279
    -2
289
     1
 69
     0
  7
STANDARD
140
0.18
170
     5
 62
     0
 63
     7
283
     0
274
    -2
284
     1
 64
     0
275
    -2
285
     1
 65
     0
276
    -2
286
     1
 66
     0
277
    -2
287
     1
 67
     0
278
    -2
288
     1
 68
     0
279
    -2
289
     1
 69
     0
  0
DICTIONARYVAR
  5
14E
102
{ACAD_REACTORS
330
14D
102
}
330
14D
100
DictionaryVariables
280
     0
  1
STANDARD
  0
ENDSEC
  0
EOF
