  0
SECTION
  2
HEADER
  9
$ACADVER
  1
AC1018
  9
$ACADMAINTVER
 70
    39
  9
$DWGCODEPAGE
  3
ANSI_932
  9
$INSBASE
 10
0.0
 20
0.0
 30
0.0
  9
$EXTMIN
 10
-483.8002914644314
 20
69.41366682552462
 30
-0.0015258207003583
  9
$EXTMAX
 10
-74.6413561304114
 20
327.8572701554015
 30
0.0000000349246037
  9
$LIMMIN
 10
-592.0
 20
0.0
  9
$LIMMAX
 10
0.0
 20
418.0
  9
$ORTHOMODE
 70
     0
  9
$REGENMODE
 70
     1
  9
$FILLMODE
 70
     1
  9
$QTEXTMODE
 70
     0
  9
$MIRRTEXT
 70
     0
  9
$LTSCALE
 40
1.0
  9
$ATTMODE
 70
     1
  9
$TEXTSIZE
 40
0.2
  9
$TRACEWID
 40
0.05
  9
$TEXTSTYLE
  7
STANDARD
  9
$CLAYER
  8
0
  9
$CELTYPE
  6
CONTINUOUS
  9
$CECOLOR
 62
   256
  9
$CELTSCALE
 40
1.0
  9
$DISPSILH
 70
     0
  9
$DIMSCALE
 40
1.0
  9
$DIMASZ
 40
1.0
  9
$DIMEXO
 40
2.54
  9
$DIMDLI
 40
0.38
  9
$DIMRND
 40
0.0
  9
$DIMDLE
 40
0.0
  9
$DIMEXE
 40
2.54
  9
$DIMTP
 40
0.0
  9
$DIMTM
 40
0.0
  9
$DIMTXT
 40
3.0
  9
$DIMCEN
 40
0.09
  9
$DIMTSZ
 40
0.0
  9
$DIMTOL
 70
     0
  9
$DIMLIM
 70
     0
  9
$DIMTIH
 70
     0
  9
$DIMTOH
 70
     0
  9
$DIMSE1
 70
     0
  9
$DIMSE2
 70
     0
  9
$DIMTAD
 70
     1
  9
$DIMZIN
 70
     0
  9
$DIMBLK
  1

  9
$DIMASO
 70
     1
  9
$DIMSHO
 70
     0
  9
$DIMPOST
  1

  9
$DIMAPOST
  1

  9
$DIMALT
 70
     0
  9
$DIMALTD
 70
     2
  9
$DIMALTF
 40
25.4
  9
$DIMLFAC
 40
1.0
  9
$DIMTOFL
 70
     0
  9
$DIMTVP
 40
1.0
  9
$DIMTIX
 70
     0
  9
$DIMSOXD
 70
     0
  9
$DIMSAH
 70
     1
  9
$DIMBLK1
  1

  9
$DIMBLK2
  1

  9
$DIMSTYLE
  2
DIMSTYLE1
  9
$DIMCLRD
 70
     0
  9
$DIMCLRE
 70
     0
  9
$DIMCLRT
 70
     0
  9
$DIMTFAC
 40
1.0
  9
$DIMGAP
 40
1.5
  9
$DIMJUST
 70
     0
  9
$DIMSD1
 70
     0
  9
$DIMSD2
 70
     0
  9
$DIMTOLJ
 70
     1
  9
$DIMTZIN
 70
     0
  9
$DIMALTZ
 70
     0
  9
$DIMALTTZ
 70
     0
  9
$DIMUPT
 70
     0
  9
$DIMDEC
 70
     4
  9
$DIMTDEC
 70
     4
  9
$DIMALTU
 70
     2
  9
$DIMALTTD
 70
     2
  9
$DIMTXSTY
  7
STANDARD
  9
$DIMAUNIT
 70
     0
  9
$DIMADEC
 70
     0
  9
$DIMALTRND
 40
0.0
  9
$DIMAZIN
 70
     0
  9
$DIMDSEP
 70
    46
  9
$DIMATFIT
 70
     3
  9
$DIMFRAC
 70
     0
  9
$DIMLDRBLK
  1

  9
$DIMLUNIT
 70
     2
  9
$DIMLWD
 70
    -2
  9
$DIMLWE
 70
    -2
  9
$DIMTMOVE
 70
     0
  9
$LUNITS
 70
     2
  9
$LUPREC
 70
     4
  9
$SKETCHINC
 40
0.1
  9
$FILLETRAD
 40
0.0
  9
$AUNITS
 70
     0
  9
$AUPREC
 70
     0
  9
$MENU
  1
.
  9
$ELEVATION
 40
0.0
  9
$PELEVATION
 40
0.0
  9
$THICKNESS
 40
0.0
  9
$LIMCHECK
 70
     0
  9
$CHAMFERA
 40
0.0
  9
$CHAMFERB
 40
0.0
  9
$CHAMFERC
 40
0.0
  9
$CHAMFERD
 40
0.0
  9
$SKPOLY
 70
     0
  9
$TDCREATE
 40
2457843.577840845
  9
$TDUCREATE
 40
2457843.202840845
  9
$TDUPDATE
 40
2457843.578332928
  9
$TDUUPDATE
 40
2457843.203332928
  9
$TDINDWG
 40
0.0004933565
  9
$TDUSRTIMER
 40
0.0004933565
  9
$USRTIMER
 70
     1
  9
$ANGBASE
 50
0.0
  9
$ANGDIR
 70
     0
  9
$PDMODE
 70
     0
  9
$PDSIZE
 40
0.0
  9
$PLINEWID
 40
0.0
  9
$SPLFRAME
 70
     0
  9
$SPLINETYPE
 70
     6
  9
$SPLINESEGS
 70
     8
  9
$HANDSEED
  5
1F9
  9
$SURFTAB1
 70
     6
  9
$SURFTAB2
 70
     6
  9
$SURFTYPE
 70
     6
  9
$SURFU
 70
     6
  9
$SURFV
 70
     6
  9
$UCSBASE
  2

  9
$UCSNAME
  2

  9
$UCSORG
 10
0.0
 20
0.0
 30
0.0
  9
$UCSXDIR
 10
1.0
 20
0.0
 30
0.0
  9
$UCSYDIR
 10
0.0
 20
1.0
 30
0.0
  9
$UCSORTHOREF
  2

  9
$UCSORTHOVIEW
 70
     0
  9
$UCSORGTOP
 10
0.0
 20
0.0
 30
0.0
  9
$UCSORGBOTTOM
 10
0.0
 20
0.0
 30
0.0
  9
$UCSORGLEFT
 10
0.0
 20
0.0
 30
0.0
  9
$UCSORGRIGHT
 10
0.0
 20
0.0
 30
0.0
  9
$UCSORGFRONT
 10
0.0
 20
0.0
 30
0.0
  9
$UCSORGBACK
 10
0.0
 20
0.0
 30
0.0
  9
$PUCSBASE
  2

  9
$PUCSNAME
  2

  9
$PUCSORG
 10
0.0
 20
0.0
 30
0.0
  9
$PUCSXDIR
 10
1.0
 20
0.0
 30
0.0
  9
$PUCSYDIR
 10
0.0
 20
1.0
 30
0.0
  9
$PUCSORTHOREF
  2

  9
$PUCSORTHOVIEW
 70
     0
  9
$PUCSORGTOP
 10
0.0
 20
0.0
 30
0.0
  9
$PUCSORGBOTTOM
 10
0.0
 20
0.0
 30
0.0
  9
$PUCSORGLEFT
 10
0.0
 20
0.0
 30
0.0
  9
$PUCSORGRIGHT
 10
0.0
 20
0.0
 30
0.0
  9
$PUCSORGFRONT
 10
0.0
 20
0.0
 30
0.0
  9
$PUCSORGBACK
 10
0.0
 20
0.0
 30
0.0
  9
$USERI1
 70
     0
  9
$USERI2
 70
     0
  9
$USERI3
 70
     0
  9
$USERI4
 70
     0
  9
$USERI5
 70
     0
  9
$USERR1
 40
0.0
  9
$USERR2
 40
0.0
  9
$USERR3
 40
0.0
  9
$USERR4
 40
0.0
  9
$USERR5
 40
0.0
  9
$WORLDVIEW
 70
     1
  9
$SHADEDGE
 70
     3
  9
$SHADEDIF
 70
    70
  9
$TILEMODE
 70
     1
  9
$MAXACTVP
 70
    64
  9
$PINSBASE
 10
0.0
 20
0.0
 30
0.0
  9
$PLIMCHECK
 70
     0
  9
$PEXTMIN
 10
1.000000000000000E+20
 20
1.000000000000000E+20
 30
1.000000000000000E+20
  9
$PEXTMAX
 10
-1.000000000000000E+20
 20
-1.000000000000000E+20
 30
-1.000000000000000E+20
  9
$PLIMMIN
 10
-592.0
 20
0.0
  9
$PLIMMAX
 10
0.0
 20
418.0
  9
$UNITMODE
 70
     0
  9
$VISRETAIN
 70
     1
  9
$PLINEGEN
 70
     0
  9
$PSLTSCALE
 70
     1
  9
$TREEDEPTH
 70
  3020
  9
$CMLSTYLE
  2
Standard
  9
$CMLJUST
 70
     0
  9
$CMLSCALE
 40
1.0
  9
$PROXYGRAPHICS
 70
     1
  9
$MEASUREMENT
 70
     0
  9
$CELWEIGHT
370
    -1
  9
$ENDCAPS
280
     0
  9
$JOINSTYLE
280
     0
  9
$LWDISPLAY
290
     0
  9
$INSUNITS
 70
     0
  9
$HYPERLINKBASE
  1

  9
$STYLESHEET
  1

  9
$XEDIT
290
     1
  9
$CEPSNTYPE
380
     0
  9
$PSTYLEMODE
290
     1
  9
$FINGERPRINTGUID
  2
{251F5964-0021-402B-B858-3666E237E39C}
  9
$VERSIONGUID
  2
{E821E048-DF9B-4ABF-A75E-1488A5816501}
  9
$EXTNAMES
290
     1
  9
$PSVPSCALE
 40
0.0
  9
$OLESTARTUP
290
     0
  9
$SORTENTS
280
   127
  9
$INDEXCTL
280
     0
  9
$HIDETEXT
280
     0
  9
$XCLIPFRAME
290
     0
  9
$HALOGAP
280
     0
  9
$OBSCOLOR
 70
   257
  9
$OBSLTYPE
280
     0
  9
$INTERSECTIONDISPLAY
280
     0
  9
$INTERSECTIONCOLOR
 70
   257
  9
$DIMASSOC
280
     1
  9
$PROJECTNAME
  1

  0
ENDSEC
  0
SECTION
  2
CLASSES
  0
CLASS
  1
ACDBDICTIONARYWDFLT
  2
AcDbDictionaryWithDefault
  3
ObjectDBX Classes
 90
        0
 91
        1
280
     0
281
     0
  0
CLASS
  1
TABLESTYLE
  2
AcDbTableStyle
  3
ObjectDBX Classes
 90
     2047
 91
        1
280
     0
281
     0
  0
CLASS
  1
DICTIONARYVAR
  2
AcDbDictionaryVar
  3
ObjectDBX Classes
 90
        0
 91
        1
280
     0
281
     0
  0
ENDSEC
  0
SECTION
  2
TABLES
  0
TABLE
  2
VPORT
  5
8
330
0
100
AcDbSymbolTable
 70
     2
  0
VPORT
  5
1F8
330
8
100
AcDbSymbolTableRecord
100
AcDbViewportTableRecord
  2
*Active
 70
     0
 10
0.0
 20
0.0
 11
1.0
 21
1.0
 12
-296.0
 22
209.0
 13
0.0
 23
0.0
 14
1.0
 24
1.0
 15
0.0
 25
0.0
 16
0.0
 26
0.0
 36
1.0
 17
0.0
 27
0.0
 37
0.0
 40
421.3043478260869
 41
1.707124010554089
 42
50.0
 43
0.0
 44
0.0
 50
0.0
 51
0.0
 71
     0
 72
   100
 73
     1
 74
     1
 75
     0
 76
     0
 77
     0
 78
     0
281
     0
 65
     1
110
0.0
120
0.0
130
0.0
111
1.0
121
0.0
131
0.0
112
0.0
122
1.0
132
0.0
 79
     0
146
0.0
  0
ENDTAB
  0
TABLE
  2
LTYPE
  5
5
330
0
100
AcDbSymbolTable
 70
     6
  0
LTYPE
  5
13
330
5
100
AcDbSymbolTableRecord
100
AcDbLinetypeTableRecord
  2
ByBlock
 70
     0
  3

 72
    65
 73
     0
 40
0.0
  0
LTYPE
  5
14
330
5
100
AcDbSymbolTableRecord
100
AcDbLinetypeTableRecord
  2
ByLayer
 70
     0
  3

 72
    65
 73
     0
 40
0.0
  0
LTYPE
  5
15
330
5
100
AcDbSymbolTableRecord
100
AcDbLinetypeTableRecord
  2
CONTINUOUS
 70
     0
  3
Solid line
 72
    65
 73
     0
 40
0.0
  0
LTYPE
  5
26
330
5
100
AcDbSymbolTableRecord
100
AcDbLinetypeTableRecord
  2
DASHED
 70
     0
  3
__ __ __ __ __ __ __ __ __ __ __ __ __ __ __
 72
    65
 73
     2
 40
3.5
 49
2.0
 74
     0
 49
-1.5
 74
     0
  0
LTYPE
  5
27
330
5
100
AcDbSymbolTableRecord
100
AcDbLinetypeTableRecord
  2
CENTER
 70
     0
  3
____ _ ____ _ ____ _ ____ _ ____ _ ____ _ ____
 72
    65
 73
     4
 40
17.5
 49
13.0
 74
     0
 49
-1.5
 74
     0
 49
1.5
 74
     0
 49
-1.5
 74
     0
  0
LTYPE
  5
28
330
5
100
AcDbSymbolTableRecord
100
AcDbLinetypeTableRecord
  2
PHANTOM
 70
     0
  3
_____ _ _ _____ _ _ _____ _ _ _____ _ _ ____  
 72
    65
 73
     6
 40
15.5
 49
8.0
 74
     0
 49
-1.5
 74
     0
 49
1.5
 74
     0
 49
-1.5
 74
     0
 49
1.5
 74
     0
 49
-1.5
 74
     0
  0
LTYPE
  5
29
330
5
100
AcDbSymbolTableRecord
100
AcDbLinetypeTableRecord
  2
DOT
 70
     0
  3
. . . . . . . . . . . . . . . . . . . . . . . .
 72
    65
 73
     2
 40
0.25
 49
0.0
 74
     0
 49
-0.25
 74
     0
  0
LTYPE
  5
2A
330
5
100
AcDbSymbolTableRecord
100
AcDbLinetypeTableRecord
  2
HIDDEN
 70
     0
  3
__ __ __ __ __ __ __ __ __ __ __ __ __ __ __
 72
    65
 73
     2
 40
3.5
 49
2.0
 74
     0
 49
-1.5
 74
     0
  0
ENDTAB
  0
TABLE
  2
LAYER
  5
2
330
0
100
AcDbSymbolTable
 70
     2
  0
LAYER
  5
10
330
2
100
AcDbSymbolTableRecord
100
AcDbLayerTableRecord
  2
0
 70
     0
 62
     7
  6
CONTINUOUS
370
    -3
390
F
  0
LAYER
  5
2B
330
2
100
AcDbSymbolTableRecord
100
AcDbLayerTableRecord
  2
DEFPOINTS
 70
     0
 62
     7
  6
CONTINUOUS
290
     0
370
    -3
390
F
  0
ENDTAB
  0
TABLE
  2
STYLE
  5
3
330
0
100
AcDbSymbolTable
 70
     2
  0
STYLE
  5
11
330
3
100
AcDbSymbolTableRecord
100
AcDbTextStyleTableRecord
  2
STANDARD
 70
     0
 40
0.0
 41
1.0
 50
0.0
 71
     0
 42
0.2
  3

  4

1001
ACAD
1000
MS Gothic
1071
    32817
  0
ENDTAB
  0
TABLE
  2
VIEW
  5
6
330
0
100
AcDbSymbolTable
 70
     0
  0
ENDTAB
  0
TABLE
  2
UCS
  5
7
330
0
100
AcDbSymbolTable
 70
     0
  0
ENDTAB
  0
TABLE
  2
APPID
  5
9
330
0
100
AcDbSymbolTable
 70
     2
  0
APPID
  5
12
330
9
100
AcDbSymbolTableRecord
100
AcDbRegAppTableRecord
  2
ACAD
 70
     0
  0
APPID
  5
1ED
330
9
100
AcDbSymbolTableRecord
100
AcDbRegAppTableRecord
  2
ACAD_PSEXT
 70
     0
  0
ENDTAB
  0
TABLE
  2
DIMSTYLE
  5
A
330
0
100
AcDbSymbolTable
 70
    12
100
AcDbDimStyleTable
 71
     1
340
2C
  0
DIMSTYLE
105
2C
102
{ACAD_REACTORS
330
1DE
102
}
330
A
100
AcDbSymbolTableRecord
100
AcDbDimStyleTableRecord
  2
DIMSTYLE1
 70
     0
 41
1.0
 42
2.54
 44
2.54
 73
     0
 74
     0
 77
     1
140
3.0
145
1.0
147
1.5
172
     1
173
     1
279
     2
340
11
  0
DIMSTYLE
105
2D
102
{ACAD_REACTORS
330
1DF
102
}
330
A
100
AcDbSymbolTableRecord
100
AcDbDimStyleTableRecord
  2
DIMSTYLE2
 70
     0
 41
1.0
 42
2.54
 44
2.54
 73
     0
 74
     0
 75
     1
 76
     1
 77
     1
140
3.0
145
1.0
147
1.5
172
     1
173
     1
279
     2
340
11
  0
DIMSTYLE
105
2E
102
{ACAD_REACTORS
330
1E0
102
}
330
A
100
AcDbSymbolTableRecord
100
AcDbDimStyleTableRecord
  2
DIMSTYLE3
 70
     0
 41
1.0
 42
2.54
 44
2.54
 73
     0
 74
     0
 75
     1
 76
     1
 77
     1
140
3.0
145
1.0
147
1.5
172
     1
173
     1
279
     2
340
11
  0
DIMSTYLE
105
2F
102
{ACAD_REACTORS
330
1E1
102
}
330
A
100
AcDbSymbolTableRecord
100
AcDbDimStyleTableRecord
  2
DIMSTYLE4
 70
     0
 41
1.0
 42
2.54
 44
2.54
 73
     0
 74
     0
 75
     1
 76
     1
 77
     1
140
3.0
145
1.0
147
1.5
172
     1
173
     1
279
     2
340
11
  0
DIMSTYLE
105
30
102
{ACAD_REACTORS
330
1E2
102
}
330
A
100
AcDbSymbolTableRecord
100
AcDbDimStyleTableRecord
  2
DIMSTYLE5
 70
     0
 41
1.0
 42
2.54
 44
2.54
 73
     0
 74
     0
 75
     1
 76
     1
 77
     1
140
3.0
145
1.0
147
1.5
172
     1
173
     1
279
     2
340
11
  0
DIMSTYLE
105
31
102
{ACAD_REACTORS
330
1E4
102
}
330
A
100
AcDbSymbolTableRecord
100
AcDbDimStyleTableRecord
  2
DIMSTYLE6
 70
     0
 41
1.0
 42
2.54
 44
2.54
 73
     0
 74
     0
 77
     1
140
3.0
145
1.0
147
1.5
172
     1
173
     1
279
     2
340
11
  0
DIMSTYLE
105
32
102
{ACAD_REACTORS
330
1E5
102
}
330
A
100
AcDbSymbolTableRecord
100
AcDbDimStyleTableRecord
  2
DIMSTYLE7
 70
     0
 41
1.0
 42
2.54
 44
2.54
 73
     0
 74
     0
 77
     1
140
3.0
145
1.0
147
1.5
172
     1
173
     1
279
     2
340
11
  0
DIMSTYLE
105
33
102
{ACAD_REACTORS
330
1E6
102
}
330
A
100
AcDbSymbolTableRecord
100
AcDbDimStyleTableRecord
  2
DIMSTYLE8
 70
     0
 41
1.0
 42
2.54
 44
2.54
 73
     0
 74
     0
 77
     1
140
3.0
145
1.0
147
1.5
172
     1
173
     1
279
     2
340
11
  0
DIMSTYLE
105
34
102
{ACAD_REACTORS
330
1E8
102
}
330
A
100
AcDbSymbolTableRecord
100
AcDbDimStyleTableRecord
  2
DIMSTYLE9
 70
     0
 41
1.0
 42
2.54
 44
2.54
 73
     0
 74
     0
 77
     1
140
3.0
145
1.0
147
1.5
172
     1
173
     1
279
     2
340
11
  0
DIMSTYLE
105
35
102
{ACAD_REACTORS
330
1E9
102
}
330
A
100
AcDbSymbolTableRecord
100
AcDbDimStyleTableRecord
  2
DIMSTYLE10
 70
     0
 41
1.0
 42
2.54
 44
2.54
 73
     0
 74
     0
 77
     1
140
3.0
145
1.0
147
1.5
172
     1
173
     1
279
     2
340
11
  0
DIMSTYLE
105
36
102
{ACAD_REACTORS
330
1EA
102
}
330
A
100
AcDbSymbolTableRecord
100
AcDbDimStyleTableRecord
  2
DIMSTYLE11
 70
     0
 41
1.0
 42
2.54
 44
2.54
 73
     0
 74
     0
 77
     1
140
3.0
145
1.0
147
1.5
172
     1
173
     1
279
     2
340
11
  0
ENDTAB
  0
TABLE
  2
BLOCK_RECORD
  5
1
330
0
100
AcDbSymbolTable
 70
    15
  0
BLOCK_RECORD
  5
22
330
1
100
AcDbSymbolTableRecord
100
AcDbBlockTableRecord
  2
*Model_Space
340
25
  0
BLOCK_RECORD
  5
1E
330
1
100
AcDbSymbolTableRecord
100
AcDbBlockTableRecord
  2
*Paper_Space
340
21
  0
BLOCK_RECORD
  5
3A
330
1
100
AcDbSymbolTableRecord
100
AcDbBlockTableRecord
  2
_OPEN30
340
0
102
{BLKREFS
331
44
331
46
331
52
331
53
331
5C
331
5D
331
66
331
67
331
70
331
71
331
79
331
7A
331
85
331
86
331
90
331
91
331
9B
331
9C
331
A7
331
A8
331
B1
331
B2
102
}
  0
BLOCK_RECORD
  5
40
330
1
100
AcDbSymbolTableRecord
100
AcDbBlockTableRecord
  2
*D1
340
0
  0
BLOCK_RECORD
  5
4E
330
1
100
AcDbSymbolTableRecord
100
AcDbBlockTableRecord
  2
*D2
340
0
  0
BLOCK_RECORD
  5
58
330
1
100
AcDbSymbolTableRecord
100
AcDbBlockTableRecord
  2
*D3
340
0
  0
BLOCK_RECORD
  5
62
330
1
100
AcDbSymbolTableRecord
100
AcDbBlockTableRecord
  2
*D4
340
0
  0
BLOCK_RECORD
  5
6C
330
1
100
AcDbSymbolTableRecord
100
AcDbBlockTableRecord
  2
*D5
340
0
  0
BLOCK_RECORD
  5
76
330
1
100
AcDbSymbolTableRecord
100
AcDbBlockTableRecord
  2
*D6
340
0
  0
BLOCK_RECORD
  5
82
330
1
100
AcDbSymbolTableRecord
100
AcDbBlockTableRecord
  2
*D7
340
0
  0
BLOCK_RECORD
  5
8D
330
1
100
AcDbSymbolTableRecord
100
AcDbBlockTableRecord
  2
*D8
340
0
  0
BLOCK_RECORD
  5
98
330
1
100
AcDbSymbolTableRecord
100
AcDbBlockTableRecord
  2
*D9
340
0
  0
BLOCK_RECORD
  5
A4
330
1
100
AcDbSymbolTableRecord
100
AcDbBlockTableRecord
  2
*D10
340
0
  0
BLOCK_RECORD
  5
AE
330
1
100
AcDbSymbolTableRecord
100
AcDbBlockTableRecord
  2
*D11
340
0
  0
BLOCK_RECORD
  5
BA
330
1
100
AcDbSymbolTableRecord
100
AcDbBlockTableRecord
  2
KOZU0001
340
0
102
{BLKREFS
331
1E3
102
}
  0
BLOCK_RECORD
  5
C2
330
1
100
AcDbSymbolTableRecord
100
AcDbBlockTableRecord
  2
KOZU0002
340
0
102
{BLKREFS
331
1E7
102
}
  0
ENDTAB
  0
ENDSEC
  0
SECTION
  2
BLOCKS
  0
BLOCK
  5
23
330
22
100
AcDbEntity
  8
0
100
AcDbBlockBegin
  2
*Model_Space
 70
     0
 10
0.0
 20
0.0
 30
0.0
  3
*Model_Space
  1

  0
ENDBLK
  5
24
330
22
100
AcDbEntity
  8
0
100
AcDbBlockEnd
  0
BLOCK
  5
1F
330
1E
100
AcDbEntity
 67
     1
  8
0
100
AcDbBlockBegin
  2
*Paper_Space
 70
     0
 10
0.0
 20
0.0
 30
0.0
  3
*Paper_Space
  1

  0
ENDBLK
  5
20
330
1E
100
AcDbEntity
 67
     1
  8
0
100
AcDbBlockEnd
  0
BLOCK
  5
3B
330
3A
100
AcDbEntity
  8
0
100
AcDbBlockBegin
  2
_OPEN30
 70
     0
 10
0.0
 20
0.0
 30
0.0
  3
_OPEN30
  1

  0
LINE
  5
3C
330
3A
100
AcDbEntity
  8
0
  6
ByBlock
 62
     0
100
AcDbLine
 10
0.0
 20
0.0
 30
0.0
 11
-2.999999999999993
 21
-1.000000000000017
 31
0.0
  0
LINE
  5
3D
330
3A
100
AcDbEntity
  8
0
  6
ByBlock
 62
     0
100
AcDbLine
 10
0.0
 20
0.0
 30
0.0
 11
-3.000000000000006
 21
0.9999999999999815
 31
0.0
  0
LINE
  5
3E
330
3A
100
AcDbEntity
  8
0
  6
ByBlock
 62
     0
100
AcDbLine
 10
0.0
 20
0.0
 30
0.0
 11
-3.0
 21
0.0
 31
0.0
  0
ENDBLK
  5
3F
330
3A
100
AcDbEntity
  8
0
100
AcDbBlockEnd
  0
BLOCK
  5
41
330
40
100
AcDbEntity
  8
0
100
AcDbBlockBegin
  2
*D1
 70
     1
 10
0.0
 20
0.0
 30
0.0
  3
*D1
  1

  0
LINE
  5
42
330
40
100
AcDbEntity
  8
0
  6
Continuous
 62
     7
100
AcDbLine
 10
-144.7904510498046
 20
320.1388549804688
 30
0.0
 11
-137.7913513183594
 21
320.1388549804688
 31
0.0
  0
LINE
  5
43
330
40
100
AcDbEntity
  8
0
  6
Continuous
 62
     7
100
AcDbLine
 10
-147.7904510498047
 20
320.1388549804688
 30
0.0
 11
-144.7904510498046
 21
320.1388549804688
 31
0.0
  0
INSERT
  5
44
330
40
100
AcDbEntity
  8
0
  6
Continuous
 62
     7
100
AcDbBlockReference
  2
_OPEN30
 10
-147.7904510498047
 20
320.1388549804688
 30
0.0
 50
0.0000000000003562
  0
LINE
  5
45
330
40
100
AcDbEntity
  8
0
  6
Continuous
 62
     7
100
AcDbLine
 10
-150.7904510498047
 20
320.1388549804688
 30
0.0
 11
-154.1404510498047
 21
320.1388549804687
 31
0.0
  0
INSERT
  5
46
330
40
100
AcDbEntity
  8
0
  6
Continuous
 62
     7
100
AcDbBlockReference
  2
_OPEN30
 10
-144.7904510498046
 20
320.1388549804688
 30
0.0
 50
180.0
  0
LINE
  5
47
330
40
100
AcDbEntity
  8
0
  6
Continuous
 62
     7
100
AcDbLine
 10
-141.7904510498047
 20
320.1388549804688
 30
0.0
 11
-138.4404510498047
 21
320.1388549804688
 31
0.0
  0
LINE
  5
48
330
40
100
AcDbEntity
  8
0
  6
Continuous
 62
     7
100
AcDbLine
 10
-144.7904510498046
 20
298.9079504394532
 30
0.0
 11
-144.7904510498046
 21
322.4248657226563
 31
0.0
  0
TEXT
  5
49
330
40
100
AcDbEntity
  8
0
  6
Continuous
 62
     7
100
AcDbText
 10
-139.9313586950302
 20
320.8888549804688
 30
0.0
 40
3.0
  1
3
100
AcDbText
  0
POINT
  5
4A
330
40
100
AcDbEntity
  8
DEFPOINTS
  6
Continuous
 62
     7
100
AcDbPoint
 10
-147.7904510498047
 20
315.9647827148438
 30
0.0
  0
POINT
  5
4B
330
40
100
AcDbEntity
  8
DEFPOINTS
  6
Continuous
 62
     7
100
AcDbPoint
 10
-144.7904510498046
 20
296.3679504394531
 30
0.0
  0
POINT
  5
4C
330
40
100
AcDbEntity
  8
DEFPOINTS
  6
Continuous
 62
     7
100
AcDbPoint
 10
-144.7904510498046
 20
320.1388549804688
 30
0.0
  0
ENDBLK
  5
4D
330
40
100
AcDbEntity
  8
0
100
AcDbBlockEnd
  0
BLOCK
  5
4F
330
4E
100
AcDbEntity
  8
0
100
AcDbBlockBegin
  2
*D2
 70
     1
 10
0.0
 20
0.0
 30
0.0
  3
*D2
  1

  0
LINE
  5
50
330
4E
100
AcDbEntity
  8
0
  6
Continuous
 62
     7
100
AcDbLine
 10
-359.9364013671875
 20
289.643310546875
 30
0.0
 11
-345.1897583007813
 21
324.0124816894531
 31
0.0
  0
LINE
  5
51
330
4E
100
AcDbEntity
  8
0
  6
Continuous
 62
     7
100
AcDbLine
 10
-424.2078972745749
 20
139.8495157628752
 30
0.0
 11
-361.1193121980812
 21
286.8863698572418
 31
0.0
  0
INSERT
  5
52
330
4E
100
AcDbEntity
  8
0
  6
Continuous
 62
     7
100
AcDbBlockReference
  2
_OPEN30
 10
-425.3908081054688
 20
137.0925750732422
 30
0.0
 50
246.777450902397
  0
INSERT
  5
53
330
4E
100
AcDbEntity
  8
0
  6
Continuous
 62
     7
100
AcDbBlockReference
  2
_OPEN30
 10
-359.9364013671875
 20
289.643310546875
 30
0.0
 50
66.77745090239639
  0
TEXT
  5
54
330
4E
100
AcDbEntity
  8
0
  6
Continuous
 62
     7
100
AcDbText
 10
-358.5462124920633
 20
294.7693965631211
 30
0.0
 40
3.0
  1
%%C１６６（防水皿外径）
 50
66.80000140353341
 41
0.8440126077968535
100
AcDbText
  0
POINT
  5
55
330
4E
100
AcDbEntity
  8
DEFPOINTS
  6
Continuous
 62
     7
100
AcDbPoint
 10
-425.3908081054688
 20
137.0925750732422
 30
0.0
  0
POINT
  5
56
330
4E
100
AcDbEntity
  8
DEFPOINTS
  6
Continuous
 62
     7
100
AcDbPoint
 10
-359.9364013671875
 20
289.643310546875
 30
0.0
  0
ENDBLK
  5
57
330
4E
100
AcDbEntity
  8
0
100
AcDbBlockEnd
  0
BLOCK
  5
59
330
58
100
AcDbEntity
  8
0
100
AcDbBlockBegin
  2
*D3
 70
     1
 10
0.0
 20
0.0
 30
0.0
  3
*D3
  1

  0
LINE
  5
5A
330
58
100
AcDbEntity
  8
0
  6
Continuous
 62
     7
100
AcDbLine
 10
-358.3753356933594
 20
257.4122009277344
 30
0.0
 11
-317.0877685546875
 21
310.7256469726563
 31
0.0
  0
LINE
  5
5B
330
58
100
AcDbEntity
  8
0
  6
Continuous
 62
     7
100
AcDbLine
 10
-425.1150023224377
 20
171.233211525719
 30
0.0
 11
-360.2122071502185
 21
255.0403022682263
 31
0.0
  0
INSERT
  5
5C
330
58
100
AcDbEntity
  8
0
  6
Continuous
 62
     7
100
AcDbBlockReference
  2
_OPEN30
 10
-426.9518737792968
 20
168.8613128662109
 30
0.0
 50
232.2446951097274
  0
INSERT
  5
5D
330
58
100
AcDbEntity
  8
0
  6
Continuous
 62
     7
100
AcDbBlockReference
  2
_OPEN30
 10
-358.3753356933594
 20
257.4122009277344
 30
0.0
 50
52.24469510972668
  0
TEXT
  5
5E
330
58
100
AcDbEntity
  8
0
  6
Continuous
 62
     7
100
AcDbText
 10
-339.207096570668
 20
283.41088452631
 30
0.0
 40
3.0
  1
%%C１１２（ノズル部外径）
 50
52.20000076957841
 41
0.8436974815103043
100
AcDbText
  0
POINT
  5
5F
330
58
100
AcDbEntity
  8
DEFPOINTS
  6
Continuous
 62
     7
100
AcDbPoint
 10
-426.9518737792968
 20
168.8613128662109
 30
0.0
  0
POINT
  5
60
330
58
100
AcDbEntity
  8
DEFPOINTS
  6
Continuous
 62
     7
100
AcDbPoint
 10
-358.3753356933594
 20
257.4122009277344
 30
0.0
  0
ENDBLK
  5
61
330
58
100
AcDbEntity
  8
0
100
AcDbBlockEnd
  0
BLOCK
  5
63
330
62
100
AcDbEntity
  8
0
100
AcDbBlockBegin
  2
*D4
 70
     1
 10
0.0
 20
0.0
 30
0.0
  3
*D4
  1

  0
LINE
  5
64
330
62
100
AcDbEntity
  8
0
  6
Continuous
 62
     7
100
AcDbLine
 10
-357.5072631835938
 20
234.2325286865234
 30
0.0
 11
-292.7272644042968
 21
273.1041564941406
 31
0.0
  0
LINE
  5
65
330
62
100
AcDbEntity
  8
0
  6
Continuous
 62
     7
100
AcDbLine
 10
-425.2475312529431
 20
193.5845633449741
 30
0.0
 11
-360.0796782197131
 21
232.6889351901822
 31
0.0
  0
INSERT
  5
66
330
62
100
AcDbEntity
  8
0
  6
Continuous
 62
     7
100
AcDbBlockReference
  2
_OPEN30
 10
-427.8199462890625
 20
192.0409698486328
 30
0.0
 50
210.9661225805251
  0
INSERT
  5
67
330
62
100
AcDbEntity
  8
0
  6
Continuous
 62
     7
100
AcDbBlockReference
  2
_OPEN30
 10
-357.5072631835938
 20
234.2325286865234
 30
0.0
 50
30.96612258052438
  0
TEXT
  5
68
330
62
100
AcDbEntity
  8
0
  6
Continuous
 62
     7
100
AcDbText
 10
-315.5238735049281
 20
260.2905697932386
 30
0.0
 40
3.0
  1
%%C８２（目皿外径）
 50
30.99999858592387
 41
0.8448610247221777
100
AcDbText
  0
POINT
  5
69
330
62
100
AcDbEntity
  8
DEFPOINTS
  6
Continuous
 62
     7
100
AcDbPoint
 10
-427.8199462890625
 20
192.0409698486328
 30
0.0
  0
POINT
  5
6A
330
62
100
AcDbEntity
  8
DEFPOINTS
  6
Continuous
 62
     7
100
AcDbPoint
 10
-357.5072631835938
 20
234.2325286865234
 30
0.0
  0
ENDBLK
  5
6B
330
62
100
AcDbEntity
  8
0
100
AcDbBlockEnd
  0
BLOCK
  5
6D
330
6C
100
AcDbEntity
  8
0
100
AcDbBlockBegin
  2
*D5
 70
     1
 10
0.0
 20
0.0
 30
0.0
  3
*D5
  1

  0
LINE
  5
6E
330
6C
100
AcDbEntity
  8
0
  6
Continuous
 62
     7
100
AcDbLine
 10
-448.1069335937499
 20
260.8551635742188
 30
0.0
 11
-475.751220703125
 21
284.5325012207031
 31
0.0
  0
LINE
  5
6F
330
6C
100
AcDbEntity
  8
0
  6
Continuous
 62
     7
100
AcDbLine
 10
-339.4987689364443
 20
167.8322367988568
 30
0.0
 11
-445.8284405362118
 21
258.9036335624714
 31
0.0
  0
INSERT
  5
70
330
6C
100
AcDbEntity
  8
0
  6
Continuous
 62
     7
100
AcDbBlockReference
  2
_OPEN30
 10
-337.2202758789063
 20
165.8807067871094
 30
0.0
 50
319.4199349733432
  0
INSERT
  5
71
330
6C
100
AcDbEntity
  8
0
  6
Continuous
 62
     7
100
AcDbBlockReference
  2
_OPEN30
 10
-448.1069335937499
 20
260.8551635742188
 30
0.0
 50
139.4199349733425
  0
TEXT
  5
72
330
6C
100
AcDbEntity
  8
0
  6
Continuous
 62
     7
100
AcDbText
 10
-475.2612147714017
 20
285.1042303751292
 30
0.0
 40
3.0
  1
PCD146
 50
319.399999780894
 41
1.07125000655651
100
AcDbText
  0
POINT
  5
73
330
6C
100
AcDbEntity
  8
DEFPOINTS
  6
Continuous
 62
     7
100
AcDbPoint
 10
-337.2202758789063
 20
165.8807067871094
 30
0.0
  0
POINT
  5
74
330
6C
100
AcDbEntity
  8
DEFPOINTS
  6
Continuous
 62
     7
100
AcDbPoint
 10
-448.1069335937499
 20
260.8551635742188
 30
0.0
  0
ENDBLK
  5
75
330
6C
100
AcDbEntity
  8
0
100
AcDbBlockEnd
  0
BLOCK
  5
77
330
76
100
AcDbEntity
  8
0
100
AcDbBlockBegin
  2
*D6
 70
     1
 10
0.0
 20
0.0
 30
0.0
  3
*D6
  1

  0
LINE
  5
78
330
76
100
AcDbEntity
  8
0
  6
Continuous
 62
     7
100
AcDbLine
 10
-150.7929534912109
 20
320.1388549804688
 30
0.0
 11
-204.7929534912109
 21
320.1388549804688
 31
0.0
  0
INSERT
  5
79
330
76
100
AcDbEntity
  8
0
  6
Continuous
 62
     7
100
AcDbBlockReference
  2
_OPEN30
 10
-147.7929534912109
 20
320.1388549804688
 30
0.0
  0
INSERT
  5
7A
330
76
100
AcDbEntity
  8
0
  6
Continuous
 62
     7
100
AcDbBlockReference
  2
_OPEN30
 10
-207.7929534912109
 20
320.1388549804688
 30
0.0
 50
180.0000000000004
  0
LINE
  5
7B
330
76
100
AcDbEntity
  8
0
  6
Continuous
 62
     7
100
AcDbLine
 10
-147.7929534912109
 20
298.9079504394532
 30
0.0
 11
-147.7929534912109
 21
322.4248657226563
 31
0.0
  0
LINE
  5
7C
330
76
100
AcDbEntity
  8
0
  6
Continuous
 62
     7
100
AcDbLine
 10
-207.7929534912109
 20
271.9079504394532
 30
0.0
 11
-207.7929534912109
 21
322.4248657226563
 31
0.0
  0
TEXT
  5
7D
330
76
100
AcDbEntity
  8
0
  6
Continuous
 62
     7
100
AcDbText
 10
-192.3629540801048
 20
320.8888549804688
 30
0.0
 40
3.0
  1
６０　（５０～６５）
 41
0.8443929326254473
100
AcDbText
  0
POINT
  5
7E
330
76
100
AcDbEntity
  8
DEFPOINTS
  6
Continuous
 62
     7
100
AcDbPoint
 10
-147.7929534912109
 20
296.3679504394531
 30
0.0
  0
POINT
  5
7F
330
76
100
AcDbEntity
  8
DEFPOINTS
  6
Continuous
 62
     7
100
AcDbPoint
 10
-207.7929534912109
 20
269.367950439453
 30
0.0
  0
POINT
  5
80
330
76
100
AcDbEntity
  8
DEFPOINTS
  6
Continuous
 62
     7
100
AcDbPoint
 10
-207.7929534912109
 20
320.1388549804688
 30
0.0
  0
ENDBLK
  5
81
330
76
100
AcDbEntity
  8
0
100
AcDbBlockEnd
  0
BLOCK
  5
83
330
82
100
AcDbEntity
  8
0
100
AcDbBlockBegin
  2
*D7
 70
     1
 10
0.0
 20
0.0
 30
0.0
  3
*D7
  1

  0
LINE
  5
84
330
82
100
AcDbEntity
  8
0
  6
Continuous
 62
     7
100
AcDbLine
 10
-210.7929534912109
 20
320.1388549804688
 30
0.0
 11
-214.7929534912109
 21
320.1388549804688
 31
0.0
  0
INSERT
  5
85
330
82
100
AcDbEntity
  8
0
  6
Continuous
 62
     7
100
AcDbBlockReference
  2
_OPEN30
 10
-207.7929534912109
 20
320.1388549804688
 30
0.0
  0
INSERT
  5
86
330
82
100
AcDbEntity
  8
0
  6
Continuous
 62
     7
100
AcDbBlockReference
  2
_OPEN30
 10
-217.7929534912109
 20
320.1388549804688
 30
0.0
 50
180.0000000000004
  0
LINE
  5
87
330
82
100
AcDbEntity
  8
0
  6
Continuous
 62
     7
100
AcDbLine
 10
-217.7929534912109
 20
261.1819982910157
 30
0.0
 11
-217.7929534912109
 21
322.4248657226563
 31
0.0
  0
TEXT
  5
88
330
82
100
AcDbEntity
  8
0
  6
Continuous
 62
     7
100
AcDbText
 10
-215.3629536032677
 20
320.8888549804688
 30
0.0
 40
3.0
  1
10
 41
1.40181821042841
100
AcDbText
  0
POINT
  5
89
330
82
100
AcDbEntity
  8
DEFPOINTS
  6
Continuous
 62
     7
100
AcDbPoint
 10
-207.7929534912109
 20
322.4248657226563
 30
0.0
  0
POINT
  5
8A
330
82
100
AcDbEntity
  8
DEFPOINTS
  6
Continuous
 62
     7
100
AcDbPoint
 10
-217.7929534912109
 20
258.6419982910156
 30
0.0
  0
POINT
  5
8B
330
82
100
AcDbEntity
  8
DEFPOINTS
  6
Continuous
 62
     7
100
AcDbPoint
 10
-217.7929534912109
 20
320.1388549804688
 30
0.0
  0
ENDBLK
  5
8C
330
82
100
AcDbEntity
  8
0
100
AcDbBlockEnd
  0
BLOCK
  5
8E
330
8D
100
AcDbEntity
  8
0
100
AcDbBlockBegin
  2
*D8
 70
     1
 10
0.0
 20
0.0
 30
0.0
  3
*D8
  1

  0
LINE
  5
8F
330
8D
100
AcDbEntity
  8
0
  6
Continuous
 62
     7
100
AcDbLine
 10
-150.7929534912109
 20
308.7164611816406
 30
0.0
 11
-169.7929534912109
 21
308.7164611816406
 31
0.0
  0
INSERT
  5
90
330
8D
100
AcDbEntity
  8
0
  6
Continuous
 62
     7
100
AcDbBlockReference
  2
_OPEN30
 10
-147.7929534912109
 20
308.7164611816406
 30
0.0
  0
INSERT
  5
91
330
8D
100
AcDbEntity
  8
0
  6
Continuous
 62
     7
100
AcDbBlockReference
  2
_OPEN30
 10
-172.7929534912109
 20
308.7164611816406
 30
0.0
 50
180.0000000000004
  0
LINE
  5
92
330
8D
100
AcDbEntity
  8
0
  6
Continuous
 62
     7
100
AcDbLine
 10
-172.7929534912109
 20
248.9079351806641
 30
0.0
 11
-172.7929534912109
 21
311.0024719238281
 31
0.0
  0
TEXT
  5
93
330
8D
100
AcDbEntity
  8
0
  6
Continuous
 62
     7
100
AcDbText
 10
-162.8629536032677
 20
309.4664611816406
 30
0.0
 40
3.0
  1
25
 41
1.028000020980834
100
AcDbText
  0
POINT
  5
94
330
8D
100
AcDbEntity
  8
DEFPOINTS
  6
Continuous
 62
     7
100
AcDbPoint
 10
-147.7929534912109
 20
296.3679504394531
 30
0.0
  0
POINT
  5
95
330
8D
100
AcDbEntity
  8
DEFPOINTS
  6
Continuous
 62
     7
100
AcDbPoint
 10
-172.7929534912109
 20
246.3679351806641
 30
0.0
  0
POINT
  5
96
330
8D
100
AcDbEntity
  8
DEFPOINTS
  6
Continuous
 62
     7
100
AcDbPoint
 10
-172.7929534912109
 20
308.7164611816406
 30
0.0
  0
ENDBLK
  5
97
330
8D
100
AcDbEntity
  8
0
100
AcDbBlockEnd
  0
BLOCK
  5
99
330
98
100
AcDbEntity
  8
0
100
AcDbBlockBegin
  2
*D9
 70
     1
 10
0.0
 20
0.0
 30
0.0
  3
*D9
  1

  0
LINE
  5
9A
330
98
100
AcDbEntity
  8
0
  6
Continuous
 62
     7
100
AcDbLine
 10
-83.24151611328126
 20
183.3679351806641
 30
0.0
 11
-83.24151611328122
 21
243.3679351806641
 31
0.0
  0
INSERT
  5
9B
330
98
100
AcDbEntity
  8
0
  6
Continuous
 62
     7
100
AcDbBlockReference
  2
_OPEN30
 10
-83.24151611328124
 20
180.3679351806641
 30
0.0
 50
270.0000000000005
  0
INSERT
  5
9C
330
98
100
AcDbEntity
  8
0
  6
Continuous
 62
     7
100
AcDbBlockReference
  2
_OPEN30
 10
-83.24151611328124
 20
246.3679351806641
 30
0.0
 50
90.00000000000019
  0
LINE
  5
9D
330
98
100
AcDbEntity
  8
0
  6
Continuous
 62
     7
100
AcDbLine
 10
-106.2529534912109
 20
180.3679351806641
 30
0.0
 11
-80.9555206298828
 21
180.3679351806641
 31
0.0
  0
LINE
  5
9E
330
98
100
AcDbEntity
  8
0
  6
Continuous
 62
     7
100
AcDbLine
 10
-106.2529534912109
 20
246.3679351806641
 30
0.0
 11
-80.9555206298828
 21
246.3679351806641
 31
0.0
  0
TEXT
  5
9F
330
98
100
AcDbEntity
  8
0
  6
Continuous
 62
     7
100
AcDbText
 10
-83.99151593537588
 20
209.2979349762192
 30
0.0
 40
3.0
  1
%%C66
 50
90.00000250447815
 41
0.9498249830693319
100
AcDbText
  0
POINT
  5
A0
330
98
100
AcDbEntity
  8
DEFPOINTS
  6
Continuous
 62
     7
100
AcDbPoint
 10
-108.7929534912109
 20
180.3679351806641
 30
0.0
  0
POINT
  5
A1
330
98
100
AcDbEntity
  8
DEFPOINTS
  6
Continuous
 62
     7
100
AcDbPoint
 10
-108.7929534912109
 20
246.3679351806641
 30
0.0
  0
POINT
  5
A2
330
98
100
AcDbEntity
  8
DEFPOINTS
  6
Continuous
 62
     7
100
AcDbPoint
 10
-83.24151611328124
 20
246.3679351806641
 30
0.0
  0
ENDBLK
  5
A3
330
98
100
AcDbEntity
  8
0
100
AcDbBlockEnd
  0
BLOCK
  5
A5
330
A4
100
AcDbEntity
  8
0
100
AcDbBlockBegin
  2
*D10
 70
     1
 10
0.0
 20
0.0
 30
0.0
  3
*D10
  1

  0
LINE
  5
A6
330
A4
100
AcDbEntity
  8
0
  6
Continuous
 62
     7
100
AcDbLine
 10
-214.7929534912109
 20
221.8454895019531
 30
0.0
 11
-160.7929534912109
 21
221.8454895019531
 31
0.0
  0
INSERT
  5
A7
330
A4
100
AcDbEntity
  8
0
  6
Continuous
 62
     7
100
AcDbBlockReference
  2
_OPEN30
 10
-217.7929534912109
 20
221.8454895019531
 30
0.0
 50
180.0000000000004
  0
INSERT
  5
A8
330
A4
100
AcDbEntity
  8
0
  6
Continuous
 62
     7
100
AcDbBlockReference
  2
_OPEN30
 10
-157.7929534912109
 20
221.8454895019531
 30
0.0
  0
TEXT
  5
A9
330
A4
100
AcDbEntity
  8
0
  6
Continuous
 62
     7
100
AcDbText
 10
-190.3629536032676
 20
222.5954895019531
 30
0.0
 40
3.0
  1
60
 41
1.101428593908038
100
AcDbText
  0
POINT
  5
AA
330
A4
100
AcDbEntity
  8
DEFPOINTS
  6
Continuous
 62
     7
100
AcDbPoint
 10
-217.7929534912109
 20
258.6419982910156
 30
0.0
  0
POINT
  5
AB
330
A4
100
AcDbEntity
  8
DEFPOINTS
  6
Continuous
 62
     7
100
AcDbPoint
 10
-157.7929534912109
 20
213.3679351806641
 30
0.0
  0
POINT
  5
AC
330
A4
100
AcDbEntity
  8
DEFPOINTS
  6
Continuous
 62
     7
100
AcDbPoint
 10
-157.7929534912109
 20
221.8454895019531
 30
0.0
  0
ENDBLK
  5
AD
330
A4
100
AcDbEntity
  8
0
100
AcDbBlockEnd
  0
BLOCK
  5
AF
330
AE
100
AcDbEntity
  8
0
100
AcDbBlockBegin
  2
*D11
 70
     1
 10
0.0
 20
0.0
 30
0.0
  3
*D11
  1

  0
LINE
  5
B0
330
AE
100
AcDbEntity
  8
0
  6
Continuous
 62
     7
100
AcDbLine
 10
-169.7929534912109
 20
109.8413925170898
 30
0.0
 11
-111.7929534912109
 21
109.8413925170898
 31
0.0
  0
INSERT
  5
B1
330
AE
100
AcDbEntity
  8
0
  6
Continuous
 62
     7
100
AcDbBlockReference
  2
_OPEN30
 10
-172.7929534912109
 20
109.8413925170898
 30
0.0
 50
180.0000000000004
  0
INSERT
  5
B2
330
AE
100
AcDbEntity
  8
0
  6
Continuous
 62
     7
100
AcDbBlockReference
  2
_OPEN30
 10
-108.7929534912109
 20
109.8413925170898
 30
0.0
  0
LINE
  5
B3
330
AE
100
AcDbEntity
  8
0
  6
Continuous
 62
     7
100
AcDbLine
 10
-172.7929534912109
 20
177.8279351806641
 30
0.0
 11
-172.7929534912109
 21
107.5553970336914
 31
0.0
  0
LINE
  5
B4
330
AE
100
AcDbEntity
  8
0
  6
Continuous
 62
     7
100
AcDbLine
 10
-108.7929534912109
 20
177.8279351806641
 30
0.0
 11
-108.7929534912109
 21
107.5553970336914
 31
0.0
  0
TEXT
  5
B5
330
AE
100
AcDbEntity
  8
0
  6
Continuous
 62
     7
100
AcDbText
 10
-143.3629536032677
 20
110.5913925170898
 30
0.0
 40
3.0
  1
64
 41
1.028000020980834
100
AcDbText
  0
POINT
  5
B6
330
AE
100
AcDbEntity
  8
DEFPOINTS
  6
Continuous
 62
     7
100
AcDbPoint
 10
-172.7929534912109
 20
180.3679351806641
 30
0.0
  0
POINT
  5
B7
330
AE
100
AcDbEntity
  8
DEFPOINTS
  6
Continuous
 62
     7
100
AcDbPoint
 10
-108.7929534912109
 20
180.3679351806641
 30
0.0
  0
POINT
  5
B8
330
AE
100
AcDbEntity
  8
DEFPOINTS
  6
Continuous
 62
     7
100
AcDbPoint
 10
-108.7929534912109
 20
109.8413925170898
 30
0.0
  0
ENDBLK
  5
B9
330
AE
100
AcDbEntity
  8
0
100
AcDbBlockEnd
  0
BLOCK
  5
BB
330
BA
100
AcDbEntity
  8
0
100
AcDbBlockBegin
  2
KOZU0001
 70
     0
 10
0.0
 20
0.0
 30
0.0
  3
KOZU0001
  1

  0
LINE
  5
BC
330
BA
100
AcDbEntity
  8
0
  6
Continuous
 62
     7
100
AcDbLine
 10
0.0
 20
0.0
 30
0.0
 11
-14.87530517578125
 21
23.08761596679688
 31
0.0
  0
LINE
  5
BD
330
BA
100
AcDbEntity
  8
0
  6
Continuous
 62
     7
100
AcDbLine
 10
-14.87530517578125
 20
23.08761596679688
 30
0.0
 11
-35.78866577148438
 21
23.08761596679688
 31
0.0
  0
LINE
  5
BE
330
BA
100
AcDbEntity
  8
0
  6
Continuous
 62
     7
100
AcDbLine
 10
0.0
 20
0.0
 30
0.0
 11
-2.465470157404619
 21
1.980266876697996
 31
0.0
  0
LINE
  5
BF
330
BA
100
AcDbEntity
  8
0
  6
Continuous
 62
     7
100
AcDbLine
 10
0.0
 20
0.0
 30
0.0
 11
-0.7842159999048989
 21
3.063495595801168
 31
0.0
  0
TEXT
  5
C0
330
BA
100
AcDbEntity
  8
0
  6
Continuous
 62
     7
100
AcDbText
 10
-34.0686651468277
 20
23.83761596679688
 30
0.0
 40
3.0
  1
３－Ｍ５皿穴
 41
0.8472565548642696
100
AcDbText
  0
ENDBLK
  5
C1
330
BA
100
AcDbEntity
  8
0
100
AcDbBlockEnd
  0
BLOCK
  5
C3
330
C2
100
AcDbEntity
  8
0
100
AcDbBlockBegin
  2
KOZU0002
 70
     0
 10
0.0
 20
0.0
 30
0.0
  3
KOZU0002
  1

  0
LINE
  5
C4
330
C2
100
AcDbEntity
  8
0
  6
Continuous
 62
     7
100
AcDbLine
 10
0.0
 20
0.0
 30
0.0
 11
17.01032257080077
 21
22.02481079101563
 31
0.0
  0
LINE
  5
C5
330
C2
100
AcDbEntity
  8
0
  6
Continuous
 62
     7
100
AcDbLine
 10
17.01032257080077
 20
22.02481079101563
 30
0.0
 11
45.41268920898438
 21
22.02481079101563
 31
0.0
  0
LINE
  5
C6
330
C2
100
AcDbEntity
  8
0
  6
Continuous
 62
     7
100
AcDbLine
 10
0.0
 20
0.0
 30
0.0
 11
1.042306294942219
 21
2.985564869086556
 31
0.0
  0
LINE
  5
C7
330
C2
100
AcDbEntity
  8
0
  6
Continuous
 62
     7
100
AcDbLine
 10
0.0
 20
0.0
 30
0.0
 11
2.625183957405709
 21
1.763068118303914
 31
0.0
  0
TEXT
  5
C8
330
C2
100
AcDbEntity
  8
0
  6
Continuous
 62
     7
100
AcDbText
 10
20.55268788337708
 20
22.77481079101563
 30
0.0
 40
3.0
  1
配管接続口
 41
0.8487395020950888
100
AcDbText
  0
TEXT
  5
C9
330
C2
100
AcDbEntity
  8
0
  6
Continuous
 62
     7
100
AcDbText
 10
20.55268788337708
 20
17.50981079101562
 30
0.0
 40
3.0
  1
Ｒｃ２（５０Ａ）
 41
0.8454512278006642
100
AcDbText
  0
ENDBLK
  5
CA
330
C2
100
AcDbEntity
  8
0
100
AcDbBlockEnd
  0
ENDSEC
  0
SECTION
  2
ENTITIES
  0
LINE
  5
CB
330
22
100
AcDbEntity
  8
0
  6
Continuous
 62
     7
100
AcDbLine
 10
-392.6636047363281
 20
243.1235046386719
 30
0.0
 11
-393.1266174316406
 21
243.1235046386719
 31
0.0
  0
LINE
  5
CC
330
22
100
AcDbEntity
  8
0
  6
CENTER
 62
     7
100
AcDbLine
 10
-483.7876892089844
 20
213.3679351806641
 30
0.0
 11
-300.8936462402344
 21
213.3679351806641
 31
0.0
  0
LINE
  5
CD
330
22
100
AcDbEntity
  8
0
  6
Continuous
 62
     7
100
AcDbLine
 10
-388.425537109375
 20
247.8493957519531
 30
0.0
 11
-391.7432250976563
 21
248.30712890625
 31
0.0
  0
LINE
  5
CE
330
22
100
AcDbEntity
  8
0
  6
Continuous
 62
     7
100
AcDbLine
 10
-388.425537109375
 20
246.9241027832031
 30
0.0
 11
-391.7432250976563
 21
246.4663848876953
 31
0.0
  0
LINE
  5
CF
330
22
100
AcDbEntity
  8
0
  6
Continuous
 62
     7
100
AcDbLine
 10
-392.6636047363281
 20
251.6500091552734
 30
0.0
 11
-392.2005920410157
 21
251.6500091552734
 31
0.0
  0
LINE
  5
D0
330
22
100
AcDbEntity
  8
0
  6
Continuous
 62
     7
100
AcDbLine
 10
-392.6636047363281
 20
251.6500091552734
 30
0.0
 11
-393.1266174316406
 21
251.6500091552734
 31
0.0
  0
LINE
  5
D1
330
22
100
AcDbEntity
  8
0
  6
Continuous
 62
     7
100
AcDbLine
 10
-376.6885681152344
 20
220.2814636230469
 30
0.0
 11
-372.2213134765625
 21
222.8606262207031
 31
0.0
  0
LINE
  5
D2
330
22
100
AcDbEntity
  8
0
  6
Continuous
 62
     7
100
AcDbLine
 10
-378.6878662109375
 20
223.7450561523438
 30
0.0
 11
-374.2206726074219
 21
226.3241882324219
 31
0.0
  0
LINE
  5
D3
330
22
100
AcDbEntity
  8
0
  6
Continuous
 62
     7
100
AcDbLine
 10
-406.6384277343749
 20
223.7459564208984
 30
0.0
 11
-411.1056823730469
 21
226.3251342773438
 31
0.0
  0
LINE
  5
D4
330
22
100
AcDbEntity
  8
0
  6
Continuous
 62
     7
100
AcDbLine
 10
-408.6383361816406
 20
220.2827301025391
 30
0.0
 11
-413.1055297851562
 21
222.8618469238281
 31
0.0
  0
LINE
  5
D5
330
22
100
AcDbEntity
  8
0
  6
Continuous
 62
     7
100
AcDbLine
 10
-392.6636047363281
 20
174.6235046386719
 30
0.0
 11
-393.1266174316406
 21
174.6235046386719
 31
0.0
  0
LINE
  5
D6
330
22
100
AcDbEntity
  8
0
  6
Continuous
 62
     7
100
AcDbLine
 10
-393.1266174316406
 20
174.6235046386719
 30
0.0
 11
-393.583984375
 21
177.9663848876953
 31
0.0
  0
LINE
  5
D7
330
22
100
AcDbEntity
  8
0
  6
Continuous
 62
     7
100
AcDbLine
 10
-394.6632080078125
 20
196.0762023925781
 30
0.0
 11
-394.6632080078125
 21
190.9179077148438
 31
0.0
  0
LINE
  5
D8
330
22
100
AcDbEntity
  8
0
  6
Continuous
 62
     7
100
AcDbLine
 10
-388.425537109375
 20
246.9241027832031
 30
0.0
 11
-388.425537109375
 21
247.3867492675781
 31
0.0
  0
LINE
  5
D9
330
22
100
AcDbEntity
  8
0
  6
Continuous
 62
     7
100
AcDbLine
 10
-396.9016723632813
 20
247.8493957519531
 30
0.0
 11
-396.9016723632813
 21
247.3867492675781
 31
0.0
  0
LINE
  5
DA
330
22
100
AcDbEntity
  8
0
  6
Continuous
 62
     7
100
AcDbLine
 10
-393.1266174316406
 20
251.6500091552734
 30
0.0
 11
-393.583984375
 21
248.30712890625
 31
0.0
  0
LINE
  5
DB
330
22
100
AcDbEntity
  8
0
  6
Continuous
 62
     7
100
AcDbLine
 10
-392.2005920410157
 20
251.6500091552734
 30
0.0
 11
-391.7432250976563
 21
248.30712890625
 31
0.0
  0
LINE
  5
DC
330
22
100
AcDbEntity
  8
0
  6
Continuous
 62
     7
100
AcDbLine
 10
-396.9016723632813
 20
246.9241027832031
 30
0.0
 11
-396.9016723632813
 21
247.3867492675781
 31
0.0
  0
LINE
  5
DD
330
22
100
AcDbEntity
  8
0
  6
Continuous
 62
     7
100
AcDbLine
 10
-396.9016723632813
 20
247.8493957519531
 30
0.0
 11
-393.583984375
 21
248.30712890625
 31
0.0
  0
LINE
  5
DE
330
22
100
AcDbEntity
  8
0
  6
Continuous
 62
     7
100
AcDbLine
 10
-396.9016723632813
 20
246.9241027832031
 30
0.0
 11
-393.583984375
 21
246.4663848876953
 31
0.0
  0
LINE
  5
DF
330
22
100
AcDbEntity
  8
0
  6
Continuous
 62
     7
100
AcDbLine
 10
-388.425537109375
 20
247.8493957519531
 30
0.0
 11
-388.425537109375
 21
247.3867492675781
 31
0.0
  0
LINE
  5
E0
330
22
100
AcDbEntity
  8
0
  6
Continuous
 62
     7
100
AcDbLine
 10
-392.6636047363281
 20
243.1235046386719
 30
0.0
 11
-392.2005920410157
 21
243.1235046386719
 31
0.0
  0
LINE
  5
E1
330
22
100
AcDbEntity
  8
0
  6
Continuous
 62
     7
100
AcDbLine
 10
-392.2005920410157
 20
243.1235046386719
 30
0.0
 11
-391.7432250976563
 21
246.4663848876953
 31
0.0
  0
LINE
  5
E2
330
22
100
AcDbEntity
  8
0
  6
Continuous
 62
     7
100
AcDbLine
 10
-393.1266174316406
 20
243.1235046386719
 30
0.0
 11
-393.583984375
 21
246.4663848876953
 31
0.0
  0
LINE
  5
E3
330
22
100
AcDbEntity
  8
0
  6
Continuous
 62
     7
100
AcDbLine
 10
-390.6640014648438
 20
196.0762023925781
 30
0.0
 11
-390.6640014648438
 21
190.9179077148438
 31
0.0
  0
LINE
  5
E4
330
22
100
AcDbEntity
  8
0
  6
Continuous
 62
     7
100
AcDbLine
 10
-392.2005920410157
 20
183.1500091552734
 30
0.0
 11
-391.7432250976563
 21
179.80712890625
 31
0.0
  0
LINE
  5
E5
330
22
100
AcDbEntity
  8
0
  6
Continuous
 62
     7
100
AcDbLine
 10
-393.1266174316406
 20
183.1500091552734
 30
0.0
 11
-393.583984375
 21
179.80712890625
 31
0.0
  0
LINE
  5
E6
330
22
100
AcDbEntity
  8
0
  6
Continuous
 62
     7
100
AcDbLine
 10
-392.2005920410157
 20
174.6235046386719
 30
0.0
 11
-391.7432250976563
 21
177.9663848876953
 31
0.0
  0
LINE
  5
E7
330
22
100
AcDbEntity
  8
0
  6
Continuous
 62
     7
100
AcDbLine
 10
-392.6636047363281
 20
174.6235046386719
 30
0.0
 11
-392.2005920410157
 21
174.6235046386719
 31
0.0
  0
LINE
  5
E8
330
22
100
AcDbEntity
  8
0
  6
Continuous
 62
     7
100
AcDbLine
 10
-392.6636047363281
 20
183.1500091552734
 30
0.0
 11
-392.2005920410157
 21
183.1500091552734
 31
0.0
  0
LINE
  5
E9
330
22
100
AcDbEntity
  8
0
  6
Continuous
 62
     7
100
AcDbLine
 10
-396.9016723632813
 20
179.3493957519531
 30
0.0
 11
-396.9016723632813
 21
178.8867492675781
 31
0.0
  0
LINE
  5
EA
330
22
100
AcDbEntity
  8
0
  6
Continuous
 62
     7
100
AcDbLine
 10
-388.425537109375
 20
178.4241027832031
 30
0.0
 11
-388.425537109375
 21
178.8867492675781
 31
0.0
  0
LINE
  5
EB
330
22
100
AcDbEntity
  8
0
  6
Continuous
 62
     7
100
AcDbLine
 10
-388.425537109375
 20
178.4241027832031
 30
0.0
 11
-391.7432250976563
 21
177.9663848876953
 31
0.0
  0
LINE
  5
EC
330
22
100
AcDbEntity
  8
0
  6
Continuous
 62
     7
100
AcDbLine
 10
-388.425537109375
 20
179.3493957519531
 30
0.0
 11
-391.7432250976563
 21
179.80712890625
 31
0.0
  0
LINE
  5
ED
330
22
100
AcDbEntity
  8
0
  6
Continuous
 62
     7
100
AcDbLine
 10
-388.425537109375
 20
179.3493957519531
 30
0.0
 11
-388.425537109375
 21
178.8867492675781
 31
0.0
  0
LINE
  5
EE
330
22
100
AcDbEntity
  8
0
  6
Continuous
 62
     7
100
AcDbLine
 10
-396.9016723632813
 20
178.4241027832031
 30
0.0
 11
-393.583984375
 21
177.9663848876953
 31
0.0
  0
LINE
  5
EF
330
22
100
AcDbEntity
  8
0
  6
Continuous
 62
     7
100
AcDbLine
 10
-392.6636047363281
 20
183.1500091552734
 30
0.0
 11
-393.1266174316406
 21
183.1500091552734
 31
0.0
  0
LINE
  5
F0
330
22
100
AcDbEntity
  8
0
  6
Continuous
 62
     7
100
AcDbLine
 10
-396.9016723632813
 20
179.3493957519531
 30
0.0
 11
-393.583984375
 21
179.80712890625
 31
0.0
  0
LINE
  5
F1
330
22
100
AcDbEntity
  8
0
  6
Continuous
 62
     7
100
AcDbLine
 10
-396.9016723632813
 20
178.4241027832031
 30
0.0
 11
-396.9016723632813
 21
178.8867492675781
 31
0.0
  0
LINE
  5
F2
330
22
100
AcDbEntity
  8
0
  6
CENTER
 62
     7
100
AcDbLine
 10
-392.6636047363281
 20
302.5682067871094
 30
0.0
 11
-392.6636047363281
 21
121.0892181396484
 31
0.0
  0
LINE
  5
F3
330
22
100
AcDbEntity
  8
0
  6
Continuous
 62
     7
100
AcDbLine
 10
-214.7929534912109
 20
245.6179351806641
 30
0.0
 11
-214.7929534912109
 21
213.3679351806641
 31
0.0
  0
LINE
  5
F4
330
22
100
AcDbEntity
  8
0
  6
Continuous
 62
     7
100
AcDbLine
 10
-217.7929534912109
 20
252.6179351806641
 30
0.0
 11
-217.7929534912109
 21
242.6179351806641
 31
0.0
  0
LINE
  5
F5
330
22
100
AcDbEntity
  8
0
  6
Continuous
 62
     7
100
AcDbLine
 10
-110.2904586791992
 20
241.671142578125
 30
0.0
 11
-110.2904586791992
 21
213.3679351806641
 31
0.0
  0
LINE
  5
F6
330
22
100
AcDbEntity
  8
0
  6
Continuous
 62
     7
100
AcDbLine
 10
-130.0954437255859
 20
242.5029144287109
 30
0.0
 11
-130.0954437255859
 21
213.3679351806641
 31
0.0
  0
LINE
  5
F7
330
22
100
AcDbEntity
  8
0
  6
Continuous
 62
     7
100
AcDbLine
 10
-144.6929473876953
 20
243.5023498535156
 30
0.0
 11
-144.6929473876953
 21
213.3679351806641
 31
0.0
  0
LINE
  5
F8
330
22
100
AcDbEntity
  8
0
  6
Continuous
 62
     7
100
AcDbLine
 10
-142.7929534912109
 20
241.6023406982422
 30
0.0
 11
-142.7929534912109
 21
213.3679351806641
 31
0.0
  0
LINE
  5
F9
330
22
100
AcDbEntity
  8
0
  6
Continuous
 62
     7
100
AcDbLine
 10
-157.7929534912109
 20
213.3679351806641
 30
0.0
 11
-157.7929534912109
 21
241.7179412841797
 31
0.0
  0
LINE
  5
FA
330
22
100
AcDbEntity
  8
0
  6
Continuous
 62
     7
100
AcDbLine
 10
-217.6958160400391
 20
259.0719299316406
 30
0.0
 11
-212.9286804199219
 21
269.0829162597656
 31
0.0
  0
LINE
  5
FB
330
22
100
AcDbEntity
  8
0
  6
Continuous
 62
     7
100
AcDbLine
 10
-214.7929534912109
 20
249.6179351806641
 30
0.0
 11
-207.8231506347656
 21
249.6179351806641
 31
0.0
  0
LINE
  5
FC
330
22
100
AcDbEntity
  8
0
  6
Continuous
 62
     7
100
AcDbLine
 10
-217.7929534912109
 20
252.6179351806641
 30
0.0
 11
-214.7929534912109
 21
249.6179351806641
 31
0.0
  0
LINE
  5
FD
330
22
100
AcDbEntity
  8
0
  6
Continuous
 62
     7
100
AcDbLine
 10
-217.7929534912109
 20
254.3679351806641
 30
0.0
 11
-214.7929534912109
 21
254.3679351806641
 31
0.0
  0
LINE
  5
FE
330
22
100
AcDbEntity
  8
0
  6
Continuous
 62
     7
100
AcDbLine
 10
-214.7929534912109
 20
254.6679382324219
 30
0.0
 11
-214.7929534912109
 21
249.6179351806641
 31
0.0
  0
LINE
  5
FF
330
22
100
AcDbEntity
  8
0
  6
Continuous
 62
     7
100
AcDbLine
 10
-207.7929534912109
 20
269.367950439453
 30
0.0
 11
-212.4772491455078
 21
269.367950439453
 31
0.0
  0
LINE
  5
100
330
22
100
AcDbEntity
  8
0
  6
Continuous
 62
     7
100
AcDbLine
 10
-217.7929534912109
 20
254.6679382324219
 30
0.0
 11
-214.7929534912109
 21
254.6679382324219
 31
0.0
  0
LINE
  5
101
330
22
100
AcDbEntity
  8
0
  6
Continuous
 62
     7
100
AcDbLine
 10
-207.7929534912109
 20
240.9679412841797
 30
0.0
 11
-214.7929534912109
 21
240.9679412841797
 31
0.0
  0
LINE
  5
102
330
22
100
AcDbEntity
  8
0
  6
Continuous
 62
     7
100
AcDbLine
 10
-214.7929534912109
 20
245.6179351806641
 30
0.0
 11
-207.8231506347656
 21
245.6179351806641
 31
0.0
  0
LINE
  5
103
330
22
100
AcDbEntity
  8
0
  6
Continuous
 62
     7
100
AcDbLine
 10
-217.7929534912109
 20
242.6179351806641
 30
0.0
 11
-214.7929534912109
 21
245.6179351806641
 31
0.0
  0
LINE
  5
104
330
22
100
AcDbEntity
  8
0
  6
Continuous
 62
     7
100
AcDbLine
 10
-214.7929534912109
 20
240.9679412841797
 30
0.0
 11
-213.6429443359375
 21
242.1179351806641
 31
0.0
  0
LINE
  5
105
330
22
100
AcDbEntity
  8
0
  6
Continuous
 62
     7
100
AcDbLine
 10
-207.7929534912109
 20
242.1179351806641
 30
0.0
 11
-214.7929534912109
 21
242.1179351806641
 31
0.0
  0
LINE
  5
106
330
22
100
AcDbEntity
  8
0
  6
Continuous
 62
     7
100
AcDbLine
 10
-208.0903930664063
 20
269.367950439453
 30
0.0
 11
-207.7929534912109
 21
269.0704956054688
 31
0.0
  0
LINE
  5
107
330
22
100
AcDbEntity
  8
0
  6
Continuous
 62
     7
100
AcDbLine
 10
-210.2117156982422
 20
269.367950439453
 30
0.0
 11
-207.7929534912109
 21
266.9491577148438
 31
0.0
  0
LINE
  5
108
330
22
100
AcDbEntity
  8
0
  6
Continuous
 62
     7
100
AcDbLine
 10
-210.9188232421875
 20
269.367950439453
 30
0.0
 11
-207.7929534912109
 21
266.2420654296875
 31
0.0
  0
LINE
  5
109
330
22
100
AcDbEntity
  8
0
  6
Continuous
 62
     7
100
AcDbLine
 10
-212.8579406738281
 20
269.1857299804688
 30
0.0
 11
-207.7929534912109
 21
264.1207275390625
 31
0.0
  0
LINE
  5
10A
330
22
100
AcDbEntity
  8
0
  6
Continuous
 62
     7
100
AcDbLine
 10
-213.1007843017578
 20
268.7214660644531
 30
0.0
 11
-207.7929534912109
 21
263.4136352539063
 31
0.0
  0
LINE
  5
10B
330
22
100
AcDbEntity
  8
0
  6
Continuous
 62
     7
100
AcDbLine
 10
-213.7850799560547
 20
267.2844543457031
 30
0.0
 11
-207.7929534912109
 21
261.2922973632813
 31
0.0
  0
LINE
  5
10C
330
22
100
AcDbEntity
  8
0
  6
Continuous
 62
     7
100
AcDbLine
 10
-214.01318359375
 20
266.8054504394531
 30
0.0
 11
-207.7929534912109
 21
260.585205078125
 31
0.0
  0
LINE
  5
10D
330
22
100
AcDbEntity
  8
0
  6
Continuous
 62
     7
100
AcDbLine
 10
-214.6974792480469
 20
265.368408203125
 30
0.0
 11
-207.7929534912109
 21
258.4638977050781
 31
0.0
  0
LINE
  5
10E
330
22
100
AcDbEntity
  8
0
  6
Continuous
 62
     7
100
AcDbLine
 10
-214.9255828857422
 20
264.889404296875
 30
0.0
 11
-207.7929534912109
 21
257.7567749023438
 31
0.0
  0
LINE
  5
10F
330
22
100
AcDbEntity
  8
0
  6
Continuous
 62
     7
100
AcDbLine
 10
-215.6098785400391
 20
263.452392578125
 30
0.0
 11
-207.7929534912109
 21
255.6354522705078
 31
0.0
  0
LINE
  5
110
330
22
100
AcDbEntity
  8
0
  6
Continuous
 62
     7
100
AcDbLine
 10
-215.8379821777344
 20
262.973388671875
 30
0.0
 11
-207.7929534912109
 21
254.9283447265625
 31
0.0
  0
LINE
  5
111
330
22
100
AcDbEntity
  8
0
  6
Continuous
 62
     7
100
AcDbLine
 10
-216.5222778320313
 20
261.5363464355469
 30
0.0
 11
-207.7929534912109
 21
252.8070373535156
 31
0.0
  0
LINE
  5
112
330
22
100
AcDbEntity
  8
0
  6
Continuous
 62
     7
100
AcDbLine
 10
-216.7503814697266
 20
261.0573425292969
 30
0.0
 11
-207.7929534912109
 21
252.0999298095703
 31
0.0
  0
LINE
  5
113
330
22
100
AcDbEntity
  8
0
  6
Continuous
 62
     7
100
AcDbLine
 10
-217.4346771240234
 20
259.6203308105469
 30
0.0
 11
-207.7929534912109
 21
249.9786071777344
 31
0.0
  0
LINE
  5
114
330
22
100
AcDbEntity
  8
0
  6
Continuous
 62
     7
100
AcDbLine
 10
-217.6627655029297
 20
259.1413269042969
 30
0.0
 11
-208.1393890380859
 21
249.6179351806641
 31
0.0
  0
LINE
  5
115
330
22
100
AcDbEntity
  8
0
  6
Continuous
 62
     7
100
AcDbLine
 10
-214.7929534912109
 20
254.1501770019531
 30
0.0
 11
-210.2607116699219
 21
249.6179351806641
 31
0.0
  0
LINE
  5
116
330
22
100
AcDbEntity
  8
0
  6
Continuous
 62
     7
100
AcDbLine
 10
-217.7929534912109
 20
257.1501770019531
 30
0.0
 11
-215.3107147216797
 21
254.6679382324219
 31
0.0
  0
LINE
  5
117
330
22
100
AcDbEntity
  8
0
  6
Continuous
 62
     7
100
AcDbLine
 10
-214.7929534912109
 20
253.4430694580078
 30
0.0
 11
-210.9678192138672
 21
249.6179351806641
 31
0.0
  0
LINE
  5
118
330
22
100
AcDbEntity
  8
0
  6
Continuous
 62
     7
100
AcDbLine
 10
-217.7929534912109
 20
256.4430847167969
 30
0.0
 11
-216.017822265625
 21
254.6679382324219
 31
0.0
  0
LINE
  5
119
330
22
100
AcDbEntity
  8
0
  6
Continuous
 62
     7
100
AcDbLine
 10
-209.0891418457031
 20
245.6179351806641
 30
0.0
 11
-207.7929534912109
 21
244.3217468261719
 31
0.0
  0
LINE
  5
11A
330
22
100
AcDbEntity
  8
0
  6
Continuous
 62
     7
100
AcDbLine
 10
-214.7929534912109
 20
251.3217468261719
 30
0.0
 11
-213.0891418457031
 21
249.6179351806641
 31
0.0
  0
LINE
  5
11B
330
22
100
AcDbEntity
  8
0
  6
Continuous
 62
     7
100
AcDbLine
 10
-209.7962493896484
 20
245.6179351806641
 30
0.0
 11
-207.7929534912109
 21
243.6146392822266
 31
0.0
  0
LINE
  5
11C
330
22
100
AcDbEntity
  8
0
  6
Continuous
 62
     7
100
AcDbLine
 10
-214.7929534912109
 20
250.6146392822266
 30
0.0
 11
-213.7962493896484
 21
249.6179351806641
 31
0.0
  0
LINE
  5
11D
330
22
100
AcDbEntity
  8
0
  6
Continuous
 62
     7
100
AcDbLine
 10
-211.9175720214844
 20
245.6179351806641
 30
0.0
 11
-208.4175720214844
 21
242.1179351806641
 31
0.0
  0
LINE
  5
11E
330
22
100
AcDbEntity
  8
0
  6
Continuous
 62
     7
100
AcDbLine
 10
-212.6246643066406
 20
245.6179351806641
 30
0.0
 11
-209.1246643066406
 21
242.1179351806641
 31
0.0
  0
LINE
  5
11F
330
22
100
AcDbEntity
  8
0
  6
Continuous
 62
     7
100
AcDbLine
 10
-214.7459869384766
 20
245.6179351806641
 30
0.0
 11
-211.2459869384766
 21
242.1179351806641
 31
0.0
  0
LINE
  5
120
330
22
100
AcDbEntity
  8
0
  6
Continuous
 62
     7
100
AcDbLine
 10
-214.7929534912109
 20
244.9577941894531
 30
0.0
 11
-211.9530944824219
 21
242.1179351806641
 31
0.0
  0
LINE
  5
121
330
22
100
AcDbEntity
  8
0
  6
Continuous
 62
     7
100
AcDbLine
 10
-214.7929534912109
 20
242.8364715576172
 30
0.0
 11
-214.0744171142578
 21
242.1179351806641
 31
0.0
  0
LINE
  5
122
330
22
100
AcDbEntity
  8
0
  6
Continuous
 62
     7
100
AcDbLine
 10
-214.7929534912109
 20
242.1293640136719
 30
0.0
 11
-214.7815246582031
 21
242.1179351806641
 31
0.0
  0
LINE
  5
123
330
22
100
AcDbEntity
  8
0
  6
Continuous
 62
     7
100
AcDbLine
 10
-157.7929534912109
 20
222.6957092285156
 30
0.0
 11
-157.7929534912109
 21
227.2320098876953
 31
0.0
  0
LINE
  5
124
330
22
100
AcDbEntity
  8
0
  6
Continuous
 62
     7
100
AcDbLine
 10
-217.7929534912109
 20
222.6957092285156
 30
0.0
 11
-217.7929534912109
 21
227.2320098876953
 31
0.0
  0
LINE
  5
125
330
22
100
AcDbEntity
  8
0
  6
Continuous
 62
     7
100
AcDbLine
 10
-157.7929534912109
 20
238.8679351806641
 30
0.0
 11
-214.7929534912109
 21
238.8679351806641
 31
0.0
  0
LINE
  5
126
330
22
100
AcDbEntity
  8
0
  6
Continuous
 62
     7
100
AcDbLine
 10
-214.7929534912109
 20
239.9860076904297
 30
0.0
 11
-213.8110198974609
 21
240.9679412841797
 31
0.0
  0
LINE
  5
127
330
22
100
AcDbEntity
  8
0
  6
Continuous
 62
     7
100
AcDbLine
 10
-207.7929534912109
 20
242.7433776855469
 30
0.0
 11
-207.1683807373047
 21
243.3679351806641
 31
0.0
  0
LINE
  5
128
330
22
100
AcDbEntity
  8
0
  6
Continuous
 62
     7
100
AcDbLine
 10
-211.6683807373047
 20
238.8679351806641
 30
0.0
 11
-209.5683898925781
 21
240.9679412841797
 31
0.0
  0
LINE
  5
129
330
22
100
AcDbEntity
  8
0
  6
Continuous
 62
     7
100
AcDbLine
 10
-207.4257507324219
 20
238.8679351806641
 30
0.0
 11
-202.9257507324219
 21
243.3679351806641
 31
0.0
  0
LINE
  5
12A
330
22
100
AcDbEntity
  8
0
  6
Continuous
 62
     7
100
AcDbLine
 10
-203.18310546875
 20
238.8679351806641
 30
0.0
 11
-198.68310546875
 21
243.3679351806641
 31
0.0
  0
LINE
  5
12B
330
22
100
AcDbEntity
  8
0
  6
Continuous
 62
     7
100
AcDbLine
 10
-198.9404602050781
 20
238.8679351806641
 30
0.0
 11
-194.4404602050781
 21
243.3679351806641
 31
0.0
  0
LINE
  5
12C
330
22
100
AcDbEntity
  8
0
  6
Continuous
 62
     7
100
AcDbLine
 10
-194.6978302001953
 20
238.8679351806641
 30
0.0
 11
-190.1978302001953
 21
243.3679351806641
 31
0.0
  0
LINE
  5
12D
330
22
100
AcDbEntity
  8
0
  6
Continuous
 62
     7
100
AcDbLine
 10
-190.4551849365234
 20
238.8679351806641
 30
0.0
 11
-187.6051788330078
 21
241.7179412841797
 31
0.0
  0
LINE
  5
12E
330
22
100
AcDbEntity
  8
0
  6
Continuous
 62
     7
100
AcDbLine
 10
-186.2125396728515
 20
238.8679351806641
 30
0.0
 11
-183.362548828125
 21
241.7179412841797
 31
0.0
  0
LINE
  5
12F
330
22
100
AcDbEntity
  8
0
  6
Continuous
 62
     7
100
AcDbLine
 10
-181.9698944091797
 20
238.8679351806641
 30
0.0
 11
-179.1199035644531
 21
241.7179412841797
 31
0.0
  0
LINE
  5
130
330
22
100
AcDbEntity
  8
0
  6
Continuous
 62
     7
100
AcDbLine
 10
-177.7272644042969
 20
238.8679351806641
 30
0.0
 11
-174.8772583007813
 21
241.7179412841797
 31
0.0
  0
LINE
  5
131
330
22
100
AcDbEntity
  8
0
  6
Continuous
 62
     7
100
AcDbLine
 10
-173.484619140625
 20
238.8679351806641
 30
0.0
 11
-170.6346130371094
 21
241.7179412841797
 31
0.0
  0
LINE
  5
132
330
22
100
AcDbEntity
  8
0
  6
Continuous
 62
     7
100
AcDbLine
 10
-169.2419738769531
 20
238.8679351806641
 30
0.0
 11
-166.3919830322266
 21
241.7179412841797
 31
0.0
  0
LINE
  5
133
330
22
100
AcDbEntity
  8
0
  6
Continuous
 62
     7
100
AcDbLine
 10
-164.9993438720703
 20
238.8679351806641
 30
0.0
 11
-162.1493377685547
 21
241.7179412841797
 31
0.0
  0
LINE
  5
134
330
22
100
AcDbEntity
  8
0
  6
Continuous
 62
     7
100
AcDbLine
 10
-160.7566986083984
 20
238.8679351806641
 30
0.0
 11
-157.9066925048828
 21
241.7179412841797
 31
0.0
  0
LINE
  5
135
330
22
100
AcDbEntity
  8
0
  6
Continuous
 62
     7
100
AcDbLine
 10
-213.7897033691406
 20
238.8679351806641
 30
0.0
 11
-211.6897125244141
 21
240.9679412841797
 31
0.0
  0
LINE
  5
136
330
22
100
AcDbEntity
  8
0
  6
Continuous
 62
     7
100
AcDbLine
 10
-209.5470733642578
 20
238.8679351806641
 30
0.0
 11
-205.0470733642578
 21
243.3679351806641
 31
0.0
  0
LINE
  5
137
330
22
100
AcDbEntity
  8
0
  6
Continuous
 62
     7
100
AcDbLine
 10
-205.3044281005859
 20
238.8679351806641
 30
0.0
 11
-200.8044281005859
 21
243.3679351806641
 31
0.0
  0
LINE
  5
138
330
22
100
AcDbEntity
  8
0
  6
Continuous
 62
     7
100
AcDbLine
 10
-201.0617828369141
 20
238.8679351806641
 30
0.0
 11
-196.5617828369141
 21
243.3679351806641
 31
0.0
  0
LINE
  5
139
330
22
100
AcDbEntity
  8
0
  6
Continuous
 62
     7
100
AcDbLine
 10
-196.8191375732422
 20
238.8679351806641
 30
0.0
 11
-192.3191375732422
 21
243.3679351806641
 31
0.0
  0
LINE
  5
13A
330
22
100
AcDbEntity
  8
0
  6
Continuous
 62
     7
100
AcDbLine
 10
-192.5765075683594
 20
238.8679351806641
 30
0.0
 11
-188.7597198486328
 21
242.6847076416016
 31
0.0
  0
LINE
  5
13B
330
22
100
AcDbEntity
  8
0
  6
Continuous
 62
     7
100
AcDbLine
 10
-188.3338623046875
 20
238.8679351806641
 30
0.0
 11
-185.4838562011719
 21
241.7179412841797
 31
0.0
  0
LINE
  5
13C
330
22
100
AcDbEntity
  8
0
  6
Continuous
 62
     7
100
AcDbLine
 10
-184.0912170410156
 20
238.8679351806641
 30
0.0
 11
-181.241226196289
 21
241.7179412841797
 31
0.0
  0
LINE
  5
13D
330
22
100
AcDbEntity
  8
0
  6
Continuous
 62
     7
100
AcDbLine
 10
-179.8485870361328
 20
238.8679351806641
 30
0.0
 11
-176.9985809326172
 21
241.7179412841797
 31
0.0
  0
LINE
  5
13E
330
22
100
AcDbEntity
  8
0
  6
Continuous
 62
     7
100
AcDbLine
 10
-175.6059417724609
 20
238.8679351806641
 30
0.0
 11
-172.7559356689453
 21
241.7179412841797
 31
0.0
  0
LINE
  5
13F
330
22
100
AcDbEntity
  8
0
  6
Continuous
 62
     7
100
AcDbLine
 10
-171.3632965087891
 20
238.8679351806641
 30
0.0
 11
-168.5133056640625
 21
241.7179412841797
 31
0.0
  0
LINE
  5
140
330
22
100
AcDbEntity
  8
0
  6
Continuous
 62
     7
100
AcDbLine
 10
-167.1206665039063
 20
238.8679351806641
 30
0.0
 11
-164.2706604003906
 21
241.7179412841797
 31
0.0
  0
LINE
  5
141
330
22
100
AcDbEntity
  8
0
  6
Continuous
 62
     7
100
AcDbLine
 10
-162.8780212402344
 20
238.8679351806641
 30
0.0
 11
-160.0280151367188
 21
241.7179412841797
 31
0.0
  0
LINE
  5
142
330
22
100
AcDbEntity
  8
0
  6
Continuous
 62
     7
100
AcDbLine
 10
-158.6353759765625
 20
238.8679351806641
 30
0.0
 11
-157.7929534912109
 21
239.7103576660156
 31
0.0
  0
LINE
  5
143
330
22
100
AcDbEntity
  8
0
  6
Continuous
 62
     7
100
AcDbLine
 10
-208.6020202636719
 20
248.5862884521484
 30
0.0
 11
-208.6020202636719
 21
246.6179351806641
 31
0.0
  0
LINE
  5
144
330
22
100
AcDbEntity
  8
0
  6
Continuous
 62
     7
100
AcDbLine
 10
-208.6020202636719
 20
248.5862884521484
 30
0.0
 11
-209.4320831298828
 21
249.6179351806641
 31
0.0
  0
LINE
  5
145
330
22
100
AcDbEntity
  8
0
  6
Continuous
 62
     7
100
AcDbLine
 10
-207.7929534912109
 20
240.9679412841797
 30
0.0
 11
-207.7929534912109
 21
269.367950439453
 31
0.0
  0
LINE
  5
146
330
22
100
AcDbEntity
  8
0
  6
Continuous
 62
     7
100
AcDbLine
 10
-208.6020202636719
 20
246.6179351806641
 30
0.0
 11
-209.6020202636719
 21
245.6179351806641
 31
0.0
  0
LINE
  5
147
330
22
100
AcDbEntity
  8
0
  6
Continuous
 62
     7
100
AcDbLine
 10
-207.7929534912109
 20
240.9679412841797
 30
0.0
 11
-208.9429473876953
 21
242.1179351806641
 31
0.0
  0
LINE
  5
148
330
22
100
AcDbEntity
  8
0
  6
Continuous
 62
     7
100
AcDbLine
 10
-159.2429504394531
 20
243.1679382324219
 30
0.0
 11
-189.2429504394531
 21
243.1679382324219
 31
0.0
  0
LINE
  5
149
330
22
100
AcDbEntity
  8
0
  6
Continuous
 62
     7
100
AcDbLine
 10
-157.7929534912109
 20
241.7179412841797
 30
0.0
 11
-187.7929534912109
 21
241.7179412841797
 31
0.0
  0
LINE
  5
14A
330
22
100
AcDbEntity
  8
0
  6
Continuous
 62
     7
100
AcDbLine
 10
-189.4429473876953
 20
243.3679351806641
 30
0.0
 11
-207.7929534912109
 21
243.3679351806641
 31
0.0
  0
LINE
  5
14B
330
22
100
AcDbEntity
  8
0
  6
Continuous
 62
     7
100
AcDbLine
 10
-147.7929534912109
 20
296.3679504394531
 30
0.0
 11
-144.7929534912109
 21
296.3679504394531
 31
0.0
  0
LINE
  5
14C
330
22
100
AcDbEntity
  8
0
  6
Continuous
 62
     7
100
AcDbLine
 10
-147.7929534912109
 20
296.3679504394531
 30
0.0
 11
-147.7929534912109
 21
272.7714233398438
 31
0.0
  0
LINE
  5
14D
330
22
100
AcDbEntity
  8
0
  6
Continuous
 62
     7
100
AcDbLine
 10
-144.7929534912109
 20
289.1179504394531
 30
0.0
 11
-145.5429534912109
 21
289.1179504394531
 31
0.0
  0
LINE
  5
14E
330
22
100
AcDbEntity
  8
0
  6
Continuous
 62
     7
100
AcDbLine
 10
-147.7929534912109
 20
280.65234375
 30
0.0
 11
-146.7929534912109
 21
279.65234375
 31
0.0
  0
LINE
  5
14F
330
22
100
AcDbEntity
  8
0
  6
Continuous
 62
     7
100
AcDbLine
 10
-146.7929534912109
 20
279.65234375
 30
0.0
 11
-147.7929534912109
 21
278.65234375
 31
0.0
  0
LINE
  5
150
330
22
100
AcDbEntity
  8
0
  6
Continuous
 62
     7
100
AcDbLine
 10
-147.7929534912109
 20
264.0679321289063
 30
0.0
 11
-146.7929534912109
 21
263.0679321289063
 31
0.0
  0
LINE
  5
151
330
22
100
AcDbEntity
  8
0
  6
CENTER
 62
     7
100
AcDbLine
 10
-148.9752197265625
 20
286.3679504394531
 30
0.0
 11
-143.5455169677734
 21
286.3679504394531
 31
0.0
  0
LINE
  5
152
330
22
100
AcDbEntity
  8
0
  6
Continuous
 62
     7
100
AcDbLine
 10
-147.7929534912109
 20
281.3679504394531
 30
0.0
 11
-145.5429534912109
 21
283.6179504394531
 31
0.0
  0
LINE
  5
153
330
22
100
AcDbEntity
  8
0
  6
Continuous
 62
     7
100
AcDbLine
 10
-147.7929534912109
 20
291.3679504394531
 30
0.0
 11
-145.5429534912109
 21
289.1179504394531
 31
0.0
  0
LINE
  5
154
330
22
100
AcDbEntity
  8
0
  6
Continuous
 62
     7
100
AcDbLine
 10
-144.7929534912109
 20
283.6179504394531
 30
0.0
 11
-145.5429534912109
 21
283.6179504394531
 31
0.0
  0
LINE
  5
155
330
22
100
AcDbEntity
  8
0
  6
Continuous
 62
     7
100
AcDbLine
 10
-146.7929534912109
 20
263.0679321289063
 30
0.0
 11
-147.7929534912109
 21
262.0679321289063
 31
0.0
  0
LINE
  5
156
330
22
100
AcDbEntity
  8
0
  6
Continuous
 62
     7
100
AcDbLine
 10
-130.0954437255859
 20
242.5029144287109
 30
0.0
 11
-108.7929534912109
 21
243.1686401367188
 31
0.0
  0
LINE
  5
157
330
22
100
AcDbEntity
  8
0
  6
Continuous
 62
     7
100
AcDbLine
 10
-131.5929565429688
 20
241.0054016113281
 30
0.0
 11
-110.2904586791992
 21
241.671142578125
 31
0.0
  0
LINE
  5
158
330
22
100
AcDbEntity
  8
0
  6
Continuous
 62
     7
100
AcDbLine
 10
-108.7929534912109
 20
243.1686401367188
 30
0.0
 11
-110.2904586791992
 21
241.671142578125
 31
0.0
  0
LINE
  5
159
330
22
100
AcDbEntity
  8
0
  6
Continuous
 62
     7
100
AcDbLine
 10
-147.7929534912109
 20
296.3679504394531
 30
0.0
 11
-147.7929534912109
 21
246.3679351806641
 31
0.0
  0
LINE
  5
15A
330
22
100
AcDbEntity
  8
0
  6
Continuous
 62
     7
100
AcDbLine
 10
-172.7929534912109
 20
180.3679351806641
 30
0.0
 11
-147.7929534912109
 21
180.3679351806641
 31
0.0
  0
LINE
  5
15B
330
22
100
AcDbEntity
  8
0
  6
Continuous
 62
     7
100
AcDbLine
 10
-144.7929534912109
 20
130.3679351806641
 30
0.0
 11
-147.7929534912109
 21
130.3679351806641
 31
0.0
  0
LINE
  5
15C
330
22
100
AcDbEntity
  8
0
  6
Continuous
 62
     7
100
AcDbLine
 10
-144.7929534912109
 20
180.3679351806641
 30
0.0
 11
-108.7929534912109
 21
180.3679351806641
 31
0.0
  0
LINE
  5
15D
330
22
100
AcDbEntity
  8
0
  6
Continuous
 62
     7
100
AcDbLine
 10
-211.9904174804688
 20
157.3679351806641
 30
0.0
 11
-207.7929534912109
 21
157.3679351806641
 31
0.0
  0
LINE
  5
15E
330
22
100
AcDbEntity
  8
0
  6
Continuous
 62
     7
100
AcDbLine
 10
-217.6787872314453
 20
167.6499786376953
 30
0.0
 11
-212.4333343505859
 21
157.6359405517578
 31
0.0
  0
LINE
  5
15F
330
22
100
AcDbEntity
  8
0
  6
Continuous
 62
     7
100
AcDbLine
 10
-187.7929534912109
 20
241.7179412841797
 30
0.0
 11
-189.4429473876953
 21
243.3679351806641
 31
0.0
  0
LINE
  5
160
330
22
100
AcDbEntity
  8
0
  6
Continuous
 62
     7
100
AcDbLine
 10
-144.7929534912109
 20
296.3679504394531
 30
0.0
 11
-144.7929534912109
 21
246.3679351806641
 31
0.0
  0
LINE
  5
161
330
22
100
AcDbEntity
  8
0
  6
Continuous
 62
     7
100
AcDbLine
 10
-172.7929534912109
 20
243.5023498535156
 30
0.0
 11
-170.8929443359375
 21
241.6023406982422
 31
0.0
  0
LINE
  5
162
330
22
100
AcDbEntity
  8
0
  6
Continuous
 62
     7
100
AcDbLine
 10
-130.89599609375
 20
241.0054016113281
 30
0.0
 11
-142.7929534912109
 21
241.0054016113281
 31
0.0
  0
LINE
  5
163
330
22
100
AcDbEntity
  8
0
  6
Continuous
 62
     7
100
AcDbLine
 10
-157.7929534912109
 20
241.7179412841797
 30
0.0
 11
-159.2429504394531
 21
243.1679382324219
 31
0.0
  0
LINE
  5
164
330
22
100
AcDbEntity
  8
0
  6
Continuous
 62
     7
100
AcDbLine
 10
-142.7929534912109
 20
241.6023406982422
 30
0.0
 11
-144.6929473876953
 21
243.5023498535156
 31
0.0
  0
LINE
  5
165
330
22
100
AcDbEntity
  8
0
  6
Continuous
 62
     7
100
AcDbLine
 10
-172.7929534912109
 20
243.5023498535156
 30
0.0
 11
-144.6929473876953
 21
243.5023498535156
 31
0.0
  0
LINE
  5
166
330
22
100
AcDbEntity
  8
0
  6
Continuous
 62
     7
100
AcDbLine
 10
-170.8929443359375
 20
241.6023406982422
 30
0.0
 11
-142.7929534912109
 21
241.6023406982422
 31
0.0
  0
LINE
  5
167
330
22
100
AcDbEntity
  8
0
  6
Continuous
 62
     7
100
AcDbLine
 10
-146.1608123779297
 20
296.3679504394531
 30
0.0
 11
-144.7929534912109
 21
295.0000915527344
 31
0.0
  0
LINE
  5
168
330
22
100
AcDbEntity
  8
0
  6
Continuous
 62
     7
100
AcDbLine
 10
-146.867919921875
 20
296.3679504394531
 30
0.0
 11
-144.7929534912109
 21
294.29296875
 31
0.0
  0
LINE
  5
169
330
22
100
AcDbEntity
  8
0
  6
Continuous
 62
     7
100
AcDbLine
 10
-147.7929534912109
 20
295.1716613769531
 30
0.0
 11
-144.7929534912109
 21
292.1716613769531
 31
0.0
  0
LINE
  5
16A
330
22
100
AcDbEntity
  8
0
  6
Continuous
 62
     7
100
AcDbLine
 10
-147.7929534912109
 20
294.4645385742188
 30
0.0
 11
-144.7929534912109
 21
291.4645385742188
 31
0.0
  0
LINE
  5
16B
330
22
100
AcDbEntity
  8
0
  6
Continuous
 62
     7
100
AcDbLine
 10
-147.7929534912109
 20
292.3432312011719
 30
0.0
 11
-144.7929534912109
 21
289.3432312011719
 31
0.0
  0
LINE
  5
16C
330
22
100
AcDbEntity
  8
0
  6
Continuous
 62
     7
100
AcDbLine
 10
-147.7929534912109
 20
291.6361083984375
 30
0.0
 11
-145.2747650146484
 21
289.1179504394531
 31
0.0
  0
LINE
  5
16D
330
22
100
AcDbEntity
  8
0
  6
Continuous
 62
     7
100
AcDbLine
 10
-145.4316253662109
 20
283.6179504394531
 30
0.0
 11
-144.7929534912109
 21
282.9792785644531
 31
0.0
  0
LINE
  5
16E
330
22
100
AcDbEntity
  8
0
  6
Continuous
 62
     7
100
AcDbLine
 10
-146.5479431152344
 20
282.6129455566406
 30
0.0
 11
-144.7929534912109
 21
280.8579406738281
 31
0.0
  0
LINE
  5
16F
330
22
100
AcDbEntity
  8
0
  6
Continuous
 62
     7
100
AcDbLine
 10
-146.9015045166016
 20
282.2593994140625
 30
0.0
 11
-144.7929534912109
 21
280.1508483886719
 31
0.0
  0
LINE
  5
170
330
22
100
AcDbEntity
  8
0
  6
Continuous
 62
     7
100
AcDbLine
 10
-147.7929534912109
 20
281.0295104980469
 30
0.0
 11
-144.7929534912109
 21
278.0295104980469
 31
0.0
  0
LINE
  5
171
330
22
100
AcDbEntity
  8
0
  6
Continuous
 62
     7
100
AcDbLine
 10
-146.9579162597656
 20
279.4873657226563
 30
0.0
 11
-144.7929534912109
 21
277.3224182128906
 31
0.0
  0
LINE
  5
172
330
22
100
AcDbEntity
  8
0
  6
Continuous
 62
     7
100
AcDbLine
 10
-147.7929534912109
 20
278.2010803222656
 30
0.0
 11
-144.7929534912109
 21
275.2010803222656
 31
0.0
  0
LINE
  5
173
330
22
100
AcDbEntity
  8
0
  6
Continuous
 62
     7
100
AcDbLine
 10
-147.7929534912109
 20
277.4939880371094
 30
0.0
 11
-144.7929534912109
 21
274.4939880371094
 31
0.0
  0
LINE
  5
174
330
22
100
AcDbEntity
  8
0
  6
Continuous
 62
     7
100
AcDbLine
 10
-147.7929534912109
 20
275.3726501464844
 30
0.0
 11
-144.7929534912109
 21
272.3726501464844
 31
0.0
  0
LINE
  5
175
330
22
100
AcDbEntity
  8
0
  6
Continuous
 62
     7
100
AcDbLine
 10
-147.7929534912109
 20
274.6655578613281
 30
0.0
 11
-144.7929534912109
 21
271.6655578613281
 31
0.0
  0
LINE
  5
176
330
22
100
AcDbEntity
  8
0
  6
Continuous
 62
     7
100
AcDbLine
 10
-147.7929534912109
 20
272.5442199707031
 30
0.0
 11
-144.7929534912109
 21
269.5442199707031
 31
0.0
  0
LINE
  5
177
330
22
100
AcDbEntity
  8
0
  6
Continuous
 62
     7
100
AcDbLine
 10
-147.7929534912109
 20
271.8371276855469
 30
0.0
 11
-144.7929534912109
 21
268.8371276855469
 31
0.0
  0
LINE
  5
178
330
22
100
AcDbEntity
  8
0
  6
Continuous
 62
     7
100
AcDbLine
 10
-147.7929534912109
 20
269.7158203125
 30
0.0
 11
-144.7929534912109
 21
266.7158203125
 31
0.0
  0
LINE
  5
179
330
22
100
AcDbEntity
  8
0
  6
Continuous
 62
     7
100
AcDbLine
 10
-147.7929534912109
 20
269.0086975097656
 30
0.0
 11
-144.7929534912109
 21
266.0086975097656
 31
0.0
  0
LINE
  5
17A
330
22
100
AcDbEntity
  8
0
  6
Continuous
 62
     7
100
AcDbLine
 10
-147.7929534912109
 20
266.8873901367188
 30
0.0
 11
-144.7929534912109
 21
263.8873901367188
 31
0.0
  0
LINE
  5
17B
330
22
100
AcDbEntity
  8
0
  6
Continuous
 62
     7
100
AcDbLine
 10
-147.7929534912109
 20
266.1802673339844
 30
0.0
 11
-144.7929534912109
 21
263.1802673339844
 31
0.0
  0
LINE
  5
17C
330
22
100
AcDbEntity
  8
0
  6
Continuous
 62
     7
100
AcDbLine
 10
-146.7974395751953
 20
263.0634460449219
 30
0.0
 11
-144.7929534912109
 21
261.0589599609375
 31
0.0
  0
LINE
  5
17D
330
22
100
AcDbEntity
  8
0
  6
Continuous
 62
     7
100
AcDbLine
 10
-147.1510009765625
 20
262.7098999023438
 30
0.0
 11
-144.7929534912109
 21
260.3518371582031
 31
0.0
  0
LINE
  5
17E
330
22
100
AcDbEntity
  8
0
  6
Continuous
 62
     7
100
AcDbLine
 10
-147.7929534912109
 20
261.2305297851563
 30
0.0
 11
-144.7929534912109
 21
258.2305297851563
 31
0.0
  0
LINE
  5
17F
330
22
100
AcDbEntity
  8
0
  6
Continuous
 62
     7
100
AcDbLine
 10
-147.7929534912109
 20
260.523406982422
 30
0.0
 11
-144.7929534912109
 21
257.5234069824219
 31
0.0
  0
LINE
  5
180
330
22
100
AcDbEntity
  8
0
  6
Continuous
 62
     7
100
AcDbLine
 10
-147.7929534912109
 20
258.402099609375
 30
0.0
 11
-144.7929534912109
 21
255.402099609375
 31
0.0
  0
LINE
  5
181
330
22
100
AcDbEntity
  8
0
  6
Continuous
 62
     7
100
AcDbLine
 10
-147.7929534912109
 20
257.6950073242188
 30
0.0
 11
-144.7929534912109
 21
254.6949920654297
 31
0.0
  0
LINE
  5
182
330
22
100
AcDbEntity
  8
0
  6
Continuous
 62
     7
100
AcDbLine
 10
-147.7929534912109
 20
255.5736694335938
 30
0.0
 11
-144.7929534912109
 21
252.5736694335938
 31
0.0
  0
LINE
  5
183
330
22
100
AcDbEntity
  8
0
  6
Continuous
 62
     7
100
AcDbLine
 10
-147.7929534912109
 20
254.8665618896484
 30
0.0
 11
-144.7929534912109
 21
251.8665618896484
 31
0.0
  0
LINE
  5
184
330
22
100
AcDbEntity
  8
0
  6
Continuous
 62
     7
100
AcDbLine
 10
-147.7929534912109
 20
252.7452392578125
 30
0.0
 11
-144.7929534912109
 21
249.7452392578125
 31
0.0
  0
LINE
  5
185
330
22
100
AcDbEntity
  8
0
  6
Continuous
 62
     7
100
AcDbLine
 10
-147.7929534912109
 20
252.0381317138672
 30
0.0
 11
-144.7929534912109
 21
249.0381317138672
 31
0.0
  0
LINE
  5
186
330
22
100
AcDbEntity
  8
0
  6
Continuous
 62
     7
100
AcDbLine
 10
-147.7929534912109
 20
249.9168243408203
 30
0.0
 11
-144.7929534912109
 21
246.9168243408203
 31
0.0
  0
LINE
  5
187
330
22
100
AcDbEntity
  8
0
  6
Continuous
 62
     7
100
AcDbLine
 10
-147.7929534912109
 20
249.209716796875
 30
0.0
 11
-144.951171875
 21
246.3679351806641
 31
0.0
  0
LINE
  5
188
330
22
100
AcDbEntity
  8
0
  6
Continuous
 62
     7
100
AcDbLine
 10
-147.7929534912109
 20
247.0883941650391
 30
0.0
 11
-147.0724945068359
 21
246.3679351806641
 31
0.0
  0
LINE
  5
189
330
22
100
AcDbEntity
  8
0
  6
Continuous
 62
     7
100
AcDbLine
 10
-147.7929534912109
 20
246.3812866210938
 30
0.0
 11
-147.7796020507813
 21
246.3679351806641
 31
0.0
  0
LINE
  5
18A
330
22
100
AcDbEntity
  8
0
  6
Continuous
 62
     7
100
AcDbLine
 10
-172.7929534912109
 20
244.2184295654297
 30
0.0
 11
-170.6434326171875
 21
246.3679351806641
 31
0.0
  0
LINE
  5
18B
330
22
100
AcDbEntity
  8
0
  6
Continuous
 62
     7
100
AcDbLine
 10
-170.6806030273438
 20
243.5023498535156
 30
0.0
 11
-167.8150177001953
 21
246.3679351806641
 31
0.0
  0
LINE
  5
18C
330
22
100
AcDbEntity
  8
0
  6
Continuous
 62
     7
100
AcDbLine
 10
-167.8521728515625
 20
243.5023498535156
 30
0.0
 11
-164.9865875244141
 21
246.3679351806641
 31
0.0
  0
LINE
  5
18D
330
22
100
AcDbEntity
  8
0
  6
Continuous
 62
     7
100
AcDbLine
 10
-165.0237426757813
 20
243.5023498535156
 30
0.0
 11
-162.1581573486328
 21
246.3679351806641
 31
0.0
  0
LINE
  5
18E
330
22
100
AcDbEntity
  8
0
  6
Continuous
 62
     7
100
AcDbLine
 10
-162.1953277587891
 20
243.5023498535156
 30
0.0
 11
-159.3297271728516
 21
246.3679351806641
 31
0.0
  0
LINE
  5
18F
330
22
100
AcDbEntity
  8
0
  6
Continuous
 62
     7
100
AcDbLine
 10
-159.3668975830078
 20
243.5023498535156
 30
0.0
 11
-156.5012969970703
 21
246.3679351806641
 31
0.0
  0
LINE
  5
190
330
22
100
AcDbEntity
  8
0
  6
Continuous
 62
     7
100
AcDbLine
 10
-156.5384674072266
 20
243.5023498535156
 30
0.0
 11
-153.6728820800781
 21
246.3679351806641
 31
0.0
  0
LINE
  5
191
330
22
100
AcDbEntity
  8
0
  6
Continuous
 62
     7
100
AcDbLine
 10
-153.7100372314453
 20
243.5023498535156
 30
0.0
 11
-150.8444519042969
 21
246.3679351806641
 31
0.0
  0
LINE
  5
192
330
22
100
AcDbEntity
  8
0
  6
Continuous
 62
     7
100
AcDbLine
 10
-150.8816070556641
 20
243.5023498535156
 30
0.0
 11
-148.0160217285156
 21
246.3679351806641
 31
0.0
  0
LINE
  5
193
330
22
100
AcDbEntity
  8
0
  6
Continuous
 62
     7
100
AcDbLine
 10
-148.0531921386719
 20
243.5023498535156
 30
0.0
 11
-145.1875915527344
 21
246.3679351806641
 31
0.0
  0
LINE
  5
194
330
22
100
AcDbEntity
  8
0
  6
Continuous
 62
     7
100
AcDbLine
 10
-145.2247619628906
 20
243.5023498535156
 30
0.0
 11
-142.3591613769531
 21
246.3679351806641
 31
0.0
  0
LINE
  5
195
330
22
100
AcDbEntity
  8
0
  6
Continuous
 62
     7
100
AcDbLine
 10
-143.5446472167969
 20
242.3540344238281
 30
0.0
 11
-139.5307464599609
 21
246.3679351806641
 31
0.0
  0
LINE
  5
196
330
22
100
AcDbEntity
  8
0
  6
Continuous
 62
     7
100
AcDbLine
 10
-142.0648498535156
 20
241.0054016113281
 30
0.0
 11
-136.7023162841797
 21
246.3679351806641
 31
0.0
  0
LINE
  5
197
330
22
100
AcDbEntity
  8
0
  6
Continuous
 62
     7
100
AcDbLine
 10
-139.169677734375
 20
241.0721435546875
 30
0.0
 11
-133.8738861083984
 21
246.3679351806641
 31
0.0
  0
LINE
  5
198
330
22
100
AcDbEntity
  8
0
  6
Continuous
 62
     7
100
AcDbLine
 10
-135.8118133544922
 20
241.6015930175781
 30
0.0
 11
-131.0454559326172
 21
246.3679351806641
 31
0.0
  0
LINE
  5
199
330
22
100
AcDbEntity
  8
0
  6
Continuous
 62
     7
100
AcDbLine
 10
-132.4539337158203
 20
242.1310424804688
 30
0.0
 11
-128.2170257568359
 21
246.3679351806641
 31
0.0
  0
LINE
  5
19A
330
22
100
AcDbEntity
  8
0
  6
Continuous
 62
     7
100
AcDbLine
 10
-129.2264709472656
 20
242.5300598144531
 30
0.0
 11
-125.3886032104492
 21
246.3679351806641
 31
0.0
  0
LINE
  5
19B
330
22
100
AcDbEntity
  8
0
  6
Continuous
 62
     7
100
AcDbLine
 10
-126.3068008422852
 20
242.6213073730469
 30
0.0
 11
-122.5601806640625
 21
246.3679351806641
 31
0.0
  0
LINE
  5
19C
330
22
100
AcDbEntity
  8
0
  6
Continuous
 62
     7
100
AcDbLine
 10
-123.3871307373047
 20
242.7125549316406
 30
0.0
 11
-119.7317504882813
 21
246.3679351806641
 31
0.0
  0
LINE
  5
19D
330
22
100
AcDbEntity
  8
0
  6
Continuous
 62
     7
100
AcDbLine
 10
-120.4674606323242
 20
242.8038024902344
 30
0.0
 11
-116.9033203125
 21
246.3679351806641
 31
0.0
  0
LINE
  5
19E
330
22
100
AcDbEntity
  8
0
  6
Continuous
 62
     7
100
AcDbLine
 10
-117.5477905273438
 20
242.8950500488281
 30
0.0
 11
-114.0748977661133
 21
246.3679351806641
 31
0.0
  0
LINE
  5
19F
330
22
100
AcDbEntity
  8
0
  6
Continuous
 62
     7
100
AcDbLine
 10
-114.6281204223633
 20
242.9862823486328
 30
0.0
 11
-111.246467590332
 21
246.3679351806641
 31
0.0
  0
LINE
  5
1A0
330
22
100
AcDbEntity
  8
0
  6
Continuous
 62
     7
100
AcDbLine
 10
-111.7084503173828
 20
243.0775299072266
 30
0.0
 11
-108.7929534912109
 21
245.9930267333984
 31
0.0
  0
LINE
  5
1A1
330
22
100
AcDbEntity
  8
0
  6
Continuous
 62
     7
100
AcDbLine
 10
-131.5929565429688
 20
241.0054016113281
 30
0.0
 11
-130.0954437255859
 21
242.5029144287109
 31
0.0
  0
LINE
  5
1A2
330
22
100
AcDbEntity
  8
0
  6
Continuous
 62
     7
100
AcDbLine
 10
-172.7929534912109
 20
246.3679351806641
 30
0.0
 11
-108.7929534912109
 21
246.3679351806641
 31
0.0
  0
LINE
  5
1A3
330
22
100
AcDbEntity
  8
0
  6
Continuous
 62
     7
100
AcDbLine
 10
-172.7929534912109
 20
246.3679351806641
 30
0.0
 11
-172.7929534912109
 21
243.1679382324219
 31
0.0
  0
LINE
  5
1A4
330
22
100
AcDbEntity
  8
0
  6
Continuous
 62
     7
100
AcDbLine
 10
-172.7929534912109
 20
183.5679321289063
 30
0.0
 11
-189.2429504394531
 21
183.5679321289063
 31
0.0
  0
LINE
  5
1A5
330
22
100
AcDbEntity
  8
0
  6
Continuous
 62
     7
100
AcDbLine
 10
-172.7929534912109
 20
185.0179443359375
 30
0.0
 11
-187.7929534912109
 21
185.0179443359375
 31
0.0
  0
LINE
  5
1A6
330
22
100
AcDbEntity
  8
0
  6
Continuous
 62
     7
100
AcDbLine
 10
-189.4429473876953
 20
183.3679351806641
 30
0.0
 11
-207.7929534912109
 21
183.3679351806641
 31
0.0
  0
LINE
  5
1A7
330
22
100
AcDbEntity
  8
0
  6
Continuous
 62
     7
100
AcDbLine
 10
-187.7929534912109
 20
185.0179443359375
 30
0.0
 11
-189.4429473876953
 21
183.3679351806641
 31
0.0
  0
LINE
  5
1A8
330
22
100
AcDbEntity
  8
0
  6
Continuous
 62
     7
100
AcDbLine
 10
-147.7929534912109
 20
213.3679351806641
 30
0.0
 11
-147.7929534912109
 21
130.3679351806641
 31
0.0
  0
LINE
  5
1A9
330
22
100
AcDbEntity
  8
0
  6
Continuous
 62
     7
100
AcDbLine
 10
-108.7929534912109
 20
246.3679351806641
 30
0.0
 11
-108.7929534912109
 21
180.3679351806641
 31
0.0
  0
LINE
  5
1AA
330
22
100
AcDbEntity
  8
0
  6
Continuous
 62
     7
100
AcDbLine
 10
-217.7929534912109
 20
258.6419982910156
 30
0.0
 11
-217.7929534912109
 21
168.1139831542969
 31
0.0
  0
LINE
  5
1AB
330
22
100
AcDbEntity
  8
0
  6
Continuous
 62
     7
100
AcDbLine
 10
-212.2929534912109
 20
213.3679351806641
 30
0.0
 11
-212.2929534912109
 21
160.1285095214844
 31
0.0
  0
LINE
  5
1AC
330
22
100
AcDbEntity
  8
0
  6
CENTER
 62
     7
100
AcDbLine
 10
-228.4038391113281
 20
213.3679351806641
 30
0.0
 11
-103.1236267089844
 21
213.3679351806641
 31
0.0
  0
LINE
  5
1AD
330
22
100
AcDbEntity
  8
0
  6
Continuous
 62
     7
100
AcDbLine
 10
-207.7929534912109
 20
157.3679351806641
 30
0.0
 11
-207.7929534912109
 21
213.3679351806641
 31
0.0
  0
LINE
  5
1AE
330
22
100
AcDbEntity
  8
0
  6
Continuous
 62
     7
100
AcDbLine
 10
-187.7929534912109
 20
185.0179443359375
 30
0.0
 11
-187.7929534912109
 21
213.3679351806641
 31
0.0
  0
LINE
  5
1AF
330
22
100
AcDbEntity
  8
0
  6
Continuous
 62
     7
100
AcDbLine
 10
-172.7929534912109
 20
213.3679351806641
 30
0.0
 11
-172.7929534912109
 21
180.3679351806641
 31
0.0
  0
LINE
  5
1B0
330
22
100
AcDbEntity
  8
0
  6
Continuous
 62
     7
100
AcDbLine
 10
-144.7929534912109
 20
213.3679351806641
 30
0.0
 11
-144.7929534912109
 21
130.3679351806641
 31
0.0
  0
ARC
  5
1B1
330
22
100
AcDbEntity
  8
0
  6
Continuous
 62
     7
100
AcDbCircle
 10
-392.6636047363281
 20
213.3679351806641
 30
0.0
 40
25.5
100
AcDbArc
 50
38.62913827408462
 51
141.3676651469164
  0
ARC
  5
1B2
330
22
100
AcDbEntity
  8
0
  6
Continuous
 62
     7
100
AcDbCircle
 10
-392.6636047363281
 20
213.3679351806641
 30
0.0
 40
26.0
100
AcDbArc
 50
42.5532835240672
 51
137.443527191699
  0
CIRCLE
  5
1B3
330
22
100
AcDbEntity
  8
0
  6
Continuous
 62
     7
100
AcDbCircle
 10
-426.9136047363281
 20
213.1367492675781
 30
0.0
 40
3.5
  0
CIRCLE
  5
1B4
330
22
100
AcDbEntity
  8
0
  6
Continuous
 62
     7
100
AcDbCircle
 10
-358.4136047363281
 20
213.1367492675781
 30
0.0
 40
3.5
  0
ARC
  5
1B5
330
22
100
AcDbEntity
  8
0
  6
Continuous
 62
     7
100
AcDbCircle
 10
-370.7213134765625
 20
220.2625579833984
 30
0.0
 40
3.0
100
AcDbArc
 50
17.44348685100308
 51
120.0000761467306
  0
ARC
  5
1B6
330
22
100
AcDbEntity
  8
0
  6
Continuous
 62
     7
100
AcDbCircle
 10
-414.6055297851563
 20
220.2637786865234
 30
0.0
 40
3.0
100
AcDbArc
 50
59.99992385326939
 51
162.553105479154
  0
ARC
  5
1B7
330
22
100
AcDbEntity
  8
0
  6
Continuous
 62
     7
100
AcDbCircle
 10
-392.6636047363281
 20
213.3679351806641
 30
0.0
 40
15.0
100
AcDbArc
 50
46.12424478003597
 51
133.8715910584622
  0
ARC
  5
1B8
330
22
100
AcDbEntity
  8
0
  6
Continuous
 62
     7
100
AcDbCircle
 10
-380.1878662109375
 20
226.3431396484375
 30
0.0
 40
3.0
100
AcDbArc
 50
226.1243692045647
 51
299.9999304360001
  0
ARC
  5
1B9
330
22
100
AcDbEntity
  8
0
  6
Continuous
 62
     7
100
AcDbCircle
 10
-410.1383361816406
 20
217.6846466064453
 30
0.0
 40
3.0
100
AcDbArc
 50
346.1242009759412
 51
60.00006956400067
  0
ARC
  5
1BA
330
22
100
AcDbEntity
  8
0
  6
Continuous
 62
     7
100
AcDbCircle
 10
-375.1885681152344
 20
217.6833801269531
 30
0.0
 40
3.0
100
AcDbArc
 50
119.9999304359993
 51
193.871558631123
  0
ARC
  5
1BB
330
22
100
AcDbEntity
  8
0
  6
Continuous
 62
     7
100
AcDbCircle
 10
-405.138427734375
 20
226.3440399169922
 30
0.0
 40
3.0
100
AcDbArc
 50
240.0000695640013
 51
313.8719304369625
  0
CIRCLE
  5
1BC
330
22
100
AcDbEntity
  8
0
  6
Continuous
 62
     7
100
AcDbCircle
 10
-329.4438781738281
 20
176.8678741455078
 30
0.0
 40
2.75
  0
CIRCLE
  5
1BD
330
22
100
AcDbEntity
  8
0
  6
Continuous
 62
     7
100
AcDbCircle
 10
-329.4438781738281
 20
176.8678741455078
 30
0.0
 40
5.0
  0
ARC
  5
1BE
330
22
100
AcDbEntity
  8
0
  6
Continuous
 62
     7
100
AcDbCircle
 10
-397.6632080078125
 20
196.0762023925781
 30
0.0
 40
3.0
100
AcDbArc
 50
0.0
 51
73.87398921152584
  0
ARC
  5
1BF
330
22
100
AcDbEntity
  8
0
  6
Continuous
 62
     7
100
AcDbCircle
 10
-397.6632080078125
 20
190.9179077148438
 30
0.0
 40
3.0
100
AcDbArc
 50
257.4450200071583
 51
0.0
  0
CIRCLE
  5
1C0
330
22
100
AcDbEntity
  8
0
  6
Continuous
 62
     7
100
AcDbCircle
 10
-392.6636047363281
 20
286.3679504394531
 30
0.0
 40
5.0
  0
CIRCLE
  5
1C1
330
22
100
AcDbEntity
  8
0
  6
Continuous
 62
     7
100
AcDbCircle
 10
-392.6636047363281
 20
286.3679504394531
 30
0.0
 40
2.75
  0
ARC
  5
1C2
330
22
100
AcDbEntity
  8
0
  6
Continuous
 62
     7
100
AcDbCircle
 10
-375.7206726074219
 20
228.9222717285156
 30
0.0
 40
3.0
100
AcDbArc
 50
299.9999304360001
 51
42.55344757902753
  0
ARC
  5
1C3
330
22
100
AcDbEntity
  8
0
  6
Continuous
 62
     7
100
AcDbCircle
 10
-409.6056823730468
 20
228.9232025146484
 30
0.0
 40
3.0
100
AcDbArc
 50
137.4430436824534
 51
239.9999238532701
  0
CIRCLE
  5
1C4
330
22
100
AcDbEntity
  8
0
  6
Continuous
 62
     7
100
AcDbCircle
 10
-392.6636047363281
 20
247.3867492675781
 30
0.0
 40
5.25
  0
CIRCLE
  5
1C5
330
22
100
AcDbEntity
  8
0
  6
Continuous
 62
     7
100
AcDbCircle
 10
-392.6636047363281
 20
247.3867492675781
 30
0.0
 40
5.0
  0
ARC
  5
1C6
330
22
100
AcDbEntity
  8
0
  6
Continuous
 62
     7
100
AcDbCircle
 10
-387.6640014648438
 20
190.9179077148438
 30
0.0
 40
3.0
100
AcDbArc
 50
180.0000000000004
 51
282.5549799928431
  0
ARC
  5
1C7
330
22
100
AcDbEntity
  8
0
  6
Continuous
 62
     7
100
AcDbCircle
 10
-387.6640014648438
 20
196.0762023925781
 30
0.0
 40
3.0
100
AcDbArc
 50
106.1265706969664
 51
180.0000000000004
  0
CIRCLE
  5
1C8
330
22
100
AcDbEntity
  8
0
  6
Continuous
 62
     7
100
AcDbCircle
 10
-455.8835754394531
 20
176.8680114746094
 30
0.0
 40
2.75
  0
CIRCLE
  5
1C9
330
22
100
AcDbEntity
  8
0
  6
Continuous
 62
     7
100
AcDbCircle
 10
-455.8835754394531
 20
176.8680114746094
 30
0.0
 40
5.0
  0
CIRCLE
  5
1CA
330
22
100
AcDbEntity
  8
0
  6
Continuous
 62
     7
100
AcDbCircle
 10
-392.6636047363281
 20
178.8867492675781
 30
0.0
 40
5.0
  0
CIRCLE
  5
1CB
330
22
100
AcDbEntity
  8
0
  6
Continuous
 62
     7
100
AcDbCircle
 10
-392.6636047363281
 20
178.8867492675781
 30
0.0
 40
5.25
  0
ARC
  5
1CC
330
22
100
AcDbEntity
  8
0
  6
Continuous
 62
     7
100
AcDbCircle
 10
-392.6636047363281
 20
213.3679351806641
 30
0.0
 40
15.0
100
AcDbArc
 50
286.1262509409814
 51
13.87161521557805
  0
ARC
  5
1CD
330
22
100
AcDbEntity
  8
0
  6
Continuous
 62
     7
100
AcDbCircle
 10
-392.6636047363281
 20
213.3679351806641
 30
0.0
 40
15.0
100
AcDbArc
 50
166.1242568863626
 51
253.8736370772213
  0
CIRCLE
  5
1CE
330
22
100
AcDbEntity
  8
0
  6
CENTER
 62
     7
100
AcDbCircle
 10
-392.6636047363281
 20
213.3679351806641
 30
0.0
 40
73.0
  0
CIRCLE
  5
1CF
330
22
100
AcDbEntity
  8
0
  6
Continuous
 62
     7
100
AcDbCircle
 10
-392.6636047363281
 20
213.2523498535156
 30
0.0
 40
66.40000152587891
  0
ARC
  5
1D0
330
22
100
AcDbEntity
  8
0
  6
Continuous
 62
     7
100
AcDbCircle
 10
-392.6636047363281
 20
213.3679351806641
 30
0.0
 40
26.0
100
AcDbArc
 50
162.5532450955741
 51
257.4451366743141
  0
ARC
  5
1D1
330
22
100
AcDbEntity
  8
0
  6
Continuous
 62
     7
100
AcDbCircle
 10
-392.6636047363281
 20
213.3679351806641
 30
0.0
 40
25.5
100
AcDbArc
 50
278.6307666813399
 51
21.36766550056848
  0
ARC
  5
1D2
330
22
100
AcDbEntity
  8
0
  6
Continuous
 62
     7
100
AcDbCircle
 10
-392.6636047363281
 20
213.3679351806641
 30
0.0
 40
26.0
100
AcDbArc
 50
282.5548633256873
 51
17.44355346269154
  0
ARC
  5
1D3
330
22
100
AcDbEntity
  8
0
  6
Continuous
 62
     7
100
AcDbCircle
 10
-392.6636047363281
 20
213.3679351806641
 30
0.0
 40
25.5
100
AcDbArc
 50
158.6291320273419
 51
261.3692333186614
  0
CIRCLE
  5
1D4
330
22
100
AcDbEntity
  8
0
  6
Continuous
 62
     7
100
AcDbCircle
 10
-392.6636047363281
 20
213.3679351806641
 30
0.0
 40
12.0
  0
CIRCLE
  5
1D5
330
22
100
AcDbEntity
  8
0
  6
Continuous
 62
     7
100
AcDbCircle
 10
-392.6636047363281
 20
213.1367492675781
 30
0.0
 40
41.29999923706054
  0
CIRCLE
  5
1D6
330
22
100
AcDbEntity
  8
0
  6
Continuous
 62
     7
100
AcDbCircle
 10
-392.6636047363281
 20
213.1367492675781
 30
0.0
 40
56.0
  0
CIRCLE
  5
1D7
330
22
100
AcDbEntity
  8
0
  6
Continuous
 62
     7
100
AcDbCircle
 10
-392.6636047363281
 20
213.1367492675781
 30
0.0
 40
41.0
  0
CIRCLE
  5
1D8
330
22
100
AcDbEntity
  8
0
  6
Continuous
 62
     7
100
AcDbCircle
 10
-392.6636047363281
 20
213.3679351806641
 30
0.0
 40
83.0
  0
ARC
  5
1D9
330
22
100
AcDbEntity
  8
0
  6
Continuous
 62
     7
100
AcDbCircle
 10
-216.7929534912109
 20
258.6419982910156
 30
0.0
 40
1.0
100
AcDbArc
 50
154.5368052881957
 51
180.0000000000004
  0
ARC
  5
1DA
330
22
100
AcDbEntity
  8
0
  6
Continuous
 62
     7
100
AcDbCircle
 10
-212.4772491455078
 20
268.8679504394531
 30
0.0
 40
0.5
100
AcDbArc
 50
90.00000000000019
 51
154.5368052881957
  0
ARC
  5
1DB
330
22
100
AcDbEntity
  8
0
  6
Continuous
 62
     7
100
AcDbCircle
 10
-216.7929534912109
 20
168.1139831542969
 30
0.0
 40
1.0
100
AcDbArc
 50
180.0000000000004
 51
207.6457909708374
  0
ARC
  5
1DC
330
22
100
AcDbEntity
  8
0
  6
Continuous
 62
     7
100
AcDbCircle
 10
-211.9904174804688
 20
157.8679351806641
 30
0.0
 40
0.5
100
AcDbArc
 50
207.6450165138601
 51
270.0000000000005
  0
TEXT
  5
1DD
330
22
100
AcDbEntity
  8
0
  6
Continuous
 62
     7
100
AcDbText
 10
-313.029839515686
 20
70.71831512451172
 30
0.0
 40
7.0
  1
DL-TP-50
 41
1.020882425188017
100
AcDbText
  0
DIMENSION
  5
1DE
330
22
100
AcDbEntity
  8
0
  6
Continuous
 62
     7
100
AcDbDimension
  2
*D1
 10
-144.7904510498046
 20
320.1388549804688
 30
0.0
 11
-138.8613586425781
 21
320.1388549804688
 31
0.0
 71
     5
 42
-1.0
  3
DIMSTYLE1
100
AcDbAlignedDimension
 13
-147.7904510498047
 23
315.9647827148438
 33
0.0
 14
-144.7904510498046
 24
296.3679504394531
 34
0.0
100
AcDbRotatedDimension
  0
DIMENSION
  5
1DF
330
22
100
AcDbEntity
  8
0
  6
Continuous
 62
     7
100
AcDbDimension
  2
*D2
 10
-425.3908080966083
 20
137.0925776907456
 30
0.0
 11
-351.5262145996094
 21
309.2444458007813
 31
0.0
 70
     3
 71
     5
 42
-1.0
  3
DIMSTYLE2
100
AcDbDiametricDimension
 15
-359.9364013760479
 25
289.6432926705825
 35
0.0
 40
0.0
  0
DIMENSION
  5
1E0
330
22
100
AcDbEntity
  8
0
  6
Continuous
 62
     7
100
AcDbDimension
  2
*D3
 10
-426.9518674236646
 20
168.8613041327835
 30
0.0
 11
-327.845703125
 21
296.834228515625
 31
0.0
 70
     3
 71
     5
 42
-1.0
  3
DIMSTYLE3
100
AcDbDiametricDimension
 15
-358.3753420489917
 25
257.4121944023728
 35
0.0
 40
0.0
  0
DIMENSION
  5
1E1
330
22
100
AcDbEntity
  8
0
  6
Continuous
 62
     7
100
AcDbDimension
  2
*D4
 10
-427.8199442013246
 20
192.0409725475346
 30
0.0
 11
-303.9344177246094
 21
266.3792419433594
 31
0.0
 70
     3
 71
     5
 42
-1.0
  3
DIMSTYLE4
100
AcDbDiametricDimension
 15
-357.5072652713317
 25
234.2325259876217
 35
0.0
 40
0.0
  0
DIMENSION
  5
1E2
330
22
100
AcDbEntity
  8
0
  6
Continuous
 62
     7
100
AcDbDimension
  2
*D5
 10
-337.2202705834167
 20
165.8807084980223
 30
0.0
 11
-469.2423400878906
 21
278.9576416015625
 31
0.0
 70
     3
 71
     5
 42
-1.0
  3
DIMSTYLE5
100
AcDbDiametricDimension
 15
-448.1069388892396
 25
260.8551618633058
 35
0.0
 40
0.0
  0
INSERT
  5
1E3
330
22
100
AcDbEntity
  8
0
  6
Continuous
 62
     7
100
AcDbBlockReference
  2
KOZU0001
 10
-395.4089660644531
 20
290.5468139648438
 30
0.0
  0
DIMENSION
  5
1E4
330
22
100
AcDbEntity
  8
0
  6
Continuous
 62
     7
100
AcDbDimension
  2
*D6
 10
-207.7929534912109
 20
320.1388549804688
 30
0.0
 11
-177.7929534912109
 21
320.1388549804688
 31
0.0
 71
     5
 42
-1.0
  3
DIMSTYLE6
100
AcDbAlignedDimension
 13
-147.7929534912109
 23
296.3679504394531
 33
0.0
 14
-207.7929534912109
 24
269.367950439453
 34
0.0
100
AcDbRotatedDimension
  0
DIMENSION
  5
1E5
330
22
100
AcDbEntity
  8
0
  6
Continuous
 62
     7
100
AcDbDimension
  2
*D7
 10
-217.7929534912109
 20
320.1388549804688
 30
0.0
 11
-212.7929534912109
 21
320.1388549804688
 31
0.0
 71
     5
 42
-1.0
  3
DIMSTYLE7
100
AcDbAlignedDimension
 13
-207.7929534912109
 23
322.4248657226563
 33
0.0
 14
-217.7929534912109
 24
258.6419982910156
 34
0.0
100
AcDbRotatedDimension
  0
DIMENSION
  5
1E6
330
22
100
AcDbEntity
  8
0
  6
Continuous
 62
     7
100
AcDbDimension
  2
*D8
 10
-172.7929534912109
 20
308.7164611816406
 30
0.0
 11
-160.2929534912109
 21
308.7164611816406
 31
0.0
 71
     5
 42
-1.0
  3
DIMSTYLE8
100
AcDbAlignedDimension
 13
-147.7929534912109
 23
296.3679504394531
 33
0.0
 14
-172.7929534912109
 24
246.3679351806641
 34
0.0
100
AcDbRotatedDimension
  0
INSERT
  5
1E7
330
22
100
AcDbEntity
  8
0
  6
Continuous
 62
     7
100
AcDbBlockReference
  2
KOZU0002
 10
-121.5744476318359
 20
242.7691955566406
 30
0.0
  0
DIMENSION
  5
1E8
330
22
100
AcDbEntity
  8
0
  6
Continuous
 62
     7
100
AcDbDimension
  2
*D9
 10
-83.24151611328124
 20
246.3679351806641
 30
0.0
 11
-83.24151611328124
 21
213.3679351806641
 31
0.0
 71
     5
 42
-1.0
  3
DIMSTYLE9
100
AcDbAlignedDimension
 13
-108.7929534912109
 23
180.3679351806641
 33
0.0
 14
-108.7929534912109
 24
246.3679351806641
 34
0.0
 50
90.0
100
AcDbRotatedDimension
  0
DIMENSION
  5
1E9
330
22
100
AcDbEntity
  8
0
  6
Continuous
 62
     7
100
AcDbDimension
  2
*D10
 10
-157.7929534912109
 20
221.8454895019531
 30
0.0
 11
-187.7929534912109
 21
221.8454895019531
 31
0.0
 71
     5
 42
-1.0
  3
DIMSTYLE10
100
AcDbAlignedDimension
 13
-217.7929534912109
 23
258.6419982910156
 33
0.0
 14
-157.7929534912109
 24
213.3679351806641
 34
0.0
100
AcDbRotatedDimension
  0
DIMENSION
  5
1EA
330
22
100
AcDbEntity
  8
0
  6
Continuous
 62
     7
100
AcDbDimension
  2
*D11
 10
-108.7929534912109
 20
109.8413925170898
 30
0.0
 11
-140.7929534912109
 21
109.8413925170898
 31
0.0
 71
     5
 42
-1.0
  3
DIMSTYLE11
100
AcDbAlignedDimension
 13
-172.7929534912109
 23
180.3679351806641
 33
0.0
 14
-108.7929534912109
 24
180.3679351806641
 34
0.0
100
AcDbRotatedDimension
  0
ENDSEC
  0
SECTION
  2
OBJECTS
  0
DICTIONARY
  5
C
330
0
100
AcDbDictionary
281
     1
  3
ACAD_COLOR
350
1B
  3
ACAD_GROUP
350
D
  3
ACAD_LAYOUT
350
19
  3
ACAD_MATERIAL
350
1A
  3
ACAD_MLINESTYLE
350
16
  3
ACAD_PLOTSETTINGS
350
18
  3
ACAD_PLOTSTYLENAME
350
E
  3
ACAD_TABLESTYLE
350
1C
  3
AcDbVariableDictionary
350
1F6
  0
DICTIONARY
  5
1B
102
{ACAD_REACTORS
330
C
102
}
330
C
100
AcDbDictionary
281
     1
  0
DICTIONARY
  5
D
102
{ACAD_REACTORS
330
C
102
}
330
C
100
AcDbDictionary
281
     1
  0
DICTIONARY
  5
19
102
{ACAD_REACTORS
330
C
102
}
330
C
100
AcDbDictionary
281
     1
  3
Model
350
25
  3
レイアウト1
350
21
  0
DICTIONARY
  5
1A
102
{ACAD_REACTORS
330
C
102
}
330
C
100
AcDbDictionary
281
     1
  0
DICTIONARY
  5
16
102
{ACAD_REACTORS
330
C
102
}
330
C
100
AcDbDictionary
281
     1
  3
Standard
350
17
  0
DICTIONARY
  5
18
102
{ACAD_REACTORS
330
C
102
}
330
C
100
AcDbDictionary
281
     1
  0
ACDBDICTIONARYWDFLT
  5
E
102
{ACAD_REACTORS
330
C
102
}
330
C
100
AcDbDictionary
281
     1
  3
Normal
350
F
100
AcDbDictionaryWithDefault
340
F
  0
DICTIONARY
  5
1C
102
{ACAD_REACTORS
330
C
102
}
330
C
100
AcDbDictionary
281
     1
  3
Standard
350
1D
  0
DICTIONARY
  5
1F6
102
{ACAD_REACTORS
330
C
102
}
330
C
100
AcDbDictionary
281
     1
  3
CTABLESTYLE
350
1F7
  0
LAYOUT
  5
25
102
{ACAD_REACTORS
330
19
102
}
330
19
100
AcDbPlotSettings
  1

  2
PDF reDirect v2
  4
User66
  6

 40
3.174999952316284
 41
3.174999952316284
 42
3.17498779296875
 43
3.17498779296875
 44
420.0
 45
594.0
 46
0.0
 47
0.0
 48
0.0
 49
0.0
140
0.0
141
0.0
142
1.0
143
1.0
 70
 11952
 72
     1
 73
     1
 74
     2
  7
C:\Users\ck\AppData\Roaming\Autodesk\AutoCAD 2005\R16.1\jpn\Plot Styles\black.ctb
 75
    16
147
1.0
 76
     0
 77
     2
 78
   300
148
592.0
149
0.0
100
AcDbLayout
  1
Model
 70
     1
 71
     0
 10
0.0
 20
0.0
 11
12.0
 21
9.0
 12
0.0
 22
0.0
 32
0.0
 14
0.0
 24
0.0
 34
0.0
 15
0.0
 25
0.0
 35
0.0
146
0.0
 13
0.0
 23
0.0
 33
0.0
 16
1.0
 26
0.0
 36
0.0
 17
0.0
 27
1.0
 37
0.0
 76
     0
330
22
1001
ACAD_PSEXT
1000
PDF reDirect v2
1000
PDF reDirect Pro
1000
PDF_REDIRECT_PORT:
1000
PDF reDirect provided by EXP Systems
1070
     0
  0
LAYOUT
  5
21
102
{ACAD_REACTORS
330
19
102
}
330
19
100
AcDbPlotSettings
  1

  2
PDF reDirect v2
  4

  6

 40
0.0
 41
0.0
 42
0.0
 43
0.0
 44
0.0
 45
0.0
 46
0.0
 47
0.0
 48
0.0
 49
0.0
140
0.0
141
0.0
142
1.0
143
1.0
 70
   688
 72
     0
 73
     0
 74
     5
  7
C:\Users\ck\AppData\Roaming\Autodesk\AutoCAD 2005\R16.1\jpn\Plot Styles\black.ctb
 75
    16
147
1.0
 76
     0
 77
     2
 78
   300
148
0.0
149
0.0
100
AcDbLayout
  1
レイアウト1
 70
     1
 71
     1
 10
-592.0
 20
0.0
 11
0.0
 21
418.0
 12
0.0
 22
0.0
 32
0.0
 14
1.000000000000000E+20
 24
1.000000000000000E+20
 34
1.000000000000000E+20
 15
-1.000000000000000E+20
 25
-1.000000000000000E+20
 35
-1.000000000000000E+20
146
0.0
 13
0.0
 23
0.0
 33
0.0
 16
1.0
 26
0.0
 36
0.0
 17
0.0
 27
1.0
 37
0.0
 76
     0
330
1E
  0
MLINESTYLE
  5
17
102
{ACAD_REACTORS
330
16
102
}
330
16
100
AcDbMlineStyle
  2
STANDARD
 70
     0
  3

 62
   256
 51
90.0
 52
90.0
 71
     2
 49
0.5
 62
   256
  6
BYLAYER
 49
-0.5
 62
   256
  6
BYLAYER
  0
ACDBPLACEHOLDER
  5
F
102
{ACAD_REACTORS
330
E
102
}
330
E
  0
TABLESTYLE
  5
1D
102
{ACAD_REACTORS
330
1C
102
}
330
1C
100
AcDbTableStyle
  3
Standard
 70
     0
 71
     0
 40
0.06
 41
0.06
280
     0
281
     0
  7
STANDARD
140
0.18
170
     2
 62
     0
 63
     7
283
     0
274
    -2
284
     1
 64
     0
275
    -2
285
     1
 65
     0
276
    -2
286
     1
 66
     0
277
    -2
287
     1
 67
     0
278
    -2
288
     1
 68
     0
279
    -2
289
     1
 69
     0
  7
STANDARD
140
0.25
170
     5
 62
     0
 63
     7
283
     0
274
    -2
284
     1
 64
     0
275
    -2
285
     1
 65
     0
276
    -2
286
     1
 66
     0
277
    -2
287
     1
 67
     0
278
    -2
288
     1
 68
     0
279
    -2
289
     1
 69
     0
  7
STANDARD
140
0.18
170
     5
 62
     0
 63
     7
283
     0
274
    -2
284
     1
 64
     0
275
    -2
285
     1
 65
     0
276
    -2
286
     1
 66
     0
277
    -2
287
     1
 67
     0
278
    -2
288
     1
 68
     0
279
    -2
289
     1
 69
     0
  0
DICTIONARYVAR
  5
1F7
102
{ACAD_REACTORS
330
1F6
102
}
330
1F6
100
DictionaryVariables
280
     0
  1
STANDARD
  0
ENDSEC
  0
EOF
