  0
SECTION
  2
HEADER
  9
$ACADVER
  1
AC1018
  9
$ACADMAINTVER
 70
    39
  9
$DWGCODEPAGE
  3
ANSI_932
  9
$INSBASE
 10
0.0
 20
0.0
 30
0.0
  9
$EXTMIN
 10
-484.2519516212073
 20
69.41366682552462
 30
-0.0015258207003583
  9
$EXTMAX
 10
-67.1437975279332
 20
322.9779671712056
 30
0.0000000349246037
  9
$LIMMIN
 10
-592.0
 20
0.0
  9
$LIMMAX
 10
0.0
 20
418.0
  9
$ORTHOMODE
 70
     0
  9
$REGENMODE
 70
     1
  9
$FILLMODE
 70
     1
  9
$QTEXTMODE
 70
     0
  9
$MIRRTEXT
 70
     0
  9
$LTSCALE
 40
1.0
  9
$ATTMODE
 70
     1
  9
$TEXTSIZE
 40
0.2
  9
$TRACEWID
 40
0.05
  9
$TEXTSTYLE
  7
STANDARD
  9
$CLAYER
  8
0
  9
$CELTYPE
  6
CONTINUOUS
  9
$CECOLOR
 62
   256
  9
$CELTSCALE
 40
1.0
  9
$DISPSILH
 70
     0
  9
$DIMSCALE
 40
1.0
  9
$DIMASZ
 40
1.0
  9
$DIMEXO
 40
2.54
  9
$DIMDLI
 40
0.38
  9
$DIMRND
 40
0.0
  9
$DIMDLE
 40
0.0
  9
$DIMEXE
 40
2.54
  9
$DIMTP
 40
0.0
  9
$DIMTM
 40
0.0
  9
$DIMTXT
 40
3.0
  9
$DIMCEN
 40
0.09
  9
$DIMTSZ
 40
0.0
  9
$DIMTOL
 70
     0
  9
$DIMLIM
 70
     0
  9
$DIMTIH
 70
     0
  9
$DIMTOH
 70
     0
  9
$DIMSE1
 70
     0
  9
$DIMSE2
 70
     0
  9
$DIMTAD
 70
     1
  9
$DIMZIN
 70
     0
  9
$DIMBLK
  1

  9
$DIMASO
 70
     1
  9
$DIMSHO
 70
     0
  9
$DIMPOST
  1

  9
$DIMAPOST
  1

  9
$DIMALT
 70
     0
  9
$DIMALTD
 70
     2
  9
$DIMALTF
 40
25.4
  9
$DIMLFAC
 40
1.0
  9
$DIMTOFL
 70
     0
  9
$DIMTVP
 40
1.0
  9
$DIMTIX
 70
     0
  9
$DIMSOXD
 70
     0
  9
$DIMSAH
 70
     1
  9
$DIMBLK1
  1

  9
$DIMBLK2
  1

  9
$DIMSTYLE
  2
DIMSTYLE1
  9
$DIMCLRD
 70
     0
  9
$DIMCLRE
 70
     0
  9
$DIMCLRT
 70
     0
  9
$DIMTFAC
 40
1.0
  9
$DIMGAP
 40
1.5
  9
$DIMJUST
 70
     0
  9
$DIMSD1
 70
     0
  9
$DIMSD2
 70
     0
  9
$DIMTOLJ
 70
     1
  9
$DIMTZIN
 70
     0
  9
$DIMALTZ
 70
     0
  9
$DIMALTTZ
 70
     0
  9
$DIMUPT
 70
     0
  9
$DIMDEC
 70
     4
  9
$DIMTDEC
 70
     4
  9
$DIMALTU
 70
     2
  9
$DIMALTTD
 70
     2
  9
$DIMTXSTY
  7
STANDARD
  9
$DIMAUNIT
 70
     0
  9
$DIMADEC
 70
     0
  9
$DIMALTRND
 40
0.0
  9
$DIMAZIN
 70
     0
  9
$DIMDSEP
 70
    46
  9
$DIMATFIT
 70
     3
  9
$DIMFRAC
 70
     0
  9
$DIMLDRBLK
  1

  9
$DIMLUNIT
 70
     2
  9
$DIMLWD
 70
    -2
  9
$DIMLWE
 70
    -2
  9
$DIMTMOVE
 70
     0
  9
$LUNITS
 70
     2
  9
$LUPREC
 70
     4
  9
$SKETCHINC
 40
0.1
  9
$FILLETRAD
 40
0.0
  9
$AUNITS
 70
     0
  9
$AUPREC
 70
     0
  9
$MENU
  1
.
  9
$ELEVATION
 40
0.0
  9
$PELEVATION
 40
0.0
  9
$THICKNESS
 40
0.0
  9
$LIMCHECK
 70
     0
  9
$CHAMFERA
 40
0.0
  9
$CHAMFERB
 40
0.0
  9
$CHAMFERC
 40
0.0
  9
$CHAMFERD
 40
0.0
  9
$SKPOLY
 70
     0
  9
$TDCREATE
 40
2457843.562367870
  9
$TDUCREATE
 40
2457843.187367870
  9
$TDUPDATE
 40
2457843.562885023
  9
$TDUUPDATE
 40
2457843.187885023
  9
$TDINDWG
 40
0.0005184259
  9
$TDUSRTIMER
 40
0.0005184259
  9
$USRTIMER
 70
     1
  9
$ANGBASE
 50
0.0
  9
$ANGDIR
 70
     0
  9
$PDMODE
 70
     0
  9
$PDSIZE
 40
0.0
  9
$PLINEWID
 40
0.0
  9
$SPLFRAME
 70
     0
  9
$SPLINETYPE
 70
     6
  9
$SPLINESEGS
 70
     8
  9
$HANDSEED
  5
1F5
  9
$SURFTAB1
 70
     6
  9
$SURFTAB2
 70
     6
  9
$SURFTYPE
 70
     6
  9
$SURFU
 70
     6
  9
$SURFV
 70
     6
  9
$UCSBASE
  2

  9
$UCSNAME
  2

  9
$UCSORG
 10
0.0
 20
0.0
 30
0.0
  9
$UCSXDIR
 10
1.0
 20
0.0
 30
0.0
  9
$UCSYDIR
 10
0.0
 20
1.0
 30
0.0
  9
$UCSORTHOREF
  2

  9
$UCSORTHOVIEW
 70
     0
  9
$UCSORGTOP
 10
0.0
 20
0.0
 30
0.0
  9
$UCSORGBOTTOM
 10
0.0
 20
0.0
 30
0.0
  9
$UCSORGLEFT
 10
0.0
 20
0.0
 30
0.0
  9
$UCSORGRIGHT
 10
0.0
 20
0.0
 30
0.0
  9
$UCSORGFRONT
 10
0.0
 20
0.0
 30
0.0
  9
$UCSORGBACK
 10
0.0
 20
0.0
 30
0.0
  9
$PUCSBASE
  2

  9
$PUCSNAME
  2

  9
$PUCSORG
 10
0.0
 20
0.0
 30
0.0
  9
$PUCSXDIR
 10
1.0
 20
0.0
 30
0.0
  9
$PUCSYDIR
 10
0.0
 20
1.0
 30
0.0
  9
$PUCSORTHOREF
  2

  9
$PUCSORTHOVIEW
 70
     0
  9
$PUCSORGTOP
 10
0.0
 20
0.0
 30
0.0
  9
$PUCSORGBOTTOM
 10
0.0
 20
0.0
 30
0.0
  9
$PUCSORGLEFT
 10
0.0
 20
0.0
 30
0.0
  9
$PUCSORGRIGHT
 10
0.0
 20
0.0
 30
0.0
  9
$PUCSORGFRONT
 10
0.0
 20
0.0
 30
0.0
  9
$PUCSORGBACK
 10
0.0
 20
0.0
 30
0.0
  9
$USERI1
 70
     0
  9
$USERI2
 70
     0
  9
$USERI3
 70
     0
  9
$USERI4
 70
     0
  9
$USERI5
 70
     0
  9
$USERR1
 40
0.0
  9
$USERR2
 40
0.0
  9
$USERR3
 40
0.0
  9
$USERR4
 40
0.0
  9
$USERR5
 40
0.0
  9
$WORLDVIEW
 70
     1
  9
$SHADEDGE
 70
     3
  9
$SHADEDIF
 70
    70
  9
$TILEMODE
 70
     1
  9
$MAXACTVP
 70
    64
  9
$PINSBASE
 10
0.0
 20
0.0
 30
0.0
  9
$PLIMCHECK
 70
     0
  9
$PEXTMIN
 10
1.000000000000000E+20
 20
1.000000000000000E+20
 30
1.000000000000000E+20
  9
$PEXTMAX
 10
-1.000000000000000E+20
 20
-1.000000000000000E+20
 30
-1.000000000000000E+20
  9
$PLIMMIN
 10
-592.0
 20
0.0
  9
$PLIMMAX
 10
0.0
 20
418.0
  9
$UNITMODE
 70
     0
  9
$VISRETAIN
 70
     1
  9
$PLINEGEN
 70
     0
  9
$PSLTSCALE
 70
     1
  9
$TREEDEPTH
 70
  3020
  9
$CMLSTYLE
  2
Standard
  9
$CMLJUST
 70
     0
  9
$CMLSCALE
 40
1.0
  9
$PROXYGRAPHICS
 70
     1
  9
$MEASUREMENT
 70
     0
  9
$CELWEIGHT
370
    -1
  9
$ENDCAPS
280
     0
  9
$JOINSTYLE
280
     0
  9
$LWDISPLAY
290
     0
  9
$INSUNITS
 70
     0
  9
$HYPERLINKBASE
  1

  9
$STYLESHEET
  1

  9
$XEDIT
290
     1
  9
$CEPSNTYPE
380
     0
  9
$PSTYLEMODE
290
     1
  9
$FINGERPRINTGUID
  2
{11EE116C-8D2B-464D-BEE4-E6877BF4AB20}
  9
$VERSIONGUID
  2
{EC7FCD28-6133-48DE-9F42-8477C2F33AEC}
  9
$EXTNAMES
290
     1
  9
$PSVPSCALE
 40
0.0
  9
$OLESTARTUP
290
     0
  9
$SORTENTS
280
   127
  9
$INDEXCTL
280
     0
  9
$HIDETEXT
280
     0
  9
$XCLIPFRAME
290
     0
  9
$HALOGAP
280
     0
  9
$OBSCOLOR
 70
   257
  9
$OBSLTYPE
280
     0
  9
$INTERSECTIONDISPLAY
280
     0
  9
$INTERSECTIONCOLOR
 70
   257
  9
$DIMASSOC
280
     1
  9
$PROJECTNAME
  1

  0
ENDSEC
  0
SECTION
  2
CLASSES
  0
CLASS
  1
ACDBDICTIONARYWDFLT
  2
AcDbDictionaryWithDefault
  3
ObjectDBX Classes
 90
        0
 91
        1
280
     0
281
     0
  0
CLASS
  1
TABLESTYLE
  2
AcDbTableStyle
  3
ObjectDBX Classes
 90
     2047
 91
        1
280
     0
281
     0
  0
CLASS
  1
DICTIONARYVAR
  2
AcDbDictionaryVar
  3
ObjectDBX Classes
 90
        0
 91
        1
280
     0
281
     0
  0
ENDSEC
  0
SECTION
  2
TABLES
  0
TABLE
  2
VPORT
  5
8
330
0
100
AcDbSymbolTable
 70
     2
  0
VPORT
  5
1F4
330
8
100
AcDbSymbolTableRecord
100
AcDbViewportTableRecord
  2
*Active
 70
     0
 10
0.0
 20
0.0
 11
1.0
 21
1.0
 12
-296.0
 22
209.0
 13
0.0
 23
0.0
 14
1.0
 24
1.0
 15
0.0
 25
0.0
 16
0.0
 26
0.0
 36
1.0
 17
0.0
 27
0.0
 37
0.0
 40
421.3043478260869
 41
1.707124010554089
 42
50.0
 43
0.0
 44
0.0
 50
0.0
 51
0.0
 71
     0
 72
   100
 73
     1
 74
     1
 75
     0
 76
     0
 77
     0
 78
     0
281
     0
 65
     1
110
0.0
120
0.0
130
0.0
111
1.0
121
0.0
131
0.0
112
0.0
122
1.0
132
0.0
 79
     0
146
0.0
  0
ENDTAB
  0
TABLE
  2
LTYPE
  5
5
330
0
100
AcDbSymbolTable
 70
     6
  0
LTYPE
  5
13
330
5
100
AcDbSymbolTableRecord
100
AcDbLinetypeTableRecord
  2
ByBlock
 70
     0
  3

 72
    65
 73
     0
 40
0.0
  0
LTYPE
  5
14
330
5
100
AcDbSymbolTableRecord
100
AcDbLinetypeTableRecord
  2
ByLayer
 70
     0
  3

 72
    65
 73
     0
 40
0.0
  0
LTYPE
  5
15
330
5
100
AcDbSymbolTableRecord
100
AcDbLinetypeTableRecord
  2
CONTINUOUS
 70
     0
  3
Solid line
 72
    65
 73
     0
 40
0.0
  0
LTYPE
  5
26
330
5
100
AcDbSymbolTableRecord
100
AcDbLinetypeTableRecord
  2
DASHED
 70
     0
  3
__ __ __ __ __ __ __ __ __ __ __ __ __ __ __
 72
    65
 73
     2
 40
3.5
 49
2.0
 74
     0
 49
-1.5
 74
     0
  0
LTYPE
  5
27
330
5
100
AcDbSymbolTableRecord
100
AcDbLinetypeTableRecord
  2
CENTER
 70
     0
  3
____ _ ____ _ ____ _ ____ _ ____ _ ____ _ ____
 72
    65
 73
     4
 40
17.5
 49
13.0
 74
     0
 49
-1.5
 74
     0
 49
1.5
 74
     0
 49
-1.5
 74
     0
  0
LTYPE
  5
28
330
5
100
AcDbSymbolTableRecord
100
AcDbLinetypeTableRecord
  2
PHANTOM
 70
     0
  3
_____ _ _ _____ _ _ _____ _ _ _____ _ _ ____  
 72
    65
 73
     6
 40
15.5
 49
8.0
 74
     0
 49
-1.5
 74
     0
 49
1.5
 74
     0
 49
-1.5
 74
     0
 49
1.5
 74
     0
 49
-1.5
 74
     0
  0
LTYPE
  5
29
330
5
100
AcDbSymbolTableRecord
100
AcDbLinetypeTableRecord
  2
DOT
 70
     0
  3
. . . . . . . . . . . . . . . . . . . . . . . .
 72
    65
 73
     2
 40
0.25
 49
0.0
 74
     0
 49
-0.25
 74
     0
  0
LTYPE
  5
2A
330
5
100
AcDbSymbolTableRecord
100
AcDbLinetypeTableRecord
  2
HIDDEN
 70
     0
  3
__ __ __ __ __ __ __ __ __ __ __ __ __ __ __
 72
    65
 73
     2
 40
3.5
 49
2.0
 74
     0
 49
-1.5
 74
     0
  0
ENDTAB
  0
TABLE
  2
LAYER
  5
2
330
0
100
AcDbSymbolTable
 70
     2
  0
LAYER
  5
10
330
2
100
AcDbSymbolTableRecord
100
AcDbLayerTableRecord
  2
0
 70
     0
 62
     7
  6
CONTINUOUS
370
    -3
390
F
  0
LAYER
  5
2B
330
2
100
AcDbSymbolTableRecord
100
AcDbLayerTableRecord
  2
DEFPOINTS
 70
     0
 62
     7
  6
CONTINUOUS
290
     0
370
    -3
390
F
  0
ENDTAB
  0
TABLE
  2
STYLE
  5
3
330
0
100
AcDbSymbolTable
 70
     2
  0
STYLE
  5
11
330
3
100
AcDbSymbolTableRecord
100
AcDbTextStyleTableRecord
  2
STANDARD
 70
     0
 40
0.0
 41
1.0
 50
0.0
 71
     0
 42
0.2
  3

  4

1001
ACAD
1000
MS Gothic
1071
    32817
  0
ENDTAB
  0
TABLE
  2
VIEW
  5
6
330
0
100
AcDbSymbolTable
 70
     0
  0
ENDTAB
  0
TABLE
  2
UCS
  5
7
330
0
100
AcDbSymbolTable
 70
     0
  0
ENDTAB
  0
TABLE
  2
APPID
  5
9
330
0
100
AcDbSymbolTable
 70
     2
  0
APPID
  5
12
330
9
100
AcDbSymbolTableRecord
100
AcDbRegAppTableRecord
  2
ACAD
 70
     0
  0
APPID
  5
1E9
330
9
100
AcDbSymbolTableRecord
100
AcDbRegAppTableRecord
  2
ACAD_PSEXT
 70
     0
  0
ENDTAB
  0
TABLE
  2
DIMSTYLE
  5
A
330
0
100
AcDbSymbolTable
 70
    12
100
AcDbDimStyleTable
 71
     1
340
2C
  0
DIMSTYLE
105
2C
102
{ACAD_REACTORS
330
1DA
102
}
330
A
100
AcDbSymbolTableRecord
100
AcDbDimStyleTableRecord
  2
DIMSTYLE1
 70
     0
 41
1.0
 42
2.54
 44
2.54
 73
     0
 74
     0
 77
     1
140
3.0
145
1.0
147
1.5
172
     1
173
     1
279
     2
340
11
  0
DIMSTYLE
105
2D
102
{ACAD_REACTORS
330
1DB
102
}
330
A
100
AcDbSymbolTableRecord
100
AcDbDimStyleTableRecord
  2
DIMSTYLE2
 70
     0
 41
1.0
 42
2.54
 44
2.54
 73
     0
 74
     0
 77
     1
140
3.0
145
1.0
147
1.5
172
     1
173
     1
279
     2
340
11
  0
DIMSTYLE
105
2E
102
{ACAD_REACTORS
330
1DC
102
}
330
A
100
AcDbSymbolTableRecord
100
AcDbDimStyleTableRecord
  2
DIMSTYLE3
 70
     0
 41
1.0
 42
2.54
 44
2.54
 73
     0
 74
     0
 77
     1
140
3.0
145
1.0
147
1.5
172
     1
173
     1
279
     2
340
11
  0
DIMSTYLE
105
2F
102
{ACAD_REACTORS
330
1DD
102
}
330
A
100
AcDbSymbolTableRecord
100
AcDbDimStyleTableRecord
  2
DIMSTYLE4
 70
     0
 41
1.0
 42
2.54
 44
2.54
 73
     0
 74
     0
 77
     1
140
3.0
145
1.0
147
1.5
172
     1
173
     1
279
     2
340
11
  0
DIMSTYLE
105
30
102
{ACAD_REACTORS
330
1DE
102
}
330
A
100
AcDbSymbolTableRecord
100
AcDbDimStyleTableRecord
  2
DIMSTYLE5
 70
     0
 41
1.0
 42
2.54
 44
2.54
 73
     0
 74
     0
 77
     1
140
3.0
145
1.0
147
1.5
172
     1
173
     1
279
     2
340
11
  0
DIMSTYLE
105
31
102
{ACAD_REACTORS
330
1DF
102
}
330
A
100
AcDbSymbolTableRecord
100
AcDbDimStyleTableRecord
  2
DIMSTYLE6
 70
     0
 41
1.0
 42
2.54
 44
2.54
 73
     0
 74
     0
 75
     1
 76
     1
 77
     1
140
3.0
145
1.0
147
1.5
172
     1
173
     1
279
     2
340
11
  0
DIMSTYLE
105
32
102
{ACAD_REACTORS
330
1E0
102
}
330
A
100
AcDbSymbolTableRecord
100
AcDbDimStyleTableRecord
  2
DIMSTYLE7
 70
     0
 41
1.0
 42
2.54
 44
2.54
 73
     0
 74
     0
 75
     1
 76
     1
 77
     1
140
3.0
145
1.0
147
1.5
172
     1
173
     1
279
     2
340
11
  0
DIMSTYLE
105
33
102
{ACAD_REACTORS
330
1E1
102
}
330
A
100
AcDbSymbolTableRecord
100
AcDbDimStyleTableRecord
  2
DIMSTYLE8
 70
     0
 41
1.0
 42
2.54
 44
2.54
 73
     0
 74
     0
 75
     1
 76
     1
 77
     1
140
3.0
145
1.0
147
1.5
172
     1
173
     1
279
     2
340
11
  0
DIMSTYLE
105
34
102
{ACAD_REACTORS
330
1E2
102
}
330
A
100
AcDbSymbolTableRecord
100
AcDbDimStyleTableRecord
  2
DIMSTYLE9
 70
     0
 41
1.0
 42
2.54
 44
2.54
 73
     0
 74
     0
 75
     1
 76
     1
 77
     1
140
3.0
145
1.0
147
1.5
172
     1
173
     1
279
     2
340
11
  0
DIMSTYLE
105
35
102
{ACAD_REACTORS
330
1E4
102
}
330
A
100
AcDbSymbolTableRecord
100
AcDbDimStyleTableRecord
  2
DIMSTYLE10
 70
     0
 41
1.0
 42
2.54
 44
2.54
 73
     0
 74
     0
 77
     1
140
3.0
145
1.0
147
1.5
172
     1
173
     1
279
     2
340
11
  0
DIMSTYLE
105
36
102
{ACAD_REACTORS
330
1E5
102
}
330
A
100
AcDbSymbolTableRecord
100
AcDbDimStyleTableRecord
  2
DIMSTYLE11
 70
     0
 41
1.0
 42
2.54
 44
2.54
 73
     0
 74
     0
 77
     1
140
3.0
145
1.0
147
1.5
172
     1
173
     1
279
     2
340
11
  0
ENDTAB
  0
TABLE
  2
BLOCK_RECORD
  5
1
330
0
100
AcDbSymbolTable
 70
    15
  0
BLOCK_RECORD
  5
22
330
1
100
AcDbSymbolTableRecord
100
AcDbBlockTableRecord
  2
*Model_Space
340
25
  0
BLOCK_RECORD
  5
1E
330
1
100
AcDbSymbolTableRecord
100
AcDbBlockTableRecord
  2
*Paper_Space
340
21
  0
BLOCK_RECORD
  5
3A
330
1
100
AcDbSymbolTableRecord
100
AcDbBlockTableRecord
  2
_OPEN30
340
0
102
{BLKREFS
331
43
331
44
331
50
331
52
331
5D
331
5E
331
68
331
69
331
73
331
74
331
7E
331
7F
331
88
331
89
331
92
331
93
331
9C
331
9D
331
A5
331
A6
331
B1
331
B2
102
}
  0
BLOCK_RECORD
  5
40
330
1
100
AcDbSymbolTableRecord
100
AcDbBlockTableRecord
  2
*D1
340
0
  0
BLOCK_RECORD
  5
4C
330
1
100
AcDbSymbolTableRecord
100
AcDbBlockTableRecord
  2
*D2
340
0
  0
BLOCK_RECORD
  5
5A
330
1
100
AcDbSymbolTableRecord
100
AcDbBlockTableRecord
  2
*D3
340
0
  0
BLOCK_RECORD
  5
65
330
1
100
AcDbSymbolTableRecord
100
AcDbBlockTableRecord
  2
*D4
340
0
  0
BLOCK_RECORD
  5
70
330
1
100
AcDbSymbolTableRecord
100
AcDbBlockTableRecord
  2
*D5
340
0
  0
BLOCK_RECORD
  5
7A
330
1
100
AcDbSymbolTableRecord
100
AcDbBlockTableRecord
  2
*D6
340
0
  0
BLOCK_RECORD
  5
84
330
1
100
AcDbSymbolTableRecord
100
AcDbBlockTableRecord
  2
*D7
340
0
  0
BLOCK_RECORD
  5
8E
330
1
100
AcDbSymbolTableRecord
100
AcDbBlockTableRecord
  2
*D8
340
0
  0
BLOCK_RECORD
  5
98
330
1
100
AcDbSymbolTableRecord
100
AcDbBlockTableRecord
  2
*D9
340
0
  0
BLOCK_RECORD
  5
A2
330
1
100
AcDbSymbolTableRecord
100
AcDbBlockTableRecord
  2
*D10
340
0
  0
BLOCK_RECORD
  5
AE
330
1
100
AcDbSymbolTableRecord
100
AcDbBlockTableRecord
  2
*D11
340
0
  0
BLOCK_RECORD
  5
BA
330
1
100
AcDbSymbolTableRecord
100
AcDbBlockTableRecord
  2
KOZU0001
340
0
102
{BLKREFS
331
1E3
102
}
  0
BLOCK_RECORD
  5
C2
330
1
100
AcDbSymbolTableRecord
100
AcDbBlockTableRecord
  2
KOZU0002
340
0
102
{BLKREFS
331
1E6
102
}
  0
ENDTAB
  0
ENDSEC
  0
SECTION
  2
BLOCKS
  0
BLOCK
  5
23
330
22
100
AcDbEntity
  8
0
100
AcDbBlockBegin
  2
*Model_Space
 70
     0
 10
0.0
 20
0.0
 30
0.0
  3
*Model_Space
  1

  0
ENDBLK
  5
24
330
22
100
AcDbEntity
  8
0
100
AcDbBlockEnd
  0
BLOCK
  5
1F
330
1E
100
AcDbEntity
 67
     1
  8
0
100
AcDbBlockBegin
  2
*Paper_Space
 70
     0
 10
0.0
 20
0.0
 30
0.0
  3
*Paper_Space
  1

  0
ENDBLK
  5
20
330
1E
100
AcDbEntity
 67
     1
  8
0
100
AcDbBlockEnd
  0
BLOCK
  5
3B
330
3A
100
AcDbEntity
  8
0
100
AcDbBlockBegin
  2
_OPEN30
 70
     0
 10
0.0
 20
0.0
 30
0.0
  3
_OPEN30
  1

  0
LINE
  5
3C
330
3A
100
AcDbEntity
  8
0
  6
ByBlock
 62
     0
100
AcDbLine
 10
0.0
 20
0.0
 30
0.0
 11
-2.999999999999993
 21
-1.000000000000017
 31
0.0
  0
LINE
  5
3D
330
3A
100
AcDbEntity
  8
0
  6
ByBlock
 62
     0
100
AcDbLine
 10
0.0
 20
0.0
 30
0.0
 11
-3.000000000000006
 21
0.9999999999999815
 31
0.0
  0
LINE
  5
3E
330
3A
100
AcDbEntity
  8
0
  6
ByBlock
 62
     0
100
AcDbLine
 10
0.0
 20
0.0
 30
0.0
 11
-3.0
 21
0.0
 31
0.0
  0
ENDBLK
  5
3F
330
3A
100
AcDbEntity
  8
0
100
AcDbBlockEnd
  0
BLOCK
  5
41
330
40
100
AcDbEntity
  8
0
100
AcDbBlockBegin
  2
*D1
 70
     1
 10
0.0
 20
0.0
 30
0.0
  3
*D1
  1

  0
LINE
  5
42
330
40
100
AcDbEntity
  8
0
  6
Continuous
 62
     7
100
AcDbLine
 10
-150.7904510498047
 20
313.6787719726563
 30
0.0
 11
-201.7929534912109
 21
313.6787719726563
 31
0.0
  0
INSERT
  5
43
330
40
100
AcDbEntity
  8
0
  6
Continuous
 62
     7
100
AcDbBlockReference
  2
_OPEN30
 10
-147.7904510498047
 20
313.6787719726563
 30
0.0
  0
INSERT
  5
44
330
40
100
AcDbEntity
  8
0
  6
Continuous
 62
     7
100
AcDbBlockReference
  2
_OPEN30
 10
-204.7929534912109
 20
313.6787719726563
 30
0.0
 50
180.0000000000004
  0
LINE
  5
45
330
40
100
AcDbEntity
  8
0
  6
Continuous
 62
     7
100
AcDbLine
 10
-147.7904510498047
 20
292.9079504394532
 30
0.0
 11
-147.7904510498047
 21
315.9647827148438
 31
0.0
  0
LINE
  5
46
330
40
100
AcDbEntity
  8
0
  6
Continuous
 62
     7
100
AcDbLine
 10
-204.7929534912109
 20
266.4079504394532
 30
0.0
 11
-204.7929534912109
 21
315.9647827148438
 31
0.0
  0
TEXT
  5
47
330
40
100
AcDbEntity
  8
0
  6
Continuous
 62
     7
100
AcDbText
 10
-190.8617028594017
 20
314.4287719726563
 30
0.0
 40
3.0
  1
５７　（４７～６２）
 41
0.8443929326254473
100
AcDbText
  0
POINT
  5
48
330
40
100
AcDbEntity
  8
DEFPOINTS
  6
Continuous
 62
     7
100
AcDbPoint
 10
-147.7904510498047
 20
290.3679504394531
 30
0.0
  0
POINT
  5
49
330
40
100
AcDbEntity
  8
DEFPOINTS
  6
Continuous
 62
     7
100
AcDbPoint
 10
-204.7929534912109
 20
263.8679504394531
 30
0.0
  0
POINT
  5
4A
330
40
100
AcDbEntity
  8
DEFPOINTS
  6
Continuous
 62
     7
100
AcDbPoint
 10
-204.7929534912109
 20
313.6787719726563
 30
0.0
  0
ENDBLK
  5
4B
330
40
100
AcDbEntity
  8
0
100
AcDbBlockEnd
  0
BLOCK
  5
4D
330
4C
100
AcDbEntity
  8
0
100
AcDbBlockBegin
  2
*D2
 70
     1
 10
0.0
 20
0.0
 30
0.0
  3
*D2
  1

  0
LINE
  5
4E
330
4C
100
AcDbEntity
  8
0
  6
Continuous
 62
     7
100
AcDbLine
 10
-144.7904510498046
 20
313.6787719726563
 30
0.0
 11
-137.7913513183594
 21
313.6787719726563
 31
0.0
  0
LINE
  5
4F
330
4C
100
AcDbEntity
  8
0
  6
Continuous
 62
     7
100
AcDbLine
 10
-147.7904510498047
 20
313.6787719726563
 30
0.0
 11
-144.7904510498046
 21
313.6787719726563
 31
0.0
  0
INSERT
  5
50
330
4C
100
AcDbEntity
  8
0
  6
Continuous
 62
     7
100
AcDbBlockReference
  2
_OPEN30
 10
-147.7904510498047
 20
313.6787719726563
 30
0.0
 50
0.0000000000003562
  0
LINE
  5
51
330
4C
100
AcDbEntity
  8
0
  6
Continuous
 62
     7
100
AcDbLine
 10
-150.7904510498047
 20
313.6787719726563
 30
0.0
 11
-154.1404510498047
 21
313.6787719726562
 31
0.0
  0
INSERT
  5
52
330
4C
100
AcDbEntity
  8
0
  6
Continuous
 62
     7
100
AcDbBlockReference
  2
_OPEN30
 10
-144.7904510498046
 20
313.6787719726563
 30
0.0
 50
180.0
  0
LINE
  5
53
330
4C
100
AcDbEntity
  8
0
  6
Continuous
 62
     7
100
AcDbLine
 10
-141.7904510498047
 20
313.6787719726563
 30
0.0
 11
-138.4404510498047
 21
313.6787719726563
 31
0.0
  0
LINE
  5
54
330
4C
100
AcDbEntity
  8
0
  6
Continuous
 62
     7
100
AcDbLine
 10
-144.7904510498046
 20
292.9079504394532
 30
0.0
 11
-144.7904510498046
 21
315.9647827148438
 31
0.0
  0
TEXT
  5
55
330
4C
100
AcDbEntity
  8
0
  6
Continuous
 62
     7
100
AcDbText
 10
-139.9313586950302
 20
314.4287719726563
 30
0.0
 40
3.0
  1
3
100
AcDbText
  0
POINT
  5
56
330
4C
100
AcDbEntity
  8
DEFPOINTS
  6
Continuous
 62
     7
100
AcDbPoint
 10
-147.7904510498047
 20
315.9647827148438
 30
0.0
  0
POINT
  5
57
330
4C
100
AcDbEntity
  8
DEFPOINTS
  6
Continuous
 62
     7
100
AcDbPoint
 10
-144.7904510498046
 20
290.3679504394531
 30
0.0
  0
POINT
  5
58
330
4C
100
AcDbEntity
  8
DEFPOINTS
  6
Continuous
 62
     7
100
AcDbPoint
 10
-144.7904510498046
 20
313.6787719726563
 30
0.0
  0
ENDBLK
  5
59
330
4C
100
AcDbEntity
  8
0
100
AcDbBlockEnd
  0
BLOCK
  5
5B
330
5A
100
AcDbEntity
  8
0
100
AcDbBlockBegin
  2
*D3
 70
     1
 10
0.0
 20
0.0
 30
0.0
  3
*D3
  1

  0
LINE
  5
5C
330
5A
100
AcDbEntity
  8
0
  6
Continuous
 62
     7
100
AcDbLine
 10
-207.7929534912109
 20
313.6787719726563
 30
0.0
 11
-211.7929534912109
 21
313.6787719726563
 31
0.0
  0
INSERT
  5
5D
330
5A
100
AcDbEntity
  8
0
  6
Continuous
 62
     7
100
AcDbBlockReference
  2
_OPEN30
 10
-204.7929534912109
 20
313.6787719726563
 30
0.0
  0
INSERT
  5
5E
330
5A
100
AcDbEntity
  8
0
  6
Continuous
 62
     7
100
AcDbBlockReference
  2
_OPEN30
 10
-214.7929534912109
 20
313.6787719726563
 30
0.0
 50
180.0000000000004
  0
LINE
  5
5F
330
5A
100
AcDbEntity
  8
0
  6
Continuous
 62
     7
100
AcDbLine
 10
-214.7929534912109
 20
254.9079351806641
 30
0.0
 11
-214.7929534912109
 21
315.9647827148438
 31
0.0
  0
TEXT
  5
60
330
5A
100
AcDbEntity
  8
0
  6
Continuous
 62
     7
100
AcDbText
 10
-212.3629536032677
 20
314.4287719726563
 30
0.0
 40
3.0
  1
10
 41
1.40181821042841
100
AcDbText
  0
POINT
  5
61
330
5A
100
AcDbEntity
  8
DEFPOINTS
  6
Continuous
 62
     7
100
AcDbPoint
 10
-204.7929534912109
 20
315.9647827148438
 30
0.0
  0
POINT
  5
62
330
5A
100
AcDbEntity
  8
DEFPOINTS
  6
Continuous
 62
     7
100
AcDbPoint
 10
-214.7929534912109
 20
252.3679351806641
 30
0.0
  0
POINT
  5
63
330
5A
100
AcDbEntity
  8
DEFPOINTS
  6
Continuous
 62
     7
100
AcDbPoint
 10
-214.7929534912109
 20
313.6787719726563
 30
0.0
  0
ENDBLK
  5
64
330
5A
100
AcDbEntity
  8
0
100
AcDbBlockEnd
  0
BLOCK
  5
66
330
65
100
AcDbEntity
  8
0
100
AcDbBlockBegin
  2
*D4
 70
     1
 10
0.0
 20
0.0
 30
0.0
  3
*D4
  1

  0
LINE
  5
67
330
65
100
AcDbEntity
  8
0
  6
Continuous
 62
     7
100
AcDbLine
 10
-150.7904510498047
 20
301.6436157226563
 30
0.0
 11
-166.7929534912109
 21
301.6436157226563
 31
0.0
  0
INSERT
  5
68
330
65
100
AcDbEntity
  8
0
  6
Continuous
 62
     7
100
AcDbBlockReference
  2
_OPEN30
 10
-147.7904510498047
 20
301.6436157226563
 30
0.0
  0
INSERT
  5
69
330
65
100
AcDbEntity
  8
0
  6
Continuous
 62
     7
100
AcDbBlockReference
  2
_OPEN30
 10
-169.7929534912109
 20
301.6436157226563
 30
0.0
 50
180.0000000000004
  0
LINE
  5
6A
330
65
100
AcDbEntity
  8
0
  6
Continuous
 62
     7
100
AcDbLine
 10
-169.7929534912109
 20
243.9079351806641
 30
0.0
 11
-169.7929534912109
 21
303.9296264648438
 31
0.0
  0
TEXT
  5
6B
330
65
100
AcDbEntity
  8
0
  6
Continuous
 62
     7
100
AcDbText
 10
-161.3617023825645
 20
302.3936157226563
 30
0.0
 40
3.0
  1
22
 41
1.028000020980834
100
AcDbText
  0
POINT
  5
6C
330
65
100
AcDbEntity
  8
DEFPOINTS
  6
Continuous
 62
     7
100
AcDbPoint
 10
-147.7904510498047
 20
315.9647827148438
 30
0.0
  0
POINT
  5
6D
330
65
100
AcDbEntity
  8
DEFPOINTS
  6
Continuous
 62
     7
100
AcDbPoint
 10
-169.7929534912109
 20
241.3679351806641
 30
0.0
  0
POINT
  5
6E
330
65
100
AcDbEntity
  8
DEFPOINTS
  6
Continuous
 62
     7
100
AcDbPoint
 10
-169.7929534912109
 20
301.6436157226563
 30
0.0
  0
ENDBLK
  5
6F
330
65
100
AcDbEntity
  8
0
100
AcDbBlockEnd
  0
BLOCK
  5
71
330
70
100
AcDbEntity
  8
0
100
AcDbBlockBegin
  2
*D5
 70
     1
 10
0.0
 20
0.0
 30
0.0
  3
*D5
  1

  0
LINE
  5
72
330
70
100
AcDbEntity
  8
0
  6
Continuous
 62
     7
100
AcDbLine
 10
-211.7929534912109
 20
218.7983551025391
 30
0.0
 11
-157.7929534912109
 21
218.798355102539
 31
0.0
  0
INSERT
  5
73
330
70
100
AcDbEntity
  8
0
  6
Continuous
 62
     7
100
AcDbBlockReference
  2
_OPEN30
 10
-214.7929534912109
 20
218.7983551025391
 30
0.0
 50
180.0000000000004
  0
INSERT
  5
74
330
70
100
AcDbEntity
  8
0
  6
Continuous
 62
     7
100
AcDbBlockReference
  2
_OPEN30
 10
-154.7929534912109
 20
218.7983551025391
 30
0.0
  0
TEXT
  5
75
330
70
100
AcDbEntity
  8
0
  6
Continuous
 62
     7
100
AcDbText
 10
-187.3629536032676
 20
219.5483551025391
 30
0.0
 40
3.0
  1
60
 41
1.101428593908038
100
AcDbText
  0
POINT
  5
76
330
70
100
AcDbEntity
  8
DEFPOINTS
  6
Continuous
 62
     7
100
AcDbPoint
 10
-214.7929534912109
 20
221.5778198242188
 30
0.0
  0
POINT
  5
77
330
70
100
AcDbEntity
  8
DEFPOINTS
  6
Continuous
 62
     7
100
AcDbPoint
 10
-154.7929534912109
 20
223.2429351806641
 30
0.0
  0
POINT
  5
78
330
70
100
AcDbEntity
  8
DEFPOINTS
  6
Continuous
 62
     7
100
AcDbPoint
 10
-154.7929534912109
 20
218.7983551025391
 30
0.0
  0
ENDBLK
  5
79
330
70
100
AcDbEntity
  8
0
100
AcDbBlockEnd
  0
BLOCK
  5
7B
330
7A
100
AcDbEntity
  8
0
100
AcDbBlockBegin
  2
*D6
 70
     1
 10
0.0
 20
0.0
 30
0.0
  3
*D6
  1

  0
LINE
  5
7C
330
7A
100
AcDbEntity
  8
0
  6
Continuous
 62
     7
100
AcDbLine
 10
-362.3022155761719
 20
284.1294250488281
 30
0.0
 11
-347.2904357910156
 21
319.1164855957031
 31
0.0
  0
LINE
  5
7D
330
7A
100
AcDbEntity
  8
0
  6
Continuous
 62
     7
100
AcDbLine
 10
-421.8420827622187
 20
145.3634011307554
 30
0.0
 11
-363.4851267104374
 21
281.3724844893618
 31
0.0
  0
INSERT
  5
7E
330
7A
100
AcDbEntity
  8
0
  6
Continuous
 62
     7
100
AcDbBlockReference
  2
_OPEN30
 10
-423.0249938964844
 20
142.6064605712891
 30
0.0
 50
246.7774445976084
  0
INSERT
  5
7F
330
7A
100
AcDbEntity
  8
0
  6
Continuous
 62
     7
100
AcDbBlockReference
  2
_OPEN30
 10
-362.3022155761719
 20
284.1294250488281
 30
0.0
 50
66.77744459760766
  0
TEXT
  5
80
330
7A
100
AcDbEntity
  8
0
  6
Continuous
 62
     7
100
AcDbText
 10
-360.6468899822977
 20
289.8734309869492
 30
0.0
 40
3.0
  1
%%C１５４（防水皿外径）
 50
66.80000140353341
 41
0.8440126077968535
100
AcDbText
  0
POINT
  5
81
330
7A
100
AcDbEntity
  8
DEFPOINTS
  6
Continuous
 62
     7
100
AcDbPoint
 10
-423.0249938964844
 20
142.6064605712891
 30
0.0
  0
POINT
  5
82
330
7A
100
AcDbEntity
  8
DEFPOINTS
  6
Continuous
 62
     7
100
AcDbPoint
 10
-362.3022155761719
 20
284.1294250488281
 30
0.0
  0
ENDBLK
  5
83
330
7A
100
AcDbEntity
  8
0
100
AcDbBlockEnd
  0
BLOCK
  5
85
330
84
100
AcDbEntity
  8
0
100
AcDbBlockBegin
  2
*D7
 70
     1
 10
0.0
 20
0.0
 30
0.0
  3
*D7
  1

  0
LINE
  5
86
330
84
100
AcDbEntity
  8
0
  6
Continuous
 62
     7
100
AcDbLine
 10
-361.8669738769531
 20
253.2949066162109
 30
0.0
 11
-321.9168090820313
 21
304.8814086914063
 31
0.0
  0
LINE
  5
87
330
84
100
AcDbEntity
  8
0
  6
Continuous
 62
     7
100
AcDbLine
 10
-421.8714116666516
 20
175.8128781689686
 30
0.0
 11
-363.7038446810045
 21
250.9230074511486
 31
0.0
  0
INSERT
  5
88
330
84
100
AcDbEntity
  8
0
  6
Continuous
 62
     7
100
AcDbBlockReference
  2
_OPEN30
 10
-423.7082824707031
 20
173.4409790039063
 30
0.0
 50
232.2447108790023
  0
INSERT
  5
89
330
84
100
AcDbEntity
  8
0
  6
Continuous
 62
     7
100
AcDbBlockReference
  2
_OPEN30
 10
-361.8669738769531
 20
253.2949066162109
 30
0.0
 50
52.2447108790016
  0
TEXT
  5
8A
330
84
100
AcDbEntity
  8
0
  6
Continuous
 62
     7
100
AcDbText
 10
-344.0361370980118
 20
277.56664624506
 30
0.0
 40
3.0
  1
%%C１０１（ノズル部外径）
 50
52.20000076957841
 41
0.8436974815103043
100
AcDbText
  0
POINT
  5
8B
330
84
100
AcDbEntity
  8
DEFPOINTS
  6
Continuous
 62
     7
100
AcDbPoint
 10
-423.7082824707031
 20
173.4409790039063
 30
0.0
  0
POINT
  5
8C
330
84
100
AcDbEntity
  8
DEFPOINTS
  6
Continuous
 62
     7
100
AcDbPoint
 10
-361.8669738769531
 20
253.2949066162109
 30
0.0
  0
ENDBLK
  5
8D
330
84
100
AcDbEntity
  8
0
100
AcDbBlockEnd
  0
BLOCK
  5
8F
330
8E
100
AcDbEntity
  8
0
100
AcDbBlockBegin
  2
*D8
 70
     1
 10
0.0
 20
0.0
 30
0.0
  3
*D8
  1

  0
LINE
  5
90
330
8E
100
AcDbEntity
  8
0
  6
Continuous
 62
     7
100
AcDbLine
 10
-362.3473815917969
 20
231.6337890625
 30
0.0
 11
-299.485107421875
 21
269.3546752929688
 31
0.0
  0
LINE
  5
91
330
8E
100
AcDbEntity
  8
0
  6
Continuous
 62
     7
100
AcDbLine
 10
-420.6554595823695
 20
196.64567456624
 30
0.0
 11
-364.9197967652867
 21
230.0901957950881
 31
0.0
  0
INSERT
  5
92
330
8E
100
AcDbEntity
  8
0
  6
Continuous
 62
     7
100
AcDbBlockReference
  2
_OPEN30
 10
-423.2278747558593
 20
195.1020812988281
 30
0.0
 50
210.9661174815487
  0
INSERT
  5
93
330
8E
100
AcDbEntity
  8
0
  6
Continuous
 62
     7
100
AcDbBlockReference
  2
_OPEN30
 10
-362.3473815917969
 20
231.6337890625
 30
0.0
 50
30.96611748154797
  0
TEXT
  5
94
330
8E
100
AcDbEntity
  8
0
  6
Continuous
 62
     7
100
AcDbText
 10
-322.2817165225063
 20
256.5410885920666
 30
0.0
 40
3.0
  1
%%C７１（目皿外径）
 50
30.99999858592387
 41
0.8448610247221777
100
AcDbText
  0
POINT
  5
95
330
8E
100
AcDbEntity
  8
DEFPOINTS
  6
Continuous
 62
     7
100
AcDbPoint
 10
-423.2278747558593
 20
195.1020812988281
 30
0.0
  0
POINT
  5
96
330
8E
100
AcDbEntity
  8
DEFPOINTS
  6
Continuous
 62
     7
100
AcDbPoint
 10
-362.3473815917969
 20
231.6337890625
 30
0.0
  0
ENDBLK
  5
97
330
8E
100
AcDbEntity
  8
0
100
AcDbBlockEnd
  0
BLOCK
  5
99
330
98
100
AcDbEntity
  8
0
100
AcDbBlockBegin
  2
*D9
 70
     1
 10
0.0
 20
0.0
 30
0.0
  3
*D9
  1

  0
LINE
  5
9A
330
98
100
AcDbEntity
  8
0
  6
Continuous
 62
     7
100
AcDbLine
 10
-443.5499572753906
 20
256.9521179199219
 30
0.0
 11
-471.8988342285156
 21
281.2329406738281
 31
0.0
  0
LINE
  5
9B
330
98
100
AcDbEntity
  8
0
  6
Continuous
 62
     7
100
AcDbLine
 10
-344.0557452913294
 20
171.7352976692976
 30
0.0
 11
-441.2714641813269
 21
255.0005879508196
 31
0.0
  0
INSERT
  5
9C
330
98
100
AcDbEntity
  8
0
  6
Continuous
 62
     7
100
AcDbBlockReference
  2
_OPEN30
 10
-341.7772521972656
 20
169.7837677001953
 30
0.0
 50
319.4199360457125
  0
INSERT
  5
9D
330
98
100
AcDbEntity
  8
0
  6
Continuous
 62
     7
100
AcDbBlockReference
  2
_OPEN30
 10
-443.5499572753906
 20
256.9521179199219
 30
0.0
 50
139.4199360457118
  0
TEXT
  5
9E
330
98
100
AcDbEntity
  8
0
  6
Continuous
 62
     7
100
AcDbText
 10
-471.4088282967924
 20
281.8046698282542
 30
0.0
 40
3.0
  1
PCD134
 50
319.399999780894
 41
1.07125000655651
100
AcDbText
  0
POINT
  5
9F
330
98
100
AcDbEntity
  8
DEFPOINTS
  6
Continuous
 62
     7
100
AcDbPoint
 10
-341.7772521972656
 20
169.7837677001953
 30
0.0
  0
POINT
  5
A0
330
98
100
AcDbEntity
  8
DEFPOINTS
  6
Continuous
 62
     7
100
AcDbPoint
 10
-443.5499572753906
 20
256.9521179199219
 30
0.0
  0
ENDBLK
  5
A1
330
98
100
AcDbEntity
  8
0
100
AcDbBlockEnd
  0
BLOCK
  5
A3
330
A2
100
AcDbEntity
  8
0
100
AcDbBlockBegin
  2
*D10
 70
     1
 10
0.0
 20
0.0
 30
0.0
  3
*D10
  1

  0
LINE
  5
A4
330
A2
100
AcDbEntity
  8
0
  6
Continuous
 62
     7
100
AcDbLine
 10
-85.6794891357422
 20
188.3679351806641
 30
0.0
 11
-85.67948913574216
 21
238.3679351806641
 31
0.0
  0
INSERT
  5
A5
330
A2
100
AcDbEntity
  8
0
  6
Continuous
 62
     7
100
AcDbBlockReference
  2
_OPEN30
 10
-85.67948913574218
 20
185.3679351806641
 30
0.0
 50
270.0000000000005
  0
INSERT
  5
A6
330
A2
100
AcDbEntity
  8
0
  6
Continuous
 62
     7
100
AcDbBlockReference
  2
_OPEN30
 10
-85.67948913574218
 20
241.3679351806641
 30
0.0
 50
90.00000000000019
  0
LINE
  5
A7
330
A2
100
AcDbEntity
  8
0
  6
Continuous
 62
     7
100
AcDbLine
 10
-113.2529534912109
 20
185.3679351806641
 30
0.0
 11
-83.39348602294922
 21
185.3679351806641
 31
0.0
  0
LINE
  5
A8
330
A2
100
AcDbEntity
  8
0
  6
Continuous
 62
     7
100
AcDbLine
 10
-113.2529534912109
 20
241.3679351806641
 30
0.0
 11
-83.39348602294922
 21
241.3679351806641
 31
0.0
  0
TEXT
  5
A9
330
A2
100
AcDbEntity
  8
0
  6
Continuous
 62
     7
100
AcDbText
 10
-86.42948895783682
 20
209.2979349762192
 30
0.0
 40
3.0
  1
%%C56
 50
90.00000250447815
 41
0.9498249830693319
100
AcDbText
  0
POINT
  5
AA
330
A2
100
AcDbEntity
  8
DEFPOINTS
  6
Continuous
 62
     7
100
AcDbPoint
 10
-115.7929534912109
 20
185.3679351806641
 30
0.0
  0
POINT
  5
AB
330
A2
100
AcDbEntity
  8
DEFPOINTS
  6
Continuous
 62
     7
100
AcDbPoint
 10
-115.7929534912109
 20
241.3679351806641
 30
0.0
  0
POINT
  5
AC
330
A2
100
AcDbEntity
  8
DEFPOINTS
  6
Continuous
 62
     7
100
AcDbPoint
 10
-85.67948913574218
 20
241.3679351806641
 30
0.0
  0
ENDBLK
  5
AD
330
A2
100
AcDbEntity
  8
0
100
AcDbBlockEnd
  0
BLOCK
  5
AF
330
AE
100
AcDbEntity
  8
0
100
AcDbBlockBegin
  2
*D11
 70
     1
 10
0.0
 20
0.0
 30
0.0
  3
*D11
  1

  0
LINE
  5
B0
330
AE
100
AcDbEntity
  8
0
  6
Continuous
 62
     7
100
AcDbLine
 10
-166.7929534912109
 20
115.686393737793
 30
0.0
 11
-118.7929534912109
 21
115.686393737793
 31
0.0
  0
INSERT
  5
B1
330
AE
100
AcDbEntity
  8
0
  6
Continuous
 62
     7
100
AcDbBlockReference
  2
_OPEN30
 10
-169.7929534912109
 20
115.686393737793
 30
0.0
 50
180.0000000000004
  0
INSERT
  5
B2
330
AE
100
AcDbEntity
  8
0
  6
Continuous
 62
     7
100
AcDbBlockReference
  2
_OPEN30
 10
-115.7929534912109
 20
115.686393737793
 30
0.0
  0
LINE
  5
B3
330
AE
100
AcDbEntity
  8
0
  6
Continuous
 62
     7
100
AcDbLine
 10
-169.7929534912109
 20
182.8279351806641
 30
0.0
 11
-169.7929534912109
 21
113.400390625
 31
0.0
  0
LINE
  5
B4
330
AE
100
AcDbEntity
  8
0
  6
Continuous
 62
     7
100
AcDbLine
 10
-115.7929534912109
 20
182.8279351806641
 30
0.0
 11
-115.7929534912109
 21
113.400390625
 31
0.0
  0
TEXT
  5
B5
330
AE
100
AcDbEntity
  8
0
  6
Continuous
 62
     7
100
AcDbText
 10
-145.3629536032677
 20
116.436393737793
 30
0.0
 40
3.0
  1
54
 41
1.028000020980834
100
AcDbText
  0
POINT
  5
B6
330
AE
100
AcDbEntity
  8
DEFPOINTS
  6
Continuous
 62
     7
100
AcDbPoint
 10
-169.7929534912109
 20
185.3679351806641
 30
0.0
  0
POINT
  5
B7
330
AE
100
AcDbEntity
  8
DEFPOINTS
  6
Continuous
 62
     7
100
AcDbPoint
 10
-115.7929534912109
 20
185.3679351806641
 30
0.0
  0
POINT
  5
B8
330
AE
100
AcDbEntity
  8
DEFPOINTS
  6
Continuous
 62
     7
100
AcDbPoint
 10
-115.7929534912109
 20
115.686393737793
 30
0.0
  0
ENDBLK
  5
B9
330
AE
100
AcDbEntity
  8
0
100
AcDbBlockEnd
  0
BLOCK
  5
BB
330
BA
100
AcDbEntity
  8
0
100
AcDbBlockBegin
  2
KOZU0001
 70
     0
 10
0.0
 20
0.0
 30
0.0
  3
KOZU0001
  1

  0
LINE
  5
BC
330
BA
100
AcDbEntity
  8
0
  6
Continuous
 62
     7
100
AcDbLine
 10
0.0
 20
0.0
 30
0.0
 11
-15.939697265625
 21
21.883056640625
 31
0.0
  0
LINE
  5
BD
330
BA
100
AcDbEntity
  8
0
  6
Continuous
 62
     7
100
AcDbLine
 10
-15.939697265625
 20
21.883056640625
 30
0.0
 11
-39.60867309570313
 21
21.883056640625
 31
0.0
  0
LINE
  5
BE
330
BA
100
AcDbEntity
  8
0
  6
Continuous
 62
     7
100
AcDbLine
 10
0.0
 20
0.0
 30
0.0
 11
-2.574609251733431
 21
1.836133764432378
 31
0.0
  0
LINE
  5
BF
330
BA
100
AcDbEntity
  8
0
  6
Continuous
 62
     7
100
AcDbLine
 10
0.0
 20
0.0
 30
0.0
 11
-0.9580071427273191
 21
3.013672562585961
 31
0.0
  0
TEXT
  5
C0
330
BA
100
AcDbEntity
  8
0
  6
Continuous
 62
     7
100
AcDbText
 10
-37.88867247104646
 20
22.633056640625
 30
0.0
 40
3.0
  1
３－Ｍ５皿穴
 41
0.8472565548642696
100
AcDbText
  0
ENDBLK
  5
C1
330
BA
100
AcDbEntity
  8
0
100
AcDbBlockEnd
  0
BLOCK
  5
C3
330
C2
100
AcDbEntity
  8
0
100
AcDbBlockBegin
  2
KOZU0002
 70
     0
 10
0.0
 20
0.0
 30
0.0
  3
KOZU0002
  1

  0
LINE
  5
C4
330
C2
100
AcDbEntity
  8
0
  6
Continuous
 62
     7
100
AcDbLine
 10
0.0
 20
0.0
 30
0.0
 11
12.6016845703125
 21
14.772705078125
 31
0.0
  0
LINE
  5
C5
330
C2
100
AcDbEntity
  8
0
  6
Continuous
 62
     7
100
AcDbLine
 10
12.6016845703125
 20
14.772705078125
 30
0.0
 11
52.97736358642578
 21
14.772705078125
 31
0.0
  0
LINE
  5
C6
330
C2
100
AcDbEntity
  8
0
  6
Continuous
 62
     7
100
AcDbLine
 10
0.0
 20
0.0
 30
0.0
 11
1.186170821996332
 21
2.931381718753896
 31
0.0
  0
LINE
  5
C7
330
C2
100
AcDbEntity
  8
0
  6
Continuous
 62
     7
100
AcDbLine
 10
0.0
 20
0.0
 30
0.0
 11
2.707765688849404
 21
1.633402881805316
 31
0.0
  0
TEXT
  5
C8
330
C2
100
AcDbEntity
  8
0
  6
Continuous
 62
     7
100
AcDbText
 10
16.11736226081848
 20
15.522705078125
 30
0.0
 40
3.0
  1
配管接続口
 41
0.8487395020950888
100
AcDbText
  0
TEXT
  5
C9
330
C2
100
AcDbEntity
  8
0
  6
Continuous
 62
     7
100
AcDbText
 10
16.11736226081848
 20
10.257705078125
 30
0.0
 40
3.0
  1
Ｒｃ１　１／２（４０Ａ）
 41
0.8436974815103043
100
AcDbText
  0
ENDBLK
  5
CA
330
C2
100
AcDbEntity
  8
0
100
AcDbBlockEnd
  0
ENDSEC
  0
SECTION
  2
ENTITIES
  0
LINE
  5
CB
330
22
100
AcDbEntity
  8
0
  6
Continuous
 62
     7
100
AcDbLine
 10
-388.549560546875
 20
241.4052886962891
 30
0.0
 11
-388.549560546875
 21
241.8679351806641
 31
0.0
  0
LINE
  5
CC
330
22
100
AcDbEntity
  8
0
  6
Continuous
 62
     7
100
AcDbLine
 10
-388.549560546875
 20
242.3305816650391
 30
0.0
 11
-388.549560546875
 21
241.8679351806641
 31
0.0
  0
LINE
  5
CD
330
22
100
AcDbEntity
  8
0
  6
Continuous
 62
     7
100
AcDbLine
 10
-388.549560546875
 20
241.4052886962891
 30
0.0
 11
-391.8672485351563
 21
240.9475708007813
 31
0.0
  0
LINE
  5
CE
330
22
100
AcDbEntity
  8
0
  6
Continuous
 62
     7
100
AcDbLine
 10
-392.7876281738281
 20
246.1311950683594
 30
0.0
 11
-393.2506408691406
 21
246.1311950683594
 31
0.0
  0
LINE
  5
CF
330
22
100
AcDbEntity
  8
0
  6
Continuous
 62
     7
100
AcDbLine
 10
-393.2506408691406
 20
246.1311950683594
 30
0.0
 11
-393.7080078125
 21
242.7883148193359
 31
0.0
  0
LINE
  5
D0
330
22
100
AcDbEntity
  8
0
  6
Continuous
 62
     7
100
AcDbLine
 10
-392.3246154785156
 20
246.1311950683594
 30
0.0
 11
-391.8672485351563
 21
242.7883148193359
 31
0.0
  0
LINE
  5
D1
330
22
100
AcDbEntity
  8
0
  6
Continuous
 62
     7
100
AcDbLine
 10
-392.7876281738281
 20
246.1311950683594
 30
0.0
 11
-392.3246154785156
 21
246.1311950683594
 31
0.0
  0
LINE
  5
D2
330
22
100
AcDbEntity
  8
0
  6
Continuous
 62
     7
100
AcDbLine
 10
-392.3246154785156
 20
237.6046905517578
 30
0.0
 11
-391.8672485351563
 21
240.9475708007813
 31
0.0
  0
LINE
  5
D3
330
22
100
AcDbEntity
  8
0
  6
Continuous
 62
     7
100
AcDbLine
 10
-392.7876281738281
 20
237.6046905517578
 30
0.0
 11
-392.3246154785156
 21
237.6046905517578
 31
0.0
  0
LINE
  5
D4
330
22
100
AcDbEntity
  8
0
  6
Continuous
 62
     7
100
AcDbLine
 10
-393.2506408691406
 20
237.6046905517578
 30
0.0
 11
-393.7080078125
 21
240.9475708007813
 31
0.0
  0
LINE
  5
D5
330
22
100
AcDbEntity
  8
0
  6
Continuous
 62
     7
100
AcDbLine
 10
-397.0256958007813
 20
241.4052886962891
 30
0.0
 11
-397.0256958007813
 21
241.8679351806641
 31
0.0
  0
LINE
  5
D6
330
22
100
AcDbEntity
  8
0
  6
Continuous
 62
     7
100
AcDbLine
 10
-397.0256958007813
 20
242.3305816650391
 30
0.0
 11
-393.7080078125
 21
242.7883148193359
 31
0.0
  0
LINE
  5
D7
330
22
100
AcDbEntity
  8
0
  6
Continuous
 62
     7
100
AcDbLine
 10
-392.7876281738281
 20
237.6046905517578
 30
0.0
 11
-393.2506408691406
 21
237.6046905517578
 31
0.0
  0
LINE
  5
D8
330
22
100
AcDbEntity
  8
0
  6
Continuous
 62
     7
100
AcDbLine
 10
-397.0256958007813
 20
241.4052886962891
 30
0.0
 11
-393.7080078125
 21
240.9475708007813
 31
0.0
  0
LINE
  5
D9
330
22
100
AcDbEntity
  8
0
  6
Continuous
 62
     7
100
AcDbLine
 10
-397.0256958007813
 20
242.3305816650391
 30
0.0
 11
-397.0256958007813
 21
241.8679351806641
 31
0.0
  0
LINE
  5
DA
330
22
100
AcDbEntity
  8
0
  6
Continuous
 62
     7
100
AcDbLine
 10
-388.549560546875
 20
242.3305816650391
 30
0.0
 11
-391.8672485351563
 21
242.7883148193359
 31
0.0
  0
LINE
  5
DB
330
22
100
AcDbEntity
  8
0
  6
Continuous
 62
     7
100
AcDbLine
 10
-397.0256958007813
 20
185.330581665039
 30
0.0
 11
-393.7080078125
 21
185.7883148193359
 31
0.0
  0
LINE
  5
DC
330
22
100
AcDbEntity
  8
0
  6
Continuous
 62
     7
100
AcDbLine
 10
-397.0256958007813
 20
184.4052886962891
 30
0.0
 11
-393.7080078125
 21
183.9475708007813
 31
0.0
  0
LINE
  5
DD
330
22
100
AcDbEntity
  8
0
  6
Continuous
 62
     7
100
AcDbLine
 10
-388.549560546875
 20
185.330581665039
 30
0.0
 11
-391.8672485351563
 21
185.7883148193359
 31
0.0
  0
LINE
  5
DE
330
22
100
AcDbEntity
  8
0
  6
Continuous
 62
     7
100
AcDbLine
 10
-388.549560546875
 20
184.4052886962891
 30
0.0
 11
-391.8672485351563
 21
183.9475708007813
 31
0.0
  0
LINE
  5
DF
330
22
100
AcDbEntity
  8
0
  6
Continuous
 62
     7
100
AcDbLine
 10
-392.3246154785156
 20
180.6046905517578
 30
0.0
 11
-391.8672485351563
 21
183.9475708007813
 31
0.0
  0
LINE
  5
E0
330
22
100
AcDbEntity
  8
0
  6
Continuous
 62
     7
100
AcDbLine
 10
-392.3246154785156
 20
189.1311950683594
 30
0.0
 11
-391.8672485351563
 21
185.7883148193359
 31
0.0
  0
LINE
  5
E1
330
22
100
AcDbEntity
  8
0
  6
Continuous
 62
     7
100
AcDbLine
 10
-388.549560546875
 20
184.4052886962891
 30
0.0
 11
-388.549560546875
 21
184.8679351806641
 31
0.0
  0
LINE
  5
E2
330
22
100
AcDbEntity
  8
0
  6
Continuous
 62
     7
100
AcDbLine
 10
-388.549560546875
 20
185.330581665039
 30
0.0
 11
-388.549560546875
 21
184.8679351806641
 31
0.0
  0
LINE
  5
E3
330
22
100
AcDbEntity
  8
0
  6
Continuous
 62
     7
100
AcDbLine
 10
-393.2506408691406
 20
180.6046905517578
 30
0.0
 11
-393.7080078125
 21
183.9475708007813
 31
0.0
  0
LINE
  5
E4
330
22
100
AcDbEntity
  8
0
  6
Continuous
 62
     7
100
AcDbLine
 10
-392.7876281738281
 20
180.6046905517578
 30
0.0
 11
-393.2506408691406
 21
180.6046905517578
 31
0.0
  0
LINE
  5
E5
330
22
100
AcDbEntity
  8
0
  6
Continuous
 62
     7
100
AcDbLine
 10
-392.7876281738281
 20
180.6046905517578
 30
0.0
 11
-392.3246154785156
 21
180.6046905517578
 31
0.0
  0
LINE
  5
E6
330
22
100
AcDbEntity
  8
0
  6
Continuous
 62
     7
100
AcDbLine
 10
-397.0256958007813
 20
184.4052886962891
 30
0.0
 11
-397.0256958007813
 21
184.8679351806641
 31
0.0
  0
LINE
  5
E7
330
22
100
AcDbEntity
  8
0
  6
Continuous
 62
     7
100
AcDbLine
 10
-397.0256958007813
 20
185.330581665039
 30
0.0
 11
-397.0256958007813
 21
184.8679351806641
 31
0.0
  0
LINE
  5
E8
330
22
100
AcDbEntity
  8
0
  6
Continuous
 62
     7
100
AcDbLine
 10
-392.7876281738281
 20
189.1311950683594
 30
0.0
 11
-393.2506408691406
 21
189.1311950683594
 31
0.0
  0
LINE
  5
E9
330
22
100
AcDbEntity
  8
0
  6
Continuous
 62
     7
100
AcDbLine
 10
-392.7876281738281
 20
189.1311950683594
 30
0.0
 11
-392.3246154785156
 21
189.1311950683594
 31
0.0
  0
LINE
  5
EA
330
22
100
AcDbEntity
  8
0
  6
Continuous
 62
     7
100
AcDbLine
 10
-394.1636047363281
 20
208.0060272216797
 30
0.0
 11
-394.1636047363281
 21
196.4564056396484
 31
0.0
  0
LINE
  5
EB
330
22
100
AcDbEntity
  8
0
  6
Continuous
 62
     7
100
AcDbLine
 10
-391.1636047363281
 20
208.0060272216797
 30
0.0
 11
-391.1636047363281
 21
196.4564056396484
 31
0.0
  0
LINE
  5
EC
330
22
100
AcDbEntity
  8
0
  6
CENTER
 62
     7
100
AcDbLine
 10
-301.3410034179688
 20
213.3679351806641
 30
0.0
 11
-484.2342529296875
 21
213.3679351806641
 31
0.0
  0
LINE
  5
ED
330
22
100
AcDbEntity
  8
0
  6
Continuous
 62
     7
100
AcDbLine
 10
-393.2506408691406
 20
189.1311950683594
 30
0.0
 11
-393.7080078125
 21
185.7883148193359
 31
0.0
  0
LINE
  5
EE
330
22
100
AcDbEntity
  8
0
  6
CENTER
 62
     7
100
AcDbLine
 10
-392.6636047363281
 20
302.3051452636719
 30
0.0
 11
-392.6636047363281
 21
122.5951843261719
 31
0.0
  0
LINE
  5
EF
330
22
100
AcDbEntity
  8
0
  6
Continuous
 62
     7
100
AcDbLine
 10
-387.2698364257813
 20
214.7497253417969
 30
0.0
 11
-377.2677307128906
 21
220.5244445800781
 31
0.0
  0
LINE
  5
F0
330
22
100
AcDbEntity
  8
0
  6
Continuous
 62
     7
100
AcDbLine
 10
-398.0569152832032
 20
214.7499847412109
 30
0.0
 11
-408.0593566894531
 21
220.5248870849609
 31
0.0
  0
LINE
  5
F1
330
22
100
AcDbEntity
  8
0
  6
Continuous
 62
     7
100
AcDbLine
 10
-388.7698364257813
 20
217.3477935791016
 30
0.0
 11
-378.7676391601563
 21
223.1225738525391
 31
0.0
  0
LINE
  5
F2
330
22
100
AcDbEntity
  8
0
  6
Continuous
 62
     7
100
AcDbLine
 10
-396.5569152832031
 20
217.3480529785156
 30
0.0
 11
-406.5592651367188
 21
223.1229095458984
 31
0.0
  0
LINE
  5
F3
330
22
100
AcDbEntity
  8
0
  6
Continuous
 62
     7
100
AcDbLine
 10
-154.7929534912109
 20
235.7679443359375
 30
0.0
 11
-184.7929534912109
 21
235.7679443359375
 31
0.0
  0
LINE
  5
F4
330
22
100
AcDbEntity
  8
0
  6
Continuous
 62
     7
100
AcDbLine
 10
-133.2007293701172
 20
236.7239227294922
 30
0.0
 11
-115.7929534912109
 21
237.2679443359375
 31
0.0
  0
LINE
  5
F5
330
22
100
AcDbEntity
  8
0
  6
Continuous
 62
     7
100
AcDbLine
 10
-145.1627960205078
 20
290.3679504394531
 30
0.0
 11
-144.7929534912109
 21
289.9981079101563
 31
0.0
  0
LINE
  5
F6
330
22
100
AcDbEntity
  8
0
  6
Continuous
 62
     7
100
AcDbLine
 10
-145.8698883056641
 20
290.3679504394531
 30
0.0
 11
-144.7929534912109
 21
289.2909851074218
 31
0.0
  0
LINE
  5
F7
330
22
100
AcDbEntity
  8
0
  6
Continuous
 62
     7
100
AcDbLine
 10
-147.7929534912109
 20
290.169677734375
 30
0.0
 11
-144.7929534912109
 21
287.169677734375
 31
0.0
  0
LINE
  5
F8
330
22
100
AcDbEntity
  8
0
  6
Continuous
 62
     7
100
AcDbLine
 10
-147.7929534912109
 20
289.4625549316406
 30
0.0
 11
-144.7929534912109
 21
286.4625549316406
 31
0.0
  0
LINE
  5
F9
330
22
100
AcDbEntity
  8
0
  6
Continuous
 62
     7
100
AcDbLine
 10
-147.7929534912109
 20
287.3412475585938
 30
0.0
 11
-144.7929534912109
 21
284.3412475585938
 31
0.0
  0
LINE
  5
FA
330
22
100
AcDbEntity
  8
0
  6
Continuous
 62
     7
100
AcDbLine
 10
-147.7929534912109
 20
286.6341247558594
 30
0.0
 11
-144.7929534912109
 21
283.6341247558594
 31
0.0
  0
LINE
  5
FB
330
22
100
AcDbEntity
  8
0
  6
Continuous
 62
     7
100
AcDbLine
 10
-146.0489349365234
 20
277.1119384765625
 30
0.0
 11
-144.7929534912109
 21
275.85595703125
 31
0.0
  0
LINE
  5
FC
330
22
100
AcDbEntity
  8
0
  6
Continuous
 62
     7
100
AcDbLine
 10
-146.4024963378906
 20
276.7583923339844
 30
0.0
 11
-144.7929534912109
 21
275.1488647460938
 31
0.0
  0
LINE
  5
FD
330
22
100
AcDbEntity
  8
0
  6
Continuous
 62
     7
100
AcDbLine
 10
-147.4631500244141
 20
275.6977233886719
 30
0.0
 11
-144.7929534912109
 21
273.0275268554688
 31
0.0
  0
LINE
  5
FE
330
22
100
AcDbEntity
  8
0
  6
Continuous
 62
     7
100
AcDbLine
 10
-147.7929534912109
 20
275.3204345703125
 30
0.0
 11
-144.7929534912109
 21
272.3204345703125
 31
0.0
  0
LINE
  5
FF
330
22
100
AcDbEntity
  8
0
  6
Continuous
 62
     7
100
AcDbLine
 10
-147.3773651123047
 20
272.7835083007813
 30
0.0
 11
-144.7929534912109
 21
270.1990966796875
 31
0.0
  0
LINE
  5
100
330
22
100
AcDbEntity
  8
0
  6
Continuous
 62
     7
100
AcDbLine
 10
-147.7309112548828
 20
272.429962158203
 30
0.0
 11
-144.7929534912109
 21
269.4920043945313
 31
0.0
  0
LINE
  5
101
330
22
100
AcDbEntity
  8
0
  6
Continuous
 62
     7
100
AcDbLine
 10
-147.7929534912109
 20
270.3706665039063
 30
0.0
 11
-144.7929534912109
 21
267.3706665039063
 31
0.0
  0
LINE
  5
102
330
22
100
AcDbEntity
  8
0
  6
Continuous
 62
     7
100
AcDbLine
 10
-147.7929534912109
 20
269.66357421875
 30
0.0
 11
-144.7929534912109
 21
266.66357421875
 31
0.0
  0
LINE
  5
103
330
22
100
AcDbEntity
  8
0
  6
Continuous
 62
     7
100
AcDbLine
 10
-147.7929534912109
 20
267.5422668457031
 30
0.0
 11
-144.7929534912109
 21
264.5422668457031
 31
0.0
  0
LINE
  5
104
330
22
100
AcDbEntity
  8
0
  6
Continuous
 62
     7
100
AcDbLine
 10
-147.7929534912109
 20
266.8351440429688
 30
0.0
 11
-144.7929534912109
 21
263.8351440429688
 31
0.0
  0
LINE
  5
105
330
22
100
AcDbEntity
  8
0
  6
Continuous
 62
     7
100
AcDbLine
 10
-147.7929534912109
 20
264.7138366699219
 30
0.0
 11
-144.7929534912109
 21
261.7138366699219
 31
0.0
  0
LINE
  5
106
330
22
100
AcDbEntity
  8
0
  6
Continuous
 62
     7
100
AcDbLine
 10
-147.7929534912109
 20
264.0067138671875
 30
0.0
 11
-144.7929534912109
 21
261.0067138671875
 31
0.0
  0
LINE
  5
107
330
22
100
AcDbEntity
  8
0
  6
Continuous
 62
     7
100
AcDbLine
 10
-147.7929534912109
 20
261.8854064941406
 30
0.0
 11
-144.7929534912109
 21
258.8854064941406
 31
0.0
  0
LINE
  5
108
330
22
100
AcDbEntity
  8
0
  6
Continuous
 62
     7
100
AcDbLine
 10
-147.7929534912109
 20
261.1782836914063
 30
0.0
 11
-144.7929534912109
 21
258.1782836914063
 31
0.0
  0
LINE
  5
109
330
22
100
AcDbEntity
  8
0
  6
Continuous
 62
     7
100
AcDbLine
 10
-147.7929534912109
 20
259.0569763183594
 30
0.0
 11
-144.7929534912109
 21
256.0569763183594
 31
0.0
  0
LINE
  5
10A
330
22
100
AcDbEntity
  8
0
  6
Continuous
 62
     7
100
AcDbLine
 10
-147.7929534912109
 20
258.349853515625
 30
0.0
 11
-144.7929534912109
 21
255.3498687744141
 31
0.0
  0
LINE
  5
10B
330
22
100
AcDbEntity
  8
0
  6
Continuous
 62
     7
100
AcDbLine
 10
-147.6126403808594
 20
256.0482482910156
 30
0.0
 11
-144.7929534912109
 21
253.2285461425781
 31
0.0
  0
LINE
  5
10C
330
22
100
AcDbEntity
  8
0
  6
Continuous
 62
     7
100
AcDbLine
 10
-147.7929534912109
 20
255.5214385986328
 30
0.0
 11
-144.7929534912109
 21
252.5214385986328
 31
0.0
  0
LINE
  5
10D
330
22
100
AcDbEntity
  8
0
  6
Continuous
 62
     7
100
AcDbLine
 10
-147.7929534912109
 20
253.4001159667969
 30
0.0
 11
-144.7929534912109
 21
250.4001159667969
 31
0.0
  0
LINE
  5
10E
330
22
100
AcDbEntity
  8
0
  6
Continuous
 62
     7
100
AcDbLine
 10
-147.7929534912109
 20
252.6930084228516
 30
0.0
 11
-144.7929534912109
 21
249.6930084228516
 31
0.0
  0
LINE
  5
10F
330
22
100
AcDbEntity
  8
0
  6
Continuous
 62
     7
100
AcDbLine
 10
-147.7929534912109
 20
250.5716857910156
 30
0.0
 11
-144.7929534912109
 21
247.5716857910156
 31
0.0
  0
LINE
  5
110
330
22
100
AcDbEntity
  8
0
  6
Continuous
 62
     7
100
AcDbLine
 10
-147.7929534912109
 20
249.8645782470703
 30
0.0
 11
-144.7929534912109
 21
246.8645782470703
 31
0.0
  0
LINE
  5
111
330
22
100
AcDbEntity
  8
0
  6
Continuous
 62
     7
100
AcDbLine
 10
-147.7929534912109
 20
247.7432708740234
 30
0.0
 11
-144.7929534912109
 21
244.7432708740234
 31
0.0
  0
LINE
  5
112
330
22
100
AcDbEntity
  8
0
  6
Continuous
 62
     7
100
AcDbLine
 10
-147.7929534912109
 20
247.0361633300781
 30
0.0
 11
-144.7929534912109
 21
244.0361633300781
 31
0.0
  0
LINE
  5
113
330
22
100
AcDbEntity
  8
0
  6
Continuous
 62
     7
100
AcDbLine
 10
-147.7929534912109
 20
244.9148406982422
 30
0.0
 11
-144.7929534912109
 21
241.9148406982422
 31
0.0
  0
LINE
  5
114
330
22
100
AcDbEntity
  8
0
  6
Continuous
 62
     7
100
AcDbLine
 10
-147.7929534912109
 20
244.2077331542969
 30
0.0
 11
-144.9531555175781
 21
241.3679351806641
 31
0.0
  0
LINE
  5
115
330
22
100
AcDbEntity
  8
0
  6
Continuous
 62
     7
100
AcDbLine
 10
-147.7929534912109
 20
242.0864105224609
 30
0.0
 11
-147.0744781494141
 21
241.3679351806641
 31
0.0
  0
LINE
  5
116
330
22
100
AcDbEntity
  8
0
  6
Continuous
 62
     7
100
AcDbLine
 10
-147.7929534912109
 20
241.3793029785156
 30
0.0
 11
-147.7815856933594
 21
241.3679351806641
 31
0.0
  0
LINE
  5
117
330
22
100
AcDbEntity
  8
0
  6
Continuous
 62
     7
100
AcDbLine
 10
-169.7929534912109
 20
239.8345031738281
 30
0.0
 11
-168.259521484375
 21
241.3679351806641
 31
0.0
  0
LINE
  5
118
330
22
100
AcDbEntity
  8
0
  6
Continuous
 62
     7
100
AcDbLine
 10
-169.5310974121094
 20
237.2679443359375
 30
0.0
 11
-165.4310913085938
 21
241.3679351806641
 31
0.0
  0
LINE
  5
119
330
22
100
AcDbEntity
  8
0
  6
Continuous
 62
     7
100
AcDbLine
 10
-166.7026672363281
 20
237.2679443359375
 30
0.0
 11
-162.6026611328125
 21
241.3679351806641
 31
0.0
  0
LINE
  5
11A
330
22
100
AcDbEntity
  8
0
  6
Continuous
 62
     7
100
AcDbLine
 10
-163.8742370605469
 20
237.2679443359375
 30
0.0
 11
-159.7742462158203
 21
241.3679351806641
 31
0.0
  0
LINE
  5
11B
330
22
100
AcDbEntity
  8
0
  6
Continuous
 62
     7
100
AcDbLine
 10
-161.0458068847656
 20
237.2679443359375
 30
0.0
 11
-156.9458160400391
 21
241.3679351806641
 31
0.0
  0
LINE
  5
11C
330
22
100
AcDbEntity
  8
0
  6
Continuous
 62
     7
100
AcDbLine
 10
-158.2173919677734
 20
237.2679443359375
 30
0.0
 11
-154.1173858642578
 21
241.3679351806641
 31
0.0
  0
LINE
  5
11D
330
22
100
AcDbEntity
  8
0
  6
Continuous
 62
     7
100
AcDbLine
 10
-155.3889617919922
 20
237.2679443359375
 30
0.0
 11
-151.2889556884766
 21
241.3679351806641
 31
0.0
  0
LINE
  5
11E
330
22
100
AcDbEntity
  8
0
  6
Continuous
 62
     7
100
AcDbLine
 10
-152.5605316162109
 20
237.2679443359375
 30
0.0
 11
-148.4605255126953
 21
241.3679351806641
 31
0.0
  0
LINE
  5
11F
330
22
100
AcDbEntity
  8
0
  6
Continuous
 62
     7
100
AcDbLine
 10
-149.7321014404297
 20
237.2679443359375
 30
0.0
 11
-145.6321105957031
 21
241.3679351806641
 31
0.0
  0
LINE
  5
120
330
22
100
AcDbEntity
  8
0
  6
Continuous
 62
     7
100
AcDbLine
 10
-146.9036712646484
 20
237.2679443359375
 30
0.0
 11
-142.8036804199219
 21
241.3679351806641
 31
0.0
  0
LINE
  5
121
330
22
100
AcDbEntity
  8
0
  6
Continuous
 62
     7
100
AcDbLine
 10
-145.1840972900391
 20
236.1590881347656
 30
0.0
 11
-139.9752502441406
 21
241.3679351806641
 31
0.0
  0
LINE
  5
122
330
22
100
AcDbEntity
  8
0
  6
Continuous
 62
     7
100
AcDbLine
 10
-143.3257141113281
 20
235.1890563964844
 30
0.0
 11
-137.1468200683594
 21
241.3679351806641
 31
0.0
  0
LINE
  5
123
330
22
100
AcDbEntity
  8
0
  6
Continuous
 62
     7
100
AcDbLine
 10
-140.4972839355469
 20
235.1890563964844
 30
0.0
 11
-134.3183898925781
 21
241.3679351806641
 31
0.0
  0
LINE
  5
124
330
22
100
AcDbEntity
  8
0
  6
Continuous
 62
     7
100
AcDbLine
 10
-137.6688537597656
 20
235.1890563964844
 30
0.0
 11
-131.4899749755859
 21
241.3679351806641
 31
0.0
  0
LINE
  5
125
330
22
100
AcDbEntity
  8
0
  6
Continuous
 62
     7
100
AcDbLine
 10
-134.8404235839844
 20
235.1890563964844
 30
0.0
 11
-128.6615447998047
 21
241.3679351806641
 31
0.0
  0
LINE
  5
126
330
22
100
AcDbEntity
  8
0
  6
Continuous
 62
     7
100
AcDbLine
 10
-130.3892669677734
 20
236.8117828369141
 30
0.0
 11
-125.8331146240234
 21
241.3679351806641
 31
0.0
  0
LINE
  5
127
330
22
100
AcDbEntity
  8
0
  6
Continuous
 62
     7
100
AcDbLine
 10
-127.469596862793
 20
236.9030303955078
 30
0.0
 11
-123.0046844482422
 21
241.3679351806641
 31
0.0
  0
LINE
  5
128
330
22
100
AcDbEntity
  8
0
  6
Continuous
 62
     7
100
AcDbLine
 10
-124.5499267578125
 20
236.9942626953125
 30
0.0
 11
-120.1762619018555
 21
241.3679351806641
 31
0.0
  0
LINE
  5
129
330
22
100
AcDbEntity
  8
0
  6
Continuous
 62
     7
100
AcDbLine
 10
-121.630256652832
 20
237.0855102539064
 30
0.0
 11
-117.3478317260742
 21
241.3679351806641
 31
0.0
  0
LINE
  5
12A
330
22
100
AcDbEntity
  8
0
  6
Continuous
 62
     7
100
AcDbLine
 10
-118.7105865478516
 20
237.1767578125
 30
0.0
 11
-115.7929534912109
 21
240.0943908691406
 31
0.0
  0
LINE
  5
12B
330
22
100
AcDbEntity
  8
0
  6
Continuous
 62
     7
100
AcDbLine
 10
-147.7929534912109
 20
272.3679504394531
 30
0.0
 11
-146.7929534912109
 21
273.3679504394531
 31
0.0
  0
LINE
  5
12C
330
22
100
AcDbEntity
  8
0
  6
Continuous
 62
     7
100
AcDbLine
 10
-169.7929534912109
 20
235.7679443359375
 30
0.0
 11
-144.7929534912109
 21
235.7679443359375
 31
0.0
  0
LINE
  5
12D
330
22
100
AcDbEntity
  8
0
  6
Continuous
 62
     7
100
AcDbLine
 10
-144.7929534912109
 20
235.7679443359375
 30
0.0
 11
-146.2929534912109
 21
237.2679443359375
 31
0.0
  0
LINE
  5
12E
330
22
100
AcDbEntity
  8
0
  6
Continuous
 62
     7
100
AcDbLine
 10
-169.7929534912109
 20
241.3679351806641
 30
0.0
 11
-115.7929534912109
 21
241.3679351806641
 31
0.0
  0
LINE
  5
12F
330
22
100
AcDbEntity
  8
0
  6
Continuous
 62
     7
100
AcDbLine
 10
-169.7929534912109
 20
237.2679443359375
 30
0.0
 11
-169.7929534912109
 21
241.3679351806641
 31
0.0
  0
LINE
  5
130
330
22
100
AcDbEntity
  8
0
  6
CENTER
 62
     7
100
AcDbLine
 10
-148.9752197265625
 20
280.3679504394531
 30
0.0
 11
-143.5455169677734
 21
280.3679504394531
 31
0.0
  0
LINE
  5
131
330
22
100
AcDbEntity
  8
0
  6
Continuous
 62
     7
100
AcDbLine
 10
-147.7929534912109
 20
275.3679504394531
 30
0.0
 11
-145.5429534912109
 21
277.617950439453
 31
0.0
  0
LINE
  5
132
330
22
100
AcDbEntity
  8
0
  6
Continuous
 62
     7
100
AcDbLine
 10
-147.7929534912109
 20
285.3679504394531
 30
0.0
 11
-145.5429534912109
 21
283.1179504394531
 31
0.0
  0
LINE
  5
133
330
22
100
AcDbEntity
  8
0
  6
Continuous
 62
     7
100
AcDbLine
 10
-144.7929534912109
 20
277.617950439453
 30
0.0
 11
-145.5429534912109
 21
277.617950439453
 31
0.0
  0
LINE
  5
134
330
22
100
AcDbEntity
  8
0
  6
Continuous
 62
     7
100
AcDbLine
 10
-144.7929534912109
 20
283.1179504394531
 30
0.0
 11
-145.5429534912109
 21
283.1179504394531
 31
0.0
  0
LINE
  5
135
330
22
100
AcDbEntity
  8
0
  6
Continuous
 62
     7
100
AcDbLine
 10
-144.7929534912109
 20
241.3679351806641
 30
0.0
 11
-144.7929534912109
 21
290.3679504394531
 31
0.0
  0
LINE
  5
136
330
22
100
AcDbEntity
  8
0
  6
Continuous
 62
     7
100
AcDbLine
 10
-147.7929534912109
 20
241.3679351806641
 30
0.0
 11
-147.7929534912109
 21
290.3679504394531
 31
0.0
  0
LINE
  5
137
330
22
100
AcDbEntity
  8
0
  6
Continuous
 62
     7
100
AcDbLine
 10
-134.2929534912109
 20
235.1890563964844
 30
0.0
 11
-117.3420944213867
 21
235.7187957763672
 31
0.0
  0
LINE
  5
138
330
22
100
AcDbEntity
  8
0
  6
Continuous
 62
     7
100
AcDbLine
 10
-169.7929534912109
 20
237.2679443359375
 30
0.0
 11
-146.2929534912109
 21
237.2679443359375
 31
0.0
  0
LINE
  5
139
330
22
100
AcDbEntity
  8
0
  6
Continuous
 62
     7
100
AcDbLine
 10
-147.7929534912109
 20
290.3679504394531
 30
0.0
 11
-147.7929534912109
 21
266.1267700195313
 31
0.0
  0
LINE
  5
13A
330
22
100
AcDbEntity
  8
0
  6
Continuous
 62
     7
100
AcDbLine
 10
-156.2929534912109
 20
237.2679443359375
 30
0.0
 11
-186.2929534912109
 21
237.2679443359375
 31
0.0
  0
LINE
  5
13B
330
22
100
AcDbEntity
  8
0
  6
Continuous
 62
     7
100
AcDbLine
 10
-154.7929534912109
 20
235.7679443359375
 30
0.0
 11
-156.2929534912109
 21
237.2679443359375
 31
0.0
  0
LINE
  5
13C
330
22
100
AcDbEntity
  8
0
  6
Continuous
 62
     7
100
AcDbLine
 10
-184.7929534912109
 20
235.7679443359375
 30
0.0
 11
-186.3929443359375
 21
237.3679351806641
 31
0.0
  0
LINE
  5
13D
330
22
100
AcDbEntity
  8
0
  6
Continuous
 62
     7
100
AcDbLine
 10
-204.7929534912109
 20
263.8679504394531
 30
0.0
 11
-209.4651336669922
 21
263.8679504394531
 31
0.0
  0
LINE
  5
13E
330
22
100
AcDbEntity
  8
0
  6
Continuous
 62
     7
100
AcDbLine
 10
-205.6020202636719
 20
242.8362884521484
 30
0.0
 11
-206.4320831298828
 21
243.8679351806641
 31
0.0
  0
LINE
  5
13F
330
22
100
AcDbEntity
  8
0
  6
Continuous
 62
     7
100
AcDbLine
 10
-205.6020202636719
 20
242.8362884521484
 30
0.0
 11
-205.6020202636719
 21
240.8679351806641
 31
0.0
  0
LINE
  5
140
330
22
100
AcDbEntity
  8
0
  6
Continuous
 62
     7
100
AcDbLine
 10
-205.6020202636719
 20
240.8679351806641
 30
0.0
 11
-206.6020202636719
 21
239.8679351806641
 31
0.0
  0
LINE
  5
141
330
22
100
AcDbEntity
  8
0
  6
Continuous
 62
     7
100
AcDbLine
 10
-204.7929534912109
 20
235.2179412841797
 30
0.0
 11
-205.9429473876953
 21
236.3679351806641
 31
0.0
  0
LINE
  5
142
330
22
100
AcDbEntity
  8
0
  6
Continuous
 62
     7
100
AcDbLine
 10
-186.3929443359375
 20
237.3679351806641
 30
0.0
 11
-204.7929534912109
 21
237.3679351806641
 31
0.0
  0
LINE
  5
143
330
22
100
AcDbEntity
  8
0
  6
Continuous
 62
     7
100
AcDbLine
 10
-211.7929534912109
 20
235.2179412841797
 30
0.0
 11
-210.7018585205078
 21
236.3679351806641
 31
0.0
  0
LINE
  5
144
330
22
100
AcDbEntity
  8
0
  6
Continuous
 62
     7
100
AcDbLine
 10
-214.7100219726564
 20
252.5586700439453
 30
0.0
 11
-209.9236602783203
 21
263.5672912597656
 31
0.0
  0
LINE
  5
145
330
22
100
AcDbEntity
  8
0
  6
Continuous
 62
     7
100
AcDbLine
 10
-214.7929534912109
 20
236.8679351806641
 30
0.0
 11
-211.7929534912109
 21
239.8679351806641
 31
0.0
  0
LINE
  5
146
330
22
100
AcDbEntity
  8
0
  6
Continuous
 62
     7
100
AcDbLine
 10
-214.7929534912109
 20
246.8679351806641
 30
0.0
 11
-214.7929534912109
 21
236.8679351806641
 31
0.0
  0
LINE
  5
147
330
22
100
AcDbEntity
  8
0
  6
Continuous
 62
     7
100
AcDbLine
 10
-214.7929534912109
 20
246.8679351806641
 30
0.0
 11
-211.7929534912109
 21
243.8679351806641
 31
0.0
  0
LINE
  5
148
330
22
100
AcDbEntity
  8
0
  6
Continuous
 62
     7
100
AcDbLine
 10
-211.7929534912109
 20
249.3679351806641
 30
0.0
 11
-211.7929534912109
 21
243.8679351806641
 31
0.0
  0
LINE
  5
149
330
22
100
AcDbEntity
  8
0
  6
Continuous
 62
     7
100
AcDbLine
 10
-214.7929534912109
 20
249.3679351806641
 30
0.0
 11
-211.7929534912109
 21
249.3679351806641
 31
0.0
  0
LINE
  5
14A
330
22
100
AcDbEntity
  8
0
  6
Continuous
 62
     7
100
AcDbLine
 10
-214.7929534912109
 20
248.8679351806641
 30
0.0
 11
-211.7929534912109
 21
248.8679351806641
 31
0.0
  0
LINE
  5
14B
330
22
100
AcDbEntity
  8
0
  6
Continuous
 62
     7
100
AcDbLine
 10
-134.2929534912109
 20
235.1890563964844
 30
0.0
 11
-133.2007293701172
 21
236.7239227294922
 31
0.0
  0
LINE
  5
14C
330
22
100
AcDbEntity
  8
0
  6
Continuous
 62
     7
100
AcDbLine
 10
-134.2929534912109
 20
235.1890563964844
 30
0.0
 11
-144.7929534912109
 21
235.1890563964844
 31
0.0
  0
LINE
  5
14D
330
22
100
AcDbEntity
  8
0
  6
Continuous
 62
     7
100
AcDbLine
 10
-144.7929534912109
 20
235.1890563964844
 30
0.0
 11
-144.7929534912109
 21
235.7679443359375
 31
0.0
  0
LINE
  5
14E
330
22
100
AcDbEntity
  8
0
  6
Continuous
 62
     7
100
AcDbLine
 10
-115.7929534912109
 20
237.2679443359375
 30
0.0
 11
-117.3420944213867
 21
235.7187957763672
 31
0.0
  0
LINE
  5
14F
330
22
100
AcDbEntity
  8
0
  6
Continuous
 62
     7
100
AcDbLine
 10
-147.7929534912109
 20
290.3679504394531
 30
0.0
 11
-144.7929534912109
 21
290.3679504394531
 31
0.0
  0
LINE
  5
150
330
22
100
AcDbEntity
  8
0
  6
Continuous
 62
     7
100
AcDbLine
 10
-147.7929534912109
 20
274.3679504394531
 30
0.0
 11
-146.7929534912109
 21
273.3679504394531
 31
0.0
  0
LINE
  5
151
330
22
100
AcDbEntity
  8
0
  6
Continuous
 62
     7
100
AcDbLine
 10
-147.7929534912109
 20
257.8679504394531
 30
0.0
 11
-146.7929534912109
 21
256.867950439453
 31
0.0
  0
LINE
  5
152
330
22
100
AcDbEntity
  8
0
  6
Continuous
 62
     7
100
AcDbLine
 10
-147.7929534912109
 20
255.8679351806641
 30
0.0
 11
-146.7929534912109
 21
256.867950439453
 31
0.0
  0
LINE
  5
153
330
22
100
AcDbEntity
  8
0
  6
Continuous
 62
     7
100
AcDbLine
 10
-209.2929534912109
 20
213.3679351806641
 30
0.0
 11
-209.2929534912109
 21
165.0889739990234
 31
0.0
  0
LINE
  5
154
330
22
100
AcDbEntity
  8
0
  6
Continuous
 62
     7
100
AcDbLine
 10
-144.7929534912109
 20
136.3679351806641
 30
0.0
 11
-144.7929534912109
 21
213.3679351806641
 31
0.0
  0
LINE
  5
155
330
22
100
AcDbEntity
  8
0
  6
Continuous
 62
     7
100
AcDbLine
 10
-147.7929534912109
 20
136.3679351806641
 30
0.0
 11
-147.7929534912109
 21
213.3679351806641
 31
0.0
  0
LINE
  5
156
330
22
100
AcDbEntity
  8
0
  6
Continuous
 62
     7
100
AcDbLine
 10
-184.7929534912109
 20
190.9679412841797
 30
0.0
 11
-184.7929534912109
 21
213.3679351806641
 31
0.0
  0
LINE
  5
157
330
22
100
AcDbEntity
  8
0
  6
Continuous
 62
     7
100
AcDbLine
 10
-209.4651336669922
 20
162.8679351806641
 30
0.0
 11
-204.7929534912109
 21
162.8679351806641
 31
0.0
  0
LINE
  5
158
330
22
100
AcDbEntity
  8
0
  6
Continuous
 62
     7
100
AcDbLine
 10
-186.3929443359375
 20
189.3679351806641
 30
0.0
 11
-204.7929534912109
 21
189.3679351806641
 31
0.0
  0
LINE
  5
159
330
22
100
AcDbEntity
  8
0
  6
Continuous
 62
     7
100
AcDbLine
 10
-214.7100219726564
 20
174.1772003173828
 30
0.0
 11
-209.9236602783203
 21
163.1685791015625
 31
0.0
  0
LINE
  5
15A
330
22
100
AcDbEntity
  8
0
  6
Continuous
 62
     7
100
AcDbLine
 10
-169.7929534912109
 20
185.3679351806641
 30
0.0
 11
-147.7929534912109
 21
185.3679351806641
 31
0.0
  0
LINE
  5
15B
330
22
100
AcDbEntity
  8
0
  6
Continuous
 62
     7
100
AcDbLine
 10
-147.7929534912109
 20
185.3679351806641
 30
0.0
 11
-169.7929534912109
 21
185.3679351806641
 31
0.0
  0
LINE
  5
15C
330
22
100
AcDbEntity
  8
0
  6
Continuous
 62
     7
100
AcDbLine
 10
-115.7929534912109
 20
185.3679351806641
 30
0.0
 11
-144.7929534912109
 21
185.3679351806641
 31
0.0
  0
LINE
  5
15D
330
22
100
AcDbEntity
  8
0
  6
Continuous
 62
     7
100
AcDbLine
 10
-147.7929534912109
 20
136.3679351806641
 30
0.0
 11
-144.7929534912109
 21
136.3679351806641
 31
0.0
  0
LINE
  5
15E
330
22
100
AcDbEntity
  8
0
  6
Continuous
 62
     7
100
AcDbLine
 10
-169.7929534912109
 20
190.9679412841797
 30
0.0
 11
-184.7929534912109
 21
190.9679412841797
 31
0.0
  0
LINE
  5
15F
330
22
100
AcDbEntity
  8
0
  6
Continuous
 62
     7
100
AcDbLine
 10
-169.7929534912109
 20
189.4679412841797
 30
0.0
 11
-186.2929534912109
 21
189.4679412841797
 31
0.0
  0
LINE
  5
160
330
22
100
AcDbEntity
  8
0
  6
Continuous
 62
     7
100
AcDbLine
 10
-184.7929534912109
 20
190.9679412841797
 30
0.0
 11
-186.3929443359375
 21
189.3679351806641
 31
0.0
  0
LINE
  5
161
330
22
100
AcDbEntity
  8
0
  6
Continuous
 62
     7
100
AcDbLine
 10
-204.7929534912109
 20
235.2179412841797
 30
0.0
 11
-204.7929534912109
 21
263.8679504394531
 31
0.0
  0
LINE
  5
162
330
22
100
AcDbEntity
  8
0
  6
Continuous
 62
     7
100
AcDbLine
 10
-211.7929534912109
 20
243.8679351806641
 30
0.0
 11
-204.8231506347656
 21
243.8679351806641
 31
0.0
  0
LINE
  5
163
330
22
100
AcDbEntity
  8
0
  6
Continuous
 62
     7
100
AcDbLine
 10
-211.7929534912109
 20
239.8679351806641
 30
0.0
 11
-204.8231506347656
 21
239.8679351806641
 31
0.0
  0
LINE
  5
164
330
22
100
AcDbEntity
  8
0
  6
Continuous
 62
     7
100
AcDbLine
 10
-204.7929534912109
 20
236.3679351806641
 30
0.0
 11
-211.7929534912109
 21
236.3679351806641
 31
0.0
  0
LINE
  5
165
330
22
100
AcDbEntity
  8
0
  6
Continuous
 62
     7
100
AcDbLine
 10
-204.7929534912109
 20
235.2179412841797
 30
0.0
 11
-211.7929534912109
 21
235.2179412841797
 31
0.0
  0
LINE
  5
166
330
22
100
AcDbEntity
  8
0
  6
Continuous
 62
     7
100
AcDbLine
 10
-154.7929534912109
 20
233.3679351806641
 30
0.0
 11
-211.7929534912109
 21
233.3679351806641
 31
0.0
  0
LINE
  5
167
330
22
100
AcDbEntity
  8
0
  6
Continuous
 62
     7
100
AcDbLine
 10
-211.7929534912109
 20
234.4524383544922
 30
0.0
 11
-211.0274505615234
 21
235.2179412841797
 31
0.0
  0
LINE
  5
168
330
22
100
AcDbEntity
  8
0
  6
Continuous
 62
     7
100
AcDbLine
 10
-204.7929534912109
 20
237.2097930908203
 30
0.0
 11
-204.6348114013672
 21
237.3679351806641
 31
0.0
  0
LINE
  5
169
330
22
100
AcDbEntity
  8
0
  6
Continuous
 62
     7
100
AcDbLine
 10
-208.6348114013672
 20
233.3679351806641
 30
0.0
 11
-206.7848052978516
 21
235.2179412841797
 31
0.0
  0
LINE
  5
16A
330
22
100
AcDbEntity
  8
0
  6
Continuous
 62
     7
100
AcDbLine
 10
-204.3921661376953
 20
233.3679351806641
 30
0.0
 11
-200.3921661376953
 21
237.3679351806641
 31
0.0
  0
LINE
  5
16B
330
22
100
AcDbEntity
  8
0
  6
Continuous
 62
     7
100
AcDbLine
 10
-200.1495361328125
 20
233.3679351806641
 30
0.0
 11
-196.1495361328125
 21
237.3679351806641
 31
0.0
  0
LINE
  5
16C
330
22
100
AcDbEntity
  8
0
  6
Continuous
 62
     7
100
AcDbLine
 10
-195.9068908691406
 20
233.3679351806641
 30
0.0
 11
-191.9068908691406
 21
237.3679351806641
 31
0.0
  0
LINE
  5
16D
330
22
100
AcDbEntity
  8
0
  6
Continuous
 62
     7
100
AcDbLine
 10
-191.6642456054688
 20
233.3679351806641
 30
0.0
 11
-187.6642456054688
 21
237.3679351806641
 31
0.0
  0
LINE
  5
16E
330
22
100
AcDbEntity
  8
0
  6
Continuous
 62
     7
100
AcDbLine
 10
-187.4216156005859
 20
233.3679351806641
 30
0.0
 11
-184.9072723388672
 21
235.8822631835938
 31
0.0
  0
LINE
  5
16F
330
22
100
AcDbEntity
  8
0
  6
Continuous
 62
     7
100
AcDbLine
 10
-183.1789703369141
 20
233.3679351806641
 30
0.0
 11
-180.7789611816406
 21
235.7679443359375
 31
0.0
  0
LINE
  5
170
330
22
100
AcDbEntity
  8
0
  6
Continuous
 62
     7
100
AcDbLine
 10
-178.9363250732422
 20
233.3679351806641
 30
0.0
 11
-176.5363311767578
 21
235.7679443359375
 31
0.0
  0
LINE
  5
171
330
22
100
AcDbEntity
  8
0
  6
Continuous
 62
     7
100
AcDbLine
 10
-174.6936798095703
 20
233.3679351806641
 30
0.0
 11
-172.2936859130859
 21
235.7679443359375
 31
0.0
  0
LINE
  5
172
330
22
100
AcDbEntity
  8
0
  6
Continuous
 62
     7
100
AcDbLine
 10
-170.4510498046875
 20
233.3679351806641
 30
0.0
 11
-168.0510406494141
 21
235.7679443359375
 31
0.0
  0
LINE
  5
173
330
22
100
AcDbEntity
  8
0
  6
Continuous
 62
     7
100
AcDbLine
 10
-166.2084045410156
 20
233.3679351806641
 30
0.0
 11
-163.8084106445313
 21
235.7679443359375
 31
0.0
  0
LINE
  5
174
330
22
100
AcDbEntity
  8
0
  6
Continuous
 62
     7
100
AcDbLine
 10
-161.9657592773438
 20
233.3679351806641
 30
0.0
 11
-159.5657653808594
 21
235.7679443359375
 31
0.0
  0
LINE
  5
175
330
22
100
AcDbEntity
  8
0
  6
Continuous
 62
     7
100
AcDbLine
 10
-157.7231292724609
 20
233.3679351806641
 30
0.0
 11
-155.3231201171875
 21
235.7679443359375
 31
0.0
  0
LINE
  5
176
330
22
100
AcDbEntity
  8
0
  6
Continuous
 62
     7
100
AcDbLine
 10
-210.7561340332031
 20
233.3679351806641
 30
0.0
 11
-208.9061279296875
 21
235.2179412841797
 31
0.0
  0
LINE
  5
177
330
22
100
AcDbEntity
  8
0
  6
Continuous
 62
     7
100
AcDbLine
 10
-206.5134887695313
 20
233.3679351806641
 30
0.0
 11
-202.5134887695313
 21
237.3679351806641
 31
0.0
  0
LINE
  5
178
330
22
100
AcDbEntity
  8
0
  6
Continuous
 62
     7
100
AcDbLine
 10
-202.2708587646484
 20
233.3679351806641
 30
0.0
 11
-198.2708587646484
 21
237.3679351806641
 31
0.0
  0
LINE
  5
179
330
22
100
AcDbEntity
  8
0
  6
Continuous
 62
     7
100
AcDbLine
 10
-198.0282135009766
 20
233.3679351806641
 30
0.0
 11
-194.0282135009766
 21
237.3679351806641
 31
0.0
  0
LINE
  5
17A
330
22
100
AcDbEntity
  8
0
  6
Continuous
 62
     7
100
AcDbLine
 10
-193.7855682373047
 20
233.3679351806641
 30
0.0
 11
-189.7855682373046
 21
237.3679351806641
 31
0.0
  0
LINE
  5
17B
330
22
100
AcDbEntity
  8
0
  6
Continuous
 62
     7
100
AcDbLine
 10
-189.5429229736328
 20
233.3679351806641
 30
0.0
 11
-185.9679412841797
 21
236.9429321289064
 31
0.0
  0
LINE
  5
17C
330
22
100
AcDbEntity
  8
0
  6
Continuous
 62
     7
100
AcDbLine
 10
-185.30029296875
 20
233.3679351806641
 30
0.0
 11
-182.9002838134766
 21
235.7679443359375
 31
0.0
  0
LINE
  5
17D
330
22
100
AcDbEntity
  8
0
  6
Continuous
 62
     7
100
AcDbLine
 10
-181.0576477050781
 20
233.3679351806641
 30
0.0
 11
-178.6576538085938
 21
235.7679443359375
 31
0.0
  0
LINE
  5
17E
330
22
100
AcDbEntity
  8
0
  6
Continuous
 62
     7
100
AcDbLine
 10
-176.8150024414063
 20
233.3679351806641
 30
0.0
 11
-174.4150085449219
 21
235.7679443359375
 31
0.0
  0
LINE
  5
17F
330
22
100
AcDbEntity
  8
0
  6
Continuous
 62
     7
100
AcDbLine
 10
-172.5723724365234
 20
233.3679351806641
 30
0.0
 11
-170.17236328125
 21
235.7679443359375
 31
0.0
  0
LINE
  5
180
330
22
100
AcDbEntity
  8
0
  6
Continuous
 62
     7
100
AcDbLine
 10
-168.3297271728516
 20
233.3679351806641
 30
0.0
 11
-165.9297332763672
 21
235.7679443359375
 31
0.0
  0
LINE
  5
181
330
22
100
AcDbEntity
  8
0
  6
Continuous
 62
     7
100
AcDbLine
 10
-164.0870819091797
 20
233.3679351806641
 30
0.0
 11
-161.6870880126953
 21
235.7679443359375
 31
0.0
  0
LINE
  5
182
330
22
100
AcDbEntity
  8
0
  6
Continuous
 62
     7
100
AcDbLine
 10
-159.8444519042969
 20
233.3679351806641
 30
0.0
 11
-157.4444427490234
 21
235.7679443359375
 31
0.0
  0
LINE
  5
183
330
22
100
AcDbEntity
  8
0
  6
Continuous
 62
     7
100
AcDbLine
 10
-155.601806640625
 20
233.3679351806641
 30
0.0
 11
-154.7929534912109
 21
234.1767883300781
 31
0.0
  0
LINE
  5
184
330
22
100
AcDbEntity
  8
0
  6
Continuous
 62
     7
100
AcDbLine
 10
-205.3409729003906
 20
263.8679504394531
 30
0.0
 11
-204.7929534912109
 21
263.3199157714845
 31
0.0
  0
LINE
  5
185
330
22
100
AcDbEntity
  8
0
  6
Continuous
 62
     7
100
AcDbLine
 10
-207.4622955322266
 20
263.8679504394531
 30
0.0
 11
-204.7929534912109
 21
261.1985778808594
 31
0.0
  0
LINE
  5
186
330
22
100
AcDbEntity
  8
0
  6
Continuous
 62
     7
100
AcDbLine
 10
-208.1694030761719
 20
263.8679504394531
 30
0.0
 11
-204.7929534912109
 21
260.491485595703
 31
0.0
  0
LINE
  5
187
330
22
100
AcDbEntity
  8
0
  6
Continuous
 62
     7
100
AcDbLine
 10
-209.9437866210938
 20
263.52099609375
 30
0.0
 11
-204.7929534912109
 21
258.3701477050781
 31
0.0
  0
LINE
  5
188
330
22
100
AcDbEntity
  8
0
  6
Continuous
 62
     7
100
AcDbLine
 10
-210.1580657958984
 20
263.0281677246094
 30
0.0
 11
-204.7929534912109
 21
257.6630554199219
 31
0.0
  0
LINE
  5
189
330
22
100
AcDbEntity
  8
0
  6
Continuous
 62
     7
100
AcDbLine
 10
-210.8008880615234
 20
261.5496826171875
 30
0.0
 11
-204.7929534912109
 21
255.5417327880859
 31
0.0
  0
LINE
  5
18A
330
22
100
AcDbEntity
  8
0
  6
Continuous
 62
     7
100
AcDbLine
 10
-211.0151672363281
 20
261.0568542480469
 30
0.0
 11
-204.7929534912109
 21
254.8346252441406
 31
0.0
  0
LINE
  5
18B
330
22
100
AcDbEntity
  8
0
  6
Continuous
 62
     7
100
AcDbLine
 10
-211.6579895019531
 20
259.5783386230469
 30
0.0
 11
-204.7929534912109
 21
252.7133026123047
 31
0.0
  0
LINE
  5
18C
330
22
100
AcDbEntity
  8
0
  6
Continuous
 62
     7
100
AcDbLine
 10
-211.8722686767578
 20
259.0855102539063
 30
0.0
 11
-204.7929534912109
 21
252.0061950683594
 31
0.0
  0
LINE
  5
18D
330
22
100
AcDbEntity
  8
0
  6
Continuous
 62
     7
100
AcDbLine
 10
-212.5150909423828
 20
257.6070251464845
 30
0.0
 11
-204.7929534912109
 21
249.8848724365234
 31
0.0
  0
LINE
  5
18E
330
22
100
AcDbEntity
  8
0
  6
Continuous
 62
     7
100
AcDbLine
 10
-212.7293701171875
 20
257.1141967773438
 30
0.0
 11
-204.7929534912109
 21
249.1777648925781
 31
0.0
  0
LINE
  5
18F
330
22
100
AcDbEntity
  8
0
  6
Continuous
 62
     7
100
AcDbLine
 10
-213.3721923828125
 20
255.6356964111328
 30
0.0
 11
-204.7929534912109
 21
247.0564575195314
 31
0.0
  0
LINE
  5
190
330
22
100
AcDbEntity
  8
0
  6
Continuous
 62
     7
100
AcDbLine
 10
-213.5864562988281
 20
255.1428527832031
 30
0.0
 11
-204.7929534912109
 21
246.3493499755859
 31
0.0
  0
LINE
  5
191
330
22
100
AcDbEntity
  8
0
  6
Continuous
 62
     7
100
AcDbLine
 10
-214.2292938232422
 20
253.6643676757813
 30
0.0
 11
-204.7929534912109
 21
244.22802734375
 31
0.0
  0
LINE
  5
192
330
22
100
AcDbEntity
  8
0
  6
Continuous
 62
     7
100
AcDbLine
 10
-214.4435577392578
 20
253.1715240478516
 30
0.0
 11
-205.1399688720703
 21
243.8679351806641
 31
0.0
  0
LINE
  5
193
330
22
100
AcDbEntity
  8
0
  6
Continuous
 62
     7
100
AcDbLine
 10
-211.7929534912109
 20
248.3995971679688
 30
0.0
 11
-207.2612915039063
 21
243.8679351806641
 31
0.0
  0
LINE
  5
194
330
22
100
AcDbEntity
  8
0
  6
Continuous
 62
     7
100
AcDbLine
 10
-214.7929534912109
 20
251.3995971679688
 30
0.0
 11
-212.7612915039063
 21
249.3679351806641
 31
0.0
  0
LINE
  5
195
330
22
100
AcDbEntity
  8
0
  6
Continuous
 62
     7
100
AcDbLine
 10
-211.7929534912109
 20
247.6924896240234
 30
0.0
 11
-207.9683990478516
 21
243.8679351806641
 31
0.0
  0
LINE
  5
196
330
22
100
AcDbEntity
  8
0
  6
Continuous
 62
     7
100
AcDbLine
 10
-214.7929534912109
 20
250.6924896240234
 30
0.0
 11
-213.4683990478516
 21
249.3679351806641
 31
0.0
  0
LINE
  5
197
330
22
100
AcDbEntity
  8
0
  6
Continuous
 62
     7
100
AcDbLine
 10
-206.0897216796875
 20
239.8679351806641
 30
0.0
 11
-204.7929534912109
 21
238.5711669921875
 31
0.0
  0
LINE
  5
198
330
22
100
AcDbEntity
  8
0
  6
Continuous
 62
     7
100
AcDbLine
 10
-211.7929534912109
 20
245.5711669921875
 30
0.0
 11
-210.0897216796875
 21
243.8679351806641
 31
0.0
  0
LINE
  5
199
330
22
100
AcDbEntity
  8
0
  6
Continuous
 62
     7
100
AcDbLine
 10
-206.7968292236328
 20
239.8679351806641
 30
0.0
 11
-204.7929534912109
 21
237.8640594482422
 31
0.0
  0
LINE
  5
19A
330
22
100
AcDbEntity
  8
0
  6
Continuous
 62
     7
100
AcDbLine
 10
-211.7929534912109
 20
244.8640594482422
 30
0.0
 11
-210.7968292236328
 21
243.8679351806641
 31
0.0
  0
LINE
  5
19B
330
22
100
AcDbEntity
  8
0
  6
Continuous
 62
     7
100
AcDbLine
 10
-208.9181518554688
 20
239.8679351806641
 30
0.0
 11
-205.4181518554688
 21
236.3679351806641
 31
0.0
  0
LINE
  5
19C
330
22
100
AcDbEntity
  8
0
  6
Continuous
 62
     7
100
AcDbLine
 10
-209.625244140625
 20
239.8679351806641
 30
0.0
 11
-206.125244140625
 21
236.3679351806641
 31
0.0
  0
LINE
  5
19D
330
22
100
AcDbEntity
  8
0
  6
Continuous
 62
     7
100
AcDbLine
 10
-211.7465667724609
 20
239.8679351806641
 30
0.0
 11
-208.2465667724609
 21
236.3679351806641
 31
0.0
  0
LINE
  5
19E
330
22
100
AcDbEntity
  8
0
  6
Continuous
 62
     7
100
AcDbLine
 10
-211.7929534912109
 20
239.2072143554688
 30
0.0
 11
-208.9536743164063
 21
236.3679351806641
 31
0.0
  0
LINE
  5
19F
330
22
100
AcDbEntity
  8
0
  6
Continuous
 62
     7
100
AcDbLine
 10
-211.7929534912109
 20
237.0858917236328
 30
0.0
 11
-211.0749969482422
 21
236.3679351806641
 31
0.0
  0
LINE
  5
1A0
330
22
100
AcDbEntity
  8
0
  6
Continuous
 62
     7
100
AcDbLine
 10
-211.7929534912109
 20
236.3787841796875
 30
0.0
 11
-211.7821044921875
 21
236.3679351806641
 31
0.0
  0
LINE
  5
1A1
330
22
100
AcDbEntity
  8
0
  6
Continuous
 62
     7
100
AcDbLine
 10
-169.7929534912109
 20
185.3679351806641
 30
0.0
 11
-169.7929534912109
 21
213.3679351806641
 31
0.0
  0
LINE
  5
1A2
330
22
100
AcDbEntity
  8
0
  6
Continuous
 62
     7
100
AcDbLine
 10
-204.7929534912109
 20
162.8679351806641
 30
0.0
 11
-204.7929534912109
 21
213.3679351806641
 31
0.0
  0
LINE
  5
1A3
330
22
100
AcDbEntity
  8
0
  6
Continuous
 62
     7
100
AcDbLine
 10
-214.7929534912109
 20
252.1599426269531
 30
0.0
 11
-214.7929534912109
 21
174.575927734375
 31
0.0
  0
LINE
  5
1A4
330
22
100
AcDbEntity
  8
0
  6
Continuous
 62
     7
100
AcDbLine
 10
-115.7929534912109
 20
185.3679351806641
 30
0.0
 11
-115.7929534912109
 21
241.3679351806641
 31
0.0
  0
LINE
  5
1A5
330
22
100
AcDbEntity
  8
0
  6
Continuous
 62
     7
100
AcDbLine
 10
-144.7929534912109
 20
235.1890563964844
 30
0.0
 11
-144.7929534912109
 21
213.3679351806641
 31
0.0
  0
LINE
  5
1A6
330
22
100
AcDbEntity
  8
0
  6
Continuous
 62
     7
100
AcDbLine
 10
-117.3420944213867
 20
235.7187957763672
 30
0.0
 11
-117.3420944213867
 21
213.3679351806641
 31
0.0
  0
LINE
  5
1A7
330
22
100
AcDbEntity
  8
0
  6
Continuous
 62
     7
100
AcDbLine
 10
-133.2007293701172
 20
236.7239227294922
 30
0.0
 11
-133.2007293701172
 21
213.3679351806641
 31
0.0
  0
LINE
  5
1A8
330
22
100
AcDbEntity
  8
0
  6
Continuous
 62
     7
100
AcDbLine
 10
-154.7929534912109
 20
213.3679351806641
 30
0.0
 11
-154.7929534912109
 21
235.7679443359375
 31
0.0
  0
LINE
  5
1A9
330
22
100
AcDbEntity
  8
0
  6
Continuous
 62
     7
100
AcDbLine
 10
-146.2929534912109
 20
237.2679443359375
 30
0.0
 11
-146.2929534912109
 21
213.3679351806641
 31
0.0
  0
LINE
  5
1AA
330
22
100
AcDbEntity
  8
0
  6
Continuous
 62
     7
100
AcDbLine
 10
-211.7929534912109
 20
239.8679351806641
 30
0.0
 11
-211.7929534912109
 21
213.3679351806641
 31
0.0
  0
LINE
  5
1AB
330
22
100
AcDbEntity
  8
0
  6
Continuous
 62
     7
100
AcDbLine
 10
-214.7929534912109
 20
220.9044647216797
 30
0.0
 11
-214.7929534912109
 21
215.5656890869141
 31
0.0
  0
LINE
  5
1AC
330
22
100
AcDbEntity
  8
0
  6
Continuous
 62
     7
100
AcDbLine
 10
-154.7929534912109
 20
220.9044647216797
 30
0.0
 11
-154.7929534912109
 21
215.5656890869141
 31
0.0
  0
LINE
  5
1AD
330
22
100
AcDbEntity
  8
0
  6
CENTER
 62
     7
100
AcDbLine
 10
-228.4188690185547
 20
213.3679351806641
 30
0.0
 11
-108.140251159668
 21
213.3679351806641
 31
0.0
  0
ARC
  5
1AE
330
22
100
AcDbEntity
  8
0
  6
Continuous
 62
     7
100
AcDbCircle
 10
-405.0592651367187
 20
225.7209777832031
 30
0.0
 40
3.0
100
AcDbArc
 50
135.0984993692651
 51
239.9999238532701
  0
ARC
  5
1AF
330
22
100
AcDbEntity
  8
0
  6
Continuous
 62
     7
100
AcDbCircle
 10
-380.2676391601563
 20
225.7206573486328
 30
0.0
 40
3.0
100
AcDbArc
 50
299.9999304360001
 51
44.89985210905633
  0
CIRCLE
  5
1B0
330
22
100
AcDbEntity
  8
0
  6
Continuous
 62
     7
100
AcDbCircle
 10
-392.7876281738281
 20
241.8679351806641
 30
0.0
 40
5.0
  0
CIRCLE
  5
1B1
330
22
100
AcDbEntity
  8
0
  6
Continuous
 62
     7
100
AcDbCircle
 10
-392.7876281738281
 20
241.8679351806641
 30
0.0
 40
5.25
  0
CIRCLE
  5
1B2
330
22
100
AcDbEntity
  8
0
  6
Continuous
 62
     7
100
AcDbCircle
 10
-392.6636047363281
 20
280.3679504394531
 30
0.0
 40
2.75
  0
CIRCLE
  5
1B3
330
22
100
AcDbEntity
  8
0
  6
Continuous
 62
     7
100
AcDbCircle
 10
-392.6636047363281
 20
280.3679504394531
 30
0.0
 40
5.0
  0
ARC
  5
1B4
330
22
100
AcDbEntity
  8
0
  6
Continuous
 62
     7
100
AcDbCircle
 10
-392.6636047363281
 20
213.3679351806641
 30
0.0
 40
20.0
100
AcDbArc
 50
39.81946259934072
 51
140.1790486221858
  0
CIRCLE
  5
1B5
330
22
100
AcDbEntity
  8
0
  6
Continuous
 62
     7
100
AcDbCircle
 10
-392.7876281738281
 20
184.8679351806641
 30
0.0
 40
5.25
  0
CIRCLE
  5
1B6
330
22
100
AcDbEntity
  8
0
  6
Continuous
 62
     7
100
AcDbCircle
 10
-392.7876281738281
 20
184.8679351806641
 30
0.0
 40
5.0
  0
CIRCLE
  5
1B7
330
22
100
AcDbEntity
  8
0
  6
Continuous
 62
     7
100
AcDbCircle
 10
-450.6877136230468
 20
179.8681640625
 30
0.0
 40
5.0
  0
CIRCLE
  5
1B8
330
22
100
AcDbEntity
  8
0
  6
Continuous
 62
     7
100
AcDbCircle
 10
-450.6877136230468
 20
179.8681640625
 30
0.0
 40
2.75
  0
CIRCLE
  5
1B9
330
22
100
AcDbEntity
  8
0
  6
Continuous
 62
     7
100
AcDbCircle
 10
-334.6403198242188
 20
179.8677062988281
 30
0.0
 40
5.0
  0
CIRCLE
  5
1BA
330
22
100
AcDbEntity
  8
0
  6
Continuous
 62
     7
100
AcDbCircle
 10
-334.6403198242188
 20
179.8677062988281
 30
0.0
 40
2.75
  0
ARC
  5
1BB
330
22
100
AcDbEntity
  8
0
  6
Continuous
 62
     7
100
AcDbCircle
 10
-397.1636047363281
 20
196.4564056396484
 30
0.0
 40
3.0
100
AcDbArc
 50
255.0995192235164
 51
0.0
  0
ARC
  5
1BC
330
22
100
AcDbEntity
  8
0
  6
Continuous
 62
     7
100
AcDbCircle
 10
-388.1636047363281
 20
196.4564056396484
 30
0.0
 40
3.0
100
AcDbArc
 50
180.0000000000004
 51
284.900480776485
  0
ARC
  5
1BD
330
22
100
AcDbEntity
  8
0
  6
Continuous
 62
     7
100
AcDbCircle
 10
-392.6636047363281
 20
213.3679351806641
 30
0.0
 40
20.5
100
AcDbArc
 50
44.89988200146869
 51
135.0986705122788
  0
ARC
  5
1BE
330
22
100
AcDbEntity
  8
0
  6
Continuous
 62
     7
100
AcDbCircle
 10
-409.5593566894531
 20
217.9268188476563
 30
0.0
 40
3.0
100
AcDbArc
 50
59.99992385326939
 51
164.9001031906619
  0
ARC
  5
1BF
330
22
100
AcDbEntity
  8
0
  6
Continuous
 62
     7
100
AcDbCircle
 10
-390.2698364257813
 20
219.9458770751953
 30
0.0
 40
3.0
100
AcDbArc
 50
250.0049425361223
 51
299.9999304360001
  0
ARC
  5
1C0
330
22
100
AcDbEntity
  8
0
  6
Continuous
 62
     7
100
AcDbCircle
 10
-375.7677307128906
 20
217.9263610839844
 30
0.0
 40
3.0
100
AcDbArc
 50
15.09877136683554
 51
119.9999304359993
  0
ARC
  5
1C1
330
22
100
AcDbEntity
  8
0
  6
Continuous
 62
     7
100
AcDbCircle
 10
-385.7698364257813
 20
212.1516418457031
 30
0.0
 40
3.0
100
AcDbArc
 50
119.9999304359993
 51
169.9948563057102
  0
ARC
  5
1C2
330
22
100
AcDbEntity
  8
0
  6
Continuous
 62
     7
100
AcDbCircle
 10
-392.6636047363281
 20
213.3679351806641
 30
0.0
 40
4.0
100
AcDbArc
 50
189.5928276922027
 51
229.9947036351035
  0
ARC
  5
1C3
330
22
100
AcDbEntity
  8
0
  6
Continuous
 62
     7
100
AcDbCircle
 10
-397.1636047363281
 20
208.0060272216797
 30
0.0
 40
3.0
100
AcDbArc
 50
0.0
 51
49.99499163687313
  0
ARC
  5
1C4
330
22
100
AcDbEntity
  8
0
  6
Continuous
 62
     7
100
AcDbCircle
 10
-399.5569152832031
 20
212.1519012451172
 30
0.0
 40
3.0
100
AcDbArc
 50
10.00514369428975
 51
60.00006956400067
  0
ARC
  5
1C5
330
22
100
AcDbEntity
  8
0
  6
Continuous
 62
     7
100
AcDbCircle
 10
-388.1636047363281
 20
208.0060272216797
 30
0.0
 40
3.0
100
AcDbArc
 50
130.0054548121925
 51
180.0000000000004
  0
ARC
  5
1C6
330
22
100
AcDbEntity
  8
0
  6
Continuous
 62
     7
100
AcDbCircle
 10
-392.6636047363281
 20
213.3679351806641
 30
0.0
 40
4.0
100
AcDbArc
 50
310.0049615276477
 51
349.7784131842589
  0
CIRCLE
  5
1C7
330
22
100
AcDbEntity
  8
0
  6
Continuous
 62
     7
100
AcDbCircle
 10
-364.2876281738281
 20
213.3679351806641
 30
0.0
 40
3.5
  0
CIRCLE
  5
1C8
330
22
100
AcDbEntity
  8
0
  6
Continuous
 62
     7
100
AcDbCircle
 10
-421.2876281738281
 20
213.3679351806641
 30
0.0
 40
3.5
  0
CIRCLE
  5
1C9
330
22
100
AcDbEntity
  8
0
  6
Continuous
 62
     7
100
AcDbCircle
 10
-392.7876281738281
 20
213.3679351806641
 30
0.0
 40
50.5
  0
CIRCLE
  5
1CA
330
22
100
AcDbEntity
  8
0
  6
Continuous
 62
     7
100
AcDbCircle
 10
-392.7876281738281
 20
213.3679351806641
 30
0.0
 40
36.0
  0
CIRCLE
  5
1CB
330
22
100
AcDbEntity
  8
0
  6
Continuous
 62
     7
100
AcDbCircle
 10
-392.7876281738281
 20
213.3679351806641
 30
0.0
 40
35.5
  0
CIRCLE
  5
1CC
330
22
100
AcDbEntity
  8
0
  6
CENTER
 62
     7
100
AcDbCircle
 10
-392.6636047363281
 20
213.3679351806641
 30
0.0
 40
67.0
  0
CIRCLE
  5
1CD
330
22
100
AcDbEntity
  8
0
  6
Continuous
 62
     7
100
AcDbCircle
 10
-392.6636047363281
 20
213.3679351806641
 30
0.0
 40
77.0
  0
CIRCLE
  5
1CE
330
22
100
AcDbEntity
  8
0
  6
Continuous
 62
     7
100
AcDbCircle
 10
-392.6636047363281
 20
213.3679351806641
 30
0.0
 40
60.0
  0
ARC
  5
1CF
330
22
100
AcDbEntity
  8
0
  6
Continuous
 62
     7
100
AcDbCircle
 10
-392.6636047363281
 20
213.3679351806641
 30
0.0
 40
20.0
100
AcDbArc
 50
279.8201861169422
 51
20.17904661123651
  0
ARC
  5
1D0
330
22
100
AcDbEntity
  8
0
  6
Continuous
 62
     7
100
AcDbCircle
 10
-392.6636047363281
 20
213.3679351806641
 30
0.0
 40
20.5
100
AcDbArc
 50
284.9005833073391
 51
15.09865776320957
  0
ARC
  5
1D1
330
22
100
AcDbEntity
  8
0
  6
Continuous
 62
     7
100
AcDbCircle
 10
-392.6636047363281
 20
213.3679351806641
 30
0.0
 40
20.5
100
AcDbArc
 50
164.8998534231745
 51
255.0994166926622
  0
ARC
  5
1D2
330
22
100
AcDbEntity
  8
0
  6
Continuous
 62
     7
100
AcDbCircle
 10
-392.6636047363281
 20
213.3679351806641
 30
0.0
 40
20.0
100
AcDbArc
 50
159.8194486069392
 51
260.1798138830592
  0
ARC
  5
1D3
330
22
100
AcDbEntity
  8
0
  6
Continuous
 62
     7
100
AcDbCircle
 10
-395.0569152832031
 20
219.9461364746094
 30
0.0
 40
3.0
100
AcDbArc
 50
240.0000695640013
 51
289.99441010647
  0
ARC
  5
1D4
330
22
100
AcDbEntity
  8
0
  6
Continuous
 62
     7
100
AcDbCircle
 10
-392.6636047363281
 20
213.3679351806641
 30
0.0
 40
4.0
100
AcDbArc
 50
70.00150662206216
 51
109.991024020165
  0
ARC
  5
1D5
330
22
100
AcDbEntity
  8
0
  6
Continuous
 62
     7
100
AcDbCircle
 10
-213.7929534912109
 20
252.1599426269531
 30
0.0
 40
1.0
100
AcDbArc
 50
156.5013297463602
 51
180.0000000000004
  0
ARC
  5
1D6
330
22
100
AcDbEntity
  8
0
  6
Continuous
 62
     7
100
AcDbCircle
 10
-209.4651336669922
 20
263.3679504394531
 30
0.0
 40
0.5
100
AcDbArc
 50
90.00000000000019
 51
156.5033865038332
  0
ARC
  5
1D7
330
22
100
AcDbEntity
  8
0
  6
Continuous
 62
     7
100
AcDbCircle
 10
-209.4651336669922
 20
163.3679351806641
 30
0.0
 40
0.5
100
AcDbArc
 50
203.4982170766616
 51
270.0000000000005
  0
ARC
  5
1D8
330
22
100
AcDbEntity
  8
0
  6
Continuous
 62
     7
100
AcDbCircle
 10
-213.7929534912109
 20
174.575927734375
 30
0.0
 40
1.0
100
AcDbArc
 50
180.0000000000004
 51
203.4986702536405
  0
TEXT
  5
1D9
330
22
100
AcDbEntity
  8
0
  6
Continuous
 62
     7
100
AcDbText
 10
-313.029839515686
 20
70.71831512451172
 30
0.0
 40
7.0
  1
DL-TP-40
 41
1.020882425188017
100
AcDbText
  0
DIMENSION
  5
1DA
330
22
100
AcDbEntity
  8
0
  6
Continuous
 62
     7
100
AcDbDimension
  2
*D1
 10
-204.7929534912109
 20
313.6787719726563
 30
0.0
 11
-176.2917022705078
 21
313.6787719726563
 31
0.0
 71
     5
 42
-1.0
  3
DIMSTYLE1
100
AcDbAlignedDimension
 13
-147.7904510498047
 23
290.3679504394531
 33
0.0
 14
-204.7929534912109
 24
263.8679504394531
 34
0.0
100
AcDbRotatedDimension
  0
DIMENSION
  5
1DB
330
22
100
AcDbEntity
  8
0
  6
Continuous
 62
     7
100
AcDbDimension
  2
*D2
 10
-144.7904510498046
 20
313.6787719726563
 30
0.0
 11
-138.8613586425781
 21
313.6787719726563
 31
0.0
 71
     5
 42
-1.0
  3
DIMSTYLE2
100
AcDbAlignedDimension
 13
-147.7904510498047
 23
315.9647827148438
 33
0.0
 14
-144.7904510498046
 24
290.3679504394531
 34
0.0
100
AcDbRotatedDimension
  0
DIMENSION
  5
1DC
330
22
100
AcDbEntity
  8
0
  6
Continuous
 62
     7
100
AcDbDimension
  2
*D3
 10
-214.7929534912109
 20
313.6787719726563
 30
0.0
 11
-209.7929534912109
 21
313.6787719726563
 31
0.0
 71
     5
 42
-1.0
  3
DIMSTYLE3
100
AcDbAlignedDimension
 13
-204.7929534912109
 23
315.9647827148438
 33
0.0
 14
-214.7929534912109
 24
252.3679351806641
 34
0.0
100
AcDbRotatedDimension
  0
DIMENSION
  5
1DD
330
22
100
AcDbEntity
  8
0
  6
Continuous
 62
     7
100
AcDbDimension
  2
*D4
 10
-169.7929534912109
 20
301.6436157226563
 30
0.0
 11
-158.7917022705078
 21
301.6436157226563
 31
0.0
 71
     5
 42
-1.0
  3
DIMSTYLE4
100
AcDbAlignedDimension
 13
-147.7904510498047
 23
315.9647827148438
 33
0.0
 14
-169.7929534912109
 24
241.3679351806641
 34
0.0
100
AcDbRotatedDimension
  0
DIMENSION
  5
1DE
330
22
100
AcDbEntity
  8
0
  6
Continuous
 62
     7
100
AcDbDimension
  2
*D5
 10
-154.7929534912109
 20
218.7983551025391
 30
0.0
 11
-184.7929534912109
 21
218.7983551025391
 31
0.0
 71
     5
 42
-1.0
  3
DIMSTYLE5
100
AcDbAlignedDimension
 13
-214.7929534912109
 23
221.5778198242188
 33
0.0
 14
-154.7929534912109
 24
223.2429351806641
 34
0.0
100
AcDbRotatedDimension
  0
DIMENSION
  5
1DF
330
22
100
AcDbEntity
  8
0
  6
Continuous
 62
     7
100
AcDbDimension
  2
*D6
 10
-423.0249861669496
 20
142.6064589550771
 30
0.0
 11
-353.6268920898438
 21
304.3484802246094
 31
0.0
 70
     3
 71
     5
 42
-1.0
  3
DIMSTYLE6
100
AcDbDiametricDimension
 15
-362.3022233057067
 25
284.1294114062511
 35
0.0
 40
0.0
  0
DIMENSION
  5
1E0
330
22
100
AcDbEntity
  8
0
  6
Continuous
 62
     7
100
AcDbDimension
  2
*D7
 10
-423.708293632944
 20
173.4409712644653
 30
0.0
 11
-332.6747436523438
 21
290.989990234375
 31
0.0
 70
     3
 71
     5
 42
-1.0
  3
DIMSTYLE7
100
AcDbDiametricDimension
 15
-361.8669627147123
 25
253.2948990968628
 35
0.0
 40
0.0
  0
DIMENSION
  5
1E1
330
22
100
AcDbEntity
  8
0
  6
Continuous
 62
     7
100
AcDbDimension
  2
*D8
 10
-423.2278733203495
 20
195.1020797279435
 30
0.0
 11
-310.6922607421875
 21
262.6297607421875
 31
0.0
 70
     3
 71
     5
 42
-1.0
  3
DIMSTYLE8
100
AcDbDiametricDimension
 15
-362.3473830273068
 25
231.6337906333847
 35
0.0
 40
0.0
  0
DIMENSION
  5
1E2
330
22
100
AcDbEntity
  8
0
  6
Continuous
 62
     7
100
AcDbDimension
  2
*D9
 10
-341.7772569521492
 20
169.7837682253626
 30
0.0
 11
-465.3899536132812
 21
275.6580810546875
 31
0.0
 70
     3
 71
     5
 42
-1.0
  3
DIMSTYLE9
100
AcDbDiametricDimension
 15
-443.5499525205071
 25
256.9521021359654
 35
0.0
 40
0.0
  0
INSERT
  5
1E3
330
22
100
AcDbEntity
  8
0
  6
Continuous
 62
     7
100
AcDbBlockReference
  2
KOZU0001
 10
-394.2006530761719
 20
285.1258239746094
 30
0.0
  0
DIMENSION
  5
1E4
330
22
100
AcDbEntity
  8
0
  6
Continuous
 62
     7
100
AcDbDimension
  2
*D10
 10
-85.67948913574218
 20
241.3679351806641
 30
0.0
 11
-85.67948913574218
 21
213.3679351806641
 31
0.0
 71
     5
 42
-1.0
  3
DIMSTYLE10
100
AcDbAlignedDimension
 13
-115.7929534912109
 23
185.3679351806641
 33
0.0
 14
-115.7929534912109
 24
241.3679351806641
 34
0.0
 50
90.0
100
AcDbRotatedDimension
  0
DIMENSION
  5
1E5
330
22
100
AcDbEntity
  8
0
  6
Continuous
 62
     7
100
AcDbDimension
  2
*D11
 10
-115.7929534912109
 20
115.686393737793
 30
0.0
 11
-142.7929534912109
 21
115.686393737793
 31
0.0
 71
     5
 42
-1.0
  3
DIMSTYLE11
100
AcDbAlignedDimension
 13
-169.7929534912109
 23
185.3679351806641
 33
0.0
 14
-115.7929534912109
 24
185.3679351806641
 34
0.0
100
AcDbRotatedDimension
  0
INSERT
  5
1E6
330
22
100
AcDbEntity
  8
0
  6
Continuous
 62
     7
100
AcDbBlockReference
  2
KOZU0002
 10
-122.7560577392578
 20
237.0503234863281
 30
0.0
  0
ENDSEC
  0
SECTION
  2
OBJECTS
  0
DICTIONARY
  5
C
330
0
100
AcDbDictionary
281
     1
  3
ACAD_COLOR
350
1B
  3
ACAD_GROUP
350
D
  3
ACAD_LAYOUT
350
19
  3
ACAD_MATERIAL
350
1A
  3
ACAD_MLINESTYLE
350
16
  3
ACAD_PLOTSETTINGS
350
18
  3
ACAD_PLOTSTYLENAME
350
E
  3
ACAD_TABLESTYLE
350
1C
  3
AcDbVariableDictionary
350
1F2
  0
DICTIONARY
  5
1B
102
{ACAD_REACTORS
330
C
102
}
330
C
100
AcDbDictionary
281
     1
  0
DICTIONARY
  5
D
102
{ACAD_REACTORS
330
C
102
}
330
C
100
AcDbDictionary
281
     1
  0
DICTIONARY
  5
19
102
{ACAD_REACTORS
330
C
102
}
330
C
100
AcDbDictionary
281
     1
  3
Model
350
25
  3
レイアウト1
350
21
  0
DICTIONARY
  5
1A
102
{ACAD_REACTORS
330
C
102
}
330
C
100
AcDbDictionary
281
     1
  0
DICTIONARY
  5
16
102
{ACAD_REACTORS
330
C
102
}
330
C
100
AcDbDictionary
281
     1
  3
Standard
350
17
  0
DICTIONARY
  5
18
102
{ACAD_REACTORS
330
C
102
}
330
C
100
AcDbDictionary
281
     1
  0
ACDBDICTIONARYWDFLT
  5
E
102
{ACAD_REACTORS
330
C
102
}
330
C
100
AcDbDictionary
281
     1
  3
Normal
350
F
100
AcDbDictionaryWithDefault
340
F
  0
DICTIONARY
  5
1C
102
{ACAD_REACTORS
330
C
102
}
330
C
100
AcDbDictionary
281
     1
  3
Standard
350
1D
  0
DICTIONARY
  5
1F2
102
{ACAD_REACTORS
330
C
102
}
330
C
100
AcDbDictionary
281
     1
  3
CTABLESTYLE
350
1F3
  0
LAYOUT
  5
25
102
{ACAD_REACTORS
330
19
102
}
330
19
100
AcDbPlotSettings
  1

  2
PDF reDirect v2
  4
User66
  6

 40
3.174999952316284
 41
3.174999952316284
 42
3.17498779296875
 43
3.17498779296875
 44
420.0
 45
594.0
 46
0.0
 47
0.0
 48
0.0
 49
0.0
140
0.0
141
0.0
142
1.0
143
1.0
 70
 11952
 72
     1
 73
     1
 74
     2
  7
C:\Users\ck\AppData\Roaming\Autodesk\AutoCAD 2005\R16.1\jpn\Plot Styles\black.ctb
 75
    16
147
1.0
 76
     0
 77
     2
 78
   300
148
592.0
149
0.0
100
AcDbLayout
  1
Model
 70
     1
 71
     0
 10
0.0
 20
0.0
 11
12.0
 21
9.0
 12
0.0
 22
0.0
 32
0.0
 14
0.0
 24
0.0
 34
0.0
 15
0.0
 25
0.0
 35
0.0
146
0.0
 13
0.0
 23
0.0
 33
0.0
 16
1.0
 26
0.0
 36
0.0
 17
0.0
 27
1.0
 37
0.0
 76
     0
330
22
1001
ACAD_PSEXT
1000
PDF reDirect v2
1000
PDF reDirect Pro
1000
PDF_REDIRECT_PORT:
1000
PDF reDirect provided by EXP Systems
1070
     0
  0
LAYOUT
  5
21
102
{ACAD_REACTORS
330
19
102
}
330
19
100
AcDbPlotSettings
  1

  2
PDF reDirect v2
  4

  6

 40
0.0
 41
0.0
 42
0.0
 43
0.0
 44
0.0
 45
0.0
 46
0.0
 47
0.0
 48
0.0
 49
0.0
140
0.0
141
0.0
142
1.0
143
1.0
 70
   688
 72
     0
 73
     0
 74
     5
  7
C:\Users\ck\AppData\Roaming\Autodesk\AutoCAD 2005\R16.1\jpn\Plot Styles\black.ctb
 75
    16
147
1.0
 76
     0
 77
     2
 78
   300
148
0.0
149
0.0
100
AcDbLayout
  1
レイアウト1
 70
     1
 71
     1
 10
-592.0
 20
0.0
 11
0.0
 21
418.0
 12
0.0
 22
0.0
 32
0.0
 14
1.000000000000000E+20
 24
1.000000000000000E+20
 34
1.000000000000000E+20
 15
-1.000000000000000E+20
 25
-1.000000000000000E+20
 35
-1.000000000000000E+20
146
0.0
 13
0.0
 23
0.0
 33
0.0
 16
1.0
 26
0.0
 36
0.0
 17
0.0
 27
1.0
 37
0.0
 76
     0
330
1E
  0
MLINESTYLE
  5
17
102
{ACAD_REACTORS
330
16
102
}
330
16
100
AcDbMlineStyle
  2
STANDARD
 70
     0
  3

 62
   256
 51
90.0
 52
90.0
 71
     2
 49
0.5
 62
   256
  6
BYLAYER
 49
-0.5
 62
   256
  6
BYLAYER
  0
ACDBPLACEHOLDER
  5
F
102
{ACAD_REACTORS
330
E
102
}
330
E
  0
TABLESTYLE
  5
1D
102
{ACAD_REACTORS
330
1C
102
}
330
1C
100
AcDbTableStyle
  3
Standard
 70
     0
 71
     0
 40
0.06
 41
0.06
280
     0
281
     0
  7
STANDARD
140
0.18
170
     2
 62
     0
 63
     7
283
     0
274
    -2
284
     1
 64
     0
275
    -2
285
     1
 65
     0
276
    -2
286
     1
 66
     0
277
    -2
287
     1
 67
     0
278
    -2
288
     1
 68
     0
279
    -2
289
     1
 69
     0
  7
STANDARD
140
0.25
170
     5
 62
     0
 63
     7
283
     0
274
    -2
284
     1
 64
     0
275
    -2
285
     1
 65
     0
276
    -2
286
     1
 66
     0
277
    -2
287
     1
 67
     0
278
    -2
288
     1
 68
     0
279
    -2
289
     1
 69
     0
  7
STANDARD
140
0.18
170
     5
 62
     0
 63
     7
283
     0
274
    -2
284
     1
 64
     0
275
    -2
285
     1
 65
     0
276
    -2
286
     1
 66
     0
277
    -2
287
     1
 67
     0
278
    -2
288
     1
 68
     0
279
    -2
289
     1
 69
     0
  0
DICTIONARYVAR
  5
1F3
102
{ACAD_REACTORS
330
1F2
102
}
330
1F2
100
DictionaryVariables
280
     0
  1
STANDARD
  0
ENDSEC
  0
EOF
