  0
SECTION
  2
HEADER
  9
$ACADVER
  1
AC1018
  9
$ACADMAINTVER
 70
    39
  9
$DWGCODEPAGE
  3
ANSI_932
  9
$INSBASE
 10
0.0
 20
0.0
 30
0.0
  9
$EXTMIN
 10
-530.005125502596
 20
109.7556163353795
 30
-0.0015258207003583
  9
$EXTMAX
 10
-45.19311390862912
 20
360.2265023708187
 30
0.0000000349246037
  9
$LIMMIN
 10
-592.0
 20
0.0
  9
$LIMMAX
 10
0.0
 20
418.0
  9
$ORTHOMODE
 70
     0
  9
$REGENMODE
 70
     1
  9
$FILLMODE
 70
     1
  9
$QTEXTMODE
 70
     0
  9
$MIRRTEXT
 70
     0
  9
$LTSCALE
 40
1.0
  9
$ATTMODE
 70
     1
  9
$TEXTSIZE
 40
0.2
  9
$TRACEWID
 40
0.05
  9
$TEXTSTYLE
  7
STANDARD
  9
$CLAYER
  8
0
  9
$CELTYPE
  6
CONTINUOUS
  9
$CECOLOR
 62
   256
  9
$CELTSCALE
 40
1.0
  9
$DISPSILH
 70
     0
  9
$DIMSCALE
 40
1.0
  9
$DIMASZ
 40
1.0
  9
$DIMEXO
 40
2.54
  9
$DIMDLI
 40
0.38
  9
$DIMRND
 40
0.0
  9
$DIMDLE
 40
0.0
  9
$DIMEXE
 40
2.54
  9
$DIMTP
 40
0.0
  9
$DIMTM
 40
0.0
  9
$DIMTXT
 40
3.0
  9
$DIMCEN
 40
0.09
  9
$DIMTSZ
 40
0.0
  9
$DIMTOL
 70
     0
  9
$DIMLIM
 70
     0
  9
$DIMTIH
 70
     0
  9
$DIMTOH
 70
     0
  9
$DIMSE1
 70
     0
  9
$DIMSE2
 70
     0
  9
$DIMTAD
 70
     1
  9
$DIMZIN
 70
     0
  9
$DIMBLK
  1

  9
$DIMASO
 70
     1
  9
$DIMSHO
 70
     0
  9
$DIMPOST
  1

  9
$DIMAPOST
  1

  9
$DIMALT
 70
     0
  9
$DIMALTD
 70
     2
  9
$DIMALTF
 40
25.4
  9
$DIMLFAC
 40
1.0
  9
$DIMTOFL
 70
     0
  9
$DIMTVP
 40
1.0
  9
$DIMTIX
 70
     0
  9
$DIMSOXD
 70
     0
  9
$DIMSAH
 70
     1
  9
$DIMBLK1
  1

  9
$DIMBLK2
  1

  9
$DIMSTYLE
  2
DIMSTYLE1
  9
$DIMCLRD
 70
     0
  9
$DIMCLRE
 70
     0
  9
$DIMCLRT
 70
     0
  9
$DIMTFAC
 40
1.0
  9
$DIMGAP
 40
1.5
  9
$DIMJUST
 70
     0
  9
$DIMSD1
 70
     0
  9
$DIMSD2
 70
     0
  9
$DIMTOLJ
 70
     1
  9
$DIMTZIN
 70
     0
  9
$DIMALTZ
 70
     0
  9
$DIMALTTZ
 70
     0
  9
$DIMUPT
 70
     0
  9
$DIMDEC
 70
     4
  9
$DIMTDEC
 70
     4
  9
$DIMALTU
 70
     2
  9
$DIMALTTD
 70
     2
  9
$DIMTXSTY
  7
STANDARD
  9
$DIMAUNIT
 70
     0
  9
$DIMADEC
 70
     0
  9
$DIMALTRND
 40
0.0
  9
$DIMAZIN
 70
     0
  9
$DIMDSEP
 70
    46
  9
$DIMATFIT
 70
     3
  9
$DIMFRAC
 70
     0
  9
$DIMLDRBLK
  1

  9
$DIMLUNIT
 70
     2
  9
$DIMLWD
 70
    -2
  9
$DIMLWE
 70
    -2
  9
$DIMTMOVE
 70
     0
  9
$LUNITS
 70
     2
  9
$LUPREC
 70
     4
  9
$SKETCHINC
 40
0.1
  9
$FILLETRAD
 40
0.0
  9
$AUNITS
 70
     0
  9
$AUPREC
 70
     0
  9
$MENU
  1
.
  9
$ELEVATION
 40
0.0
  9
$PELEVATION
 40
0.0
  9
$THICKNESS
 40
0.0
  9
$LIMCHECK
 70
     0
  9
$CHAMFERA
 40
0.0
  9
$CHAMFERB
 40
0.0
  9
$CHAMFERC
 40
0.0
  9
$CHAMFERD
 40
0.0
  9
$SKPOLY
 70
     0
  9
$TDCREATE
 40
2457842.688941134
  9
$TDUCREATE
 40
2457842.313941134
  9
$TDUPDATE
 40
2457842.689449294
  9
$TDUUPDATE
 40
2457842.314449294
  9
$TDINDWG
 40
0.0005092014
  9
$TDUSRTIMER
 40
0.0005092014
  9
$USRTIMER
 70
     1
  9
$ANGBASE
 50
0.0
  9
$ANGDIR
 70
     0
  9
$PDMODE
 70
     0
  9
$PDSIZE
 40
0.0
  9
$PLINEWID
 40
0.0
  9
$SPLFRAME
 70
     0
  9
$SPLINETYPE
 70
     6
  9
$SPLINESEGS
 70
     8
  9
$HANDSEED
  5
206
  9
$SURFTAB1
 70
     6
  9
$SURFTAB2
 70
     6
  9
$SURFTYPE
 70
     6
  9
$SURFU
 70
     6
  9
$SURFV
 70
     6
  9
$UCSBASE
  2

  9
$UCSNAME
  2

  9
$UCSORG
 10
0.0
 20
0.0
 30
0.0
  9
$UCSXDIR
 10
1.0
 20
0.0
 30
0.0
  9
$UCSYDIR
 10
0.0
 20
1.0
 30
0.0
  9
$UCSORTHOREF
  2

  9
$UCSORTHOVIEW
 70
     0
  9
$UCSORGTOP
 10
0.0
 20
0.0
 30
0.0
  9
$UCSORGBOTTOM
 10
0.0
 20
0.0
 30
0.0
  9
$UCSORGLEFT
 10
0.0
 20
0.0
 30
0.0
  9
$UCSORGRIGHT
 10
0.0
 20
0.0
 30
0.0
  9
$UCSORGFRONT
 10
0.0
 20
0.0
 30
0.0
  9
$UCSORGBACK
 10
0.0
 20
0.0
 30
0.0
  9
$PUCSBASE
  2

  9
$PUCSNAME
  2

  9
$PUCSORG
 10
0.0
 20
0.0
 30
0.0
  9
$PUCSXDIR
 10
1.0
 20
0.0
 30
0.0
  9
$PUCSYDIR
 10
0.0
 20
1.0
 30
0.0
  9
$PUCSORTHOREF
  2

  9
$PUCSORTHOVIEW
 70
     0
  9
$PUCSORGTOP
 10
0.0
 20
0.0
 30
0.0
  9
$PUCSORGBOTTOM
 10
0.0
 20
0.0
 30
0.0
  9
$PUCSORGLEFT
 10
0.0
 20
0.0
 30
0.0
  9
$PUCSORGRIGHT
 10
0.0
 20
0.0
 30
0.0
  9
$PUCSORGFRONT
 10
0.0
 20
0.0
 30
0.0
  9
$PUCSORGBACK
 10
0.0
 20
0.0
 30
0.0
  9
$USERI1
 70
     0
  9
$USERI2
 70
     0
  9
$USERI3
 70
     0
  9
$USERI4
 70
     0
  9
$USERI5
 70
     0
  9
$USERR1
 40
0.0
  9
$USERR2
 40
0.0
  9
$USERR3
 40
0.0
  9
$USERR4
 40
0.0
  9
$USERR5
 40
0.0
  9
$WORLDVIEW
 70
     1
  9
$SHADEDGE
 70
     3
  9
$SHADEDIF
 70
    70
  9
$TILEMODE
 70
     1
  9
$MAXACTVP
 70
    64
  9
$PINSBASE
 10
0.0
 20
0.0
 30
0.0
  9
$PLIMCHECK
 70
     0
  9
$PEXTMIN
 10
1.000000000000000E+20
 20
1.000000000000000E+20
 30
1.000000000000000E+20
  9
$PEXTMAX
 10
-1.000000000000000E+20
 20
-1.000000000000000E+20
 30
-1.000000000000000E+20
  9
$PLIMMIN
 10
-592.0
 20
0.0
  9
$PLIMMAX
 10
0.0
 20
418.0
  9
$UNITMODE
 70
     0
  9
$VISRETAIN
 70
     1
  9
$PLINEGEN
 70
     0
  9
$PSLTSCALE
 70
     1
  9
$TREEDEPTH
 70
  3020
  9
$CMLSTYLE
  2
Standard
  9
$CMLJUST
 70
     0
  9
$CMLSCALE
 40
1.0
  9
$PROXYGRAPHICS
 70
     1
  9
$MEASUREMENT
 70
     0
  9
$CELWEIGHT
370
    -1
  9
$ENDCAPS
280
     0
  9
$JOINSTYLE
280
     0
  9
$LWDISPLAY
290
     0
  9
$INSUNITS
 70
     0
  9
$HYPERLINKBASE
  1

  9
$STYLESHEET
  1

  9
$XEDIT
290
     1
  9
$CEPSNTYPE
380
     0
  9
$PSTYLEMODE
290
     1
  9
$FINGERPRINTGUID
  2
{ACA3125C-49AA-4924-8B02-D86CD5D94AC7}
  9
$VERSIONGUID
  2
{648F21A0-A4C2-4E93-8758-BB11A37D8C5B}
  9
$EXTNAMES
290
     1
  9
$PSVPSCALE
 40
0.0
  9
$OLESTARTUP
290
     0
  9
$SORTENTS
280
   127
  9
$INDEXCTL
280
     0
  9
$HIDETEXT
280
     0
  9
$XCLIPFRAME
290
     0
  9
$HALOGAP
280
     0
  9
$OBSCOLOR
 70
   257
  9
$OBSLTYPE
280
     0
  9
$INTERSECTIONDISPLAY
280
     0
  9
$INTERSECTIONCOLOR
 70
   257
  9
$DIMASSOC
280
     1
  9
$PROJECTNAME
  1

  0
ENDSEC
  0
SECTION
  2
CLASSES
  0
CLASS
  1
ACDBDICTIONARYWDFLT
  2
AcDbDictionaryWithDefault
  3
ObjectDBX Classes
 90
        0
 91
        1
280
     0
281
     0
  0
CLASS
  1
TABLESTYLE
  2
AcDbTableStyle
  3
ObjectDBX Classes
 90
     2047
 91
        1
280
     0
281
     0
  0
CLASS
  1
DICTIONARYVAR
  2
AcDbDictionaryVar
  3
ObjectDBX Classes
 90
        0
 91
        1
280
     0
281
     0
  0
ENDSEC
  0
SECTION
  2
TABLES
  0
TABLE
  2
VPORT
  5
8
330
0
100
AcDbSymbolTable
 70
     2
  0
VPORT
  5
205
330
8
100
AcDbSymbolTableRecord
100
AcDbViewportTableRecord
  2
*Active
 70
     0
 10
0.0
 20
0.0
 11
1.0
 21
1.0
 12
-296.0
 22
209.0
 13
0.0
 23
0.0
 14
1.0
 24
1.0
 15
0.0
 25
0.0
 16
0.0
 26
0.0
 36
1.0
 17
0.0
 27
0.0
 37
0.0
 40
421.3043478260869
 41
1.707124010554089
 42
50.0
 43
0.0
 44
0.0
 50
0.0
 51
0.0
 71
     0
 72
   100
 73
     1
 74
     1
 75
     0
 76
     0
 77
     0
 78
     0
281
     0
 65
     1
110
0.0
120
0.0
130
0.0
111
1.0
121
0.0
131
0.0
112
0.0
122
1.0
132
0.0
 79
     0
146
0.0
  0
ENDTAB
  0
TABLE
  2
LTYPE
  5
5
330
0
100
AcDbSymbolTable
 70
     6
  0
LTYPE
  5
13
330
5
100
AcDbSymbolTableRecord
100
AcDbLinetypeTableRecord
  2
ByBlock
 70
     0
  3

 72
    65
 73
     0
 40
0.0
  0
LTYPE
  5
14
330
5
100
AcDbSymbolTableRecord
100
AcDbLinetypeTableRecord
  2
ByLayer
 70
     0
  3

 72
    65
 73
     0
 40
0.0
  0
LTYPE
  5
15
330
5
100
AcDbSymbolTableRecord
100
AcDbLinetypeTableRecord
  2
CONTINUOUS
 70
     0
  3
Solid line
 72
    65
 73
     0
 40
0.0
  0
LTYPE
  5
26
330
5
100
AcDbSymbolTableRecord
100
AcDbLinetypeTableRecord
  2
DASHED
 70
     0
  3
__ __ __ __ __ __ __ __ __ __ __ __ __ __ __
 72
    65
 73
     2
 40
3.5
 49
2.0
 74
     0
 49
-1.5
 74
     0
  0
LTYPE
  5
27
330
5
100
AcDbSymbolTableRecord
100
AcDbLinetypeTableRecord
  2
CENTER
 70
     0
  3
____ _ ____ _ ____ _ ____ _ ____ _ ____ _ ____
 72
    65
 73
     4
 40
17.5
 49
13.0
 74
     0
 49
-1.5
 74
     0
 49
1.5
 74
     0
 49
-1.5
 74
     0
  0
LTYPE
  5
28
330
5
100
AcDbSymbolTableRecord
100
AcDbLinetypeTableRecord
  2
PHANTOM
 70
     0
  3
_____ _ _ _____ _ _ _____ _ _ _____ _ _ ____  
 72
    65
 73
     6
 40
15.5
 49
8.0
 74
     0
 49
-1.5
 74
     0
 49
1.5
 74
     0
 49
-1.5
 74
     0
 49
1.5
 74
     0
 49
-1.5
 74
     0
  0
LTYPE
  5
29
330
5
100
AcDbSymbolTableRecord
100
AcDbLinetypeTableRecord
  2
DOT
 70
     0
  3
. . . . . . . . . . . . . . . . . . . . . . . .
 72
    65
 73
     2
 40
0.25
 49
0.0
 74
     0
 49
-0.25
 74
     0
  0
LTYPE
  5
2A
330
5
100
AcDbSymbolTableRecord
100
AcDbLinetypeTableRecord
  2
HIDDEN
 70
     0
  3
__ __ __ __ __ __ __ __ __ __ __ __ __ __ __
 72
    65
 73
     2
 40
3.5
 49
2.0
 74
     0
 49
-1.5
 74
     0
  0
ENDTAB
  0
TABLE
  2
LAYER
  5
2
330
0
100
AcDbSymbolTable
 70
     2
  0
LAYER
  5
10
330
2
100
AcDbSymbolTableRecord
100
AcDbLayerTableRecord
  2
0
 70
     0
 62
     7
  6
CONTINUOUS
370
    -3
390
F
  0
LAYER
  5
2B
330
2
100
AcDbSymbolTableRecord
100
AcDbLayerTableRecord
  2
DEFPOINTS
 70
     0
 62
     7
  6
CONTINUOUS
290
     0
370
    -3
390
F
  0
ENDTAB
  0
TABLE
  2
STYLE
  5
3
330
0
100
AcDbSymbolTable
 70
     2
  0
STYLE
  5
11
330
3
100
AcDbSymbolTableRecord
100
AcDbTextStyleTableRecord
  2
STANDARD
 70
     0
 40
0.0
 41
1.0
 50
0.0
 71
     0
 42
0.2
  3

  4

1001
ACAD
1000
MS Gothic
1071
    32817
  0
ENDTAB
  0
TABLE
  2
VIEW
  5
6
330
0
100
AcDbSymbolTable
 70
     0
  0
ENDTAB
  0
TABLE
  2
UCS
  5
7
330
0
100
AcDbSymbolTable
 70
     0
  0
ENDTAB
  0
TABLE
  2
APPID
  5
9
330
0
100
AcDbSymbolTable
 70
     2
  0
APPID
  5
12
330
9
100
AcDbSymbolTableRecord
100
AcDbRegAppTableRecord
  2
ACAD
 70
     0
  0
APPID
  5
1FA
330
9
100
AcDbSymbolTableRecord
100
AcDbRegAppTableRecord
  2
ACAD_PSEXT
 70
     0
  0
ENDTAB
  0
TABLE
  2
DIMSTYLE
  5
A
330
0
100
AcDbSymbolTable
 70
    12
100
AcDbDimStyleTable
 71
     1
340
2C
  0
DIMSTYLE
105
2C
102
{ACAD_REACTORS
330
1EB
102
}
330
A
100
AcDbSymbolTableRecord
100
AcDbDimStyleTableRecord
  2
DIMSTYLE1
 70
     0
 41
1.0
 42
2.54
 44
2.54
 73
     0
 74
     0
 77
     1
140
3.0
145
1.0
147
1.5
172
     1
173
     1
279
     2
340
11
  0
DIMSTYLE
105
2D
102
{ACAD_REACTORS
330
1EC
102
}
330
A
100
AcDbSymbolTableRecord
100
AcDbDimStyleTableRecord
  2
DIMSTYLE2
 70
     0
 41
1.0
 42
2.54
 44
2.54
 73
     0
 74
     0
 77
     1
140
3.0
145
1.0
147
1.5
172
     1
173
     1
279
     2
340
11
  0
DIMSTYLE
105
2E
102
{ACAD_REACTORS
330
1ED
102
}
330
A
100
AcDbSymbolTableRecord
100
AcDbDimStyleTableRecord
  2
DIMSTYLE3
 70
     0
 41
1.0
 42
2.54
 44
2.54
 73
     0
 74
     0
 77
     1
140
3.0
145
1.0
147
1.5
172
     1
173
     1
279
     2
340
11
  0
DIMSTYLE
105
2F
102
{ACAD_REACTORS
330
1EF
102
}
330
A
100
AcDbSymbolTableRecord
100
AcDbDimStyleTableRecord
  2
DIMSTYLE4
 70
     0
 41
1.0
 42
2.54
 44
2.54
 73
     0
 74
     0
 77
     1
140
3.0
145
1.0
147
1.5
172
     1
173
     1
279
     2
340
11
  0
DIMSTYLE
105
30
102
{ACAD_REACTORS
330
1F0
102
}
330
A
100
AcDbSymbolTableRecord
100
AcDbDimStyleTableRecord
  2
DIMSTYLE5
 70
     0
 41
1.0
 42
2.54
 44
2.54
 73
     0
 74
     0
 77
     1
140
3.0
145
1.0
147
1.5
172
     1
173
     1
279
     2
340
11
  0
DIMSTYLE
105
31
102
{ACAD_REACTORS
330
1F1
102
}
330
A
100
AcDbSymbolTableRecord
100
AcDbDimStyleTableRecord
  2
DIMSTYLE6
 70
     0
 41
1.0
 42
2.54
 44
2.54
 73
     0
 74
     0
 77
     1
140
3.0
145
1.0
147
1.5
172
     1
173
     1
279
     2
340
11
  0
DIMSTYLE
105
32
102
{ACAD_REACTORS
330
1F2
102
}
330
A
100
AcDbSymbolTableRecord
100
AcDbDimStyleTableRecord
  2
DIMSTYLE7
 70
     0
 41
1.0
 42
2.54
 44
2.54
 73
     0
 74
     0
 77
     1
140
3.0
145
1.0
147
1.5
172
     1
173
     1
279
     2
340
11
  0
DIMSTYLE
105
33
102
{ACAD_REACTORS
330
1F4
102
}
330
A
100
AcDbSymbolTableRecord
100
AcDbDimStyleTableRecord
  2
DIMSTYLE8
 70
     0
 41
1.0
 42
2.54
 44
2.54
 73
     0
 74
     0
 75
     1
 76
     1
 77
     1
140
3.0
145
1.0
147
1.5
172
     1
173
     1
279
     2
340
11
  0
DIMSTYLE
105
34
102
{ACAD_REACTORS
330
1F5
102
}
330
A
100
AcDbSymbolTableRecord
100
AcDbDimStyleTableRecord
  2
DIMSTYLE9
 70
     0
 41
1.0
 42
2.54
 44
2.54
 73
     0
 74
     0
 75
     1
 76
     1
 77
     1
140
3.0
145
1.0
147
1.5
172
     1
173
     1
279
     2
340
11
  0
DIMSTYLE
105
35
102
{ACAD_REACTORS
330
1F6
102
}
330
A
100
AcDbSymbolTableRecord
100
AcDbDimStyleTableRecord
  2
DIMSTYLE10
 70
     0
 41
1.0
 42
2.54
 44
2.54
 73
     0
 74
     0
 77
     1
140
3.0
145
1.0
147
1.5
172
     1
173
     1
279
     2
340
11
  0
DIMSTYLE
105
36
102
{ACAD_REACTORS
330
1F7
102
}
330
A
100
AcDbSymbolTableRecord
100
AcDbDimStyleTableRecord
  2
DIMSTYLE11
 70
     0
 41
1.0
 42
2.54
 44
2.54
 73
     0
 74
     0
 77
     1
140
3.0
145
1.0
147
1.5
172
     1
173
     1
279
     2
340
11
  0
ENDTAB
  0
TABLE
  2
BLOCK_RECORD
  5
1
330
0
100
AcDbSymbolTable
 70
    15
  0
BLOCK_RECORD
  5
22
330
1
100
AcDbSymbolTableRecord
100
AcDbBlockTableRecord
  2
*Model_Space
340
25
  0
BLOCK_RECORD
  5
1E
330
1
100
AcDbSymbolTableRecord
100
AcDbBlockTableRecord
  2
*Paper_Space
340
21
  0
BLOCK_RECORD
  5
3A
330
1
100
AcDbSymbolTableRecord
100
AcDbBlockTableRecord
  2
_OPEN30
340
0
102
{BLKREFS
331
44
331
46
331
51
331
52
331
5C
331
5D
331
68
331
69
331
72
331
73
331
7E
331
7F
331
89
331
8A
331
95
331
96
331
9F
331
A0
331
A8
331
A9
331
B5
331
B7
102
}
  0
BLOCK_RECORD
  5
40
330
1
100
AcDbSymbolTableRecord
100
AcDbBlockTableRecord
  2
*D1
340
0
  0
BLOCK_RECORD
  5
4E
330
1
100
AcDbSymbolTableRecord
100
AcDbBlockTableRecord
  2
*D2
340
0
  0
BLOCK_RECORD
  5
59
330
1
100
AcDbSymbolTableRecord
100
AcDbBlockTableRecord
  2
*D3
340
0
  0
BLOCK_RECORD
  5
65
330
1
100
AcDbSymbolTableRecord
100
AcDbBlockTableRecord
  2
*D4
340
0
  0
BLOCK_RECORD
  5
6F
330
1
100
AcDbSymbolTableRecord
100
AcDbBlockTableRecord
  2
*D5
340
0
  0
BLOCK_RECORD
  5
7B
330
1
100
AcDbSymbolTableRecord
100
AcDbBlockTableRecord
  2
*D6
340
0
  0
BLOCK_RECORD
  5
86
330
1
100
AcDbSymbolTableRecord
100
AcDbBlockTableRecord
  2
*D7
340
0
  0
BLOCK_RECORD
  5
91
330
1
100
AcDbSymbolTableRecord
100
AcDbBlockTableRecord
  2
*D8
340
0
  0
BLOCK_RECORD
  5
9B
330
1
100
AcDbSymbolTableRecord
100
AcDbBlockTableRecord
  2
*D9
340
0
  0
BLOCK_RECORD
  5
A5
330
1
100
AcDbSymbolTableRecord
100
AcDbBlockTableRecord
  2
*D10
340
0
  0
BLOCK_RECORD
  5
B1
330
1
100
AcDbSymbolTableRecord
100
AcDbBlockTableRecord
  2
*D11
340
0
  0
BLOCK_RECORD
  5
BF
330
1
100
AcDbSymbolTableRecord
100
AcDbBlockTableRecord
  2
KOZU0001
340
0
102
{BLKREFS
331
1EE
102
}
  0
BLOCK_RECORD
  5
C8
330
1
100
AcDbSymbolTableRecord
100
AcDbBlockTableRecord
  2
KOZU0002
340
0
102
{BLKREFS
331
1F3
102
}
  0
ENDTAB
  0
ENDSEC
  0
SECTION
  2
BLOCKS
  0
BLOCK
  5
23
330
22
100
AcDbEntity
  8
0
100
AcDbBlockBegin
  2
*Model_Space
 70
     0
 10
0.0
 20
0.0
 30
0.0
  3
*Model_Space
  1

  0
ENDBLK
  5
24
330
22
100
AcDbEntity
  8
0
100
AcDbBlockEnd
  0
BLOCK
  5
1F
330
1E
100
AcDbEntity
 67
     1
  8
0
100
AcDbBlockBegin
  2
*Paper_Space
 70
     0
 10
0.0
 20
0.0
 30
0.0
  3
*Paper_Space
  1

  0
ENDBLK
  5
20
330
1E
100
AcDbEntity
 67
     1
  8
0
100
AcDbBlockEnd
  0
BLOCK
  5
3B
330
3A
100
AcDbEntity
  8
0
100
AcDbBlockBegin
  2
_OPEN30
 70
     0
 10
0.0
 20
0.0
 30
0.0
  3
_OPEN30
  1

  0
LINE
  5
3C
330
3A
100
AcDbEntity
  8
0
  6
ByBlock
 62
     0
100
AcDbLine
 10
0.0
 20
0.0
 30
0.0
 11
-2.999999999999993
 21
-1.000000000000017
 31
0.0
  0
LINE
  5
3D
330
3A
100
AcDbEntity
  8
0
  6
ByBlock
 62
     0
100
AcDbLine
 10
0.0
 20
0.0
 30
0.0
 11
-3.000000000000006
 21
0.9999999999999815
 31
0.0
  0
LINE
  5
3E
330
3A
100
AcDbEntity
  8
0
  6
ByBlock
 62
     0
100
AcDbLine
 10
0.0
 20
0.0
 30
0.0
 11
-3.0
 21
0.0
 31
0.0
  0
ENDBLK
  5
3F
330
3A
100
AcDbEntity
  8
0
100
AcDbBlockEnd
  0
BLOCK
  5
41
330
40
100
AcDbEntity
  8
0
100
AcDbBlockBegin
  2
*D1
 70
     1
 10
0.0
 20
0.0
 30
0.0
  3
*D1
  1

  0
LINE
  5
42
330
40
100
AcDbEntity
  8
0
  6
Continuous
 62
     7
100
AcDbLine
 10
-135.4337768554688
 20
356.1220092773438
 30
0.0
 11
-120.5709838867188
 21
356.1220092773438
 31
0.0
  0
LINE
  5
43
330
40
100
AcDbEntity
  8
0
  6
Continuous
 62
     7
100
AcDbLine
 10
-138.9337768554687
 20
356.1220092773438
 30
0.0
 11
-135.4337768554688
 21
356.1220092773438
 31
0.0
  0
INSERT
  5
44
330
40
100
AcDbEntity
  8
0
  6
Continuous
 62
     7
100
AcDbBlockReference
  2
_OPEN30
 10
-138.9337768554687
 20
356.1220092773438
 30
0.0
 50
0.0000000000003562
  0
LINE
  5
45
330
40
100
AcDbEntity
  8
0
  6
Continuous
 62
     7
100
AcDbLine
 10
-141.9337768554688
 20
356.1220092773438
 30
0.0
 11
-145.2837768554687
 21
356.1220092773437
 31
0.0
  0
INSERT
  5
46
330
40
100
AcDbEntity
  8
0
  6
Continuous
 62
     7
100
AcDbBlockReference
  2
_OPEN30
 10
-135.4337768554688
 20
356.1220092773438
 30
0.0
 50
180.0
  0
LINE
  5
47
330
40
100
AcDbEntity
  8
0
  6
Continuous
 62
     7
100
AcDbLine
 10
-132.4337768554687
 20
356.1220092773438
 30
0.0
 11
-129.0837768554688
 21
356.1220092773438
 31
0.0
  0
LINE
  5
48
330
40
100
AcDbEntity
  8
0
  6
Continuous
 62
     7
100
AcDbLine
 10
-135.4337768554688
 20
326.4079504394532
 30
0.0
 11
-135.4337768554688
 21
358.4080200195313
 31
0.0
  0
TEXT
  5
49
330
40
100
AcDbEntity
  8
0
  6
Continuous
 62
     7
100
AcDbText
 10
-128.7109837532044
 20
356.8720092773438
 30
0.0
 40
3.0
  1
3.5
 41
1.356666684150696
100
AcDbText
  0
POINT
  5
4A
330
40
100
AcDbEntity
  8
DEFPOINTS
  6
Continuous
 62
     7
100
AcDbPoint
 10
-138.9337768554687
 20
358.4080200195313
 30
0.0
  0
POINT
  5
4B
330
40
100
AcDbEntity
  8
DEFPOINTS
  6
Continuous
 62
     7
100
AcDbPoint
 10
-135.4337768554688
 20
323.8679504394531
 30
0.0
  0
POINT
  5
4C
330
40
100
AcDbEntity
  8
DEFPOINTS
  6
Continuous
 62
     7
100
AcDbPoint
 10
-135.4337768554688
 20
356.1220092773438
 30
0.0
  0
ENDBLK
  5
4D
330
40
100
AcDbEntity
  8
0
100
AcDbBlockEnd
  0
BLOCK
  5
4F
330
4E
100
AcDbEntity
  8
0
100
AcDbBlockBegin
  2
*D2
 70
     1
 10
0.0
 20
0.0
 30
0.0
  3
*D2
  1

  0
LINE
  5
50
330
4E
100
AcDbEntity
  8
0
  6
Continuous
 62
     7
100
AcDbLine
 10
-141.9337768554688
 20
346.4581298828125
 30
0.0
 11
-167.9337768554688
 21
346.4581298828125
 31
0.0
  0
INSERT
  5
51
330
4E
100
AcDbEntity
  8
0
  6
Continuous
 62
     7
100
AcDbBlockReference
  2
_OPEN30
 10
-138.9337768554687
 20
346.4581298828125
 30
0.0
  0
INSERT
  5
52
330
4E
100
AcDbEntity
  8
0
  6
Continuous
 62
     7
100
AcDbBlockReference
  2
_OPEN30
 10
-170.9337768554688
 20
346.4581298828125
 30
0.0
 50
180.0000000000004
  0
LINE
  5
53
330
4E
100
AcDbEntity
  8
0
  6
Continuous
 62
     7
100
AcDbLine
 10
-170.9337768554688
 20
275.9079504394532
 30
0.0
 11
-170.9337768554688
 21
348.744140625
 31
0.0
  0
TEXT
  5
54
330
4E
100
AcDbEntity
  8
0
  6
Continuous
 62
     7
100
AcDbText
 10
-157.5037769675255
 20
347.2081298828125
 30
0.0
 40
3.0
  1
32
 41
1.028000020980834
100
AcDbText
  0
POINT
  5
55
330
4E
100
AcDbEntity
  8
DEFPOINTS
  6
Continuous
 62
     7
100
AcDbPoint
 10
-138.9337768554687
 20
358.4080200195313
 30
0.0
  0
POINT
  5
56
330
4E
100
AcDbEntity
  8
DEFPOINTS
  6
Continuous
 62
     7
100
AcDbPoint
 10
-170.9337768554688
 20
273.3679504394531
 30
0.0
  0
POINT
  5
57
330
4E
100
AcDbEntity
  8
DEFPOINTS
  6
Continuous
 62
     7
100
AcDbPoint
 10
-170.9337768554688
 20
346.4581298828125
 30
0.0
  0
ENDBLK
  5
58
330
4E
100
AcDbEntity
  8
0
100
AcDbBlockEnd
  0
BLOCK
  5
5A
330
59
100
AcDbEntity
  8
0
100
AcDbBlockBegin
  2
*D3
 70
     1
 10
0.0
 20
0.0
 30
0.0
  3
*D3
  1

  0
LINE
  5
5B
330
59
100
AcDbEntity
  8
0
  6
Continuous
 62
     7
100
AcDbLine
 10
-74.20970916748048
 20
194.8679351806641
 30
0.0
 11
-74.20970916748044
 21
271.8679504394531
 31
0.0
  0
INSERT
  5
5C
330
59
100
AcDbEntity
  8
0
  6
Continuous
 62
     7
100
AcDbBlockReference
  2
_OPEN30
 10
-74.20970916748046
 20
191.8679351806641
 30
0.0
 50
270.0000000000005
  0
INSERT
  5
5D
330
59
100
AcDbEntity
  8
0
  6
Continuous
 62
     7
100
AcDbBlockReference
  2
_OPEN30
 10
-74.20970916748046
 20
274.8679504394531
 30
0.0
 50
90.00000000000019
  0
LINE
  5
5E
330
59
100
AcDbEntity
  8
0
  6
Continuous
 62
     7
100
AcDbLine
 10
-101.3937692260742
 20
191.8679351806641
 30
0.0
 11
-71.9237060546875
 21
191.8679351806641
 31
0.0
  0
LINE
  5
5F
330
59
100
AcDbEntity
  8
0
  6
Continuous
 62
     7
100
AcDbLine
 10
-101.3937692260742
 20
274.8679504394531
 30
0.0
 11
-71.9237060546875
 21
274.8679504394531
 31
0.0
  0
TEXT
  5
60
330
59
100
AcDbEntity
  8
0
  6
Continuous
 62
     7
100
AcDbText
 10
-74.9597089895751
 20
229.2979349762192
 30
0.0
 40
3.0
  1
%%C83
 50
90.00000250447815
 41
0.9498249830693319
100
AcDbText
  0
POINT
  5
61
330
59
100
AcDbEntity
  8
DEFPOINTS
  6
Continuous
 62
     7
100
AcDbPoint
 10
-103.9337692260742
 20
191.8679351806641
 30
0.0
  0
POINT
  5
62
330
59
100
AcDbEntity
  8
DEFPOINTS
  6
Continuous
 62
     7
100
AcDbPoint
 10
-103.9337692260742
 20
274.8679504394531
 30
0.0
  0
POINT
  5
63
330
59
100
AcDbEntity
  8
DEFPOINTS
  6
Continuous
 62
     7
100
AcDbPoint
 10
-74.20970916748046
 20
274.8679504394531
 30
0.0
  0
ENDBLK
  5
64
330
59
100
AcDbEntity
  8
0
100
AcDbBlockEnd
  0
BLOCK
  5
66
330
65
100
AcDbEntity
  8
0
100
AcDbBlockBegin
  2
*D4
 70
     1
 10
0.0
 20
0.0
 30
0.0
  3
*D4
  1

  0
LINE
  5
67
330
65
100
AcDbEntity
  8
0
  6
Continuous
 62
     7
100
AcDbLine
 10
-153.9337768554688
 20
246.0818176269531
 30
0.0
 11
-203.9337768554688
 21
246.0818176269531
 31
0.0
  0
INSERT
  5
68
330
65
100
AcDbEntity
  8
0
  6
Continuous
 62
     7
100
AcDbBlockReference
  2
_OPEN30
 10
-150.9337768554688
 20
246.0818176269531
 30
0.0
  0
INSERT
  5
69
330
65
100
AcDbEntity
  8
0
  6
Continuous
 62
     7
100
AcDbBlockReference
  2
_OPEN30
 10
-206.9337768554688
 20
246.0818176269531
 30
0.0
 50
180.0000000000004
  0
TEXT
  5
6A
330
65
100
AcDbEntity
  8
0
  6
Continuous
 62
     7
100
AcDbText
 10
-181.5037769675255
 20
246.8318176269531
 30
0.0
 40
3.0
  1
56
 41
1.028000020980834
100
AcDbText
  0
POINT
  5
6B
330
65
100
AcDbEntity
  8
DEFPOINTS
  6
Continuous
 62
     7
100
AcDbPoint
 10
-150.9337768554688
 20
233.3679351806641
 30
0.0
  0
POINT
  5
6C
330
65
100
AcDbEntity
  8
DEFPOINTS
  6
Continuous
 62
     7
100
AcDbPoint
 10
-206.9337768554688
 20
284.3679504394531
 30
0.0
  0
POINT
  5
6D
330
65
100
AcDbEntity
  8
DEFPOINTS
  6
Continuous
 62
     7
100
AcDbPoint
 10
-206.9337768554688
 20
246.0818176269531
 30
0.0
  0
ENDBLK
  5
6E
330
65
100
AcDbEntity
  8
0
100
AcDbBlockEnd
  0
BLOCK
  5
70
330
6F
100
AcDbEntity
  8
0
100
AcDbBlockBegin
  2
*D5
 70
     1
 10
0.0
 20
0.0
 30
0.0
  3
*D5
  1

  0
LINE
  5
71
330
6F
100
AcDbEntity
  8
0
  6
Continuous
 62
     7
100
AcDbLine
 10
-105.9337692260742
 20
114.0203857421875
 30
0.0
 11
-167.9337768554688
 21
114.0203857421875
 31
0.0
  0
INSERT
  5
72
330
6F
100
AcDbEntity
  8
0
  6
Continuous
 62
     7
100
AcDbBlockReference
  2
_OPEN30
 10
-102.9337692260742
 20
114.0203857421875
 30
0.0
  0
INSERT
  5
73
330
6F
100
AcDbEntity
  8
0
  6
Continuous
 62
     7
100
AcDbBlockReference
  2
_OPEN30
 10
-170.9337768554688
 20
114.0203857421875
 30
0.0
 50
180.0000000000004
  0
LINE
  5
74
330
6F
100
AcDbEntity
  8
0
  6
Continuous
 62
     7
100
AcDbLine
 10
-102.9337692260742
 20
190.3279351806641
 30
0.0
 11
-102.9337692260742
 21
111.7343902587891
 31
0.0
  0
LINE
  5
75
330
6F
100
AcDbEntity
  8
0
  6
Continuous
 62
     7
100
AcDbLine
 10
-170.9337768554687
 20
190.8279351806641
 30
0.0
 11
-170.9337768554688
 21
111.7343902587891
 31
0.0
  0
TEXT
  5
76
330
6F
100
AcDbEntity
  8
0
  6
Continuous
 62
     7
100
AcDbText
 10
-139.5037769675255
 20
114.7703857421875
 30
0.0
 40
3.0
  1
68
 41
1.028000020980834
100
AcDbText
  0
POINT
  5
77
330
6F
100
AcDbEntity
  8
DEFPOINTS
  6
Continuous
 62
     7
100
AcDbPoint
 10
-102.9337692260742
 20
192.8679351806641
 30
0.0
  0
POINT
  5
78
330
6F
100
AcDbEntity
  8
DEFPOINTS
  6
Continuous
 62
     7
100
AcDbPoint
 10
-170.9337768554688
 20
193.3679351806641
 30
0.0
  0
POINT
  5
79
330
6F
100
AcDbEntity
  8
DEFPOINTS
  6
Continuous
 62
     7
100
AcDbPoint
 10
-170.9337768554688
 20
114.0203857421875
 30
0.0
  0
ENDBLK
  5
7A
330
6F
100
AcDbEntity
  8
0
100
AcDbBlockEnd
  0
BLOCK
  5
7C
330
7B
100
AcDbEntity
  8
0
100
AcDbBlockBegin
  2
*D6
 70
     1
 10
0.0
 20
0.0
 30
0.0
  3
*D6
  1

  0
LINE
  5
7D
330
7B
100
AcDbEntity
  8
0
  6
Continuous
 62
     7
100
AcDbLine
 10
-108.8684692382812
 20
188.8679351806641
 30
0.0
 11
-108.8684692382813
 21
178.8679351806641
 31
0.0
  0
INSERT
  5
7E
330
7B
100
AcDbEntity
  8
0
  6
Continuous
 62
     7
100
AcDbBlockReference
  2
_OPEN30
 10
-108.8684692382813
 20
191.8679351806641
 30
0.0
 50
90.00000000000019
  0
INSERT
  5
7F
330
7B
100
AcDbEntity
  8
0
  6
Continuous
 62
     7
100
AcDbBlockReference
  2
_OPEN30
 10
-108.8684692382813
 20
175.8679351806641
 30
0.0
 50
270.0000000000005
  0
LINE
  5
80
330
7B
100
AcDbEntity
  8
0
  6
Continuous
 62
     7
100
AcDbLine
 10
-131.3928002929688
 20
175.8679351806641
 30
0.0
 11
-106.5824661254883
 21
175.8679351806641
 31
0.0
  0
TEXT
  5
81
330
7B
100
AcDbEntity
  8
0
  6
Continuous
 62
     7
100
AcDbText
 10
-109.618469125943
 20
181.2979350358238
 30
0.0
 40
3.0
  1
16
 50
90.00000250447815
 41
1.285000026226043
100
AcDbText
  0
POINT
  5
82
330
7B
100
AcDbEntity
  8
DEFPOINTS
  6
Continuous
 62
     7
100
AcDbPoint
 10
-103.9337692260742
 20
191.8679351806641
 30
0.0
  0
POINT
  5
83
330
7B
100
AcDbEntity
  8
DEFPOINTS
  6
Continuous
 62
     7
100
AcDbPoint
 10
-133.9328002929688
 20
175.8679351806641
 30
0.0
  0
POINT
  5
84
330
7B
100
AcDbEntity
  8
DEFPOINTS
  6
Continuous
 62
     7
100
AcDbPoint
 10
-108.8684692382813
 20
175.8679351806641
 30
0.0
  0
ENDBLK
  5
85
330
7B
100
AcDbEntity
  8
0
100
AcDbBlockEnd
  0
BLOCK
  5
87
330
86
100
AcDbEntity
  8
0
100
AcDbBlockBegin
  2
*D7
 70
     1
 10
0.0
 20
0.0
 30
0.0
  3
*D7
  1

  0
LINE
  5
88
330
86
100
AcDbEntity
  8
0
  6
Continuous
 62
     7
100
AcDbLine
 10
-132.4337768554687
 20
165.1239471435547
 30
0.0
 11
-120.4337692260742
 21
165.1239471435547
 31
0.0
  0
INSERT
  5
89
330
86
100
AcDbEntity
  8
0
  6
Continuous
 62
     7
100
AcDbBlockReference
  2
_OPEN30
 10
-135.4337768554688
 20
165.1239471435547
 30
0.0
 50
180.0000000000004
  0
INSERT
  5
8A
330
86
100
AcDbEntity
  8
0
  6
Continuous
 62
     7
100
AcDbBlockReference
  2
_OPEN30
 10
-117.4337692260742
 20
165.1239471435547
 30
0.0
  0
LINE
  5
8B
330
86
100
AcDbEntity
  8
0
  6
Continuous
 62
     7
100
AcDbLine
 10
-117.4337692260742
 20
187.3279351806641
 30
0.0
 11
-117.4337692260742
 21
162.8379516601563
 31
0.0
  0
TEXT
  5
8C
330
86
100
AcDbEntity
  8
0
  6
Continuous
 62
     7
100
AcDbText
 10
-129.003769338131
 20
165.8739471435547
 30
0.0
 40
3.0
  1
18
 41
1.285000026226043
100
AcDbText
  0
POINT
  5
8D
330
86
100
AcDbEntity
  8
DEFPOINTS
  6
Continuous
 62
     7
100
AcDbPoint
 10
-135.4337768554688
 20
142.8679351806641
 30
0.0
  0
POINT
  5
8E
330
86
100
AcDbEntity
  8
DEFPOINTS
  6
Continuous
 62
     7
100
AcDbPoint
 10
-117.4337692260742
 20
189.8679351806641
 30
0.0
  0
POINT
  5
8F
330
86
100
AcDbEntity
  8
DEFPOINTS
  6
Continuous
 62
     7
100
AcDbPoint
 10
-117.4337692260742
 20
165.1239471435547
 30
0.0
  0
ENDBLK
  5
90
330
86
100
AcDbEntity
  8
0
100
AcDbBlockEnd
  0
BLOCK
  5
92
330
91
100
AcDbEntity
  8
0
100
AcDbBlockBegin
  2
*D8
 70
     1
 10
0.0
 20
0.0
 30
0.0
  3
*D8
  1

  0
LINE
  5
93
330
91
100
AcDbEntity
  8
0
  6
Continuous
 62
     7
100
AcDbLine
 10
-385.2074584960938
 20
311.0140075683594
 30
0.0
 11
-364.2169189453125
 21
345.3580017089844
 31
0.0
  0
LINE
  5
94
330
91
100
AcDbEntity
  8
0
  6
Continuous
 62
     7
100
AcDbLine
 10
-478.5552624853015
 20
158.2816236725652
 30
0.0
 11
-386.7719469873547
 21
308.4542466887629
 31
0.0
  0
INSERT
  5
95
330
91
100
AcDbEntity
  8
0
  6
Continuous
 62
     7
100
AcDbBlockReference
  2
_OPEN30
 10
-480.1197509765625
 20
155.7218627929688
 30
0.0
 50
238.5673351860685
  0
INSERT
  5
96
330
91
100
AcDbEntity
  8
0
  6
Continuous
 62
     7
100
AcDbBlockReference
  2
_OPEN30
 10
-385.2074584960938
 20
311.0140075683594
 30
0.0
 50
58.56733518606772
  0
TEXT
  5
97
330
91
100
AcDbEntity
  8
0
  6
Continuous
 62
     7
100
AcDbText
 10
-381.6101399205498
 20
318.3204054988822
 30
0.0
 40
3.0
  1
%%C１８２（防水皿外径）
 50
58.59999730490708
 41
0.8440126077968535
100
AcDbText
  0
POINT
  5
98
330
91
100
AcDbEntity
  8
DEFPOINTS
  6
Continuous
 62
     7
100
AcDbPoint
 10
-480.1197509765625
 20
155.7218627929688
 30
0.0
  0
POINT
  5
99
330
91
100
AcDbEntity
  8
DEFPOINTS
  6
Continuous
 62
     7
100
AcDbPoint
 10
-385.2074584960938
 20
311.0140075683594
 30
0.0
  0
ENDBLK
  5
9A
330
91
100
AcDbEntity
  8
0
100
AcDbBlockEnd
  0
BLOCK
  5
9C
330
9B
100
AcDbEntity
  8
0
100
AcDbBlockBegin
  2
*D9
 70
     1
 10
0.0
 20
0.0
 30
0.0
  3
*D9
  1

  0
LINE
  5
9D
330
9B
100
AcDbEntity
  8
0
  6
Continuous
 62
     7
100
AcDbLine
 10
-387.2476806640625
 20
269.4427490234375
 30
0.0
 11
-330.6021728515625
 21
314.4374694824219
 31
0.0
  0
LINE
  5
9E
330
9B
100
AcDbEntity
  8
0
  6
Continuous
 62
     7
100
AcDbLine
 10
-475.7304289047986
 20
199.1590454248441
 30
0.0
 11
-389.5967805678576
 21
267.576809677695
 31
0.0
  0
INSERT
  5
9F
330
9B
100
AcDbEntity
  8
0
  6
Continuous
 62
     7
100
AcDbBlockReference
  2
_OPEN30
 10
-478.0795288085938
 20
197.2931060791016
 30
0.0
 50
218.4608532120111
  0
INSERT
  5
A0
330
9B
100
AcDbEntity
  8
0
  6
Continuous
 62
     7
100
AcDbBlockReference
  2
_OPEN30
 10
-387.2476806640625
 20
269.4427490234375
 30
0.0
 50
38.46085321201039
  0
TEXT
  5
A1
330
9B
100
AcDbEntity
  8
0
  6
Continuous
 62
     7
100
AcDbText
 10
-356.2289158405032
 20
295.0253756134615
 30
0.0
 40
3.0
  1
%%C１１６（目皿部外径）
 50
38.50000050217768
 41
0.8440126077968535
100
AcDbText
  0
POINT
  5
A2
330
9B
100
AcDbEntity
  8
DEFPOINTS
  6
Continuous
 62
     7
100
AcDbPoint
 10
-478.0795288085938
 20
197.2931060791016
 30
0.0
  0
POINT
  5
A3
330
9B
100
AcDbEntity
  8
DEFPOINTS
  6
Continuous
 62
     7
100
AcDbPoint
 10
-387.2476806640625
 20
269.4427490234375
 30
0.0
  0
ENDBLK
  5
A4
330
9B
100
AcDbEntity
  8
0
100
AcDbBlockEnd
  0
BLOCK
  5
A6
330
A5
100
AcDbEntity
  8
0
100
AcDbBlockBegin
  2
*D10
 70
     1
 10
0.0
 20
0.0
 30
0.0
  3
*D10
  1

  0
LINE
  5
A7
330
A5
100
AcDbEntity
  8
0
  6
Continuous
 62
     7
100
AcDbLine
 10
-141.9337768554688
 20
356.1220092773438
 30
0.0
 11
-197.9337768554688
 21
356.1220092773438
 31
0.0
  0
INSERT
  5
A8
330
A5
100
AcDbEntity
  8
0
  6
Continuous
 62
     7
100
AcDbBlockReference
  2
_OPEN30
 10
-138.9337768554687
 20
356.1220092773438
 30
0.0
  0
INSERT
  5
A9
330
A5
100
AcDbEntity
  8
0
  6
Continuous
 62
     7
100
AcDbBlockReference
  2
_OPEN30
 10
-200.9337768554688
 20
356.1220092773438
 30
0.0
 50
180.0000000000004
  0
LINE
  5
AA
330
A5
100
AcDbEntity
  8
0
  6
Continuous
 62
     7
100
AcDbLine
 10
-138.9337768554687
 20
324.9079504394532
 30
0.0
 11
-138.9337768554687
 21
358.4080200195313
 31
0.0
  0
LINE
  5
AB
330
A5
100
AcDbEntity
  8
0
  6
Continuous
 62
     7
100
AcDbLine
 10
-200.9337768554688
 20
293.9079504394532
 30
0.0
 11
-200.9337768554688
 21
358.4080200195313
 31
0.0
  0
TEXT
  5
AC
330
A5
100
AcDbEntity
  8
0
  6
Continuous
 62
     7
100
AcDbText
 10
-184.5037774443626
 20
356.8720092773438
 30
0.0
 40
3.0
  1
６２　（５１～７１）
 41
0.8443929326254473
100
AcDbText
  0
POINT
  5
AD
330
A5
100
AcDbEntity
  8
DEFPOINTS
  6
Continuous
 62
     7
100
AcDbPoint
 10
-138.9337768554687
 20
322.3679504394531
 30
0.0
  0
POINT
  5
AE
330
A5
100
AcDbEntity
  8
DEFPOINTS
  6
Continuous
 62
     7
100
AcDbPoint
 10
-200.9337768554688
 20
291.3679504394531
 30
0.0
  0
POINT
  5
AF
330
A5
100
AcDbEntity
  8
DEFPOINTS
  6
Continuous
 62
     7
100
AcDbPoint
 10
-200.9337768554688
 20
356.1220092773438
 30
0.0
  0
ENDBLK
  5
B0
330
A5
100
AcDbEntity
  8
0
100
AcDbBlockEnd
  0
BLOCK
  5
B2
330
B1
100
AcDbEntity
  8
0
100
AcDbBlockBegin
  2
*D11
 70
     1
 10
0.0
 20
0.0
 30
0.0
  3
*D11
  1

  0
LINE
  5
B3
330
B1
100
AcDbEntity
  8
0
  6
Continuous
 62
     7
100
AcDbLine
 10
-206.9337768554688
 20
356.1220092773438
 30
0.0
 11
-226.0619659423828
 21
356.1220092773438
 31
0.0
  0
LINE
  5
B4
330
B1
100
AcDbEntity
  8
0
  6
Continuous
 62
     7
100
AcDbLine
 10
-200.9337768554688
 20
356.1220092773438
 30
0.0
 11
-206.9337768554688
 21
356.1220092773438
 31
0.0
  0
INSERT
  5
B5
330
B1
100
AcDbEntity
  8
0
  6
Continuous
 62
     7
100
AcDbBlockReference
  2
_OPEN30
 10
-200.9337768554688
 20
356.1220092773438
 30
0.0
 50
180.0
  0
LINE
  5
B6
330
B1
100
AcDbEntity
  8
0
  6
Continuous
 62
     7
100
AcDbLine
 10
-197.9337768554688
 20
356.1220092773438
 30
0.0
 11
-194.5837768554688
 21
356.1220092773438
 31
0.0
  0
INSERT
  5
B7
330
B1
100
AcDbEntity
  8
0
  6
Continuous
 62
     7
100
AcDbBlockReference
  2
_OPEN30
 10
-206.9337768554688
 20
356.1220092773438
 30
0.0
 50
0.0000000000003562
  0
LINE
  5
B8
330
B1
100
AcDbEntity
  8
0
  6
Continuous
 62
     7
100
AcDbLine
 10
-209.9337768554689
 20
356.1220092773438
 30
0.0
 11
-213.2837768554687
 21
356.1220092773437
 31
0.0
  0
LINE
  5
B9
330
B1
100
AcDbEntity
  8
0
  6
Continuous
 62
     7
100
AcDbLine
 10
-206.9337768554688
 20
286.9079504394532
 30
0.0
 11
-206.9337768554688
 21
358.4080200195313
 31
0.0
  0
TEXT
  5
BA
330
B1
100
AcDbEntity
  8
0
  6
Continuous
 62
     7
100
AcDbText
 10
-226.0619739294052
 20
356.8720092773438
 30
0.0
 40
3.0
  1
6
100
AcDbText
  0
POINT
  5
BB
330
B1
100
AcDbEntity
  8
DEFPOINTS
  6
Continuous
 62
     7
100
AcDbPoint
 10
-200.9337768554688
 20
358.4080200195313
 30
0.0
  0
POINT
  5
BC
330
B1
100
AcDbEntity
  8
DEFPOINTS
  6
Continuous
 62
     7
100
AcDbPoint
 10
-206.9337768554688
 20
284.3679504394531
 30
0.0
  0
POINT
  5
BD
330
B1
100
AcDbEntity
  8
DEFPOINTS
  6
Continuous
 62
     7
100
AcDbPoint
 10
-206.9337768554688
 20
356.1220092773438
 30
0.0
  0
ENDBLK
  5
BE
330
B1
100
AcDbEntity
  8
0
100
AcDbBlockEnd
  0
BLOCK
  5
C0
330
BF
100
AcDbEntity
  8
0
100
AcDbBlockBegin
  2
KOZU0001
 70
     0
 10
0.0
 20
0.0
 30
0.0
  3
KOZU0001
  1

  0
LINE
  5
C1
330
BF
100
AcDbEntity
  8
0
  6
Continuous
 62
     7
100
AcDbLine
 10
0.0
 20
0.0
 30
0.0
 11
31.69122314453125
 21
28.57049560546875
 31
0.0
  0
LINE
  5
C2
330
BF
100
AcDbEntity
  8
0
  6
Continuous
 62
     7
100
AcDbLine
 10
31.69122314453125
 20
28.57049560546875
 30
0.0
 11
71.14777374267578
 21
28.57049560546875
 31
0.0
  0
LINE
  5
C3
330
BF
100
AcDbEntity
  8
0
  6
Continuous
 62
     7
100
AcDbLine
 10
0.0
 20
0.0
 30
0.0
 11
1.558598618034958
 21
2.751503288724096
 31
0.0
  0
LINE
  5
C4
330
BF
100
AcDbEntity
  8
0
  6
Continuous
 62
     7
100
AcDbLine
 10
0.0
 20
0.0
 30
0.0
 11
2.897780867662424
 21
1.266043460158302
 31
0.0
  0
TEXT
  5
C5
330
BF
100
AcDbEntity
  8
0
  6
Continuous
 62
     7
100
AcDbText
 10
34.28777241706848
 20
29.32049560546875
 30
0.0
 40
3.0
  1
配管接続口
 41
0.8487395020950888
100
AcDbText
  0
TEXT
  5
C6
330
BF
100
AcDbEntity
  8
0
  6
Continuous
 62
     7
100
AcDbText
 10
34.28777241706848
 20
24.05549560546875
 30
0.0
 40
3.0
  1
Ｒｃ２　１／２（６５Ａ）
 41
0.8436974815103043
100
AcDbText
  0
ENDBLK
  5
C7
330
BF
100
AcDbEntity
  8
0
100
AcDbBlockEnd
  0
BLOCK
  5
C9
330
C8
100
AcDbEntity
  8
0
100
AcDbBlockBegin
  2
KOZU0002
 70
     0
 10
0.0
 20
0.0
 30
0.0
  3
KOZU0002
  1

  0
LINE
  5
CA
330
C8
100
AcDbEntity
  8
0
  6
Continuous
 62
     7
100
AcDbLine
 10
0.0
 20
0.0
 30
0.0
 11
35.90790557861328
 21
-31.41941833496094
 31
0.0
  0
LINE
  5
CB
330
C8
100
AcDbEntity
  8
0
  6
Continuous
 62
     7
100
AcDbLine
 10
35.90790557861328
 20
-31.41941833496094
 30
0.0
 11
64.35305786132814
 21
-31.41941833496094
 31
0.0
  0
LINE
  5
CC
330
C8
100
AcDbEntity
  8
0
  6
Continuous
 62
     7
100
AcDbLine
 10
0.0
 20
0.0
 30
0.0
 11
2.916234673593493
 21
-1.222937172765245
 31
0.0
  0
LINE
  5
CD
330
C8
100
AcDbEntity
  8
0
  6
Continuous
 62
     7
100
AcDbLine
 10
0.0
 20
0.0
 30
0.0
 11
1.599225435215649
 21
-2.728090542368292
 31
0.0
  0
TEXT
  5
CE
330
C8
100
AcDbEntity
  8
0
  6
Continuous
 62
     7
100
AcDbText
 10
39.49305653572083
 20
-30.66941833496094
 30
0.0
 40
3.0
  1
共廻り防止用羽根
 41
0.8454512278006642
100
AcDbText
  0
TEXT
  5
CF
330
C8
100
AcDbEntity
  8
0
  6
Continuous
 62
     7
100
AcDbText
 10
39.49305653572083
 20
-35.93441833496094
 30
0.0
 40
3.0
  1
３ヶ所
 41
0.8550420278260688
100
AcDbText
  0
ENDBLK
  5
D0
330
C8
100
AcDbEntity
  8
0
100
AcDbBlockEnd
  0
ENDSEC
  0
SECTION
  2
ENTITIES
  0
POINT
  5
D1
330
22
100
AcDbEntity
  8
0
  6
Continuous
 62
     7
100
AcDbPoint
 10
-135.4337768554688
 20
233.3679351806641
 30
0.0
  0
POINT
  5
D2
330
22
100
AcDbEntity
  8
0
  6
Continuous
 62
     7
100
AcDbPoint
 10
-432.6636047363281
 20
233.3679351806641
 30
0.0
  0
POINT
  5
D3
330
22
100
AcDbEntity
  8
0
  6
Continuous
 62
     7
100
AcDbPoint
 10
-432.6636047363281
 20
233.3679351806641
 30
0.0
  0
POINT
  5
D4
330
22
100
AcDbEntity
  8
0
  6
Continuous
 62
     7
100
AcDbPoint
 10
-432.6636047363281
 20
233.3679351806641
 30
0.0
  0
POINT
  5
D5
330
22
100
AcDbEntity
  8
0
  6
Continuous
 62
     7
100
AcDbPoint
 10
-135.4337768554688
 20
233.3679351806641
 30
0.0
  0
LINE
  5
D6
330
22
100
AcDbEntity
  8
0
  6
CENTER
 62
     7
100
AcDbLine
 10
-98.96936035156251
 20
233.3679351806641
 30
0.0
 11
-212.8747253417969
 21
233.3679351806641
 31
0.0
  0
LINE
  5
D7
330
22
100
AcDbEntity
  8
0
  6
CENTER
 62
     7
100
AcDbLine
 10
-335.70703125
 20
233.3679351806641
 30
0.0
 11
-529.9751586914063
 21
233.3679351806641
 31
0.0
  0
LINE
  5
D8
330
22
100
AcDbEntity
  8
0
  6
CENTER
 62
     7
100
AcDbLine
 10
-432.6636047363281
 20
136.4715728759766
 30
0.0
 11
-432.6636047363281
 21
328.5067443847656
 31
0.0
  0
LINE
  5
D9
330
22
100
AcDbEntity
  8
0
  6
Continuous
 62
     7
100
AcDbLine
 10
-458.9013061523438
 20
245.2101745605469
 30
0.0
 11
-461.6679382324218
 21
246.8074798583984
 31
0.0
  0
LINE
  5
DA
330
22
100
AcDbEntity
  8
0
  6
Continuous
 62
     7
100
AcDbLine
 10
-428.9711914062499
 20
274.2446899414063
 30
0.0
 11
-431.5765686035156
 21
275.8045349121094
 31
0.0
  0
LINE
  5
DB
330
22
100
AcDbEntity
  8
0
  6
Continuous
 62
     7
100
AcDbLine
 10
-429.1347961425781
 20
273.8614501953125
 30
0.0
 11
-429.2984008789063
 21
273.4782104492188
 31
0.0
  0
LINE
  5
DC
330
22
100
AcDbEntity
  8
0
  6
Continuous
 62
     7
100
AcDbLine
 10
-429.2984008789063
 20
273.4782104492188
 30
0.0
 11
-432.2270202636718
 21
274.2808837890625
 31
0.0
  0
LINE
  5
DD
330
22
100
AcDbEntity
  8
0
  6
Continuous
 62
     7
100
AcDbLine
 10
-415.6044616699218
 20
240.1151428222656
 30
0.0
 11
-412.7808837890625
 21
241.7453460693359
 31
0.0
  0
LINE
  5
DE
330
22
100
AcDbEntity
  8
0
  6
Continuous
 62
     7
100
AcDbLine
 10
-418.1044616699218
 20
244.4452667236328
 30
0.0
 11
-415.2808837890624
 21
246.0754699707031
 31
0.0
  0
LINE
  5
DF
330
22
100
AcDbEntity
  8
0
  6
Continuous
 62
     7
100
AcDbLine
 10
-456.4013061523437
 20
249.5402984619141
 30
0.0
 11
-459.1679382324218
 21
251.1376037597656
 31
0.0
  0
LINE
  5
E0
330
22
100
AcDbEntity
  8
0
  6
Continuous
 62
     7
100
AcDbLine
 10
-435.3410949707031
 20
225.2564544677734
 30
0.0
 11
-435.3410949707031
 21
221.5724487304688
 31
0.0
  0
LINE
  5
E1
330
22
100
AcDbEntity
  8
0
  6
Continuous
 62
     7
100
AcDbLine
 10
-409.2802429199219
 20
249.5399322509766
 30
0.0
 11
-406.5136108398438
 21
251.1372528076172
 31
0.0
  0
LINE
  5
E2
330
22
100
AcDbEntity
  8
0
  6
Continuous
 62
     7
100
AcDbLine
 10
-436.3560180664062
 20
276.4911804199219
 30
0.0
 11
-433.7506408691406
 21
274.9313354492188
 31
0.0
  0
LINE
  5
E3
330
22
100
AcDbEntity
  8
0
  6
Continuous
 62
     7
100
AcDbLine
 10
-436.02880859375
 20
277.2576599121094
 30
0.0
 11
-433.1001892089843
 21
276.4549865722656
 31
0.0
  0
LINE
  5
E4
330
22
100
AcDbEntity
  8
0
  6
Continuous
 62
     7
100
AcDbLine
 10
-431.5489501953124
 20
279.0393981933594
 30
0.0
 11
-431.166015625
 21
278.8759155273438
 31
0.0
  0
LINE
  5
E5
330
22
100
AcDbEntity
  8
0
  6
Continuous
 62
     7
100
AcDbLine
 10
-431.5489501953124
 20
279.0393981933594
 30
0.0
 11
-433.1001892089843
 21
276.4549865722656
 31
0.0
  0
LINE
  5
E6
330
22
100
AcDbEntity
  8
0
  6
Continuous
 62
     7
100
AcDbLine
 10
-429.1347961425781
 20
273.8614501953125
 30
0.0
 11
-428.9711914062499
 21
274.2446899414063
 31
0.0
  0
LINE
  5
E7
330
22
100
AcDbEntity
  8
0
  6
Continuous
 62
     7
100
AcDbLine
 10
-430.3410949707031
 20
225.2564544677734
 30
0.0
 11
-430.3410949707031
 21
221.5724487304688
 31
0.0
  0
LINE
  5
E8
330
22
100
AcDbEntity
  8
0
  6
Continuous
 62
     7
100
AcDbLine
 10
-438.3407897949219
 20
239.113037109375
 30
0.0
 11
-441.5312194824219
 21
240.9550476074219
 31
0.0
  0
LINE
  5
E9
330
22
100
AcDbEntity
  8
0
  6
Continuous
 62
     7
100
AcDbLine
 10
-447.5771179199218
 20
244.4456329345703
 30
0.0
 11
-450.4006958007813
 21
246.0758361816406
 31
0.0
  0
LINE
  5
EA
330
22
100
AcDbEntity
  8
0
  6
Continuous
 62
     7
100
AcDbLine
 10
-450.0771179199218
 20
240.1155090332031
 30
0.0
 11
-452.9006958007813
 21
241.7456970214844
 31
0.0
  0
LINE
  5
EB
330
22
100
AcDbEntity
  8
0
  6
Continuous
 62
     7
100
AcDbLine
 10
-472.7740478515625
 20
211.497802734375
 30
0.0
 11
-472.8239440917969
 21
211.9111938476563
 31
0.0
  0
LINE
  5
EC
330
22
100
AcDbEntity
  8
0
  6
Continuous
 62
     7
100
AcDbLine
 10
-436.1924133300781
 20
276.8744201660156
 30
0.0
 11
-436.3560180664062
 21
276.4911804199219
 31
0.0
  0
LINE
  5
ED
330
22
100
AcDbEntity
  8
0
  6
Continuous
 62
     7
100
AcDbLine
 10
-436.1924133300781
 20
276.8744201660156
 30
0.0
 11
-436.02880859375
 21
277.2576599121094
 31
0.0
  0
LINE
  5
EE
330
22
100
AcDbEntity
  8
0
  6
Continuous
 62
     7
100
AcDbLine
 10
-434.5441589355468
 20
272.0234680175781
 30
0.0
 11
-433.7506408691406
 21
274.9313354492188
 31
0.0
  0
LINE
  5
EF
330
22
100
AcDbEntity
  8
0
  6
Continuous
 62
     7
100
AcDbLine
 10
-430.7830505371093
 20
278.712432861328
 30
0.0
 11
-431.5765686035156
 21
275.8045349121094
 31
0.0
  0
LINE
  5
F0
330
22
100
AcDbEntity
  8
0
  6
Continuous
 62
     7
100
AcDbLine
 10
-430.7830505371093
 20
278.712432861328
 30
0.0
 11
-431.166015625
 21
278.8759155273438
 31
0.0
  0
LINE
  5
F1
330
22
100
AcDbEntity
  8
0
  6
Continuous
 62
     7
100
AcDbLine
 10
-433.7782592773438
 20
271.6964721679688
 30
0.0
 11
-432.2270202636718
 21
274.2808837890625
 31
0.0
  0
LINE
  5
F2
330
22
100
AcDbEntity
  8
0
  6
Continuous
 62
     7
100
AcDbLine
 10
-433.7782592773438
 20
271.6964721679688
 30
0.0
 11
-434.1611938476563
 21
271.8599548339844
 31
0.0
  0
LINE
  5
F3
330
22
100
AcDbEntity
  8
0
  6
Continuous
 62
     7
100
AcDbLine
 10
-434.5441589355468
 20
272.0234680175781
 30
0.0
 11
-434.1611938476563
 21
271.8599548339844
 31
0.0
  0
LINE
  5
F4
330
22
100
AcDbEntity
  8
0
  6
Continuous
 62
     7
100
AcDbLine
 10
-406.7802429199218
 20
245.2098083496094
 30
0.0
 11
-404.0136108398438
 21
246.8071136474609
 31
0.0
  0
LINE
  5
F5
330
22
100
AcDbEntity
  8
0
  6
Continuous
 62
     7
100
AcDbLine
 10
-424.8407897949219
 20
234.7825469970703
 30
0.0
 11
-421.6503295898438
 21
236.6245574951172
 31
0.0
  0
LINE
  5
F6
330
22
100
AcDbEntity
  8
0
  6
Continuous
 62
     7
100
AcDbLine
 10
-427.3407897949218
 20
239.1126708984375
 30
0.0
 11
-424.1503295898437
 21
240.9546813964844
 31
0.0
  0
LINE
  5
F7
330
22
100
AcDbEntity
  8
0
  6
Continuous
 62
     7
100
AcDbLine
 10
-440.8407897949218
 20
234.7829132080078
 30
0.0
 11
-444.0312194824218
 21
236.6249237060547
 31
0.0
  0
LINE
  5
F8
330
22
100
AcDbEntity
  8
0
  6
Continuous
 62
     7
100
AcDbLine
 10
-393.6687927246094
 20
209.5666198730469
 30
0.0
 11
-395.1313171386719
 21
212.2022247314453
 31
0.0
  0
LINE
  5
F9
330
22
100
AcDbEntity
  8
0
  6
Continuous
 62
     7
100
AcDbLine
 10
-398.9132995605469
 20
215.1686859130859
 30
0.0
 11
-397.4507446289063
 21
212.5330810546875
 31
0.0
  0
LINE
  5
FA
330
22
100
AcDbEntity
  8
0
  6
Continuous
 62
     7
100
AcDbLine
 10
-398.9132995605469
 20
215.1686859130859
 30
0.0
 11
-398.5802307128906
 21
215.4185943603516
 31
0.0
  0
LINE
  5
FB
330
22
100
AcDbEntity
  8
0
  6
Continuous
 62
     7
100
AcDbLine
 10
-399.360107421875
 20
210.0648651123047
 30
0.0
 11
-399.1100158691406
 21
209.7315521240234
 31
0.0
  0
LINE
  5
FC
330
22
100
AcDbEntity
  8
0
  6
Continuous
 62
     7
100
AcDbLine
 10
-468.5774230957031
 20
208.5589447021484
 30
0.0
 11
-468.9911193847656
 21
208.5090026855469
 31
0.0
  0
LINE
  5
FD
330
22
100
AcDbEntity
  8
0
  6
Continuous
 62
     7
100
AcDbLine
 10
-468.9911193847656
 20
208.5090026855469
 30
0.0
 11
-469.7602844238281
 21
211.4466094970703
 31
0.0
  0
LINE
  5
FE
330
22
100
AcDbEntity
  8
0
  6
Continuous
 62
     7
100
AcDbLine
 10
-468.1637268066406
 20
208.6088714599609
 30
0.0
 11
-468.1155395507813
 21
211.6451110839844
 31
0.0
  0
LINE
  5
FF
330
22
100
AcDbEntity
  8
0
  6
Continuous
 62
     7
100
AcDbLine
 10
-430.3410949707031
 20
214.5912628173828
 30
0.0
 11
-430.3410949707031
 21
211.3308715820313
 31
0.0
  0
LINE
  5
100
330
22
100
AcDbEntity
  8
0
  6
Continuous
 62
     7
100
AcDbLine
 10
-430.3410949707031
 20
204.4019470214844
 30
0.0
 11
-430.3410949707031
 21
201.2073211669922
 31
0.0
  0
LINE
  5
101
330
22
100
AcDbEntity
  8
0
  6
Continuous
 62
     7
100
AcDbLine
 10
-435.3410949707031
 20
204.4019470214844
 30
0.0
 11
-435.3410949707031
 21
201.2073211669922
 31
0.0
  0
LINE
  5
102
330
22
100
AcDbEntity
  8
0
  6
Continuous
 62
     7
100
AcDbLine
 10
-468.5774230957031
 20
208.5589447021484
 30
0.0
 11
-468.1637268066406
 21
208.6088714599609
 31
0.0
  0
LINE
  5
103
330
22
100
AcDbEntity
  8
0
  6
Continuous
 62
     7
100
AcDbLine
 10
-465.2005004882813
 20
212.411865234375
 30
0.0
 11
-468.1155395507813
 21
211.6451110839844
 31
0.0
  0
LINE
  5
104
330
22
100
AcDbEntity
  8
0
  6
Continuous
 62
     7
100
AcDbLine
 10
-472.8738403320313
 20
212.3245849609375
 30
0.0
 11
-469.9588012695313
 21
213.0913391113281
 31
0.0
  0
LINE
  5
105
330
22
100
AcDbEntity
  8
0
  6
Continuous
 62
     7
100
AcDbLine
 10
-465.3002624511718
 20
213.2386322021484
 30
0.0
 11
-468.3140563964843
 21
213.2898406982422
 31
0.0
  0
LINE
  5
106
330
22
100
AcDbEntity
  8
0
  6
Continuous
 62
     7
100
AcDbLine
 10
-465.2005004882813
 20
212.411865234375
 30
0.0
 11
-465.2503662109374
 21
212.8252563476563
 31
0.0
  0
LINE
  5
107
330
22
100
AcDbEntity
  8
0
  6
Continuous
 62
     7
100
AcDbLine
 10
-472.7740478515625
 20
211.497802734375
 30
0.0
 11
-469.7602844238281
 21
211.4466094970703
 31
0.0
  0
LINE
  5
108
330
22
100
AcDbEntity
  8
0
  6
Continuous
 62
     7
100
AcDbLine
 10
-472.8738403320313
 20
212.3245849609375
 30
0.0
 11
-472.8239440917969
 21
211.9111938476563
 31
0.0
  0
LINE
  5
109
330
22
100
AcDbEntity
  8
0
  6
Continuous
 62
     7
100
AcDbLine
 10
-465.3002624511718
 20
213.2386322021484
 30
0.0
 11
-465.2503662109374
 21
212.8252563476563
 31
0.0
  0
LINE
  5
10A
330
22
100
AcDbEntity
  8
0
  6
Continuous
 62
     7
100
AcDbLine
 10
-435.3410949707031
 20
214.5912628173828
 30
0.0
 11
-435.3410949707031
 21
211.3308715820313
 31
0.0
  0
LINE
  5
10B
330
22
100
AcDbEntity
  8
0
  6
Continuous
 62
     7
100
AcDbLine
 10
-398.2471618652344
 20
215.6684875488281
 30
0.0
 11
-396.1256103515625
 21
213.5273590087891
 31
0.0
  0
LINE
  5
10C
330
22
100
AcDbEntity
  8
0
  6
Continuous
 62
     7
100
AcDbLine
 10
-398.2471618652344
 20
215.6684875488281
 30
0.0
 11
-398.5802307128906
 21
215.4185943603516
 31
0.0
  0
LINE
  5
10D
330
22
100
AcDbEntity
  8
0
  6
Continuous
 62
     7
100
AcDbLine
 10
-392.9718933105469
 20
214.3371429443359
 30
0.0
 11
-395.1313171386719
 21
212.2022247314453
 31
0.0
  0
LINE
  5
10E
330
22
100
AcDbEntity
  8
0
  6
Continuous
 62
     7
100
AcDbLine
 10
-393.2219848632813
 20
214.6704406738281
 30
0.0
 11
-393.4720458984375
 21
215.0037536621094
 31
0.0
  0
LINE
  5
10F
330
22
100
AcDbEntity
  8
0
  6
Continuous
 62
     7
100
AcDbLine
 10
-394.3348999023438
 20
209.0668182373047
 30
0.0
 11
-394.0018310546875
 21
209.3167114257813
 31
0.0
  0
LINE
  5
110
330
22
100
AcDbEntity
  8
0
  6
Continuous
 62
     7
100
AcDbLine
 10
-393.2219848632813
 20
214.6704406738281
 30
0.0
 11
-392.9718933105469
 21
214.3371429443359
 31
0.0
  0
LINE
  5
111
330
22
100
AcDbEntity
  8
0
  6
Continuous
 62
     7
100
AcDbLine
 10
-393.4720458984375
 20
215.0037536621094
 30
0.0
 11
-396.1256103515625
 21
213.5273590087891
 31
0.0
  0
LINE
  5
112
330
22
100
AcDbEntity
  8
0
  6
Continuous
 62
     7
100
AcDbLine
 10
-399.6101989746094
 20
210.3981628417969
 30
0.0
 11
-397.4507446289063
 21
212.5330810546875
 31
0.0
  0
LINE
  5
113
330
22
100
AcDbEntity
  8
0
  6
Continuous
 62
     7
100
AcDbLine
 10
-399.360107421875
 20
210.0648651123047
 30
0.0
 11
-399.6101989746094
 21
210.3981628417969
 31
0.0
  0
LINE
  5
114
330
22
100
AcDbEntity
  8
0
  6
Continuous
 62
     7
100
AcDbLine
 10
-399.1100158691406
 20
209.7315521240234
 30
0.0
 11
-396.4564514160156
 21
211.2079467773438
 31
0.0
  0
LINE
  5
115
330
22
100
AcDbEntity
  8
0
  6
Continuous
 62
     7
100
AcDbLine
 10
-394.3348999023438
 20
209.0668182373047
 30
0.0
 11
-396.4564514160156
 21
211.2079467773438
 31
0.0
  0
LINE
  5
116
330
22
100
AcDbEntity
  8
0
  6
Continuous
 62
     7
100
AcDbLine
 10
-393.6687927246094
 20
209.5666198730469
 30
0.0
 11
-394.0018310546875
 21
209.3167114257813
 31
0.0
  0
LINE
  5
117
330
22
100
AcDbEntity
  8
0
  6
Continuous
 62
     7
100
AcDbLine
 10
-469.0832214355468
 20
216.2274322509766
 30
0.0
 11
-468.3140563964843
 21
213.2898406982422
 31
0.0
  0
LINE
  5
118
330
22
100
AcDbEntity
  8
0
  6
Continuous
 62
     7
100
AcDbLine
 10
-469.4969177246093
 20
216.1775054931641
 30
0.0
 11
-469.0832214355468
 21
216.2274322509766
 31
0.0
  0
LINE
  5
119
330
22
100
AcDbEntity
  8
0
  6
Continuous
 62
     7
100
AcDbLine
 10
-469.9106140136718
 20
216.1275787353516
 30
0.0
 11
-469.9588012695313
 21
213.0913391113281
 31
0.0
  0
LINE
  5
11A
330
22
100
AcDbEntity
  8
0
  6
Continuous
 62
     7
100
AcDbLine
 10
-469.4969177246093
 20
216.1775054931641
 30
0.0
 11
-469.9106140136718
 21
216.1275787353516
 31
0.0
  0
LINE
  5
11B
330
22
100
AcDbEntity
  8
0
  6
Continuous
 62
     7
100
AcDbLine
 10
-138.8681335449219
 20
322.6979370117188
 30
0.0
 11
-137.2637786865234
 21
324.3023071289063
 31
0.0
  0
LINE
  5
11C
330
22
100
AcDbEntity
  8
0
  6
Continuous
 62
     7
100
AcDbLine
 10
-138.9337768554687
 20
319.8038635253906
 30
0.0
 11
-135.4337768554688
 21
323.3038635253906
 31
0.0
  0
LINE
  5
11D
330
22
100
AcDbEntity
  8
0
  6
Continuous
 62
     7
100
AcDbLine
 10
-138.9337768554687
 20
316.9754333496094
 30
0.0
 11
-135.4337768554688
 21
320.4754333496094
 31
0.0
  0
LINE
  5
11E
330
22
100
AcDbEntity
  8
0
  6
Continuous
 62
     7
100
AcDbLine
 10
-138.9337768554687
 20
314.1470031738281
 30
0.0
 11
-135.4337768554688
 21
317.6470031738281
 31
0.0
  0
LINE
  5
11F
330
22
100
AcDbEntity
  8
0
  6
Continuous
 62
     7
100
AcDbLine
 10
-138.9337768554687
 20
311.318603515625
 30
0.0
 11
-135.4337768554688
 21
314.818603515625
 31
0.0
  0
LINE
  5
120
330
22
100
AcDbEntity
  8
0
  6
Continuous
 62
     7
100
AcDbLine
 10
-138.8686828613281
 20
308.5552368164063
 30
0.0
 11
-135.4337768554688
 21
311.9901733398438
 31
0.0
  0
LINE
  5
121
330
22
100
AcDbEntity
  8
0
  6
Continuous
 62
     7
100
AcDbLine
 10
-138.9337768554687
 20
305.6617431640625
 30
0.0
 11
-135.4337768554688
 21
309.1617431640625
 31
0.0
  0
LINE
  5
122
330
22
100
AcDbEntity
  8
0
  6
Continuous
 62
     7
100
AcDbLine
 10
-170.8608245849609
 20
273.7346801757813
 30
0.0
 11
-170.3005218505859
 21
274.2949829101563
 31
0.0
  0
LINE
  5
123
330
22
100
AcDbEntity
  8
0
  6
Continuous
 62
     7
100
AcDbLine
 10
-138.9337768554687
 20
302.8333129882813
 30
0.0
 11
-135.4337768554688
 21
306.3333129882813
 31
0.0
  0
LINE
  5
124
330
22
100
AcDbEntity
  8
0
  6
Continuous
 62
     7
100
AcDbLine
 10
-170.8091430664063
 20
270.9579467773438
 30
0.0
 11
-167.3991394042969
 21
274.3679504394531
 31
0.0
  0
LINE
  5
125
330
22
100
AcDbEntity
  8
0
  6
Continuous
 62
     7
100
AcDbLine
 10
-138.9337768554687
 20
300.0048828125
 30
0.0
 11
-135.4337768554688
 21
303.5048828125
 31
0.0
  0
LINE
  5
126
330
22
100
AcDbEntity
  8
0
  6
Continuous
 62
     7
100
AcDbLine
 10
-167.980712890625
 20
270.9579467773438
 30
0.0
 11
-164.5707092285156
 21
274.3679504394531
 31
0.0
  0
LINE
  5
127
330
22
100
AcDbEntity
  8
0
  6
Continuous
 62
     7
100
AcDbLine
 10
-138.9337768554687
 20
297.1764526367188
 30
0.0
 11
-135.4337768554688
 21
300.6764526367188
 31
0.0
  0
LINE
  5
128
330
22
100
AcDbEntity
  8
0
  6
Continuous
 62
     7
100
AcDbLine
 10
-165.1522827148438
 20
270.9579467773438
 30
0.0
 11
-161.7422943115234
 21
274.3679504394531
 31
0.0
  0
LINE
  5
129
330
22
100
AcDbEntity
  8
0
  6
Continuous
 62
     7
100
AcDbLine
 10
-138.9337768554687
 20
294.3480224609375
 30
0.0
 11
-135.4337768554688
 21
297.8480224609375
 31
0.0
  0
LINE
  5
12A
330
22
100
AcDbEntity
  8
0
  6
Continuous
 62
     7
100
AcDbLine
 10
-162.3238677978516
 20
270.9579467773438
 30
0.0
 11
-158.9138641357422
 21
274.3679504394531
 31
0.0
  0
LINE
  5
12B
330
22
100
AcDbEntity
  8
0
  6
Continuous
 62
     7
100
AcDbLine
 10
-138.3845977783203
 20
292.0687561035156
 30
0.0
 11
-135.4337768554688
 21
295.0195922851563
 31
0.0
  0
LINE
  5
12C
330
22
100
AcDbEntity
  8
0
  6
Continuous
 62
     7
100
AcDbLine
 10
-159.4954376220703
 20
270.9579467773438
 30
0.0
 11
-156.0854339599609
 21
274.3679504394531
 31
0.0
  0
LINE
  5
12D
330
22
100
AcDbEntity
  8
0
  6
Continuous
 62
     7
100
AcDbLine
 10
-138.9337768554687
 20
288.691162109375
 30
0.0
 11
-135.4337768554688
 21
292.191162109375
 31
0.0
  0
LINE
  5
12E
330
22
100
AcDbEntity
  8
0
  6
Continuous
 62
     7
100
AcDbLine
 10
-156.6670074462891
 20
270.9579467773438
 30
0.0
 11
-153.2570037841797
 21
274.3679504394531
 31
0.0
  0
LINE
  5
12F
330
22
100
AcDbEntity
  8
0
  6
Continuous
 62
     7
100
AcDbLine
 10
-138.9337768554687
 20
285.8627319335938
 30
0.0
 11
-135.4337768554688
 21
289.3627319335938
 31
0.0
  0
LINE
  5
130
330
22
100
AcDbEntity
  8
0
  6
Continuous
 62
     7
100
AcDbLine
 10
-153.8385772705078
 20
270.9579467773438
 30
0.0
 11
-150.4285736083984
 21
274.3679504394531
 31
0.0
  0
LINE
  5
131
330
22
100
AcDbEntity
  8
0
  6
Continuous
 62
     7
100
AcDbLine
 10
-138.9337768554687
 20
283.0343322753906
 30
0.0
 11
-135.4337768554688
 21
286.5343322753906
 31
0.0
  0
LINE
  5
132
330
22
100
AcDbEntity
  8
0
  6
Continuous
 62
     7
100
AcDbLine
 10
-151.0101470947266
 20
270.9579467773438
 30
0.0
 11
-147.6001586914063
 21
274.3679504394531
 31
0.0
  0
LINE
  5
133
330
22
100
AcDbEntity
  8
0
  6
Continuous
 62
     7
100
AcDbLine
 10
-138.9337768554687
 20
280.2059020996095
 30
0.0
 11
-135.4337768554688
 21
283.7059020996094
 31
0.0
  0
LINE
  5
134
330
22
100
AcDbEntity
  8
0
  6
Continuous
 62
     7
100
AcDbLine
 10
-148.1817321777344
 20
270.9579467773438
 30
0.0
 11
-144.771728515625
 21
274.3679504394531
 31
0.0
  0
LINE
  5
135
330
22
100
AcDbEntity
  8
0
  6
Continuous
 62
     7
100
AcDbLine
 10
-140.0293884277344
 20
276.2818603515625
 30
0.0
 11
-135.4337768554688
 21
280.8774719238281
 31
0.0
  0
LINE
  5
136
330
22
100
AcDbEntity
  8
0
  6
Continuous
 62
     7
100
AcDbLine
 10
-145.3533020019531
 20
270.9579467773438
 30
0.0
 11
-140.8476867675781
 21
275.4635620117188
 31
0.0
  0
LINE
  5
137
330
22
100
AcDbEntity
  8
0
  6
Continuous
 62
     7
100
AcDbLine
 10
-142.5248718261719
 20
270.9579467773438
 30
0.0
 11
-135.4337768554688
 21
278.0490417480469
 31
0.0
  0
LINE
  5
138
330
22
100
AcDbEntity
  8
0
  6
Continuous
 62
     7
100
AcDbLine
 10
-139.6964416503906
 20
270.9579467773438
 30
0.0
 11
-135.2821350097656
 21
275.3722534179688
 31
0.0
  0
LINE
  5
139
330
22
100
AcDbEntity
  8
0
  6
Continuous
 62
     7
100
AcDbLine
 10
-136.8680114746094
 20
270.9579467773438
 30
0.0
 11
-132.9580230712891
 21
274.8679504394531
 31
0.0
  0
LINE
  5
13A
330
22
100
AcDbEntity
  8
0
  6
Continuous
 62
     7
100
AcDbLine
 10
-134.3647766113281
 20
270.6327514648438
 30
0.0
 11
-130.1295928955078
 21
274.8679504394531
 31
0.0
  0
LINE
  5
13B
330
22
100
AcDbEntity
  8
0
  6
Continuous
 62
     7
100
AcDbLine
 10
-132.1233825683594
 20
270.0457153320313
 30
0.0
 11
-127.3011627197266
 21
274.8679504394531
 31
0.0
  0
LINE
  5
13C
330
22
100
AcDbEntity
  8
0
  6
Continuous
 62
     7
100
AcDbLine
 10
-129.2037200927734
 20
270.136962890625
 30
0.0
 11
-124.4727325439453
 21
274.8679504394531
 31
0.0
  0
LINE
  5
13D
330
22
100
AcDbEntity
  8
0
  6
Continuous
 62
     7
100
AcDbLine
 10
-126.2840423583984
 20
270.2282104492188
 30
0.0
 11
-121.6443099975586
 21
274.8679504394531
 31
0.0
  0
LINE
  5
13E
330
22
100
AcDbEntity
  8
0
  6
Continuous
 62
     7
100
AcDbLine
 10
-123.364372253418
 20
270.3194580078125
 30
0.0
 11
-118.8158798217773
 21
274.8679504394531
 31
0.0
  0
LINE
  5
13F
330
22
100
AcDbEntity
  8
0
  6
Continuous
 62
     7
100
AcDbLine
 10
-120.4447021484375
 20
270.4107055664063
 30
0.0
 11
-115.9874572753906
 21
274.8679504394531
 31
0.0
  0
LINE
  5
140
330
22
100
AcDbEntity
  8
0
  6
Continuous
 62
     7
100
AcDbLine
 10
-117.5250244140625
 20
270.5019226074219
 30
0.0
 11
-113.1590270996094
 21
274.8679504394531
 31
0.0
  0
LINE
  5
141
330
22
100
AcDbEntity
  8
0
  6
Continuous
 62
     7
100
AcDbLine
 10
-114.605354309082
 20
270.5931701660156
 30
0.0
 11
-110.3305969238281
 21
274.8679504394531
 31
0.0
  0
LINE
  5
142
330
22
100
AcDbEntity
  8
0
  6
Continuous
 62
     7
100
AcDbLine
 10
-111.6856842041016
 20
270.6844177246094
 30
0.0
 11
-107.5021743774414
 21
274.8679504394531
 31
0.0
  0
LINE
  5
143
330
22
100
AcDbEntity
  8
0
  6
Continuous
 62
     7
100
AcDbLine
 10
-108.7660140991211
 20
270.7756652832031
 30
0.0
 11
-104.6737442016602
 21
274.8679504394531
 31
0.0
  0
LINE
  5
144
330
22
100
AcDbEntity
  8
0
  6
Continuous
 62
     7
100
AcDbLine
 10
-105.8463439941406
 20
270.866912841797
 30
0.0
 11
-102.9337692260742
 21
273.7794799804688
 31
0.0
  0
LINE
  5
145
330
22
100
AcDbEntity
  8
0
  6
Continuous
 62
     7
100
AcDbLine
 10
-206.9337768554688
 20
279.3179321289063
 30
0.0
 11
-204.7337646484375
 21
277.1179504394531
 31
0.0
  0
LINE
  5
146
330
22
100
AcDbEntity
  8
0
  6
Continuous
 62
     7
100
AcDbLine
 10
-204.7337646484375
 20
273.1179504394531
 30
0.0
 11
-201.3137664794922
 21
273.1179504394531
 31
0.0
  0
LINE
  5
147
330
22
100
AcDbEntity
  8
0
  6
Continuous
 62
     7
100
AcDbLine
 10
-198.9337768554688
 20
269.6979370117188
 30
0.0
 11
-197.4637756347656
 21
271.167938232422
 31
0.0
  0
LINE
  5
148
330
22
100
AcDbEntity
  8
0
  6
Continuous
 62
     7
100
AcDbLine
 10
-203.9337768554688
 20
277.3679504394531
 30
0.0
 11
-204.9837646484375
 21
277.3679504394531
 31
0.0
  0
LINE
  5
149
330
22
100
AcDbEntity
  8
0
  6
Continuous
 62
     7
100
AcDbLine
 10
-201.3137664794922
 20
277.1179504394531
 30
0.0
 11
-200.9337768554688
 21
277.1179504394531
 31
0.0
  0
LINE
  5
14A
330
22
100
AcDbEntity
  8
0
  6
Continuous
 62
     7
100
AcDbLine
 10
-200.9337768554688
 20
273.4979248046875
 30
0.0
 11
-201.3137664794922
 21
273.1179504394531
 31
0.0
  0
LINE
  5
14B
330
22
100
AcDbEntity
  8
0
  6
Continuous
 62
     7
100
AcDbLine
 10
-206.9337768554688
 20
236.3679351806641
 30
0.0
 11
-203.9337768554688
 21
236.3679351806641
 31
0.0
  0
LINE
  5
14C
330
22
100
AcDbEntity
  8
0
  6
Continuous
 62
     7
100
AcDbLine
 10
-150.9337768554688
 20
269.6979370117188
 30
0.0
 11
-152.4037780761719
 21
271.167938232422
 31
0.0
  0
LINE
  5
14D
330
22
100
AcDbEntity
  8
0
  6
Continuous
 62
     7
100
AcDbLine
 10
-170.9337768554688
 20
270.9579467773438
 30
0.0
 11
-169.4587707519531
 21
269.4829406738281
 31
0.0
  0
LINE
  5
14E
330
22
100
AcDbEntity
  8
0
  6
Continuous
 62
     7
100
AcDbLine
 10
-170.9337768554688
 20
271.167938232422
 30
0.0
 11
-170.9337768554688
 21
273.3679504394531
 31
0.0
  0
LINE
  5
14F
330
22
100
AcDbEntity
  8
0
  6
Continuous
 62
     7
100
AcDbLine
 10
-203.9337768554688
 20
273.1179504394531
 30
0.0
 11
-203.9337768554688
 21
233.3679351806641
 31
0.0
  0
LINE
  5
150
330
22
100
AcDbEntity
  8
0
  6
Continuous
 62
     7
100
AcDbLine
 10
-204.7337646484375
 20
273.1179504394531
 30
0.0
 11
-204.3537750244141
 21
273.4979248046875
 31
0.0
  0
LINE
  5
151
330
22
100
AcDbEntity
  8
0
  6
Continuous
 62
     7
100
AcDbLine
 10
-200.9337768554688
 20
291.3679504394531
 30
0.0
 11
-202.9337768554688
 21
291.3679504394531
 31
0.0
  0
LINE
  5
152
330
22
100
AcDbEntity
  8
0
  6
Continuous
 62
     7
100
AcDbLine
 10
-200.9337768554688
 20
291.3679504394531
 30
0.0
 11
-200.9337768554688
 21
269.6979370117188
 31
0.0
  0
LINE
  5
153
330
22
100
AcDbEntity
  8
0
  6
Continuous
 62
     7
100
AcDbLine
 10
-202.9337768554688
 20
291.3679504394531
 30
0.0
 11
-206.9337768554688
 21
284.3679504394531
 31
0.0
  0
LINE
  5
154
330
22
100
AcDbEntity
  8
0
  6
Continuous
 62
     7
100
AcDbLine
 10
-150.9337768554688
 20
269.6979370117188
 30
0.0
 11
-198.9337768554688
 21
269.6979370117188
 31
0.0
  0
LINE
  5
155
330
22
100
AcDbEntity
  8
0
  6
Continuous
 62
     7
100
AcDbLine
 10
-152.4037780761719
 20
271.167938232422
 30
0.0
 11
-197.4637756347656
 21
271.167938232422
 31
0.0
  0
LINE
  5
156
330
22
100
AcDbEntity
  8
0
  6
Continuous
 62
     7
100
AcDbLine
 10
-150.9337768554688
 20
267.3679504394531
 30
0.0
 11
-203.9337768554688
 21
267.3679504394531
 31
0.0
  0
LINE
  5
157
330
22
100
AcDbEntity
  8
0
  6
Continuous
 62
     7
100
AcDbLine
 10
-138.9337768554687
 20
320.9261169433594
 30
0.0
 11
-138.9337768554687
 21
305.5679321289063
 31
0.0
  0
LINE
  5
158
330
22
100
AcDbEntity
  8
0
  6
Continuous
 62
     7
100
AcDbLine
 10
-143.9337768554688
 20
274.3679504394531
 30
0.0
 11
-169.9337768554688
 21
274.3679504394531
 31
0.0
  0
LINE
  5
159
330
22
100
AcDbEntity
  8
0
  6
Continuous
 62
     7
100
AcDbLine
 10
-170.9337768554688
 20
270.9579467773438
 30
0.0
 11
-138.9337768554687
 21
270.9579467773438
 31
0.0
  0
LINE
  5
15A
330
22
100
AcDbEntity
  8
0
  6
Continuous
 62
     7
100
AcDbLine
 10
-169.4587707519531
 20
269.4829406738281
 30
0.0
 11
-140.4087677001952
 21
269.4829406738281
 31
0.0
  0
LINE
  5
15B
330
22
100
AcDbEntity
  8
0
  6
Continuous
 62
     7
100
AcDbLine
 10
-134.3647766113281
 20
269.9756774902344
 30
0.0
 11
-138.9337768554687
 21
269.9756774902344
 31
0.0
  0
LINE
  5
15C
330
22
100
AcDbEntity
  8
0
  6
Continuous
 62
     7
100
AcDbLine
 10
-132.9337768554688
 20
268.544677734375
 30
0.0
 11
-134.3647766113281
 21
269.9756774902344
 31
0.0
  0
LINE
  5
15D
330
22
100
AcDbEntity
  8
0
  6
Continuous
 62
     7
100
AcDbLine
 10
-132.9337768554688
 20
268.544677734375
 30
0.0
 11
-132.9337768554688
 21
233.3679351806641
 31
0.0
  0
LINE
  5
15E
330
22
100
AcDbEntity
  8
0
  6
Continuous
 62
     7
100
AcDbLine
 10
-134.3647766113281
 20
269.9756774902344
 30
0.0
 11
-134.3647766113281
 21
233.3679351806641
 31
0.0
  0
LINE
  5
15F
330
22
100
AcDbEntity
  8
0
  6
Continuous
 62
     7
100
AcDbLine
 10
-135.4337768554688
 20
275.8679504394531
 30
0.0
 11
-135.4337768554688
 21
323.8679504394531
 31
0.0
  0
LINE
  5
160
330
22
100
AcDbEntity
  8
0
  6
Continuous
 62
     7
100
AcDbLine
 10
-138.9337768554687
 20
279.3679504394531
 30
0.0
 11
-138.9337768554687
 21
322.3679504394531
 31
0.0
  0
LINE
  5
161
330
22
100
AcDbEntity
  8
0
  6
Continuous
 62
     7
100
AcDbLine
 10
-206.9337768554688
 20
248.3607940673828
 30
0.0
 11
-206.9337768554688
 21
239.3536529541016
 31
0.0
  0
LINE
  5
162
330
22
100
AcDbEntity
  8
0
  6
Continuous
 62
     7
100
AcDbLine
 10
-150.9337768554688
 20
248.3607940673828
 30
0.0
 11
-150.9337768554688
 21
239.3536529541016
 31
0.0
  0
LINE
  5
163
330
22
100
AcDbEntity
  8
0
  6
Continuous
 62
     7
100
AcDbLine
 10
-150.9337768554688
 20
269.6979370117188
 30
0.0
 11
-150.9337768554688
 21
233.3679351806641
 31
0.0
  0
LINE
  5
164
330
22
100
AcDbEntity
  8
0
  6
Continuous
 62
     7
100
AcDbLine
 10
-203.9337768554688
 20
282.8679504394531
 30
0.0
 11
-203.9337768554688
 21
277.1179504394531
 31
0.0
  0
LINE
  5
165
330
22
100
AcDbEntity
  8
0
  6
Continuous
 62
     7
100
AcDbLine
 10
-206.9337768554688
 20
282.3679504394531
 30
0.0
 11
-203.9337768554688
 21
282.3679504394531
 31
0.0
  0
LINE
  5
166
330
22
100
AcDbEntity
  8
0
  6
Continuous
 62
     7
100
AcDbLine
 10
-206.9337768554688
 20
282.8679504394531
 30
0.0
 11
-203.9337768554688
 21
282.8679504394531
 31
0.0
  0
LINE
  5
167
330
22
100
AcDbEntity
  8
0
  6
Continuous
 62
     7
100
AcDbLine
 10
-200.9337768554688
 20
273.4979248046875
 30
0.0
 11
-204.3537750244141
 21
273.4979248046875
 31
0.0
  0
LINE
  5
168
330
22
100
AcDbEntity
  8
0
  6
Continuous
 62
     7
100
AcDbLine
 10
-200.9337768554688
 20
276.7379455566405
 30
0.0
 11
-200.9337768554688
 21
273.4979248046875
 31
0.0
  0
LINE
  5
169
330
22
100
AcDbEntity
  8
0
  6
Continuous
 62
     7
100
AcDbLine
 10
-200.9337768554688
 20
269.6979370117188
 30
0.0
 11
-198.9337768554688
 21
269.6979370117188
 31
0.0
  0
LINE
  5
16A
330
22
100
AcDbEntity
  8
0
  6
Continuous
 62
     7
100
AcDbLine
 10
-203.9337768554688
 20
272.8679504394531
 30
0.0
 11
-204.9837646484375
 21
272.8679504394531
 31
0.0
  0
LINE
  5
16B
330
22
100
AcDbEntity
  8
0
  6
Continuous
 62
     7
100
AcDbLine
 10
-206.9337768554688
 20
279.3179321289063
 30
0.0
 11
-206.9337768554688
 21
270.9179382324219
 31
0.0
  0
LINE
  5
16C
330
22
100
AcDbEntity
  8
0
  6
Continuous
 62
     7
100
AcDbLine
 10
-206.9337768554688
 20
270.9179382324219
 30
0.0
 11
-204.7337646484375
 21
273.1179504394531
 31
0.0
  0
LINE
  5
16D
330
22
100
AcDbEntity
  8
0
  6
Continuous
 62
     7
100
AcDbLine
 10
-204.7337646484375
 20
277.1179504394531
 30
0.0
 11
-204.3537750244141
 21
276.7379455566405
 31
0.0
  0
LINE
  5
16E
330
22
100
AcDbEntity
  8
0
  6
Continuous
 62
     7
100
AcDbLine
 10
-200.9337768554688
 20
276.7379455566405
 30
0.0
 11
-201.3137664794922
 21
277.1179504394531
 31
0.0
  0
LINE
  5
16F
330
22
100
AcDbEntity
  8
0
  6
Continuous
 62
     7
100
AcDbLine
 10
-200.9337768554688
 20
276.7379455566405
 30
0.0
 11
-204.3537750244141
 21
276.7379455566405
 31
0.0
  0
LINE
  5
170
330
22
100
AcDbEntity
  8
0
  6
Continuous
 62
     7
100
AcDbLine
 10
-204.7337646484375
 20
277.1179504394531
 30
0.0
 11
-201.3137664794922
 21
277.1179504394531
 31
0.0
  0
LINE
  5
171
330
22
100
AcDbEntity
  8
0
  6
CENTER
 62
     7
100
AcDbLine
 10
-212.5294036865234
 20
275.1179504394531
 30
0.0
 11
-195.5960693359375
 21
275.1179504394531
 31
0.0
  0
LINE
  5
172
330
22
100
AcDbEntity
  8
0
  6
Continuous
 62
     7
100
AcDbLine
 10
-201.3137664794922
 20
273.1179504394531
 30
0.0
 11
-200.9337768554688
 21
273.1179504394531
 31
0.0
  0
LINE
  5
173
330
22
100
AcDbEntity
  8
0
  6
Continuous
 62
     7
100
AcDbLine
 10
-135.4337768554688
 20
142.8679351806641
 30
0.0
 11
-135.4337768554688
 21
186.8679351806641
 31
0.0
  0
LINE
  5
174
330
22
100
AcDbEntity
  8
0
  6
Continuous
 62
     7
100
AcDbLine
 10
-138.9337768554687
 20
144.3679351806641
 30
0.0
 11
-138.9337768554687
 21
187.3679351806641
 31
0.0
  0
LINE
  5
175
330
22
100
AcDbEntity
  8
0
  6
Continuous
 62
     7
100
AcDbLine
 10
-137.9337768554687
 20
291.6179504394531
 30
0.0
 11
-138.9337768554687
 21
290.6179504394531
 31
0.0
  0
LINE
  5
176
330
22
100
AcDbEntity
  8
0
  6
Continuous
 62
     7
100
AcDbLine
 10
-104.4570999145508
 20
269.4346008300781
 30
0.0
 11
-104.4570999145508
 21
233.3679351806641
 31
0.0
  0
LINE
  5
177
330
22
100
AcDbEntity
  8
0
  6
Continuous
 62
     7
100
AcDbLine
 10
-132.9337768554688
 20
268.544677734375
 30
0.0
 11
-104.4570999145508
 21
269.4346008300781
 31
0.0
  0
LINE
  5
178
330
22
100
AcDbEntity
  8
0
  6
Continuous
 62
     7
100
AcDbLine
 10
-102.9337692260742
 20
270.9579467773438
 30
0.0
 11
-134.3647766113281
 21
269.9756774902344
 31
0.0
  0
LINE
  5
179
330
22
100
AcDbEntity
  8
0
  6
Continuous
 62
     7
100
AcDbLine
 10
-134.4337768554688
 20
274.8679504394531
 30
0.0
 11
-103.9337692260742
 21
274.8679504394531
 31
0.0
  0
LINE
  5
17A
330
22
100
AcDbEntity
  8
0
  6
Continuous
 62
     7
100
AcDbLine
 10
-102.9337692260742
 20
270.9579467773438
 30
0.0
 11
-104.4570999145508
 21
269.4346008300781
 31
0.0
  0
LINE
  5
17B
330
22
100
AcDbEntity
  8
0
  6
Continuous
 62
     7
100
AcDbLine
 10
-140.4087677001952
 20
233.3679351806641
 30
0.0
 11
-140.4087677001952
 21
269.4829406738281
 31
0.0
  0
LINE
  5
17C
330
22
100
AcDbEntity
  8
0
  6
Continuous
 62
     7
100
AcDbLine
 10
-138.9337768554687
 20
270.9579467773438
 30
0.0
 11
-138.9337768554687
 21
233.3679351806641
 31
0.0
  0
LINE
  5
17D
330
22
100
AcDbEntity
  8
0
  6
Continuous
 62
     7
100
AcDbLine
 10
-135.9337768554688
 20
324.3679504394531
 30
0.0
 11
-136.9337768554688
 21
324.3679504394531
 31
0.0
  0
LINE
  5
17E
330
22
100
AcDbEntity
  8
0
  6
Continuous
 62
     7
100
AcDbLine
 10
-140.4087677001952
 20
269.4829406738281
 30
0.0
 11
-138.9337768554687
 21
270.9579467773438
 31
0.0
  0
LINE
  5
17F
330
22
100
AcDbEntity
  8
0
  6
Continuous
 62
     7
100
AcDbLine
 10
-137.9337768554687
 20
291.6179504394531
 30
0.0
 11
-138.9337768554687
 21
292.6179504394531
 31
0.0
  0
LINE
  5
180
330
22
100
AcDbEntity
  8
0
  6
Continuous
 62
     7
100
AcDbLine
 10
-137.9337768554687
 20
307.6203308105469
 30
0.0
 11
-138.9337768554687
 21
306.6203308105469
 31
0.0
  0
LINE
  5
181
330
22
100
AcDbEntity
  8
0
  6
Continuous
 62
     7
100
AcDbLine
 10
-137.9337768554687
 20
307.6203308105469
 30
0.0
 11
-138.9337768554687
 21
308.6203308105469
 31
0.0
  0
LINE
  5
182
330
22
100
AcDbEntity
  8
0
  6
Continuous
 62
     7
100
AcDbLine
 10
-135.4337768554688
 20
175.8679351806641
 30
0.0
 11
-133.9328002929688
 21
175.8679351806641
 31
0.0
  0
LINE
  5
183
330
22
100
AcDbEntity
  8
0
  6
Continuous
 62
     7
100
AcDbLine
 10
-135.4337768554688
 20
186.8679351806641
 30
0.0
 11
-135.4337768554688
 21
190.8679351806641
 31
0.0
  0
LINE
  5
184
330
22
100
AcDbEntity
  8
0
  6
Continuous
 62
     7
100
AcDbLine
 10
-117.4337692260742
 20
191.8679351806641
 30
0.0
 11
-117.4337692260742
 21
189.8679351806641
 31
0.0
  0
LINE
  5
185
330
22
100
AcDbEntity
  8
0
  6
Continuous
 62
     7
100
AcDbLine
 10
-198.9337768554688
 20
197.0379333496094
 30
0.0
 11
-197.4637756347656
 21
195.5679321289063
 31
0.0
  0
LINE
  5
186
330
22
100
AcDbEntity
  8
0
  6
Continuous
 62
     7
100
AcDbLine
 10
-202.9337768554688
 20
175.3679351806641
 30
0.0
 11
-206.9337768554688
 21
182.3679351806641
 31
0.0
  0
LINE
  5
187
330
22
100
AcDbEntity
  8
0
  6
Continuous
 62
     7
100
AcDbLine
 10
-198.9337768554688
 20
197.0379333496094
 30
0.0
 11
-170.9337768554688
 21
197.0379333496094
 31
0.0
  0
LINE
  5
188
330
22
100
AcDbEntity
  8
0
  6
Continuous
 62
     7
100
AcDbLine
 10
-170.9337768554688
 20
195.5679321289063
 30
0.0
 11
-197.4637756347656
 21
195.5679321289063
 31
0.0
  0
LINE
  5
189
330
22
100
AcDbEntity
  8
0
  6
Continuous
 62
     7
100
AcDbLine
 10
-200.9337768554688
 20
175.3679351806641
 30
0.0
 11
-202.9337768554688
 21
175.3679351806641
 31
0.0
  0
LINE
  5
18A
330
22
100
AcDbEntity
  8
0
  6
Continuous
 62
     7
100
AcDbLine
 10
-200.9337768554688
 20
197.0379333496094
 30
0.0
 11
-198.9337768554688
 21
197.0379333496094
 31
0.0
  0
LINE
  5
18B
330
22
100
AcDbEntity
  8
0
  6
Continuous
 62
     7
100
AcDbLine
 10
-135.9337768554688
 20
142.3679351806641
 30
0.0
 11
-136.9337768554688
 21
142.3679351806641
 31
0.0
  0
LINE
  5
18C
330
22
100
AcDbEntity
  8
0
  6
Continuous
 62
     7
100
AcDbLine
 10
-143.9337768554688
 20
192.367935180664
 30
0.0
 11
-169.9337768554688
 21
192.367935180664
 31
0.0
  0
LINE
  5
18D
330
22
100
AcDbEntity
  8
0
  6
Continuous
 62
     7
100
AcDbLine
 10
-135.4337768554688
 20
175.8679351806641
 30
0.0
 11
-135.4337768554688
 21
160.0364837646484
 31
0.0
  0
LINE
  5
18E
330
22
100
AcDbEntity
  8
0
  6
Continuous
 62
     7
100
AcDbLine
 10
-134.4337768554688
 20
191.8679351806641
 30
0.0
 11
-103.9337692260742
 21
191.8679351806641
 31
0.0
  0
LINE
  5
18F
330
22
100
AcDbEntity
  8
0
  6
Continuous
 62
     7
100
AcDbLine
 10
-102.9337692260742
 20
192.8679351806641
 30
0.0
 11
-102.9337692260742
 21
273.8679504394531
 31
0.0
  0
LINE
  5
190
330
22
100
AcDbEntity
  8
0
  6
Continuous
 62
     7
100
AcDbLine
 10
-135.4337768554688
 20
190.8679351806641
 30
0.0
 11
-135.4337768554688
 21
233.3679351806641
 31
0.0
  0
LINE
  5
191
330
22
100
AcDbEntity
  8
0
  6
Continuous
 62
     7
100
AcDbLine
 10
-138.9337768554687
 20
187.3679351806641
 30
0.0
 11
-138.9337768554687
 21
233.3679351806641
 31
0.0
  0
LINE
  5
192
330
22
100
AcDbEntity
  8
0
  6
Continuous
 62
     7
100
AcDbLine
 10
-200.9337768554688
 20
233.3679351806641
 30
0.0
 11
-200.9337768554688
 21
175.3679351806641
 31
0.0
  0
LINE
  5
193
330
22
100
AcDbEntity
  8
0
  6
Continuous
 62
     7
100
AcDbLine
 10
-198.9337768554688
 20
197.0379333496094
 30
0.0
 11
-198.9337768554688
 21
233.3679351806641
 31
0.0
  0
LINE
  5
194
330
22
100
AcDbEntity
  8
0
  6
Continuous
 62
     7
100
AcDbLine
 10
-170.9337768554688
 20
193.3679351806641
 30
0.0
 11
-170.9337768554688
 21
233.3679351806641
 31
0.0
  0
LINE
  5
195
330
22
100
AcDbEntity
  8
0
  6
Continuous
 62
     7
100
AcDbLine
 10
-206.9337768554688
 20
284.3679504394531
 30
0.0
 11
-206.9337768554688
 21
182.3679351806641
 31
0.0
  0
LINE
  5
196
330
22
100
AcDbEntity
  8
0
  6
Continuous
 62
     7
100
AcDbLine
 10
-202.9337768554688
 20
177.5960235595703
 30
0.0
 11
-202.9337768554688
 21
233.3679351806641
 31
0.0
  0
ARC
  5
197
330
22
100
AcDbEntity
  8
0
  6
Continuous
 62
     7
100
AcDbCircle
 10
-459.9013061523438
 20
243.4781188964844
 30
0.0
 40
2.0
100
AcDbArc
 50
338.9268991602741
 51
60.00006956400067
  0
ARC
  5
198
330
22
100
AcDbEntity
  8
0
  6
Continuous
 62
     7
100
AcDbCircle
 10
-463.6679382324218
 20
243.3433837890625
 30
0.0
 40
4.0
100
AcDbArc
 50
59.99996028107254
 51
161.5370590315289
  0
ARC
  5
199
330
22
100
AcDbEntity
  8
0
  6
Continuous
 62
     7
100
AcDbCircle
 10
-432.8410949707031
 20
233.0506744384766
 30
0.0
 40
27.0
100
AcDbArc
 50
38.92575317543432
 51
141.1193095413951
  0
ARC
  5
19A
330
22
100
AcDbEntity
  8
0
  6
Continuous
 62
     7
100
AcDbCircle
 10
-432.8410949707031
 20
233.0506744384766
 30
0.0
 40
23.0
100
AcDbArc
 50
39.11232666649354
 51
140.8452800259591
  0
ARC
  5
19B
330
22
100
AcDbEntity
  8
0
  6
Continuous
 62
     7
100
AcDbCircle
 10
-412.2808837890625
 20
240.8793182373047
 30
0.0
 40
1.0
100
AcDbArc
 50
20.8456267490354
 51
119.9999304359993
  0
ARC
  5
19C
330
22
100
AcDbEntity
  8
0
  6
Continuous
 62
     7
100
AcDbCircle
 10
-415.7808837890625
 20
246.9414978027344
 30
0.0
 40
1.0
100
AcDbArc
 50
299.9999304360001
 51
39.15407825246809
  0
ARC
  5
19D
330
22
100
AcDbEntity
  8
0
  6
Continuous
 62
     7
100
AcDbCircle
 10
-419.1044616699218
 20
246.1773223876953
 30
0.0
 40
2.0
100
AcDbArc
 50
223.7004352052267
 51
299.9999304360001
  0
ARC
  5
19E
330
22
100
AcDbEntity
  8
0
  6
Continuous
 62
     7
100
AcDbCircle
 10
-410.2802429199218
 20
251.2719879150391
 30
0.0
 40
2.0
100
AcDbArc
 50
218.9266018828242
 51
299.9999304360001
  0
ARC
  5
19F
330
22
100
AcDbEntity
  8
0
  6
Continuous
 62
     7
100
AcDbCircle
 10
-414.6044616699218
 20
238.3830871582031
 30
0.0
 40
2.0
100
AcDbArc
 50
119.9999304359993
 51
196.2997213842113
  0
ARC
  5
1A0
330
22
100
AcDbEntity
  8
0
  6
Continuous
 62
     7
100
AcDbCircle
 10
-455.4013061523438
 20
251.2723388671875
 30
0.0
 40
2.0
100
AcDbArc
 50
239.9998509974231
 51
321.0728487910198
  0
ARC
  5
1A1
330
22
100
AcDbEntity
  8
0
  6
Continuous
 62
     7
100
AcDbCircle
 10
-432.8410949707031
 20
233.0506744384766
 30
0.0
 40
12.99973487854004
100
AcDbArc
 50
166.9566640120003
 51
253.0421945829756
  0
ARC
  5
1A2
330
22
100
AcDbEntity
  8
0
  6
Continuous
 62
     7
100
AcDbCircle
 10
-432.8410949707031
 20
233.0506744384766
 30
0.0
 40
36.5
100
AcDbArc
 50
41.53657458224964
 51
138.4622717169681
  0
ARC
  5
1A3
330
22
100
AcDbEntity
  8
0
  6
Continuous
 62
     7
100
AcDbCircle
 10
-432.8410949707031
 20
233.0506744384766
 30
0.0
 40
33.0
100
AcDbArc
 50
34.58884282441964
 51
145.4099373609299
  0
ARC
  5
1A4
330
22
100
AcDbEntity
  8
0
  6
Continuous
 62
     7
100
AcDbCircle
 10
-405.7802429199218
 20
243.4777526855469
 30
0.0
 40
2.0
100
AcDbArc
 50
119.9999304359993
 51
201.0731008397273
  0
ARC
  5
1A5
330
22
100
AcDbEntity
  8
0
  6
Continuous
 62
     7
100
AcDbCircle
 10
-428.3407897949218
 20
240.8447265625
 30
0.0
 40
2.0
100
AcDbArc
 50
240.0000695640013
 51
299.9999304360001
  0
ARC
  5
1A6
330
22
100
AcDbEntity
  8
0
  6
Continuous
 62
     7
100
AcDbCircle
 10
-428.3410949707031
 20
225.2564544677734
 30
0.0
 40
2.0
100
AcDbArc
 50
119.9999304359993
 51
180.0000000000004
  0
ARC
  5
1A7
330
22
100
AcDbEntity
  8
0
  6
Continuous
 62
     7
100
AcDbCircle
 10
-432.8410949707031
 20
233.0506744384766
 30
0.0
 40
13.00026512145996
100
AcDbArc
 50
286.9577817792545
 51
13.04122205043156
  0
ARC
  5
1A8
330
22
100
AcDbEntity
  8
0
  6
Continuous
 62
     7
100
AcDbCircle
 10
-432.8410949707031
 20
233.0506744384766
 30
0.0
 40
7.0
100
AcDbArc
 50
300.000055330834
 51
0.0
  0
ARC
  5
1A9
330
22
100
AcDbEntity
  8
0
  6
Continuous
 62
     7
100
AcDbCircle
 10
-432.8410949707031
 20
233.0506744384766
 30
0.0
 40
7.0
100
AcDbArc
 50
59.99709450260927
 51
119.9970802741876
  0
ARC
  5
1AA
330
22
100
AcDbEntity
  8
0
  6
Continuous
 62
     7
100
AcDbCircle
 10
-432.8410949707031
 20
233.0506744384766
 30
0.0
 40
13.0
100
AcDbArc
 50
46.95664490050321
 51
133.0410738552765
  0
ARC
  5
1AB
330
22
100
AcDbEntity
  8
0
  6
Continuous
 62
     7
100
AcDbCircle
 10
-432.8410949707031
 20
233.0506744384766
 30
0.0
 40
7.0
100
AcDbArc
 50
180.0000000000004
 51
239.9999446691674
  0
ARC
  5
1AC
330
22
100
AcDbEntity
  8
0
  6
Continuous
 62
     7
100
AcDbCircle
 10
-444.5312194824218
 20
235.7588958740234
 30
0.0
 40
1.0
100
AcDbArc
 50
60.00006956400067
 51
166.958268266172
  0
ARC
  5
1AD
330
22
100
AcDbEntity
  8
0
  6
Continuous
 62
     7
100
AcDbCircle
 10
-423.8407897949218
 20
233.0505065917969
 30
0.0
 40
2.0
100
AcDbArc
 50
120.0001490025776
 51
180.0000000000004
  0
ARC
  5
1AE
330
22
100
AcDbEntity
  8
0
  6
Continuous
 62
     7
100
AcDbCircle
 10
-421.1503295898437
 20
235.7585296630859
 30
0.0
 40
1.0
100
AcDbArc
 50
13.04297804556662
 51
119.9999304359993
  0
ARC
  5
1AF
330
22
100
AcDbEntity
  8
0
  6
Continuous
 62
     7
100
AcDbCircle
 10
-424.6503295898437
 20
241.8207092285156
 30
0.0
 40
1.0
100
AcDbArc
 50
299.9999304360001
 51
46.95823113105386
  0
ARC
  5
1B0
330
22
100
AcDbEntity
  8
0
  6
Continuous
 62
     7
100
AcDbCircle
 10
-449.9006958007813
 20
246.9418487548828
 30
0.0
 40
1.0
100
AcDbArc
 50
140.8459217475319
 51
239.9996324279565
  0
ARC
  5
1B1
330
22
100
AcDbEntity
  8
0
  6
Continuous
 62
     7
100
AcDbCircle
 10
-453.4006958007813
 20
240.8796844482422
 30
0.0
 40
1.0
100
AcDbArc
 50
59.99963242795577
 51
159.1543732509646
  0
ARC
  5
1B2
330
22
100
AcDbEntity
  8
0
  6
Continuous
 62
     7
100
AcDbCircle
 10
-446.5771179199219
 20
246.1776885986328
 30
0.0
 40
2.0
100
AcDbArc
 50
240.0000695640013
 51
316.3001688070751
  0
ARC
  5
1B3
330
22
100
AcDbEntity
  8
0
  6
Continuous
 62
     7
100
AcDbCircle
 10
-451.0771179199219
 20
238.3834533691406
 30
0.0
 40
2.0
100
AcDbArc
 50
343.7002786157902
 51
60.00006956400067
  0
ARC
  5
1B4
330
22
100
AcDbEntity
  8
0
  6
Continuous
 62
     7
100
AcDbCircle
 10
-457.1679382324218
 20
254.6017150878906
 30
0.0
 40
4.0
100
AcDbArc
 50
138.4630963837917
 51
240.0000695640013
  0
CIRCLE
  5
1B5
330
22
100
AcDbEntity
  8
0
  6
Continuous
 62
     7
100
AcDbCircle
 10
-432.6636047363281
 20
275.3679504394531
 30
0.0
 40
4.5
  0
ARC
  5
1B6
330
22
100
AcDbEntity
  8
0
  6
Continuous
 62
     7
100
AcDbCircle
 10
-408.5136108398438
 20
254.6013488769531
 30
0.0
 40
4.0
100
AcDbArc
 50
300.0000397189282
 51
41.53690361620832
  0
ARC
  5
1B7
330
22
100
AcDbEntity
  8
0
  6
Continuous
 62
     7
100
AcDbCircle
 10
-402.0136108398437
 20
243.343017578125
 30
0.0
 40
4.0
100
AcDbArc
 50
18.46307940487151
 51
120.0000397189275
  0
ARC
  5
1B8
330
22
100
AcDbEntity
  8
0
  6
Continuous
 62
     7
100
AcDbCircle
 10
-437.3407897949219
 20
240.8450927734375
 30
0.0
 40
2.0
100
AcDbArc
 50
240.0000695640013
 51
299.9999304360001
  0
ARC
  5
1B9
330
22
100
AcDbEntity
  8
0
  6
Continuous
 62
     7
100
AcDbCircle
 10
-441.8407897949219
 20
233.0508575439453
 30
0.0
 40
2.0
100
AcDbArc
 50
0.0
 51
60.00006956400067
  0
ARC
  5
1BA
330
22
100
AcDbEntity
  8
0
  6
Continuous
 62
     7
100
AcDbCircle
 10
-441.0312194824219
 20
241.8210754394531
 30
0.0
 40
1.0
100
AcDbArc
 50
133.043046776073
 51
240.0000695640013
  0
CIRCLE
  5
1BB
330
22
100
AcDbEntity
  8
0
  6
Continuous
 62
     7
100
AcDbCircle
 10
-432.8410949707031
 20
233.0506744384766
 30
0.0
 40
3.0
  0
ARC
  5
1BC
330
22
100
AcDbEntity
  8
0
  6
Continuous
 62
     7
100
AcDbCircle
 10
-429.341094970703
 20
221.5724487304688
 30
0.0
 40
1.0
100
AcDbArc
 50
180.0000000000004
 51
286.9570773534181
  0
ARC
  5
1BD
330
22
100
AcDbEntity
  8
0
  6
Continuous
 62
     7
100
AcDbCircle
 10
-432.8410949707031
 20
233.0506744384766
 30
0.0
 40
17.0
100
AcDbArc
 50
43.69872733463757
 51
136.2989087511429
  0
ARC
  5
1BE
330
22
100
AcDbEntity
  8
0
  6
Continuous
 62
     7
100
AcDbCircle
 10
-437.3410949707031
 20
225.2564544677734
 30
0.0
 40
2.0
100
AcDbArc
 50
0.0
 51
60.00006956400067
  0
ARC
  5
1BF
330
22
100
AcDbEntity
  8
0
  6
Continuous
 62
     7
100
AcDbCircle
 10
-436.3410949707031
 20
221.5724487304688
 30
0.0
 40
1.0
100
AcDbArc
 50
253.041250160246
 51
0.0
  0
ARC
  5
1C0
330
22
100
AcDbEntity
  8
0
  6
Continuous
 62
     7
100
AcDbCircle
 10
-428.3410949707031
 20
204.4019470214844
 30
0.0
 40
2.0
100
AcDbArc
 50
98.92735751893603
 51
180.0000000000004
  0
ARC
  5
1C1
330
22
100
AcDbEntity
  8
0
  6
Continuous
 62
     7
100
AcDbCircle
 10
-429.341094970703
 20
211.3308715820313
 30
0.0
 40
1.0
100
AcDbArc
 50
180.0000000000004
 51
279.1540221695749
  0
ARC
  5
1C2
330
22
100
AcDbEntity
  8
0
  6
Continuous
 62
     7
100
AcDbCircle
 10
-439.3410949707031
 20
201.2073211669922
 30
0.0
 40
4.0
100
AcDbArc
 50
258.4628007886507
 51
0.0
  0
ARC
  5
1C3
330
22
100
AcDbEntity
  8
0
  6
Continuous
 62
     7
100
AcDbCircle
 10
-437.3410949707031
 20
204.4019470214844
 30
0.0
 40
2.0
100
AcDbArc
 50
0.0
 51
81.07350615757278
  0
ARC
  5
1C4
330
22
100
AcDbEntity
  8
0
  6
Continuous
 62
     7
100
AcDbCircle
 10
-436.3410949707031
 20
211.3308715820313
 30
0.0
 40
1.0
100
AcDbArc
 50
260.8459778304266
 51
0.0
  0
ARC
  5
1C5
330
22
100
AcDbEntity
  8
0
  6
Continuous
 62
     7
100
AcDbCircle
 10
-426.3410949707031
 20
201.2073211669922
 30
0.0
 40
4.0
100
AcDbArc
 50
180.0000000000004
 51
281.5367709118262
  0
CIRCLE
  5
1C6
330
22
100
AcDbEntity
  8
0
  6
Continuous
 62
     7
100
AcDbCircle
 10
-432.6636047363281
 20
233.3679351806641
 30
0.0
 40
75.5
  0
CIRCLE
  5
1C7
330
22
100
AcDbEntity
  8
0
  6
Continuous
 62
     7
100
AcDbCircle
 10
-432.6636047363281
 20
233.3679351806641
 30
0.0
 40
74.5
  0
CIRCLE
  5
1C8
330
22
100
AcDbEntity
  8
0
  6
Continuous
 62
     7
100
AcDbCircle
 10
-432.6636047363281
 20
233.3679351806641
 30
0.0
 40
91.0
  0
CIRCLE
  5
1C9
330
22
100
AcDbEntity
  8
0
  6
Continuous
 62
     7
100
AcDbCircle
 10
-396.2910461425781
 20
212.3676452636719
 30
0.0
 40
4.5
  0
ARC
  5
1CA
330
22
100
AcDbEntity
  8
0
  6
Continuous
 62
     7
100
AcDbCircle
 10
-437.3410949707031
 20
214.5912628173828
 30
0.0
 40
2.0
100
AcDbArc
 50
0.0
 51
76.29952315724526
  0
ARC
  5
1CB
330
22
100
AcDbEntity
  8
0
  6
Continuous
 62
     7
100
AcDbCircle
 10
-428.3410949707031
 20
214.5912628173828
 30
0.0
 40
2.0
100
AcDbArc
 50
103.7004768427547
 51
180.0000000000004
  0
ARC
  5
1CC
330
22
100
AcDbEntity
  8
0
  6
Continuous
 62
     7
100
AcDbCircle
 10
-432.8410949707031
 20
233.0506744384766
 30
0.0
 40
17.0
100
AcDbArc
 50
163.6995750100605
 51
256.2997924907993
  0
ARC
  5
1CD
330
22
100
AcDbEntity
  8
0
  6
Continuous
 62
     7
100
AcDbCircle
 10
-432.8410949707031
 20
233.0506744384766
 30
0.0
 40
23.0
100
AcDbArc
 50
279.1541299486827
 51
20.89969858937529
  0
ARC
  5
1CE
330
22
100
AcDbEntity
  8
0
  6
Continuous
 62
     7
100
AcDbCircle
 10
-432.8410949707031
 20
233.0506744384766
 30
0.0
 40
17.0
100
AcDbArc
 50
283.7002075092021
 51
16.29915374044726
  0
ARC
  5
1CF
330
22
100
AcDbEntity
  8
0
  6
Continuous
 62
     7
100
AcDbCircle
 10
-432.8410949707031
 20
233.0506744384766
 30
0.0
 40
27.0
100
AcDbArc
 50
158.8643771640069
 51
261.0731794115463
  0
ARC
  5
1D0
330
22
100
AcDbEntity
  8
0
  6
Continuous
 62
     7
100
AcDbCircle
 10
-432.8410949707031
 20
233.0506744384766
 30
0.0
 40
33.0
100
AcDbArc
 50
154.5889711205648
 51
265.4105568855683
  0
ARC
  5
1D1
330
22
100
AcDbEntity
  8
0
  6
Continuous
 62
     7
100
AcDbCircle
 10
-432.8410949707031
 20
233.0506744384766
 30
0.0
 40
36.5
100
AcDbArc
 50
161.5366470726288
 51
258.4630104440664
  0
ARC
  5
1D2
330
22
100
AcDbEntity
  8
0
  6
Continuous
 62
     7
100
AcDbCircle
 10
-432.8410949707031
 20
233.0506744384766
 30
0.0
 40
22.99977111816406
100
AcDbArc
 50
159.1534192990186
 51
260.8458543966989
  0
CIRCLE
  5
1D3
330
22
100
AcDbEntity
  8
0
  6
Continuous
 62
     7
100
AcDbCircle
 10
-432.6636047363281
 20
233.3679351806641
 30
0.0
 40
49.5
  0
CIRCLE
  5
1D4
330
22
100
AcDbEntity
  8
0
  6
Continuous
 62
     7
100
AcDbCircle
 10
-432.6636047363281
 20
233.3679351806641
 30
0.0
 40
49.0
  0
ARC
  5
1D5
330
22
100
AcDbEntity
  8
0
  6
Continuous
 62
     7
100
AcDbCircle
 10
-432.8410949707031
 20
233.0506744384766
 30
0.0
 40
33.0
100
AcDbArc
 50
274.5894431144332
 51
25.41012790070231
  0
ARC
  5
1D6
330
22
100
AcDbEntity
  8
0
  6
Continuous
 62
     7
100
AcDbCircle
 10
-432.8410949707031
 20
233.0506744384766
 30
0.0
 40
36.5
100
AcDbArc
 50
281.5369426189145
 51
18.46274697323911
  0
ARC
  5
1D7
330
22
100
AcDbEntity
  8
0
  6
Continuous
 62
     7
100
AcDbCircle
 10
-432.8410949707031
 20
233.0506744384766
 30
0.0
 40
27.0
100
AcDbArc
 50
278.9267566125523
 51
21.07280783931765
  0
CIRCLE
  5
1D8
330
22
100
AcDbEntity
  8
0
  6
Continuous
 62
     7
100
AcDbCircle
 10
-432.6636047363281
 20
233.3679351806641
 30
0.0
 40
58.0
  0
CIRCLE
  5
1D9
330
22
100
AcDbEntity
  8
0
  6
Continuous
 62
     7
100
AcDbCircle
 10
-469.0371704101563
 20
212.3682250976564
 30
0.0
 40
4.5
  0
CIRCLE
  5
1DA
330
22
100
AcDbEntity
  8
0
  6
Continuous
 62
     7
100
AcDbCircle
 10
-432.6636047363281
 20
233.3679351806641
 30
0.0
 40
73.5
  0
ARC
  5
1DB
330
22
100
AcDbEntity
  8
0
  6
Continuous
 62
     7
100
AcDbCircle
 10
-169.9337768554688
 20
273.3679504394531
 30
0.0
 40
1.0
100
AcDbArc
 50
90.00000000000019
 51
180.0000000000004
  0
ARC
  5
1DC
330
22
100
AcDbEntity
  8
0
  6
Continuous
 62
     7
100
AcDbCircle
 10
-134.4337768554688
 20
275.8679504394531
 30
0.0
 40
1.0
100
AcDbArc
 50
180.0000000000004
 51
270.0000000000005
  0
ARC
  5
1DD
330
22
100
AcDbEntity
  8
0
  6
Continuous
 62
     7
100
AcDbCircle
 10
-103.9337692260742
 20
273.8679504394531
 30
0.0
 40
1.0
100
AcDbArc
 50
0.0
 51
90.00000000000019
  0
ARC
  5
1DE
330
22
100
AcDbEntity
  8
0
  6
Continuous
 62
     7
100
AcDbCircle
 10
-136.9337768554688
 20
322.3679504394531
 30
0.0
 40
2.0
100
AcDbArc
 50
90.00000000000019
 51
180.0000000000004
  0
ARC
  5
1DF
330
22
100
AcDbEntity
  8
0
  6
Continuous
 62
     7
100
AcDbCircle
 10
-143.9337768554688
 20
279.3679504394531
 30
0.0
 40
5.0
100
AcDbArc
 50
270.0000000000005
 51
0.0
  0
ARC
  5
1E0
330
22
100
AcDbEntity
  8
0
  6
Continuous
 62
     7
100
AcDbCircle
 10
-135.9337768554688
 20
323.8679504394531
 30
0.0
 40
0.5
100
AcDbArc
 50
0.0
 51
90.00000000000019
  0
ARC
  5
1E1
330
22
100
AcDbEntity
  8
0
  6
Continuous
 62
     7
100
AcDbCircle
 10
-103.9337692260742
 20
192.8679351806641
 30
0.0
 40
1.0
100
AcDbArc
 50
270.0000000000005
 51
0.0
  0
ARC
  5
1E2
330
22
100
AcDbEntity
  8
0
  6
Continuous
 62
     7
100
AcDbCircle
 10
-116.8883056640625
 20
172.0813140869141
 30
0.0
 40
16.0
100
AcDbArc
 50
99.15416751492486
 51
161.2476139822793
  0
ARC
  5
1E3
330
22
100
AcDbEntity
  8
0
  6
Continuous
 62
     7
100
AcDbCircle
 10
-119.4337692260742
 20
189.8679351806641
 30
0.0
 40
2.0
100
AcDbArc
 50
270.0000000000005
 51
0.0
  0
ARC
  5
1E4
330
22
100
AcDbEntity
  8
0
  6
Continuous
 62
     7
100
AcDbCircle
 10
-134.4337768554688
 20
190.8679351806641
 30
0.0
 40
1.0
100
AcDbArc
 50
90.00000000000019
 51
180.0000000000004
  0
ARC
  5
1E5
330
22
100
AcDbEntity
  8
0
  6
Continuous
 62
     7
100
AcDbCircle
 10
-133.9328002929688
 20
177.8679351806641
 30
0.0
 40
2.0
100
AcDbArc
 50
270.0000000000005
 51
341.2475271089839
  0
ARC
  5
1E6
330
22
100
AcDbEntity
  8
0
  6
Continuous
 62
     7
100
AcDbCircle
 10
-143.9337768554688
 20
187.3679351806641
 30
0.0
 40
5.0
100
AcDbArc
 50
0.0
 51
90.00000000000019
  0
ARC
  5
1E7
330
22
100
AcDbEntity
  8
0
  6
Continuous
 62
     7
100
AcDbCircle
 10
-169.9337768554688
 20
193.3679351806641
 30
0.0
 40
1.0
100
AcDbArc
 50
180.0000000000004
 51
270.0000000000005
  0
ARC
  5
1E8
330
22
100
AcDbEntity
  8
0
  6
Continuous
 62
     7
100
AcDbCircle
 10
-135.9337768554688
 20
142.8679351806641
 30
0.0
 40
0.5
100
AcDbArc
 50
270.0000000000005
 51
0.0
  0
ARC
  5
1E9
330
22
100
AcDbEntity
  8
0
  6
Continuous
 62
     7
100
AcDbCircle
 10
-136.9337768554688
 20
144.3679351806641
 30
0.0
 40
2.0
100
AcDbArc
 50
180.0000000000004
 51
270.0000000000005
  0
TEXT
  5
1EA
330
22
100
AcDbEntity
  8
0
  6
Continuous
 62
     7
100
AcDbText
 10
-346.4677057266235
 20
111.0502014160156
 30
0.0
 40
7.0
  1
DL-T4-65
 41
1.006087027721524
100
AcDbText
  0
DIMENSION
  5
1EB
330
22
100
AcDbEntity
  8
0
  6
Continuous
 62
     7
100
AcDbDimension
  2
*D1
 10
-135.4337768554688
 20
356.1220092773438
 30
0.0
 11
-124.640983581543
 21
356.1220092773438
 31
0.0
 71
     5
 42
-1.0
  3
DIMSTYLE1
100
AcDbAlignedDimension
 13
-138.9337768554687
 23
358.4080200195313
 33
0.0
 14
-135.4337768554688
 24
323.8679504394531
 34
0.0
100
AcDbRotatedDimension
  0
DIMENSION
  5
1EC
330
22
100
AcDbEntity
  8
0
  6
Continuous
 62
     7
100
AcDbDimension
  2
*D2
 10
-170.9337768554688
 20
346.4581298828125
 30
0.0
 11
-154.9337768554688
 21
346.4581298828125
 31
0.0
 71
     5
 42
-1.0
  3
DIMSTYLE2
100
AcDbAlignedDimension
 13
-138.9337768554687
 23
358.4080200195313
 33
0.0
 14
-170.9337768554688
 24
273.3679504394531
 34
0.0
100
AcDbRotatedDimension
  0
DIMENSION
  5
1ED
330
22
100
AcDbEntity
  8
0
  6
Continuous
 62
     7
100
AcDbDimension
  2
*D3
 10
-74.20970916748046
 20
274.8679504394531
 30
0.0
 11
-74.20970916748046
 21
233.3679351806641
 31
0.0
 71
     5
 42
-1.0
  3
DIMSTYLE3
100
AcDbAlignedDimension
 13
-103.9337692260742
 23
191.8679351806641
 33
0.0
 14
-103.9337692260742
 24
274.8679504394531
 34
0.0
 50
90.0
100
AcDbRotatedDimension
  0
INSERT
  5
1EE
330
22
100
AcDbEntity
  8
0
  6
Continuous
 62
     7
100
AcDbBlockReference
  2
KOZU0001
 10
-118.9732284545898
 20
270.4566650390625
 30
0.0
  0
DIMENSION
  5
1EF
330
22
100
AcDbEntity
  8
0
  6
Continuous
 62
     7
100
AcDbDimension
  2
*D4
 10
-206.9337768554688
 20
246.0818176269531
 30
0.0
 11
-178.9337768554688
 21
246.0818176269531
 31
0.0
 71
     5
 42
-1.0
  3
DIMSTYLE4
100
AcDbAlignedDimension
 13
-150.9337768554688
 23
233.3679351806641
 33
0.0
 14
-206.9337768554688
 24
284.3679504394531
 34
0.0
100
AcDbRotatedDimension
  0
DIMENSION
  5
1F0
330
22
100
AcDbEntity
  8
0
  6
Continuous
 62
     7
100
AcDbDimension
  2
*D5
 10
-170.9337768554688
 20
114.0203857421875
 30
0.0
 11
-136.9337768554688
 21
114.0203857421875
 31
0.0
 71
     5
 42
-1.0
  3
DIMSTYLE5
100
AcDbAlignedDimension
 13
-102.9337692260742
 23
192.8679351806641
 33
0.0
 14
-170.9337768554688
 24
193.3679351806641
 34
0.0
100
AcDbRotatedDimension
  0
DIMENSION
  5
1F1
330
22
100
AcDbEntity
  8
0
  6
Continuous
 62
     7
100
AcDbDimension
  2
*D6
 10
-108.8684692382813
 20
175.8679351806641
 30
0.0
 11
-108.8684692382813
 21
183.8679351806641
 31
0.0
 71
     5
 42
-1.0
  3
DIMSTYLE6
100
AcDbAlignedDimension
 13
-103.9337692260742
 23
191.8679351806641
 33
0.0
 14
-133.9328002929688
 24
175.8679351806641
 34
0.0
 50
90.0
100
AcDbRotatedDimension
  0
DIMENSION
  5
1F2
330
22
100
AcDbEntity
  8
0
  6
Continuous
 62
     7
100
AcDbDimension
  2
*D7
 10
-117.4337692260742
 20
165.1239471435547
 30
0.0
 11
-126.4337692260742
 21
165.1239471435547
 31
0.0
 71
     5
 42
-1.0
  3
DIMSTYLE7
100
AcDbAlignedDimension
 13
-135.4337768554688
 23
142.8679351806641
 33
0.0
 14
-117.4337692260742
 24
189.8679351806641
 34
0.0
100
AcDbRotatedDimension
  0
INSERT
  5
1F3
330
22
100
AcDbEntity
  8
0
  6
Continuous
 62
     7
100
AcDbBlockReference
  2
KOZU0002
 10
-127.4636306762695
 20
187.8869934082031
 30
0.0
  0
DIMENSION
  5
1F4
330
22
100
AcDbEntity
  8
0
  6
Continuous
 62
     7
100
AcDbDimension
  2
*D8
 10
-480.1197554289011
 20
155.7218550384972
 30
0.0
 11
-372.5973510742188
 21
331.6462097167969
 31
0.0
 70
     3
 71
     5
 42
-1.0
  3
DIMSTYLE8
100
AcDbDiametricDimension
 15
-385.2074540437552
 25
311.014015322831
 35
0.0
 40
0.0
  0
DIMENSION
  5
1F5
330
22
100
AcDbEntity
  8
0
  6
Continuous
 62
     7
100
AcDbDimension
  2
*D9
 10
-478.079538321558
 20
197.2931104883389
 30
0.0
 11
-343.1855163574219
 21
304.4422302246094
 31
0.0
 70
     3
 71
     5
 42
-1.0
  3
DIMSTYLE9
100
AcDbDiametricDimension
 15
-387.2476711510983
 25
269.4427598729893
 35
0.0
 40
0.0
  0
DIMENSION
  5
1F6
330
22
100
AcDbEntity
  8
0
  6
Continuous
 62
     7
100
AcDbDimension
  2
*D10
 10
-200.9337768554688
 20
356.1220092773438
 30
0.0
 11
-169.9337768554688
 21
356.1220092773438
 31
0.0
 71
     5
 42
-1.0
  3
DIMSTYLE10
100
AcDbAlignedDimension
 13
-138.9337768554687
 23
322.3679504394531
 33
0.0
 14
-200.9337768554688
 24
291.3679504394531
 34
0.0
100
AcDbRotatedDimension
  0
DIMENSION
  5
1F7
330
22
100
AcDbEntity
  8
0
  6
Continuous
 62
     7
100
AcDbDimension
  2
*D11
 10
-206.9337768554688
 20
356.1220092773438
 30
0.0
 11
-224.9919738769531
 21
356.1220092773438
 31
0.0
 71
     5
 42
-1.0
  3
DIMSTYLE11
100
AcDbAlignedDimension
 13
-200.9337768554688
 23
358.4080200195313
 33
0.0
 14
-206.9337768554688
 24
284.3679504394531
 34
0.0
100
AcDbRotatedDimension
  0
ENDSEC
  0
SECTION
  2
OBJECTS
  0
DICTIONARY
  5
C
330
0
100
AcDbDictionary
281
     1
  3
ACAD_COLOR
350
1B
  3
ACAD_GROUP
350
D
  3
ACAD_LAYOUT
350
19
  3
ACAD_MATERIAL
350
1A
  3
ACAD_MLINESTYLE
350
16
  3
ACAD_PLOTSETTINGS
350
18
  3
ACAD_PLOTSTYLENAME
350
E
  3
ACAD_TABLESTYLE
350
1C
  3
AcDbVariableDictionary
350
203
  0
DICTIONARY
  5
1B
102
{ACAD_REACTORS
330
C
102
}
330
C
100
AcDbDictionary
281
     1
  0
DICTIONARY
  5
D
102
{ACAD_REACTORS
330
C
102
}
330
C
100
AcDbDictionary
281
     1
  0
DICTIONARY
  5
19
102
{ACAD_REACTORS
330
C
102
}
330
C
100
AcDbDictionary
281
     1
  3
Model
350
25
  3
レイアウト1
350
21
  0
DICTIONARY
  5
1A
102
{ACAD_REACTORS
330
C
102
}
330
C
100
AcDbDictionary
281
     1
  0
DICTIONARY
  5
16
102
{ACAD_REACTORS
330
C
102
}
330
C
100
AcDbDictionary
281
     1
  3
Standard
350
17
  0
DICTIONARY
  5
18
102
{ACAD_REACTORS
330
C
102
}
330
C
100
AcDbDictionary
281
     1
  0
ACDBDICTIONARYWDFLT
  5
E
102
{ACAD_REACTORS
330
C
102
}
330
C
100
AcDbDictionary
281
     1
  3
Normal
350
F
100
AcDbDictionaryWithDefault
340
F
  0
DICTIONARY
  5
1C
102
{ACAD_REACTORS
330
C
102
}
330
C
100
AcDbDictionary
281
     1
  3
Standard
350
1D
  0
DICTIONARY
  5
203
102
{ACAD_REACTORS
330
C
102
}
330
C
100
AcDbDictionary
281
     1
  3
CTABLESTYLE
350
204
  0
LAYOUT
  5
25
102
{ACAD_REACTORS
330
19
102
}
330
19
100
AcDbPlotSettings
  1

  2
PDF reDirect v2
  4
User66
  6

 40
3.174999952316284
 41
3.174999952316284
 42
3.17498779296875
 43
3.17498779296875
 44
420.0
 45
594.0
 46
0.0
 47
0.0
 48
0.0
 49
0.0
140
0.0
141
0.0
142
1.0
143
1.0
 70
 11952
 72
     1
 73
     1
 74
     2
  7
C:\Users\ck\AppData\Roaming\Autodesk\AutoCAD 2005\R16.1\jpn\Plot Styles\black.ctb
 75
    16
147
1.0
 76
     0
 77
     2
 78
   300
148
592.0
149
0.0
100
AcDbLayout
  1
Model
 70
     1
 71
     0
 10
0.0
 20
0.0
 11
12.0
 21
9.0
 12
0.0
 22
0.0
 32
0.0
 14
0.0
 24
0.0
 34
0.0
 15
0.0
 25
0.0
 35
0.0
146
0.0
 13
0.0
 23
0.0
 33
0.0
 16
1.0
 26
0.0
 36
0.0
 17
0.0
 27
1.0
 37
0.0
 76
     0
330
22
1001
ACAD_PSEXT
1000
PDF reDirect v2
1000
PDF reDirect Pro
1000
PDF_REDIRECT_PORT:
1000
PDF reDirect provided by EXP Systems
1070
     0
  0
LAYOUT
  5
21
102
{ACAD_REACTORS
330
19
102
}
330
19
100
AcDbPlotSettings
  1

  2
PDF reDirect v2
  4

  6

 40
0.0
 41
0.0
 42
0.0
 43
0.0
 44
0.0
 45
0.0
 46
0.0
 47
0.0
 48
0.0
 49
0.0
140
0.0
141
0.0
142
1.0
143
1.0
 70
   688
 72
     0
 73
     0
 74
     5
  7
C:\Users\ck\AppData\Roaming\Autodesk\AutoCAD 2005\R16.1\jpn\Plot Styles\black.ctb
 75
    16
147
1.0
 76
     0
 77
     2
 78
   300
148
0.0
149
0.0
100
AcDbLayout
  1
レイアウト1
 70
     1
 71
     1
 10
-592.0
 20
0.0
 11
0.0
 21
418.0
 12
0.0
 22
0.0
 32
0.0
 14
1.000000000000000E+20
 24
1.000000000000000E+20
 34
1.000000000000000E+20
 15
-1.000000000000000E+20
 25
-1.000000000000000E+20
 35
-1.000000000000000E+20
146
0.0
 13
0.0
 23
0.0
 33
0.0
 16
1.0
 26
0.0
 36
0.0
 17
0.0
 27
1.0
 37
0.0
 76
     0
330
1E
  0
MLINESTYLE
  5
17
102
{ACAD_REACTORS
330
16
102
}
330
16
100
AcDbMlineStyle
  2
STANDARD
 70
     0
  3

 62
   256
 51
90.0
 52
90.0
 71
     2
 49
0.5
 62
   256
  6
BYLAYER
 49
-0.5
 62
   256
  6
BYLAYER
  0
ACDBPLACEHOLDER
  5
F
102
{ACAD_REACTORS
330
E
102
}
330
E
  0
TABLESTYLE
  5
1D
102
{ACAD_REACTORS
330
1C
102
}
330
1C
100
AcDbTableStyle
  3
Standard
 70
     0
 71
     0
 40
0.06
 41
0.06
280
     0
281
     0
  7
STANDARD
140
0.18
170
     2
 62
     0
 63
     7
283
     0
274
    -2
284
     1
 64
     0
275
    -2
285
     1
 65
     0
276
    -2
286
     1
 66
     0
277
    -2
287
     1
 67
     0
278
    -2
288
     1
 68
     0
279
    -2
289
     1
 69
     0
  7
STANDARD
140
0.25
170
     5
 62
     0
 63
     7
283
     0
274
    -2
284
     1
 64
     0
275
    -2
285
     1
 65
     0
276
    -2
286
     1
 66
     0
277
    -2
287
     1
 67
     0
278
    -2
288
     1
 68
     0
279
    -2
289
     1
 69
     0
  7
STANDARD
140
0.18
170
     5
 62
     0
 63
     7
283
     0
274
    -2
284
     1
 64
     0
275
    -2
285
     1
 65
     0
276
    -2
286
     1
 66
     0
277
    -2
287
     1
 67
     0
278
    -2
288
     1
 68
     0
279
    -2
289
     1
 69
     0
  0
DICTIONARYVAR
  5
204
102
{ACAD_REACTORS
330
203
102
}
330
203
100
DictionaryVariables
280
     0
  1
STANDARD
  0
ENDSEC
  0
EOF
