  0
SECTION
  2
HEADER
  9
$ACADVER
  1
AC1018
  9
$ACADMAINTVER
 70
    39
  9
$DWGCODEPAGE
  3
ANSI_932
  9
$INSBASE
 10
0.0
 20
0.0
 30
0.0
  9
$EXTMIN
 10
-390.3883962055999
 20
78.56503373962482
 30
-0.0015258207003583
  9
$EXTMAX
 10
-42.45901396295403
 20
271.1324774680339
 30
0.0000000349246037
  9
$LIMMIN
 10
-423.0
 20
-2.0
  9
$LIMMAX
 10
-5.0
 20
293.0
  9
$ORTHOMODE
 70
     0
  9
$REGENMODE
 70
     1
  9
$FILLMODE
 70
     1
  9
$QTEXTMODE
 70
     0
  9
$MIRRTEXT
 70
     0
  9
$LTSCALE
 40
1.0
  9
$ATTMODE
 70
     1
  9
$TEXTSIZE
 40
0.2
  9
$TRACEWID
 40
0.05
  9
$TEXTSTYLE
  7
STANDARD
  9
$CLAYER
  8
0
  9
$CELTYPE
  6
CONTINUOUS
  9
$CECOLOR
 62
   256
  9
$CELTSCALE
 40
1.0
  9
$DISPSILH
 70
     0
  9
$DIMSCALE
 40
1.0
  9
$DIMASZ
 40
1.0
  9
$DIMEXO
 40
2.54
  9
$DIMDLI
 40
0.38
  9
$DIMRND
 40
0.0
  9
$DIMDLE
 40
0.0
  9
$DIMEXE
 40
2.54
  9
$DIMTP
 40
0.0
  9
$DIMTM
 40
0.0
  9
$DIMTXT
 40
3.0
  9
$DIMCEN
 40
0.09
  9
$DIMTSZ
 40
0.0
  9
$DIMTOL
 70
     0
  9
$DIMLIM
 70
     0
  9
$DIMTIH
 70
     0
  9
$DIMTOH
 70
     0
  9
$DIMSE1
 70
     0
  9
$DIMSE2
 70
     0
  9
$DIMTAD
 70
     1
  9
$DIMZIN
 70
     0
  9
$DIMBLK
  1

  9
$DIMASO
 70
     1
  9
$DIMSHO
 70
     0
  9
$DIMPOST
  1

  9
$DIMAPOST
  1

  9
$DIMALT
 70
     0
  9
$DIMALTD
 70
     2
  9
$DIMALTF
 40
25.4
  9
$DIMLFAC
 40
1.0
  9
$DIMTOFL
 70
     0
  9
$DIMTVP
 40
1.0
  9
$DIMTIX
 70
     0
  9
$DIMSOXD
 70
     0
  9
$DIMSAH
 70
     1
  9
$DIMBLK1
  1

  9
$DIMBLK2
  1

  9
$DIMSTYLE
  2
DIMSTYLE1
  9
$DIMCLRD
 70
     0
  9
$DIMCLRE
 70
     0
  9
$DIMCLRT
 70
     0
  9
$DIMTFAC
 40
1.0
  9
$DIMGAP
 40
1.5
  9
$DIMJUST
 70
     0
  9
$DIMSD1
 70
     0
  9
$DIMSD2
 70
     0
  9
$DIMTOLJ
 70
     1
  9
$DIMTZIN
 70
     0
  9
$DIMALTZ
 70
     0
  9
$DIMALTTZ
 70
     0
  9
$DIMUPT
 70
     0
  9
$DIMDEC
 70
     4
  9
$DIMTDEC
 70
     4
  9
$DIMALTU
 70
     2
  9
$DIMALTTD
 70
     2
  9
$DIMTXSTY
  7
STANDARD
  9
$DIMAUNIT
 70
     0
  9
$DIMADEC
 70
     0
  9
$DIMALTRND
 40
0.0
  9
$DIMAZIN
 70
     0
  9
$DIMDSEP
 70
    46
  9
$DIMATFIT
 70
     3
  9
$DIMFRAC
 70
     0
  9
$DIMLDRBLK
  1

  9
$DIMLUNIT
 70
     2
  9
$DIMLWD
 70
    -2
  9
$DIMLWE
 70
    -2
  9
$DIMTMOVE
 70
     0
  9
$LUNITS
 70
     2
  9
$LUPREC
 70
     4
  9
$SKETCHINC
 40
0.1
  9
$FILLETRAD
 40
0.0
  9
$AUNITS
 70
     0
  9
$AUPREC
 70
     0
  9
$MENU
  1
.
  9
$ELEVATION
 40
0.0
  9
$PELEVATION
 40
0.0
  9
$THICKNESS
 40
0.0
  9
$LIMCHECK
 70
     0
  9
$CHAMFERA
 40
0.0
  9
$CHAMFERB
 40
0.0
  9
$CHAMFERC
 40
0.0
  9
$CHAMFERD
 40
0.0
  9
$SKPOLY
 70
     0
  9
$TDCREATE
 40
2457841.720724526
  9
$TDUCREATE
 40
2457841.345724526
  9
$TDUPDATE
 40
2457841.721290567
  9
$TDUUPDATE
 40
2457841.346290567
  9
$TDINDWG
 40
0.0005667361
  9
$TDUSRTIMER
 40
0.0005667361
  9
$USRTIMER
 70
     1
  9
$ANGBASE
 50
0.0
  9
$ANGDIR
 70
     0
  9
$PDMODE
 70
     0
  9
$PDSIZE
 40
0.0
  9
$PLINEWID
 40
0.0
  9
$SPLFRAME
 70
     0
  9
$SPLINETYPE
 70
     6
  9
$SPLINESEGS
 70
     8
  9
$HANDSEED
  5
1ED
  9
$SURFTAB1
 70
     6
  9
$SURFTAB2
 70
     6
  9
$SURFTYPE
 70
     6
  9
$SURFU
 70
     6
  9
$SURFV
 70
     6
  9
$UCSBASE
  2

  9
$UCSNAME
  2

  9
$UCSORG
 10
0.0
 20
0.0
 30
0.0
  9
$UCSXDIR
 10
1.0
 20
0.0
 30
0.0
  9
$UCSYDIR
 10
0.0
 20
1.0
 30
0.0
  9
$UCSORTHOREF
  2

  9
$UCSORTHOVIEW
 70
     0
  9
$UCSORGTOP
 10
0.0
 20
0.0
 30
0.0
  9
$UCSORGBOTTOM
 10
0.0
 20
0.0
 30
0.0
  9
$UCSORGLEFT
 10
0.0
 20
0.0
 30
0.0
  9
$UCSORGRIGHT
 10
0.0
 20
0.0
 30
0.0
  9
$UCSORGFRONT
 10
0.0
 20
0.0
 30
0.0
  9
$UCSORGBACK
 10
0.0
 20
0.0
 30
0.0
  9
$PUCSBASE
  2

  9
$PUCSNAME
  2

  9
$PUCSORG
 10
0.0
 20
0.0
 30
0.0
  9
$PUCSXDIR
 10
1.0
 20
0.0
 30
0.0
  9
$PUCSYDIR
 10
0.0
 20
1.0
 30
0.0
  9
$PUCSORTHOREF
  2

  9
$PUCSORTHOVIEW
 70
     0
  9
$PUCSORGTOP
 10
0.0
 20
0.0
 30
0.0
  9
$PUCSORGBOTTOM
 10
0.0
 20
0.0
 30
0.0
  9
$PUCSORGLEFT
 10
0.0
 20
0.0
 30
0.0
  9
$PUCSORGRIGHT
 10
0.0
 20
0.0
 30
0.0
  9
$PUCSORGFRONT
 10
0.0
 20
0.0
 30
0.0
  9
$PUCSORGBACK
 10
0.0
 20
0.0
 30
0.0
  9
$USERI1
 70
     0
  9
$USERI2
 70
     0
  9
$USERI3
 70
     0
  9
$USERI4
 70
     0
  9
$USERI5
 70
     0
  9
$USERR1
 40
0.0
  9
$USERR2
 40
0.0
  9
$USERR3
 40
0.0
  9
$USERR4
 40
0.0
  9
$USERR5
 40
0.0
  9
$WORLDVIEW
 70
     1
  9
$SHADEDGE
 70
     3
  9
$SHADEDIF
 70
    70
  9
$TILEMODE
 70
     1
  9
$MAXACTVP
 70
    64
  9
$PINSBASE
 10
0.0
 20
0.0
 30
0.0
  9
$PLIMCHECK
 70
     0
  9
$PEXTMIN
 10
1.000000000000000E+20
 20
1.000000000000000E+20
 30
1.000000000000000E+20
  9
$PEXTMAX
 10
-1.000000000000000E+20
 20
-1.000000000000000E+20
 30
-1.000000000000000E+20
  9
$PLIMMIN
 10
-423.0
 20
-2.0
  9
$PLIMMAX
 10
-5.0
 20
293.0
  9
$UNITMODE
 70
     0
  9
$VISRETAIN
 70
     1
  9
$PLINEGEN
 70
     0
  9
$PSLTSCALE
 70
     1
  9
$TREEDEPTH
 70
  3020
  9
$CMLSTYLE
  2
Standard
  9
$CMLJUST
 70
     0
  9
$CMLSCALE
 40
1.0
  9
$PROXYGRAPHICS
 70
     1
  9
$MEASUREMENT
 70
     0
  9
$CELWEIGHT
370
    -1
  9
$ENDCAPS
280
     0
  9
$JOINSTYLE
280
     0
  9
$LWDISPLAY
290
     0
  9
$INSUNITS
 70
     0
  9
$HYPERLINKBASE
  1

  9
$STYLESHEET
  1

  9
$XEDIT
290
     1
  9
$CEPSNTYPE
380
     0
  9
$PSTYLEMODE
290
     1
  9
$FINGERPRINTGUID
  2
{697ED84F-ED26-4081-A85B-5975542C1D36}
  9
$VERSIONGUID
  2
{AD348C2C-BFDC-49B1-8421-36F4E7E5CC4C}
  9
$EXTNAMES
290
     1
  9
$PSVPSCALE
 40
0.0
  9
$OLESTARTUP
290
     0
  9
$SORTENTS
280
   127
  9
$INDEXCTL
280
     0
  9
$HIDETEXT
280
     0
  9
$XCLIPFRAME
290
     0
  9
$HALOGAP
280
     0
  9
$OBSCOLOR
 70
   257
  9
$OBSLTYPE
280
     0
  9
$INTERSECTIONDISPLAY
280
     0
  9
$INTERSECTIONCOLOR
 70
   257
  9
$DIMASSOC
280
     1
  9
$PROJECTNAME
  1

  0
ENDSEC
  0
SECTION
  2
CLASSES
  0
CLASS
  1
ACDBDICTIONARYWDFLT
  2
AcDbDictionaryWithDefault
  3
ObjectDBX Classes
 90
        0
 91
        1
280
     0
281
     0
  0
CLASS
  1
TABLESTYLE
  2
AcDbTableStyle
  3
ObjectDBX Classes
 90
     2047
 91
        1
280
     0
281
     0
  0
CLASS
  1
DICTIONARYVAR
  2
AcDbDictionaryVar
  3
ObjectDBX Classes
 90
        0
 91
        1
280
     0
281
     0
  0
ENDSEC
  0
SECTION
  2
TABLES
  0
TABLE
  2
VPORT
  5
8
330
0
100
AcDbSymbolTable
 70
     2
  0
VPORT
  5
1EC
330
8
100
AcDbSymbolTableRecord
100
AcDbViewportTableRecord
  2
*Active
 70
     0
 10
0.0
 20
0.0
 11
1.0
 21
1.0
 12
-214.0
 22
145.5
 13
0.0
 23
0.0
 14
1.0
 24
1.0
 15
0.0
 25
0.0
 16
0.0
 26
0.0
 36
1.0
 17
0.0
 27
0.0
 37
0.0
 40
297.3320158102766
 41
1.707124010554089
 42
50.0
 43
0.0
 44
0.0
 50
0.0
 51
0.0
 71
     0
 72
   100
 73
     1
 74
     1
 75
     0
 76
     0
 77
     0
 78
     0
281
     0
 65
     1
110
0.0
120
0.0
130
0.0
111
1.0
121
0.0
131
0.0
112
0.0
122
1.0
132
0.0
 79
     0
146
0.0
  0
ENDTAB
  0
TABLE
  2
LTYPE
  5
5
330
0
100
AcDbSymbolTable
 70
     6
  0
LTYPE
  5
13
330
5
100
AcDbSymbolTableRecord
100
AcDbLinetypeTableRecord
  2
ByBlock
 70
     0
  3

 72
    65
 73
     0
 40
0.0
  0
LTYPE
  5
14
330
5
100
AcDbSymbolTableRecord
100
AcDbLinetypeTableRecord
  2
ByLayer
 70
     0
  3

 72
    65
 73
     0
 40
0.0
  0
LTYPE
  5
15
330
5
100
AcDbSymbolTableRecord
100
AcDbLinetypeTableRecord
  2
CONTINUOUS
 70
     0
  3
Solid line
 72
    65
 73
     0
 40
0.0
  0
LTYPE
  5
26
330
5
100
AcDbSymbolTableRecord
100
AcDbLinetypeTableRecord
  2
DASHED
 70
     0
  3
__ __ __ __ __ __ __ __ __ __ __ __ __ __ __
 72
    65
 73
     2
 40
3.5
 49
2.0
 74
     0
 49
-1.5
 74
     0
  0
LTYPE
  5
27
330
5
100
AcDbSymbolTableRecord
100
AcDbLinetypeTableRecord
  2
CENTER
 70
     0
  3
____ _ ____ _ ____ _ ____ _ ____ _ ____ _ ____
 72
    65
 73
     4
 40
17.5
 49
13.0
 74
     0
 49
-1.5
 74
     0
 49
1.5
 74
     0
 49
-1.5
 74
     0
  0
LTYPE
  5
28
330
5
100
AcDbSymbolTableRecord
100
AcDbLinetypeTableRecord
  2
PHANTOM
 70
     0
  3
_____ _ _ _____ _ _ _____ _ _ _____ _ _ ____  
 72
    65
 73
     6
 40
15.5
 49
8.0
 74
     0
 49
-1.5
 74
     0
 49
1.5
 74
     0
 49
-1.5
 74
     0
 49
1.5
 74
     0
 49
-1.5
 74
     0
  0
LTYPE
  5
29
330
5
100
AcDbSymbolTableRecord
100
AcDbLinetypeTableRecord
  2
DOT
 70
     0
  3
. . . . . . . . . . . . . . . . . . . . . . . .
 72
    65
 73
     2
 40
0.25
 49
0.0
 74
     0
 49
-0.25
 74
     0
  0
LTYPE
  5
2A
330
5
100
AcDbSymbolTableRecord
100
AcDbLinetypeTableRecord
  2
HIDDEN
 70
     0
  3
__ __ __ __ __ __ __ __ __ __ __ __ __ __ __
 72
    65
 73
     2
 40
3.5
 49
2.0
 74
     0
 49
-1.5
 74
     0
  0
ENDTAB
  0
TABLE
  2
LAYER
  5
2
330
0
100
AcDbSymbolTable
 70
     3
  0
LAYER
  5
10
330
2
100
AcDbSymbolTableRecord
100
AcDbLayerTableRecord
  2
0
 70
     0
 62
     7
  6
CONTINUOUS
370
    -3
390
F
  0
LAYER
  5
2B
330
2
100
AcDbSymbolTableRecord
100
AcDbLayerTableRecord
  2
1
 70
     0
 62
     7
  6
CONTINUOUS
370
    -3
390
F
  0
LAYER
  5
2C
330
2
100
AcDbSymbolTableRecord
100
AcDbLayerTableRecord
  2
DEFPOINTS
 70
     0
 62
     7
  6
CONTINUOUS
290
     0
370
    -3
390
F
  0
ENDTAB
  0
TABLE
  2
STYLE
  5
3
330
0
100
AcDbSymbolTable
 70
     2
  0
STYLE
  5
11
330
3
100
AcDbSymbolTableRecord
100
AcDbTextStyleTableRecord
  2
STANDARD
 70
     0
 40
0.0
 41
1.0
 50
0.0
 71
     0
 42
0.2
  3

  4

1001
ACAD
1000
MS Gothic
1071
    32817
  0
ENDTAB
  0
TABLE
  2
VIEW
  5
6
330
0
100
AcDbSymbolTable
 70
     0
  0
ENDTAB
  0
TABLE
  2
UCS
  5
7
330
0
100
AcDbSymbolTable
 70
     0
  0
ENDTAB
  0
TABLE
  2
APPID
  5
9
330
0
100
AcDbSymbolTable
 70
     2
  0
APPID
  5
12
330
9
100
AcDbSymbolTableRecord
100
AcDbRegAppTableRecord
  2
ACAD
 70
     0
  0
APPID
  5
1E1
330
9
100
AcDbSymbolTableRecord
100
AcDbRegAppTableRecord
  2
ACAD_PSEXT
 70
     0
  0
ENDTAB
  0
TABLE
  2
DIMSTYLE
  5
A
330
0
100
AcDbSymbolTable
 70
    12
100
AcDbDimStyleTable
 71
     1
340
2D
  0
DIMSTYLE
105
2D
102
{ACAD_REACTORS
330
1D2
102
}
330
A
100
AcDbSymbolTableRecord
100
AcDbDimStyleTableRecord
  2
DIMSTYLE1
 70
     0
 41
1.0
 42
2.54
 44
2.54
 73
     0
 74
     0
 77
     1
140
3.0
145
1.0
147
1.5
172
     1
173
     1
279
     2
340
11
  0
DIMSTYLE
105
2E
102
{ACAD_REACTORS
330
1D3
102
}
330
A
100
AcDbSymbolTableRecord
100
AcDbDimStyleTableRecord
  2
DIMSTYLE2
 70
     0
 41
1.0
 42
2.54
 44
2.54
 73
     0
 74
     0
 77
     1
140
3.0
145
1.0
147
1.5
172
     1
173
     1
279
     2
340
11
  0
DIMSTYLE
105
2F
102
{ACAD_REACTORS
330
1D4
102
}
330
A
100
AcDbSymbolTableRecord
100
AcDbDimStyleTableRecord
  2
DIMSTYLE3
 70
     0
 41
1.0
 42
2.54
 44
2.54
 73
     0
 74
     0
 77
     1
140
3.0
145
1.0
147
1.5
172
     1
173
     1
279
     2
340
11
  0
DIMSTYLE
105
30
102
{ACAD_REACTORS
330
1D5
102
}
330
A
100
AcDbSymbolTableRecord
100
AcDbDimStyleTableRecord
  2
DIMSTYLE4
 70
     0
 41
1.0
 42
2.54
 44
2.54
 73
     0
 74
     0
 77
     1
140
3.0
145
1.0
147
1.5
172
     1
173
     1
279
     2
340
11
  0
DIMSTYLE
105
31
102
{ACAD_REACTORS
330
1D6
102
}
330
A
100
AcDbSymbolTableRecord
100
AcDbDimStyleTableRecord
  2
DIMSTYLE5
 70
     0
 41
1.0
 42
2.54
 44
2.54
 73
     0
 74
     0
 77
     1
140
3.0
145
1.0
147
1.5
172
     1
173
     1
279
     2
340
11
  0
DIMSTYLE
105
32
102
{ACAD_REACTORS
330
1D7
102
}
330
A
100
AcDbSymbolTableRecord
100
AcDbDimStyleTableRecord
  2
DIMSTYLE6
 70
     0
 41
1.0
 42
2.54
 44
2.54
 73
     0
 74
     0
 77
     1
140
3.0
145
1.0
147
1.5
172
     1
173
     1
279
     2
340
11
  0
DIMSTYLE
105
33
102
{ACAD_REACTORS
330
1D8
102
}
330
A
100
AcDbSymbolTableRecord
100
AcDbDimStyleTableRecord
  2
DIMSTYLE7
 70
     0
 41
1.0
 42
2.54
 44
2.54
 73
     0
 74
     0
 77
     1
140
3.0
145
1.0
147
1.5
172
     1
173
     1
279
     2
340
11
  0
DIMSTYLE
105
34
102
{ACAD_REACTORS
330
1DB
102
}
330
A
100
AcDbSymbolTableRecord
100
AcDbDimStyleTableRecord
  2
DIMSTYLE8
 70
     0
 41
1.0
 42
2.54
 44
2.54
 73
     0
 74
     0
 77
     1
140
3.0
145
1.0
147
1.5
172
     1
173
     1
279
     2
340
11
  0
DIMSTYLE
105
35
102
{ACAD_REACTORS
330
1DC
102
}
330
A
100
AcDbSymbolTableRecord
100
AcDbDimStyleTableRecord
  2
DIMSTYLE9
 70
     0
 41
1.0
 42
2.54
 44
2.54
 73
     0
 74
     0
 75
     1
 76
     1
 77
     1
140
3.0
145
1.0
147
1.5
172
     1
173
     1
279
     2
340
11
  0
DIMSTYLE
105
36
102
{ACAD_REACTORS
330
1DD
102
}
330
A
100
AcDbSymbolTableRecord
100
AcDbDimStyleTableRecord
  2
DIMSTYLE10
 70
     0
 41
1.0
 42
2.54
 44
2.54
 73
     0
 74
     0
 75
     1
 76
     1
 77
     1
140
3.0
145
1.0
147
1.5
172
     1
173
     1
279
     2
340
11
  0
DIMSTYLE
105
37
102
{ACAD_REACTORS
330
1DE
102
}
330
A
100
AcDbSymbolTableRecord
100
AcDbDimStyleTableRecord
  2
DIMSTYLE11
 70
     0
 41
1.0
 42
2.54
 44
2.54
 73
     0
 74
     0
 77
     1
140
3.0
145
1.0
147
1.5
172
     1
173
     1
279
     2
340
11
  0
ENDTAB
  0
TABLE
  2
BLOCK_RECORD
  5
1
330
0
100
AcDbSymbolTable
 70
    15
  0
BLOCK_RECORD
  5
22
330
1
100
AcDbSymbolTableRecord
100
AcDbBlockTableRecord
  2
*Model_Space
340
25
  0
BLOCK_RECORD
  5
1E
330
1
100
AcDbSymbolTableRecord
100
AcDbBlockTableRecord
  2
*Paper_Space
340
21
  0
BLOCK_RECORD
  5
3B
330
1
100
AcDbSymbolTableRecord
100
AcDbBlockTableRecord
  2
_OPEN30
340
0
102
{BLKREFS
331
44
331
45
331
51
331
53
331
5E
331
5F
331
69
331
6A
331
75
331
76
331
80
331
81
331
8B
331
8C
331
97
331
98
331
A2
331
A3
331
AC
331
AD
331
B6
331
B8
102
}
  0
BLOCK_RECORD
  5
41
330
1
100
AcDbSymbolTableRecord
100
AcDbBlockTableRecord
  2
*D1
340
0
  0
BLOCK_RECORD
  5
4D
330
1
100
AcDbSymbolTableRecord
100
AcDbBlockTableRecord
  2
*D2
340
0
  0
BLOCK_RECORD
  5
5B
330
1
100
AcDbSymbolTableRecord
100
AcDbBlockTableRecord
  2
*D3
340
0
  0
BLOCK_RECORD
  5
66
330
1
100
AcDbSymbolTableRecord
100
AcDbBlockTableRecord
  2
*D4
340
0
  0
BLOCK_RECORD
  5
72
330
1
100
AcDbSymbolTableRecord
100
AcDbBlockTableRecord
  2
*D5
340
0
  0
BLOCK_RECORD
  5
7D
330
1
100
AcDbSymbolTableRecord
100
AcDbBlockTableRecord
  2
*D6
340
0
  0
BLOCK_RECORD
  5
88
330
1
100
AcDbSymbolTableRecord
100
AcDbBlockTableRecord
  2
*D7
340
0
  0
BLOCK_RECORD
  5
94
330
1
100
AcDbSymbolTableRecord
100
AcDbBlockTableRecord
  2
*D8
340
0
  0
BLOCK_RECORD
  5
9E
330
1
100
AcDbSymbolTableRecord
100
AcDbBlockTableRecord
  2
*D9
340
0
  0
BLOCK_RECORD
  5
A8
330
1
100
AcDbSymbolTableRecord
100
AcDbBlockTableRecord
  2
*D10
340
0
  0
BLOCK_RECORD
  5
B2
330
1
100
AcDbSymbolTableRecord
100
AcDbBlockTableRecord
  2
*D11
340
0
  0
BLOCK_RECORD
  5
C0
330
1
100
AcDbSymbolTableRecord
100
AcDbBlockTableRecord
  2
KOZU0001
340
0
102
{BLKREFS
331
1D9
102
}
  0
BLOCK_RECORD
  5
C9
330
1
100
AcDbSymbolTableRecord
100
AcDbBlockTableRecord
  2
KOZU0002
340
0
102
{BLKREFS
331
1DA
102
}
  0
ENDTAB
  0
ENDSEC
  0
SECTION
  2
BLOCKS
  0
BLOCK
  5
23
330
22
100
AcDbEntity
  8
0
100
AcDbBlockBegin
  2
*Model_Space
 70
     0
 10
0.0
 20
0.0
 30
0.0
  3
*Model_Space
  1

  0
ENDBLK
  5
24
330
22
100
AcDbEntity
  8
0
100
AcDbBlockEnd
  0
BLOCK
  5
1F
330
1E
100
AcDbEntity
 67
     1
  8
0
100
AcDbBlockBegin
  2
*Paper_Space
 70
     0
 10
0.0
 20
0.0
 30
0.0
  3
*Paper_Space
  1

  0
ENDBLK
  5
20
330
1E
100
AcDbEntity
 67
     1
  8
0
100
AcDbBlockEnd
  0
BLOCK
  5
3C
330
3B
100
AcDbEntity
  8
0
100
AcDbBlockBegin
  2
_OPEN30
 70
     0
 10
0.0
 20
0.0
 30
0.0
  3
_OPEN30
  1

  0
LINE
  5
3D
330
3B
100
AcDbEntity
  8
0
  6
ByBlock
 62
     0
100
AcDbLine
 10
0.0
 20
0.0
 30
0.0
 11
-2.999999999999993
 21
-1.000000000000017
 31
0.0
  0
LINE
  5
3E
330
3B
100
AcDbEntity
  8
0
  6
ByBlock
 62
     0
100
AcDbLine
 10
0.0
 20
0.0
 30
0.0
 11
-3.000000000000006
 21
0.9999999999999815
 31
0.0
  0
LINE
  5
3F
330
3B
100
AcDbEntity
  8
0
  6
ByBlock
 62
     0
100
AcDbLine
 10
0.0
 20
0.0
 30
0.0
 11
-3.0
 21
0.0
 31
0.0
  0
ENDBLK
  5
40
330
3B
100
AcDbEntity
  8
0
100
AcDbBlockEnd
  0
BLOCK
  5
42
330
41
100
AcDbEntity
  8
0
100
AcDbBlockBegin
  2
*D1
 70
     1
 10
0.0
 20
0.0
 30
0.0
  3
*D1
  1

  0
LINE
  5
43
330
41
100
AcDbEntity
  8
0
  6
Continuous
 62
     7
100
AcDbLine
 10
-165.0079040527344
 20
265.4772033691406
 30
0.0
 11
-111.0079116821289
 21
265.4772033691406
 31
0.0
  0
INSERT
  5
44
330
41
100
AcDbEntity
  8
0
  6
Continuous
 62
     7
100
AcDbBlockReference
  2
_OPEN30
 10
-168.0079040527344
 20
265.4772033691406
 30
0.0
 50
180.0000000000004
  0
INSERT
  5
45
330
41
100
AcDbEntity
  8
0
  6
Continuous
 62
     7
100
AcDbBlockReference
  2
_OPEN30
 10
-108.0079116821289
 20
265.4772033691406
 30
0.0
  0
LINE
  5
46
330
41
100
AcDbEntity
  8
0
  6
Continuous
 62
     7
100
AcDbLine
 10
-168.0079040527344
 20
212.9872961425781
 30
0.0
 11
-168.0079040527344
 21
267.76318359375
 31
0.0
  0
LINE
  5
47
330
41
100
AcDbEntity
  8
0
  6
Continuous
 62
     7
100
AcDbLine
 10
-108.0079116821289
 20
242.9872961425781
 30
0.0
 11
-108.0079116821289
 21
267.76318359375
 31
0.0
  0
TEXT
  5
48
330
41
100
AcDbEntity
  8
0
  6
Continuous
 62
     7
100
AcDbText
 10
-152.5779046416283
 20
266.2272033691406
 30
0.0
 40
3.0
  1
６０　（５１～６８）
 41
0.8443929326254473
100
AcDbText
  0
POINT
  5
49
330
41
100
AcDbEntity
  8
DEFPOINTS
  6
Continuous
 62
     7
100
AcDbPoint
 10
-168.0079040527344
 20
210.4472961425781
 30
0.0
  0
POINT
  5
4A
330
41
100
AcDbEntity
  8
DEFPOINTS
  6
Continuous
 62
     7
100
AcDbPoint
 10
-108.0079116821289
 20
240.4472961425781
 30
0.0
  0
POINT
  5
4B
330
41
100
AcDbEntity
  8
DEFPOINTS
  6
Continuous
 62
     7
100
AcDbPoint
 10
-108.0079116821289
 20
265.4772033691406
 30
0.0
  0
ENDBLK
  5
4C
330
41
100
AcDbEntity
  8
0
100
AcDbBlockEnd
  0
BLOCK
  5
4E
330
4D
100
AcDbEntity
  8
0
100
AcDbBlockBegin
  2
*D2
 70
     1
 10
0.0
 20
0.0
 30
0.0
  3
*D2
  1

  0
LINE
  5
4F
330
4D
100
AcDbEntity
  8
0
  6
Continuous
 62
     7
100
AcDbLine
 10
-104.5079116821289
 20
265.4772033691406
 30
0.0
 11
-90.66805267333984
 21
265.4772033691406
 31
0.0
  0
LINE
  5
50
330
4D
100
AcDbEntity
  8
0
  6
Continuous
 62
     7
100
AcDbLine
 10
-108.0079116821289
 20
265.4772033691406
 30
0.0
 11
-104.5079116821289
 21
265.4772033691406
 31
0.0
  0
INSERT
  5
51
330
4D
100
AcDbEntity
  8
0
  6
Continuous
 62
     7
100
AcDbBlockReference
  2
_OPEN30
 10
-108.0079116821289
 20
265.4772033691406
 30
0.0
 50
0.0000000000003562
  0
LINE
  5
52
330
4D
100
AcDbEntity
  8
0
  6
Continuous
 62
     7
100
AcDbLine
 10
-111.0079116821289
 20
265.4772033691406
 30
0.0
 11
-114.3579116821289
 21
265.4772033691406
 31
0.0
  0
INSERT
  5
53
330
4D
100
AcDbEntity
  8
0
  6
Continuous
 62
     7
100
AcDbBlockReference
  2
_OPEN30
 10
-104.5079116821289
 20
265.4772033691406
 30
0.0
 50
180.0
  0
LINE
  5
54
330
4D
100
AcDbEntity
  8
0
  6
Continuous
 62
     7
100
AcDbLine
 10
-101.5079116821289
 20
265.4772033691406
 30
0.0
 11
-98.15791168212893
 21
265.4772033691406
 31
0.0
  0
LINE
  5
55
330
4D
100
AcDbEntity
  8
0
  6
Continuous
 62
     7
100
AcDbLine
 10
-104.5079116821289
 20
244.4872961425781
 30
0.0
 11
-104.5079116821289
 21
267.76318359375
 31
0.0
  0
TEXT
  5
56
330
4D
100
AcDbEntity
  8
0
  6
Continuous
 62
     7
100
AcDbText
 10
-98.80805253982543
 20
266.2272033691406
 30
0.0
 40
3.0
  1
3.5
 41
1.356666684150696
100
AcDbText
  0
POINT
  5
57
330
4D
100
AcDbEntity
  8
DEFPOINTS
  6
Continuous
 62
     7
100
AcDbPoint
 10
-108.0079116821289
 20
267.76318359375
 30
0.0
  0
POINT
  5
58
330
4D
100
AcDbEntity
  8
DEFPOINTS
  6
Continuous
 62
     7
100
AcDbPoint
 10
-104.5079116821289
 20
241.9472961425781
 30
0.0
  0
POINT
  5
59
330
4D
100
AcDbEntity
  8
DEFPOINTS
  6
Continuous
 62
     7
100
AcDbPoint
 10
-104.5079116821289
 20
265.4772033691406
 30
0.0
  0
ENDBLK
  5
5A
330
4D
100
AcDbEntity
  8
0
100
AcDbBlockEnd
  0
BLOCK
  5
5C
330
5B
100
AcDbEntity
  8
0
100
AcDbBlockBegin
  2
*D3
 70
     1
 10
0.0
 20
0.0
 30
0.0
  3
*D3
  1

  0
LINE
  5
5D
330
5B
100
AcDbEntity
  8
0
  6
Continuous
 62
     7
100
AcDbLine
 10
-111.0079116821289
 20
256.7499084472656
 30
0.0
 11
-135.0079040527344
 21
256.7499084472656
 31
0.0
  0
INSERT
  5
5E
330
5B
100
AcDbEntity
  8
0
  6
Continuous
 62
     7
100
AcDbBlockReference
  2
_OPEN30
 10
-108.0079116821289
 20
256.7499084472656
 30
0.0
  0
INSERT
  5
5F
330
5B
100
AcDbEntity
  8
0
  6
Continuous
 62
     7
100
AcDbBlockReference
  2
_OPEN30
 10
-138.0079040527344
 20
256.7499084472656
 30
0.0
 50
180.0000000000004
  0
LINE
  5
60
330
5B
100
AcDbEntity
  8
0
  6
Continuous
 62
     7
100
AcDbLine
 10
-138.0079040527344
 20
193.9872961425781
 30
0.0
 11
-138.0079040527344
 21
259.0359191894531
 31
0.0
  0
TEXT
  5
61
330
5B
100
AcDbEntity
  8
0
  6
Continuous
 62
     7
100
AcDbText
 10
-125.5779117941856
 20
257.4999084472656
 30
0.0
 40
3.0
  1
30
 41
1.101428593908038
100
AcDbText
  0
POINT
  5
62
330
5B
100
AcDbEntity
  8
DEFPOINTS
  6
Continuous
 62
     7
100
AcDbPoint
 10
-108.0079116821289
 20
267.76318359375
 30
0.0
  0
POINT
  5
63
330
5B
100
AcDbEntity
  8
DEFPOINTS
  6
Continuous
 62
     7
100
AcDbPoint
 10
-138.0079040527344
 20
191.4472961425781
 30
0.0
  0
POINT
  5
64
330
5B
100
AcDbEntity
  8
DEFPOINTS
  6
Continuous
 62
     7
100
AcDbPoint
 10
-138.0079040527344
 20
256.7499084472656
 30
0.0
  0
ENDBLK
  5
65
330
5B
100
AcDbEntity
  8
0
100
AcDbBlockEnd
  0
BLOCK
  5
67
330
66
100
AcDbEntity
  8
0
100
AcDbBlockBegin
  2
*D4
 70
     1
 10
0.0
 20
0.0
 30
0.0
  3
*D4
  1

  0
LINE
  5
68
330
66
100
AcDbEntity
  8
0
  6
Continuous
 62
     7
100
AcDbLine
 10
-135.0079040527344
 20
87.5270004272461
 30
0.0
 11
-86.00791168212891
 21
87.52700042724608
 31
0.0
  0
INSERT
  5
69
330
66
100
AcDbEntity
  8
0
  6
Continuous
 62
     7
100
AcDbBlockReference
  2
_OPEN30
 10
-138.0079040527344
 20
87.5270004272461
 30
0.0
 50
180.0000000000004
  0
INSERT
  5
6A
330
66
100
AcDbEntity
  8
0
  6
Continuous
 62
     7
100
AcDbBlockReference
  2
_OPEN30
 10
-83.0079116821289
 20
87.5270004272461
 30
0.0
  0
LINE
  5
6B
330
66
100
AcDbEntity
  8
0
  6
Continuous
 62
     7
100
AcDbLine
 10
-138.0079040527344
 20
152.907296142578
 30
0.0
 11
-138.0079040527344
 21
85.24100494384766
 31
0.0
  0
LINE
  5
6C
330
66
100
AcDbEntity
  8
0
  6
Continuous
 62
     7
100
AcDbLine
 10
-83.00791168212887
 20
151.9072961425781
 30
0.0
 11
-83.0079116821289
 21
85.24100494384766
 31
0.0
  0
TEXT
  5
6D
330
66
100
AcDbEntity
  8
0
  6
Continuous
 62
     7
100
AcDbText
 10
-113.0779117941856
 20
88.27700042724609
 30
0.0
 40
3.0
  1
55
 41
1.028000020980834
100
AcDbText
  0
POINT
  5
6E
330
66
100
AcDbEntity
  8
DEFPOINTS
  6
Continuous
 62
     7
100
AcDbPoint
 10
-138.0079040527344
 20
155.4472961425781
 30
0.0
  0
POINT
  5
6F
330
66
100
AcDbEntity
  8
DEFPOINTS
  6
Continuous
 62
     7
100
AcDbPoint
 10
-83.0079116821289
 20
154.4472961425781
 30
0.0
  0
POINT
  5
70
330
66
100
AcDbEntity
  8
DEFPOINTS
  6
Continuous
 62
     7
100
AcDbPoint
 10
-83.0079116821289
 20
87.5270004272461
 30
0.0
  0
ENDBLK
  5
71
330
66
100
AcDbEntity
  8
0
100
AcDbBlockEnd
  0
BLOCK
  5
73
330
72
100
AcDbEntity
  8
0
100
AcDbBlockBegin
  2
*D5
 70
     1
 10
0.0
 20
0.0
 30
0.0
  3
*D5
  1

  0
LINE
  5
74
330
72
100
AcDbEntity
  8
0
  6
Continuous
 62
     7
100
AcDbLine
 10
-86.84585571289058
 20
150.4472961425781
 30
0.0
 11
-86.84585571289064
 21
144.4472961425781
 31
0.0
  0
INSERT
  5
75
330
72
100
AcDbEntity
  8
0
  6
Continuous
 62
     7
100
AcDbBlockReference
  2
_OPEN30
 10
-86.84585571289062
 20
153.4472961425781
 30
0.0
 50
90.00000000000019
  0
INSERT
  5
76
330
72
100
AcDbEntity
  8
0
  6
Continuous
 62
     7
100
AcDbBlockReference
  2
_OPEN30
 10
-86.84585571289062
 20
141.4472961425781
 30
0.0
 50
270.0000000000005
  0
LINE
  5
77
330
72
100
AcDbEntity
  8
0
  6
Continuous
 62
     7
100
AcDbLine
 10
-100.4662255859375
 20
141.4472961425781
 30
0.0
 11
-84.55985260009766
 21
141.4472961425781
 31
0.0
  0
TEXT
  5
78
330
72
100
AcDbEntity
  8
0
  6
Continuous
 62
     7
100
AcDbText
 10
-87.59585560055237
 20
144.8772959977379
 30
0.0
 40
3.0
  1
12
 50
90.00000250447815
 41
1.285000026226043
100
AcDbText
  0
POINT
  5
79
330
72
100
AcDbEntity
  8
DEFPOINTS
  6
Continuous
 62
     7
100
AcDbPoint
 10
-84.0079116821289
 20
153.4472961425781
 30
0.0
  0
POINT
  5
7A
330
72
100
AcDbEntity
  8
DEFPOINTS
  6
Continuous
 62
     7
100
AcDbPoint
 10
-103.0062255859375
 20
141.4472961425781
 30
0.0
  0
POINT
  5
7B
330
72
100
AcDbEntity
  8
DEFPOINTS
  6
Continuous
 62
     7
100
AcDbPoint
 10
-86.84585571289062
 20
141.4472961425781
 30
0.0
  0
ENDBLK
  5
7C
330
72
100
AcDbEntity
  8
0
100
AcDbBlockEnd
  0
BLOCK
  5
7E
330
7D
100
AcDbEntity
  8
0
100
AcDbBlockBegin
  2
*D6
 70
     1
 10
0.0
 20
0.0
 30
0.0
  3
*D6
  1

  0
LINE
  5
7F
330
7D
100
AcDbEntity
  8
0
  6
Continuous
 62
     7
100
AcDbLine
 10
-101.5079116821289
 20
132.1539611816406
 30
0.0
 11
-95.50791168212892
 21
132.1539611816406
 31
0.0
  0
INSERT
  5
80
330
7D
100
AcDbEntity
  8
0
  6
Continuous
 62
     7
100
AcDbBlockReference
  2
_OPEN30
 10
-104.5079116821289
 20
132.1539611816406
 30
0.0
 50
180.0000000000004
  0
INSERT
  5
81
330
7D
100
AcDbEntity
  8
0
  6
Continuous
 62
     7
100
AcDbBlockReference
  2
_OPEN30
 10
-92.50791168212892
 20
132.1539611816406
 30
0.0
  0
LINE
  5
82
330
7D
100
AcDbEntity
  8
0
  6
Continuous
 62
     7
100
AcDbLine
 10
-92.50791168212886
 20
149.4204187011719
 30
0.0
 11
-92.50791168212892
 21
129.8679656982422
 31
0.0
  0
TEXT
  5
83
330
7D
100
AcDbEntity
  8
0
  6
Continuous
 62
     7
100
AcDbText
 10
-101.0779117941856
 20
132.9039611816406
 30
0.0
 40
3.0
  1
12
 41
1.285000026226043
100
AcDbText
  0
POINT
  5
84
330
7D
100
AcDbEntity
  8
DEFPOINTS
  6
Continuous
 62
     7
100
AcDbPoint
 10
-104.5079116821289
 20
104.9472961425781
 30
0.0
  0
POINT
  5
85
330
7D
100
AcDbEntity
  8
DEFPOINTS
  6
Continuous
 62
     7
100
AcDbPoint
 10
-92.50791168212892
 20
151.9604187011719
 30
0.0
  0
POINT
  5
86
330
7D
100
AcDbEntity
  8
DEFPOINTS
  6
Continuous
 62
     7
100
AcDbPoint
 10
-92.50791168212892
 20
132.1539611816406
 30
0.0
  0
ENDBLK
  5
87
330
7D
100
AcDbEntity
  8
0
100
AcDbBlockEnd
  0
BLOCK
  5
89
330
88
100
AcDbEntity
  8
0
100
AcDbBlockBegin
  2
*D7
 70
     1
 10
0.0
 20
0.0
 30
0.0
  3
*D7
  1

  0
LINE
  5
8A
330
88
100
AcDbEntity
  8
0
  6
Continuous
 62
     7
100
AcDbLine
 10
-62.84680938720704
 20
156.4472961425781
 30
0.0
 11
-62.846809387207
 21
190.4472961425781
 31
0.0
  0
INSERT
  5
8B
330
88
100
AcDbEntity
  8
0
  6
Continuous
 62
     7
100
AcDbBlockReference
  2
_OPEN30
 10
-62.84680938720703
 20
153.4472961425781
 30
0.0
 50
270.0000000000005
  0
INSERT
  5
8C
330
88
100
AcDbEntity
  8
0
  6
Continuous
 62
     7
100
AcDbBlockReference
  2
_OPEN30
 10
-62.84680938720703
 20
193.4472961425781
 30
0.0
 50
90.00000000000019
  0
LINE
  5
8D
330
88
100
AcDbEntity
  8
0
  6
Continuous
 62
     7
100
AcDbLine
 10
-81.46791168212891
 20
153.4472961425781
 30
0.0
 11
-60.56081008911132
 21
153.4472961425781
 31
0.0
  0
LINE
  5
8E
330
88
100
AcDbEntity
  8
0
  6
Continuous
 62
     7
100
AcDbLine
 10
-81.46791168212891
 20
193.4472961425781
 30
0.0
 11
-60.56081008911132
 21
193.4472961425781
 31
0.0
  0
TEXT
  5
8F
330
88
100
AcDbEntity
  8
0
  6
Continuous
 62
     7
100
AcDbText
 10
-63.59680920930167
 20
169.3772959381332
 30
0.0
 40
3.0
  1
%%C40
 50
90.00000250447815
 41
0.9882638735213483
100
AcDbText
  0
POINT
  5
90
330
88
100
AcDbEntity
  8
DEFPOINTS
  6
Continuous
 62
     7
100
AcDbPoint
 10
-84.0079116821289
 20
153.4472961425781
 30
0.0
  0
POINT
  5
91
330
88
100
AcDbEntity
  8
DEFPOINTS
  6
Continuous
 62
     7
100
AcDbPoint
 10
-84.0079116821289
 20
193.4472961425781
 30
0.0
  0
POINT
  5
92
330
88
100
AcDbEntity
  8
DEFPOINTS
  6
Continuous
 62
     7
100
AcDbPoint
 10
-62.84680938720703
 20
193.4472961425781
 30
0.0
  0
ENDBLK
  5
93
330
88
100
AcDbEntity
  8
0
100
AcDbBlockEnd
  0
BLOCK
  5
95
330
94
100
AcDbEntity
  8
0
100
AcDbBlockBegin
  2
*D8
 70
     1
 10
0.0
 20
0.0
 30
0.0
  3
*D8
  1

  0
LINE
  5
96
330
94
100
AcDbEntity
  8
0
  6
Continuous
 62
     7
100
AcDbLine
 10
-121.3079071044922
 20
180.5472412109375
 30
0.0
 11
-171.3079071044922
 21
180.5472412109375
 31
0.0
  0
INSERT
  5
97
330
94
100
AcDbEntity
  8
0
  6
Continuous
 62
     7
100
AcDbBlockReference
  2
_OPEN30
 10
-118.3079071044922
 20
180.5472412109375
 30
0.0
  0
INSERT
  5
98
330
94
100
AcDbEntity
  8
0
  6
Continuous
 62
     7
100
AcDbBlockReference
  2
_OPEN30
 10
-174.3079071044922
 20
180.5472412109375
 30
0.0
 50
180.0000000000004
  0
TEXT
  5
99
330
94
100
AcDbEntity
  8
0
  6
Continuous
 62
     7
100
AcDbText
 10
-148.8779072165489
 20
181.2972412109375
 30
0.0
 40
3.0
  1
56
 41
1.028000020980834
100
AcDbText
  0
POINT
  5
9A
330
94
100
AcDbEntity
  8
DEFPOINTS
  6
Continuous
 62
     7
100
AcDbPoint
 10
-118.3079071044922
 20
173.4472961425781
 30
0.0
  0
POINT
  5
9B
330
94
100
AcDbEntity
  8
DEFPOINTS
  6
Continuous
 62
     7
100
AcDbPoint
 10
-174.3079071044922
 20
203.4472961425781
 30
0.0
  0
POINT
  5
9C
330
94
100
AcDbEntity
  8
DEFPOINTS
  6
Continuous
 62
     7
100
AcDbPoint
 10
-174.3079071044922
 20
180.5472412109375
 30
0.0
  0
ENDBLK
  5
9D
330
94
100
AcDbEntity
  8
0
100
AcDbBlockEnd
  0
BLOCK
  5
9F
330
9E
100
AcDbEntity
  8
0
100
AcDbBlockBegin
  2
*D9
 70
     1
 10
0.0
 20
0.0
 30
0.0
  3
*D9
  1

  0
LINE
  5
A0
330
9E
100
AcDbEntity
  8
0
  6
Continuous
 62
     7
100
AcDbLine
 10
-280.5045166015625
 20
233.4870300292969
 30
0.0
 11
-261.5234985351563
 21
267.0018310546875
 31
0.0
  0
LINE
  5
A1
330
9E
100
AcDbEntity
  8
0
  6
Continuous
 62
     7
100
AcDbLine
 10
-347.0328833543743
 20
116.0179854674091
 30
0.0
 11
-281.9829247510945
 21
230.8766068177472
 31
0.0
  0
INSERT
  5
A2
330
9E
100
AcDbEntity
  8
0
  6
Continuous
 62
     7
100
AcDbBlockReference
  2
_OPEN30
 10
-348.5112915039063
 20
113.4075622558594
 30
0.0
 50
240.4750369411975
  0
INSERT
  5
A3
330
9E
100
AcDbEntity
  8
0
  6
Continuous
 62
     7
100
AcDbBlockReference
  2
_OPEN30
 10
-280.5045166015625
 20
233.4870300292969
 30
0.0
 50
60.47503694119678
  0
TEXT
  5
A4
330
9E
100
AcDbEntity
  8
0
  6
Continuous
 62
     7
100
AcDbText
 10
-278.0088545545765
 20
239.4013474859102
 30
0.0
 40
3.0
  1
%%C１３８（防水皿外径）
 50
60.49999883765373
 41
0.8440126077968535
100
AcDbText
  0
POINT
  5
A5
330
9E
100
AcDbEntity
  8
DEFPOINTS
  6
Continuous
 62
     7
100
AcDbPoint
 10
-348.5112915039063
 20
113.4075622558594
 30
0.0
  0
POINT
  5
A6
330
9E
100
AcDbEntity
  8
DEFPOINTS
  6
Continuous
 62
     7
100
AcDbPoint
 10
-280.5045166015625
 20
233.4870300292969
 30
0.0
  0
ENDBLK
  5
A7
330
9E
100
AcDbEntity
  8
0
100
AcDbBlockEnd
  0
BLOCK
  5
A9
330
A8
100
AcDbEntity
  8
0
100
AcDbBlockBegin
  2
*D10
 70
     1
 10
0.0
 20
0.0
 30
0.0
  3
*D10
  1

  0
LINE
  5
AA
330
A8
100
AcDbEntity
  8
0
  6
Continuous
 62
     7
100
AcDbLine
 10
-285.883056640625
 20
196.4857177734375
 30
0.0
 11
-234.3163909912109
 21
238.7190704345703
 31
0.0
  0
LINE
  5
AB
330
A8
100
AcDbEntity
  8
0
  6
Continuous
 62
     7
100
AcDbLine
 10
-340.8118468471667
 20
151.4987581175309
 30
0.0
 11
-288.2039917758801
 21
194.5848600465314
 31
0.0
  0
INSERT
  5
AC
330
A8
100
AcDbEntity
  8
0
  6
Continuous
 62
     7
100
AcDbBlockReference
  2
_OPEN30
 10
-343.1327819824219
 20
149.597900390625
 30
0.0
 50
219.3176513167526
  0
INSERT
  5
AD
330
A8
100
AcDbEntity
  8
0
  6
Continuous
 62
     7
100
AcDbBlockReference
  2
_OPEN30
 10
-285.883056640625
 20
196.4857177734375
 30
0.0
 50
39.317651316752
  0
TEXT
  5
AE
330
A8
100
AcDbEntity
  8
0
  6
Continuous
 62
     7
100
AcDbText
 10
-257.338297379295
 20
220.8392488495027
 30
0.0
 40
3.0
  1
%%C７４（目皿部外径）
 50
39.30000006909376
 41
0.8443929326254473
100
AcDbText
  0
POINT
  5
AF
330
A8
100
AcDbEntity
  8
DEFPOINTS
  6
Continuous
 62
     7
100
AcDbPoint
 10
-343.1327819824219
 20
149.597900390625
 30
0.0
  0
POINT
  5
B0
330
A8
100
AcDbEntity
  8
DEFPOINTS
  6
Continuous
 62
     7
100
AcDbPoint
 10
-285.883056640625
 20
196.4857177734375
 30
0.0
  0
ENDBLK
  5
B1
330
A8
100
AcDbEntity
  8
0
100
AcDbBlockEnd
  0
BLOCK
  5
B3
330
B2
100
AcDbEntity
  8
0
100
AcDbBlockBegin
  2
*D11
 70
     1
 10
0.0
 20
0.0
 30
0.0
  3
*D11
  1

  0
LINE
  5
B4
330
B2
100
AcDbEntity
  8
0
  6
Continuous
 62
     7
100
AcDbLine
 10
-174.3079071044922
 20
265.4772033691406
 30
0.0
 11
-182.2456665039063
 21
265.4772033691406
 31
0.0
  0
LINE
  5
B5
330
B2
100
AcDbEntity
  8
0
  6
Continuous
 62
     7
100
AcDbLine
 10
-168.0079040527344
 20
265.4772033691406
 30
0.0
 11
-174.3079071044922
 21
265.4772033691406
 31
0.0
  0
INSERT
  5
B6
330
B2
100
AcDbEntity
  8
0
  6
Continuous
 62
     7
100
AcDbBlockReference
  2
_OPEN30
 10
-168.0079040527344
 20
265.4772033691406
 30
0.0
 50
180.0
  0
LINE
  5
B7
330
B2
100
AcDbEntity
  8
0
  6
Continuous
 62
     7
100
AcDbLine
 10
-165.0079040527344
 20
265.4772033691406
 30
0.0
 11
-161.6579040527344
 21
265.4772033691406
 31
0.0
  0
INSERT
  5
B8
330
B2
100
AcDbEntity
  8
0
  6
Continuous
 62
     7
100
AcDbBlockReference
  2
_OPEN30
 10
-174.3079071044922
 20
265.4772033691406
 30
0.0
 50
0.0000000000003562
  0
LINE
  5
B9
330
B2
100
AcDbEntity
  8
0
  6
Continuous
 62
     7
100
AcDbLine
 10
-177.3079071044922
 20
265.4772033691406
 30
0.0
 11
-180.6579071044922
 21
265.4772033691406
 31
0.0
  0
LINE
  5
BA
330
B2
100
AcDbEntity
  8
0
  6
Continuous
 62
     7
100
AcDbLine
 10
-174.3079071044922
 20
205.9872961425781
 30
0.0
 11
-174.3079071044922
 21
267.76318359375
 31
0.0
  0
TEXT
  5
BB
330
B2
100
AcDbEntity
  8
0
  6
Continuous
 62
     7
100
AcDbText
 10
-182.2456744909286
 20
266.2272033691406
 30
0.0
 40
3.0
  1
6
100
AcDbText
  0
POINT
  5
BC
330
B2
100
AcDbEntity
  8
DEFPOINTS
  6
Continuous
 62
     7
100
AcDbPoint
 10
-168.0079040527344
 20
267.76318359375
 30
0.0
  0
POINT
  5
BD
330
B2
100
AcDbEntity
  8
DEFPOINTS
  6
Continuous
 62
     7
100
AcDbPoint
 10
-174.3079071044922
 20
203.4472961425781
 30
0.0
  0
POINT
  5
BE
330
B2
100
AcDbEntity
  8
DEFPOINTS
  6
Continuous
 62
     7
100
AcDbPoint
 10
-174.3079071044922
 20
265.4772033691406
 30
0.0
  0
ENDBLK
  5
BF
330
B2
100
AcDbEntity
  8
0
100
AcDbBlockEnd
  0
BLOCK
  5
C1
330
C0
100
AcDbEntity
  8
0
100
AcDbBlockBegin
  2
KOZU0001
 70
     0
 10
0.0
 20
0.0
 30
0.0
  3
KOZU0001
  1

  0
LINE
  5
C2
330
C0
100
AcDbEntity
  8
0
  6
Continuous
 62
     7
100
AcDbLine
 10
0.0
 20
0.0
 30
0.0
 11
23.24031066894531
 21
20.73760986328125
 31
0.0
  0
LINE
  5
C3
330
C0
100
AcDbEntity
  8
0
  6
Continuous
 62
     7
100
AcDbLine
 10
23.24031066894531
 20
20.73760986328125
 30
0.0
 11
48.96141052246093
 21
20.73760986328125
 31
0.0
  0
LINE
  5
C4
330
C0
100
AcDbEntity
  8
0
  6
Continuous
 62
     7
100
AcDbLine
 10
0.0
 20
0.0
 30
0.0
 11
1.572629585379438
 21
2.743508007495019
 31
0.0
  0
LINE
  5
C5
330
C0
100
AcDbEntity
  8
0
  6
Continuous
 62
     7
100
AcDbLine
 10
0.0
 20
0.0
 30
0.0
 11
2.904208472800562
 21
1.251228654768352
 31
0.0
  0
TEXT
  5
C6
330
C0
100
AcDbEntity
  8
0
  6
Continuous
 62
     7
100
AcDbText
 10
24.89385151863098
 20
21.48760986328125
 30
0.0
 40
3.0
  1
配管接続口
 41
0.8487395020950888
100
AcDbText
  0
TEXT
  5
C7
330
C0
100
AcDbEntity
  8
0
  6
Continuous
 62
     7
100
AcDbText
 10
24.89385151863098
 20
16.22260986328125
 30
0.0
 40
3.0
  1
Ｒｃ１（２５Ａ）
 41
0.8454512278006642
100
AcDbText
  0
ENDBLK
  5
C8
330
C0
100
AcDbEntity
  8
0
100
AcDbBlockEnd
  0
BLOCK
  5
CA
330
C9
100
AcDbEntity
  8
0
100
AcDbBlockBegin
  2
KOZU0002
 70
     0
 10
0.0
 20
0.0
 30
0.0
  3
KOZU0002
  1

  0
LINE
  5
CB
330
C9
100
AcDbEntity
  8
0
  6
Continuous
 62
     7
100
AcDbLine
 10
0.0
 20
0.0
 30
0.0
 11
25.20160675048828
 21
-23.64595031738281
 31
0.0
  0
LINE
  5
CC
330
C9
100
AcDbEntity
  8
0
  6
Continuous
 62
     7
100
AcDbLine
 10
25.20160675048828
 20
-23.64595031738281
 30
0.0
 11
50.92270660400391
 21
-23.64595031738281
 31
0.0
  0
LINE
  5
CD
330
C9
100
AcDbEntity
  8
0
  6
Continuous
 62
     7
100
AcDbLine
 10
0.0
 20
0.0
 30
0.0
 11
2.87200973623994
 21
-1.323465177079848
 31
0.0
  0
LINE
  5
CE
330
C9
100
AcDbEntity
  8
0
  6
Continuous
 62
     7
100
AcDbLine
 10
0.0
 20
0.0
 30
0.0
 11
1.503528682744044
 21
-2.781977983407841
 31
0.0
  0
TEXT
  5
CF
330
C9
100
AcDbEntity
  8
0
  6
Continuous
 62
     7
100
AcDbText
 10
26.5283043384552
 20
-22.89595031738281
 30
0.0
 40
3.0
  1
共廻り防止用羽根
 41
0.8454512278006642
100
AcDbText
  0
TEXT
  5
D0
330
C9
100
AcDbEntity
  8
0
  6
Continuous
 62
     7
100
AcDbText
 10
26.5283043384552
 20
-28.16095031738281
 30
0.0
 40
3.0
  1
３ヶ所
 41
0.8550420278260688
100
AcDbText
  0
ENDBLK
  5
D1
330
C9
100
AcDbEntity
  8
0
100
AcDbBlockEnd
  0
ENDSEC
  0
SECTION
  2
ENTITIES
  0
POINT
  5
D2
330
22
100
AcDbEntity
  8
0
  6
Continuous
 62
     7
100
AcDbPoint
 10
-314.5079040527344
 20
173.4472961425781
 30
0.0
  0
POINT
  5
D3
330
22
100
AcDbEntity
  8
0
  6
Continuous
 62
     7
100
AcDbPoint
 10
-314.5079040527344
 20
173.4472961425781
 30
0.0
  0
POINT
  5
D4
330
22
100
AcDbEntity
  8
0
  6
Continuous
 62
     7
100
AcDbPoint
 10
-104.5079116821289
 20
173.4472961425781
 30
0.0
  0
POINT
  5
D5
330
22
100
AcDbEntity
  8
0
  6
Continuous
 62
     7
100
AcDbPoint
 10
-104.5079116821289
 20
173.4472961425781
 30
0.0
  0
LINE
  5
D6
330
22
100
AcDbEntity
  8
0
  6
CENTER
 62
     7
100
AcDbLine
 10
-81.01074981689453
 20
173.4472961425781
 30
0.0
 11
-180.05224609375
 21
173.4472961425781
 31
0.0
  0
LINE
  5
D7
330
22
100
AcDbEntity
  8
0
  6
CENTER
 62
     7
100
AcDbLine
 10
-238.6488647460939
 20
173.4472961425781
 30
0.0
 11
-390.3659362792969
 21
173.4472961425781
 31
0.0
  0
LINE
  5
D8
330
22
100
AcDbEntity
  8
0
  6
CENTER
 62
     7
100
AcDbLine
 10
-314.5079040527344
 20
96.59378814697266
 30
0.0
 11
-314.5079040527344
 21
249.3068237304688
 31
0.0
  0
LINE
  5
D9
330
22
100
AcDbEntity
  8
0
  6
Continuous
 62
     7
100
AcDbLine
 10
-315.62255859375
 20
190.870361328125
 30
0.0
 11
-314.0713195800781
 21
193.4547576904297
 31
0.0
  0
LINE
  5
DA
330
22
100
AcDbEntity
  8
0
  6
Continuous
 62
     7
100
AcDbLine
 10
-316.3884582519531
 20
191.1973266601563
 30
0.0
 11
-315.5949401855469
 21
194.105224609375
 31
0.0
  0
LINE
  5
DB
330
22
100
AcDbEntity
  8
0
  6
Continuous
 62
     7
100
AcDbLine
 10
-321.5420532226563
 20
175.1791381835938
 30
0.0
 11
-326.2541809082031
 21
177.8997039794922
 31
0.0
  0
LINE
  5
DC
330
22
100
AcDbEntity
  8
0
  6
Continuous
 62
     7
100
AcDbLine
 10
-309.5420532226563
 20
178.6436462402344
 30
0.0
 11
-304.8298950195313
 21
181.3642120361328
 31
0.0
  0
LINE
  5
DD
330
22
100
AcDbEntity
  8
0
  6
Continuous
 62
     7
100
AcDbLine
 10
-318.0367126464844
 20
196.0482940673828
 30
0.0
 11
-318.2003173828125
 21
195.6650695800781
 31
0.0
  0
LINE
  5
DE
330
22
100
AcDbEntity
  8
0
  6
Continuous
 62
     7
100
AcDbLine
 10
-318.2003173828125
 20
195.6650695800781
 30
0.0
 11
-315.5949401855469
 21
194.105224609375
 31
0.0
  0
LINE
  5
DF
330
22
100
AcDbEntity
  8
0
  6
Continuous
 62
     7
100
AcDbLine
 10
-313.3932495117188
 20
198.2132568359375
 30
0.0
 11
-313.0103149414063
 21
198.0497741699219
 31
0.0
  0
LINE
  5
E0
330
22
100
AcDbEntity
  8
0
  6
Continuous
 62
     7
100
AcDbLine
 10
-317.8731079101563
 20
196.4315338134766
 30
0.0
 11
-314.9444885253906
 21
195.6288604736328
 31
0.0
  0
LINE
  5
E1
330
22
100
AcDbEntity
  8
0
  6
Continuous
 62
     7
100
AcDbLine
 10
-312.6273803710938
 20
197.8862915039063
 30
0.0
 11
-313.0103149414063
 21
198.0497741699219
 31
0.0
  0
LINE
  5
E2
330
22
100
AcDbEntity
  8
0
  6
Continuous
 62
     7
100
AcDbLine
 10
-318.0367126464844
 20
196.0482940673828
 30
0.0
 11
-317.8731079101563
 21
196.4315338134766
 31
0.0
  0
LINE
  5
E3
330
22
100
AcDbEntity
  8
0
  6
Continuous
 62
     7
100
AcDbLine
 10
-313.3932495117188
 20
198.2132568359375
 30
0.0
 11
-314.9444885253906
 21
195.6288604736328
 31
0.0
  0
LINE
  5
E4
330
22
100
AcDbEntity
  8
0
  6
Continuous
 62
     7
100
AcDbLine
 10
-312.6273803710938
 20
197.8862915039063
 30
0.0
 11
-313.4208679199219
 21
194.9783935546875
 31
0.0
  0
LINE
  5
E5
330
22
100
AcDbEntity
  8
0
  6
Continuous
 62
     7
100
AcDbLine
 10
-319.5420532226563
 20
178.6432495117188
 30
0.0
 11
-324.2541809082031
 21
181.3638000488281
 31
0.0
  0
LINE
  5
E6
330
22
100
AcDbEntity
  8
0
  6
Continuous
 62
     7
100
AcDbLine
 10
-307.5420532226563
 20
175.1795501708984
 30
0.0
 11
-302.8298950195313
 21
177.9001159667969
 31
0.0
  0
LINE
  5
E7
330
22
100
AcDbEntity
  8
0
  6
Continuous
 62
     7
100
AcDbLine
 10
-310.8154907226563
 20
193.4185638427734
 30
0.0
 11
-313.4208679199219
 21
194.9783935546875
 31
0.0
  0
LINE
  5
E8
330
22
100
AcDbEntity
  8
0
  6
Continuous
 62
     7
100
AcDbLine
 10
-315.62255859375
 20
190.870361328125
 30
0.0
 11
-316.0054931640625
 21
191.0338439941406
 31
0.0
  0
LINE
  5
E9
330
22
100
AcDbEntity
  8
0
  6
Continuous
 62
     7
100
AcDbLine
 10
-316.3884582519531
 20
191.1973266601563
 30
0.0
 11
-316.0054931640625
 21
191.0338439941406
 31
0.0
  0
LINE
  5
EA
330
22
100
AcDbEntity
  8
0
  6
Continuous
 62
     7
100
AcDbLine
 10
-311.1427001953125
 20
149.6520843505859
 30
0.0
 11
-314.0713195800781
 21
150.4547576904297
 31
0.0
  0
LINE
  5
EB
330
22
100
AcDbEntity
  8
0
  6
Continuous
 62
     7
100
AcDbLine
 10
-318.0367126464844
 20
153.0482940673828
 30
0.0
 11
-317.8731079101563
 21
153.4315338134766
 31
0.0
  0
LINE
  5
EC
330
22
100
AcDbEntity
  8
0
  6
Continuous
 62
     7
100
AcDbLine
 10
-318.0367126464844
 20
153.0482940673828
 30
0.0
 11
-318.2003173828125
 21
152.6650695800781
 31
0.0
  0
LINE
  5
ED
330
22
100
AcDbEntity
  8
0
  6
Continuous
 62
     7
100
AcDbLine
 10
-316.3884582519531
 20
148.1973266601563
 30
0.0
 11
-315.5949401855469
 21
151.105224609375
 31
0.0
  0
LINE
  5
EE
330
22
100
AcDbEntity
  8
0
  6
Continuous
 62
     7
100
AcDbLine
 10
-315.62255859375
 20
147.870361328125
 30
0.0
 11
-314.0713195800781
 21
150.4547576904297
 31
0.0
  0
LINE
  5
EF
330
22
100
AcDbEntity
  8
0
  6
Continuous
 62
     7
100
AcDbLine
 10
-310.9790954589844
 20
150.0353240966797
 30
0.0
 11
-311.1427001953125
 21
149.6520843505859
 31
0.0
  0
LINE
  5
F0
330
22
100
AcDbEntity
  8
0
  6
Continuous
 62
     7
100
AcDbLine
 10
-317.8731079101563
 20
153.4315338134766
 30
0.0
 11
-314.9444885253906
 21
152.6288604736328
 31
0.0
  0
LINE
  5
F1
330
22
100
AcDbEntity
  8
0
  6
Continuous
 62
     7
100
AcDbLine
 10
-310.8154907226563
 20
150.4185638427734
 30
0.0
 11
-313.4208679199219
 21
151.9783935546875
 31
0.0
  0
LINE
  5
F2
330
22
100
AcDbEntity
  8
0
  6
Continuous
 62
     7
100
AcDbLine
 10
-310.9790954589844
 20
150.0353240966797
 30
0.0
 11
-310.8154907226563
 21
150.4185638427734
 31
0.0
  0
LINE
  5
F3
330
22
100
AcDbEntity
  8
0
  6
Continuous
 62
     7
100
AcDbLine
 10
-312.6273803710938
 20
154.8862915039063
 30
0.0
 11
-313.4208679199219
 21
151.9783935546875
 31
0.0
  0
LINE
  5
F4
330
22
100
AcDbEntity
  8
0
  6
Continuous
 62
     7
100
AcDbLine
 10
-316.3884582519531
 20
148.1973266601563
 30
0.0
 11
-316.0054931640625
 21
148.0338439941406
 31
0.0
  0
LINE
  5
F5
330
22
100
AcDbEntity
  8
0
  6
Continuous
 62
     7
100
AcDbLine
 10
-315.62255859375
 20
147.870361328125
 30
0.0
 11
-316.0054931640625
 21
148.0338439941406
 31
0.0
  0
LINE
  5
F6
330
22
100
AcDbEntity
  8
0
  6
Continuous
 62
     7
100
AcDbLine
 10
-313.3932495117188
 20
155.2132568359375
 30
0.0
 11
-314.9444885253906
 21
152.6288604736328
 31
0.0
  0
LINE
  5
F7
330
22
100
AcDbEntity
  8
0
  6
Continuous
 62
     7
100
AcDbLine
 10
-313.3932495117188
 20
155.2132568359375
 30
0.0
 11
-313.0103149414063
 21
155.0497741699219
 31
0.0
  0
LINE
  5
F8
330
22
100
AcDbEntity
  8
0
  6
Continuous
 62
     7
100
AcDbLine
 10
-318.2003173828125
 20
152.6650695800781
 30
0.0
 11
-315.5949401855469
 21
151.105224609375
 31
0.0
  0
LINE
  5
F9
330
22
100
AcDbEntity
  8
0
  6
Continuous
 62
     7
100
AcDbLine
 10
-312.6273803710938
 20
154.8862915039063
 30
0.0
 11
-313.0103149414063
 21
155.0497741699219
 31
0.0
  0
LINE
  5
FA
330
22
100
AcDbEntity
  8
0
  6
Continuous
 62
     7
100
AcDbLine
 10
-310.9790954589844
 20
193.0353240966797
 30
0.0
 11
-310.8154907226563
 21
193.4185638427734
 31
0.0
  0
LINE
  5
FB
330
22
100
AcDbEntity
  8
0
  6
Continuous
 62
     7
100
AcDbLine
 10
-311.1427001953125
 20
192.6520843505859
 30
0.0
 11
-314.0713195800781
 21
193.4547576904297
 31
0.0
  0
LINE
  5
FC
330
22
100
AcDbEntity
  8
0
  6
Continuous
 62
     7
100
AcDbLine
 10
-310.9790954589844
 20
193.0353240966797
 30
0.0
 11
-311.1427001953125
 21
192.6520843505859
 31
0.0
  0
LINE
  5
FD
330
22
100
AcDbEntity
  8
0
  6
Continuous
 62
     7
100
AcDbLine
 10
-312.5416870117188
 20
166.5190887451172
 30
0.0
 11
-312.5416870117188
 21
161.0779876708984
 31
0.0
  0
LINE
  5
FE
330
22
100
AcDbEntity
  8
0
  6
Continuous
 62
     7
100
AcDbLine
 10
-316.5416870117188
 20
166.5190887451172
 30
0.0
 11
-316.5416870117188
 21
161.0779876708984
 31
0.0
  0
LINE
  5
FF
330
22
100
AcDbEntity
  8
0
  6
Continuous
 62
     7
100
AcDbLine
 10
-104.4427871704102
 20
189.4019165039063
 30
0.0
 11
-108.0079116821289
 21
189.4019165039063
 31
0.0
  0
LINE
  5
100
330
22
100
AcDbEntity
  8
0
  6
Continuous
 62
     7
100
AcDbLine
 10
-108.0079116821289
 20
197.4472961425781
 30
0.0
 11
-108.0079116821289
 21
240.4472961425781
 31
0.0
  0
LINE
  5
101
330
22
100
AcDbEntity
  8
0
  6
Continuous
 62
     7
100
AcDbLine
 10
-104.5079116821289
 20
194.4472961425781
 30
0.0
 11
-104.5079116821289
 21
241.9472961425781
 31
0.0
  0
LINE
  5
102
330
22
100
AcDbEntity
  8
0
  6
Continuous
 62
     7
100
AcDbLine
 10
-109.4869079589844
 20
188.5928039550781
 30
0.0
 11
-108.0079116821289
 21
190.0717926025391
 31
0.0
  0
LINE
  5
103
330
22
100
AcDbEntity
  8
0
  6
Continuous
 62
     7
100
AcDbLine
 10
-105.0079116821289
 20
242.4472961425781
 30
0.0
 11
-106.0079116821289
 21
242.4472961425781
 31
0.0
  0
LINE
  5
104
330
22
100
AcDbEntity
  8
0
  6
CENTER
 62
     7
100
AcDbLine
 10
-176.0300140380859
 20
194.1972961425781
 30
0.0
 11
-165.5552215576172
 21
194.1972961425781
 31
0.0
  0
LINE
  5
105
330
22
100
AcDbEntity
  8
0
  6
Continuous
 62
     7
100
AcDbLine
 10
-172.10791015625
 20
196.1972961425781
 30
0.0
 11
-171.7279052734375
 21
195.8172912597656
 31
0.0
  0
LINE
  5
106
330
22
100
AcDbEntity
  8
0
  6
Continuous
 62
     7
100
AcDbLine
 10
-174.3079071044922
 20
179.4472961425781
 30
0.0
 11
-171.3079071044922
 21
179.4472961425781
 31
0.0
  0
LINE
  5
107
330
22
100
AcDbEntity
  8
0
  6
Continuous
 62
     7
100
AcDbLine
 10
-174.3079071044922
 20
188.4473876953125
 30
0.0
 11
-171.3079071044922
 21
188.4473876953125
 31
0.0
  0
LINE
  5
108
330
22
100
AcDbEntity
  8
0
  6
Continuous
 62
     7
100
AcDbLine
 10
-174.3079071044922
 20
175.9470672607422
 30
0.0
 11
-171.3079071044922
 21
175.9470672607422
 31
0.0
  0
LINE
  5
109
330
22
100
AcDbEntity
  8
0
  6
Continuous
 62
     7
100
AcDbLine
 10
-174.3079071044922
 20
201.3383483886719
 30
0.0
 11
-174.1989593505859
 21
201.4472961425781
 31
0.0
  0
LINE
  5
10A
330
22
100
AcDbEntity
  8
0
  6
Continuous
 62
     7
100
AcDbLine
 10
-174.3079071044922
 20
198.5099182128906
 30
0.0
 11
-171.3705291748047
 21
201.4472961425781
 31
0.0
  0
LINE
  5
10B
330
22
100
AcDbEntity
  8
0
  6
Continuous
 62
     7
100
AcDbLine
 10
-172.9500122070313
 20
197.0393981933594
 30
0.0
 11
-171.3079071044922
 21
198.6814880371094
 31
0.0
  0
LINE
  5
10C
330
22
100
AcDbEntity
  8
0
  6
Continuous
 62
     7
100
AcDbLine
 10
-173.0567321777344
 20
188.4473876953125
 30
0.0
 11
-171.3079071044922
 21
190.1962127685547
 31
0.0
  0
LINE
  5
10D
330
22
100
AcDbEntity
  8
0
  6
Continuous
 62
     7
100
AcDbLine
 10
-174.3079071044922
 20
178.7109222412109
 30
0.0
 11
-173.571533203125
 21
179.4472961425781
 31
0.0
  0
LINE
  5
10E
330
22
100
AcDbEntity
  8
0
  6
Continuous
 62
     7
100
AcDbLine
 10
-173.7431182861328
 20
176.4472961425781
 30
0.0
 11
-171.3079071044922
 21
178.8825073242188
 31
0.0
  0
LINE
  5
10F
330
22
100
AcDbEntity
  8
0
  6
Continuous
 62
     7
100
AcDbLine
 10
-171.5499420166016
 20
176.4472961425781
 30
0.0
 11
-174.3079071044922
 21
179.2052612304688
 31
0.0
  0
LINE
  5
110
330
22
100
AcDbEntity
  8
0
  6
Continuous
 62
     7
100
AcDbLine
 10
-171.3079071044922
 20
179.03369140625
 30
0.0
 11
-171.7215118408203
 21
179.4472961425781
 31
0.0
  0
LINE
  5
111
330
22
100
AcDbEntity
  8
0
  6
Continuous
 62
     7
100
AcDbLine
 10
-172.236328125
 20
188.4473876953125
 30
0.0
 11
-174.0470733642578
 21
190.2581329345703
 31
0.0
  0
LINE
  5
112
330
22
100
AcDbEntity
  8
0
  6
Continuous
 62
     7
100
AcDbLine
 10
-171.3079071044922
 20
190.3473968505859
 30
0.0
 11
-172.6328582763672
 21
191.6723480224609
 31
0.0
  0
LINE
  5
113
330
22
100
AcDbEntity
  8
0
  6
Continuous
 62
     7
100
AcDbLine
 10
-171.7509613037109
 20
196.4472961425781
 30
0.0
 11
-174.3079071044922
 21
199.0042572021484
 31
0.0
  0
LINE
  5
114
330
22
100
AcDbEntity
  8
0
  6
Continuous
 62
     7
100
AcDbLine
 10
-171.3079071044922
 20
198.8326721191406
 30
0.0
 11
-173.9225311279296
 21
201.4472961425781
 31
0.0
  0
LINE
  5
115
330
22
100
AcDbEntity
  8
0
  6
Continuous
 62
     7
100
AcDbLine
 10
-83.0079116821289
 20
190.0717926025391
 30
0.0
 11
-104.4427871704102
 21
189.4019165039063
 31
0.0
  0
LINE
  5
116
330
22
100
AcDbEntity
  8
0
  6
Continuous
 62
     7
100
AcDbLine
 10
-103.5079116821289
 20
193.4472961425781
 30
0.0
 11
-84.0079116821289
 21
193.4472961425781
 31
0.0
  0
LINE
  5
117
330
22
100
AcDbEntity
  8
0
  6
Continuous
 62
     7
100
AcDbLine
 10
-84.53536987304687
 20
188.5443420410156
 30
0.0
 11
-103.0079116821289
 21
187.967041015625
 31
0.0
  0
LINE
  5
118
330
22
100
AcDbEntity
  8
0
  6
Continuous
 62
     7
100
AcDbLine
 10
-108.0079116821289
 20
238.6031188964844
 30
0.0
 11
-104.5535507202148
 21
242.0574798583984
 31
0.0
  0
LINE
  5
119
330
22
100
AcDbEntity
  8
0
  6
Continuous
 62
     7
100
AcDbLine
 10
-108.0079116821289
 20
235.7746887207031
 30
0.0
 11
-104.5079116821289
 21
239.2746887207031
 31
0.0
  0
LINE
  5
11A
330
22
100
AcDbEntity
  8
0
  6
Continuous
 62
     7
100
AcDbLine
 10
-108.0079116821289
 20
232.9462738037109
 30
0.0
 11
-104.5079116821289
 21
236.4462738037109
 31
0.0
  0
LINE
  5
11B
330
22
100
AcDbEntity
  8
0
  6
Continuous
 62
     7
100
AcDbLine
 10
-108.0079116821289
 20
230.1178436279297
 30
0.0
 11
-104.5079116821289
 21
233.6178436279297
 31
0.0
  0
LINE
  5
11C
330
22
100
AcDbEntity
  8
0
  6
Continuous
 62
     7
100
AcDbLine
 10
-108.0079116821289
 20
227.2894134521484
 30
0.0
 11
-104.5079116821289
 21
230.7894134521484
 31
0.0
  0
LINE
  5
11D
330
22
100
AcDbEntity
  8
0
  6
Continuous
 62
     7
100
AcDbLine
 10
-108.0079116821289
 20
224.4609832763672
 30
0.0
 11
-104.5079116821289
 21
227.9609832763672
 31
0.0
  0
LINE
  5
11E
330
22
100
AcDbEntity
  8
0
  6
Continuous
 62
     7
100
AcDbLine
 10
-108.0079116821289
 20
221.6325531005859
 30
0.0
 11
-104.5079116821289
 21
225.1325531005859
 31
0.0
  0
LINE
  5
11F
330
22
100
AcDbEntity
  8
0
  6
Continuous
 62
     7
100
AcDbLine
 10
-137.9619140625
 20
191.6785583496094
 30
0.0
 11
-137.2391662597656
 21
192.4012908935547
 31
0.0
  0
LINE
  5
120
330
22
100
AcDbEntity
  8
0
  6
Continuous
 62
     7
100
AcDbLine
 10
-108.0079116821289
 20
218.8041381835938
 30
0.0
 11
-104.5079116821289
 21
222.3041381835938
 31
0.0
  0
LINE
  5
121
330
22
100
AcDbEntity
  8
0
  6
Continuous
 62
     7
100
AcDbLine
 10
-136.7402496337891
 20
190.0717926025391
 30
0.0
 11
-134.36474609375
 21
192.4472961425781
 31
0.0
  0
LINE
  5
122
330
22
100
AcDbEntity
  8
0
  6
Continuous
 62
     7
100
AcDbLine
 10
-108.0079116821289
 20
215.9757080078125
 30
0.0
 11
-104.5079116821289
 21
219.4757080078125
 31
0.0
  0
LINE
  5
123
330
22
100
AcDbEntity
  8
0
  6
Continuous
 62
     7
100
AcDbLine
 10
-133.9118194580078
 20
190.0717926025391
 30
0.0
 11
-131.5363159179687
 21
192.4472961425781
 31
0.0
  0
LINE
  5
124
330
22
100
AcDbEntity
  8
0
  6
Continuous
 62
     7
100
AcDbLine
 10
-108.0079116821289
 20
213.1472778320314
 30
0.0
 11
-104.5079116821289
 21
216.6472778320313
 31
0.0
  0
LINE
  5
125
330
22
100
AcDbEntity
  8
0
  6
Continuous
 62
     7
100
AcDbLine
 10
-131.0833892822266
 20
190.0717926025391
 30
0.0
 11
-128.7078857421875
 21
192.4472961425781
 31
0.0
  0
LINE
  5
126
330
22
100
AcDbEntity
  8
0
  6
Continuous
 62
     7
100
AcDbLine
 10
-107.8186874389648
 20
210.5080718994141
 30
0.0
 11
-104.5079116821289
 21
213.81884765625
 31
0.0
  0
LINE
  5
127
330
22
100
AcDbEntity
  8
0
  6
Continuous
 62
     7
100
AcDbLine
 10
-128.2549591064453
 20
190.0717926025391
 30
0.0
 11
-125.8794631958008
 21
192.4472961425781
 31
0.0
  0
LINE
  5
128
330
22
100
AcDbEntity
  8
0
  6
Continuous
 62
     7
100
AcDbLine
 10
-108.0079116821289
 20
207.4904174804689
 30
0.0
 11
-104.5079116821289
 21
210.9904174804688
 31
0.0
  0
LINE
  5
129
330
22
100
AcDbEntity
  8
0
  6
Continuous
 62
     7
100
AcDbLine
 10
-125.4265365600586
 20
190.0717926025391
 30
0.0
 11
-123.0510330200195
 21
192.4472961425781
 31
0.0
  0
LINE
  5
12A
330
22
100
AcDbEntity
  8
0
  6
Continuous
 62
     7
100
AcDbLine
 10
-108.0079116821289
 20
204.6620025634766
 30
0.0
 11
-104.5079116821289
 21
208.1620025634766
 31
0.0
  0
LINE
  5
12B
330
22
100
AcDbEntity
  8
0
  6
Continuous
 62
     7
100
AcDbLine
 10
-122.5981063842773
 20
190.0717926025391
 30
0.0
 11
-120.2226104736328
 21
192.4472961425781
 31
0.0
  0
LINE
  5
12C
330
22
100
AcDbEntity
  8
0
  6
Continuous
 62
     7
100
AcDbLine
 10
-108.0079116821289
 20
201.8335723876953
 30
0.0
 11
-104.5079116821289
 21
205.3335723876953
 31
0.0
  0
LINE
  5
12D
330
22
100
AcDbEntity
  8
0
  6
Continuous
 62
     7
100
AcDbLine
 10
-119.7696838378906
 20
190.0717926025391
 30
0.0
 11
-117.3941802978516
 21
192.4472961425781
 31
0.0
  0
LINE
  5
12E
330
22
100
AcDbEntity
  8
0
  6
Continuous
 62
     7
100
AcDbLine
 10
-108.0079116821289
 20
199.0051422119141
 30
0.0
 11
-104.5079116821289
 21
202.5051422119141
 31
0.0
  0
LINE
  5
12F
330
22
100
AcDbEntity
  8
0
  6
Continuous
 62
     7
100
AcDbLine
 10
-116.9412536621094
 20
190.0717926025391
 30
0.0
 11
-114.5657501220703
 21
192.4472961425781
 31
0.0
  0
LINE
  5
130
330
22
100
AcDbEntity
  8
0
  6
Continuous
 62
     7
100
AcDbLine
 10
-108.2743225097656
 20
195.9102935791016
 30
0.0
 11
-104.5079116821289
 21
199.6767120361328
 31
0.0
  0
LINE
  5
131
330
22
100
AcDbEntity
  8
0
  6
Continuous
 62
     7
100
AcDbLine
 10
-114.112823486328
 20
190.0717926025391
 30
0.0
 11
-111.4709091186523
 21
192.7137145996094
 31
0.0
  0
LINE
  5
132
330
22
100
AcDbEntity
  8
0
  6
Continuous
 62
     7
100
AcDbLine
 10
-111.2844009399414
 20
190.0717926025391
 30
0.0
 11
-104.5079116821289
 21
196.8482818603516
 31
0.0
  0
LINE
  5
133
330
22
100
AcDbEntity
  8
0
  6
Continuous
 62
     7
100
AcDbLine
 10
-108.4559707641602
 20
190.0717926025391
 30
0.0
 11
-104.4369888305664
 21
194.0907745361328
 31
0.0
  0
LINE
  5
134
330
22
100
AcDbEntity
  8
0
  6
Continuous
 62
     7
100
AcDbLine
 10
-105.8916320800781
 20
189.8077087402344
 30
0.0
 11
-102.2520446777344
 21
193.4472961425781
 31
0.0
  0
LINE
  5
135
330
22
100
AcDbEntity
  8
0
  6
Continuous
 62
     7
100
AcDbLine
 10
-103.4375762939453
 20
189.4333343505859
 30
0.0
 11
-99.42361450195313
 21
193.4472961425781
 31
0.0
  0
LINE
  5
136
330
22
100
AcDbEntity
  8
0
  6
Continuous
 62
     7
100
AcDbLine
 10
-100.5179061889648
 20
189.5245819091797
 30
0.0
 11
-96.5951919555664
 21
193.4472961425781
 31
0.0
  0
LINE
  5
137
330
22
100
AcDbEntity
  8
0
  6
Continuous
 62
     7
100
AcDbLine
 10
-97.59823608398438
 20
189.6158294677734
 30
0.0
 11
-93.76676177978515
 21
193.4472961425781
 31
0.0
  0
LINE
  5
138
330
22
100
AcDbEntity
  8
0
  6
Continuous
 62
     7
100
AcDbLine
 10
-94.67856597900391
 20
189.7070770263672
 30
0.0
 11
-90.93833923339843
 21
193.4472961425781
 31
0.0
  0
LINE
  5
139
330
22
100
AcDbEntity
  8
0
  6
Continuous
 62
     7
100
AcDbLine
 10
-91.75888824462893
 20
189.7983093261719
 30
0.0
 11
-88.10990905761718
 21
193.4472961425781
 31
0.0
  0
LINE
  5
13A
330
22
100
AcDbEntity
  8
0
  6
Continuous
 62
     7
100
AcDbLine
 10
-88.83921813964844
 20
189.8895568847656
 30
0.0
 11
-85.28147888183594
 21
193.4472961425781
 31
0.0
  0
LINE
  5
13B
330
22
100
AcDbEntity
  8
0
  6
Continuous
 62
     7
100
AcDbLine
 10
-85.91954803466796
 20
189.9808044433594
 30
0.0
 11
-83.0817642211914
 21
192.8185882568359
 31
0.0
  0
LINE
  5
13C
330
22
100
AcDbEntity
  8
0
  6
Continuous
 62
     7
100
AcDbLine
 10
-118.3079071044922
 20
188.5972900390625
 30
0.0
 11
-119.7779083251953
 21
190.0722961425781
 31
0.0
  0
LINE
  5
13D
330
22
100
AcDbEntity
  8
0
  6
Continuous
 62
     7
100
AcDbLine
 10
-118.3079071044922
 20
188.5972900390625
 30
0.0
 11
-118.3079071044922
 21
173.4472961425781
 31
0.0
  0
LINE
  5
13E
330
22
100
AcDbEntity
  8
0
  6
Continuous
 62
     7
100
AcDbLine
 10
-168.0079040527344
 20
210.4472961425781
 30
0.0
 11
-168.0079040527344
 21
188.5972900390625
 31
0.0
  0
LINE
  5
13F
330
22
100
AcDbEntity
  8
0
  6
Continuous
 62
     7
100
AcDbLine
 10
-171.3079071044922
 20
188.4473876953125
 30
0.0
 11
-169.3078308105469
 21
186.4472961425781
 31
0.0
  0
LINE
  5
140
330
22
100
AcDbEntity
  8
0
  6
Continuous
 62
     7
100
AcDbLine
 10
-171.3079071044922
 20
192.1972961425781
 30
0.0
 11
-171.3079071044922
 21
173.4472961425781
 31
0.0
  0
LINE
  5
141
330
22
100
AcDbEntity
  8
0
  6
Continuous
 62
     7
100
AcDbLine
 10
-118.3079071044922
 20
186.4472961425781
 30
0.0
 11
-169.3078308105469
 21
186.4472961425781
 31
0.0
  0
LINE
  5
142
330
22
100
AcDbEntity
  8
0
  6
Continuous
 62
     7
100
AcDbLine
 10
-121.4700469970703
 20
188.5928039550781
 30
0.0
 11
-119.3245468139648
 21
186.4472961425781
 31
0.0
  0
LINE
  5
143
330
22
100
AcDbEntity
  8
0
  6
Continuous
 62
     7
100
AcDbLine
 10
-125.7126846313477
 20
188.5928039550781
 30
0.0
 11
-123.5671844482422
 21
186.4472961425781
 31
0.0
  0
LINE
  5
144
330
22
100
AcDbEntity
  8
0
  6
Continuous
 62
     7
100
AcDbLine
 10
-129.955322265625
 20
188.5928039550781
 30
0.0
 11
-127.8098297119141
 21
186.4472961425781
 31
0.0
  0
LINE
  5
145
330
22
100
AcDbEntity
  8
0
  6
Continuous
 62
     7
100
AcDbLine
 10
-134.1979675292969
 20
188.5928039550781
 30
0.0
 11
-132.0524749755859
 21
186.4472961425781
 31
0.0
  0
LINE
  5
146
330
22
100
AcDbEntity
  8
0
  6
Continuous
 62
     7
100
AcDbLine
 10
-138.4451141357422
 20
188.5972900390625
 30
0.0
 11
-136.2951049804687
 21
186.4472961425781
 31
0.0
  0
LINE
  5
147
330
22
100
AcDbEntity
  8
0
  6
Continuous
 62
     7
100
AcDbLine
 10
-142.687744140625
 20
188.5972900390625
 30
0.0
 11
-140.5377502441406
 21
186.4472961425781
 31
0.0
  0
LINE
  5
148
330
22
100
AcDbEntity
  8
0
  6
Continuous
 62
     7
100
AcDbLine
 10
-146.9303894042969
 20
188.5972900390625
 30
0.0
 11
-144.7803955078125
 21
186.4472961425781
 31
0.0
  0
LINE
  5
149
330
22
100
AcDbEntity
  8
0
  6
Continuous
 62
     7
100
AcDbLine
 10
-168.7803955078125
 20
210.4472961425781
 30
0.0
 11
-168.0079040527344
 21
209.6748199462891
 31
0.0
  0
LINE
  5
14A
330
22
100
AcDbEntity
  8
0
  6
Continuous
 62
     7
100
AcDbLine
 10
-151.1730346679688
 20
188.5972900390625
 30
0.0
 11
-149.0230255126953
 21
186.4472961425781
 31
0.0
  0
LINE
  5
14B
330
22
100
AcDbEntity
  8
0
  6
Continuous
 62
     7
100
AcDbLine
 10
-171.2952270507813
 20
208.7194976806641
 30
0.0
 11
-168.0079040527344
 21
205.4321746826172
 31
0.0
  0
LINE
  5
14C
330
22
100
AcDbEntity
  8
0
  6
Continuous
 62
     7
100
AcDbLine
 10
-155.4156799316406
 20
188.5972900390625
 30
0.0
 11
-153.2656707763672
 21
186.4472961425781
 31
0.0
  0
LINE
  5
14D
330
22
100
AcDbEntity
  8
0
  6
Continuous
 62
     7
100
AcDbLine
 10
-172.8379974365234
 20
206.0196228027344
 30
0.0
 11
-168.0079040527344
 21
201.1895294189453
 31
0.0
  0
LINE
  5
14E
330
22
100
AcDbEntity
  8
0
  6
Continuous
 62
     7
100
AcDbLine
 10
-159.6583099365234
 20
188.5972900390625
 30
0.0
 11
-157.5083160400391
 21
186.4472961425781
 31
0.0
  0
LINE
  5
14F
330
22
100
AcDbEntity
  8
0
  6
Continuous
 62
     7
100
AcDbLine
 10
-171.3079071044922
 20
200.2468872070313
 30
0.0
 11
-168.0079040527344
 21
196.9468994140625
 31
0.0
  0
LINE
  5
150
330
22
100
AcDbEntity
  8
0
  6
Continuous
 62
     7
100
AcDbLine
 10
-174.3079071044922
 20
203.2468872070313
 30
0.0
 11
-173.0083160400391
 21
201.9472961425781
 31
0.0
  0
LINE
  5
151
330
22
100
AcDbEntity
  8
0
  6
Continuous
 62
     7
100
AcDbLine
 10
-163.9009552001953
 20
188.5972900390625
 30
0.0
 11
-161.7509613037109
 21
186.4472961425781
 31
0.0
  0
LINE
  5
152
330
22
100
AcDbEntity
  8
0
  6
Continuous
 62
     7
100
AcDbLine
 10
-171.3079071044922
 20
191.7616119384766
 30
0.0
 11
-165.9935913085938
 21
186.4472961425781
 31
0.0
  0
LINE
  5
153
330
22
100
AcDbEntity
  8
0
  6
Continuous
 62
     7
100
AcDbLine
 10
-119.3487243652344
 20
188.5928039550781
 30
0.0
 11
-118.3079071044922
 21
187.5519866943359
 31
0.0
  0
LINE
  5
154
330
22
100
AcDbEntity
  8
0
  6
Continuous
 62
     7
100
AcDbLine
 10
-123.5913696289063
 20
188.5928039550781
 30
0.0
 11
-121.4458694458008
 21
186.4472961425781
 31
0.0
  0
LINE
  5
155
330
22
100
AcDbEntity
  8
0
  6
Continuous
 62
     7
100
AcDbLine
 10
-127.8340072631836
 20
188.5928039550781
 30
0.0
 11
-125.6885070800781
 21
186.4472961425781
 31
0.0
  0
LINE
  5
156
330
22
100
AcDbEntity
  8
0
  6
Continuous
 62
     7
100
AcDbLine
 10
-132.0766448974609
 20
188.5928039550781
 30
0.0
 11
-129.93115234375
 21
186.4472961425781
 31
0.0
  0
LINE
  5
157
330
22
100
AcDbEntity
  8
0
  6
Continuous
 62
     7
100
AcDbLine
 10
-136.3192901611328
 20
188.5928039550781
 30
0.0
 11
-134.1737823486328
 21
186.4472961425781
 31
0.0
  0
LINE
  5
158
330
22
100
AcDbEntity
  8
0
  6
Continuous
 62
     7
100
AcDbLine
 10
-140.5664367675781
 20
188.5972900390625
 30
0.0
 11
-138.4164276123047
 21
186.4472961425781
 31
0.0
  0
LINE
  5
159
330
22
100
AcDbEntity
  8
0
  6
Continuous
 62
     7
100
AcDbLine
 10
-144.8090667724609
 20
188.5972900390625
 30
0.0
 11
-142.6590728759766
 21
186.4472961425781
 31
0.0
  0
LINE
  5
15A
330
22
100
AcDbEntity
  8
0
  6
Continuous
 62
     7
100
AcDbLine
 10
-149.0517120361328
 20
188.5972900390625
 30
0.0
 11
-146.9017181396484
 21
186.4472961425781
 31
0.0
  0
LINE
  5
15B
330
22
100
AcDbEntity
  8
0
  6
Continuous
 62
     7
100
AcDbLine
 10
-170.5238342285156
 20
210.0694274902344
 30
0.0
 11
-168.0079040527344
 21
207.5534973144531
 31
0.0
  0
LINE
  5
15C
330
22
100
AcDbEntity
  8
0
  6
Continuous
 62
     7
100
AcDbLine
 10
-153.2943572998047
 20
188.5972900390625
 30
0.0
 11
-151.1443481445313
 21
186.4472961425781
 31
0.0
  0
LINE
  5
15D
330
22
100
AcDbEntity
  8
0
  6
Continuous
 62
     7
100
AcDbLine
 10
-172.0666198730469
 20
207.3695678710938
 30
0.0
 11
-168.0079040527344
 21
203.3108520507813
 31
0.0
  0
LINE
  5
15E
330
22
100
AcDbEntity
  8
0
  6
Continuous
 62
     7
100
AcDbLine
 10
-157.5369873046875
 20
188.5972900390625
 30
0.0
 11
-155.3869934082031
 21
186.4472961425781
 31
0.0
  0
LINE
  5
15F
330
22
100
AcDbEntity
  8
0
  6
Continuous
 62
     7
100
AcDbLine
 10
-173.6093902587891
 20
204.6696929931641
 30
0.0
 11
-168.0079040527344
 21
199.0682067871094
 31
0.0
  0
LINE
  5
160
330
22
100
AcDbEntity
  8
0
  6
Continuous
 62
     7
100
AcDbLine
 10
-161.7796325683594
 20
188.5972900390625
 30
0.0
 11
-159.629638671875
 21
186.4472961425781
 31
0.0
  0
LINE
  5
161
330
22
100
AcDbEntity
  8
0
  6
Continuous
 62
     7
100
AcDbLine
 10
-171.3079071044922
 20
198.1255798339844
 30
0.0
 11
-169.379638671875
 21
196.1972961425781
 31
0.0
  0
LINE
  5
162
330
22
100
AcDbEntity
  8
0
  6
Continuous
 62
     7
100
AcDbLine
 10
-166.0222778320313
 20
188.5972900390625
 30
0.0
 11
-163.8722686767578
 21
186.4472961425781
 31
0.0
  0
LINE
  5
163
330
22
100
AcDbEntity
  8
0
  6
Continuous
 62
     7
100
AcDbLine
 10
-169.6222686767578
 20
192.1972961425781
 30
0.0
 11
-168.0079040527344
 21
190.5829315185547
 31
0.0
  0
LINE
  5
164
330
22
100
AcDbEntity
  8
0
  6
Continuous
 62
     7
100
AcDbLine
 10
-171.3079071044922
 20
189.6402893066406
 30
0.0
 11
-168.1149139404297
 21
186.4472961425781
 31
0.0
  0
LINE
  5
165
330
22
100
AcDbEntity
  8
0
  6
Continuous
 62
     7
100
AcDbLine
 10
-103.0079116821289
 20
187.967041015625
 30
0.0
 11
-103.0079116821289
 21
173.4472961425781
 31
0.0
  0
LINE
  5
166
330
22
100
AcDbEntity
  8
0
  6
Continuous
 62
     7
100
AcDbLine
 10
-103.0079116821289
 20
187.967041015625
 30
0.0
 11
-104.4427871704102
 21
189.4019165039063
 31
0.0
  0
LINE
  5
167
330
22
100
AcDbEntity
  8
0
  6
Continuous
 62
     7
100
AcDbLine
 10
-107.0079116821289
 20
209.6972961425781
 30
0.0
 11
-108.0079116821289
 21
208.6972961425781
 31
0.0
  0
LINE
  5
168
330
22
100
AcDbEntity
  8
0
  6
Continuous
 62
     7
100
AcDbLine
 10
-104.4427871704102
 20
189.4019165039063
 30
0.0
 11
-104.4427871704102
 21
173.4472961425781
 31
0.0
  0
LINE
  5
169
330
22
100
AcDbEntity
  8
0
  6
Continuous
 62
     7
100
AcDbLine
 10
-138.0079040527344
 20
190.0717926025391
 30
0.0
 11
-108.0079116821289
 21
190.0717926025391
 31
0.0
  0
LINE
  5
16A
330
22
100
AcDbEntity
  8
0
  6
Continuous
 62
     7
100
AcDbLine
 10
-107.0079116821289
 20
225.69970703125
 30
0.0
 11
-108.0079116821289
 21
226.69970703125
 31
0.0
  0
LINE
  5
16B
330
22
100
AcDbEntity
  8
0
  6
Continuous
 62
     7
100
AcDbLine
 10
-107.0079116821289
 20
225.69970703125
 30
0.0
 11
-108.0079116821289
 21
224.69970703125
 31
0.0
  0
LINE
  5
16C
330
22
100
AcDbEntity
  8
0
  6
Continuous
 62
     7
100
AcDbLine
 10
-107.0079116821289
 20
209.6972961425781
 30
0.0
 11
-108.0079116821289
 21
210.6972961425781
 31
0.0
  0
LINE
  5
16D
330
22
100
AcDbEntity
  8
0
  6
Continuous
 62
     7
100
AcDbLine
 10
-174.3079071044922
 20
198.3972930908203
 30
0.0
 11
-174.3079071044922
 21
189.9972991943359
 31
0.0
  0
LINE
  5
16E
330
22
100
AcDbEntity
  8
0
  6
Continuous
 62
     7
100
AcDbLine
 10
-174.3079071044922
 20
176.4472961425781
 30
0.0
 11
-171.3079071044922
 21
176.4472961425781
 31
0.0
  0
LINE
  5
16F
330
22
100
AcDbEntity
  8
0
  6
Continuous
 62
     7
100
AcDbLine
 10
-171.3079071044922
 20
196.4472961425781
 30
0.0
 11
-172.35791015625
 21
196.4472961425781
 31
0.0
  0
LINE
  5
170
330
22
100
AcDbEntity
  8
0
  6
Continuous
 62
     7
100
AcDbLine
 10
-174.3079071044922
 20
189.9972991943359
 30
0.0
 11
-172.10791015625
 21
192.1972961425781
 31
0.0
  0
LINE
  5
171
330
22
100
AcDbEntity
  8
0
  6
Continuous
 62
     7
100
AcDbLine
 10
-168.0079040527344
 20
210.4472961425781
 30
0.0
 11
-170.3079071044922
 21
210.4472961425781
 31
0.0
  0
LINE
  5
172
330
22
100
AcDbEntity
  8
0
  6
Continuous
 62
     7
100
AcDbLine
 10
-172.10791015625
 20
192.1972961425781
 30
0.0
 11
-171.7279052734375
 21
192.5773010253906
 31
0.0
  0
LINE
  5
173
330
22
100
AcDbEntity
  8
0
  6
Continuous
 62
     7
100
AcDbLine
 10
-108.0079116821289
 20
190.0717926025391
 30
0.0
 11
-108.0079116821289
 21
173.4472961425781
 31
0.0
  0
LINE
  5
174
330
22
100
AcDbEntity
  8
0
  6
Continuous
 62
     7
100
AcDbLine
 10
-164.0079040527344
 20
190.0722961425781
 30
0.0
 11
-164.0079040527344
 21
188.5972900390625
 31
0.0
  0
LINE
  5
175
330
22
100
AcDbEntity
  8
0
  6
Continuous
 62
     7
100
AcDbLine
 10
-84.53536987304687
 20
188.5443420410156
 30
0.0
 11
-84.53536987304687
 21
173.4472961425781
 31
0.0
  0
LINE
  5
176
330
22
100
AcDbEntity
  8
0
  6
Continuous
 62
     7
100
AcDbLine
 10
-83.0079116821289
 20
190.0717926025391
 30
0.0
 11
-84.53536987304687
 21
188.5443420410156
 31
0.0
  0
LINE
  5
177
330
22
100
AcDbEntity
  8
0
  6
Continuous
 62
     7
100
AcDbLine
 10
-171.3079071044922
 20
201.9472961425781
 30
0.0
 11
-171.3079071044922
 21
196.1972961425781
 31
0.0
  0
LINE
  5
178
330
22
100
AcDbEntity
  8
0
  6
Continuous
 62
     7
100
AcDbLine
 10
-174.3079071044922
 20
201.4472961425781
 30
0.0
 11
-171.3079071044922
 21
201.4472961425781
 31
0.0
  0
LINE
  5
179
330
22
100
AcDbEntity
  8
0
  6
Continuous
 62
     7
100
AcDbLine
 10
-168.3079071044922
 20
195.8172912597656
 30
0.0
 11
-168.3079071044922
 21
192.5773010253906
 31
0.0
  0
LINE
  5
17A
330
22
100
AcDbEntity
  8
0
  6
Continuous
 62
     7
100
AcDbLine
 10
-168.3079071044922
 20
192.5773010253906
 30
0.0
 11
-168.6879119873047
 21
192.1972961425781
 31
0.0
  0
LINE
  5
17B
330
22
100
AcDbEntity
  8
0
  6
Continuous
 62
     7
100
AcDbLine
 10
-174.3079071044922
 20
198.3972930908203
 30
0.0
 11
-172.10791015625
 21
196.1972961425781
 31
0.0
  0
LINE
  5
17C
330
22
100
AcDbEntity
  8
0
  6
Continuous
 62
     7
100
AcDbLine
 10
-168.0079040527344
 20
192.5773010253906
 30
0.0
 11
-171.7279052734375
 21
192.5773010253906
 31
0.0
  0
LINE
  5
17D
330
22
100
AcDbEntity
  8
0
  6
Continuous
 62
     7
100
AcDbLine
 10
-172.10791015625
 20
192.1972961425781
 30
0.0
 11
-168.3879089355469
 21
192.1972961425781
 31
0.0
  0
LINE
  5
17E
330
22
100
AcDbEntity
  8
0
  6
Continuous
 62
     7
100
AcDbLine
 10
-170.3079071044922
 20
210.4472961425781
 30
0.0
 11
-174.3079071044922
 21
203.4472961425781
 31
0.0
  0
LINE
  5
17F
330
22
100
AcDbEntity
  8
0
  6
Continuous
 62
     7
100
AcDbLine
 10
-168.0079040527344
 20
195.8172912597656
 30
0.0
 11
-171.7279052734375
 21
195.8172912597656
 31
0.0
  0
LINE
  5
180
330
22
100
AcDbEntity
  8
0
  6
Continuous
 62
     7
100
AcDbLine
 10
-172.10791015625
 20
196.1972961425781
 30
0.0
 11
-168.3879089355469
 21
196.1972961425781
 31
0.0
  0
LINE
  5
181
330
22
100
AcDbEntity
  8
0
  6
Continuous
 62
     7
100
AcDbLine
 10
-168.3879089355469
 20
196.1972961425781
 30
0.0
 11
-168.0079040527344
 21
196.1972961425781
 31
0.0
  0
LINE
  5
182
330
22
100
AcDbEntity
  8
0
  6
Continuous
 62
     7
100
AcDbLine
 10
-168.3879089355469
 20
192.1972961425781
 30
0.0
 11
-168.0079040527344
 21
192.1972961425781
 31
0.0
  0
LINE
  5
183
330
22
100
AcDbEntity
  8
0
  6
Continuous
 62
     7
100
AcDbLine
 10
-174.3079071044922
 20
201.9472961425781
 30
0.0
 11
-171.3079071044922
 21
201.9472961425781
 31
0.0
  0
LINE
  5
184
330
22
100
AcDbEntity
  8
0
  6
Continuous
 62
     7
100
AcDbLine
 10
-171.3079071044922
 20
191.9472961425781
 30
0.0
 11
-172.35791015625
 21
191.9472961425781
 31
0.0
  0
LINE
  5
185
330
22
100
AcDbEntity
  8
0
  6
Continuous
 62
     7
100
AcDbLine
 10
-168.3079071044922
 20
195.8172912597656
 30
0.0
 11
-168.6879119873047
 21
196.1972961425781
 31
0.0
  0
LINE
  5
186
330
22
100
AcDbEntity
  8
0
  6
Continuous
 62
     7
100
AcDbLine
 10
-113.0079116821289
 20
192.4472961425781
 30
0.0
 11
-137.0079040527344
 21
192.4472961425781
 31
0.0
  0
LINE
  5
187
330
22
100
AcDbEntity
  8
0
  6
Continuous
 62
     7
100
AcDbLine
 10
-138.0079040527344
 20
190.0717926025391
 30
0.0
 11
-136.5289154052734
 21
188.5928039550781
 31
0.0
  0
LINE
  5
188
330
22
100
AcDbEntity
  8
0
  6
Continuous
 62
     7
100
AcDbLine
 10
-136.5289154052734
 20
188.5928039550781
 30
0.0
 11
-109.4869079589844
 21
188.5928039550781
 31
0.0
  0
LINE
  5
189
330
22
100
AcDbEntity
  8
0
  6
Continuous
 62
     7
100
AcDbLine
 10
-170.3079071044922
 20
136.4472961425781
 30
0.0
 11
-174.3079071044922
 21
143.4472961425781
 31
0.0
  0
LINE
  5
18A
330
22
100
AcDbEntity
  8
0
  6
Continuous
 62
     7
100
AcDbLine
 10
-104.5079116821289
 20
104.9472961425781
 30
0.0
 11
-104.5079116821289
 21
173.4472961425781
 31
0.0
  0
LINE
  5
18B
330
22
100
AcDbEntity
  8
0
  6
Continuous
 62
     7
100
AcDbLine
 10
-104.5079116821289
 20
141.4472961425781
 30
0.0
 11
-103.0062255859375
 21
141.4472961425781
 31
0.0
  0
LINE
  5
18C
330
22
100
AcDbEntity
  8
0
  6
Continuous
 62
     7
100
AcDbLine
 10
-103.5079116821289
 20
153.4472961425781
 30
0.0
 11
-84.0079116821289
 21
153.4472961425781
 31
0.0
  0
LINE
  5
18D
330
22
100
AcDbEntity
  8
0
  6
Continuous
 62
     7
100
AcDbLine
 10
-108.0079116821289
 20
240.4472961425781
 30
0.0
 11
-108.0079116821289
 21
215.7576904296875
 31
0.0
  0
LINE
  5
18E
330
22
100
AcDbEntity
  8
0
  6
Continuous
 62
     7
100
AcDbLine
 10
-168.0079040527344
 20
188.5972900390625
 30
0.0
 11
-166.0079040527344
 21
188.5972900390625
 31
0.0
  0
LINE
  5
18F
330
22
100
AcDbEntity
  8
0
  6
Continuous
 62
     7
100
AcDbLine
 10
-138.0079040527344
 20
191.4472961425781
 30
0.0
 11
-138.0079040527344
 21
190.0717926025391
 31
0.0
  0
LINE
  5
190
330
22
100
AcDbEntity
  8
0
  6
Continuous
 62
     7
100
AcDbLine
 10
-119.7779083251953
 20
190.0722961425781
 30
0.0
 11
-164.0079040527344
 21
190.0722961425781
 31
0.0
  0
LINE
  5
191
330
22
100
AcDbEntity
  8
0
  6
Continuous
 62
     7
100
AcDbLine
 10
-118.3079071044922
 20
188.5972900390625
 30
0.0
 11
-166.0079040527344
 21
188.5972900390625
 31
0.0
  0
LINE
  5
192
330
22
100
AcDbEntity
  8
0
  6
Continuous
 62
     7
100
AcDbLine
 10
-109.4869079589844
 20
188.5928039550781
 30
0.0
 11
-109.4869079589844
 21
173.4472961425781
 31
0.0
  0
LINE
  5
193
330
22
100
AcDbEntity
  8
0
  6
Continuous
 62
     7
100
AcDbLine
 10
-168.0079040527344
 20
195.8172912597656
 30
0.0
 11
-168.0079040527344
 21
192.5773010253906
 31
0.0
  0
LINE
  5
194
330
22
100
AcDbEntity
  8
0
  6
Continuous
 62
     7
100
AcDbLine
 10
-138.0079040527344
 20
156.8222961425781
 30
0.0
 11
-164.0079040527344
 21
156.8222961425781
 31
0.0
  0
LINE
  5
195
330
22
100
AcDbEntity
  8
0
  6
Continuous
 62
     7
100
AcDbLine
 10
-164.0079040527344
 20
158.2973022460938
 30
0.0
 11
-138.0079040527344
 21
158.2973022460938
 31
0.0
  0
LINE
  5
196
330
22
100
AcDbEntity
  8
0
  6
Continuous
 62
     7
100
AcDbLine
 10
-164.0079040527344
 20
158.2973022460938
 30
0.0
 11
-164.0079040527344
 21
156.8222961425781
 31
0.0
  0
LINE
  5
197
330
22
100
AcDbEntity
  8
0
  6
Continuous
 62
     7
100
AcDbLine
 10
-168.0079040527344
 20
158.2973022460938
 30
0.0
 11
-164.0079040527344
 21
158.2973022460938
 31
0.0
  0
LINE
  5
198
330
22
100
AcDbEntity
  8
0
  6
Continuous
 62
     7
100
AcDbLine
 10
-92.50791168212892
 20
153.4472961425781
 30
0.0
 11
-92.50791168212892
 21
151.9604187011719
 31
0.0
  0
LINE
  5
199
330
22
100
AcDbEntity
  8
0
  6
Continuous
 62
     7
100
AcDbLine
 10
-168.0079040527344
 20
136.4472961425781
 30
0.0
 11
-170.3079071044922
 21
136.4472961425781
 31
0.0
  0
LINE
  5
19A
330
22
100
AcDbEntity
  8
0
  6
Continuous
 62
     7
100
AcDbLine
 10
-113.0079116821289
 20
154.4472961425781
 30
0.0
 11
-137.0079040527344
 21
154.4472961425781
 31
0.0
  0
LINE
  5
19B
330
22
100
AcDbEntity
  8
0
  6
Continuous
 62
     7
100
AcDbLine
 10
-105.0079116821289
 20
104.4472961425781
 30
0.0
 11
-106.0079116821289
 21
104.4472961425781
 31
0.0
  0
LINE
  5
19C
330
22
100
AcDbEntity
  8
0
  6
Continuous
 62
     7
100
AcDbLine
 10
-108.0079116821289
 20
106.4472961425781
 30
0.0
 11
-108.0079116821289
 21
173.4472961425781
 31
0.0
  0
LINE
  5
19D
330
22
100
AcDbEntity
  8
0
  6
Continuous
 62
     7
100
AcDbLine
 10
-83.0079116821289
 20
154.4472961425781
 30
0.0
 11
-83.0079116821289
 21
192.4472961425781
 31
0.0
  0
LINE
  5
19E
330
22
100
AcDbEntity
  8
0
  6
Continuous
 62
     7
100
AcDbLine
 10
-170.3079071044922
 20
138.6753845214844
 30
0.0
 11
-170.3079071044922
 21
173.4472961425781
 31
0.0
  0
LINE
  5
19F
330
22
100
AcDbEntity
  8
0
  6
Continuous
 62
     7
100
AcDbLine
 10
-138.0079040527344
 20
155.4472961425781
 30
0.0
 11
-138.0079040527344
 21
173.4472961425781
 31
0.0
  0
LINE
  5
1A0
330
22
100
AcDbEntity
  8
0
  6
Continuous
 62
     7
100
AcDbLine
 10
-168.0079040527344
 20
173.4472961425781
 30
0.0
 11
-168.0079040527344
 21
136.4472961425781
 31
0.0
  0
LINE
  5
1A1
330
22
100
AcDbEntity
  8
0
  6
Continuous
 62
     7
100
AcDbLine
 10
-164.0079040527344
 20
158.2973022460938
 30
0.0
 11
-164.0079040527344
 21
173.4472961425781
 31
0.0
  0
LINE
  5
1A2
330
22
100
AcDbEntity
  8
0
  6
Continuous
 62
     7
100
AcDbLine
 10
-174.3079071044922
 20
203.4472961425781
 30
0.0
 11
-174.3079071044922
 21
143.4472961425781
 31
0.0
  0
ARC
  5
1A3
330
22
100
AcDbEntity
  8
0
  6
Continuous
 62
     7
100
AcDbCircle
 10
-314.5416870117188
 20
173.4472961425781
 30
0.0
 40
15.00008487701416
100
AcDbArc
 50
47.92103987668929
 51
132.0813125113201
  0
ARC
  5
1A4
330
22
100
AcDbEntity
  8
0
  6
Continuous
 62
     7
100
AcDbCircle
 10
-314.5416870117188
 20
173.4472961425781
 30
0.0
 40
6.0
100
AcDbArc
 50
300.0000032912053
 51
0.0
  0
ARC
  5
1A5
330
22
100
AcDbEntity
  8
0
  6
Continuous
 62
     7
100
AcDbCircle
 10
-327.2541809082031
 20
176.1676483154297
 30
0.0
 40
2.0
100
AcDbArc
 50
60.00006956400067
 51
167.920202895345
  0
ARC
  5
1A6
330
22
100
AcDbEntity
  8
0
  6
Continuous
 62
     7
100
AcDbCircle
 10
-323.2541809082031
 20
183.0958557128906
 30
0.0
 40
2.0
100
AcDbArc
 50
132.0799116243823
 51
240.0000695640013
  0
ARC
  5
1A7
330
22
100
AcDbEntity
  8
0
  6
Continuous
 62
     7
100
AcDbCircle
 10
-310.5416870117188
 20
166.5190887451172
 30
0.0
 40
2.0
100
AcDbArc
 50
119.9999304359993
 51
180.0000000000004
  0
ARC
  5
1A8
330
22
100
AcDbEntity
  8
0
  6
Continuous
 62
     7
100
AcDbCircle
 10
-318.5416870117188
 20
166.5190887451172
 30
0.0
 40
2.0
100
AcDbArc
 50
0.0
 51
60.00006956400067
  0
CIRCLE
  5
1A9
330
22
100
AcDbEntity
  8
0
  6
Continuous
 62
     7
100
AcDbCircle
 10
-314.5416870117188
 20
173.4472961425781
 30
0.0
 40
2.5
  0
ARC
  5
1AA
330
22
100
AcDbEntity
  8
0
  6
Continuous
 62
     7
100
AcDbCircle
 10
-314.5416870117188
 20
173.4472961425781
 30
0.0
 40
12.25
100
AcDbArc
 50
39.39813172119265
 51
140.6052126252798
  0
ARC
  5
1AB
330
22
100
AcDbEntity
  8
0
  6
Continuous
 62
     7
100
AcDbCircle
 10
-318.5420532226563
 20
180.3752899169922
 30
0.0
 40
2.0
100
AcDbArc
 50
239.9998509974231
 51
300.0001490025784
  0
ARC
  5
1AC
330
22
100
AcDbEntity
  8
0
  6
Continuous
 62
     7
100
AcDbCircle
 10
-322.5420532226563
 20
173.4470977783203
 30
0.0
 40
2.0
100
AcDbArc
 50
0.0
 51
59.99985099742237
  0
ARC
  5
1AD
330
22
100
AcDbEntity
  8
0
  6
Continuous
 62
     7
100
AcDbCircle
 10
-305.8298950195313
 20
183.0962677001953
 30
0.0
 40
2.0
100
AcDbArc
 50
299.9999304360001
 51
47.92008837561772
  0
ARC
  5
1AE
330
22
100
AcDbEntity
  8
0
  6
Continuous
 62
     7
100
AcDbCircle
 10
-301.8298950195313
 20
176.1680603027344
 30
0.0
 40
2.0
100
AcDbArc
 50
12.07979710465499
 51
119.9999304359993
  0
ARC
  5
1AF
330
22
100
AcDbEntity
  8
0
  6
Continuous
 62
     7
100
AcDbCircle
 10
-306.5420532226563
 20
173.4474945068359
 30
0.0
 40
2.0
100
AcDbArc
 50
119.9999304359993
 51
180.0000000000004
  0
ARC
  5
1B0
330
22
100
AcDbEntity
  8
0
  6
Continuous
 62
     7
100
AcDbCircle
 10
-310.5420532226563
 20
180.3757019042969
 30
0.0
 40
2.0
100
AcDbArc
 50
240.0000695640013
 51
299.9999304360001
  0
ARC
  5
1B1
330
22
100
AcDbEntity
  8
0
  6
Continuous
 62
     7
100
AcDbCircle
 10
-314.5416870117188
 20
173.4472961425781
 30
0.0
 40
6.0
100
AcDbArc
 50
180.0018942391298
 51
239.9999967087962
  0
ARC
  5
1B2
330
22
100
AcDbEntity
  8
0
  6
Continuous
 62
     7
100
AcDbCircle
 10
-314.5416870117188
 20
173.4472961425781
 30
0.0
 40
6.0
100
AcDbArc
 50
60.00397237631707
 51
120.0039789437286
  0
CIRCLE
  5
1B3
330
22
100
AcDbEntity
  8
0
  6
Continuous
 62
     7
100
AcDbCircle
 10
-314.5079040527344
 20
151.5418090820313
 30
0.0
 40
4.5
  0
CIRCLE
  5
1B4
330
22
100
AcDbEntity
  8
0
  6
Continuous
 62
     7
100
AcDbCircle
 10
-314.5079040527344
 20
194.5418090820313
 30
0.0
 40
4.5
  0
ARC
  5
1B5
330
22
100
AcDbEntity
  8
0
  6
Continuous
 62
     7
100
AcDbCircle
 10
-314.5416870117188
 20
173.4472961425781
 30
0.0
 40
12.25
100
AcDbArc
 50
279.3964771027389
 51
20.60517788002905
  0
ARC
  5
1B6
330
22
100
AcDbEntity
  8
0
  6
Continuous
 62
     7
100
AcDbCircle
 10
-318.5416870117188
 20
161.0779876708984
 30
0.0
 40
2.0
100
AcDbArc
 50
252.079835629325
 51
0.0
  0
ARC
  5
1B7
330
22
100
AcDbEntity
  8
0
  6
Continuous
 62
     7
100
AcDbCircle
 10
-310.5416870117188
 20
161.0779876708984
 30
0.0
 40
2.0
100
AcDbArc
 50
180.0000000000004
 51
287.9201643706766
  0
ARC
  5
1B8
330
22
100
AcDbEntity
  8
0
  6
Continuous
 62
     7
100
AcDbCircle
 10
-314.5416870117188
 20
173.4472961425781
 30
0.0
 40
15.00008487701416
100
AcDbArc
 50
287.9202377605167
 51
12.08052582081171
  0
ARC
  5
1B9
330
22
100
AcDbEntity
  8
0
  6
Continuous
 62
     7
100
AcDbCircle
 10
-314.5416870117188
 20
173.4472961425781
 30
0.0
 40
15.0
100
AcDbArc
 50
167.7788134384536
 51
252.0797834845633
  0
CIRCLE
  5
1BA
330
22
100
AcDbEntity
  8
0
  6
Continuous
 62
     7
100
AcDbCircle
 10
-314.5079040527344
 20
173.0418090820313
 30
0.0
 40
28.0
  0
CIRCLE
  5
1BB
330
22
100
AcDbEntity
  8
0
  6
Continuous
 62
     7
100
AcDbCircle
 10
-314.5079040527344
 20
173.0418090820313
 30
0.0
 40
28.5
  0
CIRCLE
  5
1BC
330
22
100
AcDbEntity
  8
0
  6
Continuous
 62
     7
100
AcDbCircle
 10
-314.5079040527344
 20
173.4472961425781
 30
0.0
 40
51.5
  0
CIRCLE
  5
1BD
330
22
100
AcDbEntity
  8
0
  6
Continuous
 62
     7
100
AcDbCircle
 10
-314.5079040527344
 20
173.4472961425781
 30
0.0
 40
69.0
  0
CIRCLE
  5
1BE
330
22
100
AcDbEntity
  8
0
  6
Continuous
 62
     7
100
AcDbCircle
 10
-314.5079040527344
 20
173.4472961425781
 30
0.0
 40
52.5
  0
CIRCLE
  5
1BF
330
22
100
AcDbEntity
  8
0
  6
Continuous
 62
     7
100
AcDbCircle
 10
-314.5079040527344
 20
173.0418090820313
 30
0.0
 40
37.0
  0
CIRCLE
  5
1C0
330
22
100
AcDbEntity
  8
0
  6
Continuous
 62
     7
100
AcDbCircle
 10
-314.5079040527344
 20
173.4472961425781
 30
0.0
 40
53.5
  0
ARC
  5
1C1
330
22
100
AcDbEntity
  8
0
  6
Continuous
 62
     7
100
AcDbCircle
 10
-314.5416870117188
 20
173.4472961425781
 30
0.0
 40
12.25
100
AcDbArc
 50
159.3981633131764
 51
260.6035228972625
  0
ARC
  5
1C2
330
22
100
AcDbEntity
  8
0
  6
Continuous
 62
     7
100
AcDbCircle
 10
-105.0079116821289
 20
241.9472961425781
 30
0.0
 40
0.5
100
AcDbArc
 50
0.0
 51
90.00000000000019
  0
ARC
  5
1C3
330
22
100
AcDbEntity
  8
0
  6
Continuous
 62
     7
100
AcDbCircle
 10
-103.5079116821289
 20
194.4472961425781
 30
0.0
 40
1.0
100
AcDbArc
 50
180.0000000000004
 51
270.0000000000005
  0
ARC
  5
1C4
330
22
100
AcDbEntity
  8
0
  6
Continuous
 62
     7
100
AcDbCircle
 10
-113.0079116821289
 20
197.4472961425781
 30
0.0
 40
5.0
100
AcDbArc
 50
270.0000000000005
 51
0.0
  0
ARC
  5
1C5
330
22
100
AcDbEntity
  8
0
  6
Continuous
 62
     7
100
AcDbCircle
 10
-106.0079116821289
 20
240.4472961425781
 30
0.0
 40
2.0
100
AcDbArc
 50
90.00000000000019
 51
180.0000000000004
  0
ARC
  5
1C6
330
22
100
AcDbEntity
  8
0
  6
Continuous
 62
     7
100
AcDbCircle
 10
-84.0079116821289
 20
192.4472961425781
 30
0.0
 40
1.0
100
AcDbArc
 50
0.0
 51
90.00000000000019
  0
ARC
  5
1C7
330
22
100
AcDbEntity
  8
0
  6
Continuous
 62
     7
100
AcDbCircle
 10
-89.80987548828125
 20
138.7722320556641
 30
0.0
 40
12.0
100
AcDbArc
 50
109.6074577125038
 51
160.4922978213932
  0
ARC
  5
1C8
330
22
100
AcDbEntity
  8
0
  6
Continuous
 62
     7
100
AcDbCircle
 10
-113.0079116821289
 20
149.4472961425781
 30
0.0
 40
5.0
100
AcDbArc
 50
0.0
 51
90.00000000000019
  0
ARC
  5
1C9
330
22
100
AcDbEntity
  8
0
  6
Continuous
 62
     7
100
AcDbCircle
 10
-103.5079116821289
 20
152.4472961425781
 30
0.0
 40
1.0
100
AcDbArc
 50
90.00000000000019
 51
180.0000000000004
  0
ARC
  5
1CA
330
22
100
AcDbEntity
  8
0
  6
Continuous
 62
     7
100
AcDbCircle
 10
-105.0079116821289
 20
104.9472961425781
 30
0.0
 40
0.5
100
AcDbArc
 50
270.0000000000005
 51
0.0
  0
ARC
  5
1CB
330
22
100
AcDbEntity
  8
0
  6
Continuous
 62
     7
100
AcDbCircle
 10
-103.0062255859375
 20
143.4472961425781
 30
0.0
 40
2.0
100
AcDbArc
 50
270.0000000000005
 51
340.4924351679499
  0
ARC
  5
1CC
330
22
100
AcDbEntity
  8
0
  6
Continuous
 62
     7
100
AcDbCircle
 10
-137.0079040527344
 20
191.4472961425781
 30
0.0
 40
1.0
100
AcDbArc
 50
90.00000000000019
 51
180.0000000000004
  0
ARC
  5
1CD
330
22
100
AcDbEntity
  8
0
  6
Continuous
 62
     7
100
AcDbCircle
 10
-94.50791168212893
 20
151.9604187011719
 30
0.0
 40
2.0
100
AcDbArc
 50
289.6074529981378
 51
0.0
  0
ARC
  5
1CE
330
22
100
AcDbEntity
  8
0
  6
Continuous
 62
     7
100
AcDbCircle
 10
-137.0079040527344
 20
155.4472961425781
 30
0.0
 40
1.0
100
AcDbArc
 50
180.0000000000004
 51
270.0000000000005
  0
ARC
  5
1CF
330
22
100
AcDbEntity
  8
0
  6
Continuous
 62
     7
100
AcDbCircle
 10
-84.0079116821289
 20
154.4472961425781
 30
0.0
 40
1.0
100
AcDbArc
 50
270.0000000000005
 51
0.0
  0
ARC
  5
1D0
330
22
100
AcDbEntity
  8
0
  6
Continuous
 62
     7
100
AcDbCircle
 10
-106.0079116821289
 20
106.4472961425781
 30
0.0
 40
2.0
100
AcDbArc
 50
180.0000000000004
 51
270.0000000000005
  0
TEXT
  5
1D1
330
22
100
AcDbEntity
  8
0
  6
Continuous
 62
     7
100
AcDbText
 10
-260.031792640686
 20
79.85478210449219
 30
0.0
 40
7.0
  1
ＤＬ－Ｔ４－２５
 41
0.8454512837995997
100
AcDbText
  0
DIMENSION
  5
1D2
330
22
100
AcDbEntity
  8
0
  6
Continuous
 62
     7
100
AcDbDimension
  2
*D1
 10
-108.0079116821289
 20
265.4772033691406
 30
0.0
 11
-138.0079040527344
 21
265.4772033691406
 31
0.0
 71
     5
 42
-1.0
  3
DIMSTYLE1
100
AcDbAlignedDimension
 13
-168.0079040527344
 23
210.4472961425781
 33
0.0
 14
-108.0079116821289
 24
240.4472961425781
 34
0.0
100
AcDbRotatedDimension
  0
DIMENSION
  5
1D3
330
22
100
AcDbEntity
  8
0
  6
Continuous
 62
     7
100
AcDbDimension
  2
*D2
 10
-104.5079116821289
 20
265.4772033691406
 30
0.0
 11
-94.73805236816406
 21
265.4772033691406
 31
0.0
 71
     5
 42
-1.0
  3
DIMSTYLE2
100
AcDbAlignedDimension
 13
-108.0079116821289
 23
267.76318359375
 33
0.0
 14
-104.5079116821289
 24
241.9472961425781
 34
0.0
100
AcDbRotatedDimension
  0
DIMENSION
  5
1D4
330
22
100
AcDbEntity
  8
0
  6
Continuous
 62
     7
100
AcDbDimension
  2
*D3
 10
-138.0079040527344
 20
256.7499084472656
 30
0.0
 11
-123.0079116821289
 21
256.7499084472656
 31
0.0
 71
     5
 42
-1.0
  3
DIMSTYLE3
100
AcDbAlignedDimension
 13
-108.0079116821289
 23
267.76318359375
 33
0.0
 14
-138.0079040527344
 24
191.4472961425781
 34
0.0
100
AcDbRotatedDimension
  0
DIMENSION
  5
1D5
330
22
100
AcDbEntity
  8
0
  6
Continuous
 62
     7
100
AcDbDimension
  2
*D4
 10
-83.0079116821289
 20
87.5270004272461
 30
0.0
 11
-110.5079116821289
 21
87.5270004272461
 31
0.0
 71
     5
 42
-1.0
  3
DIMSTYLE4
100
AcDbAlignedDimension
 13
-138.0079040527344
 23
155.4472961425781
 33
0.0
 14
-83.0079116821289
 24
154.4472961425781
 34
0.0
100
AcDbRotatedDimension
  0
DIMENSION
  5
1D6
330
22
100
AcDbEntity
  8
0
  6
Continuous
 62
     7
100
AcDbDimension
  2
*D5
 10
-86.84585571289062
 20
141.4472961425781
 30
0.0
 11
-86.84585571289062
 21
147.4472961425781
 31
0.0
 71
     5
 42
-1.0
  3
DIMSTYLE5
100
AcDbAlignedDimension
 13
-84.0079116821289
 23
153.4472961425781
 33
0.0
 14
-103.0062255859375
 24
141.4472961425781
 34
0.0
 50
90.0
100
AcDbRotatedDimension
  0
DIMENSION
  5
1D7
330
22
100
AcDbEntity
  8
0
  6
Continuous
 62
     7
100
AcDbDimension
  2
*D6
 10
-92.50791168212892
 20
132.1539611816406
 30
0.0
 11
-98.50791168212893
 21
132.1539611816406
 31
0.0
 71
     5
 42
-1.0
  3
DIMSTYLE6
100
AcDbAlignedDimension
 13
-104.5079116821289
 23
104.9472961425781
 33
0.0
 14
-92.50791168212892
 24
151.9604187011719
 34
0.0
100
AcDbRotatedDimension
  0
DIMENSION
  5
1D8
330
22
100
AcDbEntity
  8
0
  6
Continuous
 62
     7
100
AcDbDimension
  2
*D7
 10
-62.84680938720703
 20
193.4472961425781
 30
0.0
 11
-62.84680938720703
 21
173.4472961425781
 31
0.0
 71
     5
 42
-1.0
  3
DIMSTYLE7
100
AcDbAlignedDimension
 13
-84.0079116821289
 23
153.4472961425781
 33
0.0
 14
-84.0079116821289
 24
193.4472961425781
 34
0.0
 50
90.0
100
AcDbRotatedDimension
  0
INSERT
  5
1D9
330
22
100
AcDbEntity
  8
0
  6
Continuous
 62
     7
100
AcDbBlockReference
  2
KOZU0001
 10
-93.72534942626952
 20
189.7368621826172
 30
0.0
  0
INSERT
  5
1DA
330
22
100
AcDbEntity
  8
0
  6
Continuous
 62
     7
100
AcDbBlockReference
  2
KOZU0002
 10
-100.5764923095703
 20
149.8755035400391
 30
0.0
  0
DIMENSION
  5
1DB
330
22
100
AcDbEntity
  8
0
  6
Continuous
 62
     7
100
AcDbDimension
  2
*D8
 10
-174.3079071044922
 20
180.5472412109375
 30
0.0
 11
-146.3079071044922
 21
180.5472412109375
 31
0.0
 71
     5
 42
-1.0
  3
DIMSTYLE8
100
AcDbAlignedDimension
 13
-118.3079071044922
 23
173.4472961425781
 33
0.0
 14
-174.3079071044922
 24
203.4472961425781
 34
0.0
100
AcDbRotatedDimension
  0
DIMENSION
  5
1DC
330
22
100
AcDbEntity
  8
0
  6
Continuous
 62
     7
100
AcDbDimension
  2
*D9
 10
-348.511286896727
 20
113.4075596744284
 30
0.0
 11
-269.4428405761719
 21
253.0186462402344
 31
0.0
 70
     3
 71
     5
 42
-1.0
  3
DIMSTYLE9
100
AcDbDiametricDimension
 15
-280.5045212087417
 25
233.4870326107279
 35
0.0
 40
0.0
  0
DIMENSION
  5
1DD
330
22
100
AcDbEntity
  8
0
  6
Continuous
 62
     7
100
AcDbDimension
  2
*D10
 10
-343.1327701577559
 20
149.5978964292851
 30
0.0
 11
-245.5884094238281
 21
229.4872283935547
 31
0.0
 70
     3
 71
     5
 42
-1.0
  3
DIMSTYLE10
100
AcDbDiametricDimension
 15
-285.8830379477129
 25
196.4857217347774
 35
0.0
 40
0.0
  0
DIMENSION
  5
1DE
330
22
100
AcDbEntity
  8
0
  6
Continuous
 62
     7
100
AcDbDimension
  2
*D11
 10
-174.3079071044922
 20
265.4772033691406
 30
0.0
 11
-181.1756744384766
 21
265.4772033691406
 31
0.0
 71
     5
 42
-1.0
  3
DIMSTYLE11
100
AcDbAlignedDimension
 13
-168.0079040527344
 23
267.76318359375
 33
0.0
 14
-174.3079071044922
 24
203.4472961425781
 34
0.0
100
AcDbRotatedDimension
  0
ENDSEC
  0
SECTION
  2
OBJECTS
  0
DICTIONARY
  5
C
330
0
100
AcDbDictionary
281
     1
  3
ACAD_COLOR
350
1B
  3
ACAD_GROUP
350
D
  3
ACAD_LAYOUT
350
19
  3
ACAD_MATERIAL
350
1A
  3
ACAD_MLINESTYLE
350
16
  3
ACAD_PLOTSETTINGS
350
18
  3
ACAD_PLOTSTYLENAME
350
E
  3
ACAD_TABLESTYLE
350
1C
  3
AcDbVariableDictionary
350
1EA
  0
DICTIONARY
  5
1B
102
{ACAD_REACTORS
330
C
102
}
330
C
100
AcDbDictionary
281
     1
  0
DICTIONARY
  5
D
102
{ACAD_REACTORS
330
C
102
}
330
C
100
AcDbDictionary
281
     1
  0
DICTIONARY
  5
19
102
{ACAD_REACTORS
330
C
102
}
330
C
100
AcDbDictionary
281
     1
  3
Model
350
25
  3
レイアウト1
350
21
  0
DICTIONARY
  5
1A
102
{ACAD_REACTORS
330
C
102
}
330
C
100
AcDbDictionary
281
     1
  0
DICTIONARY
  5
16
102
{ACAD_REACTORS
330
C
102
}
330
C
100
AcDbDictionary
281
     1
  3
Standard
350
17
  0
DICTIONARY
  5
18
102
{ACAD_REACTORS
330
C
102
}
330
C
100
AcDbDictionary
281
     1
  0
ACDBDICTIONARYWDFLT
  5
E
102
{ACAD_REACTORS
330
C
102
}
330
C
100
AcDbDictionary
281
     1
  3
Normal
350
F
100
AcDbDictionaryWithDefault
340
F
  0
DICTIONARY
  5
1C
102
{ACAD_REACTORS
330
C
102
}
330
C
100
AcDbDictionary
281
     1
  3
Standard
350
1D
  0
DICTIONARY
  5
1EA
102
{ACAD_REACTORS
330
C
102
}
330
C
100
AcDbDictionary
281
     1
  3
CTABLESTYLE
350
1EB
  0
LAYOUT
  5
25
102
{ACAD_REACTORS
330
19
102
}
330
19
100
AcDbPlotSettings
  1

  2
PDF reDirect v2
  4
A3
  6

 40
3.174999952316284
 41
3.174999952316284
 42
3.17498779296875
 43
3.17498779296875
 44
297.0530090332031
 45
420.1583251953125
 46
0.0
 47
0.0
 48
0.0
 49
0.0
140
0.0
141
0.0
142
1.0
143
1.0
 70
 11952
 72
     1
 73
     1
 74
     2
  7
C:\Users\ck\AppData\Roaming\Autodesk\AutoCAD 2005\R16.1\jpn\Plot Styles\black.ctb
 75
    16
147
1.0
 76
     0
 77
     2
 78
   300
148
423.0
149
2.0
100
AcDbLayout
  1
Model
 70
     1
 71
     0
 10
0.0
 20
0.0
 11
12.0
 21
9.0
 12
0.0
 22
0.0
 32
0.0
 14
0.0
 24
0.0
 34
0.0
 15
0.0
 25
0.0
 35
0.0
146
0.0
 13
0.0
 23
0.0
 33
0.0
 16
1.0
 26
0.0
 36
0.0
 17
0.0
 27
1.0
 37
0.0
 76
     0
330
22
1001
ACAD_PSEXT
1000
PDF reDirect v2
1000
PDF reDirect Pro
1000
PDF_REDIRECT_PORT:
1000
PDF reDirect provided by EXP Systems
1070
     0
  0
LAYOUT
  5
21
102
{ACAD_REACTORS
330
19
102
}
330
19
100
AcDbPlotSettings
  1

  2
PDF reDirect v2
  4

  6

 40
0.0
 41
0.0
 42
0.0
 43
0.0
 44
0.0
 45
0.0
 46
0.0
 47
0.0
 48
0.0
 49
0.0
140
0.0
141
0.0
142
1.0
143
1.0
 70
   688
 72
     0
 73
     0
 74
     5
  7
C:\Users\ck\AppData\Roaming\Autodesk\AutoCAD 2005\R16.1\jpn\Plot Styles\black.ctb
 75
    16
147
1.0
 76
     0
 77
     2
 78
   300
148
0.0
149
0.0
100
AcDbLayout
  1
レイアウト1
 70
     1
 71
     1
 10
-423.0
 20
-2.0
 11
-5.0
 21
293.0
 12
0.0
 22
0.0
 32
0.0
 14
1.000000000000000E+20
 24
1.000000000000000E+20
 34
1.000000000000000E+20
 15
-1.000000000000000E+20
 25
-1.000000000000000E+20
 35
-1.000000000000000E+20
146
0.0
 13
0.0
 23
0.0
 33
0.0
 16
1.0
 26
0.0
 36
0.0
 17
0.0
 27
1.0
 37
0.0
 76
     0
330
1E
  0
MLINESTYLE
  5
17
102
{ACAD_REACTORS
330
16
102
}
330
16
100
AcDbMlineStyle
  2
STANDARD
 70
     0
  3

 62
   256
 51
90.0
 52
90.0
 71
     2
 49
0.5
 62
   256
  6
BYLAYER
 49
-0.5
 62
   256
  6
BYLAYER
  0
ACDBPLACEHOLDER
  5
F
102
{ACAD_REACTORS
330
E
102
}
330
E
  0
TABLESTYLE
  5
1D
102
{ACAD_REACTORS
330
1C
102
}
330
1C
100
AcDbTableStyle
  3
Standard
 70
     0
 71
     0
 40
0.06
 41
0.06
280
     0
281
     0
  7
STANDARD
140
0.18
170
     2
 62
     0
 63
     7
283
     0
274
    -2
284
     1
 64
     0
275
    -2
285
     1
 65
     0
276
    -2
286
     1
 66
     0
277
    -2
287
     1
 67
     0
278
    -2
288
     1
 68
     0
279
    -2
289
     1
 69
     0
  7
STANDARD
140
0.25
170
     5
 62
     0
 63
     7
283
     0
274
    -2
284
     1
 64
     0
275
    -2
285
     1
 65
     0
276
    -2
286
     1
 66
     0
277
    -2
287
     1
 67
     0
278
    -2
288
     1
 68
     0
279
    -2
289
     1
 69
     0
  7
STANDARD
140
0.18
170
     5
 62
     0
 63
     7
283
     0
274
    -2
284
     1
 64
     0
275
    -2
285
     1
 65
     0
276
    -2
286
     1
 66
     0
277
    -2
287
     1
 67
     0
278
    -2
288
     1
 68
     0
279
    -2
289
     1
 69
     0
  0
DICTIONARYVAR
  5
1EB
102
{ACAD_REACTORS
330
1EA
102
}
330
1EA
100
DictionaryVariables
280
     0
  1
STANDARD
  0
ENDSEC
  0
EOF
