  0
SECTION
  2
HEADER
  9
$ACADVER
  1
AC1018
  9
$ACADMAINTVER
 70
    39
  9
$DWGCODEPAGE
  3
ANSI_932
  9
$INSBASE
 10
0.0
 20
0.0
 30
0.0
  9
$EXTMIN
 10
-380.7892445830969
 20
42.64431836577637
 30
-0.0015258207003583
  9
$EXTMAX
 10
-34.900877967827
 20
264.1103827332965
 30
0.0000000349246037
  9
$LIMMIN
 10
-423.0
 20
-2.0
  9
$LIMMAX
 10
-5.0
 20
293.0
  9
$ORTHOMODE
 70
     0
  9
$REGENMODE
 70
     1
  9
$FILLMODE
 70
     1
  9
$QTEXTMODE
 70
     0
  9
$MIRRTEXT
 70
     0
  9
$LTSCALE
 40
1.0
  9
$ATTMODE
 70
     1
  9
$TEXTSIZE
 40
0.2
  9
$TRACEWID
 40
0.05
  9
$TEXTSTYLE
  7
STANDARD
  9
$CLAYER
  8
0
  9
$CELTYPE
  6
CONTINUOUS
  9
$CECOLOR
 62
   256
  9
$CELTSCALE
 40
1.0
  9
$DISPSILH
 70
     0
  9
$DIMSCALE
 40
1.0
  9
$DIMASZ
 40
1.0
  9
$DIMEXO
 40
2.54
  9
$DIMDLI
 40
0.38
  9
$DIMRND
 40
0.0
  9
$DIMDLE
 40
0.0
  9
$DIMEXE
 40
2.54
  9
$DIMTP
 40
0.0
  9
$DIMTM
 40
0.0
  9
$DIMTXT
 40
3.0
  9
$DIMCEN
 40
0.09
  9
$DIMTSZ
 40
0.0
  9
$DIMTOL
 70
     0
  9
$DIMLIM
 70
     0
  9
$DIMTIH
 70
     0
  9
$DIMTOH
 70
     0
  9
$DIMSE1
 70
     0
  9
$DIMSE2
 70
     0
  9
$DIMTAD
 70
     1
  9
$DIMZIN
 70
     0
  9
$DIMBLK
  1

  9
$DIMASO
 70
     1
  9
$DIMSHO
 70
     0
  9
$DIMPOST
  1

  9
$DIMAPOST
  1

  9
$DIMALT
 70
     0
  9
$DIMALTD
 70
     2
  9
$DIMALTF
 40
25.4
  9
$DIMLFAC
 40
1.0
  9
$DIMTOFL
 70
     0
  9
$DIMTVP
 40
1.0
  9
$DIMTIX
 70
     0
  9
$DIMSOXD
 70
     0
  9
$DIMSAH
 70
     1
  9
$DIMBLK1
  1

  9
$DIMBLK2
  1

  9
$DIMSTYLE
  2
DIMSTYLE1
  9
$DIMCLRD
 70
     0
  9
$DIMCLRE
 70
     0
  9
$DIMCLRT
 70
     0
  9
$DIMTFAC
 40
1.0
  9
$DIMGAP
 40
1.5
  9
$DIMJUST
 70
     0
  9
$DIMSD1
 70
     0
  9
$DIMSD2
 70
     0
  9
$DIMTOLJ
 70
     1
  9
$DIMTZIN
 70
     0
  9
$DIMALTZ
 70
     0
  9
$DIMALTTZ
 70
     0
  9
$DIMUPT
 70
     0
  9
$DIMDEC
 70
     4
  9
$DIMTDEC
 70
     4
  9
$DIMALTU
 70
     2
  9
$DIMALTTD
 70
     2
  9
$DIMTXSTY
  7
STANDARD
  9
$DIMAUNIT
 70
     0
  9
$DIMADEC
 70
     0
  9
$DIMALTRND
 40
0.0
  9
$DIMAZIN
 70
     0
  9
$DIMDSEP
 70
    46
  9
$DIMATFIT
 70
     3
  9
$DIMFRAC
 70
     0
  9
$DIMLDRBLK
  1

  9
$DIMLUNIT
 70
     2
  9
$DIMLWD
 70
    -2
  9
$DIMLWE
 70
    -2
  9
$DIMTMOVE
 70
     0
  9
$LUNITS
 70
     2
  9
$LUPREC
 70
     4
  9
$SKETCHINC
 40
0.1
  9
$FILLETRAD
 40
0.0
  9
$AUNITS
 70
     0
  9
$AUPREC
 70
     0
  9
$MENU
  1
.
  9
$ELEVATION
 40
0.0
  9
$PELEVATION
 40
0.0
  9
$THICKNESS
 40
0.0
  9
$LIMCHECK
 70
     0
  9
$CHAMFERA
 40
0.0
  9
$CHAMFERB
 40
0.0
  9
$CHAMFERC
 40
0.0
  9
$CHAMFERD
 40
0.0
  9
$SKPOLY
 70
     0
  9
$TDCREATE
 40
2457842.629599641
  9
$TDUCREATE
 40
2457842.254599641
  9
$TDUPDATE
 40
2457842.630100903
  9
$TDUUPDATE
 40
2457842.255100903
  9
$TDINDWG
 40
0.0005023032
  9
$TDUSRTIMER
 40
0.0005023032
  9
$USRTIMER
 70
     1
  9
$ANGBASE
 50
0.0
  9
$ANGDIR
 70
     0
  9
$PDMODE
 70
     0
  9
$PDSIZE
 40
0.0
  9
$PLINEWID
 40
0.0
  9
$SPLFRAME
 70
     0
  9
$SPLINETYPE
 70
     6
  9
$SPLINESEGS
 70
     8
  9
$HANDSEED
  5
205
  9
$SURFTAB1
 70
     6
  9
$SURFTAB2
 70
     6
  9
$SURFTYPE
 70
     6
  9
$SURFU
 70
     6
  9
$SURFV
 70
     6
  9
$UCSBASE
  2

  9
$UCSNAME
  2

  9
$UCSORG
 10
0.0
 20
0.0
 30
0.0
  9
$UCSXDIR
 10
1.0
 20
0.0
 30
0.0
  9
$UCSYDIR
 10
0.0
 20
1.0
 30
0.0
  9
$UCSORTHOREF
  2

  9
$UCSORTHOVIEW
 70
     0
  9
$UCSORGTOP
 10
0.0
 20
0.0
 30
0.0
  9
$UCSORGBOTTOM
 10
0.0
 20
0.0
 30
0.0
  9
$UCSORGLEFT
 10
0.0
 20
0.0
 30
0.0
  9
$UCSORGRIGHT
 10
0.0
 20
0.0
 30
0.0
  9
$UCSORGFRONT
 10
0.0
 20
0.0
 30
0.0
  9
$UCSORGBACK
 10
0.0
 20
0.0
 30
0.0
  9
$PUCSBASE
  2

  9
$PUCSNAME
  2

  9
$PUCSORG
 10
0.0
 20
0.0
 30
0.0
  9
$PUCSXDIR
 10
1.0
 20
0.0
 30
0.0
  9
$PUCSYDIR
 10
0.0
 20
1.0
 30
0.0
  9
$PUCSORTHOREF
  2

  9
$PUCSORTHOVIEW
 70
     0
  9
$PUCSORGTOP
 10
0.0
 20
0.0
 30
0.0
  9
$PUCSORGBOTTOM
 10
0.0
 20
0.0
 30
0.0
  9
$PUCSORGLEFT
 10
0.0
 20
0.0
 30
0.0
  9
$PUCSORGRIGHT
 10
0.0
 20
0.0
 30
0.0
  9
$PUCSORGFRONT
 10
0.0
 20
0.0
 30
0.0
  9
$PUCSORGBACK
 10
0.0
 20
0.0
 30
0.0
  9
$USERI1
 70
     0
  9
$USERI2
 70
     0
  9
$USERI3
 70
     0
  9
$USERI4
 70
     0
  9
$USERI5
 70
     0
  9
$USERR1
 40
0.0
  9
$USERR2
 40
0.0
  9
$USERR3
 40
0.0
  9
$USERR4
 40
0.0
  9
$USERR5
 40
0.0
  9
$WORLDVIEW
 70
     1
  9
$SHADEDGE
 70
     3
  9
$SHADEDIF
 70
    70
  9
$TILEMODE
 70
     1
  9
$MAXACTVP
 70
    64
  9
$PINSBASE
 10
0.0
 20
0.0
 30
0.0
  9
$PLIMCHECK
 70
     0
  9
$PEXTMIN
 10
1.000000000000000E+20
 20
1.000000000000000E+20
 30
1.000000000000000E+20
  9
$PEXTMAX
 10
-1.000000000000000E+20
 20
-1.000000000000000E+20
 30
-1.000000000000000E+20
  9
$PLIMMIN
 10
-423.0
 20
-2.0
  9
$PLIMMAX
 10
-5.0
 20
293.0
  9
$UNITMODE
 70
     0
  9
$VISRETAIN
 70
     1
  9
$PLINEGEN
 70
     0
  9
$PSLTSCALE
 70
     1
  9
$TREEDEPTH
 70
  3020
  9
$CMLSTYLE
  2
Standard
  9
$CMLJUST
 70
     0
  9
$CMLSCALE
 40
1.0
  9
$PROXYGRAPHICS
 70
     1
  9
$MEASUREMENT
 70
     0
  9
$CELWEIGHT
370
    -1
  9
$ENDCAPS
280
     0
  9
$JOINSTYLE
280
     0
  9
$LWDISPLAY
290
     0
  9
$INSUNITS
 70
     0
  9
$HYPERLINKBASE
  1

  9
$STYLESHEET
  1

  9
$XEDIT
290
     1
  9
$CEPSNTYPE
380
     0
  9
$PSTYLEMODE
290
     1
  9
$FINGERPRINTGUID
  2
{6FC08835-B217-4BD9-8997-AA679174A673}
  9
$VERSIONGUID
  2
{B72DEE4A-6D68-44F2-BC2C-2A3FFC615D50}
  9
$EXTNAMES
290
     1
  9
$PSVPSCALE
 40
0.0
  9
$OLESTARTUP
290
     0
  9
$SORTENTS
280
   127
  9
$INDEXCTL
280
     0
  9
$HIDETEXT
280
     0
  9
$XCLIPFRAME
290
     0
  9
$HALOGAP
280
     0
  9
$OBSCOLOR
 70
   257
  9
$OBSLTYPE
280
     0
  9
$INTERSECTIONDISPLAY
280
     0
  9
$INTERSECTIONCOLOR
 70
   257
  9
$DIMASSOC
280
     1
  9
$PROJECTNAME
  1

  0
ENDSEC
  0
SECTION
  2
CLASSES
  0
CLASS
  1
ACDBDICTIONARYWDFLT
  2
AcDbDictionaryWithDefault
  3
ObjectDBX Classes
 90
        0
 91
        1
280
     0
281
     0
  0
CLASS
  1
TABLESTYLE
  2
AcDbTableStyle
  3
ObjectDBX Classes
 90
     2047
 91
        1
280
     0
281
     0
  0
CLASS
  1
DICTIONARYVAR
  2
AcDbDictionaryVar
  3
ObjectDBX Classes
 90
        0
 91
        1
280
     0
281
     0
  0
ENDSEC
  0
SECTION
  2
TABLES
  0
TABLE
  2
VPORT
  5
8
330
0
100
AcDbSymbolTable
 70
     2
  0
VPORT
  5
204
330
8
100
AcDbSymbolTableRecord
100
AcDbViewportTableRecord
  2
*Active
 70
     0
 10
0.0
 20
0.0
 11
1.0
 21
1.0
 12
-214.0
 22
145.5
 13
0.0
 23
0.0
 14
1.0
 24
1.0
 15
0.0
 25
0.0
 16
0.0
 26
0.0
 36
1.0
 17
0.0
 27
0.0
 37
0.0
 40
297.3320158102766
 41
1.707124010554089
 42
50.0
 43
0.0
 44
0.0
 50
0.0
 51
0.0
 71
     0
 72
   100
 73
     1
 74
     1
 75
     0
 76
     0
 77
     0
 78
     0
281
     0
 65
     1
110
0.0
120
0.0
130
0.0
111
1.0
121
0.0
131
0.0
112
0.0
122
1.0
132
0.0
 79
     0
146
0.0
  0
ENDTAB
  0
TABLE
  2
LTYPE
  5
5
330
0
100
AcDbSymbolTable
 70
     6
  0
LTYPE
  5
13
330
5
100
AcDbSymbolTableRecord
100
AcDbLinetypeTableRecord
  2
ByBlock
 70
     0
  3

 72
    65
 73
     0
 40
0.0
  0
LTYPE
  5
14
330
5
100
AcDbSymbolTableRecord
100
AcDbLinetypeTableRecord
  2
ByLayer
 70
     0
  3

 72
    65
 73
     0
 40
0.0
  0
LTYPE
  5
15
330
5
100
AcDbSymbolTableRecord
100
AcDbLinetypeTableRecord
  2
CONTINUOUS
 70
     0
  3
Solid line
 72
    65
 73
     0
 40
0.0
  0
LTYPE
  5
26
330
5
100
AcDbSymbolTableRecord
100
AcDbLinetypeTableRecord
  2
DASHED
 70
     0
  3
__ __ __ __ __ __ __ __ __ __ __ __ __ __ __
 72
    65
 73
     2
 40
3.5
 49
2.0
 74
     0
 49
-1.5
 74
     0
  0
LTYPE
  5
27
330
5
100
AcDbSymbolTableRecord
100
AcDbLinetypeTableRecord
  2
CENTER
 70
     0
  3
____ _ ____ _ ____ _ ____ _ ____ _ ____ _ ____
 72
    65
 73
     4
 40
17.5
 49
13.0
 74
     0
 49
-1.5
 74
     0
 49
1.5
 74
     0
 49
-1.5
 74
     0
  0
LTYPE
  5
28
330
5
100
AcDbSymbolTableRecord
100
AcDbLinetypeTableRecord
  2
PHANTOM
 70
     0
  3
_____ _ _ _____ _ _ _____ _ _ _____ _ _ ____  
 72
    65
 73
     6
 40
15.5
 49
8.0
 74
     0
 49
-1.5
 74
     0
 49
1.5
 74
     0
 49
-1.5
 74
     0
 49
1.5
 74
     0
 49
-1.5
 74
     0
  0
LTYPE
  5
29
330
5
100
AcDbSymbolTableRecord
100
AcDbLinetypeTableRecord
  2
DOT
 70
     0
  3
. . . . . . . . . . . . . . . . . . . . . . . .
 72
    65
 73
     2
 40
0.25
 49
0.0
 74
     0
 49
-0.25
 74
     0
  0
LTYPE
  5
2A
330
5
100
AcDbSymbolTableRecord
100
AcDbLinetypeTableRecord
  2
HIDDEN
 70
     0
  3
__ __ __ __ __ __ __ __ __ __ __ __ __ __ __
 72
    65
 73
     2
 40
3.5
 49
2.0
 74
     0
 49
-1.5
 74
     0
  0
ENDTAB
  0
TABLE
  2
LAYER
  5
2
330
0
100
AcDbSymbolTable
 70
     3
  0
LAYER
  5
10
330
2
100
AcDbSymbolTableRecord
100
AcDbLayerTableRecord
  2
0
 70
     0
 62
     7
  6
CONTINUOUS
370
    -3
390
F
  0
LAYER
  5
2B
330
2
100
AcDbSymbolTableRecord
100
AcDbLayerTableRecord
  2
1
 70
     0
 62
     7
  6
CONTINUOUS
370
    -3
390
F
  0
LAYER
  5
2C
330
2
100
AcDbSymbolTableRecord
100
AcDbLayerTableRecord
  2
DEFPOINTS
 70
     0
 62
     7
  6
CONTINUOUS
290
     0
370
    -3
390
F
  0
ENDTAB
  0
TABLE
  2
STYLE
  5
3
330
0
100
AcDbSymbolTable
 70
     2
  0
STYLE
  5
11
330
3
100
AcDbSymbolTableRecord
100
AcDbTextStyleTableRecord
  2
STANDARD
 70
     0
 40
0.0
 41
1.0
 50
0.0
 71
     0
 42
0.2
  3

  4

1001
ACAD
1000
MS Gothic
1071
    32817
  0
ENDTAB
  0
TABLE
  2
VIEW
  5
6
330
0
100
AcDbSymbolTable
 70
     0
  0
ENDTAB
  0
TABLE
  2
UCS
  5
7
330
0
100
AcDbSymbolTable
 70
     0
  0
ENDTAB
  0
TABLE
  2
APPID
  5
9
330
0
100
AcDbSymbolTable
 70
     2
  0
APPID
  5
12
330
9
100
AcDbSymbolTableRecord
100
AcDbRegAppTableRecord
  2
ACAD
 70
     0
  0
APPID
  5
1F9
330
9
100
AcDbSymbolTableRecord
100
AcDbRegAppTableRecord
  2
ACAD_PSEXT
 70
     0
  0
ENDTAB
  0
TABLE
  2
DIMSTYLE
  5
A
330
0
100
AcDbSymbolTable
 70
     4
100
AcDbDimStyleTable
 71
     1
340
2D
  0
DIMSTYLE
105
2D
102
{ACAD_REACTORS
330
1F3
102
}
330
A
100
AcDbSymbolTableRecord
100
AcDbDimStyleTableRecord
  2
DIMSTYLE1
 70
     0
 41
1.0
 42
2.54
 44
2.54
 73
     0
 74
     0
 75
     1
 76
     1
 77
     1
140
3.0
145
1.0
147
1.5
172
     1
173
     1
279
     2
340
11
  0
DIMSTYLE
105
2E
102
{ACAD_REACTORS
330
1F4
102
}
330
A
100
AcDbSymbolTableRecord
100
AcDbDimStyleTableRecord
  2
DIMSTYLE2
 70
     0
 41
1.0
 42
2.54
 44
2.54
 73
     0
 74
     0
 75
     1
 76
     1
 77
     1
140
3.0
145
1.0
147
1.5
172
     1
173
     1
279
     2
340
11
  0
DIMSTYLE
105
2F
102
{ACAD_REACTORS
330
1F5
102
}
330
A
100
AcDbSymbolTableRecord
100
AcDbDimStyleTableRecord
  2
DIMSTYLE3
 70
     0
 41
1.0
 42
2.54
 44
2.54
 73
     0
 74
     0
 77
     1
140
3.0
145
1.0
147
1.5
172
     1
173
     1
279
     2
340
11
  0
ENDTAB
  0
TABLE
  2
BLOCK_RECORD
  5
1
330
0
100
AcDbSymbolTable
 70
     6
  0
BLOCK_RECORD
  5
22
330
1
100
AcDbSymbolTableRecord
100
AcDbBlockTableRecord
  2
*Model_Space
340
25
  0
BLOCK_RECORD
  5
1E
330
1
100
AcDbSymbolTableRecord
100
AcDbBlockTableRecord
  2
*Paper_Space
340
21
  0
BLOCK_RECORD
  5
33
330
1
100
AcDbSymbolTableRecord
100
AcDbBlockTableRecord
  2
_OPEN30
340
0
102
{BLKREFS
331
3D
331
3E
331
47
331
48
331
50
331
51
102
}
  0
BLOCK_RECORD
  5
39
330
1
100
AcDbSymbolTableRecord
100
AcDbBlockTableRecord
  2
*D1
340
0
  0
BLOCK_RECORD
  5
43
330
1
100
AcDbSymbolTableRecord
100
AcDbBlockTableRecord
  2
*D2
340
0
  0
BLOCK_RECORD
  5
4D
330
1
100
AcDbSymbolTableRecord
100
AcDbBlockTableRecord
  2
*D3
340
0
  0
BLOCK_RECORD
  5
59
330
1
100
AcDbSymbolTableRecord
100
AcDbBlockTableRecord
  2
KOZU0001
340
0
102
{BLKREFS
331
1F6
102
}
  0
ENDTAB
  0
ENDSEC
  0
SECTION
  2
BLOCKS
  0
BLOCK
  5
23
330
22
100
AcDbEntity
  8
0
100
AcDbBlockBegin
  2
*Model_Space
 70
     0
 10
0.0
 20
0.0
 30
0.0
  3
*Model_Space
  1

  0
ENDBLK
  5
24
330
22
100
AcDbEntity
  8
0
100
AcDbBlockEnd
  0
BLOCK
  5
1F
330
1E
100
AcDbEntity
 67
     1
  8
0
100
AcDbBlockBegin
  2
*Paper_Space
 70
     0
 10
0.0
 20
0.0
 30
0.0
  3
*Paper_Space
  1

  0
ENDBLK
  5
20
330
1E
100
AcDbEntity
 67
     1
  8
0
100
AcDbBlockEnd
  0
BLOCK
  5
34
330
33
100
AcDbEntity
  8
0
100
AcDbBlockBegin
  2
_OPEN30
 70
     0
 10
0.0
 20
0.0
 30
0.0
  3
_OPEN30
  1

  0
LINE
  5
35
330
33
100
AcDbEntity
  8
0
  6
ByBlock
 62
     0
100
AcDbLine
 10
0.0
 20
0.0
 30
0.0
 11
-2.999999999999993
 21
-1.000000000000017
 31
0.0
  0
LINE
  5
36
330
33
100
AcDbEntity
  8
0
  6
ByBlock
 62
     0
100
AcDbLine
 10
0.0
 20
0.0
 30
0.0
 11
-3.000000000000006
 21
0.9999999999999815
 31
0.0
  0
LINE
  5
37
330
33
100
AcDbEntity
  8
0
  6
ByBlock
 62
     0
100
AcDbLine
 10
0.0
 20
0.0
 30
0.0
 11
-3.0
 21
0.0
 31
0.0
  0
ENDBLK
  5
38
330
33
100
AcDbEntity
  8
0
100
AcDbBlockEnd
  0
BLOCK
  5
3A
330
39
100
AcDbEntity
  8
0
100
AcDbBlockBegin
  2
*D1
 70
     1
 10
0.0
 20
0.0
 30
0.0
  3
*D1
  1

  0
LINE
  5
3B
330
39
100
AcDbEntity
  8
0
  6
Continuous
 62
     7
100
AcDbLine
 10
-207.0943603515625
 20
178.6009979248047
 30
0.0
 11
-156.4236145019531
 21
190.9507751464844
 31
0.0
  0
LINE
  5
3C
330
39
100
AcDbEntity
  8
0
  6
Continuous
 62
     7
100
AcDbLine
 10
-355.7430047756026
 20
142.3714999278541
 30
0.0
 11
-210.0090399021318
 21
177.8906155506616
 31
0.0
  0
INSERT
  5
3D
330
39
100
AcDbEntity
  8
0
  6
Continuous
 62
     7
100
AcDbBlockReference
  2
_OPEN30
 10
-358.6576843261719
 20
141.6611175537109
 30
0.0
 50
193.6974039154028
  0
INSERT
  5
3E
330
39
100
AcDbEntity
  8
0
  6
Continuous
 62
     7
100
AcDbBlockReference
  2
_OPEN30
 10
-207.0943603515625
 20
178.6009979248047
 30
0.0
 50
13.69740391540212
  0
TEXT
  5
3F
330
39
100
AcDbEntity
  8
0
  6
Continuous
 62
     7
100
AcDbText
 10
-184.9123539977409
 20
184.7786012321755
 30
0.0
 40
3.0
  1
%%C１５６（目皿外径）
 50
13.70000026740074
 41
0.8443929326254473
100
AcDbText
  0
POINT
  5
40
330
39
100
AcDbEntity
  8
DEFPOINTS
  6
Continuous
 62
     7
100
AcDbPoint
 10
-358.6576843261719
 20
141.6611175537109
 30
0.0
  0
POINT
  5
41
330
39
100
AcDbEntity
  8
DEFPOINTS
  6
Continuous
 62
     7
100
AcDbPoint
 10
-207.0943603515625
 20
178.6009979248047
 30
0.0
  0
ENDBLK
  5
42
330
39
100
AcDbEntity
  8
0
100
AcDbBlockEnd
  0
BLOCK
  5
44
330
43
100
AcDbEntity
  8
0
100
AcDbBlockBegin
  2
*D2
 70
     1
 10
0.0
 20
0.0
 30
0.0
  3
*D2
  1

  0
LINE
  5
45
330
43
100
AcDbEntity
  8
0
  6
Continuous
 62
     7
100
AcDbLine
 10
-204.7348175048828
 20
205.7841186523438
 30
0.0
 11
-166.7877655029297
 21
227.9542388916016
 31
0.0
  0
LINE
  5
46
330
43
100
AcDbEntity
  8
0
  6
Continuous
 62
     7
100
AcDbLine
 10
-358.4269261633772
 20
115.9913578638524
 30
0.0
 11
-207.3251337731463
 21
204.2707576146632
 31
0.0
  0
INSERT
  5
47
330
43
100
AcDbEntity
  8
0
  6
Continuous
 62
     7
100
AcDbBlockReference
  2
_OPEN30
 10
-361.0172424316406
 20
114.4779968261719
 30
0.0
 50
210.2950930870423
  0
INSERT
  5
48
330
43
100
AcDbEntity
  8
0
  6
Continuous
 62
     7
100
AcDbBlockReference
  2
_OPEN30
 10
-204.7348175048828
 20
205.7841186523438
 30
0.0
 50
30.29509308704156
  0
TEXT
  5
49
330
43
100
AcDbEntity
  8
0
  6
Continuous
 62
     7
100
AcDbText
 10
-194.9163860662376
 20
212.3874437161768
 30
0.0
 40
3.0
  1
%%C１８１（目皿受外径）
 50
30.29999981864594
 41
0.8440126077968535
100
AcDbText
  0
POINT
  5
4A
330
43
100
AcDbEntity
  8
DEFPOINTS
  6
Continuous
 62
     7
100
AcDbPoint
 10
-361.0172424316406
 20
114.4779968261719
 30
0.0
  0
POINT
  5
4B
330
43
100
AcDbEntity
  8
DEFPOINTS
  6
Continuous
 62
     7
100
AcDbPoint
 10
-204.7348175048828
 20
205.7841186523438
 30
0.0
  0
ENDBLK
  5
4C
330
43
100
AcDbEntity
  8
0
100
AcDbBlockEnd
  0
BLOCK
  5
4E
330
4D
100
AcDbEntity
  8
0
100
AcDbBlockBegin
  2
*D3
 70
     1
 10
0.0
 20
0.0
 30
0.0
  3
*D3
  1

  0
LINE
  5
4F
330
4D
100
AcDbEntity
  8
0
  6
Continuous
 62
     7
100
AcDbLine
 10
-127.1461944580078
 20
259.9912414550781
 30
0.0
 11
-72.14618682861328
 21
259.9912414550781
 31
0.0
  0
INSERT
  5
50
330
4D
100
AcDbEntity
  8
0
  6
Continuous
 62
     7
100
AcDbBlockReference
  2
_OPEN30
 10
-130.1461944580078
 20
259.9912414550781
 30
0.0
 50
180.0000000000004
  0
INSERT
  5
51
330
4D
100
AcDbEntity
  8
0
  6
Continuous
 62
     7
100
AcDbBlockReference
  2
_OPEN30
 10
-69.14618682861328
 20
259.9912414550781
 30
0.0
  0
LINE
  5
52
330
4D
100
AcDbEntity
  8
0
  6
Continuous
 62
     7
100
AcDbLine
 10
-130.1461944580078
 20
253.1710577392578
 30
0.0
 11
-130.1461944580078
 21
262.2772521972656
 31
0.0
  0
LINE
  5
53
330
4D
100
AcDbEntity
  8
0
  6
Continuous
 62
     7
100
AcDbLine
 10
-69.1461868286133
 20
210.6340551757812
 30
0.0
 11
-69.14618682861328
 21
262.2772521972656
 31
0.0
  0
TEXT
  5
54
330
4D
100
AcDbEntity
  8
0
  6
Continuous
 62
     7
100
AcDbText
 10
-102.21618694067
 20
260.7412414550781
 30
0.0
 40
3.0
  1
61
 41
1.186153870362501
100
AcDbText
  0
POINT
  5
55
330
4D
100
AcDbEntity
  8
DEFPOINTS
  6
Continuous
 62
     7
100
AcDbPoint
 10
-130.1461944580078
 20
250.6310577392578
 30
0.0
  0
POINT
  5
56
330
4D
100
AcDbEntity
  8
DEFPOINTS
  6
Continuous
 62
     7
100
AcDbPoint
 10
-69.14618682861328
 20
208.0940551757813
 30
0.0
  0
POINT
  5
57
330
4D
100
AcDbEntity
  8
DEFPOINTS
  6
Continuous
 62
     7
100
AcDbPoint
 10
-69.14618682861328
 20
259.9912414550781
 30
0.0
  0
ENDBLK
  5
58
330
4D
100
AcDbEntity
  8
0
100
AcDbBlockEnd
  0
BLOCK
  5
5A
330
59
100
AcDbEntity
  8
0
100
AcDbBlockBegin
  2
KOZU0001
 70
     0
 10
0.0
 20
0.0
 30
0.0
  3
KOZU0001
  1

  0
LINE
  5
5B
330
59
100
AcDbEntity
  8
0
  6
Continuous
 62
     7
100
AcDbLine
 10
0.0
 20
0.0
 30
0.0
 11
13.32505035400391
 21
-15.29066467285156
 31
0.0
  0
LINE
  5
5C
330
59
100
AcDbEntity
  8
0
  6
Continuous
 62
     7
100
AcDbLine
 10
13.32505035400391
 20
-15.29066467285156
 30
0.0
 11
41.26782226562499
 21
-15.29066467285156
 31
0.0
  0
LINE
  5
5D
330
59
100
AcDbEntity
  8
0
  6
Continuous
 62
     7
100
AcDbLine
 10
0.0
 20
0.0
 30
0.0
 11
2.724863927669236
 21
-1.604716976817715
 31
0.0
  0
LINE
  5
5E
330
59
100
AcDbEntity
  8
0
  6
Continuous
 62
     7
100
AcDbLine
 10
0.0
 20
0.0
 30
0.0
 11
1.21706095604476
 21
-2.918691938055713
 31
0.0
  0
TEXT
  5
5F
330
59
100
AcDbEntity
  8
0
  6
Continuous
 62
     7
100
AcDbText
 10
16.4078209400177
 20
-14.54066467285156
 30
0.0
 40
3.0
  1
配管接続口
 41
0.8487395020950888
100
AcDbText
  0
TEXT
  5
60
330
59
100
AcDbEntity
  8
0
  6
Continuous
 62
     7
100
AcDbText
 10
16.4078209400177
 20
-19.80566467285155
 30
0.0
 40
3.0
  1
Ｒｃ３（８０Ａ）
 41
0.8454512278006642
100
AcDbText
  0
ENDBLK
  5
61
330
59
100
AcDbEntity
  8
0
100
AcDbBlockEnd
  0
ENDSEC
  0
SECTION
  2
ENTITIES
  0
LINE
  5
62
330
22
100
AcDbEntity
  8
0
  6
Continuous
 62
     7
100
AcDbLine
 10
-130.1461944580078
 20
69.63105773925781
 30
0.0
 11
-130.1461944580078
 21
219.5529022216797
 31
0.0
  0
LINE
  5
63
330
22
100
AcDbEntity
  8
0
  6
Continuous
 62
     7
100
AcDbLine
 10
-114.1461868286133
 20
79.28731536865234
 30
0.0
 11
-114.1461868286133
 21
160.1310577392578
 31
0.0
  0
LINE
  5
64
330
22
100
AcDbEntity
  8
0
  6
Continuous
 62
     7
100
AcDbLine
 10
-126.1461868286133
 20
69.63105773925781
 30
0.0
 11
-126.1461868286133
 21
160.1310577392578
 31
0.0
  0
LINE
  5
65
330
22
100
AcDbEntity
  8
0
  6
Continuous
 62
     7
100
AcDbLine
 10
-100.2834396362305
 20
109.2861709594727
 30
0.0
 11
-100.2834396362305
 21
160.1310577392578
 31
0.0
  0
LINE
  5
66
330
22
100
AcDbEntity
  8
0
  6
Continuous
 62
     7
100
AcDbLine
 10
-99.20302581787108
 20
160.1310577392578
 30
0.0
 11
-99.20302581787108
 21
125.5434875488281
 31
0.0
  0
LINE
  5
67
330
22
100
AcDbEntity
  8
0
  6
Continuous
 62
     7
100
AcDbLine
 10
-69.14618682861328
 20
122.5434875488281
 30
0.0
 11
-99.20302581787108
 21
122.5434875488281
 31
0.0
  0
LINE
  5
68
330
22
100
AcDbEntity
  8
0
  6
Continuous
 62
     7
100
AcDbLine
 10
-69.14618682861328
 20
125.5434875488281
 30
0.0
 11
-99.20302581787108
 21
125.5434875488281
 31
0.0
  0
LINE
  5
69
330
22
100
AcDbEntity
  8
0
  6
Continuous
 62
     7
100
AcDbLine
 10
-70.14618682861328
 20
111.1310577392578
 30
0.0
 11
-96.40461730957031
 21
111.1310577392578
 31
0.0
  0
LINE
  5
6A
330
22
100
AcDbEntity
  8
0
  6
Continuous
 62
     7
100
AcDbLine
 10
-95.14618682861328
 20
205.1310577392578
 30
0.0
 11
-87.14618682861328
 21
205.1310577392578
 31
0.0
  0
LINE
  5
6B
330
22
100
AcDbEntity
  8
0
  6
Continuous
 62
     7
100
AcDbLine
 10
-70.14618682861328
 20
209.1310577392578
 30
0.0
 11
-96.40461730957031
 21
209.1310577392578
 31
0.0
  0
LINE
  5
6C
330
22
100
AcDbEntity
  8
0
  6
Continuous
 62
     7
100
AcDbLine
 10
-101.5630569458008
 20
200.9129486083984
 30
0.0
 11
-101.5260238647461
 21
200.8759155273438
 31
0.0
  0
LINE
  5
6D
330
22
100
AcDbEntity
  8
0
  6
Continuous
 62
     7
100
AcDbLine
 10
-102.2486114501953
 20
202.3056030273438
 30
0.0
 11
-100.5740661621094
 21
200.6310577392578
 31
0.0
  0
LINE
  5
6E
330
22
100
AcDbEntity
  8
0
  6
Continuous
 62
     7
100
AcDbLine
 10
-103.8131790161133
 20
205.9914855957031
 30
0.0
 11
-98.45275115966796
 21
200.6310577392578
 31
0.0
  0
LINE
  5
6F
330
22
100
AcDbEntity
  8
0
  6
Continuous
 62
     7
100
AcDbLine
 10
-104.3346939086914
 20
207.2201080322266
 30
0.0
 11
-97.74564361572267
 21
200.6310577392578
 31
0.0
  0
LINE
  5
70
330
22
100
AcDbEntity
  8
0
  6
Continuous
 62
     7
100
AcDbLine
 10
-105.8992614746094
 20
210.906005859375
 30
0.0
 11
-96.23004913330078
 21
201.2367858886719
 31
0.0
  0
LINE
  5
71
330
22
100
AcDbEntity
  8
0
  6
Continuous
 62
     7
100
AcDbLine
 10
-106.420783996582
 20
212.1346282958984
 30
0.0
 11
-96.14618682861328
 21
201.8600311279297
 31
0.0
  0
LINE
  5
72
330
22
100
AcDbEntity
  8
0
  6
Continuous
 62
     7
100
AcDbLine
 10
-107.9853515625
 20
215.8205108642578
 30
0.0
 11
-96.14618682861328
 21
203.9813537597656
 31
0.0
  0
LINE
  5
73
330
22
100
AcDbEntity
  8
0
  6
Continuous
 62
     7
100
AcDbLine
 10
-108.5068740844727
 20
217.0491485595703
 30
0.0
 11
-96.03057861328125
 21
204.5728454589844
 31
0.0
  0
LINE
  5
74
330
22
100
AcDbEntity
  8
0
  6
Continuous
 62
     7
100
AcDbLine
 10
-130.1461944580078
 20
240.8097839355469
 30
0.0
 11
-128.4674682617187
 21
239.1310577392578
 31
0.0
  0
LINE
  5
75
330
22
100
AcDbEntity
  8
0
  6
Continuous
 62
     7
100
AcDbLine
 10
-125.1461868286133
 20
235.8097839355469
 30
0.0
 11
-123.4674682617188
 21
234.1310577392578
 31
0.0
  0
LINE
  5
76
330
22
100
AcDbEntity
  8
0
  6
Continuous
 62
     7
100
AcDbLine
 10
-110.0714416503906
 20
220.7350311279297
 30
0.0
 11
-99.99430847167969
 21
210.6578979492188
 31
0.0
  0
LINE
  5
77
330
22
100
AcDbEntity
  8
0
  6
Continuous
 62
     7
100
AcDbLine
 10
-99.91169738769531
 20
210.5752868652344
 30
0.0
 11
-94.46746826171876
 21
205.1310577392578
 31
0.0
  0
LINE
  5
78
330
22
100
AcDbEntity
  8
0
  6
Continuous
 62
     7
100
AcDbLine
 10
-130.1461944580078
 20
241.5168914794922
 30
0.0
 11
-127.7603607177734
 21
239.1310577392578
 31
0.0
  0
LINE
  5
79
330
22
100
AcDbEntity
  8
0
  6
Continuous
 62
     7
100
AcDbLine
 10
-125.1461868286133
 20
236.5168914794922
 30
0.0
 11
-122.7603607177734
 21
234.1310577392578
 31
0.0
  0
LINE
  5
7A
330
22
100
AcDbEntity
  8
0
  6
Continuous
 62
     7
100
AcDbLine
 10
-110.5929641723633
 20
221.9636535644531
 30
0.0
 11
-101.1549682617188
 21
212.5256652832031
 31
0.0
  0
LINE
  5
7B
330
22
100
AcDbEntity
  8
0
  6
Continuous
 62
     7
100
AcDbLine
 10
-98.06560516357421
 20
209.4362945556641
 30
0.0
 11
-93.76036071777344
 21
205.1310577392578
 31
0.0
  0
LINE
  5
7C
330
22
100
AcDbEntity
  8
0
  6
Continuous
 62
     7
100
AcDbLine
 10
-130.1461944580078
 20
243.6381988525391
 30
0.0
 11
-125.6390380859375
 21
239.1310577392578
 31
0.0
  0
LINE
  5
7D
330
22
100
AcDbEntity
  8
0
  6
Continuous
 62
     7
100
AcDbLine
 10
-125.1461868286133
 20
238.6381988525391
 30
0.0
 11
-120.6390380859375
 21
234.1310577392578
 31
0.0
  0
LINE
  5
7E
330
22
100
AcDbEntity
  8
0
  6
Continuous
 62
     7
100
AcDbLine
 10
-112.1575241088867
 20
225.6495513916016
 30
0.0
 11
-102.7195358276367
 21
216.2115478515625
 31
0.0
  0
LINE
  5
7F
330
22
100
AcDbEntity
  8
0
  6
Continuous
 62
     7
100
AcDbLine
 10
-95.6390380859375
 20
209.1310577392578
 30
0.0
 11
-91.63903808593749
 21
205.1310577392578
 31
0.0
  0
LINE
  5
80
330
22
100
AcDbEntity
  8
0
  6
Continuous
 62
     7
100
AcDbLine
 10
-130.1461944580078
 20
244.3453063964844
 30
0.0
 11
-119.9319305419922
 21
234.1310577392578
 31
0.0
  0
LINE
  5
81
330
22
100
AcDbEntity
  8
0
  6
Continuous
 62
     7
100
AcDbLine
 10
-112.6790466308594
 20
226.878173828125
 30
0.0
 11
-103.2410583496094
 21
217.440185546875
 31
0.0
  0
LINE
  5
82
330
22
100
AcDbEntity
  8
0
  6
Continuous
 62
     7
100
AcDbLine
 10
-94.9319305419922
 20
209.1310577392578
 30
0.0
 11
-90.9319305419922
 21
205.1310577392578
 31
0.0
  0
LINE
  5
83
330
22
100
AcDbEntity
  8
0
  6
Continuous
 62
     7
100
AcDbLine
 10
-130.1461944580078
 20
246.4666290283203
 30
0.0
 11
-117.5496215820313
 21
233.8700714111328
 31
0.0
  0
LINE
  5
84
330
22
100
AcDbEntity
  8
0
  6
Continuous
 62
     7
100
AcDbLine
 10
-114.2436141967773
 20
230.5640563964844
 30
0.0
 11
-104.8056259155273
 21
221.1260681152344
 31
0.0
  0
LINE
  5
85
330
22
100
AcDbEntity
  8
0
  6
Continuous
 62
     7
100
AcDbLine
 10
-92.81061553955078
 20
209.1310577392578
 30
0.0
 11
-88.81061553955078
 21
205.1310577392578
 31
0.0
  0
LINE
  5
86
330
22
100
AcDbEntity
  8
0
  6
Continuous
 62
     7
100
AcDbLine
 10
-130.1461944580078
 20
247.1737365722656
 30
0.0
 11
-126.1461868286133
 21
243.1737365722656
 31
0.0
  0
LINE
  5
87
330
22
100
AcDbEntity
  8
0
  6
Continuous
 62
     7
100
AcDbLine
 10
-126.1035079956055
 20
243.1310577392578
 30
0.0
 11
-116.1505126953125
 21
233.1780700683594
 31
0.0
  0
LINE
  5
88
330
22
100
AcDbEntity
  8
0
  6
Continuous
 62
     7
100
AcDbLine
 10
-115.054443359375
 20
232.0820007324219
 30
0.0
 11
-105.3271484375
 21
222.3546905517578
 31
0.0
  0
LINE
  5
89
330
22
100
AcDbEntity
  8
0
  6
Continuous
 62
     7
100
AcDbLine
 10
-92.10350799560549
 20
209.1310577392578
 30
0.0
 11
-88.10350799560547
 21
205.1310577392578
 31
0.0
  0
LINE
  5
8A
330
22
100
AcDbEntity
  8
0
  6
Continuous
 62
     7
100
AcDbLine
 10
-130.1461944580078
 20
249.2950592041016
 30
0.0
 11
-126.1461868286133
 21
245.2950592041016
 31
0.0
  0
LINE
  5
8B
330
22
100
AcDbEntity
  8
0
  6
CENTER
 62
     7
100
AcDbLine
 10
-140.1652679443359
 20
160.1310577392578
 30
0.0
 11
-60.09090042114258
 21
160.1310577392578
 31
0.0
  0
LINE
  5
8C
330
22
100
AcDbEntity
  8
0
  6
Continuous
 62
     7
100
AcDbLine
 10
-123.9821853637695
 20
243.1310577392578
 30
0.0
 11
-106.8917083740234
 21
226.0405883789063
 31
0.0
  0
LINE
  5
8D
330
22
100
AcDbEntity
  8
0
  6
Continuous
 62
     7
100
AcDbLine
 10
-89.98218536376953
 20
209.1310577392578
 30
0.0
 11
-84.45450592041016
 21
203.6033782958984
 31
0.0
  0
LINE
  5
8E
330
22
100
AcDbEntity
  8
0
  6
Continuous
 62
     7
100
AcDbLine
 10
-130.1461944580078
 20
250.0021667480469
 30
0.0
 11
-126.1461868286133
 21
246.0021667480469
 31
0.0
  0
LINE
  5
8F
330
22
100
AcDbEntity
  8
0
  6
Continuous
 62
     7
100
AcDbLine
 10
-123.2750778198242
 20
243.1310577392578
 30
0.0
 11
-107.4132308959961
 21
227.2692108154297
 31
0.0
  0
LINE
  5
90
330
22
100
AcDbEntity
  8
0
  6
Continuous
 62
     7
100
AcDbLine
 10
-89.27507781982422
 20
209.1310577392578
 30
0.0
 11
-83.76882934570312
 21
203.6248168945313
 31
0.0
  0
LINE
  5
91
330
22
100
AcDbEntity
  8
0
  6
Continuous
 62
     7
100
AcDbLine
 10
-128.6537628173828
 20
250.6310577392578
 30
0.0
 11
-126.1461868286133
 21
248.1234893798828
 31
0.0
  0
LINE
  5
92
330
22
100
AcDbEntity
  8
0
  6
Continuous
 62
     7
100
AcDbLine
 10
-121.1537628173828
 20
243.1310577392578
 30
0.0
 11
-108.9777984619141
 21
230.9550933837891
 31
0.0
  0
LINE
  5
93
330
22
100
AcDbEntity
  8
0
  6
Continuous
 62
     7
100
AcDbLine
 10
-87.15376281738281
 20
209.1310577392578
 30
0.0
 11
-81.71179962158204
 21
203.6891021728516
 31
0.0
  0
LINE
  5
94
330
22
100
AcDbEntity
  8
0
  6
Continuous
 62
     7
100
AcDbLine
 10
-127.9466552734375
 20
250.6310577392578
 30
0.0
 11
-126.1461868286133
 21
248.8305969238281
 31
0.0
  0
LINE
  5
95
330
22
100
AcDbEntity
  8
0
  6
Continuous
 62
     7
100
AcDbLine
 10
-120.4466552734375
 20
243.1310577392578
 30
0.0
 11
-109.4993209838867
 21
232.1837310791016
 31
0.0
  0
LINE
  5
96
330
22
100
AcDbEntity
  8
0
  6
Continuous
 62
     7
100
AcDbLine
 10
-86.4466552734375
 20
209.1310577392578
 30
0.0
 11
-81.02611541748046
 21
203.7105255126953
 31
0.0
  0
LINE
  5
97
330
22
100
AcDbEntity
  8
0
  6
Continuous
 62
     7
100
AcDbLine
 10
-118.3253326416016
 20
243.1310577392578
 30
0.0
 11
-111.0638885498047
 21
235.8696136474609
 31
0.0
  0
LINE
  5
98
330
22
100
AcDbEntity
  8
0
  6
Continuous
 62
     7
100
AcDbLine
 10
-84.32533264160156
 20
209.1310577392578
 30
0.0
 11
-78.96908569335938
 21
203.7748107910156
 31
0.0
  0
LINE
  5
99
330
22
100
AcDbEntity
  8
0
  6
Continuous
 62
     7
100
AcDbLine
 10
-117.6182250976563
 20
243.1310577392578
 30
0.0
 11
-111.5854110717773
 21
237.0982360839844
 31
0.0
  0
LINE
  5
9A
330
22
100
AcDbEntity
  8
0
  6
Continuous
 62
     7
100
AcDbLine
 10
-83.61822509765625
 20
209.1310577392578
 30
0.0
 11
-78.28340148925781
 21
203.7962341308594
 31
0.0
  0
LINE
  5
9B
330
22
100
AcDbEntity
  8
0
  6
Continuous
 62
     7
100
AcDbLine
 10
-115.4969024658203
 20
243.1310577392578
 30
0.0
 11
-113.1499710083008
 21
240.7841339111328
 31
0.0
  0
LINE
  5
9C
330
22
100
AcDbEntity
  8
0
  6
Continuous
 62
     7
100
AcDbLine
 10
-81.4969024658203
 20
209.1310577392578
 30
0.0
 11
-76.22637176513672
 21
203.8605194091797
 31
0.0
  0
LINE
  5
9D
330
22
100
AcDbEntity
  8
0
  6
Continuous
 62
     7
100
AcDbLine
 10
-114.4979934692383
 20
242.8392486572266
 30
0.0
 11
-113.7514495849609
 21
242.0927124023438
 31
0.0
  0
LINE
  5
9E
330
22
100
AcDbEntity
  8
0
  6
Continuous
 62
     7
100
AcDbLine
 10
-80.789794921875
 20
209.1310577392578
 30
0.0
 11
-75.54069519042968
 21
203.8819580078125
 31
0.0
  0
LINE
  5
9F
330
22
100
AcDbEntity
  8
0
  6
Continuous
 62
     7
100
AcDbLine
 10
-78.66847991943359
 20
209.1310577392578
 30
0.0
 11
-73.48365783691406
 21
203.9462432861328
 31
0.0
  0
LINE
  5
A0
330
22
100
AcDbEntity
  8
0
  6
Continuous
 62
     7
100
AcDbLine
 10
-77.96137237548828
 20
209.1310577392578
 30
0.0
 11
-72.79798126220703
 21
203.9676666259766
 31
0.0
  0
LINE
  5
A1
330
22
100
AcDbEntity
  8
0
  6
Continuous
 62
     7
100
AcDbLine
 10
-75.84004974365234
 20
209.1310577392578
 30
0.0
 11
-70.74094390869141
 21
204.0319519042969
 31
0.0
  0
LINE
  5
A2
330
22
100
AcDbEntity
  8
0
  6
Continuous
 62
     7
100
AcDbLine
 10
-75.13294219970703
 20
209.1310577392578
 30
0.0
 11
-70.05526733398439
 21
204.0533752441406
 31
0.0
  0
LINE
  5
A3
330
22
100
AcDbEntity
  8
0
  6
Continuous
 62
     7
100
AcDbLine
 10
-73.01162719726562
 20
209.1310577392578
 30
0.0
 11
-69.14618682861328
 21
205.265625
 31
0.0
  0
LINE
  5
A4
330
22
100
AcDbEntity
  8
0
  6
Continuous
 62
     7
100
AcDbLine
 10
-72.30451965332031
 20
209.1310577392578
 30
0.0
 11
-69.14618682861328
 21
205.9727325439453
 31
0.0
  0
LINE
  5
A5
330
22
100
AcDbEntity
  8
0
  6
Continuous
 62
     7
100
AcDbLine
 10
-70.18319702148438
 20
209.1310577392578
 30
0.0
 11
-69.14618682861328
 21
208.0940551757813
 31
0.0
  0
LINE
  5
A6
330
22
100
AcDbEntity
  8
0
  6
Continuous
 62
     7
100
AcDbLine
 10
-130.1461944580078
 20
69.63105773925781
 30
0.0
 11
-126.1461868286133
 21
69.63105773925781
 31
0.0
  0
LINE
  5
A7
330
22
100
AcDbEntity
  8
0
  6
Continuous
 62
     7
100
AcDbLine
 10
-115.4699554443359
 20
77.13105773925781
 30
0.0
 11
-126.1461868286133
 21
77.13105773925781
 31
0.0
  0
LINE
  5
A8
330
22
100
AcDbEntity
  8
0
  6
Continuous
 62
     7
100
AcDbLine
 10
-99.20302581787108
 20
122.5434875488281
 30
0.0
 11
-99.20302581787108
 21
112.1871185302734
 31
0.0
  0
LINE
  5
A9
330
22
100
AcDbEntity
  8
0
  6
CENTER
 62
     7
100
AcDbLine
 10
-380.7890930175781
 20
160.1310577392578
 30
0.0
 11
-184.8962097167969
 21
160.1310577392578
 31
0.0
  0
LINE
  5
AA
330
22
100
AcDbEntity
  8
0
  6
Continuous
 62
     7
100
AcDbLine
 10
-113.6289520263672
 20
78.34959411621094
 30
0.0
 11
-101.0071411132813
 21
108.084716796875
 31
0.0
  0
LINE
  5
AB
330
22
100
AcDbEntity
  8
0
  6
Continuous
 62
     7
100
AcDbLine
 10
-70.14618682861328
 20
125.5434875488281
 30
0.0
 11
-70.14618682861328
 21
160.1310577392578
 31
0.0
  0
LINE
  5
AC
330
22
100
AcDbEntity
  8
0
  6
Continuous
 62
     7
100
AcDbLine
 10
-69.14618682861328
 20
112.1310577392578
 30
0.0
 11
-69.14618682861328
 21
160.1310577392578
 31
0.0
  0
LINE
  5
AD
330
22
100
AcDbEntity
  8
0
  6
Continuous
 62
     7
100
AcDbLine
 10
-120.9640731811523
 20
222.0529022216797
 30
0.0
 11
-119.873291015625
 21
223.1266479492188
 31
0.0
  0
LINE
  5
AE
330
22
100
AcDbEntity
  8
0
  6
Continuous
 62
     7
100
AcDbLine
 10
-120.9640731811523
 20
227.5529022216797
 30
0.0
 11
-119.873291015625
 21
226.4791564941406
 31
0.0
  0
LINE
  5
AF
330
22
100
AcDbEntity
  8
0
  6
Continuous
 62
     7
100
AcDbLine
 10
-127.1461868286133
 20
238.1310577392578
 30
0.0
 11
-128.1461944580078
 21
239.1310577392578
 31
0.0
  0
LINE
  5
B0
330
22
100
AcDbEntity
  8
0
  6
Continuous
 62
     7
100
AcDbLine
 10
-127.1461868286133
 20
239.1310577392578
 30
0.0
 11
-128.1461944580078
 21
238.1310577392578
 31
0.0
  0
LINE
  5
B1
330
22
100
AcDbEntity
  8
0
  6
Continuous
 62
     7
100
AcDbLine
 10
-127.4491424560547
 20
227.5529022216797
 30
0.0
 11
-120.9640731811523
 21
227.5529022216797
 31
0.0
  0
LINE
  5
B2
330
22
100
AcDbEntity
  8
0
  6
Continuous
 62
     7
100
AcDbLine
 10
-125.1461868286133
 20
239.1310577392578
 30
0.0
 11
-127.1461868286133
 21
239.1310577392578
 31
0.0
  0
LINE
  5
B3
330
22
100
AcDbEntity
  8
0
  6
Continuous
 62
     7
100
AcDbLine
 10
-125.1461868286133
 20
234.1310577392578
 30
0.0
 11
-127.1461868286133
 21
234.1310577392578
 31
0.0
  0
LINE
  5
B4
330
22
100
AcDbEntity
  8
0
  6
Continuous
 62
     7
100
AcDbLine
 10
-126.1461868286133
 20
243.1310577392578
 30
0.0
 11
-126.1461868286133
 21
250.6310577392578
 31
0.0
  0
LINE
  5
B5
330
22
100
AcDbEntity
  8
0
  6
Continuous
 62
     7
100
AcDbLine
 10
-124.1461868286133
 20
227.5529022216797
 30
0.0
 11
-124.1461868286133
 21
233.1310577392578
 31
0.0
  0
LINE
  5
B6
330
22
100
AcDbEntity
  8
0
  6
Continuous
 62
     7
100
AcDbLine
 10
-127.4491424560547
 20
222.0529022216797
 30
0.0
 11
-126.3583602905273
 21
223.1266479492188
 31
0.0
  0
LINE
  5
B7
330
22
100
AcDbEntity
  8
0
  6
Continuous
 62
     7
100
AcDbLine
 10
-127.4491424560547
 20
227.5529022216797
 30
0.0
 11
-126.3583602905273
 21
226.4791564941406
 31
0.0
  0
LINE
  5
B8
330
22
100
AcDbEntity
  8
0
  6
Continuous
 62
     7
100
AcDbLine
 10
-127.4491424560547
 20
222.0529022216797
 30
0.0
 11
-120.9640731811523
 21
222.0529022216797
 31
0.0
  0
LINE
  5
B9
330
22
100
AcDbEntity
  8
0
  6
Continuous
 62
     7
100
AcDbLine
 10
-125.1461868286133
 20
234.1310577392578
 30
0.0
 11
-125.1461868286133
 21
233.1310577392578
 31
0.0
  0
LINE
  5
BA
330
22
100
AcDbEntity
  8
0
  6
Continuous
 62
     7
100
AcDbLine
 10
-113.6289520263672
 20
241.9125213623047
 30
0.0
 11
-101.0071411132813
 21
212.1773986816406
 31
0.0
  0
LINE
  5
BB
330
22
100
AcDbEntity
  8
0
  6
Continuous
 62
     7
100
AcDbLine
 10
-96.14618682861328
 20
201.6310577392578
 30
0.0
 11
-96.14618682861328
 21
204.1310577392578
 31
0.0
  0
LINE
  5
BC
330
22
100
AcDbEntity
  8
0
  6
Continuous
 62
     7
100
AcDbLine
 10
-114.4646224975586
 20
231.084716796875
 30
0.0
 11
-101.7964324951172
 21
201.2403259277344
 31
0.0
  0
LINE
  5
BD
330
22
100
AcDbEntity
  8
0
  6
Continuous
 62
     7
100
AcDbLine
 10
-125.1461868286133
 20
234.1310577392578
 30
0.0
 11
-125.1461868286133
 21
239.1310577392578
 31
0.0
  0
LINE
  5
BE
330
22
100
AcDbEntity
  8
0
  6
Continuous
 62
     7
100
AcDbLine
 10
-124.1461868286133
 20
233.1310577392578
 30
0.0
 11
-127.1461868286133
 21
233.1310577392578
 31
0.0
  0
LINE
  5
BF
330
22
100
AcDbEntity
  8
0
  6
CENTER
 62
     7
100
AcDbLine
 10
-282.8760375976563
 20
257.6243896484375
 30
0.0
 11
-282.8760375976563
 21
62.69650268554688
 31
0.0
  0
LINE
  5
C0
330
22
100
AcDbEntity
  8
0
  6
Continuous
 62
     7
100
AcDbLine
 10
-127.1461868286133
 20
227.5529022216797
 30
0.0
 11
-127.1461868286133
 21
234.1310577392578
 31
0.0
  0
LINE
  5
C1
330
22
100
AcDbEntity
  8
0
  6
Continuous
 62
     7
100
AcDbLine
 10
-130.1461944580078
 20
238.1310577392578
 30
0.0
 11
-129.1461944580078
 21
239.1310577392578
 31
0.0
  0
LINE
  5
C2
330
22
100
AcDbEntity
  8
0
  6
Continuous
 62
     7
100
AcDbLine
 10
-130.1461944580078
 20
250.6310577392578
 30
0.0
 11
-126.1461868286133
 21
250.6310577392578
 31
0.0
  0
LINE
  5
C3
330
22
100
AcDbEntity
  8
0
  6
Continuous
 62
     7
100
AcDbLine
 10
-129.9491424560547
 20
219.5529022216797
 30
0.0
 11
-127.4491424560547
 21
222.0529022216797
 31
0.0
  0
LINE
  5
C4
330
22
100
AcDbEntity
  8
0
  6
Continuous
 62
     7
100
AcDbLine
 10
-129.9491424560547
 20
230.0529022216797
 30
0.0
 11
-127.4491424560547
 21
227.5529022216797
 31
0.0
  0
LINE
  5
C5
330
22
100
AcDbEntity
  8
0
  6
Continuous
 62
     7
100
AcDbLine
 10
-130.3432312011719
 20
230.0529022216797
 30
0.0
 11
-129.9491424560547
 21
230.0529022216797
 31
0.0
  0
LINE
  5
C6
330
22
100
AcDbEntity
  8
0
  6
Continuous
 62
     7
100
AcDbLine
 10
-130.3432312011719
 20
219.5529022216797
 30
0.0
 11
-129.9491424560547
 21
219.5529022216797
 31
0.0
  0
LINE
  5
C7
330
22
100
AcDbEntity
  8
0
  6
Continuous
 62
     7
100
AcDbLine
 10
-130.1461944580078
 20
239.1310577392578
 30
0.0
 11
-129.1461944580078
 21
238.1310577392578
 31
0.0
  0
LINE
  5
C8
330
22
100
AcDbEntity
  8
0
  6
Continuous
 62
     7
100
AcDbLine
 10
-127.1461868286133
 20
239.1310577392578
 30
0.0
 11
-130.1461944580078
 21
239.1310577392578
 31
0.0
  0
LINE
  5
C9
330
22
100
AcDbEntity
  8
0
  6
Continuous
 62
     7
100
AcDbLine
 10
-130.1461944580078
 20
238.1310577392578
 30
0.0
 11
-125.1461868286133
 21
238.1310577392578
 31
0.0
  0
LINE
  5
CA
330
22
100
AcDbEntity
  8
0
  6
Continuous
 62
     7
100
AcDbLine
 10
-130.1461944580078
 20
230.0529022216797
 30
0.0
 11
-130.1461944580078
 21
250.6310577392578
 31
0.0
  0
LINE
  5
CB
330
22
100
AcDbEntity
  8
0
  6
Continuous
 62
     7
100
AcDbLine
 10
-126.3583602905273
 20
226.4791564941406
 30
0.0
 11
-119.873291015625
 21
226.4791564941406
 31
0.0
  0
LINE
  5
CC
330
22
100
AcDbEntity
  8
0
  6
Continuous
 62
     7
100
AcDbLine
 10
-126.3583602905273
 20
223.1266479492188
 30
0.0
 11
-119.873291015625
 21
223.1266479492188
 31
0.0
  0
LINE
  5
CD
330
22
100
AcDbEntity
  8
0
  6
Continuous
 62
     7
100
AcDbLine
 10
-119.873291015625
 20
226.4791564941406
 30
0.0
 11
-119.873291015625
 21
223.1266479492188
 31
0.0
  0
LINE
  5
CE
330
22
100
AcDbEntity
  8
0
  6
Continuous
 62
     7
100
AcDbLine
 10
-125.1461868286133
 20
234.1310577392578
 30
0.0
 11
-119.0671463012695
 21
234.1310577392578
 31
0.0
  0
LINE
  5
CF
330
22
100
AcDbEntity
  8
0
  6
Continuous
 62
     7
100
AcDbLine
 10
-126.6304473876953
 20
162.2785491943359
 30
0.0
 11
-120.145378112793
 21
162.2785491943359
 31
0.0
  0
LINE
  5
D0
330
22
100
AcDbEntity
  8
0
  6
Continuous
 62
     7
100
AcDbLine
 10
-121.2361602783203
 20
163.3522796630859
 30
0.0
 11
-120.145378112793
 21
162.2785491943359
 31
0.0
  0
LINE
  5
D1
330
22
100
AcDbEntity
  8
0
  6
Continuous
 62
     7
100
AcDbLine
 10
-120.145378112793
 20
162.2785491943359
 30
0.0
 11
-120.145378112793
 21
160.1310577392578
 31
0.0
  0
LINE
  5
D2
330
22
100
AcDbEntity
  8
0
  6
Continuous
 62
     7
100
AcDbLine
 10
-127.7212219238281
 20
163.3522796630859
 30
0.0
 11
-126.6304473876953
 21
162.2785491943359
 31
0.0
  0
LINE
  5
D3
330
22
100
AcDbEntity
  8
0
  6
Continuous
 62
     7
100
AcDbLine
 10
-127.7212219238281
 20
163.3522796630859
 30
0.0
 11
-121.2361602783203
 21
163.3522796630859
 31
0.0
  0
LINE
  5
D4
330
22
100
AcDbEntity
  8
0
  6
Continuous
 62
     7
100
AcDbLine
 10
-127.7212219238281
 20
163.3522796630859
 30
0.0
 11
-130.1461944580078
 21
165.7393646240234
 31
0.0
  0
LINE
  5
D5
330
22
100
AcDbEntity
  8
0
  6
Continuous
 62
     7
100
AcDbLine
 10
-124.1461868286133
 20
230.8223114013672
 30
0.0
 11
-126.4549407958984
 21
233.1310577392578
 31
0.0
  0
LINE
  5
D6
330
22
100
AcDbEntity
  8
0
  6
Continuous
 62
     7
100
AcDbLine
 10
-124.1461868286133
 20
227.9938812255859
 30
0.0
 11
-127.1461868286133
 21
230.9938812255859
 31
0.0
  0
LINE
  5
D7
330
22
100
AcDbEntity
  8
0
  6
Continuous
 62
     7
100
AcDbLine
 10
-126.5336380004883
 20
227.5529022216797
 30
0.0
 11
-127.1461868286133
 21
228.1654510498047
 31
0.0
  0
LINE
  5
D8
330
22
100
AcDbEntity
  8
0
  6
Continuous
 62
     7
100
AcDbLine
 10
-124.1461868286133
 20
219.5086059570313
 30
0.0
 11
-126.6904907226563
 21
222.0529022216797
 31
0.0
  0
LINE
  5
D9
330
22
100
AcDbEntity
  8
0
  6
Continuous
 62
     7
100
AcDbLine
 10
-124.1461868286133
 20
216.68017578125
 30
0.0
 11
-127.1461868286133
 21
219.68017578125
 31
0.0
  0
LINE
  5
DA
330
22
100
AcDbEntity
  8
0
  6
Continuous
 62
     7
100
AcDbLine
 10
-124.1461868286133
 20
213.8517456054688
 30
0.0
 11
-127.1461868286133
 21
216.8517456054688
 31
0.0
  0
LINE
  5
DB
330
22
100
AcDbEntity
  8
0
  6
Continuous
 62
     7
100
AcDbLine
 10
-124.1461868286133
 20
211.0233154296875
 30
0.0
 11
-127.1461868286133
 21
214.0233154296875
 31
0.0
  0
LINE
  5
DC
330
22
100
AcDbEntity
  8
0
  6
Continuous
 62
     7
100
AcDbLine
 10
-124.1461868286133
 20
208.1948852539063
 30
0.0
 11
-127.1461868286133
 21
211.1948852539063
 31
0.0
  0
LINE
  5
DD
330
22
100
AcDbEntity
  8
0
  6
Continuous
 62
     7
100
AcDbLine
 10
-124.1461868286133
 20
205.3664703369141
 30
0.0
 11
-127.1461868286133
 21
208.3664703369141
 31
0.0
  0
LINE
  5
DE
330
22
100
AcDbEntity
  8
0
  6
Continuous
 62
     7
100
AcDbLine
 10
-124.1461868286133
 20
202.5380401611328
 30
0.0
 11
-127.1461868286133
 21
205.5380401611328
 31
0.0
  0
LINE
  5
DF
330
22
100
AcDbEntity
  8
0
  6
Continuous
 62
     7
100
AcDbLine
 10
-124.1461868286133
 20
199.7096099853516
 30
0.0
 11
-127.1461868286133
 21
202.7096099853516
 31
0.0
  0
LINE
  5
E0
330
22
100
AcDbEntity
  8
0
  6
Continuous
 62
     7
100
AcDbLine
 10
-124.1461868286133
 20
196.8811798095703
 30
0.0
 11
-127.1461868286133
 21
199.8811798095703
 31
0.0
  0
LINE
  5
E1
330
22
100
AcDbEntity
  8
0
  6
Continuous
 62
     7
100
AcDbLine
 10
-124.1461868286133
 20
194.0527496337891
 30
0.0
 11
-127.1461868286133
 21
197.0527496337891
 31
0.0
  0
LINE
  5
E2
330
22
100
AcDbEntity
  8
0
  6
Continuous
 62
     7
100
AcDbLine
 10
-124.1461868286133
 20
191.2243347167969
 30
0.0
 11
-127.1461868286133
 21
194.2243347167969
 31
0.0
  0
LINE
  5
E3
330
22
100
AcDbEntity
  8
0
  6
Continuous
 62
     7
100
AcDbLine
 10
-124.1461868286133
 20
188.3959045410156
 30
0.0
 11
-127.1461868286133
 21
191.3959045410156
 31
0.0
  0
LINE
  5
E4
330
22
100
AcDbEntity
  8
0
  6
Continuous
 62
     7
100
AcDbLine
 10
-124.1461868286133
 20
185.5674743652344
 30
0.0
 11
-127.1461868286133
 21
188.5674743652344
 31
0.0
  0
LINE
  5
E5
330
22
100
AcDbEntity
  8
0
  6
Continuous
 62
     7
100
AcDbLine
 10
-124.1461868286133
 20
182.7390441894531
 30
0.0
 11
-127.1461868286133
 21
185.7390441894531
 31
0.0
  0
LINE
  5
E6
330
22
100
AcDbEntity
  8
0
  6
Continuous
 62
     7
100
AcDbLine
 10
-124.1461868286133
 20
179.9106140136719
 30
0.0
 11
-127.1461868286133
 21
182.9106140136719
 31
0.0
  0
LINE
  5
E7
330
22
100
AcDbEntity
  8
0
  6
Continuous
 62
     7
100
AcDbLine
 10
-124.1461868286133
 20
177.0821990966797
 30
0.0
 11
-127.1461868286133
 21
180.0821990966797
 31
0.0
  0
LINE
  5
E8
330
22
100
AcDbEntity
  8
0
  6
Continuous
 62
     7
100
AcDbLine
 10
-124.1461868286133
 20
174.2537689208984
 30
0.0
 11
-127.1461868286133
 21
177.2537689208984
 31
0.0
  0
LINE
  5
E9
330
22
100
AcDbEntity
  8
0
  6
Continuous
 62
     7
100
AcDbLine
 10
-124.1461868286133
 20
171.4253387451172
 30
0.0
 11
-127.1461868286133
 21
174.4253387451172
 31
0.0
  0
LINE
  5
EA
330
22
100
AcDbEntity
  8
0
  6
Continuous
 62
     7
100
AcDbLine
 10
-124.1461868286133
 20
168.5969085693359
 30
0.0
 11
-127.1461868286133
 21
171.5969085693359
 31
0.0
  0
LINE
  5
EB
330
22
100
AcDbEntity
  8
0
  6
Continuous
 62
     7
100
AcDbLine
 10
-124.1461868286133
 20
165.7684783935547
 30
0.0
 11
-127.1461868286133
 21
168.7684783935547
 31
0.0
  0
LINE
  5
EC
330
22
100
AcDbEntity
  8
0
  6
Continuous
 62
     7
100
AcDbLine
 10
-124.5584182739258
 20
163.3522796630859
 30
0.0
 11
-127.1461868286133
 21
165.9400634765625
 31
0.0
  0
LINE
  5
ED
330
22
100
AcDbEntity
  8
0
  6
Continuous
 62
     7
100
AcDbLine
 10
-126.5117263793945
 20
163.3522796630859
 30
0.0
 11
-124.1461868286133
 21
165.7178192138672
 31
0.0
  0
LINE
  5
EE
330
22
100
AcDbEntity
  8
0
  6
Continuous
 62
     7
100
AcDbLine
 10
-127.1461868286133
 20
165.5462493896484
 30
0.0
 11
-124.1461868286133
 21
168.5462493896484
 31
0.0
  0
LINE
  5
EF
330
22
100
AcDbEntity
  8
0
  6
Continuous
 62
     7
100
AcDbLine
 10
-127.1461868286133
 20
168.3746795654297
 30
0.0
 11
-124.1461868286133
 21
171.3746795654297
 31
0.0
  0
LINE
  5
F0
330
22
100
AcDbEntity
  8
0
  6
Continuous
 62
     7
100
AcDbLine
 10
-127.1461868286133
 20
171.2031097412109
 30
0.0
 11
-124.1461868286133
 21
174.2031097412109
 31
0.0
  0
LINE
  5
F1
330
22
100
AcDbEntity
  8
0
  6
Continuous
 62
     7
100
AcDbLine
 10
-127.1461868286133
 20
174.0315246582031
 30
0.0
 11
-124.1461868286133
 21
177.0315246582031
 31
0.0
  0
LINE
  5
F2
330
22
100
AcDbEntity
  8
0
  6
Continuous
 62
     7
100
AcDbLine
 10
-127.1461868286133
 20
176.8599548339844
 30
0.0
 11
-124.1461868286133
 21
179.8599548339844
 31
0.0
  0
LINE
  5
F3
330
22
100
AcDbEntity
  8
0
  6
Continuous
 62
     7
100
AcDbLine
 10
-127.1461868286133
 20
179.6883850097656
 30
0.0
 11
-124.1461868286133
 21
182.6883850097656
 31
0.0
  0
LINE
  5
F4
330
22
100
AcDbEntity
  8
0
  6
Continuous
 62
     7
100
AcDbLine
 10
-127.1461868286133
 20
182.5168151855469
 30
0.0
 11
-124.1461868286133
 21
185.5168151855469
 31
0.0
  0
LINE
  5
F5
330
22
100
AcDbEntity
  8
0
  6
Continuous
 62
     7
100
AcDbLine
 10
-127.1461868286133
 20
185.3452453613281
 30
0.0
 11
-124.1461868286133
 21
188.3452453613281
 31
0.0
  0
LINE
  5
F6
330
22
100
AcDbEntity
  8
0
  6
Continuous
 62
     7
100
AcDbLine
 10
-127.1461868286133
 20
188.1736602783203
 30
0.0
 11
-124.1461868286133
 21
191.1736602783203
 31
0.0
  0
LINE
  5
F7
330
22
100
AcDbEntity
  8
0
  6
Continuous
 62
     7
100
AcDbLine
 10
-127.1461868286133
 20
191.0020904541016
 30
0.0
 11
-124.1461868286133
 21
194.0020904541016
 31
0.0
  0
LINE
  5
F8
330
22
100
AcDbEntity
  8
0
  6
Continuous
 62
     7
100
AcDbLine
 10
-127.1461868286133
 20
193.8305206298828
 30
0.0
 11
-124.1461868286133
 21
196.8305206298828
 31
0.0
  0
LINE
  5
F9
330
22
100
AcDbEntity
  8
0
  6
Continuous
 62
     7
100
AcDbLine
 10
-127.1461868286133
 20
196.6589508056641
 30
0.0
 11
-124.1461868286133
 21
199.6589508056641
 31
0.0
  0
LINE
  5
FA
330
22
100
AcDbEntity
  8
0
  6
Continuous
 62
     7
100
AcDbLine
 10
-127.1461868286133
 20
199.4873809814453
 30
0.0
 11
-124.1461868286133
 21
202.4873809814453
 31
0.0
  0
LINE
  5
FB
330
22
100
AcDbEntity
  8
0
  6
Continuous
 62
     7
100
AcDbLine
 10
-127.1461868286133
 20
202.3157958984375
 30
0.0
 11
-124.1461868286133
 21
205.3157958984375
 31
0.0
  0
LINE
  5
FC
330
22
100
AcDbEntity
  8
0
  6
Continuous
 62
     7
100
AcDbLine
 10
-127.1461868286133
 20
205.1442260742188
 30
0.0
 11
-124.1461868286133
 21
208.1442260742188
 31
0.0
  0
LINE
  5
FD
330
22
100
AcDbEntity
  8
0
  6
Continuous
 62
     7
100
AcDbLine
 10
-127.1461868286133
 20
207.97265625
 30
0.0
 11
-124.1461868286133
 21
210.97265625
 31
0.0
  0
LINE
  5
FE
330
22
100
AcDbEntity
  8
0
  6
Continuous
 62
     7
100
AcDbLine
 10
-127.1461868286133
 20
210.8010864257813
 30
0.0
 11
-124.1461868286133
 21
213.8010864257813
 31
0.0
  0
LINE
  5
FF
330
22
100
AcDbEntity
  8
0
  6
Continuous
 62
     7
100
AcDbLine
 10
-127.1461868286133
 20
213.6295166015625
 30
0.0
 11
-124.1461868286133
 21
216.6295166015625
 31
0.0
  0
LINE
  5
100
330
22
100
AcDbEntity
  8
0
  6
Continuous
 62
     7
100
AcDbLine
 10
-127.1461868286133
 20
216.4579315185547
 30
0.0
 11
-124.1461868286133
 21
219.4579315185547
 31
0.0
  0
LINE
  5
101
330
22
100
AcDbEntity
  8
0
  6
Continuous
 62
     7
100
AcDbLine
 10
-127.1461868286133
 20
219.2863616943359
 30
0.0
 11
-124.3796463012695
 21
222.0529022216797
 31
0.0
  0
LINE
  5
102
330
22
100
AcDbEntity
  8
0
  6
Continuous
 62
     7
100
AcDbLine
 10
-124.536506652832
 20
227.5529022216797
 30
0.0
 11
-124.1461868286133
 21
227.9432220458984
 31
0.0
  0
LINE
  5
103
330
22
100
AcDbEntity
  8
0
  6
Continuous
 62
     7
100
AcDbLine
 10
-127.1461868286133
 20
227.7716522216797
 30
0.0
 11
-124.1461868286133
 21
230.7716522216797
 31
0.0
  0
LINE
  5
104
330
22
100
AcDbEntity
  8
0
  6
Continuous
 62
     7
100
AcDbLine
 10
-127.1461868286133
 20
230.6000671386719
 30
0.0
 11
-124.6152038574219
 21
233.1310577392578
 31
0.0
  0
LINE
  5
105
330
22
100
AcDbEntity
  8
0
  6
Continuous
 62
     7
100
AcDbLine
 10
-124.1461868286133
 20
163.3522796630859
 30
0.0
 11
-124.1461868286133
 21
222.0529022216797
 31
0.0
  0
LINE
  5
106
330
22
100
AcDbEntity
  8
0
  6
Continuous
 62
     7
100
AcDbLine
 10
-130.1461944580078
 20
168.563232421875
 30
0.0
 11
-127.1461868286133
 21
165.563232421875
 31
0.0
  0
LINE
  5
107
330
22
100
AcDbEntity
  8
0
  6
Continuous
 62
     7
100
AcDbLine
 10
-130.1461944580078
 20
171.3916625976563
 30
0.0
 11
-127.1461868286133
 21
168.3916625976563
 31
0.0
  0
LINE
  5
108
330
22
100
AcDbEntity
  8
0
  6
Continuous
 62
     7
100
AcDbLine
 10
-130.1461944580078
 20
174.2200927734375
 30
0.0
 11
-127.1461868286133
 21
171.2200927734375
 31
0.0
  0
LINE
  5
109
330
22
100
AcDbEntity
  8
0
  6
Continuous
 62
     7
100
AcDbLine
 10
-130.1461944580078
 20
177.0485076904297
 30
0.0
 11
-127.1461868286133
 21
174.0485076904297
 31
0.0
  0
LINE
  5
10A
330
22
100
AcDbEntity
  8
0
  6
Continuous
 62
     7
100
AcDbLine
 10
-130.1461944580078
 20
179.8769378662109
 30
0.0
 11
-127.1461868286133
 21
176.8769378662109
 31
0.0
  0
LINE
  5
10B
330
22
100
AcDbEntity
  8
0
  6
Continuous
 62
     7
100
AcDbLine
 10
-130.1461944580078
 20
182.7053680419922
 30
0.0
 11
-127.1461868286133
 21
179.7053680419922
 31
0.0
  0
LINE
  5
10C
330
22
100
AcDbEntity
  8
0
  6
Continuous
 62
     7
100
AcDbLine
 10
-130.1461944580078
 20
185.5337982177734
 30
0.0
 11
-127.1461868286133
 21
182.5337982177734
 31
0.0
  0
LINE
  5
10D
330
22
100
AcDbEntity
  8
0
  6
Continuous
 62
     7
100
AcDbLine
 10
-130.1461944580078
 20
188.3622283935547
 30
0.0
 11
-127.1461868286133
 21
185.3622283935547
 31
0.0
  0
LINE
  5
10E
330
22
100
AcDbEntity
  8
0
  6
Continuous
 62
     7
100
AcDbLine
 10
-130.1461944580078
 20
191.1906433105469
 30
0.0
 11
-127.1461868286133
 21
188.1906433105469
 31
0.0
  0
LINE
  5
10F
330
22
100
AcDbEntity
  8
0
  6
Continuous
 62
     7
100
AcDbLine
 10
-130.1461944580078
 20
194.0190734863281
 30
0.0
 11
-127.1461868286133
 21
191.0190734863281
 31
0.0
  0
LINE
  5
110
330
22
100
AcDbEntity
  8
0
  6
Continuous
 62
     7
100
AcDbLine
 10
-130.1461944580078
 20
196.8475036621094
 30
0.0
 11
-127.1461868286133
 21
193.8475036621094
 31
0.0
  0
LINE
  5
111
330
22
100
AcDbEntity
  8
0
  6
Continuous
 62
     7
100
AcDbLine
 10
-130.1461944580078
 20
199.6759338378906
 30
0.0
 11
-127.1461868286133
 21
196.6759338378906
 31
0.0
  0
LINE
  5
112
330
22
100
AcDbEntity
  8
0
  6
Continuous
 62
     7
100
AcDbLine
 10
-130.1461944580078
 20
202.5043640136719
 30
0.0
 11
-127.1461868286133
 21
199.5043640136719
 31
0.0
  0
LINE
  5
113
330
22
100
AcDbEntity
  8
0
  6
Continuous
 62
     7
100
AcDbLine
 10
-130.1461944580078
 20
205.3327789306641
 30
0.0
 11
-127.1461868286133
 21
202.3327789306641
 31
0.0
  0
LINE
  5
114
330
22
100
AcDbEntity
  8
0
  6
Continuous
 62
     7
100
AcDbLine
 10
-130.1461944580078
 20
208.1612091064453
 30
0.0
 11
-127.1461868286133
 21
205.1612091064453
 31
0.0
  0
LINE
  5
115
330
22
100
AcDbEntity
  8
0
  6
Continuous
 62
     7
100
AcDbLine
 10
-130.1461944580078
 20
210.9896392822266
 30
0.0
 11
-127.1461868286133
 21
207.9896392822266
 31
0.0
  0
LINE
  5
116
330
22
100
AcDbEntity
  8
0
  6
Continuous
 62
     7
100
AcDbLine
 10
-130.1461944580078
 20
213.8180694580078
 30
0.0
 11
-127.1461868286133
 21
210.8180694580078
 31
0.0
  0
LINE
  5
117
330
22
100
AcDbEntity
  8
0
  6
Continuous
 62
     7
100
AcDbLine
 10
-130.1461944580078
 20
216.6464996337891
 30
0.0
 11
-127.1461868286133
 21
213.6464996337891
 31
0.0
  0
LINE
  5
118
330
22
100
AcDbEntity
  8
0
  6
Continuous
 62
     7
100
AcDbLine
 10
-130.1434326171875
 20
219.47216796875
 30
0.0
 11
-127.1461868286133
 21
216.4749145507813
 31
0.0
  0
LINE
  5
119
330
22
100
AcDbEntity
  8
0
  6
Continuous
 62
     7
100
AcDbLine
 10
-128.6724395751953
 20
220.8296051025391
 30
0.0
 11
-127.1461868286133
 21
219.3033447265625
 31
0.0
  0
LINE
  5
11A
330
22
100
AcDbEntity
  8
0
  6
Continuous
 62
     7
100
AcDbLine
 10
-130.1461944580078
 20
230.7886352539064
 30
0.0
 11
-127.1461868286133
 21
227.7886352539063
 31
0.0
  0
LINE
  5
11B
330
22
100
AcDbEntity
  8
0
  6
Continuous
 62
     7
100
AcDbLine
 10
-130.1461944580078
 20
233.6170501708984
 30
0.0
 11
-127.1461868286133
 21
230.6170501708984
 31
0.0
  0
LINE
  5
11C
330
22
100
AcDbEntity
  8
0
  6
Continuous
 62
     7
100
AcDbLine
 10
-130.1461944580078
 20
236.4454803466797
 30
0.0
 11
-127.1461868286133
 21
233.4454803466797
 31
0.0
  0
LINE
  5
11D
330
22
100
AcDbEntity
  8
0
  6
Continuous
 62
     7
100
AcDbLine
 10
-129.0033416748047
 20
238.1310577392578
 30
0.0
 11
-125.1461868286133
 21
234.2739105224609
 31
0.0
  0
LINE
  5
11E
330
22
100
AcDbEntity
  8
0
  6
Continuous
 62
     7
100
AcDbLine
 10
-126.1749114990234
 20
238.1310577392578
 30
0.0
 11
-125.1461868286133
 21
237.1023406982422
 31
0.0
  0
LINE
  5
11F
330
22
100
AcDbEntity
  8
0
  6
Continuous
 62
     7
100
AcDbLine
 10
-127.1461868286133
 20
163.3522796630859
 30
0.0
 11
-127.1461868286133
 21
222.0529022216797
 31
0.0
  0
LINE
  5
120
330
22
100
AcDbEntity
  8
0
  6
Continuous
 62
     7
100
AcDbLine
 10
-101.427864074707
 20
160.1310577392578
 30
0.0
 11
-101.427864074707
 21
200.7971801757813
 31
0.0
  0
LINE
  5
121
330
22
100
AcDbEntity
  8
0
  6
Continuous
 62
     7
100
AcDbLine
 10
-96.14618682861328
 20
160.1310577392578
 30
0.0
 11
-96.14618682861328
 21
201.5305786132813
 31
0.0
  0
LINE
  5
122
330
22
100
AcDbEntity
  8
0
  6
Continuous
 62
     7
100
AcDbLine
 10
-115.4699554443359
 20
243.1310577392578
 30
0.0
 11
-126.1461868286133
 21
243.1310577392578
 31
0.0
  0
LINE
  5
123
330
22
100
AcDbEntity
  8
0
  6
Continuous
 62
     7
100
AcDbLine
 10
-100.8759231567383
 20
200.6310577392578
 30
0.0
 11
-97.14618682861328
 21
200.6310577392578
 31
0.0
  0
LINE
  5
124
330
22
100
AcDbEntity
  8
0
  6
Continuous
 62
     7
100
AcDbLine
 10
-70.14618682861328
 20
111.1310577392578
 30
0.0
 11
-70.14618682861328
 21
122.5434875488281
 31
0.0
  0
LINE
  5
125
330
22
100
AcDbEntity
  8
0
  6
Continuous
 62
     7
100
AcDbLine
 10
-70.14618682861328
 20
111.1310577392578
 30
0.0
 11
-69.14618682861328
 21
112.1310577392578
 31
0.0
  0
LINE
  5
126
330
22
100
AcDbEntity
  8
0
  6
Continuous
 62
     7
100
AcDbLine
 10
-84.69093322753906
 20
160.1310577392578
 30
0.0
 11
-84.69093322753906
 21
202.0952606201172
 31
0.0
  0
LINE
  5
127
330
22
100
AcDbEntity
  8
0
  6
Continuous
 62
     7
100
AcDbLine
 10
-272.8880615234375
 20
154.1107025146484
 30
0.0
 11
-227.7345886230469
 21
121.3047714233398
 31
0.0
  0
LINE
  5
128
330
22
100
AcDbEntity
  8
0
  6
Continuous
 62
     7
100
AcDbLine
 10
-300.8746032714844
 20
221.788330078125
 30
0.0
 11
-300.5472106933594
 21
222.11572265625
 31
0.0
  0
LINE
  5
129
330
22
100
AcDbEntity
  8
0
  6
Continuous
 62
     7
100
AcDbLine
 10
-301.2019958496094
 20
221.4609375
 30
0.0
 11
-303.8891906738281
 21
223.5012969970703
 31
0.0
  0
LINE
  5
12A
330
22
100
AcDbEntity
  8
0
  6
Continuous
 62
     7
100
AcDbLine
 10
-300.5652770996094
 20
227.4725341796875
 30
0.0
 11
-302.5875854492188
 21
224.8029022216797
 31
0.0
  0
LINE
  5
12B
330
22
100
AcDbEntity
  8
0
  6
Continuous
 62
     7
100
AcDbLine
 10
-309.5038757324219
 20
222.6874084472656
 30
0.0
 11
-309.5052490234375
 21
222.6917114257813
 31
0.0
  0
LINE
  5
12C
330
22
100
AcDbEntity
  8
0
  6
Continuous
 62
     7
100
AcDbLine
 10
-307.2311401367188
 20
227.4900817871094
 30
0.0
 11
-305.1907653808594
 21
224.8029022216797
 31
0.0
  0
LINE
  5
12D
330
22
100
AcDbEntity
  8
0
  6
Continuous
 62
     7
100
AcDbLine
 10
-306.9037475585938
 20
227.8174743652344
 30
0.0
 11
-306.5763549804688
 21
228.1448669433594
 31
0.0
  0
LINE
  5
12E
330
22
100
AcDbEntity
  8
0
  6
Continuous
 62
     7
100
AcDbLine
 10
-307.2131042480469
 20
222.1332702636719
 30
0.0
 11
-306.8859558105469
 21
221.8061370849609
 31
0.0
  0
LINE
  5
12F
330
22
100
AcDbEntity
  8
0
  6
Continuous
 62
     7
100
AcDbLine
 10
-306.5763549804688
 20
228.1448669433594
 30
0.0
 11
-303.8891906738281
 21
226.1045074462891
 31
0.0
  0
LINE
  5
130
330
22
100
AcDbEntity
  8
0
  6
Continuous
 62
     7
100
AcDbLine
 10
-306.5588073730469
 20
221.4789886474609
 30
0.0
 11
-303.8891906738281
 21
223.5012969970703
 31
0.0
  0
LINE
  5
131
330
22
100
AcDbEntity
  8
0
  6
Continuous
 62
     7
100
AcDbLine
 10
-300.5472106933594
 20
222.11572265625
 30
0.0
 11
-302.5875854492188
 21
224.8029022216797
 31
0.0
  0
LINE
  5
132
330
22
100
AcDbEntity
  8
0
  6
Continuous
 62
     7
100
AcDbLine
 10
-300.8746032714844
 20
221.788330078125
 30
0.0
 11
-301.2019958496094
 21
221.4609375
 31
0.0
  0
LINE
  5
133
330
22
100
AcDbEntity
  8
0
  6
Continuous
 62
     7
100
AcDbLine
 10
-301.2195434570313
 20
228.1268157958984
 30
0.0
 11
-303.8891906738281
 21
226.1045074462891
 31
0.0
  0
LINE
  5
134
330
22
100
AcDbEntity
  8
0
  6
Continuous
 62
     7
100
AcDbLine
 10
-306.5588073730469
 20
221.4789886474609
 30
0.0
 11
-306.8859558105469
 21
221.8061370849609
 31
0.0
  0
LINE
  5
135
330
22
100
AcDbEntity
  8
0
  6
Continuous
 62
     7
100
AcDbLine
 10
-306.9037475585938
 20
227.8174743652344
 30
0.0
 11
-307.2311401367188
 21
227.4900817871094
 31
0.0
  0
LINE
  5
136
330
22
100
AcDbEntity
  8
0
  6
Continuous
 62
     7
100
AcDbLine
 10
-300.5652770996094
 20
227.4725341796875
 30
0.0
 11
-301.2195434570313
 21
228.1268157958984
 31
0.0
  0
LINE
  5
137
330
22
100
AcDbEntity
  8
0
  6
Continuous
 62
     7
100
AcDbLine
 10
-285.545654296875
 20
156.8071441650391
 30
0.0
 11
-282.8760375976563
 21
158.8294525146484
 31
0.0
  0
LINE
  5
138
330
22
100
AcDbEntity
  8
0
  6
Continuous
 62
     7
100
AcDbLine
 10
-307.2131042480469
 20
222.1332702636719
 30
0.0
 11
-305.1907653808594
 21
224.8029022216797
 31
0.0
  0
LINE
  5
139
330
22
100
AcDbEntity
  8
0
  6
Continuous
 62
     7
100
AcDbLine
 10
-286.2179870605469
 20
162.8182373046875
 30
0.0
 11
-284.1776123046875
 21
160.1310577392578
 31
0.0
  0
LINE
  5
13A
330
22
100
AcDbEntity
  8
0
  6
Continuous
 62
     7
100
AcDbLine
 10
-286.199951171875
 20
157.46142578125
 30
0.0
 11
-284.1776123046875
 21
160.1310577392578
 31
0.0
  0
LINE
  5
13B
330
22
100
AcDbEntity
  8
0
  6
Continuous
 62
     7
100
AcDbLine
 10
-285.545654296875
 20
156.8071441650391
 30
0.0
 11
-285.872802734375
 21
157.1342926025391
 31
0.0
  0
LINE
  5
13C
330
22
100
AcDbEntity
  8
0
  6
Continuous
 62
     7
100
AcDbLine
 10
-286.199951171875
 20
157.46142578125
 30
0.0
 11
-285.872802734375
 21
157.1342926025391
 31
0.0
  0
LINE
  5
13D
330
22
100
AcDbEntity
  8
0
  6
Continuous
 62
     7
100
AcDbLine
 10
-285.5632019042969
 20
163.4730224609375
 30
0.0
 11
-282.8760375976563
 21
161.4326629638672
 31
0.0
  0
LINE
  5
13E
330
22
100
AcDbEntity
  8
0
  6
Continuous
 62
     7
100
AcDbLine
 10
-285.8905944824219
 20
163.1456298828125
 30
0.0
 11
-285.5632019042969
 21
163.4730224609375
 31
0.0
  0
LINE
  5
13F
330
22
100
AcDbEntity
  8
0
  6
Continuous
 62
     7
100
AcDbLine
 10
-285.8905944824219
 20
163.1456298828125
 30
0.0
 11
-286.2179870605469
 21
162.8182373046875
 31
0.0
  0
LINE
  5
140
330
22
100
AcDbEntity
  8
0
  6
Continuous
 62
     7
100
AcDbLine
 10
-280.2063903808594
 20
163.4549713134766
 30
0.0
 11
-279.8792419433594
 21
163.1278381347656
 31
0.0
  0
LINE
  5
141
330
22
100
AcDbEntity
  8
0
  6
Continuous
 62
     7
100
AcDbLine
 10
-279.5520935058594
 20
162.8006896972656
 30
0.0
 11
-279.8792419433594
 21
163.1278381347656
 31
0.0
  0
LINE
  5
142
330
22
100
AcDbEntity
  8
0
  6
Continuous
 62
     7
100
AcDbLine
 10
-280.2063903808594
 20
163.4549713134766
 30
0.0
 11
-282.8760375976563
 21
161.4326629638672
 31
0.0
  0
LINE
  5
143
330
22
100
AcDbEntity
  8
0
  6
Continuous
 62
     7
100
AcDbLine
 10
-279.5340576171875
 20
157.4438781738281
 30
0.0
 11
-281.5744323730469
 21
160.1310577392578
 31
0.0
  0
LINE
  5
144
330
22
100
AcDbEntity
  8
0
  6
Continuous
 62
     7
100
AcDbLine
 10
-279.8614501953125
 20
157.1164855957031
 30
0.0
 11
-279.5340576171875
 21
157.4438781738281
 31
0.0
  0
LINE
  5
145
330
22
100
AcDbEntity
  8
0
  6
Continuous
 62
     7
100
AcDbLine
 10
-279.8614501953125
 20
157.1164855957031
 30
0.0
 11
-280.1888427734375
 21
156.7890930175781
 31
0.0
  0
LINE
  5
146
330
22
100
AcDbEntity
  8
0
  6
Continuous
 62
     7
100
AcDbLine
 10
-280.1888427734375
 20
156.7890930175781
 30
0.0
 11
-282.8760375976563
 21
158.8294525146484
 31
0.0
  0
LINE
  5
147
330
22
100
AcDbEntity
  8
0
  6
Continuous
 62
     7
100
AcDbLine
 10
-279.5520935058594
 20
162.8006896972656
 30
0.0
 11
-281.5744323730469
 21
160.1310577392578
 31
0.0
  0
LINE
  5
148
330
22
100
AcDbEntity
  8
0
  6
Continuous
 62
     7
100
AcDbLine
 10
-278.3343811035156
 20
170.8725280761719
 30
0.0
 11
-263.2034606933594
 21
217.440673828125
 31
0.0
  0
LINE
  5
149
330
22
100
AcDbEntity
  8
0
  6
Continuous
 62
     7
100
AcDbLine
 10
-274.063720703125
 20
167.7697296142578
 30
0.0
 11
-228.9102478027344
 21
200.5756530761719
 31
0.0
  0
LINE
  5
14A
330
22
100
AcDbEntity
  8
0
  6
Continuous
 62
     7
100
AcDbLine
 10
-287.4175415039063
 20
170.8724670410156
 30
0.0
 11
-302.5484619140625
 21
217.4406585693359
 31
0.0
  0
LINE
  5
14B
330
22
100
AcDbEntity
  8
0
  6
CENTER
 62
     7
100
AcDbLine
 10
-282.8760375976563
 20
160.1310577392578
 30
0.0
 11
-307.9445190429688
 21
237.2839508056641
 31
0.0
  0
LINE
  5
14C
330
22
100
AcDbEntity
  8
0
  6
Continuous
 62
     7
100
AcDbLine
 10
-291.6881713867188
 20
167.7696838378906
 30
0.0
 11
-336.8416442871094
 21
200.5756072998047
 31
0.0
  0
LINE
  5
14D
330
22
100
AcDbEntity
  8
0
  6
Continuous
 62
     7
100
AcDbLine
 10
-271.2568359375
 20
159.1311340332031
 30
0.0
 11
-215.4440460205078
 21
159.1311340332031
 31
0.0
  0
LINE
  5
14E
330
22
100
AcDbEntity
  8
0
  6
Continuous
 62
     7
100
AcDbLine
 10
-69.14618682861328
 20
160.1310577392578
 30
0.0
 11
-69.14618682861328
 21
208.0940551757813
 31
0.0
  0
LINE
  5
14F
330
22
100
AcDbEntity
  8
0
  6
Continuous
 62
     7
100
AcDbLine
 10
-69.14618682861328
 20
208.1310577392578
 30
0.0
 11
-70.14618682861328
 21
209.1310577392578
 31
0.0
  0
LINE
  5
150
330
22
100
AcDbEntity
  8
0
  6
Continuous
 62
     7
100
AcDbLine
 10
-69.14618682861328
 20
204.0530395507814
 30
0.0
 11
-69.14618682861328
 21
208.1310577392578
 31
0.0
  0
LINE
  5
151
330
22
100
AcDbEntity
  8
0
  6
Continuous
 62
     7
100
AcDbLine
 10
-86.14618682861328
 20
203.5505218505859
 30
0.0
 11
-84.69093322753906
 21
202.0952606201172
 31
0.0
  0
LINE
  5
152
330
22
100
AcDbEntity
  8
0
  6
Continuous
 62
     7
100
AcDbLine
 10
-86.14618682861328
 20
160.1310577392578
 30
0.0
 11
-86.14618682861328
 21
204.1310577392578
 31
0.0
  0
LINE
  5
153
330
22
100
AcDbEntity
  8
0
  6
Continuous
 62
     7
100
AcDbLine
 10
-69.14618682861328
 20
204.081787109375
 30
0.0
 11
-70.69533538818359
 21
202.5326538085938
 31
0.0
  0
LINE
  5
154
330
22
100
AcDbEntity
  8
0
  6
Continuous
 62
     7
100
AcDbLine
 10
-70.69533538818359
 20
160.1310577392578
 30
0.0
 11
-70.69533538818359
 21
202.5326538085938
 31
0.0
  0
LINE
  5
155
330
22
100
AcDbEntity
  8
0
  6
Continuous
 62
     7
100
AcDbLine
 10
-86.14618682861328
 20
203.5505218505859
 30
0.0
 11
-69.14618682861328
 21
204.081787109375
 31
0.0
  0
LINE
  5
156
330
22
100
AcDbEntity
  8
0
  6
Continuous
 62
     7
100
AcDbLine
 10
-84.69093322753906
 20
202.0952606201172
 30
0.0
 11
-70.69533538818359
 21
202.5326538085938
 31
0.0
  0
LINE
  5
157
330
22
100
AcDbEntity
  8
0
  6
Continuous
 62
     7
100
AcDbLine
 10
-294.4949645996094
 20
159.1310577392578
 30
0.0
 11
-350.3077697753906
 21
159.1310577392578
 31
0.0
  0
LINE
  5
158
330
22
100
AcDbEntity
  8
0
  6
Continuous
 62
     7
100
AcDbLine
 10
-292.8637390136719
 20
154.1106262207031
 30
0.0
 11
-338.0172424316406
 21
121.3046951293945
 31
0.0
  0
LINE
  5
159
330
22
100
AcDbEntity
  8
0
  6
Continuous
 62
     7
100
AcDbLine
 10
-280.2364807128906
 20
148.7717132568359
 30
0.0
 11
-262.9893798828125
 21
95.69060516357422
 31
0.0
  0
LINE
  5
15A
330
22
100
AcDbEntity
  8
0
  6
Continuous
 62
     7
100
AcDbLine
 10
-285.5152893066406
 20
148.7717132568359
 30
0.0
 11
-302.7623596191406
 21
95.69060516357422
 31
0.0
  0
ARC
  5
15B
330
22
100
AcDbEntity
  8
0
  6
Continuous
 62
     7
100
AcDbCircle
 10
-282.8760375976563
 20
160.1310577392578
 30
0.0
 40
64.0
100
AcDbArc
 50
180.8952829798999
 51
215.1047138289366
  0
ARC
  5
15C
330
22
100
AcDbEntity
  8
0
  6
Continuous
 62
     7
100
AcDbCircle
 10
-307.6034851074219
 20
152.0966186523438
 30
0.0
 40
45.0
100
AcDbArc
 50
173.2763899535916
 51
222.7236015418641
  0
CIRCLE
  5
15D
330
22
100
AcDbEntity
  8
0
  6
Continuous
 62
     7
100
AcDbCircle
 10
-282.8760375976563
 20
160.1310577392578
 30
0.0
 40
79.0
  0
CIRCLE
  5
15E
330
22
100
AcDbEntity
  8
0
  6
DASHED
 62
     7
100
AcDbCircle
 10
-282.8760375976563
 20
160.1310577392578
 30
0.0
 40
74.0
  0
ARC
  5
15F
330
22
100
AcDbEntity
  8
0
  6
Continuous
 62
     7
100
AcDbCircle
 10
-115.4699554443359
 20
79.13105773925781
 30
0.0
 40
2.0
100
AcDbArc
 50
270.0000000000005
 51
336.9998935798112
  0
ARC
  5
160
330
22
100
AcDbEntity
  8
0
  6
Continuous
 62
     7
100
AcDbCircle
 10
-96.40461730957031
 20
106.1310577392578
 30
0.0
 40
5.0
100
AcDbArc
 50
90.00000000000019
 51
156.9999619005455
  0
ARC
  5
161
330
22
100
AcDbEntity
  8
0
  6
Continuous
 62
     7
100
AcDbCircle
 10
-98.25850677490235
 20
124.5071868896484
 30
0.0
 40
2.179043769836426
100
AcDbArc
 50
217.6286963237937
 51
244.312927518037
  0
ARC
  5
162
330
22
100
AcDbEntity
  8
0
  6
Continuous
 62
     7
100
AcDbCircle
 10
-96.84449005126952
 20
123.45263671875
 30
0.0
 40
3.151878118515015
100
AcDbArc
 50
138.4428909561905
 51
185.0208748864103
  0
ARC
  5
163
330
22
100
AcDbEntity
  8
0
  6
Continuous
 62
     7
100
AcDbCircle
 10
-97.14618682861328
 20
201.6310577392578
 30
0.0
 40
1.0
100
AcDbArc
 50
270.0000000000005
 51
0.0
  0
ARC
  5
164
330
22
100
AcDbEntity
  8
0
  6
Continuous
 62
     7
100
AcDbCircle
 10
-115.4699554443359
 20
241.1310577392578
 30
0.0
 40
2.0
100
AcDbArc
 50
23.00010642018959
 51
90.00000000000019
  0
ARC
  5
165
330
22
100
AcDbEntity
  8
0
  6
Continuous
 62
     7
100
AcDbCircle
 10
-96.40461730957031
 20
214.1310577392578
 30
0.0
 40
5.0
100
AcDbArc
 50
203.0000380994552
 51
270.0000000000005
  0
ARC
  5
166
330
22
100
AcDbEntity
  8
0
  6
Continuous
 62
     7
100
AcDbCircle
 10
-95.14618682861328
 20
204.1310577392578
 30
0.0
 40
1.0
100
AcDbArc
 50
90.00000000000019
 51
180.0000000000004
  0
ARC
  5
167
330
22
100
AcDbEntity
  8
0
  6
Continuous
 62
     7
100
AcDbCircle
 10
-119.0671463012695
 20
229.1310577392578
 30
0.0
 40
5.0
100
AcDbArc
 50
23.00003809945448
 51
90.00000000000019
  0
ARC
  5
168
330
22
100
AcDbEntity
  8
0
  6
Continuous
 62
     7
100
AcDbCircle
 10
-100.8759231567383
 20
201.6310577392578
 30
0.0
 40
1.0
100
AcDbArc
 50
202.9999356190722
 51
270.0000000000005
  0
ARC
  5
169
330
22
100
AcDbEntity
  8
0
  6
Continuous
 62
     7
100
AcDbCircle
 10
-68.17754364013672
 20
123.8269805908203
 30
0.0
 40
1.970955729484558
100
AcDbArc
 50
119.4365007969899
 51
182.7751965997311
  0
ARC
  5
16A
330
22
100
AcDbEntity
  8
0
  6
Continuous
 62
     7
100
AcDbCircle
 10
-68.50171661376953
 20
124.100830078125
 30
0.0
 40
1.685425519943236
100
AcDbArc
 50
192.6562439801776
 51
247.5189128225462
  0
CIRCLE
  5
16B
330
22
100
AcDbEntity
  8
0
  6
Continuous
 62
     7
100
AcDbCircle
 10
-282.8760375976563
 20
160.1310577392578
 30
0.0
 40
78.0
  0
ARC
  5
16C
330
22
100
AcDbEntity
  8
0
  6
Continuous
 62
     7
100
AcDbCircle
 10
-282.8757934570313
 20
160.1311340332031
 30
0.0
 40
43.0
100
AcDbArc
 50
325.3325947127945
 51
358.6674199464447
  0
ARC
  5
16D
330
22
100
AcDbEntity
  8
0
  6
Continuous
 62
     7
100
AcDbCircle
 10
-282.8757934570313
 20
160.1311340332031
 30
0.0
 40
45.0
100
AcDbArc
 50
325.2733501575164
 51
358.726655754168
  0
ARC
  5
16E
330
22
100
AcDbEntity
  8
0
  6
Continuous
 62
     7
100
AcDbCircle
 10
-282.8757934570313
 20
160.1311340332031
 30
0.0
 40
50.0
100
AcDbArc
 50
325.1459907758191
 51
358.854008150429
  0
ARC
  5
16F
330
22
100
AcDbEntity
  8
0
  6
Continuous
 62
     7
100
AcDbCircle
 10
-282.8757934570313
 20
160.1311340332031
 30
0.0
 40
36.0
100
AcDbArc
 50
325.5917769621961
 51
358.4082460918147
  0
ARC
  5
170
330
22
100
AcDbEntity
  8
0
  6
Continuous
 62
     7
100
AcDbCircle
 10
-282.8757934570313
 20
160.1311340332031
 30
0.0
 40
38.0
100
AcDbArc
 50
325.5079639629128
 51
358.4920425273755
  0
ARC
  5
171
330
22
100
AcDbEntity
  8
0
  6
Continuous
 62
     7
100
AcDbCircle
 10
-282.8757934570313
 20
160.1311340332031
 30
0.0
 40
57.0
100
AcDbArc
 50
325.0052430673419
 51
358.9947592934265
  0
ARC
  5
172
330
22
100
AcDbEntity
  8
0
  6
Continuous
 62
     7
100
AcDbCircle
 10
-282.8757934570313
 20
160.1311340332031
 30
0.0
 40
64.0
100
AcDbArc
 50
324.8952861710648
 51
359.1047170201015
  0
ARC
  5
173
330
22
100
AcDbEntity
  8
0
  6
Continuous
 62
     7
100
AcDbCircle
 10
-282.8757934570313
 20
160.1311340332031
 30
0.0
 40
52.0
100
AcDbArc
 50
325.1019100042444
 51
358.8980902292462
  0
ARC
  5
174
330
22
100
AcDbEntity
  8
0
  6
Continuous
 62
     7
100
AcDbCircle
 10
-282.8757934570313
 20
160.1311340332031
 30
0.0
 40
59.0
100
AcDbArc
 50
324.9711718996329
 51
359.0288386989403
  0
ARC
  5
175
330
22
100
AcDbEntity
  8
0
  6
Continuous
 62
     7
100
AcDbCircle
 10
-282.8757934570313
 20
160.1311340332031
 30
0.0
 40
66.0
100
AcDbArc
 50
324.8681518893577
 51
359.1318490127822
  0
ARC
  5
176
330
22
100
AcDbEntity
  8
0
  6
Continuous
 62
     7
100
AcDbCircle
 10
-282.8760375976563
 20
160.1310577392578
 30
0.0
 40
43.0
100
AcDbArc
 50
181.3325809992189
 51
214.667428417065
  0
ARC
  5
177
330
22
100
AcDbEntity
  8
0
  6
Continuous
 62
     7
100
AcDbCircle
 10
-282.8760375976563
 20
160.1310577392578
 30
0.0
 40
38.0
100
AcDbArc
 50
181.5079586835187
 51
214.4920620943921
  0
ARC
  5
178
330
22
100
AcDbEntity
  8
0
  6
Continuous
 62
     7
100
AcDbCircle
 10
-282.8758850097656
 20
160.1310119628906
 30
0.0
 40
64.0
100
AcDbArc
 50
252.8952904901967
 51
287.1047356221295
  0
ARC
  5
179
330
22
100
AcDbEntity
  8
0
  6
Continuous
 62
     7
100
AcDbCircle
 10
-282.8758850097656
 20
160.1310119628906
 30
0.0
 40
66.0
100
AcDbArc
 50
252.8681612548265
 51
287.1318640625261
  0
ARC
  5
17A
330
22
100
AcDbEntity
  8
0
  6
Continuous
 62
     7
100
AcDbCircle
 10
-282.8758850097656
 20
160.1310119628906
 30
0.0
 40
57.0
100
AcDbArc
 50
253.005254516336
 51
286.9947748200303
  0
ARC
  5
17B
330
22
100
AcDbEntity
  8
0
  6
Continuous
 62
     7
100
AcDbCircle
 10
-282.8758850097656
 20
160.1310119628906
 30
0.0
 40
59.0
100
AcDbArc
 50
252.971168024909
 51
287.0288319750923
  0
ARC
  5
17C
330
22
100
AcDbEntity
  8
0
  6
Continuous
 62
     7
100
AcDbCircle
 10
-282.8758850097656
 20
160.1310119628906
 30
0.0
 40
28.0
100
AcDbArc
 50
254.0467296646005
 51
285.9532703354009
  0
ARC
  5
17D
330
22
100
AcDbEntity
  8
0
  6
Continuous
 62
     7
100
AcDbCircle
 10
-282.8758850097656
 20
160.1310119628906
 30
0.0
 40
38.0
100
AcDbArc
 50
253.5079802357328
 51
286.4920638851282
  0
CIRCLE
  5
17E
330
22
100
AcDbEntity
  8
0
  6
Continuous
 62
     7
100
AcDbCircle
 10
-282.8760375976563
 20
160.1310577392578
 30
0.0
 40
90.5
  0
ARC
  5
17F
330
22
100
AcDbEntity
  8
0
  6
Continuous
 62
     7
100
AcDbCircle
 10
-282.8758850097656
 20
160.1310119628906
 30
0.0
 40
22.0
100
AcDbArc
 50
254.6052991910702
 51
285.3947774357985
  0
ARC
  5
180
330
22
100
AcDbEntity
  8
0
  6
Continuous
 62
     7
100
AcDbCircle
 10
-282.8758850097656
 20
160.1310119628906
 30
0.0
 40
30.0
100
AcDbArc
 50
253.9102164371286
 51
286.0897835628728
  0
ARC
  5
181
330
22
100
AcDbEntity
  8
0
  6
Continuous
 62
     7
100
AcDbCircle
 10
-282.8758850097656
 20
134.1310119628906
 30
0.0
 40
45.0
100
AcDbArc
 50
245.2763910742257
 51
294.7236089257757
  0
ARC
  5
182
330
22
100
AcDbEntity
  8
0
  6
Continuous
 62
     7
100
AcDbCircle
 10
-282.8758850097656
 20
160.1310119628906
 30
0.0
 40
50.0
100
AcDbArc
 50
253.145991077098
 51
286.8540089229033
  0
ARC
  5
183
330
22
100
AcDbEntity
  8
0
  6
Continuous
 62
     7
100
AcDbCircle
 10
-282.8758850097656
 20
160.1310119628906
 30
0.0
 40
52.0
100
AcDbArc
 50
253.10192758022
 51
286.89810459349
  0
ARC
  5
184
330
22
100
AcDbEntity
  8
0
  6
Continuous
 62
     7
100
AcDbCircle
 10
-282.8758850097656
 20
160.1310119628906
 30
0.0
 40
36.0
100
AcDbArc
 50
253.5917709964716
 51
286.4082755956617
  0
ARC
  5
185
330
22
100
AcDbEntity
  8
0
  6
Continuous
 62
     7
100
AcDbCircle
 10
-282.8758850097656
 20
160.1310119628906
 30
0.0
 40
45.0
100
AcDbArc
 50
253.2733581178096
 51
286.7266790943201
  0
ARC
  5
186
330
22
100
AcDbEntity
  8
0
  6
Continuous
 62
     7
100
AcDbCircle
 10
-339.1928100585938
 20
122.9227294921875
 30
0.0
 40
2.0
100
AcDbArc
 50
222.7236589262633
 51
305.9999270077038
  0
ARC
  5
187
330
22
100
AcDbEntity
  8
0
  6
Continuous
 62
     7
100
AcDbCircle
 10
-282.8758850097656
 20
160.1310119628906
 30
0.0
 40
43.0
100
AcDbArc
 50
253.3325961855471
 51
286.6674427694571
  0
ARC
  5
188
330
22
100
AcDbEntity
  8
0
  6
Continuous
 62
     7
100
AcDbCircle
 10
-300.8602600097656
 20
95.07257080078124
 30
0.0
 40
2.0
100
AcDbArc
 50
161.9998709766013
 51
245.2763034736197
  0
ARC
  5
189
330
22
100
AcDbEntity
  8
0
  6
Continuous
 62
     7
100
AcDbCircle
 10
-264.8915100097656
 20
95.07257080078124
 30
0.0
 40
2.0
100
AcDbArc
 50
294.7236965263817
 51
17.99985886123844
  0
ARC
  5
18A
330
22
100
AcDbEntity
  8
0
  6
Continuous
 62
     7
100
AcDbCircle
 10
-226.5590057373047
 20
122.9228057861328
 30
0.0
 40
2.0
100
AcDbArc
 50
233.9997193460074
 51
317.2763410737382
  0
ARC
  5
18B
330
22
100
AcDbEntity
  8
0
  6
Continuous
 62
     7
100
AcDbCircle
 10
-303.8891906738281
 20
224.8029022216797
 30
0.0
 40
6.0
100
AcDbArc
 50
199.2591706606579
 51
265.9762462974472
  0
ARC
  5
18C
330
22
100
AcDbEntity
  8
0
  6
Continuous
 62
     7
100
AcDbCircle
 10
-311.4073791503906
 20
222.0736694335939
 30
0.0
 40
2.0
100
AcDbArc
 50
18.00006672812741
 51
107.9451799802906
  0
ARC
  5
18D
330
22
100
AcDbEntity
  8
0
  6
Continuous
 62
     7
100
AcDbCircle
 10
-215.4440460205078
 20
157.1311340332031
 30
0.0
 40
2.0
100
AcDbArc
 50
6.723678205972813
 51
90.00000000000019
  0
ARC
  5
18E
330
22
100
AcDbEntity
  8
0
  6
Continuous
 62
     7
100
AcDbCircle
 10
-282.8758850097656
 20
160.1312561035156
 30
0.0
 40
30.0
100
AcDbArc
 50
37.91021208341663
 51
70.08976437507737
  0
ARC
  5
18F
330
22
100
AcDbEntity
  8
0
  6
Continuous
 62
     7
100
AcDbCircle
 10
-282.8758850097656
 20
160.1312561035156
 30
0.0
 40
43.0
100
AcDbArc
 50
37.33257128435779
 51
70.66741759661835
  0
ARC
  5
190
330
22
100
AcDbEntity
  8
0
  6
Continuous
 62
     7
100
AcDbCircle
 10
-282.8758850097656
 20
160.1312561035156
 30
0.0
 40
45.0
100
AcDbArc
 50
37.27334475700791
 51
70.72665178503012
  0
ARC
  5
191
330
22
100
AcDbEntity
  8
0
  6
Continuous
 62
     7
100
AcDbCircle
 10
-282.8758850097656
 20
160.1312561035156
 30
0.0
 40
38.0
100
AcDbArc
 50
37.50795779836963
 51
70.49204345276296
  0
ARC
  5
192
330
22
100
AcDbEntity
  8
0
  6
Continuous
 62
     7
100
AcDbCircle
 10
-282.8758850097656
 20
160.1312561035156
 30
0.0
 40
36.0
100
AcDbArc
 50
37.59175297764195
 51
70.40824432743945
  0
ARC
  5
193
330
22
100
AcDbEntity
  8
0
  6
Continuous
 62
     7
100
AcDbCircle
 10
-254.3412780761719
 20
222.0726623535156
 30
0.0
 40
2.0
100
AcDbArc
 50
72.04984143648728
 51
161.9996631070142
  0
ARC
  5
194
330
22
100
AcDbEntity
  8
0
  6
Continuous
 62
     7
100
AcDbCircle
 10
-261.3013610839844
 20
216.8226318359375
 30
0.0
 40
2.0
100
AcDbArc
 50
94.02491651237879
 51
161.9996631070142
  0
ARC
  5
195
330
22
100
AcDbEntity
  8
0
  6
Continuous
 62
     7
100
AcDbCircle
 10
-261.8628540039063
 20
224.8029022216797
 30
0.0
 40
2.75
100
AcDbArc
 50
251.9994589962278
 51
72.00006370418606
  0
ARC
  5
196
330
22
100
AcDbEntity
  8
0
  6
Continuous
 62
     7
100
AcDbCircle
 10
-282.8760375976563
 20
160.1310577392578
 30
0.0
 40
65.25
100
AcDbArc
 50
71.99999981038799
 51
104.6681459095336
  0
ARC
  5
197
330
22
100
AcDbEntity
  8
0
  6
CENTER
 62
     7
100
AcDbCircle
 10
-282.8760375976563
 20
160.1310577392578
 30
0.0
 40
68.0
100
AcDbArc
 50
66.94030664128357
 51
113.0571289609964
  0
ARC
  5
198
330
22
100
AcDbEntity
  8
0
  6
Continuous
 62
     7
100
AcDbCircle
 10
-282.8760375976563
 20
160.1310577392578
 30
0.0
 40
63.01117324829102
100
AcDbArc
 50
71.99999625175343
 51
107.999977356902
  0
ARC
  5
199
330
22
100
AcDbEntity
  8
0
  6
Continuous
 62
     7
100
AcDbCircle
 10
-267.5934753417969
 20
181.1656951904297
 30
0.0
 40
45.0
100
AcDbArc
 50
29.27639022267234
 51
72.0497827355249
  0
ARC
  5
19A
330
22
100
AcDbEntity
  8
0
  6
Continuous
 62
     7
100
AcDbCircle
 10
-282.8758850097656
 20
160.1312561035156
 30
0.0
 40
59.0
100
AcDbArc
 50
36.97115525419977
 51
71.02882934692515
  0
ARC
  5
19B
330
22
100
AcDbEntity
  8
0
  6
Continuous
 62
     7
100
AcDbCircle
 10
-282.8758850097656
 20
160.1312561035156
 30
0.0
 40
50.0
100
AcDbArc
 50
37.14598433844933
 51
70.85398853152582
  0
ARC
  5
19C
330
22
100
AcDbEntity
  8
0
  6
Continuous
 62
     7
100
AcDbCircle
 10
-282.8758850097656
 20
160.1312561035156
 30
0.0
 40
66.0
100
AcDbArc
 50
36.86814911741704
 51
67.16048837182255
  0
ARC
  5
19D
330
22
100
AcDbEntity
  8
0
  6
Continuous
 62
     7
100
AcDbCircle
 10
-282.8758850097656
 20
160.1312561035156
 30
0.0
 40
64.0
100
AcDbArc
 50
36.89528409250038
 51
68.11499204459598
  0
ARC
  5
19E
330
22
100
AcDbEntity
  8
0
  6
Continuous
 62
     7
100
AcDbCircle
 10
-282.8758850097656
 20
160.1312561035156
 30
0.0
 40
52.0
100
AcDbArc
 50
37.10190107872
 51
70.89809233511523
  0
ARC
  5
19F
330
22
100
AcDbEntity
  8
0
  6
Continuous
 62
     7
100
AcDbCircle
 10
-282.8758850097656
 20
160.1312561035156
 30
0.0
 40
57.0
100
AcDbArc
 50
37.00523693880814
 51
70.99475910233209
  0
ARC
  5
1A0
330
22
100
AcDbEntity
  8
0
  6
Continuous
 62
     7
100
AcDbCircle
 10
-282.8760375976563
 20
160.1312103271484
 30
0.0
 40
50.0
100
AcDbArc
 50
109.1459784322717
 51
142.853994544637
  0
ARC
  5
1A1
330
22
100
AcDbEntity
  8
0
  6
Continuous
 62
     7
100
AcDbCircle
 10
-282.8760375976563
 20
160.1312103271484
 30
0.0
 40
52.0
100
AcDbArc
 50
109.1019076648848
 51
142.8980786371843
  0
ARC
  5
1A2
330
22
100
AcDbEntity
  8
0
  6
Continuous
 62
     7
100
AcDbCircle
 10
-282.8760375976563
 20
160.1312103271484
 30
0.0
 40
43.0
100
AcDbArc
 50
109.3325507636558
 51
142.6674040556716
  0
ARC
  5
1A3
330
22
100
AcDbEntity
  8
0
  6
Continuous
 62
     7
100
AcDbCircle
 10
-282.8760375976563
 20
160.1312103271484
 30
0.0
 40
45.0
100
AcDbArc
 50
109.2733115364936
 51
142.7266317109637
  0
ARC
  5
1A4
330
22
100
AcDbEntity
  8
0
  6
Continuous
 62
     7
100
AcDbCircle
 10
-282.8760375976563
 20
160.1312103271484
 30
0.0
 40
36.0
100
AcDbArc
 50
109.5917180574415
 51
142.4082322076763
  0
ARC
  5
1A5
330
22
100
AcDbEntity
  8
0
  6
Continuous
 62
     7
100
AcDbCircle
 10
-304.4505615234375
 20
216.8226165771484
 30
0.0
 40
2.0
100
AcDbArc
 50
18.0003368929858
 51
85.97595559467889
  0
ARC
  5
1A6
330
22
100
AcDbEntity
  8
0
  6
Continuous
 62
     7
100
AcDbCircle
 10
-303.8891906738281
 20
224.8029022216797
 30
0.0
 40
5.0
100
AcDbArc
 50
107.9998962362538
 51
288.0002288261021
  0
CIRCLE
  5
1A7
330
22
100
AcDbEntity
  8
0
  6
Continuous
 62
     7
100
AcDbCircle
 10
-303.8891906738281
 20
224.8029022216797
 30
0.0
 40
4.75
  0
ARC
  5
1A8
330
22
100
AcDbEntity
  8
0
  6
Continuous
 62
     7
100
AcDbCircle
 10
-283.6131591796875
 20
148.1536865234375
 30
0.0
 40
2.0
100
AcDbArc
 50
86.47798277862007
 51
162.0003490061406
  0
ARC
  5
1A9
330
22
100
AcDbEntity
  8
0
  6
Continuous
 62
     7
100
AcDbCircle
 10
-282.8757934570313
 20
160.1311340332031
 30
0.0
 40
28.0
100
AcDbArc
 50
326.046731310566
 51
357.9532876373457
  0
ARC
  5
1AA
330
22
100
AcDbEntity
  8
0
  6
Continuous
 62
     7
100
AcDbCircle
 10
-282.8757934570313
 20
160.1311340332031
 30
0.0
 40
22.0
100
AcDbArc
 50
326.6052710868278
 51
357.3947491408036
  0
ARC
  5
1AB
330
22
100
AcDbEntity
  8
0
  6
Continuous
 62
     7
100
AcDbCircle
 10
-282.8757934570313
 20
160.1311340332031
 30
0.0
 40
20.0
100
AcDbArc
 50
326.8660142688184
 51
357.1340147612629
  0
ARC
  5
1AC
330
22
100
AcDbEntity
  8
0
  6
Continuous
 62
     7
100
AcDbCircle
 10
-271.2568359375
 20
157.1311340332031
 30
0.0
 40
2.0
100
AcDbArc
 50
90.00000000000019
 51
165.522496743742
  0
ARC
  5
1AD
330
22
100
AcDbEntity
  8
0
  6
Continuous
 62
     7
100
AcDbCircle
 10
-282.8760375976563
 20
160.1310577392578
 30
0.0
 40
73.0
100
AcDbArc
 50
71.99998655729918
 51
107.9999906625727
  0
ARC
  5
1AE
330
22
100
AcDbEntity
  8
0
  6
Continuous
 62
     7
100
AcDbCircle
 10
-282.8760375976563
 20
160.1310577392578
 30
0.0
 40
70.75
100
AcDbArc
 50
71.99998127280612
 51
104.8003031549903
  0
ARC
  5
1AF
330
22
100
AcDbEntity
  8
0
  6
Continuous
 62
     7
100
AcDbCircle
 10
-282.1385803222656
 20
148.1536865234375
 30
0.0
 40
2.0
100
AcDbArc
 50
17.99992115332157
 51
93.522889836456
  0
ARC
  5
1B0
330
22
100
AcDbEntity
  8
0
  6
Continuous
 62
     7
100
AcDbCircle
 10
-294.4949645996094
 20
157.1310577392578
 30
0.0
 40
2.0
100
AcDbArc
 50
14.47750325625797
 51
90.00000000000019
  0
ARC
  5
1B1
330
22
100
AcDbEntity
  8
0
  6
Continuous
 62
     7
100
AcDbCircle
 10
-282.8760375976563
 20
160.1310577392578
 30
0.0
 40
10.0
100
AcDbArc
 50
194.4775469695458
 51
201.5224477564561
  0
ARC
  5
1B2
330
22
100
AcDbEntity
  8
0
  6
Continuous
 62
     7
100
AcDbCircle
 10
-261.8628540039063
 20
224.8029022216797
 30
0.0
 40
6.0
100
AcDbArc
 50
274.0246360369806
 51
339.4713097451399
  0
ARC
  5
1B3
330
22
100
AcDbEntity
  8
0
  6
Continuous
 62
     7
100
AcDbCircle
 10
-261.8628540039063
 20
224.8029022216797
 30
0.0
 40
5.0
100
AcDbArc
 50
251.9997711738992
 51
72.00010376374627
  0
ARC
  5
1B4
330
22
100
AcDbEntity
  8
0
  6
Continuous
 62
     7
100
AcDbCircle
 10
-230.0858154296875
 20
202.1936950683594
 30
0.0
 40
2.0
100
AcDbArc
 50
305.9997985383335
 51
29.27636352201952
  0
ARC
  5
1B5
330
22
100
AcDbEntity
  8
0
  6
Continuous
 62
     7
100
AcDbCircle
 10
-282.8760375976563
 20
160.1310577392578
 30
0.0
 40
22.0
100
AcDbArc
 50
182.6052544718638
 51
213.3947726585384
  0
ARC
  5
1B6
330
22
100
AcDbEntity
  8
0
  6
Continuous
 62
     7
100
AcDbCircle
 10
-282.8760375976563
 20
160.1310577392578
 30
0.0
 40
20.0
100
AcDbArc
 50
182.8659852387386
 51
213.1340335184143
  0
ARC
  5
1B7
330
22
100
AcDbEntity
  8
0
  6
Continuous
 62
     7
100
AcDbCircle
 10
-290.5126037597656
 20
169.3877105712891
 30
0.0
 40
2.0
100
AcDbArc
 50
233.9999445221343
 51
309.5224795352713
  0
ARC
  5
1B8
330
22
100
AcDbEntity
  8
0
  6
Continuous
 62
     7
100
AcDbCircle
 10
-282.8760375976563
 20
160.1312103271484
 30
0.0
 40
10.0
100
AcDbArc
 50
122.4773947038667
 51
129.522455931155
  0
CIRCLE
  5
1B9
330
22
100
AcDbEntity
  8
0
  6
Continuous
 62
     7
100
AcDbCircle
 10
-282.8760375976563
 20
160.1310577392578
 30
0.0
 40
5.0
  0
CIRCLE
  5
1BA
330
22
100
AcDbEntity
  8
0
  6
Continuous
 62
     7
100
AcDbCircle
 10
-282.8760375976563
 20
160.1310577392578
 30
0.0
 40
5.5
  0
ARC
  5
1BB
330
22
100
AcDbEntity
  8
0
  6
Continuous
 62
     7
100
AcDbCircle
 10
-275.2393188476563
 20
169.3877563476563
 30
0.0
 40
2.0
100
AcDbArc
 50
230.4781948545322
 51
306.0007627683063
  0
ARC
  5
1BC
330
22
100
AcDbEntity
  8
0
  6
Continuous
 62
     7
100
AcDbCircle
 10
-282.8758850097656
 20
160.1312561035156
 30
0.0
 40
10.0
100
AcDbArc
 50
50.47740919183095
 51
57.52245778968815
  0
ARC
  5
1BD
330
22
100
AcDbEntity
  8
0
  6
Continuous
 62
     7
100
AcDbCircle
 10
-282.8758850097656
 20
160.1310119628906
 30
0.0
 40
10.0
100
AcDbArc
 50
266.4774699525468
 51
273.5225300474547
  0
ARC
  5
1BE
330
22
100
AcDbEntity
  8
0
  6
Continuous
 62
     7
100
AcDbCircle
 10
-282.8760375976563
 20
160.1312103271484
 30
0.0
 40
38.0
100
AcDbArc
 50
109.507956547237
 51
142.4920141850629
  0
ARC
  5
1BF
330
22
100
AcDbEntity
  8
0
  6
Continuous
 62
     7
100
AcDbCircle
 10
-282.8760375976563
 20
160.1312103271484
 30
0.0
 40
30.0
100
AcDbArc
 50
109.910180824458
 51
142.0897521052064
  0
ARC
  5
1C0
330
22
100
AcDbEntity
  8
0
  6
Continuous
 62
     7
100
AcDbCircle
 10
-282.8760375976563
 20
160.1310577392578
 30
0.0
 40
30.0
100
AcDbArc
 50
181.9102145605844
 51
214.0898109162526
  0
ARC
  5
1C1
330
22
100
AcDbEntity
  8
0
  6
Continuous
 62
     7
100
AcDbCircle
 10
-282.8757934570313
 20
160.1311340332031
 30
0.0
 40
30.0
100
AcDbArc
 50
325.9102217515958
 51
358.0897873822272
  0
ARC
  5
1C2
330
22
100
AcDbEntity
  8
0
  6
Continuous
 62
     7
100
AcDbCircle
 10
-335.6660766601563
 20
202.1936492919922
 30
0.0
 40
2.0
100
AcDbArc
 50
150.7240640084746
 51
234.0002014616679
  0
ARC
  5
1C3
330
22
100
AcDbEntity
  8
0
  6
Continuous
 62
     7
100
AcDbCircle
 10
-282.8757934570313
 20
160.1311340332031
 30
0.0
 40
10.0
100
AcDbArc
 50
338.4775522435453
 51
345.5224967437428
  0
ARC
  5
1C4
330
22
100
AcDbEntity
  8
0
  6
Continuous
 62
     7
100
AcDbCircle
 10
-271.7124938964844
 20
155.7287445068359
 30
0.0
 40
2.0
100
AcDbArc
 50
158.4776633546179
 51
234.0002014616679
  0
ARC
  5
1C5
330
22
100
AcDbEntity
  8
0
  6
Continuous
 62
     7
100
AcDbCircle
 10
-282.8758850097656
 20
160.1312561035156
 30
0.0
 40
20.0
100
AcDbArc
 50
38.86596603150574
 51
69.13396017154356
  0
ARC
  5
1C6
330
22
100
AcDbEntity
  8
0
  6
Continuous
 62
     7
100
AcDbCircle
 10
-282.8758850097656
 20
160.1312561035156
 30
0.0
 40
22.0
100
AcDbArc
 50
38.60524306030618
 51
69.39475976876291
  0
ARC
  5
1C7
330
22
100
AcDbEntity
  8
0
  6
Continuous
 62
     7
100
AcDbCircle
 10
-276.4322509765625
 20
170.2544860839844
 30
0.0
 40
2.0
100
AcDbArc
 50
161.9999332718726
 51
237.5224041742646
  0
ARC
  5
1C8
330
22
100
AcDbEntity
  8
0
  6
Continuous
 62
     7
100
AcDbCircle
 10
-282.8760375976563
 20
160.1312103271484
 30
0.0
 40
20.0
100
AcDbArc
 50
110.8659581358253
 51
141.1339791083131
  0
ARC
  5
1C9
330
22
100
AcDbEntity
  8
0
  6
Continuous
 62
     7
100
AcDbCircle
 10
-282.8760375976563
 20
160.1312103271484
 30
0.0
 40
22.0
100
AcDbArc
 50
110.6052402312371
 51
141.3947073489168
  0
ARC
  5
1CA
330
22
100
AcDbEntity
  8
0
  6
Continuous
 62
     7
100
AcDbCircle
 10
-289.3196411132813
 20
170.2544403076172
 30
0.0
 40
2.0
100
AcDbArc
 50
302.4775958257367
 51
17.99992115332157
  0
ARC
  5
1CB
330
22
100
AcDbEntity
  8
0
  6
Continuous
 62
     7
100
AcDbCircle
 10
-282.8760375976563
 20
160.1312103271484
 30
0.0
 40
28.0
100
AcDbArc
 50
110.046676004271
 51
141.9532846067144
  0
ARC
  5
1CC
330
22
100
AcDbEntity
  8
0
  6
Continuous
 62
     7
100
AcDbCircle
 10
-282.8758850097656
 20
160.1312561035156
 30
0.0
 40
28.0
100
AcDbArc
 50
38.04673998223174
 51
69.95326533174659
  0
ARC
  5
1CD
330
22
100
AcDbEntity
  8
0
  6
Continuous
 62
     7
100
AcDbCircle
 10
-282.8760375976563
 20
160.1312103271484
 30
0.0
 40
57.0
100
AcDbArc
 50
109.0052118939117
 51
142.9947538294504
  0
ARC
  5
1CE
330
22
100
AcDbEntity
  8
0
  6
Continuous
 62
     7
100
AcDbCircle
 10
-282.8760375976563
 20
160.1312103271484
 30
0.0
 40
59.0
100
AcDbArc
 50
108.9711426267612
 51
143.0288358340416
  0
ARC
  5
1CF
330
22
100
AcDbEntity
  8
0
  6
Continuous
 62
     7
100
AcDbCircle
 10
-298.158447265625
 20
181.1656494140625
 30
0.0
 40
45.0
100
AcDbArc
 50
107.9456276144561
 51
150.7236097773277
  0
ARC
  5
1D0
330
22
100
AcDbEntity
  8
0
  6
Continuous
 62
     7
100
AcDbCircle
 10
-282.8760375976563
 20
160.1312103271484
 30
0.0
 40
64.0
100
AcDbArc
 50
111.8850130472422
 51
143.1046995053575
  0
ARC
  5
1D1
330
22
100
AcDbEntity
  8
0
  6
Continuous
 62
     7
100
AcDbCircle
 10
-294.039306640625
 20
155.7286682128906
 30
0.0
 40
2.0
100
AcDbArc
 50
305.9997985383335
 51
21.52265738318204
  0
ARC
  5
1D2
330
22
100
AcDbEntity
  8
0
  6
Continuous
 62
     7
100
AcDbCircle
 10
-282.8760375976563
 20
160.1310577392578
 30
0.0
 40
28.0
100
AcDbArc
 50
182.0467145929223
 51
213.9533035673743
  0
ARC
  5
1D3
330
22
100
AcDbEntity
  8
0
  6
Continuous
 62
     7
100
AcDbCircle
 10
-350.3077697753906
 20
157.1310577392578
 30
0.0
 40
2.0
100
AcDbArc
 50
90.00000000000019
 51
173.2763217940272
  0
ARC
  5
1D4
330
22
100
AcDbEntity
  8
0
  6
Continuous
 62
     7
100
AcDbCircle
 10
-87.14618682861328
 20
204.1310577392578
 30
0.0
 40
1.0
100
AcDbArc
 50
0.0
 51
90.00000000000019
  0
ARC
  5
1D5
330
22
100
AcDbEntity
  8
0
  6
Continuous
 62
     7
100
AcDbCircle
 10
-282.8760375976563
 20
160.1310577392578
 30
0.0
 40
66.0
100
AcDbArc
 50
180.8681513886263
 51
215.1318481106437
  0
ARC
  5
1D6
330
22
100
AcDbEntity
  8
0
  6
Continuous
 62
     7
100
AcDbCircle
 10
-282.8760375976563
 20
160.1310577392578
 30
0.0
 40
45.0
100
AcDbArc
 50
181.2733451093047
 51
214.726649842485
  0
ARC
  5
1D7
330
22
100
AcDbEntity
  8
0
  6
Continuous
 62
     7
100
AcDbCircle
 10
-282.8760375976563
 20
160.1310577392578
 30
0.0
 40
52.0
100
AcDbArc
 50
181.1019104174006
 51
214.898109233562
  0
ARC
  5
1D8
330
22
100
AcDbEntity
  8
0
  6
Continuous
 62
     7
100
AcDbCircle
 10
-282.8760375976563
 20
160.1310577392578
 30
0.0
 40
57.0
100
AcDbArc
 50
181.0052409756622
 51
214.9947657290094
  0
ARC
  5
1D9
330
22
100
AcDbEntity
  8
0
  6
Continuous
 62
     7
100
AcDbCircle
 10
-258.1483154296875
 20
152.0966949462891
 30
0.0
 40
45.0
100
AcDbArc
 50
317.2763852769083
 51
6.723612321049682
  0
ARC
  5
1DA
330
22
100
AcDbEntity
  8
0
  6
Continuous
 62
     7
100
AcDbCircle
 10
-282.8760375976563
 20
160.1310577392578
 30
0.0
 40
59.0
100
AcDbArc
 50
180.9711615522143
 51
215.0288366057529
  0
ARC
  5
1DB
330
22
100
AcDbEntity
  8
0
  6
Continuous
 62
     7
100
AcDbCircle
 10
-282.8760375976563
 20
160.1310577392578
 30
0.0
 40
50.0
100
AcDbArc
 50
181.1459921992781
 51
214.8540292094279
  0
CIRCLE
  5
1DC
330
22
100
AcDbEntity
  8
0
  6
DASHED
 62
     7
100
AcDbCircle
 10
-282.8760375976563
 20
160.1310577392578
 30
0.0
 40
40.49999999999999
  0
ARC
  5
1DD
330
22
100
AcDbEntity
  8
0
  6
Continuous
 62
     7
100
AcDbCircle
 10
-282.8758850097656
 20
160.1310119628906
 30
0.0
 40
20.0
100
AcDbArc
 50
254.8659675441812
 51
285.1340324558202
  0
ARC
  5
1DE
330
22
100
AcDbEntity
  8
0
  6
Continuous
 62
     7
100
AcDbCircle
 10
-282.8760375976563
 20
160.1310577392578
 30
0.0
 40
36.0
100
AcDbArc
 50
181.5917552573607
 51
214.4082504841506
  0
LWPOLYLINE
  5
1DF
330
22
100
AcDbEntity
  8
0
  6
Continuous
 62
     7
100
AcDbPolyline
 90
       17
 70
     0
 43
0.0
 10
-130.3432312011719
 20
230.0529022216797
 42
0.0491268497694673
 10
-130.7127505197119
 20
229.9520249437966
 42
0.0491268497694673
 10
-131.0680694180692
 20
229.6532697673639
 42
0.0491268497694673
 10
-131.3955331902451
 20
229.168117686268
 42
0.0491268497694673
 10
-131.6825575871187
 20
228.515212822909
 42
0.0491268497694673
 10
-131.9181124220832
 20
227.7196459450326
 42
0.0491268497694673
 10
-132.0931454549316
 20
226.8119902415964
 42
0.0491268497694673
 10
-132.2009302643713
 20
225.8271264122643
 42
0.0491268497694673
 10
-132.2373247406219
 20
224.8029022216797
 42
0.0491268497694673
 10
-132.2009302643713
 20
223.778678031095
 42
0.0491268497694673
 10
-132.0931454549316
 20
222.7938142017629
 42
0.0491268497694673
 10
-131.9181124220831
 20
221.8861584983268
 42
0.0491268497694673
 10
-131.6825575871186
 20
221.0905916204503
 42
0.0491268497694673
 10
-131.395533190245
 20
220.4376867570914
 42
0.0491268497694673
 10
-131.0680694180691
 20
219.9525346759954
 42
0.0491268497694673
 10
-130.7127505197118
 20
219.6537794995627
 42
0.0491268497694673
 10
-130.3432312011718
 20
219.5529022216797
 42
-1.0
  0
TEXT
  5
1F2
330
22
100
AcDbEntity
  8
0
  6
Continuous
 62
     7
100
AcDbText
 10
-311.4628534317017
 20
43.93332290649413
 30
0.0
 40
7.0
  1
ＤＬ－ＳＵＣ－８０Ｇ
 41
0.8443929888818491
100
AcDbText
  0
DIMENSION
  5
1F3
330
22
100
AcDbEntity
  8
0
  6
Continuous
 62
     7
100
AcDbDimension
  2
*D1
 10
-358.6577053535195
 20
141.6611137182286
 30
0.0
 11
-170.5792541503906
 21
187.5006713867188
 31
0.0
 70
     3
 71
     5
 42
-1.0
  3
DIMSTYLE1
100
AcDbDiametricDimension
 15
-207.094369841793
 25
178.601001760287
 35
0.0
 40
0.0
  0
DIMENSION
  5
1F4
330
22
100
AcDbEntity
  8
0
  6
Continuous
 62
     7
100
AcDbDimension
  2
*D2
 10
-361.0172429074898
 20
114.4779961472196
 30
0.0
 11
-180.6632232666016
 21
219.84765625
 31
0.0
 70
     3
 71
     5
 42
-1.0
  3
DIMSTYLE2
100
AcDbDiametricDimension
 15
-204.7348322878227
 25
205.7841193312961
 35
0.0
 40
0.0
  0
DIMENSION
  5
1F5
330
22
100
AcDbEntity
  8
0
  6
Continuous
 62
     7
100
AcDbDimension
  2
*D3
 10
-69.14618682861328
 20
259.9912414550781
 30
0.0
 11
-99.64618682861328
 21
259.9912414550781
 31
0.0
 71
     5
 42
-1.0
  3
DIMSTYLE3
100
AcDbAlignedDimension
 13
-130.1461944580078
 23
250.6310577392578
 33
0.0
 14
-69.14618682861328
 24
208.0940551757813
 34
0.0
100
AcDbRotatedDimension
  0
INSERT
  5
1F6
330
22
100
AcDbEntity
  8
0
  6
Continuous
 62
     7
100
AcDbBlockReference
  2
KOZU0001
 10
-77.69313049316406
 20
202.3139495849609
 30
0.0
  0
ENDSEC
  0
SECTION
  2
OBJECTS
  0
DICTIONARY
  5
C
330
0
100
AcDbDictionary
281
     1
  3
ACAD_COLOR
350
1B
  3
ACAD_GROUP
350
D
  3
ACAD_LAYOUT
350
19
  3
ACAD_MATERIAL
350
1A
  3
ACAD_MLINESTYLE
350
16
  3
ACAD_PLOTSETTINGS
350
18
  3
ACAD_PLOTSTYLENAME
350
E
  3
ACAD_TABLESTYLE
350
1C
  3
AcDbVariableDictionary
350
202
  0
DICTIONARY
  5
1B
102
{ACAD_REACTORS
330
C
102
}
330
C
100
AcDbDictionary
281
     1
  0
DICTIONARY
  5
D
102
{ACAD_REACTORS
330
C
102
}
330
C
100
AcDbDictionary
281
     1
  0
DICTIONARY
  5
19
102
{ACAD_REACTORS
330
C
102
}
330
C
100
AcDbDictionary
281
     1
  3
Model
350
25
  3
レイアウト1
350
21
  0
DICTIONARY
  5
1A
102
{ACAD_REACTORS
330
C
102
}
330
C
100
AcDbDictionary
281
     1
  0
DICTIONARY
  5
16
102
{ACAD_REACTORS
330
C
102
}
330
C
100
AcDbDictionary
281
     1
  3
Standard
350
17
  0
DICTIONARY
  5
18
102
{ACAD_REACTORS
330
C
102
}
330
C
100
AcDbDictionary
281
     1
  0
ACDBDICTIONARYWDFLT
  5
E
102
{ACAD_REACTORS
330
C
102
}
330
C
100
AcDbDictionary
281
     1
  3
Normal
350
F
100
AcDbDictionaryWithDefault
340
F
  0
DICTIONARY
  5
1C
102
{ACAD_REACTORS
330
C
102
}
330
C
100
AcDbDictionary
281
     1
  3
Standard
350
1D
  0
DICTIONARY
  5
202
102
{ACAD_REACTORS
330
C
102
}
330
C
100
AcDbDictionary
281
     1
  3
CTABLESTYLE
350
203
  0
LAYOUT
  5
25
102
{ACAD_REACTORS
330
19
102
}
330
19
100
AcDbPlotSettings
  1

  2
PDF reDirect v2
  4
A3
  6

 40
3.174999952316284
 41
3.174999952316284
 42
3.17498779296875
 43
3.17498779296875
 44
297.0530090332031
 45
420.1583251953125
 46
0.0
 47
0.0
 48
0.0
 49
0.0
140
0.0
141
0.0
142
1.0
143
1.0
 70
 11952
 72
     1
 73
     1
 74
     2
  7
C:\Users\ck\AppData\Roaming\Autodesk\AutoCAD 2005\R16.1\jpn\Plot Styles\black.ctb
 75
    16
147
1.0
 76
     0
 77
     2
 78
   300
148
423.0
149
2.0
100
AcDbLayout
  1
Model
 70
     1
 71
     0
 10
0.0
 20
0.0
 11
12.0
 21
9.0
 12
0.0
 22
0.0
 32
0.0
 14
0.0
 24
0.0
 34
0.0
 15
0.0
 25
0.0
 35
0.0
146
0.0
 13
0.0
 23
0.0
 33
0.0
 16
1.0
 26
0.0
 36
0.0
 17
0.0
 27
1.0
 37
0.0
 76
     0
330
22
1001
ACAD_PSEXT
1000
PDF reDirect v2
1000
PDF reDirect Pro
1000
PDF_REDIRECT_PORT:
1000
PDF reDirect provided by EXP Systems
1070
     0
  0
LAYOUT
  5
21
102
{ACAD_REACTORS
330
19
102
}
330
19
100
AcDbPlotSettings
  1

  2
PDF reDirect v2
  4

  6

 40
0.0
 41
0.0
 42
0.0
 43
0.0
 44
0.0
 45
0.0
 46
0.0
 47
0.0
 48
0.0
 49
0.0
140
0.0
141
0.0
142
1.0
143
1.0
 70
   688
 72
     0
 73
     0
 74
     5
  7
C:\Users\ck\AppData\Roaming\Autodesk\AutoCAD 2005\R16.1\jpn\Plot Styles\black.ctb
 75
    16
147
1.0
 76
     0
 77
     2
 78
   300
148
0.0
149
0.0
100
AcDbLayout
  1
レイアウト1
 70
     1
 71
     1
 10
-423.0
 20
-2.0
 11
-5.0
 21
293.0
 12
0.0
 22
0.0
 32
0.0
 14
1.000000000000000E+20
 24
1.000000000000000E+20
 34
1.000000000000000E+20
 15
-1.000000000000000E+20
 25
-1.000000000000000E+20
 35
-1.000000000000000E+20
146
0.0
 13
0.0
 23
0.0
 33
0.0
 16
1.0
 26
0.0
 36
0.0
 17
0.0
 27
1.0
 37
0.0
 76
     0
330
1E
  0
MLINESTYLE
  5
17
102
{ACAD_REACTORS
330
16
102
}
330
16
100
AcDbMlineStyle
  2
STANDARD
 70
     0
  3

 62
   256
 51
90.0
 52
90.0
 71
     2
 49
0.5
 62
   256
  6
BYLAYER
 49
-0.5
 62
   256
  6
BYLAYER
  0
ACDBPLACEHOLDER
  5
F
102
{ACAD_REACTORS
330
E
102
}
330
E
  0
TABLESTYLE
  5
1D
102
{ACAD_REACTORS
330
1C
102
}
330
1C
100
AcDbTableStyle
  3
Standard
 70
     0
 71
     0
 40
0.06
 41
0.06
280
     0
281
     0
  7
STANDARD
140
0.18
170
     2
 62
     0
 63
     7
283
     0
274
    -2
284
     1
 64
     0
275
    -2
285
     1
 65
     0
276
    -2
286
     1
 66
     0
277
    -2
287
     1
 67
     0
278
    -2
288
     1
 68
     0
279
    -2
289
     1
 69
     0
  7
STANDARD
140
0.25
170
     5
 62
     0
 63
     7
283
     0
274
    -2
284
     1
 64
     0
275
    -2
285
     1
 65
     0
276
    -2
286
     1
 66
     0
277
    -2
287
     1
 67
     0
278
    -2
288
     1
 68
     0
279
    -2
289
     1
 69
     0
  7
STANDARD
140
0.18
170
     5
 62
     0
 63
     7
283
     0
274
    -2
284
     1
 64
     0
275
    -2
285
     1
 65
     0
276
    -2
286
     1
 66
     0
277
    -2
287
     1
 67
     0
278
    -2
288
     1
 68
     0
279
    -2
289
     1
 69
     0
  0
DICTIONARYVAR
  5
203
102
{ACAD_REACTORS
330
202
102
}
330
202
100
DictionaryVariables
280
     0
  1
STANDARD
  0
ENDSEC
  0
EOF
