  0
SECTION
  2
HEADER
  9
$ACADVER
  1
AC1018
  9
$ACADMAINTVER
 70
    39
  9
$DWGCODEPAGE
  3
ANSI_932
  9
$INSBASE
 10
0.0
 20
0.0
 30
0.0
  9
$EXTMIN
 10
-563.3828110883277
 20
4.73898413304596
 30
-0.0015258207003583
  9
$EXTMAX
 10
-48.85156117851329
 20
421.5526437996336
 30
0.0000000349246037
  9
$LIMMIN
 10
-592.0
 20
0.0
  9
$LIMMAX
 10
0.0
 20
418.0
  9
$ORTHOMODE
 70
     0
  9
$REGENMODE
 70
     1
  9
$FILLMODE
 70
     1
  9
$QTEXTMODE
 70
     0
  9
$MIRRTEXT
 70
     0
  9
$LTSCALE
 40
1.0
  9
$ATTMODE
 70
     1
  9
$TEXTSIZE
 40
0.2
  9
$TRACEWID
 40
0.05
  9
$TEXTSTYLE
  7
STANDARD
  9
$CLAYER
  8
0
  9
$CELTYPE
  6
CONTINUOUS
  9
$CECOLOR
 62
   256
  9
$CELTSCALE
 40
1.0
  9
$DISPSILH
 70
     0
  9
$DIMSCALE
 40
1.0
  9
$DIMASZ
 40
1.0
  9
$DIMEXO
 40
2.54
  9
$DIMDLI
 40
0.38
  9
$DIMRND
 40
0.0
  9
$DIMDLE
 40
0.0
  9
$DIMEXE
 40
2.54
  9
$DIMTP
 40
0.0
  9
$DIMTM
 40
0.0
  9
$DIMTXT
 40
3.0
  9
$DIMCEN
 40
0.09
  9
$DIMTSZ
 40
0.0
  9
$DIMTOL
 70
     0
  9
$DIMLIM
 70
     0
  9
$DIMTIH
 70
     0
  9
$DIMTOH
 70
     0
  9
$DIMSE1
 70
     0
  9
$DIMSE2
 70
     0
  9
$DIMTAD
 70
     1
  9
$DIMZIN
 70
     0
  9
$DIMBLK
  1

  9
$DIMASO
 70
     1
  9
$DIMSHO
 70
     0
  9
$DIMPOST
  1

  9
$DIMAPOST
  1

  9
$DIMALT
 70
     0
  9
$DIMALTD
 70
     2
  9
$DIMALTF
 40
25.4
  9
$DIMLFAC
 40
1.0
  9
$DIMTOFL
 70
     0
  9
$DIMTVP
 40
1.0
  9
$DIMTIX
 70
     0
  9
$DIMSOXD
 70
     0
  9
$DIMSAH
 70
     1
  9
$DIMBLK1
  1

  9
$DIMBLK2
  1

  9
$DIMSTYLE
  2
DIMSTYLE1
  9
$DIMCLRD
 70
     0
  9
$DIMCLRE
 70
     0
  9
$DIMCLRT
 70
     0
  9
$DIMTFAC
 40
1.0
  9
$DIMGAP
 40
1.5
  9
$DIMJUST
 70
     0
  9
$DIMSD1
 70
     0
  9
$DIMSD2
 70
     0
  9
$DIMTOLJ
 70
     1
  9
$DIMTZIN
 70
     0
  9
$DIMALTZ
 70
     0
  9
$DIMALTTZ
 70
     0
  9
$DIMUPT
 70
     0
  9
$DIMDEC
 70
     4
  9
$DIMTDEC
 70
     4
  9
$DIMALTU
 70
     2
  9
$DIMALTTD
 70
     2
  9
$DIMTXSTY
  7
STANDARD
  9
$DIMAUNIT
 70
     0
  9
$DIMADEC
 70
     0
  9
$DIMALTRND
 40
0.0
  9
$DIMAZIN
 70
     0
  9
$DIMDSEP
 70
    46
  9
$DIMATFIT
 70
     3
  9
$DIMFRAC
 70
     0
  9
$DIMLDRBLK
  1

  9
$DIMLUNIT
 70
     2
  9
$DIMLWD
 70
    -2
  9
$DIMLWE
 70
    -2
  9
$DIMTMOVE
 70
     0
  9
$LUNITS
 70
     2
  9
$LUPREC
 70
     4
  9
$SKETCHINC
 40
0.1
  9
$FILLETRAD
 40
0.0
  9
$AUNITS
 70
     0
  9
$AUPREC
 70
     0
  9
$MENU
  1
.
  9
$ELEVATION
 40
0.0
  9
$PELEVATION
 40
0.0
  9
$THICKNESS
 40
0.0
  9
$LIMCHECK
 70
     0
  9
$CHAMFERA
 40
0.0
  9
$CHAMFERB
 40
0.0
  9
$CHAMFERC
 40
0.0
  9
$CHAMFERD
 40
0.0
  9
$SKPOLY
 70
     0
  9
$TDCREATE
 40
2457841.632053727
  9
$TDUCREATE
 40
2457841.257053727
  9
$TDUPDATE
 40
2457841.632558299
  9
$TDUUPDATE
 40
2457841.257558299
  9
$TDINDWG
 40
0.0005058449
  9
$TDUSRTIMER
 40
0.0005058449
  9
$USRTIMER
 70
     1
  9
$ANGBASE
 50
0.0
  9
$ANGDIR
 70
     0
  9
$PDMODE
 70
     0
  9
$PDSIZE
 40
0.0
  9
$PLINEWID
 40
0.0
  9
$SPLFRAME
 70
     0
  9
$SPLINETYPE
 70
     6
  9
$SPLINESEGS
 70
     8
  9
$HANDSEED
  5
37F
  9
$SURFTAB1
 70
     6
  9
$SURFTAB2
 70
     6
  9
$SURFTYPE
 70
     6
  9
$SURFU
 70
     6
  9
$SURFV
 70
     6
  9
$UCSBASE
  2

  9
$UCSNAME
  2

  9
$UCSORG
 10
0.0
 20
0.0
 30
0.0
  9
$UCSXDIR
 10
1.0
 20
0.0
 30
0.0
  9
$UCSYDIR
 10
0.0
 20
1.0
 30
0.0
  9
$UCSORTHOREF
  2

  9
$UCSORTHOVIEW
 70
     0
  9
$UCSORGTOP
 10
0.0
 20
0.0
 30
0.0
  9
$UCSORGBOTTOM
 10
0.0
 20
0.0
 30
0.0
  9
$UCSORGLEFT
 10
0.0
 20
0.0
 30
0.0
  9
$UCSORGRIGHT
 10
0.0
 20
0.0
 30
0.0
  9
$UCSORGFRONT
 10
0.0
 20
0.0
 30
0.0
  9
$UCSORGBACK
 10
0.0
 20
0.0
 30
0.0
  9
$PUCSBASE
  2

  9
$PUCSNAME
  2

  9
$PUCSORG
 10
0.0
 20
0.0
 30
0.0
  9
$PUCSXDIR
 10
1.0
 20
0.0
 30
0.0
  9
$PUCSYDIR
 10
0.0
 20
1.0
 30
0.0
  9
$PUCSORTHOREF
  2

  9
$PUCSORTHOVIEW
 70
     0
  9
$PUCSORGTOP
 10
0.0
 20
0.0
 30
0.0
  9
$PUCSORGBOTTOM
 10
0.0
 20
0.0
 30
0.0
  9
$PUCSORGLEFT
 10
0.0
 20
0.0
 30
0.0
  9
$PUCSORGRIGHT
 10
0.0
 20
0.0
 30
0.0
  9
$PUCSORGFRONT
 10
0.0
 20
0.0
 30
0.0
  9
$PUCSORGBACK
 10
0.0
 20
0.0
 30
0.0
  9
$USERI1
 70
     0
  9
$USERI2
 70
     0
  9
$USERI3
 70
     0
  9
$USERI4
 70
     0
  9
$USERI5
 70
     0
  9
$USERR1
 40
0.0
  9
$USERR2
 40
0.0
  9
$USERR3
 40
0.0
  9
$USERR4
 40
0.0
  9
$USERR5
 40
0.0
  9
$WORLDVIEW
 70
     1
  9
$SHADEDGE
 70
     3
  9
$SHADEDIF
 70
    70
  9
$TILEMODE
 70
     1
  9
$MAXACTVP
 70
    64
  9
$PINSBASE
 10
0.0
 20
0.0
 30
0.0
  9
$PLIMCHECK
 70
     0
  9
$PEXTMIN
 10
1.000000000000000E+20
 20
1.000000000000000E+20
 30
1.000000000000000E+20
  9
$PEXTMAX
 10
-1.000000000000000E+20
 20
-1.000000000000000E+20
 30
-1.000000000000000E+20
  9
$PLIMMIN
 10
-592.0
 20
0.0
  9
$PLIMMAX
 10
0.0
 20
418.0
  9
$UNITMODE
 70
     0
  9
$VISRETAIN
 70
     1
  9
$PLINEGEN
 70
     0
  9
$PSLTSCALE
 70
     1
  9
$TREEDEPTH
 70
  3020
  9
$CMLSTYLE
  2
Standard
  9
$CMLJUST
 70
     0
  9
$CMLSCALE
 40
1.0
  9
$PROXYGRAPHICS
 70
     1
  9
$MEASUREMENT
 70
     0
  9
$CELWEIGHT
370
    -1
  9
$ENDCAPS
280
     0
  9
$JOINSTYLE
280
     0
  9
$LWDISPLAY
290
     0
  9
$INSUNITS
 70
     0
  9
$HYPERLINKBASE
  1

  9
$STYLESHEET
  1

  9
$XEDIT
290
     1
  9
$CEPSNTYPE
380
     0
  9
$PSTYLEMODE
290
     1
  9
$FINGERPRINTGUID
  2
{630F028A-3DAE-48F6-BD04-C2BBEAB6A161}
  9
$VERSIONGUID
  2
{5489A8CC-B795-4A73-A3FC-1F6430F5A6C9}
  9
$EXTNAMES
290
     1
  9
$PSVPSCALE
 40
0.0
  9
$OLESTARTUP
290
     0
  9
$SORTENTS
280
   127
  9
$INDEXCTL
280
     0
  9
$HIDETEXT
280
     0
  9
$XCLIPFRAME
290
     0
  9
$HALOGAP
280
     0
  9
$OBSCOLOR
 70
   257
  9
$OBSLTYPE
280
     0
  9
$INTERSECTIONDISPLAY
280
     0
  9
$INTERSECTIONCOLOR
 70
   257
  9
$DIMASSOC
280
     1
  9
$PROJECTNAME
  1

  0
ENDSEC
  0
SECTION
  2
CLASSES
  0
CLASS
  1
ACDBDICTIONARYWDFLT
  2
AcDbDictionaryWithDefault
  3
ObjectDBX Classes
 90
        0
 91
        1
280
     0
281
     0
  0
CLASS
  1
TABLESTYLE
  2
AcDbTableStyle
  3
ObjectDBX Classes
 90
     2047
 91
        1
280
     0
281
     0
  0
CLASS
  1
DICTIONARYVAR
  2
AcDbDictionaryVar
  3
ObjectDBX Classes
 90
        0
 91
        1
280
     0
281
     0
  0
ENDSEC
  0
SECTION
  2
TABLES
  0
TABLE
  2
VPORT
  5
8
330
0
100
AcDbSymbolTable
 70
     2
  0
VPORT
  5
37E
330
8
100
AcDbSymbolTableRecord
100
AcDbViewportTableRecord
  2
*Active
 70
     0
 10
0.0
 20
0.0
 11
1.0
 21
1.0
 12
-296.0
 22
210.7763218998168
 13
0.0
 23
0.0
 14
1.0
 24
1.0
 15
0.0
 25
0.0
 16
0.0
 26
0.0
 36
1.0
 17
0.0
 27
0.0
 37
0.0
 40
424.8850757664291
 41
1.707124010554089
 42
50.0
 43
0.0
 44
0.0
 50
0.0
 51
0.0
 71
     0
 72
   100
 73
     1
 74
     1
 75
     0
 76
     0
 77
     0
 78
     0
281
     0
 65
     1
110
0.0
120
0.0
130
0.0
111
1.0
121
0.0
131
0.0
112
0.0
122
1.0
132
0.0
 79
     0
146
0.0
  0
ENDTAB
  0
TABLE
  2
LTYPE
  5
5
330
0
100
AcDbSymbolTable
 70
     6
  0
LTYPE
  5
13
330
5
100
AcDbSymbolTableRecord
100
AcDbLinetypeTableRecord
  2
ByBlock
 70
     0
  3

 72
    65
 73
     0
 40
0.0
  0
LTYPE
  5
14
330
5
100
AcDbSymbolTableRecord
100
AcDbLinetypeTableRecord
  2
ByLayer
 70
     0
  3

 72
    65
 73
     0
 40
0.0
  0
LTYPE
  5
15
330
5
100
AcDbSymbolTableRecord
100
AcDbLinetypeTableRecord
  2
CONTINUOUS
 70
     0
  3
Solid line
 72
    65
 73
     0
 40
0.0
  0
LTYPE
  5
26
330
5
100
AcDbSymbolTableRecord
100
AcDbLinetypeTableRecord
  2
DASHED
 70
     0
  3
__ __ __ __ __ __ __ __ __ __ __ __ __ __ __
 72
    65
 73
     2
 40
3.5
 49
2.0
 74
     0
 49
-1.5
 74
     0
  0
LTYPE
  5
27
330
5
100
AcDbSymbolTableRecord
100
AcDbLinetypeTableRecord
  2
CENTER
 70
     0
  3
____ _ ____ _ ____ _ ____ _ ____ _ ____ _ ____
 72
    65
 73
     4
 40
17.5
 49
13.0
 74
     0
 49
-1.5
 74
     0
 49
1.5
 74
     0
 49
-1.5
 74
     0
  0
LTYPE
  5
28
330
5
100
AcDbSymbolTableRecord
100
AcDbLinetypeTableRecord
  2
PHANTOM
 70
     0
  3
_____ _ _ _____ _ _ _____ _ _ _____ _ _ ____  
 72
    65
 73
     6
 40
15.5
 49
8.0
 74
     0
 49
-1.5
 74
     0
 49
1.5
 74
     0
 49
-1.5
 74
     0
 49
1.5
 74
     0
 49
-1.5
 74
     0
  0
LTYPE
  5
29
330
5
100
AcDbSymbolTableRecord
100
AcDbLinetypeTableRecord
  2
DOT
 70
     0
  3
. . . . . . . . . . . . . . . . . . . . . . . .
 72
    65
 73
     2
 40
0.25
 49
0.0
 74
     0
 49
-0.25
 74
     0
  0
LTYPE
  5
2A
330
5
100
AcDbSymbolTableRecord
100
AcDbLinetypeTableRecord
  2
HIDDEN
 70
     0
  3
__ __ __ __ __ __ __ __ __ __ __ __ __ __ __
 72
    65
 73
     2
 40
3.5
 49
2.0
 74
     0
 49
-1.5
 74
     0
  0
ENDTAB
  0
TABLE
  2
LAYER
  5
2
330
0
100
AcDbSymbolTable
 70
     2
  0
LAYER
  5
10
330
2
100
AcDbSymbolTableRecord
100
AcDbLayerTableRecord
  2
0
 70
     0
 62
     7
  6
CONTINUOUS
370
    -3
390
F
  0
LAYER
  5
2B
330
2
100
AcDbSymbolTableRecord
100
AcDbLayerTableRecord
  2
DEFPOINTS
 70
     0
 62
     7
  6
CONTINUOUS
290
     0
370
    -3
390
F
  0
ENDTAB
  0
TABLE
  2
STYLE
  5
3
330
0
100
AcDbSymbolTable
 70
     2
  0
STYLE
  5
11
330
3
100
AcDbSymbolTableRecord
100
AcDbTextStyleTableRecord
  2
STANDARD
 70
     0
 40
0.0
 41
1.0
 50
0.0
 71
     0
 42
0.2
  3

  4

1001
ACAD
1000
MS Gothic
1071
    32817
  0
ENDTAB
  0
TABLE
  2
VIEW
  5
6
330
0
100
AcDbSymbolTable
 70
     0
  0
ENDTAB
  0
TABLE
  2
UCS
  5
7
330
0
100
AcDbSymbolTable
 70
     0
  0
ENDTAB
  0
TABLE
  2
APPID
  5
9
330
0
100
AcDbSymbolTable
 70
     2
  0
APPID
  5
12
330
9
100
AcDbSymbolTableRecord
100
AcDbRegAppTableRecord
  2
ACAD
 70
     0
  0
APPID
  5
373
330
9
100
AcDbSymbolTableRecord
100
AcDbRegAppTableRecord
  2
ACAD_PSEXT
 70
     0
  0
ENDTAB
  0
TABLE
  2
DIMSTYLE
  5
A
330
0
100
AcDbSymbolTable
 70
    14
100
AcDbDimStyleTable
 71
     1
340
2C
  0
DIMSTYLE
105
2C
102
{ACAD_REACTORS
330
363
102
}
330
A
100
AcDbSymbolTableRecord
100
AcDbDimStyleTableRecord
  2
DIMSTYLE1
 70
     0
 41
1.0
 42
2.54
 44
2.54
 73
     0
 74
     0
 77
     1
140
3.0
145
1.0
147
1.5
172
     1
173
     1
279
     2
340
11
  0
DIMSTYLE
105
2D
102
{ACAD_REACTORS
330
364
102
}
330
A
100
AcDbSymbolTableRecord
100
AcDbDimStyleTableRecord
  2
DIMSTYLE2
 70
     0
 41
1.0
 42
2.54
 44
2.54
 73
     0
 74
     0
 75
     1
 76
     1
 77
     1
140
3.0
145
1.0
147
1.5
172
     1
173
     1
279
     2
340
11
  0
DIMSTYLE
105
2E
102
{ACAD_REACTORS
330
365
102
}
330
A
100
AcDbSymbolTableRecord
100
AcDbDimStyleTableRecord
  2
DIMSTYLE3
 70
     0
 41
1.0
 42
2.54
 44
2.54
 73
     0
 74
     0
 75
     1
 76
     1
 77
     1
140
3.0
145
1.0
147
1.5
172
     1
173
     1
279
     2
340
11
  0
DIMSTYLE
105
2F
102
{ACAD_REACTORS
330
366
102
}
330
A
100
AcDbSymbolTableRecord
100
AcDbDimStyleTableRecord
  2
DIMSTYLE4
 70
     0
 41
1.0
 42
2.54
 44
2.54
 73
     0
 74
     0
 75
     1
 76
     1
 77
     1
140
3.0
145
1.0
147
1.5
172
     1
173
     1
279
     2
340
11
  0
DIMSTYLE
105
30
102
{ACAD_REACTORS
330
367
102
}
330
A
100
AcDbSymbolTableRecord
100
AcDbDimStyleTableRecord
  2
DIMSTYLE5
 70
     0
 41
1.0
 42
2.54
 44
2.54
 73
     0
 74
     0
 77
     1
140
3.0
145
1.0
147
1.5
172
     1
173
     1
279
     2
340
11
  0
DIMSTYLE
105
31
102
{ACAD_REACTORS
330
368
102
}
330
A
100
AcDbSymbolTableRecord
100
AcDbDimStyleTableRecord
  2
DIMSTYLE6
 70
     0
 41
1.0
 42
2.54
 44
2.54
 73
     0
 74
     0
 77
     1
140
3.0
145
1.0
147
1.5
172
     1
173
     1
279
     2
340
11
  0
DIMSTYLE
105
32
102
{ACAD_REACTORS
330
369
102
}
330
A
100
AcDbSymbolTableRecord
100
AcDbDimStyleTableRecord
  2
DIMSTYLE7
 70
     0
 41
1.0
 42
2.54
 44
2.54
 73
     0
 74
     0
 77
     1
140
3.0
145
1.0
147
1.5
172
     1
173
     1
279
     2
340
11
  0
DIMSTYLE
105
33
102
{ACAD_REACTORS
330
36A
102
}
330
A
100
AcDbSymbolTableRecord
100
AcDbDimStyleTableRecord
  2
DIMSTYLE8
 70
     0
 41
1.0
 42
2.54
 44
2.54
 73
     0
 74
     0
 77
     1
140
3.0
145
1.0
147
1.5
172
     1
173
     1
279
     2
340
11
  0
DIMSTYLE
105
34
102
{ACAD_REACTORS
330
36B
102
}
330
A
100
AcDbSymbolTableRecord
100
AcDbDimStyleTableRecord
  2
DIMSTYLE9
 70
     0
 41
1.0
 42
2.54
 44
2.54
 73
     0
 74
     0
 77
     1
140
3.0
145
1.0
147
1.5
172
     1
173
     1
279
     2
340
11
  0
DIMSTYLE
105
35
102
{ACAD_REACTORS
330
36C
102
}
330
A
100
AcDbSymbolTableRecord
100
AcDbDimStyleTableRecord
  2
DIMSTYLE10
 70
     0
 41
1.0
 42
2.54
 44
2.54
 73
     0
 74
     0
 77
     1
140
3.0
145
1.0
147
1.5
172
     1
173
     1
279
     2
340
11
  0
DIMSTYLE
105
36
102
{ACAD_REACTORS
330
36D
102
}
330
A
100
AcDbSymbolTableRecord
100
AcDbDimStyleTableRecord
  2
DIMSTYLE11
 70
     0
 41
1.0
 42
2.54
 44
2.54
 73
     0
 74
     0
 77
     1
140
3.0
145
1.0
147
1.5
172
     1
173
     1
279
     2
340
11
  0
DIMSTYLE
105
37
102
{ACAD_REACTORS
330
36E
102
}
330
A
100
AcDbSymbolTableRecord
100
AcDbDimStyleTableRecord
  2
DIMSTYLE12
 70
     0
 41
1.0
 42
2.54
 44
2.54
 73
     0
 74
     0
 77
     1
140
3.0
145
1.0
147
1.5
172
     1
173
     1
279
     2
340
11
  0
DIMSTYLE
105
38
102
{ACAD_REACTORS
330
36F
102
}
330
A
100
AcDbSymbolTableRecord
100
AcDbDimStyleTableRecord
  2
DIMSTYLE13
 70
     0
 41
1.0
 42
2.54
 44
2.54
 73
     0
 74
     0
 77
     1
140
3.0
145
1.0
147
1.5
172
     1
173
     1
279
     2
340
11
  0
ENDTAB
  0
TABLE
  2
BLOCK_RECORD
  5
1
330
0
100
AcDbSymbolTable
 70
    17
  0
BLOCK_RECORD
  5
22
330
1
100
AcDbSymbolTableRecord
100
AcDbBlockTableRecord
  2
*Model_Space
340
25
  0
BLOCK_RECORD
  5
1E
330
1
100
AcDbSymbolTableRecord
100
AcDbBlockTableRecord
  2
*Paper_Space
340
21
  0
BLOCK_RECORD
  5
3C
330
1
100
AcDbSymbolTableRecord
100
AcDbBlockTableRecord
  2
_OPEN30
340
0
102
{BLKREFS
331
46
331
48
331
54
331
55
331
5E
331
5F
331
68
331
69
331
71
331
72
331
7D
331
7E
331
88
331
89
331
93
331
94
331
9F
331
A0
331
A9
331
AA
331
B4
331
B5
331
C0
331
C1
331
CB
331
CC
102
}
  0
BLOCK_RECORD
  5
42
330
1
100
AcDbSymbolTableRecord
100
AcDbBlockTableRecord
  2
*D1
340
0
  0
BLOCK_RECORD
  5
50
330
1
100
AcDbSymbolTableRecord
100
AcDbBlockTableRecord
  2
*D2
340
0
  0
BLOCK_RECORD
  5
5A
330
1
100
AcDbSymbolTableRecord
100
AcDbBlockTableRecord
  2
*D3
340
0
  0
BLOCK_RECORD
  5
64
330
1
100
AcDbSymbolTableRecord
100
AcDbBlockTableRecord
  2
*D4
340
0
  0
BLOCK_RECORD
  5
6E
330
1
100
AcDbSymbolTableRecord
100
AcDbBlockTableRecord
  2
*D5
340
0
  0
BLOCK_RECORD
  5
7A
330
1
100
AcDbSymbolTableRecord
100
AcDbBlockTableRecord
  2
*D6
340
0
  0
BLOCK_RECORD
  5
85
330
1
100
AcDbSymbolTableRecord
100
AcDbBlockTableRecord
  2
*D7
340
0
  0
BLOCK_RECORD
  5
90
330
1
100
AcDbSymbolTableRecord
100
AcDbBlockTableRecord
  2
*D8
340
0
  0
BLOCK_RECORD
  5
9C
330
1
100
AcDbSymbolTableRecord
100
AcDbBlockTableRecord
  2
*D9
340
0
  0
BLOCK_RECORD
  5
A6
330
1
100
AcDbSymbolTableRecord
100
AcDbBlockTableRecord
  2
*D10
340
0
  0
BLOCK_RECORD
  5
B1
330
1
100
AcDbSymbolTableRecord
100
AcDbBlockTableRecord
  2
*D11
340
0
  0
BLOCK_RECORD
  5
BD
330
1
100
AcDbSymbolTableRecord
100
AcDbBlockTableRecord
  2
*D12
340
0
  0
BLOCK_RECORD
  5
C8
330
1
100
AcDbSymbolTableRecord
100
AcDbBlockTableRecord
  2
*D13
340
0
  0
BLOCK_RECORD
  5
D3
330
1
100
AcDbSymbolTableRecord
100
AcDbBlockTableRecord
  2
KOZU0001
340
0
102
{BLKREFS
331
362
102
}
  0
BLOCK_RECORD
  5
DC
330
1
100
AcDbSymbolTableRecord
100
AcDbBlockTableRecord
  2
KOZU0002
340
0
102
{BLKREFS
331
370
102
}
  0
ENDTAB
  0
ENDSEC
  0
SECTION
  2
BLOCKS
  0
BLOCK
  5
23
330
22
100
AcDbEntity
  8
0
100
AcDbBlockBegin
  2
*Model_Space
 70
     0
 10
0.0
 20
0.0
 30
0.0
  3
*Model_Space
  1

  0
ENDBLK
  5
24
330
22
100
AcDbEntity
  8
0
100
AcDbBlockEnd
  0
BLOCK
  5
1F
330
1E
100
AcDbEntity
 67
     1
  8
0
100
AcDbBlockBegin
  2
*Paper_Space
 70
     0
 10
0.0
 20
0.0
 30
0.0
  3
*Paper_Space
  1

  0
ENDBLK
  5
20
330
1E
100
AcDbEntity
 67
     1
  8
0
100
AcDbBlockEnd
  0
BLOCK
  5
3D
330
3C
100
AcDbEntity
  8
0
100
AcDbBlockBegin
  2
_OPEN30
 70
     0
 10
0.0
 20
0.0
 30
0.0
  3
_OPEN30
  1

  0
LINE
  5
3E
330
3C
100
AcDbEntity
  8
0
  6
ByBlock
 62
     0
100
AcDbLine
 10
0.0
 20
0.0
 30
0.0
 11
-2.999999999999993
 21
-1.000000000000017
 31
0.0
  0
LINE
  5
3F
330
3C
100
AcDbEntity
  8
0
  6
ByBlock
 62
     0
100
AcDbLine
 10
0.0
 20
0.0
 30
0.0
 11
-3.000000000000006
 21
0.9999999999999815
 31
0.0
  0
LINE
  5
40
330
3C
100
AcDbEntity
  8
0
  6
ByBlock
 62
     0
100
AcDbLine
 10
0.0
 20
0.0
 30
0.0
 11
-3.0
 21
0.0
 31
0.0
  0
ENDBLK
  5
41
330
3C
100
AcDbEntity
  8
0
100
AcDbBlockEnd
  0
BLOCK
  5
43
330
42
100
AcDbEntity
  8
0
100
AcDbBlockBegin
  2
*D1
 70
     1
 10
0.0
 20
0.0
 30
0.0
  3
*D1
  1

  0
LINE
  5
44
330
42
100
AcDbEntity
  8
0
  6
Continuous
 62
     7
100
AcDbLine
 10
-120.4337692260742
 20
403.5138549804687
 30
0.0
 11
-104.2688903808594
 21
403.5138549804687
 31
0.0
  0
LINE
  5
45
330
42
100
AcDbEntity
  8
0
  6
Continuous
 62
     7
100
AcDbLine
 10
-123.9337692260742
 20
403.5138549804687
 30
0.0
 11
-120.4337692260742
 21
403.5138549804687
 31
0.0
  0
INSERT
  5
46
330
42
100
AcDbEntity
  8
0
  6
Continuous
 62
     7
100
AcDbBlockReference
  2
_OPEN30
 10
-123.9337692260742
 20
403.5138549804687
 30
0.0
 50
0.0000000000003562
  0
LINE
  5
47
330
42
100
AcDbEntity
  8
0
  6
Continuous
 62
     7
100
AcDbLine
 10
-126.9337692260742
 20
403.5138549804687
 30
0.0
 11
-130.2837692260742
 21
403.5138549804687
 31
0.0
  0
INSERT
  5
48
330
42
100
AcDbEntity
  8
0
  6
Continuous
 62
     7
100
AcDbBlockReference
  2
_OPEN30
 10
-120.4337692260742
 20
403.5138549804687
 30
0.0
 50
180.0
  0
LINE
  5
49
330
42
100
AcDbEntity
  8
0
  6
Continuous
 62
     7
100
AcDbLine
 10
-117.4337692260742
 20
403.5138549804687
 30
0.0
 11
-114.0837692260742
 21
403.5138549804687
 31
0.0
  0
LINE
  5
4A
330
42
100
AcDbEntity
  8
0
  6
Continuous
 62
     7
100
AcDbLine
 10
-120.4337692260742
 20
402.9079504394531
 30
0.0
 11
-120.4337692260742
 21
405.7998657226563
 31
0.0
  0
TEXT
  5
4B
330
42
100
AcDbEntity
  8
0
  6
Continuous
 62
     7
100
AcDbText
 10
-112.408890247345
 20
404.2638549804688
 30
0.0
 40
3.0
  1
3.5
 41
1.356666684150696
100
AcDbText
  0
POINT
  5
4C
330
42
100
AcDbEntity
  8
DEFPOINTS
  6
Continuous
 62
     7
100
AcDbPoint
 10
-123.9337692260742
 20
421.5522766113281
 30
0.0
  0
POINT
  5
4D
330
42
100
AcDbEntity
  8
DEFPOINTS
  6
Continuous
 62
     7
100
AcDbPoint
 10
-120.4337692260742
 20
400.3679504394531
 30
0.0
  0
POINT
  5
4E
330
42
100
AcDbEntity
  8
DEFPOINTS
  6
Continuous
 62
     7
100
AcDbPoint
 10
-120.4337692260742
 20
403.5138549804687
 30
0.0
  0
ENDBLK
  5
4F
330
42
100
AcDbEntity
  8
0
100
AcDbBlockEnd
  0
BLOCK
  5
51
330
50
100
AcDbEntity
  8
0
100
AcDbBlockBegin
  2
*D2
 70
     1
 10
0.0
 20
0.0
 30
0.0
  3
*D2
  1

  0
LINE
  5
52
330
50
100
AcDbEntity
  8
0
  6
Continuous
 62
     7
100
AcDbLine
 10
-362.5971984863281
 20
371.1687316894531
 30
0.0
 11
-335.8294372558594
 21
397.0709228515625
 31
0.0
  0
LINE
  5
53
330
50
100
AcDbEntity
  8
0
  6
Continuous
 62
     7
100
AcDbLine
 10
-500.5741213656587
 20
237.6533322412334
 30
0.0
 11
-364.7530881069976
 21
369.0825533788838
 31
0.0
  0
INSERT
  5
54
330
50
100
AcDbEntity
  8
0
  6
Continuous
 62
     7
100
AcDbBlockReference
  2
_OPEN30
 10
-502.7300109863281
 20
235.5671539306641
 30
0.0
 50
224.0585241846952
  0
INSERT
  5
55
330
50
100
AcDbEntity
  8
0
  6
Continuous
 62
     7
100
AcDbBlockReference
  2
_OPEN30
 10
-362.5971984863281
 20
371.1687316894531
 30
0.0
 50
44.05852418469453
  0
TEXT
  5
56
330
50
100
AcDbEntity
  8
0
  6
Continuous
 62
     7
100
AcDbText
 10
-359.4400321208427
 20
375.2512410204981
 30
0.0
 40
3.0
  1
%%C１９５（防水皿外径）
 50
44.10000088568484
 41
0.8440126077968535
100
AcDbText
  0
POINT
  5
57
330
50
100
AcDbEntity
  8
DEFPOINTS
  6
Continuous
 62
     7
100
AcDbPoint
 10
-502.7300109863281
 20
235.5671539306641
 30
0.0
  0
POINT
  5
58
330
50
100
AcDbEntity
  8
DEFPOINTS
  6
Continuous
 62
     7
100
AcDbPoint
 10
-362.5971984863281
 20
371.1687316894531
 30
0.0
  0
ENDBLK
  5
59
330
50
100
AcDbEntity
  8
0
100
AcDbBlockEnd
  0
BLOCK
  5
5B
330
5A
100
AcDbEntity
  8
0
100
AcDbBlockBegin
  2
*D3
 70
     1
 10
0.0
 20
0.0
 30
0.0
  3
*D3
  1

  0
LINE
  5
5C
330
5A
100
AcDbEntity
  8
0
  6
Continuous
 62
     7
100
AcDbLine
 10
-354.5223999023438
 20
349.02099609375
 30
0.0
 11
-316.5753479003906
 21
371.1911010742188
 31
0.0
  0
LINE
  5
5D
330
5A
100
AcDbEntity
  8
0
  6
Continuous
 62
     7
100
AcDbLine
 10
-508.2144933664074
 20
259.2282354154165
 30
0.0
 11
-357.1127161062488
 21
347.5076349459117
 31
0.0
  0
INSERT
  5
5E
330
5A
100
AcDbEntity
  8
0
  6
Continuous
 62
     7
100
AcDbBlockReference
  2
_OPEN30
 10
-510.8048095703124
 20
257.7148742675781
 30
0.0
 50
210.2950955236489
  0
INSERT
  5
5F
330
5A
100
AcDbEntity
  8
0
  6
Continuous
 62
     7
100
AcDbBlockReference
  2
_OPEN30
 10
-354.5223999023438
 20
349.02099609375
 30
0.0
 50
30.29509552364821
  0
TEXT
  5
60
330
5A
100
AcDbEntity
  8
0
  6
Continuous
 62
     7
100
AcDbText
 10
-344.7039684636986
 20
355.624321157583
 30
0.0
 40
3.0
  1
%%C１８１（目皿受外径）
 50
30.29999981864594
 41
0.8440126077968535
100
AcDbText
  0
POINT
  5
61
330
5A
100
AcDbEntity
  8
DEFPOINTS
  6
Continuous
 62
     7
100
AcDbPoint
 10
-510.8048095703124
 20
257.7148742675781
 30
0.0
  0
POINT
  5
62
330
5A
100
AcDbEntity
  8
DEFPOINTS
  6
Continuous
 62
     7
100
AcDbPoint
 10
-354.5223999023438
 20
349.02099609375
 30
0.0
  0
ENDBLK
  5
63
330
5A
100
AcDbEntity
  8
0
100
AcDbBlockEnd
  0
BLOCK
  5
65
330
64
100
AcDbEntity
  8
0
100
AcDbBlockBegin
  2
*D4
 70
     1
 10
0.0
 20
0.0
 30
0.0
  3
*D4
  1

  0
LINE
  5
66
330
64
100
AcDbEntity
  8
0
  6
Continuous
 62
     7
100
AcDbLine
 10
-356.8819274902344
 20
321.837890625
 30
0.0
 11
-306.2112121582031
 21
334.1876525878906
 31
0.0
  0
LINE
  5
67
330
64
100
AcDbEntity
  8
0
  6
Continuous
 62
     7
100
AcDbLine
 10
-505.5306025339621
 20
285.608362529424
 30
0.0
 11
-359.796606938694
 21
321.127507831904
 31
0.0
  0
INSERT
  5
68
330
64
100
AcDbEntity
  8
0
  6
Continuous
 62
     7
100
AcDbBlockReference
  2
_OPEN30
 10
-508.4452819824218
 20
284.8979797363281
 30
0.0
 50
193.6974121510345
  0
INSERT
  5
69
330
64
100
AcDbEntity
  8
0
  6
Continuous
 62
     7
100
AcDbBlockReference
  2
_OPEN30
 10
-356.8819274902344
 20
321.837890625
 30
0.0
 50
13.69741215103393
  0
TEXT
  5
6A
330
64
100
AcDbEntity
  8
0
  6
Continuous
 62
     7
100
AcDbText
 10
-334.6999211364128
 20
328.0154786735818
 30
0.0
 40
3.0
  1
%%C１５６（目皿外径）
 50
13.70000026740074
 41
0.8443929326254473
100
AcDbText
  0
POINT
  5
6B
330
64
100
AcDbEntity
  8
DEFPOINTS
  6
Continuous
 62
     7
100
AcDbPoint
 10
-508.4452819824218
 20
284.8979797363281
 30
0.0
  0
POINT
  5
6C
330
64
100
AcDbEntity
  8
DEFPOINTS
  6
Continuous
 62
     7
100
AcDbPoint
 10
-356.8819274902344
 20
321.837890625
 30
0.0
  0
ENDBLK
  5
6D
330
64
100
AcDbEntity
  8
0
100
AcDbBlockEnd
  0
BLOCK
  5
6F
330
6E
100
AcDbEntity
  8
0
100
AcDbBlockBegin
  2
*D5
 70
     1
 10
0.0
 20
0.0
 30
0.0
  3
*D5
  1

  0
LINE
  5
70
330
6E
100
AcDbEntity
  8
0
  6
Continuous
 62
     7
100
AcDbLine
 10
-276.9337768554688
 20
403.5138549804687
 30
0.0
 11
-126.9337692260742
 21
403.5138549804687
 31
0.0
  0
INSERT
  5
71
330
6E
100
AcDbEntity
  8
0
  6
Continuous
 62
     7
100
AcDbBlockReference
  2
_OPEN30
 10
-279.9337768554688
 20
403.5138549804687
 30
0.0
 50
180.0000000000004
  0
INSERT
  5
72
330
6E
100
AcDbEntity
  8
0
  6
Continuous
 62
     7
100
AcDbBlockReference
  2
_OPEN30
 10
-123.9337692260742
 20
403.5138549804687
 30
0.0
  0
LINE
  5
73
330
6E
100
AcDbEntity
  8
0
  6
Continuous
 62
     7
100
AcDbLine
 10
-279.9337768554688
 20
396.4079504394532
 30
0.0
 11
-279.9337768554688
 21
405.7998657226563
 31
0.0
  0
LINE
  5
74
330
6E
100
AcDbEntity
  8
0
  6
Continuous
 62
     7
100
AcDbLine
 10
-123.9337692260742
 20
401.4079504394532
 30
0.0
 11
-123.9337692260742
 21
405.7998657226563
 31
0.0
  0
TEXT
  5
75
330
6E
100
AcDbEntity
  8
0
  6
Continuous
 62
     7
100
AcDbText
 10
-221.0037776231766
 20
404.2638549804688
 30
0.0
 40
3.0
  1
１５６　（１４２～１６４）
 41
0.8434321120058422
100
AcDbText
  0
POINT
  5
76
330
6E
100
AcDbEntity
  8
DEFPOINTS
  6
Continuous
 62
     7
100
AcDbPoint
 10
-279.9337768554688
 20
393.8679504394531
 30
0.0
  0
POINT
  5
77
330
6E
100
AcDbEntity
  8
DEFPOINTS
  6
Continuous
 62
     7
100
AcDbPoint
 10
-123.9337692260742
 20
398.8679504394531
 30
0.0
  0
POINT
  5
78
330
6E
100
AcDbEntity
  8
DEFPOINTS
  6
Continuous
 62
     7
100
AcDbPoint
 10
-123.9337692260742
 20
403.5138549804687
 30
0.0
  0
ENDBLK
  5
79
330
6E
100
AcDbEntity
  8
0
100
AcDbBlockEnd
  0
BLOCK
  5
7B
330
7A
100
AcDbEntity
  8
0
100
AcDbBlockBegin
  2
*D6
 70
     1
 10
0.0
 20
0.0
 30
0.0
  3
*D6
  1

  0
LINE
  5
7C
330
7A
100
AcDbEntity
  8
0
  6
Continuous
 62
     7
100
AcDbLine
 10
-276.9337768554688
 20
396.504638671875
 30
0.0
 11
-221.9337768554688
 21
396.504638671875
 31
0.0
  0
INSERT
  5
7D
330
7A
100
AcDbEntity
  8
0
  6
Continuous
 62
     7
100
AcDbBlockReference
  2
_OPEN30
 10
-279.9337768554688
 20
396.504638671875
 30
0.0
 50
180.0000000000004
  0
INSERT
  5
7E
330
7A
100
AcDbEntity
  8
0
  6
Continuous
 62
     7
100
AcDbBlockReference
  2
_OPEN30
 10
-218.9337768554688
 20
396.504638671875
 30
0.0
  0
LINE
  5
7F
330
7A
100
AcDbEntity
  8
0
  6
Continuous
 62
     7
100
AcDbLine
 10
-218.9337768554688
 20
353.8709326171875
 30
0.0
 11
-218.9337768554688
 21
398.7906188964844
 31
0.0
  0
TEXT
  5
80
330
7A
100
AcDbEntity
  8
0
  6
Continuous
 62
     7
100
AcDbText
 10
-252.0037769675255
 20
397.254638671875
 30
0.0
 40
3.0
  1
61
 41
1.186153870362501
100
AcDbText
  0
POINT
  5
81
330
7A
100
AcDbEntity
  8
DEFPOINTS
  6
Continuous
 62
     7
100
AcDbPoint
 10
-279.9337768554688
 20
393.8679504394531
 30
0.0
  0
POINT
  5
82
330
7A
100
AcDbEntity
  8
DEFPOINTS
  6
Continuous
 62
     7
100
AcDbPoint
 10
-218.9337768554688
 20
351.3309326171875
 30
0.0
  0
POINT
  5
83
330
7A
100
AcDbEntity
  8
DEFPOINTS
  6
Continuous
 62
     7
100
AcDbPoint
 10
-218.9337768554688
 20
396.504638671875
 30
0.0
  0
ENDBLK
  5
84
330
7A
100
AcDbEntity
  8
0
100
AcDbBlockEnd
  0
BLOCK
  5
86
330
85
100
AcDbEntity
  8
0
100
AcDbBlockBegin
  2
*D7
 70
     1
 10
0.0
 20
0.0
 30
0.0
  3
*D7
  1

  0
LINE
  5
87
330
85
100
AcDbEntity
  8
0
  6
Continuous
 62
     7
100
AcDbLine
 10
-126.9337692260742
 20
396.504638671875
 30
0.0
 11
-155.9337768554688
 21
396.504638671875
 31
0.0
  0
INSERT
  5
88
330
85
100
AcDbEntity
  8
0
  6
Continuous
 62
     7
100
AcDbBlockReference
  2
_OPEN30
 10
-123.9337692260742
 20
396.504638671875
 30
0.0
  0
INSERT
  5
89
330
85
100
AcDbEntity
  8
0
  6
Continuous
 62
     7
100
AcDbBlockReference
  2
_OPEN30
 10
-158.9337768554688
 20
396.504638671875
 30
0.0
 50
180.0000000000004
  0
LINE
  5
8A
330
85
100
AcDbEntity
  8
0
  6
Continuous
 62
     7
100
AcDbLine
 10
-158.9337768554688
 20
352.4079504394532
 30
0.0
 11
-158.9337768554688
 21
398.7906188964844
 31
0.0
  0
TEXT
  5
8B
330
85
100
AcDbEntity
  8
0
  6
Continuous
 62
     7
100
AcDbText
 10
-144.0037769675255
 20
397.254638671875
 30
0.0
 40
3.0
  1
35
 41
1.028000020980834
100
AcDbText
  0
POINT
  5
8C
330
85
100
AcDbEntity
  8
DEFPOINTS
  6
Continuous
 62
     7
100
AcDbPoint
 10
-123.9337692260742
 20
398.8679504394531
 30
0.0
  0
POINT
  5
8D
330
85
100
AcDbEntity
  8
DEFPOINTS
  6
Continuous
 62
     7
100
AcDbPoint
 10
-158.9337768554688
 20
349.8679504394531
 30
0.0
  0
POINT
  5
8E
330
85
100
AcDbEntity
  8
DEFPOINTS
  6
Continuous
 62
     7
100
AcDbPoint
 10
-158.9337768554688
 20
396.504638671875
 30
0.0
  0
ENDBLK
  5
8F
330
85
100
AcDbEntity
  8
0
100
AcDbBlockEnd
  0
BLOCK
  5
91
330
90
100
AcDbEntity
  8
0
100
AcDbBlockBegin
  2
*D8
 70
     1
 10
0.0
 20
0.0
 30
0.0
  3
*D8
  1

  0
LINE
  5
92
330
90
100
AcDbEntity
  8
0
  6
Continuous
 62
     7
100
AcDbLine
 10
-56.20055007934571
 20
257.8679351806641
 30
0.0
 11
-56.20055007934568
 21
348.8679504394531
 31
0.0
  0
INSERT
  5
93
330
90
100
AcDbEntity
  8
0
  6
Continuous
 62
     7
100
AcDbBlockReference
  2
_OPEN30
 10
-56.20055007934571
 20
254.8679351806641
 30
0.0
 50
270.0000000000005
  0
INSERT
  5
94
330
90
100
AcDbEntity
  8
0
  6
Continuous
 62
     7
100
AcDbBlockReference
  2
_OPEN30
 10
-56.20055007934571
 20
351.8679504394531
 30
0.0
 50
90.00000000000019
  0
LINE
  5
95
330
90
100
AcDbEntity
  8
0
  6
Continuous
 62
     7
100
AcDbLine
 10
-83.39376922607419
 20
254.8679351806641
 30
0.0
 11
-53.91455078125
 21
254.8679351806641
 31
0.0
  0
LINE
  5
96
330
90
100
AcDbEntity
  8
0
  6
Continuous
 62
     7
100
AcDbLine
 10
-83.39376922607419
 20
351.8679504394531
 30
0.0
 11
-53.91455078125
 21
351.8679504394531
 31
0.0
  0
TEXT
  5
97
330
90
100
AcDbEntity
  8
0
  6
Continuous
 62
     7
100
AcDbText
 10
-56.95054990144035
 20
299.2979502350082
 30
0.0
 40
3.0
  1
%%C97
 50
90.00000250447815
 41
0.9498249830693319
100
AcDbText
  0
POINT
  5
98
330
90
100
AcDbEntity
  8
DEFPOINTS
  6
Continuous
 62
     7
100
AcDbPoint
 10
-85.93376922607422
 20
254.8679351806641
 30
0.0
  0
POINT
  5
99
330
90
100
AcDbEntity
  8
DEFPOINTS
  6
Continuous
 62
     7
100
AcDbPoint
 10
-85.93376922607422
 20
351.8679504394531
 30
0.0
  0
POINT
  5
9A
330
90
100
AcDbEntity
  8
DEFPOINTS
  6
Continuous
 62
     7
100
AcDbPoint
 10
-56.20055007934571
 20
351.8679504394531
 30
0.0
  0
ENDBLK
  5
9B
330
90
100
AcDbEntity
  8
0
100
AcDbBlockEnd
  0
BLOCK
  5
9D
330
9C
100
AcDbEntity
  8
0
100
AcDbBlockBegin
  2
*D9
 70
     1
 10
0.0
 20
0.0
 30
0.0
  3
*D9
  1

  0
LINE
  5
9E
330
9C
100
AcDbEntity
  8
0
  6
Continuous
 62
     7
100
AcDbLine
 10
-141.9337768554688
 20
318.5799560546875
 30
0.0
 11
-235.9337768554688
 21
318.5799560546875
 31
0.0
  0
INSERT
  5
9F
330
9C
100
AcDbEntity
  8
0
  6
Continuous
 62
     7
100
AcDbBlockReference
  2
_OPEN30
 10
-138.9337768554687
 20
318.5799560546875
 30
0.0
  0
INSERT
  5
A0
330
9C
100
AcDbEntity
  8
0
  6
Continuous
 62
     7
100
AcDbBlockReference
  2
_OPEN30
 10
-238.9337768554689
 20
318.5799560546875
 30
0.0
 50
180.0000000000004
  0
TEXT
  5
A1
330
9C
100
AcDbEntity
  8
0
  6
Continuous
 62
     7
100
AcDbText
 10
-193.0037770271301
 20
319.3299560546875
 30
0.0
 40
3.0
  1
100
 41
1.320000017011488
100
AcDbText
  0
POINT
  5
A2
330
9C
100
AcDbEntity
  8
DEFPOINTS
  6
Continuous
 62
     7
100
AcDbPoint
 10
-138.9337768554687
 20
303.3679504394531
 30
0.0
  0
POINT
  5
A3
330
9C
100
AcDbEntity
  8
DEFPOINTS
  6
Continuous
 62
     7
100
AcDbPoint
 10
-238.9337768554689
 20
319.7111206054688
 30
0.0
  0
POINT
  5
A4
330
9C
100
AcDbEntity
  8
DEFPOINTS
  6
Continuous
 62
     7
100
AcDbPoint
 10
-238.9337768554689
 20
318.5799560546875
 30
0.0
  0
ENDBLK
  5
A5
330
9C
100
AcDbEntity
  8
0
100
AcDbBlockEnd
  0
BLOCK
  5
A7
330
A6
100
AcDbEntity
  8
0
100
AcDbBlockBegin
  2
*D10
 70
     1
 10
0.0
 20
0.0
 30
0.0
  3
*D10
  1

  0
LINE
  5
A8
330
A6
100
AcDbEntity
  8
0
  6
Continuous
 62
     7
100
AcDbLine
 10
-141.9337768554688
 20
328.4829406738281
 30
0.0
 11
-185.9337768554688
 21
328.4829406738281
 31
0.0
  0
INSERT
  5
A9
330
A6
100
AcDbEntity
  8
0
  6
Continuous
 62
     7
100
AcDbBlockReference
  2
_OPEN30
 10
-138.9337768554687
 20
328.4829406738281
 30
0.0
  0
INSERT
  5
AA
330
A6
100
AcDbEntity
  8
0
  6
Continuous
 62
     7
100
AcDbBlockReference
  2
_OPEN30
 10
-188.9337768554688
 20
328.4829406738281
 30
0.0
 50
180.0000000000004
  0
LINE
  5
AB
330
A6
100
AcDbEntity
  8
0
  6
Continuous
 62
     7
100
AcDbLine
 10
-188.9337768554686
 20
343.2779321289062
 30
0.0
 11
-188.9337768554688
 21
326.1969299316406
 31
0.0
  0
TEXT
  5
AC
330
A6
100
AcDbEntity
  8
0
  6
Continuous
 62
     7
100
AcDbText
 10
-166.5037769675255
 20
329.2329406738281
 30
0.0
 40
3.0
  1
50
 41
1.101428593908038
100
AcDbText
  0
POINT
  5
AD
330
A6
100
AcDbEntity
  8
DEFPOINTS
  6
Continuous
 62
     7
100
AcDbPoint
 10
-138.9337768554687
 20
345.8179321289063
 30
0.0
  0
POINT
  5
AE
330
A6
100
AcDbEntity
  8
DEFPOINTS
  6
Continuous
 62
     7
100
AcDbPoint
 10
-188.9337768554688
 20
345.8179321289063
 30
0.0
  0
POINT
  5
AF
330
A6
100
AcDbEntity
  8
DEFPOINTS
  6
Continuous
 62
     7
100
AcDbPoint
 10
-188.9337768554688
 20
328.4829406738281
 30
0.0
  0
ENDBLK
  5
B0
330
A6
100
AcDbEntity
  8
0
100
AcDbBlockEnd
  0
BLOCK
  5
B2
330
B1
100
AcDbEntity
  8
0
100
AcDbBlockBegin
  2
*D11
 70
     1
 10
0.0
 20
0.0
 30
0.0
  3
*D11
  1

  0
LINE
  5
B3
330
B1
100
AcDbEntity
  8
0
  6
Continuous
 62
     7
100
AcDbLine
 10
-155.9337768554688
 20
187.9007720947266
 30
0.0
 11
-87.93376922607421
 21
187.9007720947265
 31
0.0
  0
INSERT
  5
B4
330
B1
100
AcDbEntity
  8
0
  6
Continuous
 62
     7
100
AcDbBlockReference
  2
_OPEN30
 10
-158.9337768554688
 20
187.9007720947266
 30
0.0
 50
180.0000000000004
  0
INSERT
  5
B5
330
B1
100
AcDbEntity
  8
0
  6
Continuous
 62
     7
100
AcDbBlockReference
  2
_OPEN30
 10
-84.93376922607422
 20
187.9007720947266
 30
0.0
  0
LINE
  5
B6
330
B1
100
AcDbEntity
  8
0
  6
Continuous
 62
     7
100
AcDbLine
 10
-158.9337768554687
 20
254.3279504394531
 30
0.0
 11
-158.9337768554688
 21
185.6147766113281
 31
0.0
  0
LINE
  5
B7
330
B1
100
AcDbEntity
  8
0
  6
Continuous
 62
     7
100
AcDbLine
 10
-84.93376922607419
 20
253.3279351806641
 30
0.0
 11
-84.93376922607422
 21
185.6147766113281
 31
0.0
  0
TEXT
  5
B8
330
B1
100
AcDbEntity
  8
0
  6
Continuous
 62
     7
100
AcDbText
 10
-124.503769338131
 20
188.6507720947266
 30
0.0
 40
3.0
  1
74
 41
1.028000020980834
100
AcDbText
  0
POINT
  5
B9
330
B1
100
AcDbEntity
  8
DEFPOINTS
  6
Continuous
 62
     7
100
AcDbPoint
 10
-158.9337768554688
 20
256.867950439453
 30
0.0
  0
POINT
  5
BA
330
B1
100
AcDbEntity
  8
DEFPOINTS
  6
Continuous
 62
     7
100
AcDbPoint
 10
-84.93376922607422
 20
255.8679351806641
 30
0.0
  0
POINT
  5
BB
330
B1
100
AcDbEntity
  8
DEFPOINTS
  6
Continuous
 62
     7
100
AcDbPoint
 10
-84.93376922607422
 20
187.9007720947266
 30
0.0
  0
ENDBLK
  5
BC
330
B1
100
AcDbEntity
  8
0
100
AcDbBlockEnd
  0
BLOCK
  5
BE
330
BD
100
AcDbEntity
  8
0
100
AcDbBlockBegin
  2
*D12
 70
     1
 10
0.0
 20
0.0
 30
0.0
  3
*D12
  1

  0
LINE
  5
BF
330
BD
100
AcDbEntity
  8
0
  6
Continuous
 62
     7
100
AcDbLine
 10
-89.00016784667965
 20
251.8679351806641
 30
0.0
 11
-89.0001678466797
 21
240.8679351806641
 31
0.0
  0
INSERT
  5
C0
330
BD
100
AcDbEntity
  8
0
  6
Continuous
 62
     7
100
AcDbBlockReference
  2
_OPEN30
 10
-89.00016784667968
 20
254.8679351806641
 30
0.0
 50
90.00000000000019
  0
INSERT
  5
C1
330
BD
100
AcDbEntity
  8
0
  6
Continuous
 62
     7
100
AcDbBlockReference
  2
_OPEN30
 10
-89.00016784667968
 20
237.8679351806641
 30
0.0
 50
270.0000000000005
  0
LINE
  5
C2
330
BD
100
AcDbEntity
  8
0
  6
Continuous
 62
     7
100
AcDbLine
 10
-116.4171838378906
 20
237.8679351806641
 30
0.0
 11
-86.71417236328125
 21
237.8679351806641
 31
0.0
  0
TEXT
  5
C3
330
BD
100
AcDbEntity
  8
0
  6
Continuous
 62
     7
100
AcDbText
 10
-89.75016773434143
 20
243.7979350358238
 30
0.0
 40
3.0
  1
17
 50
90.00000250447815
 41
1.285000026226043
100
AcDbText
  0
POINT
  5
C4
330
BD
100
AcDbEntity
  8
DEFPOINTS
  6
Continuous
 62
     7
100
AcDbPoint
 10
-85.93376922607422
 20
254.8679351806641
 30
0.0
  0
POINT
  5
C5
330
BD
100
AcDbEntity
  8
DEFPOINTS
  6
Continuous
 62
     7
100
AcDbPoint
 10
-118.9571838378906
 20
237.8679351806641
 30
0.0
  0
POINT
  5
C6
330
BD
100
AcDbEntity
  8
DEFPOINTS
  6
Continuous
 62
     7
100
AcDbPoint
 10
-89.00016784667968
 20
237.8679351806641
 30
0.0
  0
ENDBLK
  5
C7
330
BD
100
AcDbEntity
  8
0
100
AcDbBlockEnd
  0
BLOCK
  5
C9
330
C8
100
AcDbEntity
  8
0
100
AcDbBlockBegin
  2
*D13
 70
     1
 10
0.0
 20
0.0
 30
0.0
  3
*D13
  1

  0
LINE
  5
CA
330
C8
100
AcDbEntity
  8
0
  6
Continuous
 62
     7
100
AcDbLine
 10
-117.4337692260742
 20
225.7890014648438
 30
0.0
 11
-103.4337692260742
 21
225.7890014648437
 31
0.0
  0
INSERT
  5
CB
330
C8
100
AcDbEntity
  8
0
  6
Continuous
 62
     7
100
AcDbBlockReference
  2
_OPEN30
 10
-120.4337692260742
 20
225.7890014648438
 30
0.0
 50
180.0000000000004
  0
INSERT
  5
CC
330
C8
100
AcDbEntity
  8
0
  6
Continuous
 62
     7
100
AcDbBlockReference
  2
_OPEN30
 10
-100.4337692260742
 20
225.7890014648438
 30
0.0
  0
LINE
  5
CD
330
C8
100
AcDbEntity
  8
0
  6
Continuous
 62
     7
100
AcDbLine
 10
-100.4337692260742
 20
250.3279351806641
 30
0.0
 11
-100.4337692260742
 21
223.5030059814453
 31
0.0
  0
TEXT
  5
CE
330
C8
100
AcDbEntity
  8
0
  6
Continuous
 62
     7
100
AcDbText
 10
-113.003769338131
 20
226.5390014648438
 30
0.0
 40
3.0
  1
20
 41
1.101428593908038
100
AcDbText
  0
POINT
  5
CF
330
C8
100
AcDbEntity
  8
DEFPOINTS
  6
Continuous
 62
     7
100
AcDbPoint
 10
-120.4337692260742
 20
206.3679351806641
 30
0.0
  0
POINT
  5
D0
330
C8
100
AcDbEntity
  8
DEFPOINTS
  6
Continuous
 62
     7
100
AcDbPoint
 10
-100.4337692260742
 20
252.8679351806641
 30
0.0
  0
POINT
  5
D1
330
C8
100
AcDbEntity
  8
DEFPOINTS
  6
Continuous
 62
     7
100
AcDbPoint
 10
-100.4337692260742
 20
225.7890014648438
 30
0.0
  0
ENDBLK
  5
D2
330
C8
100
AcDbEntity
  8
0
100
AcDbBlockEnd
  0
BLOCK
  5
D4
330
D3
100
AcDbEntity
  8
0
100
AcDbBlockBegin
  2
KOZU0001
 70
     0
 10
0.0
 20
0.0
 30
0.0
  3
KOZU0001
  1

  0
LINE
  5
D5
330
D3
100
AcDbEntity
  8
0
  6
Continuous
 62
     7
100
AcDbLine
 10
0.0
 20
0.0
 30
0.0
 11
21.67559051513672
 21
21.20831298828125
 31
0.0
  0
LINE
  5
D6
330
D3
100
AcDbEntity
  8
0
  6
Continuous
 62
     7
100
AcDbLine
 10
21.67559051513672
 20
21.20831298828125
 30
0.0
 11
47.39669418334961
 21
21.20831298828125
 31
0.0
  0
LINE
  5
D7
330
D3
100
AcDbEntity
  8
0
  6
Continuous
 62
     7
100
AcDbLine
 10
0.0
 20
0.0
 30
0.0
 11
1.444947284732258
 21
2.812850394945468
 31
0.0
  0
LINE
  5
D8
330
D3
100
AcDbEntity
  8
0
  6
Continuous
 62
     7
100
AcDbLine
 10
0.0
 20
0.0
 30
0.0
 11
2.843668064753087
 21
1.383311945117019
 31
0.0
  0
TEXT
  5
D9
330
D3
100
AcDbEntity
  8
0
  6
Continuous
 62
     7
100
AcDbText
 10
23.21682667732239
 20
21.95831298828125
 30
0.0
 40
3.0
  1
配管接続口
 41
0.8487395020950888
100
AcDbText
  0
TEXT
  5
DA
330
D3
100
AcDbEntity
  8
0
  6
Continuous
 62
     7
100
AcDbText
 10
23.21682667732239
 20
16.69331298828125
 30
0.0
 40
3.0
  1
Ｒｃ３（８０Ａ）
 41
0.8454512278006642
100
AcDbText
  0
ENDBLK
  5
DB
330
D3
100
AcDbEntity
  8
0
100
AcDbBlockEnd
  0
BLOCK
  5
DD
330
DC
100
AcDbEntity
  8
0
100
AcDbBlockBegin
  2
KOZU0002
 70
     0
 10
0.0
 20
0.0
 30
0.0
  3
KOZU0002
  1

  0
LINE
  5
DE
330
DC
100
AcDbEntity
  8
0
  6
Continuous
 62
     7
100
AcDbLine
 10
0.0
 20
0.0
 30
0.0
 11
34.21795654296875
 21
-42.18061828613281
 31
0.0
  0
LINE
  5
DF
330
DC
100
AcDbEntity
  8
0
  6
Continuous
 62
     7
100
AcDbLine
 10
34.21795654296875
 20
-42.18061828613281
 30
0.0
 11
64.02689743041992
 21
-42.18061828613281
 31
0.0
  0
LINE
  5
E0
330
DC
100
AcDbEntity
  8
0
  6
Continuous
 62
     7
100
AcDbLine
 10
0.0
 20
0.0
 30
0.0
 11
2.66658602501633
 21
-1.699799685606398
 31
0.0
  0
LINE
  5
E1
330
DC
100
AcDbEntity
  8
0
  6
Continuous
 62
     7
100
AcDbLine
 10
0.0
 20
0.0
 30
0.0
 11
1.113389008649225
 21
-2.959791363494916
 31
0.0
  0
TEXT
  5
E2
330
DC
100
AcDbEntity
  8
0
  6
Continuous
 62
     7
100
AcDbText
 10
39.16689229011537
 20
-41.43061828613281
 30
0.0
 40
3.0
  1
共廻り防止用羽根
 41
0.8454512278006642
100
AcDbText
  0
TEXT
  5
E3
330
DC
100
AcDbEntity
  8
0
  6
Continuous
 62
     7
100
AcDbText
 10
39.16689229011537
 20
-46.69561828613281
 30
0.0
 40
3.0
  1
３ヶ所
 41
0.8550420278260688
100
AcDbText
  0
ENDBLK
  5
E4
330
DC
100
AcDbEntity
  8
0
100
AcDbBlockEnd
  0
ENDSEC
  0
SECTION
  2
ENTITIES
  0
LINE
  5
E5
330
22
100
AcDbEntity
  8
0
  6
CENTER
 62
     7
100
AcDbLine
 10
-432.6636047363281
 20
405.5671997070312
 30
0.0
 11
-432.6636047363281
 21
205.2123260498047
 31
0.0
  0
LINE
  5
E6
330
22
100
AcDbEntity
  8
0
  6
CENTER
 62
     7
100
AcDbLine
 10
-535.7996826171874
 20
303.3679504394531
 30
0.0
 11
-333.99169921875
 21
303.3679504394531
 31
0.0
  0
LINE
  5
E7
330
22
100
AcDbEntity
  8
0
  6
CENTER
 62
     7
100
AcDbLine
 10
-289.9528503417969
 20
303.3679504394531
 30
0.0
 11
-80.48271942138672
 21
303.3679504394531
 31
0.0
  0
LINE
  5
E8
330
22
100
AcDbEntity
  8
0
  6
Continuous
 62
     7
100
AcDbLine
 10
-444.2825622558594
 20
302.3679504394531
 30
0.0
 11
-500.0953369140624
 21
302.3679504394531
 31
0.0
  0
LINE
  5
E9
330
22
100
AcDbEntity
  8
0
  6
Continuous
 62
     7
100
AcDbLine
 10
-421.0444335937499
 20
302.3680114746094
 30
0.0
 11
-365.2316284179688
 21
302.3680114746094
 31
0.0
  0
LINE
  5
EA
330
22
100
AcDbEntity
  8
0
  6
Continuous
 62
     7
100
AcDbLine
 10
-441.4757385253905
 20
311.0065612792969
 30
0.0
 11
-486.6292419433594
 21
343.8125
 31
0.0
  0
LINE
  5
EB
330
22
100
AcDbEntity
  8
0
  6
CENTER
 62
     7
100
AcDbLine
 10
-432.6636047363281
 20
303.3679504394531
 30
0.0
 11
-457.7320861816406
 21
380.5208129882813
 31
0.0
  0
LINE
  5
EC
330
22
100
AcDbEntity
  8
0
  6
Continuous
 62
     7
100
AcDbLine
 10
-437.2051086425781
 20
314.1093444824219
 30
0.0
 11
-452.3360290527343
 21
360.6775207519531
 31
0.0
  0
LINE
  5
ED
330
22
100
AcDbEntity
  8
0
  6
Continuous
 62
     7
100
AcDbLine
 10
-423.851318359375
 20
311.006591796875
 30
0.0
 11
-378.6978149414063
 21
343.8125305175781
 31
0.0
  0
LINE
  5
EE
330
22
100
AcDbEntity
  8
0
  6
Continuous
 62
     7
100
AcDbLine
 10
-428.1219482421875
 20
314.1094055175781
 30
0.0
 11
-412.9910583496093
 21
360.6775512695313
 31
0.0
  0
LINE
  5
EF
330
22
100
AcDbEntity
  8
0
  6
Continuous
 62
     7
100
AcDbLine
 10
-429.3396911621093
 20
306.0375671386719
 30
0.0
 11
-431.3619995117187
 21
303.3679504394531
 31
0.0
  0
LINE
  5
F0
330
22
100
AcDbEntity
  8
0
  6
Continuous
 62
     7
100
AcDbLine
 10
-429.9764099121094
 20
300.0259704589844
 30
0.0
 11
-432.6636047363281
 21
302.0663452148438
 31
0.0
  0
LINE
  5
F1
330
22
100
AcDbEntity
  8
0
  6
Continuous
 62
     7
100
AcDbLine
 10
-429.6490478515624
 20
300.3533630371094
 30
0.0
 11
-429.9764099121094
 21
300.0259704589844
 31
0.0
  0
LINE
  5
F2
330
22
100
AcDbEntity
  8
0
  6
Continuous
 62
     7
100
AcDbLine
 10
-429.6490478515624
 20
300.3533630371094
 30
0.0
 11
-429.3216552734374
 21
300.6807556152344
 31
0.0
  0
LINE
  5
F3
330
22
100
AcDbEntity
  8
0
  6
Continuous
 62
     7
100
AcDbLine
 10
-429.3216552734374
 20
300.6807556152344
 30
0.0
 11
-431.3619995117187
 21
303.3679504394531
 31
0.0
  0
LINE
  5
F4
330
22
100
AcDbEntity
  8
0
  6
Continuous
 62
     7
100
AcDbLine
 10
-429.9939880371093
 20
306.6918640136719
 30
0.0
 11
-432.6636047363281
 21
304.6695251464844
 31
0.0
  0
LINE
  5
F5
330
22
100
AcDbEntity
  8
0
  6
Continuous
 62
     7
100
AcDbLine
 10
-429.3396911621093
 20
306.0375671386719
 30
0.0
 11
-429.6668395996094
 21
306.3647155761719
 31
0.0
  0
LINE
  5
F6
330
22
100
AcDbEntity
  8
0
  6
Continuous
 62
     7
100
AcDbLine
 10
-429.9939880371093
 20
306.6918640136719
 30
0.0
 11
-429.6668395996094
 21
306.3647155761719
 31
0.0
  0
LINE
  5
F7
330
22
100
AcDbEntity
  8
0
  6
Continuous
 62
     7
100
AcDbLine
 10
-435.6781921386718
 20
306.3825073242188
 30
0.0
 11
-436.0055847167968
 21
306.0551147460938
 31
0.0
  0
LINE
  5
F8
330
22
100
AcDbEntity
  8
0
  6
Continuous
 62
     7
100
AcDbLine
 10
-435.6781921386718
 20
306.3825073242188
 30
0.0
 11
-435.3507995605468
 21
306.7098999023438
 31
0.0
  0
LINE
  5
F9
330
22
100
AcDbEntity
  8
0
  6
Continuous
 62
     7
100
AcDbLine
 10
-435.3507995605468
 20
306.7098999023438
 30
0.0
 11
-432.6636047363281
 21
304.6695251464844
 31
0.0
  0
LINE
  5
FA
330
22
100
AcDbEntity
  8
0
  6
Continuous
 62
     7
100
AcDbLine
 10
-435.9875183105469
 20
300.6983032226563
 30
0.0
 11
-435.6603698730468
 21
300.3711547851563
 31
0.0
  0
LINE
  5
FB
330
22
100
AcDbEntity
  8
0
  6
Continuous
 62
     7
100
AcDbLine
 10
-435.3332214355468
 20
300.0440368652344
 30
0.0
 11
-435.6603698730468
 21
300.3711547851563
 31
0.0
  0
LINE
  5
FC
330
22
100
AcDbEntity
  8
0
  6
Continuous
 62
     7
100
AcDbLine
 10
-435.9875183105469
 20
300.6983032226563
 30
0.0
 11
-433.9652099609375
 21
303.3679504394531
 31
0.0
  0
LINE
  5
FD
330
22
100
AcDbEntity
  8
0
  6
Continuous
 62
     7
100
AcDbLine
 10
-436.0055847167968
 20
306.0551147460938
 30
0.0
 11
-433.9652099609375
 21
303.3679504394531
 31
0.0
  0
LINE
  5
FE
330
22
100
AcDbEntity
  8
0
  6
Continuous
 62
     7
100
AcDbLine
 10
-457.0006713867187
 20
365.3701477050781
 30
0.0
 11
-454.9783630371093
 21
368.039794921875
 31
0.0
  0
LINE
  5
FF
330
22
100
AcDbEntity
  8
0
  6
Continuous
 62
     7
100
AcDbLine
 10
-435.3332214355468
 20
300.0440368652344
 30
0.0
 11
-432.6636047363281
 21
302.0663452148438
 31
0.0
  0
LINE
  5
100
330
22
100
AcDbEntity
  8
0
  6
Continuous
 62
     7
100
AcDbLine
 10
-450.3528442382813
 20
370.7094116210938
 30
0.0
 11
-451.0071411132813
 21
371.3637084960938
 31
0.0
  0
LINE
  5
101
330
22
100
AcDbEntity
  8
0
  6
Continuous
 62
     7
100
AcDbLine
 10
-456.6913452148438
 20
371.0543518066406
 30
0.0
 11
-457.0187377929688
 21
370.7269592285156
 31
0.0
  0
LINE
  5
102
330
22
100
AcDbEntity
  8
0
  6
Continuous
 62
     7
100
AcDbLine
 10
-456.3464050292968
 20
364.7158508300781
 30
0.0
 11
-456.6735229492188
 21
365.0429992675781
 31
0.0
  0
LINE
  5
103
330
22
100
AcDbEntity
  8
0
  6
Continuous
 62
     7
100
AcDbLine
 10
-451.0071411132813
 20
371.3637084960938
 30
0.0
 11
-453.6767578125
 21
369.3413696289063
 31
0.0
  0
LINE
  5
104
330
22
100
AcDbEntity
  8
0
  6
Continuous
 62
     7
100
AcDbLine
 10
-450.6622009277343
 20
365.0252075195313
 30
0.0
 11
-450.9895935058593
 21
364.6978149414063
 31
0.0
  0
LINE
  5
105
330
22
100
AcDbEntity
  8
0
  6
Continuous
 62
     7
100
AcDbLine
 10
-450.3348083496093
 20
365.3526000976563
 30
0.0
 11
-452.3751525878906
 21
368.039794921875
 31
0.0
  0
LINE
  5
106
330
22
100
AcDbEntity
  8
0
  6
Continuous
 62
     7
100
AcDbLine
 10
-456.3464050292968
 20
364.7158508300781
 30
0.0
 11
-453.6767578125
 21
366.7381896972656
 31
0.0
  0
LINE
  5
107
330
22
100
AcDbEntity
  8
0
  6
Continuous
 62
     7
100
AcDbLine
 10
-456.3639526367188
 20
371.3817443847656
 30
0.0
 11
-453.6767578125
 21
369.3413696289063
 31
0.0
  0
LINE
  5
108
330
22
100
AcDbEntity
  8
0
  6
Continuous
 62
     7
100
AcDbLine
 10
-457.0006713867187
 20
365.3701477050781
 30
0.0
 11
-456.6735229492188
 21
365.0429992675781
 31
0.0
  0
LINE
  5
109
330
22
100
AcDbEntity
  8
0
  6
Continuous
 62
     7
100
AcDbLine
 10
-456.6913452148438
 20
371.0543518066406
 30
0.0
 11
-456.3639526367188
 21
371.3817443847656
 31
0.0
  0
LINE
  5
10A
330
22
100
AcDbEntity
  8
0
  6
Continuous
 62
     7
100
AcDbLine
 10
-457.0187377929688
 20
370.7269592285156
 30
0.0
 11
-454.9783630371093
 21
368.039794921875
 31
0.0
  0
LINE
  5
10B
330
22
100
AcDbEntity
  8
0
  6
Continuous
 62
     7
100
AcDbLine
 10
-459.2914428710938
 20
365.9242858886719
 30
0.0
 11
-459.2928466796875
 21
365.9285888671875
 31
0.0
  0
LINE
  5
10C
330
22
100
AcDbEntity
  8
0
  6
Continuous
 62
     7
100
AcDbLine
 10
-450.3528442382813
 20
370.7094116210938
 30
0.0
 11
-452.3751525878906
 21
368.039794921875
 31
0.0
  0
LINE
  5
10D
330
22
100
AcDbEntity
  8
0
  6
Continuous
 62
     7
100
AcDbLine
 10
-450.9895935058593
 20
364.6978149414063
 30
0.0
 11
-453.6767578125
 21
366.7381896972656
 31
0.0
  0
LINE
  5
10E
330
22
100
AcDbEntity
  8
0
  6
Continuous
 62
     7
100
AcDbLine
 10
-450.6622009277343
 20
365.0252075195313
 30
0.0
 11
-450.3348083496093
 21
365.3526000976563
 31
0.0
  0
LINE
  5
10F
330
22
100
AcDbEntity
  8
0
  6
Continuous
 62
     7
100
AcDbLine
 10
-422.6756591796875
 20
297.3475952148438
 30
0.0
 11
-377.5221557617188
 21
264.5416564941406
 31
0.0
  0
LINE
  5
110
330
22
100
AcDbEntity
  8
0
  6
Continuous
 62
     7
100
AcDbLine
 10
-442.6513061523437
 20
297.3475036621094
 30
0.0
 11
-487.8048095703125
 21
264.5415649414063
 31
0.0
  0
LINE
  5
111
330
22
100
AcDbEntity
  8
0
  6
Continuous
 62
     7
100
AcDbLine
 10
-430.0240783691406
 20
292.0086059570313
 30
0.0
 11
-412.7769775390625
 21
238.9274749755859
 31
0.0
  0
LINE
  5
112
330
22
100
AcDbEntity
  8
0
  6
Continuous
 62
     7
100
AcDbLine
 10
-435.3028564453125
 20
292.0086059570313
 30
0.0
 11
-452.5499572753906
 21
238.9274749755859
 31
0.0
  0
LINE
  5
113
330
22
100
AcDbEntity
  8
0
  6
CENTER
 62
     7
100
AcDbLine
 10
-535.7996826171874
 20
103.3679351806641
 30
0.0
 11
-333.99169921875
 21
103.3679351806641
 31
0.0
  0
LINE
  5
114
330
22
100
AcDbEntity
  8
0
  6
CENTER
 62
     7
100
AcDbLine
 10
-432.6636047363281
 20
201.7893371582031
 30
0.0
 11
-432.6636047363281
 21
4.758946895599365
 31
0.0
  0
LINE
  5
115
330
22
100
AcDbEntity
  8
0
  6
Continuous
 62
     7
100
AcDbLine
 10
-422.6756591796875
 20
97.3475799560547
 30
0.0
 11
-377.5221557617188
 21
64.54164886474609
 31
0.0
  0
LINE
  5
116
330
22
100
AcDbEntity
  8
0
  6
Continuous
 62
     7
100
AcDbLine
 10
-408.6358642578124
 20
165.0252075195313
 30
0.0
 11
-408.3084716796874
 21
165.3526000976563
 31
0.0
  0
LINE
  5
117
330
22
100
AcDbEntity
  8
0
  6
Continuous
 62
     7
100
AcDbLine
 10
-408.9632568359375
 20
164.6978149414063
 30
0.0
 11
-411.6504516601563
 21
166.7381744384766
 31
0.0
  0
LINE
  5
118
330
22
100
AcDbEntity
  8
0
  6
Continuous
 62
     7
100
AcDbLine
 10
-408.3265380859375
 20
170.7094116210938
 30
0.0
 11
-410.3488464355469
 21
168.0397796630859
 31
0.0
  0
LINE
  5
119
330
22
100
AcDbEntity
  8
0
  6
Continuous
 62
     7
100
AcDbLine
 10
-459.2914428710938
 20
165.9242858886719
 30
0.0
 11
-459.2928466796875
 21
165.9285888671875
 31
0.0
  0
LINE
  5
11A
330
22
100
AcDbEntity
  8
0
  6
Continuous
 62
     7
100
AcDbLine
 10
-414.992431640625
 20
170.7269592285156
 30
0.0
 11
-412.9520568847656
 21
168.0397796630859
 31
0.0
  0
LINE
  5
11B
330
22
100
AcDbEntity
  8
0
  6
Continuous
 62
     7
100
AcDbLine
 10
-414.6650390625
 20
171.0543518066406
 30
0.0
 11
-414.337646484375
 21
171.3817443847656
 31
0.0
  0
LINE
  5
11C
330
22
100
AcDbEntity
  8
0
  6
Continuous
 62
     7
100
AcDbLine
 10
-414.9743652343749
 20
165.3701477050781
 30
0.0
 11
-414.647216796875
 21
165.0430145263672
 31
0.0
  0
LINE
  5
11D
330
22
100
AcDbEntity
  8
0
  6
Continuous
 62
     7
100
AcDbLine
 10
-414.337646484375
 20
171.3817443847656
 30
0.0
 11
-411.6504516601563
 21
169.3413848876953
 31
0.0
  0
LINE
  5
11E
330
22
100
AcDbEntity
  8
0
  6
Continuous
 62
     7
100
AcDbLine
 10
-414.3200683593749
 20
164.7158660888672
 30
0.0
 11
-411.6504516601563
 21
166.7381744384766
 31
0.0
  0
LINE
  5
11F
330
22
100
AcDbEntity
  8
0
  6
Continuous
 62
     7
100
AcDbLine
 10
-408.3084716796874
 20
165.3526000976563
 30
0.0
 11
-410.3488464355469
 21
168.0397796630859
 31
0.0
  0
LINE
  5
120
330
22
100
AcDbEntity
  8
0
  6
Continuous
 62
     7
100
AcDbLine
 10
-408.6358642578124
 20
165.0252075195313
 30
0.0
 11
-408.9632568359375
 21
164.6978149414063
 31
0.0
  0
LINE
  5
121
330
22
100
AcDbEntity
  8
0
  6
Continuous
 62
     7
100
AcDbLine
 10
-408.9808349609374
 20
171.3636932373047
 30
0.0
 11
-411.6504516601563
 21
169.3413848876953
 31
0.0
  0
LINE
  5
122
330
22
100
AcDbEntity
  8
0
  6
Continuous
 62
     7
100
AcDbLine
 10
-414.3200683593749
 20
164.7158660888672
 30
0.0
 11
-414.647216796875
 21
165.0430145263672
 31
0.0
  0
LINE
  5
123
330
22
100
AcDbEntity
  8
0
  6
Continuous
 62
     7
100
AcDbLine
 10
-414.6650390625
 20
171.0543518066406
 30
0.0
 11
-414.992431640625
 21
170.7269592285156
 31
0.0
  0
LINE
  5
124
330
22
100
AcDbEntity
  8
0
  6
Continuous
 62
     7
100
AcDbLine
 10
-408.3265380859375
 20
170.7094116210938
 30
0.0
 11
-408.9808349609374
 21
171.3636932373047
 31
0.0
  0
LINE
  5
125
330
22
100
AcDbEntity
  8
0
  6
Continuous
 62
     7
100
AcDbLine
 10
-435.3332214355468
 20
100.0440216064453
 30
0.0
 11
-432.6636047363281
 21
102.0663375854492
 31
0.0
  0
LINE
  5
126
330
22
100
AcDbEntity
  8
0
  6
Continuous
 62
     7
100
AcDbLine
 10
-414.9743652343749
 20
165.3701477050781
 30
0.0
 11
-412.9520568847656
 21
168.0397796630859
 31
0.0
  0
LINE
  5
127
330
22
100
AcDbEntity
  8
0
  6
Continuous
 62
     7
100
AcDbLine
 10
-436.0055847167968
 20
106.0551223754883
 30
0.0
 11
-433.9652099609375
 21
103.3679351806641
 31
0.0
  0
LINE
  5
128
330
22
100
AcDbEntity
  8
0
  6
Continuous
 62
     7
100
AcDbLine
 10
-435.9875183105469
 20
100.6983108520508
 30
0.0
 11
-433.9652099609375
 21
103.3679351806641
 31
0.0
  0
LINE
  5
129
330
22
100
AcDbEntity
  8
0
  6
Continuous
 62
     7
100
AcDbLine
 10
-435.3332214355468
 20
100.0440216064453
 30
0.0
 11
-435.6603698730468
 21
100.3711624145508
 31
0.0
  0
LINE
  5
12A
330
22
100
AcDbEntity
  8
0
  6
Continuous
 62
     7
100
AcDbLine
 10
-435.9875183105469
 20
100.6983108520508
 30
0.0
 11
-435.6603698730468
 21
100.3711624145508
 31
0.0
  0
LINE
  5
12B
330
22
100
AcDbEntity
  8
0
  6
Continuous
 62
     7
100
AcDbLine
 10
-435.3507995605468
 20
106.7098999023438
 30
0.0
 11
-432.6636047363281
 21
104.6695404052734
 31
0.0
  0
LINE
  5
12C
330
22
100
AcDbEntity
  8
0
  6
Continuous
 62
     7
100
AcDbLine
 10
-435.6781921386718
 20
106.3825149536133
 30
0.0
 11
-435.3507995605468
 21
106.7098999023438
 31
0.0
  0
LINE
  5
12D
330
22
100
AcDbEntity
  8
0
  6
Continuous
 62
     7
100
AcDbLine
 10
-435.6781921386718
 20
106.3825149536133
 30
0.0
 11
-436.0055847167968
 21
106.0551223754883
 31
0.0
  0
LINE
  5
12E
330
22
100
AcDbEntity
  8
0
  6
Continuous
 62
     7
100
AcDbLine
 10
-429.9939880371093
 20
106.6918487548828
 30
0.0
 11
-429.6668395996094
 21
106.3647079467773
 31
0.0
  0
LINE
  5
12F
330
22
100
AcDbEntity
  8
0
  6
Continuous
 62
     7
100
AcDbLine
 10
-429.3396911621093
 20
106.0375671386719
 30
0.0
 11
-429.6668395996094
 21
106.3647079467773
 31
0.0
  0
LINE
  5
130
330
22
100
AcDbEntity
  8
0
  6
Continuous
 62
     7
100
AcDbLine
 10
-429.9939880371093
 20
106.6918487548828
 30
0.0
 11
-432.6636047363281
 21
104.6695404052734
 31
0.0
  0
LINE
  5
131
330
22
100
AcDbEntity
  8
0
  6
Continuous
 62
     7
100
AcDbLine
 10
-429.3216552734374
 20
100.6807556152344
 30
0.0
 11
-431.3619995117187
 21
103.3679351806641
 31
0.0
  0
LINE
  5
132
330
22
100
AcDbEntity
  8
0
  6
Continuous
 62
     7
100
AcDbLine
 10
-429.6490478515624
 20
100.3533630371094
 30
0.0
 11
-429.3216552734374
 21
100.6807556152344
 31
0.0
  0
LINE
  5
133
330
22
100
AcDbEntity
  8
0
  6
Continuous
 62
     7
100
AcDbLine
 10
-429.6490478515624
 20
100.3533630371094
 30
0.0
 11
-429.9764099121094
 21
100.0259704589844
 31
0.0
  0
LINE
  5
134
330
22
100
AcDbEntity
  8
0
  6
Continuous
 62
     7
100
AcDbLine
 10
-429.9764099121094
 20
100.0259704589844
 30
0.0
 11
-432.6636047363281
 21
102.0663375854492
 31
0.0
  0
LINE
  5
135
330
22
100
AcDbEntity
  8
0
  6
Continuous
 62
     7
100
AcDbLine
 10
-429.3396911621093
 20
106.0375671386719
 30
0.0
 11
-431.3619995117187
 21
103.3679351806641
 31
0.0
  0
LINE
  5
136
330
22
100
AcDbEntity
  8
0
  6
Continuous
 62
     7
100
AcDbLine
 10
-428.1219482421875
 20
114.1093978881836
 30
0.0
 11
-412.9910583496093
 21
160.6775512695313
 31
0.0
  0
LINE
  5
137
330
22
100
AcDbEntity
  8
0
  6
Continuous
 62
     7
100
AcDbLine
 10
-423.851318359375
 20
111.0065994262695
 30
0.0
 11
-378.6978149414063
 21
143.8125305175781
 31
0.0
  0
LINE
  5
138
330
22
100
AcDbEntity
  8
0
  6
Continuous
 62
     7
100
AcDbLine
 10
-437.2051086425781
 20
114.1093521118164
 30
0.0
 11
-452.3360290527343
 21
160.6775360107422
 31
0.0
  0
LINE
  5
139
330
22
100
AcDbEntity
  8
0
  6
CENTER
 62
     7
100
AcDbLine
 10
-432.6636047363281
 20
103.3679351806641
 30
0.0
 11
-457.7320861816406
 21
180.5208282470703
 31
0.0
  0
LINE
  5
13A
330
22
100
AcDbEntity
  8
0
  6
Continuous
 62
     7
100
AcDbLine
 10
-441.4757385253905
 20
111.0065536499023
 30
0.0
 11
-486.6292419433594
 21
143.8124847412109
 31
0.0
  0
LINE
  5
13B
330
22
100
AcDbEntity
  8
0
  6
Continuous
 62
     7
100
AcDbLine
 10
-421.0444335937499
 20
102.3680114746094
 30
0.0
 11
-365.2316284179688
 21
102.3680114746094
 31
0.0
  0
LINE
  5
13C
330
22
100
AcDbEntity
  8
0
  6
Continuous
 62
     7
100
AcDbLine
 10
-444.2825622558594
 20
102.3679351806641
 30
0.0
 11
-500.0953369140624
 21
102.3679351806641
 31
0.0
  0
LINE
  5
13D
330
22
100
AcDbEntity
  8
0
  6
Continuous
 62
     7
100
AcDbLine
 10
-442.6513061523437
 20
97.34750366210938
 30
0.0
 11
-487.8048095703125
 21
64.54157257080078
 31
0.0
  0
LINE
  5
13E
330
22
100
AcDbEntity
  8
0
  6
Continuous
 62
     7
100
AcDbLine
 10
-430.0240783691406
 20
92.0085906982422
 30
0.0
 11
-412.7769775390625
 21
38.9274787902832
 31
0.0
  0
LINE
  5
13F
330
22
100
AcDbEntity
  8
0
  6
Continuous
 62
     7
100
AcDbLine
 10
-435.3028564453125
 20
92.0085906982422
 30
0.0
 11
-452.5499572753906
 21
38.9274787902832
 31
0.0
  0
LINE
  5
140
330
22
100
AcDbEntity
  8
0
  6
Continuous
 62
     7
100
AcDbLine
 10
-140.4237670898438
 20
347.3079223632813
 30
0.0
 11
-190.4237670898438
 21
347.3079223632813
 31
0.0
  0
LINE
  5
141
330
22
100
AcDbEntity
  8
0
  6
Continuous
 62
     7
100
AcDbLine
 10
-234.478515625
 20
345.3321533203125
 30
0.0
 11
-220.48291015625
 21
345.76953125
 31
0.0
  0
LINE
  5
142
330
22
100
AcDbEntity
  8
0
  6
Continuous
 62
     7
100
AcDbLine
 10
-210.4050750732422
 20
346.0657348632813
 30
0.0
 11
-238.9337768554689
 21
345.1741638183594
 31
0.0
  0
LINE
  5
143
330
22
100
AcDbEntity
  8
0
  6
Continuous
 62
     7
100
AcDbLine
 10
-235.9337768554688
 20
346.7873840332031
 30
0.0
 11
-218.9337768554688
 21
347.3186645507813
 31
0.0
  0
LINE
  5
144
330
22
100
AcDbEntity
  8
0
  6
Continuous
 62
     7
100
AcDbLine
 10
-208.8662567138672
 20
347.6045532226563
 30
0.0
 11
-237.3949584960938
 21
346.7129821777344
 31
0.0
  0
LINE
  5
145
330
22
100
AcDbEntity
  8
0
  6
Continuous
 62
     7
100
AcDbLine
 10
-210.4050750732422
 20
346.0657348632813
 30
0.0
 11
-208.5528564453125
 21
347.9179382324219
 31
0.0
  0
LINE
  5
146
330
22
100
AcDbEntity
  8
0
  6
Continuous
 62
     7
100
AcDbLine
 10
-218.9337768554688
 20
347.3186645507813
 30
0.0
 11
-220.48291015625
 21
345.76953125
 31
0.0
  0
LINE
  5
147
330
22
100
AcDbEntity
  8
0
  6
Continuous
 62
     7
100
AcDbLine
 10
-235.9337768554688
 20
346.7873840332031
 30
0.0
 11
-235.9337768554688
 21
347.3679504394531
 31
0.0
  0
LINE
  5
148
330
22
100
AcDbEntity
  8
0
  6
Continuous
 62
     7
100
AcDbLine
 10
-235.9337768554688
 20
346.7873840332031
 30
0.0
 11
-234.478515625
 21
345.3321533203125
 31
0.0
  0
LINE
  5
149
330
22
100
AcDbEntity
  8
0
  6
Continuous
 62
     7
100
AcDbLine
 10
-238.9337768554689
 20
345.1741638183594
 30
0.0
 11
-237.3949584960938
 21
346.7129821777344
 31
0.0
  0
LINE
  5
14A
330
22
100
AcDbEntity
  8
0
  6
Continuous
 62
     7
100
AcDbLine
 10
-218.9337768554688
 20
347.2899169921875
 30
0.0
 11
-218.9337768554688
 21
351.3679504394531
 31
0.0
  0
LINE
  5
14B
330
22
100
AcDbEntity
  8
0
  6
Continuous
 62
     7
100
AcDbLine
 10
-218.9337768554688
 20
351.3679504394531
 30
0.0
 11
-219.9337768554688
 21
352.3679504394531
 31
0.0
  0
LINE
  5
14C
330
22
100
AcDbEntity
  8
0
  6
Continuous
 62
     7
100
AcDbLine
 10
-218.9337768554688
 20
347.2899169921875
 30
0.0
 11
-218.9337768554688
 21
351.3309326171875
 31
0.0
  0
LINE
  5
14D
330
22
100
AcDbEntity
  8
0
  6
Continuous
 62
     7
100
AcDbLine
 10
-238.9337768554689
 20
303.3679504394531
 30
0.0
 11
-238.9337768554689
 21
345.1741638183594
 31
0.0
  0
LINE
  5
14E
330
22
100
AcDbEntity
  8
0
  6
Continuous
 62
     7
100
AcDbLine
 10
-191.0337677001953
 20
347.9179382324219
 30
0.0
 11
-208.5528564453125
 21
347.9179382324219
 31
0.0
  0
LINE
  5
14F
330
22
100
AcDbEntity
  8
0
  6
Continuous
 62
     7
100
AcDbLine
 10
-138.9337768554687
 20
319.7111206054688
 30
0.0
 11
-138.9337768554687
 21
328.3292846679688
 31
0.0
  0
LINE
  5
150
330
22
100
AcDbEntity
  8
0
  6
Continuous
 62
     7
100
AcDbLine
 10
-238.9337768554689
 20
319.7111206054688
 30
0.0
 11
-238.9337768554689
 21
328.3292846679688
 31
0.0
  0
LINE
  5
151
330
22
100
AcDbEntity
  8
0
  6
Continuous
 62
     7
100
AcDbLine
 10
-138.9337768554687
 20
343.9179382324219
 30
0.0
 11
-238.9337768554689
 21
343.9179382324219
 31
0.0
  0
LINE
  5
152
330
22
100
AcDbEntity
  8
0
  6
Continuous
 62
     7
100
AcDbLine
 10
-237.9192810058594
 20
343.9179382324219
 30
0.0
 11
-236.5898132324219
 21
345.2474060058594
 31
0.0
  0
LINE
  5
153
330
22
100
AcDbEntity
  8
0
  6
Continuous
 62
     7
100
AcDbLine
 10
-234.3837432861328
 20
343.9179382324219
 30
0.0
 11
-232.9402160644531
 21
345.3614501953125
 31
0.0
  0
LINE
  5
154
330
22
100
AcDbEntity
  8
0
  6
Continuous
 62
     7
100
AcDbLine
 10
-230.8482208251953
 20
343.9179382324219
 30
0.0
 11
-229.2906341552734
 21
345.4755249023438
 31
0.0
  0
LINE
  5
155
330
22
100
AcDbEntity
  8
0
  6
Continuous
 62
     7
100
AcDbLine
 10
-227.3126831054689
 20
343.9179382324219
 30
0.0
 11
-225.6410522460938
 21
345.5895690917969
 31
0.0
  0
LINE
  5
156
330
22
100
AcDbEntity
  8
0
  6
Continuous
 62
     7
100
AcDbLine
 10
-223.7771453857422
 20
343.9179382324219
 30
0.0
 11
-221.991455078125
 21
345.7036437988281
 31
0.0
  0
LINE
  5
157
330
22
100
AcDbEntity
  8
0
  6
Continuous
 62
     7
100
AcDbLine
 10
-220.2416076660156
 20
343.9179382324219
 30
0.0
 11
-218.3418731689453
 21
345.8176879882813
 31
0.0
  0
LINE
  5
158
330
22
100
AcDbEntity
  8
0
  6
Continuous
 62
     7
100
AcDbLine
 10
-216.7060852050781
 20
343.9179382324219
 30
0.0
 11
-214.6922760009766
 21
345.9317321777344
 31
0.0
  0
LINE
  5
159
330
22
100
AcDbEntity
  8
0
  6
Continuous
 62
     7
100
AcDbLine
 10
-213.1705474853516
 20
343.9179382324219
 30
0.0
 11
-211.0426940917969
 21
346.0458068847656
 31
0.0
  0
LINE
  5
15A
330
22
100
AcDbEntity
  8
0
  6
Continuous
 62
     7
100
AcDbLine
 10
-209.635009765625
 20
343.9179382324219
 30
0.0
 11
-205.635009765625
 21
347.9179382324219
 31
0.0
  0
LINE
  5
15B
330
22
100
AcDbEntity
  8
0
  6
Continuous
 62
     7
100
AcDbLine
 10
-206.0994720458984
 20
343.9179382324219
 30
0.0
 11
-202.0994720458984
 21
347.9179382324219
 31
0.0
  0
LINE
  5
15C
330
22
100
AcDbEntity
  8
0
  6
Continuous
 62
     7
100
AcDbLine
 10
-202.5639495849609
 20
343.9179382324219
 30
0.0
 11
-198.5639495849609
 21
347.9179382324219
 31
0.0
  0
LINE
  5
15D
330
22
100
AcDbEntity
  8
0
  6
Continuous
 62
     7
100
AcDbLine
 10
-199.0284118652344
 20
343.9179382324219
 30
0.0
 11
-195.0284118652344
 21
347.9179382324219
 31
0.0
  0
LINE
  5
15E
330
22
100
AcDbEntity
  8
0
  6
Continuous
 62
     7
100
AcDbLine
 10
-195.4928741455078
 20
343.9179382324219
 30
0.0
 11
-191.4928741455078
 21
347.9179382324219
 31
0.0
  0
LINE
  5
15F
330
22
100
AcDbEntity
  8
0
  6
Continuous
 62
     7
100
AcDbLine
 10
-191.9573364257813
 20
343.9179382324219
 30
0.0
 11
-189.4955596923828
 21
346.3797302246094
 31
0.0
  0
LINE
  5
160
330
22
100
AcDbEntity
  8
0
  6
Continuous
 62
     7
100
AcDbLine
 10
-188.4218139648438
 20
343.9179382324219
 30
0.0
 11
-186.5218048095703
 21
345.8179321289063
 31
0.0
  0
LINE
  5
161
330
22
100
AcDbEntity
  8
0
  6
Continuous
 62
     7
100
AcDbLine
 10
-184.8862762451172
 20
343.9179382324219
 30
0.0
 11
-182.9862670898438
 21
345.8179321289063
 31
0.0
  0
LINE
  5
162
330
22
100
AcDbEntity
  8
0
  6
Continuous
 62
     7
100
AcDbLine
 10
-181.3507385253906
 20
343.9179382324219
 30
0.0
 11
-179.4507446289063
 21
345.8179321289063
 31
0.0
  0
LINE
  5
163
330
22
100
AcDbEntity
  8
0
  6
Continuous
 62
     7
100
AcDbLine
 10
-177.8152008056641
 20
343.9179382324219
 30
0.0
 11
-175.9152069091797
 21
345.8179321289063
 31
0.0
  0
LINE
  5
164
330
22
100
AcDbEntity
  8
0
  6
Continuous
 62
     7
100
AcDbLine
 10
-174.2796783447266
 20
343.9179382324219
 30
0.0
 11
-172.3796691894531
 21
345.8179321289063
 31
0.0
  0
LINE
  5
165
330
22
100
AcDbEntity
  8
0
  6
Continuous
 62
     7
100
AcDbLine
 10
-170.744140625
 20
343.9179382324219
 30
0.0
 11
-168.8441314697266
 21
345.8179321289063
 31
0.0
  0
LINE
  5
166
330
22
100
AcDbEntity
  8
0
  6
Continuous
 62
     7
100
AcDbLine
 10
-167.2086029052734
 20
343.9179382324219
 30
0.0
 11
-165.3086090087891
 21
345.8179321289063
 31
0.0
  0
LINE
  5
167
330
22
100
AcDbEntity
  8
0
  6
Continuous
 62
     7
100
AcDbLine
 10
-163.6730651855469
 20
343.9179382324219
 30
0.0
 11
-161.7730712890625
 21
345.8179321289063
 31
0.0
  0
LINE
  5
168
330
22
100
AcDbEntity
  8
0
  6
Continuous
 62
     7
100
AcDbLine
 10
-160.1375427246094
 20
343.9179382324219
 30
0.0
 11
-158.2375335693359
 21
345.8179321289063
 31
0.0
  0
LINE
  5
169
330
22
100
AcDbEntity
  8
0
  6
Continuous
 62
     7
100
AcDbLine
 10
-156.6020050048828
 20
343.9179382324219
 30
0.0
 11
-154.7019958496094
 21
345.8179321289063
 31
0.0
  0
LINE
  5
16A
330
22
100
AcDbEntity
  8
0
  6
Continuous
 62
     7
100
AcDbLine
 10
-153.0664672851563
 20
343.9179382324219
 30
0.0
 11
-151.1664733886719
 21
345.8179321289063
 31
0.0
  0
LINE
  5
16B
330
22
100
AcDbEntity
  8
0
  6
Continuous
 62
     7
100
AcDbLine
 10
-149.5309295654297
 20
343.9179382324219
 30
0.0
 11
-147.6309356689453
 21
345.8179321289063
 31
0.0
  0
LINE
  5
16C
330
22
100
AcDbEntity
  8
0
  6
Continuous
 62
     7
100
AcDbLine
 10
-145.9954071044922
 20
343.9179382324219
 30
0.0
 11
-144.0953979492188
 21
345.8179321289063
 31
0.0
  0
LINE
  5
16D
330
22
100
AcDbEntity
  8
0
  6
Continuous
 62
     7
100
AcDbLine
 10
-142.4598693847656
 20
343.9179382324219
 30
0.0
 11
-140.5598602294922
 21
345.8179321289063
 31
0.0
  0
LINE
  5
16E
330
22
100
AcDbEntity
  8
0
  6
Continuous
 62
     7
100
AcDbLine
 10
-120.4337692260742
 20
352.8679504394531
 30
0.0
 11
-120.4337692260742
 21
400.3679504394531
 31
0.0
  0
LINE
  5
16F
330
22
100
AcDbEntity
  8
0
  6
Continuous
 62
     7
100
AcDbLine
 10
-120.9337692260742
 20
400.8679504394531
 30
0.0
 11
-121.9337692260742
 21
400.8679504394531
 31
0.0
  0
LINE
  5
170
330
22
100
AcDbEntity
  8
0
  6
Continuous
 62
     7
100
AcDbLine
 10
-138.9337768554687
 20
345.8179321289063
 30
0.0
 11
-140.4237670898438
 21
347.3079223632813
 31
0.0
  0
LINE
  5
171
330
22
100
AcDbEntity
  8
0
  6
Continuous
 62
     7
100
AcDbLine
 10
-119.4337692260742
 20
351.8679504394531
 30
0.0
 11
-85.93376922607422
 21
351.8679504394531
 31
0.0
  0
LINE
  5
172
330
22
100
AcDbEntity
  8
0
  6
Continuous
 62
     7
100
AcDbLine
 10
-158.9337768554688
 20
347.3079223632813
 30
0.0
 11
-157.4587707519531
 21
345.8329467773438
 31
0.0
  0
LINE
  5
173
330
22
100
AcDbEntity
  8
0
  6
Continuous
 62
     7
100
AcDbLine
 10
-158.9337768554688
 20
347.3079223632813
 30
0.0
 11
-158.9337768554688
 21
349.8679504394531
 31
0.0
  0
LINE
  5
174
330
22
100
AcDbEntity
  8
0
  6
Continuous
 62
     7
100
AcDbLine
 10
-123.9337692260742
 20
397.3986511230469
 30
0.0
 11
-120.601936340332
 21
400.7304992675781
 31
0.0
  0
LINE
  5
175
330
22
100
AcDbEntity
  8
0
  6
Continuous
 62
     7
100
AcDbLine
 10
-123.9337692260742
 20
393.156005859375
 30
0.0
 11
-120.4337692260742
 21
396.656005859375
 31
0.0
  0
LINE
  5
176
330
22
100
AcDbEntity
  8
0
  6
Continuous
 62
     7
100
AcDbLine
 10
-123.9337692260742
 20
388.9133605957031
 30
0.0
 11
-120.4337692260742
 21
392.4133605957031
 31
0.0
  0
LINE
  5
177
330
22
100
AcDbEntity
  8
0
  6
Continuous
 62
     7
100
AcDbLine
 10
-123.7089691162109
 20
384.8955383300781
 30
0.0
 11
-120.4337692260742
 21
388.1707458496094
 31
0.0
  0
LINE
  5
178
330
22
100
AcDbEntity
  8
0
  6
Continuous
 62
     7
100
AcDbLine
 10
-158.9337768554688
 20
349.6707458496094
 30
0.0
 11
-157.736572265625
 21
350.8679504394531
 31
0.0
  0
LINE
  5
179
330
22
100
AcDbEntity
  8
0
  6
Continuous
 62
     7
100
AcDbLine
 10
-123.9337692260742
 20
380.4281005859375
 30
0.0
 11
-120.4337692260742
 21
383.9281005859375
 31
0.0
  0
LINE
  5
17A
330
22
100
AcDbEntity
  8
0
  6
Continuous
 62
     7
100
AcDbLine
 10
-157.0539245605469
 20
347.3079223632813
 30
0.0
 11
-153.4939270019531
 21
350.8679504394531
 31
0.0
  0
LINE
  5
17B
330
22
100
AcDbEntity
  8
0
  6
Continuous
 62
     7
100
AcDbLine
 10
-123.9337692260742
 20
376.1854553222656
 30
0.0
 11
-120.4337692260742
 21
379.6854553222656
 31
0.0
  0
LINE
  5
17C
330
22
100
AcDbEntity
  8
0
  6
Continuous
 62
     7
100
AcDbLine
 10
-152.811279296875
 20
347.3079223632813
 30
0.0
 11
-149.2512817382813
 21
350.8679504394531
 31
0.0
  0
LINE
  5
17D
330
22
100
AcDbEntity
  8
0
  6
Continuous
 62
     7
100
AcDbLine
 10
-123.9337692260742
 20
371.9428100585938
 30
0.0
 11
-120.4337692260742
 21
375.4428100585938
 31
0.0
  0
LINE
  5
17E
330
22
100
AcDbEntity
  8
0
  6
Continuous
 62
     7
100
AcDbLine
 10
-148.5686492919922
 20
347.3079223632813
 30
0.0
 11
-145.0086517333984
 21
350.8679504394531
 31
0.0
  0
LINE
  5
17F
330
22
100
AcDbEntity
  8
0
  6
Continuous
 62
     7
100
AcDbLine
 10
-123.2248916625977
 20
368.4090576171875
 30
0.0
 11
-120.4337692260742
 21
371.2001647949219
 31
0.0
  0
LINE
  5
180
330
22
100
AcDbEntity
  8
0
  6
Continuous
 62
     7
100
AcDbLine
 10
-144.3260040283203
 20
347.3079223632813
 30
0.0
 11
-140.7660064697266
 21
350.8679504394531
 31
0.0
  0
LINE
  5
181
330
22
100
AcDbEntity
  8
0
  6
Continuous
 62
     7
100
AcDbLine
 10
-123.9337692260742
 20
363.45751953125
 30
0.0
 11
-120.4337692260742
 21
366.95751953125
 31
0.0
  0
LINE
  5
182
330
22
100
AcDbEntity
  8
0
  6
Continuous
 62
     7
100
AcDbLine
 10
-140.0833587646484
 20
347.3079223632813
 30
0.0
 11
-136.5233612060547
 21
350.8679504394531
 31
0.0
  0
LINE
  5
183
330
22
100
AcDbEntity
  8
0
  6
Continuous
 62
     7
100
AcDbLine
 10
-123.9337692260742
 20
359.2148742675781
 30
0.0
 11
-120.4337692260742
 21
362.7148742675781
 31
0.0
  0
LINE
  5
184
330
22
100
AcDbEntity
  8
0
  6
Continuous
 62
     7
100
AcDbLine
 10
-135.8407287597656
 20
347.3079223632813
 30
0.0
 11
-132.2807312011719
 21
350.8679504394531
 31
0.0
  0
LINE
  5
185
330
22
100
AcDbEntity
  8
0
  6
Continuous
 62
     7
100
AcDbLine
 10
-124.0369491577148
 20
354.8690795898438
 30
0.0
 11
-120.4337692260742
 21
358.4722595214844
 31
0.0
  0
LINE
  5
186
330
22
100
AcDbEntity
  8
0
  6
Continuous
 62
     7
100
AcDbLine
 10
-131.5980834960938
 20
347.3079223632813
 30
0.0
 11
-127.9349060058594
 21
350.9710998535156
 31
0.0
  0
LINE
  5
187
330
22
100
AcDbEntity
  8
0
  6
Continuous
 62
     7
100
AcDbLine
 10
-127.3554458618164
 20
347.3079223632813
 30
0.0
 11
-120.4337692260742
 21
354.2296142578125
 31
0.0
  0
LINE
  5
188
330
22
100
AcDbEntity
  8
0
  6
Continuous
 62
     7
100
AcDbLine
 10
-123.269287109375
 20
347.1514587402344
 30
0.0
 11
-118.5528030395508
 21
351.8679504394531
 31
0.0
  0
LINE
  5
189
330
22
100
AcDbEntity
  8
0
  6
Continuous
 62
     7
100
AcDbLine
 10
-119.8353576660156
 20
346.3427429199219
 30
0.0
 11
-114.3101577758789
 21
351.8679504394531
 31
0.0
  0
LINE
  5
18A
330
22
100
AcDbEntity
  8
0
  6
Continuous
 62
     7
100
AcDbLine
 10
-115.5854339599609
 20
346.3500366210938
 30
0.0
 11
-110.0675201416016
 21
351.8679504394531
 31
0.0
  0
LINE
  5
18B
330
22
100
AcDbEntity
  8
0
  6
Continuous
 62
     7
100
AcDbLine
 10
-111.205924987793
 20
346.4868774414063
 30
0.0
 11
-105.8248825073242
 21
351.8679504394531
 31
0.0
  0
LINE
  5
18C
330
22
100
AcDbEntity
  8
0
  6
Continuous
 62
     7
100
AcDbLine
 10
-106.826416015625
 20
346.6237487792969
 30
0.0
 11
-101.5822372436523
 21
351.8679504394531
 31
0.0
  0
LINE
  5
18D
330
22
100
AcDbEntity
  8
0
  6
Continuous
 62
     7
100
AcDbLine
 10
-102.4469146728516
 20
346.7606201171875
 30
0.0
 11
-97.339599609375
 21
351.8679504394531
 31
0.0
  0
LINE
  5
18E
330
22
100
AcDbEntity
  8
0
  6
Continuous
 62
     7
100
AcDbLine
 10
-98.0674057006836
 20
346.8974914550781
 30
0.0
 11
-93.09695434570313
 21
351.8679504394531
 31
0.0
  0
LINE
  5
18F
330
22
100
AcDbEntity
  8
0
  6
Continuous
 62
     7
100
AcDbLine
 10
-93.68789672851564
 20
347.0343627929688
 30
0.0
 11
-88.85431671142578
 21
351.8679504394531
 31
0.0
  0
LINE
  5
190
330
22
100
AcDbEntity
  8
0
  6
Continuous
 62
     7
100
AcDbLine
 10
-89.30838775634766
 20
347.1712341308594
 30
0.0
 11
-85.09764862060547
 21
351.3819580078125
 31
0.0
  0
LINE
  5
191
330
22
100
AcDbEntity
  8
0
  6
Continuous
 62
     7
100
AcDbLine
 10
-158.9337768554688
 20
347.3079223632813
 30
0.0
 11
-123.9337692260742
 21
347.3079223632813
 31
0.0
  0
LINE
  5
192
330
22
100
AcDbEntity
  8
0
  6
Continuous
 62
     7
100
AcDbLine
 10
-125.4087677001953
 20
303.3679504394531
 30
0.0
 11
-125.4087677001953
 21
345.8329467773438
 31
0.0
  0
LINE
  5
193
330
22
100
AcDbEntity
  8
0
  6
Continuous
 62
     7
100
AcDbLine
 10
-86.45709991455078
 20
345.7846069335938
 30
0.0
 11
-86.45709991455078
 21
303.3679504394531
 31
0.0
  0
LINE
  5
194
330
22
100
AcDbEntity
  8
0
  6
Continuous
 62
     7
100
AcDbLine
 10
-138.9337768554687
 20
303.3679504394531
 30
0.0
 11
-138.9337768554687
 21
345.8179321289063
 31
0.0
  0
LINE
  5
195
330
22
100
AcDbEntity
  8
0
  6
Continuous
 62
     7
100
AcDbLine
 10
-117.9337692260742
 20
344.8009033203125
 30
0.0
 11
-117.9337692260742
 21
303.3679504394531
 31
0.0
  0
LINE
  5
196
330
22
100
AcDbEntity
  8
0
  6
Continuous
 62
     7
100
AcDbLine
 10
-119.3647689819336
 20
346.2319030761719
 30
0.0
 11
-119.3647689819336
 21
303.3679504394531
 31
0.0
  0
LINE
  5
197
330
22
100
AcDbEntity
  8
0
  6
Continuous
 62
     7
100
AcDbLine
 10
-123.9337692260742
 20
347.3079223632813
 30
0.0
 11
-123.9337692260742
 21
303.3679504394531
 31
0.0
  0
LINE
  5
198
330
22
100
AcDbEntity
  8
0
  6
Continuous
 62
     7
100
AcDbLine
 10
-84.93376922607422
 20
347.3079223632813
 30
0.0
 11
-119.3647689819336
 21
346.2319030761719
 31
0.0
  0
LINE
  5
199
330
22
100
AcDbEntity
  8
0
  6
Continuous
 62
     7
100
AcDbLine
 10
-84.93376922607422
 20
347.3079223632813
 30
0.0
 11
-86.45709991455078
 21
345.7846069335938
 31
0.0
  0
LINE
  5
19A
330
22
100
AcDbEntity
  8
0
  6
Continuous
 62
     7
100
AcDbLine
 10
-125.4087677001953
 20
345.8329467773438
 30
0.0
 11
-123.9337692260742
 21
347.3079223632813
 31
0.0
  0
LINE
  5
19B
330
22
100
AcDbEntity
  8
0
  6
Continuous
 62
     7
100
AcDbLine
 10
-157.4587707519531
 20
345.8329467773438
 30
0.0
 11
-125.4087677001953
 21
345.8329467773438
 31
0.0
  0
LINE
  5
19C
330
22
100
AcDbEntity
  8
0
  6
Continuous
 62
     7
100
AcDbLine
 10
-128.9337768554688
 20
350.8679504394531
 30
0.0
 11
-157.9337768554688
 21
350.8679504394531
 31
0.0
  0
LINE
  5
19D
330
22
100
AcDbEntity
  8
0
  6
Continuous
 62
     7
100
AcDbLine
 10
-188.9337768554688
 20
345.8179321289063
 30
0.0
 11
-191.0337677001953
 21
347.9179382324219
 31
0.0
  0
LINE
  5
19E
330
22
100
AcDbEntity
  8
0
  6
Continuous
 62
     7
100
AcDbLine
 10
-138.9337768554687
 20
345.8179321289063
 30
0.0
 11
-188.9337768554688
 21
345.8179321289063
 31
0.0
  0
LINE
  5
19F
330
22
100
AcDbEntity
  8
0
  6
Continuous
 62
     7
100
AcDbLine
 10
-158.9337768554688
 20
260.9179382324219
 30
0.0
 11
-188.9337768554688
 21
260.9179382324219
 31
0.0
  0
LINE
  5
1A0
330
22
100
AcDbEntity
  8
0
  6
Continuous
 62
     7
100
AcDbLine
 10
-158.9337768554688
 20
259.4279479980469
 30
0.0
 11
-190.4237670898438
 21
259.4279479980469
 31
0.0
  0
LINE
  5
1A1
330
22
100
AcDbEntity
  8
0
  6
Continuous
 62
     7
100
AcDbLine
 10
-219.9337768554688
 20
254.3679351806641
 30
0.0
 11
-218.9337768554688
 21
255.3679351806641
 31
0.0
  0
LINE
  5
1A2
330
22
100
AcDbEntity
  8
0
  6
Continuous
 62
     7
100
AcDbLine
 10
-219.9337768554688
 20
254.3679351806641
 30
0.0
 11
-219.9337768554688
 21
265.7803649902344
 31
0.0
  0
LINE
  5
1A3
330
22
100
AcDbEntity
  8
0
  6
Continuous
 62
     7
100
AcDbLine
 10
-210.4050750732422
 20
260.670166015625
 30
0.0
 11
-208.5528564453125
 21
258.8179321289063
 31
0.0
  0
LINE
  5
1A4
330
22
100
AcDbEntity
  8
0
  6
Continuous
 62
     7
100
AcDbLine
 10
-210.4050750732422
 20
260.670166015625
 30
0.0
 11
-218.9337768554688
 21
260.9366760253906
 31
0.0
  0
LINE
  5
1A5
330
22
100
AcDbEntity
  8
0
  6
Continuous
 62
     7
100
AcDbLine
 10
-208.8662567138672
 20
259.13134765625
 30
0.0
 11
-218.9337768554688
 21
259.4459533691406
 31
0.0
  0
LINE
  5
1A6
330
22
100
AcDbEntity
  8
0
  6
Continuous
 62
     7
100
AcDbLine
 10
-191.0337677001953
 20
258.8179321289063
 30
0.0
 11
-208.5528564453125
 21
258.8179321289063
 31
0.0
  0
LINE
  5
1A7
330
22
100
AcDbEntity
  8
0
  6
Continuous
 62
     7
100
AcDbLine
 10
-123.9337692260742
 20
391.7206115722656
 30
0.0
 11
-123.9337692260742
 21
383.7744750976563
 31
0.0
  0
LINE
  5
1A8
330
22
100
AcDbEntity
  8
0
  6
Continuous
 62
     7
100
AcDbLine
 10
-122.9337692260742
 20
384.1203308105469
 30
0.0
 11
-123.9337692260742
 21
385.1203308105469
 31
0.0
  0
LINE
  5
1A9
330
22
100
AcDbEntity
  8
0
  6
Continuous
 62
     7
100
AcDbLine
 10
-123.9337692260742
 20
355.8679504394531
 30
0.0
 11
-123.9337692260742
 21
398.8679504394531
 31
0.0
  0
LINE
  5
1AA
330
22
100
AcDbEntity
  8
0
  6
Continuous
 62
     7
100
AcDbLine
 10
-122.9337692260742
 20
368.1179504394531
 30
0.0
 11
-123.9337692260742
 21
369.1179504394531
 31
0.0
  0
LINE
  5
1AB
330
22
100
AcDbEntity
  8
0
  6
Continuous
 62
     7
100
AcDbLine
 10
-122.9337692260742
 20
384.1203308105469
 30
0.0
 11
-123.9337692260742
 21
383.1203308105468
 31
0.0
  0
LINE
  5
1AC
330
22
100
AcDbEntity
  8
0
  6
Continuous
 62
     7
100
AcDbLine
 10
-122.9337692260742
 20
368.1179504394531
 30
0.0
 11
-123.9337692260742
 21
367.1179504394531
 31
0.0
  0
LINE
  5
1AD
330
22
100
AcDbEntity
  8
0
  6
Continuous
 62
     7
100
AcDbLine
 10
-117.9337692260742
 20
344.8009033203125
 30
0.0
 11
-86.45709991455078
 21
345.7846069335938
 31
0.0
  0
LINE
  5
1AE
330
22
100
AcDbEntity
  8
0
  6
Continuous
 62
     7
100
AcDbLine
 10
-119.3647689819336
 20
346.2319030761719
 30
0.0
 11
-123.9337692260742
 21
346.2319030761719
 31
0.0
  0
LINE
  5
1AF
330
22
100
AcDbEntity
  8
0
  6
Continuous
 62
     7
100
AcDbLine
 10
-117.9337692260742
 20
344.8009033203125
 30
0.0
 11
-119.3647689819336
 21
346.2319030761719
 31
0.0
  0
LINE
  5
1B0
330
22
100
AcDbEntity
  8
0
  6
Continuous
 62
     7
100
AcDbLine
 10
-128.9337768554688
 20
255.8679351806641
 30
0.0
 11
-157.9337768554688
 21
255.8679351806641
 31
0.0
  0
LINE
  5
1B1
330
22
100
AcDbEntity
  8
0
  6
Continuous
 62
     7
100
AcDbLine
 10
-120.9337692260742
 20
205.8679351806641
 30
0.0
 11
-121.9337692260742
 21
205.8679351806641
 31
0.0
  0
LINE
  5
1B2
330
22
100
AcDbEntity
  8
0
  6
Continuous
 62
     7
100
AcDbLine
 10
-123.9337692260742
 20
207.8679351806641
 30
0.0
 11
-123.9337692260742
 21
250.8679351806641
 31
0.0
  0
LINE
  5
1B3
330
22
100
AcDbEntity
  8
0
  6
Continuous
 62
     7
100
AcDbLine
 10
-119.4337692260742
 20
254.8679351806641
 30
0.0
 11
-85.93376922607422
 21
254.8679351806641
 31
0.0
  0
LINE
  5
1B4
330
22
100
AcDbEntity
  8
0
  6
Continuous
 62
     7
100
AcDbLine
 10
-120.4337692260742
 20
237.8679351806641
 30
0.0
 11
-118.9571838378906
 21
237.8679351806641
 31
0.0
  0
LINE
  5
1B5
330
22
100
AcDbEntity
  8
0
  6
Continuous
 62
     7
100
AcDbLine
 10
-100.4337692260742
 20
254.8679351806641
 30
0.0
 11
-100.4337692260742
 21
252.8679351806641
 31
0.0
  0
LINE
  5
1B6
330
22
100
AcDbEntity
  8
0
  6
Continuous
 62
     7
100
AcDbLine
 10
-102.4337692260742
 20
250.8679351806641
 30
0.0
 11
-103.4337692260742
 21
250.8679351806641
 31
0.0
  0
LINE
  5
1B7
330
22
100
AcDbEntity
  8
0
  6
Continuous
 62
     7
100
AcDbLine
 10
-188.9337768554688
 20
260.9179382324219
 30
0.0
 11
-191.0337677001953
 21
258.8179321289063
 31
0.0
  0
LINE
  5
1B8
330
22
100
AcDbEntity
  8
0
  6
Continuous
 62
     7
100
AcDbLine
 10
-250.6635131835938
 20
343.8679504394531
 30
0.0
 11
-246.9337768554688
 21
343.8679504394531
 31
0.0
  0
LINE
  5
1B9
330
22
100
AcDbEntity
  8
0
  6
Continuous
 62
     7
100
AcDbLine
 10
-265.2575378417969
 20
386.3679504394531
 30
0.0
 11
-275.9337768554688
 21
386.3679504394531
 31
0.0
  0
LINE
  5
1BA
330
22
100
AcDbEntity
  8
0
  6
Continuous
 62
     7
100
AcDbLine
 10
-245.9337768554688
 20
303.3679504394531
 30
0.0
 11
-245.9337768554688
 21
344.7674560546875
 31
0.0
  0
LINE
  5
1BB
330
22
100
AcDbEntity
  8
0
  6
Continuous
 62
     7
100
AcDbLine
 10
-251.2154388427734
 20
303.3679504394531
 30
0.0
 11
-251.2154388427734
 21
344.0340576171875
 31
0.0
  0
LINE
  5
1BC
330
22
100
AcDbEntity
  8
0
  6
Continuous
 62
     7
100
AcDbLine
 10
-276.9337768554688
 20
306.5891723632813
 30
0.0
 11
-276.9337768554688
 21
365.289794921875
 31
0.0
  0
LINE
  5
1BD
330
22
100
AcDbEntity
  8
0
  6
Continuous
 62
     7
100
AcDbLine
 10
-275.9624938964844
 20
381.3679504394531
 30
0.0
 11
-274.9337768554688
 21
380.3392028808594
 31
0.0
  0
LINE
  5
1BE
330
22
100
AcDbEntity
  8
0
  6
Continuous
 62
     7
100
AcDbLine
 10
-278.7909240722656
 20
381.3679504394531
 30
0.0
 11
-274.9337768554688
 21
377.5107727050781
 31
0.0
  0
LINE
  5
1BF
330
22
100
AcDbEntity
  8
0
  6
Continuous
 62
     7
100
AcDbLine
 10
-279.9337768554688
 20
379.682373046875
 30
0.0
 11
-276.9337768554688
 21
376.682373046875
 31
0.0
  0
LINE
  5
1C0
330
22
100
AcDbEntity
  8
0
  6
Continuous
 62
     7
100
AcDbLine
 10
-279.9337768554688
 20
376.8539428710938
 30
0.0
 11
-276.9337768554688
 21
373.8539428710938
 31
0.0
  0
LINE
  5
1C1
330
22
100
AcDbEntity
  8
0
  6
Continuous
 62
     7
100
AcDbLine
 10
-279.9337768554688
 20
374.0255126953125
 30
0.0
 11
-276.9337768554688
 21
371.0255126953125
 31
0.0
  0
LINE
  5
1C2
330
22
100
AcDbEntity
  8
0
  6
Continuous
 62
     7
100
AcDbLine
 10
-278.4600219726563
 20
364.0664672851563
 30
0.0
 11
-276.9337768554688
 21
362.5402221679688
 31
0.0
  0
LINE
  5
1C3
330
22
100
AcDbEntity
  8
0
  6
Continuous
 62
     7
100
AcDbLine
 10
-279.9310302734375
 20
362.7090454101563
 30
0.0
 11
-276.9337768554688
 21
359.7117919921875
 31
0.0
  0
LINE
  5
1C4
330
22
100
AcDbEntity
  8
0
  6
Continuous
 62
     7
100
AcDbLine
 10
-279.9337768554688
 20
359.8833618164063
 30
0.0
 11
-276.9337768554688
 21
356.8833618164063
 31
0.0
  0
LINE
  5
1C5
330
22
100
AcDbEntity
  8
0
  6
Continuous
 62
     7
100
AcDbLine
 10
-279.9337768554688
 20
357.054931640625
 30
0.0
 11
-276.9337768554688
 21
354.054931640625
 31
0.0
  0
LINE
  5
1C6
330
22
100
AcDbEntity
  8
0
  6
Continuous
 62
     7
100
AcDbLine
 10
-279.9337768554688
 20
354.2265014648438
 30
0.0
 11
-276.9337768554688
 21
351.2265014648438
 31
0.0
  0
LINE
  5
1C7
330
22
100
AcDbEntity
  8
0
  6
Continuous
 62
     7
100
AcDbLine
 10
-279.9337768554688
 20
351.3981018066406
 30
0.0
 11
-276.9337768554688
 21
348.3981018066406
 31
0.0
  0
LINE
  5
1C8
330
22
100
AcDbEntity
  8
0
  6
Continuous
 62
     7
100
AcDbLine
 10
-279.9337768554688
 20
348.5696716308594
 30
0.0
 11
-276.9337768554688
 21
345.5696716308594
 31
0.0
  0
LINE
  5
1C9
330
22
100
AcDbEntity
  8
0
  6
Continuous
 62
     7
100
AcDbLine
 10
-279.9337768554688
 20
345.7412414550781
 30
0.0
 11
-276.9337768554688
 21
342.7412414550781
 31
0.0
  0
LINE
  5
1CA
330
22
100
AcDbEntity
  8
0
  6
Continuous
 62
     7
100
AcDbLine
 10
-279.9337768554688
 20
342.9128112792969
 30
0.0
 11
-276.9337768554688
 21
339.9128112792969
 31
0.0
  0
LINE
  5
1CB
330
22
100
AcDbEntity
  8
0
  6
Continuous
 62
     7
100
AcDbLine
 10
-279.9337768554688
 20
340.0843811035156
 30
0.0
 11
-276.9337768554688
 21
337.0843811035156
 31
0.0
  0
LINE
  5
1CC
330
22
100
AcDbEntity
  8
0
  6
Continuous
 62
     7
100
AcDbLine
 10
-279.9337768554688
 20
337.2559509277344
 30
0.0
 11
-276.9337768554688
 21
334.2559509277344
 31
0.0
  0
LINE
  5
1CD
330
22
100
AcDbEntity
  8
0
  6
Continuous
 62
     7
100
AcDbLine
 10
-279.9337768554688
 20
334.4275207519531
 30
0.0
 11
-276.9337768554688
 21
331.4275207519531
 31
0.0
  0
LINE
  5
1CE
330
22
100
AcDbEntity
  8
0
  6
Continuous
 62
     7
100
AcDbLine
 10
-279.9337768554688
 20
331.5990905761719
 30
0.0
 11
-276.9337768554688
 21
328.5990905761719
 31
0.0
  0
LINE
  5
1CF
330
22
100
AcDbEntity
  8
0
  6
Continuous
 62
     7
100
AcDbLine
 10
-279.9337768554688
 20
328.7706604003906
 30
0.0
 11
-276.9337768554688
 21
325.7706604003906
 31
0.0
  0
LINE
  5
1D0
330
22
100
AcDbEntity
  8
0
  6
Continuous
 62
     7
100
AcDbLine
 10
-279.9337768554688
 20
325.9422302246094
 30
0.0
 11
-276.9337768554688
 21
322.9422302246094
 31
0.0
  0
LINE
  5
1D1
330
22
100
AcDbEntity
  8
0
  6
Continuous
 62
     7
100
AcDbLine
 10
-279.9337768554688
 20
323.1138305664063
 30
0.0
 11
-276.9337768554688
 21
320.1138305664063
 31
0.0
  0
LINE
  5
1D2
330
22
100
AcDbEntity
  8
0
  6
Continuous
 62
     7
100
AcDbLine
 10
-279.9337768554688
 20
320.285400390625
 30
0.0
 11
-276.9337768554688
 21
317.285400390625
 31
0.0
  0
LINE
  5
1D3
330
22
100
AcDbEntity
  8
0
  6
Continuous
 62
     7
100
AcDbLine
 10
-279.9337768554688
 20
317.4569702148438
 30
0.0
 11
-276.9337768554688
 21
314.4569702148438
 31
0.0
  0
LINE
  5
1D4
330
22
100
AcDbEntity
  8
0
  6
Continuous
 62
     7
100
AcDbLine
 10
-279.9337768554688
 20
314.6285400390625
 30
0.0
 11
-276.9337768554688
 21
311.6285400390625
 31
0.0
  0
LINE
  5
1D5
330
22
100
AcDbEntity
  8
0
  6
Continuous
 62
     7
100
AcDbLine
 10
-279.9337768554688
 20
311.8001098632813
 30
0.0
 11
-276.9337768554688
 21
308.8001098632813
 31
0.0
  0
LINE
  5
1D6
330
22
100
AcDbEntity
  8
0
  6
Continuous
 62
     7
100
AcDbLine
 10
-273.9337768554688
 20
306.5891723632813
 30
0.0
 11
-273.9337768554688
 21
365.289794921875
 31
0.0
  0
LINE
  5
1D7
330
22
100
AcDbEntity
  8
0
  6
Continuous
 62
     7
100
AcDbLine
 10
-276.9337768554688
 20
373.8369445800781
 30
0.0
 11
-274.4027709960938
 21
376.3679504394531
 31
0.0
  0
LINE
  5
1D8
330
22
100
AcDbEntity
  8
0
  6
Continuous
 62
     7
100
AcDbLine
 10
-276.9337768554688
 20
371.0085144042969
 30
0.0
 11
-273.9337768554688
 21
374.0085144042969
 31
0.0
  0
LINE
  5
1D9
330
22
100
AcDbEntity
  8
0
  6
Continuous
 62
     7
100
AcDbLine
 10
-274.3240966796875
 20
370.789794921875
 30
0.0
 11
-273.9337768554688
 21
371.1800842285156
 31
0.0
  0
LINE
  5
1DA
330
22
100
AcDbEntity
  8
0
  6
Continuous
 62
     7
100
AcDbLine
 10
-276.9337768554688
 20
362.5232543945313
 30
0.0
 11
-274.167236328125
 21
365.289794921875
 31
0.0
  0
LINE
  5
1DB
330
22
100
AcDbEntity
  8
0
  6
Continuous
 62
     7
100
AcDbLine
 10
-276.9337768554688
 20
359.69482421875
 30
0.0
 11
-273.9337768554688
 21
362.69482421875
 31
0.0
  0
LINE
  5
1DC
330
22
100
AcDbEntity
  8
0
  6
Continuous
 62
     7
100
AcDbLine
 10
-276.9337768554688
 20
356.8663940429688
 30
0.0
 11
-273.9337768554688
 21
359.8663940429688
 31
0.0
  0
LINE
  5
1DD
330
22
100
AcDbEntity
  8
0
  6
Continuous
 62
     7
100
AcDbLine
 10
-276.9337768554688
 20
354.0379638671875
 30
0.0
 11
-273.9337768554688
 21
357.0379638671875
 31
0.0
  0
LINE
  5
1DE
330
22
100
AcDbEntity
  8
0
  6
Continuous
 62
     7
100
AcDbLine
 10
-276.9337768554688
 20
351.2095336914063
 30
0.0
 11
-273.9337768554688
 21
354.2095336914063
 31
0.0
  0
LINE
  5
1DF
330
22
100
AcDbEntity
  8
0
  6
Continuous
 62
     7
100
AcDbLine
 10
-276.9337768554688
 20
348.381103515625
 30
0.0
 11
-273.9337768554688
 21
351.381103515625
 31
0.0
  0
LINE
  5
1E0
330
22
100
AcDbEntity
  8
0
  6
Continuous
 62
     7
100
AcDbLine
 10
-276.9337768554688
 20
345.5526733398438
 30
0.0
 11
-273.9337768554688
 21
348.5526733398438
 31
0.0
  0
LINE
  5
1E1
330
22
100
AcDbEntity
  8
0
  6
Continuous
 62
     7
100
AcDbLine
 10
-276.9337768554688
 20
342.7242431640625
 30
0.0
 11
-273.9337768554688
 21
345.7242431640625
 31
0.0
  0
LINE
  5
1E2
330
22
100
AcDbEntity
  8
0
  6
Continuous
 62
     7
100
AcDbLine
 10
-276.9337768554688
 20
339.8958129882813
 30
0.0
 11
-273.9337768554688
 21
342.8958129882813
 31
0.0
  0
LINE
  5
1E3
330
22
100
AcDbEntity
  8
0
  6
Continuous
 62
     7
100
AcDbLine
 10
-276.9337768554688
 20
337.0673828125
 30
0.0
 11
-273.9337768554688
 21
340.0673828125
 31
0.0
  0
LINE
  5
1E4
330
22
100
AcDbEntity
  8
0
  6
Continuous
 62
     7
100
AcDbLine
 10
-276.9337768554688
 20
334.2389831542969
 30
0.0
 11
-273.9337768554688
 21
337.2389831542969
 31
0.0
  0
LINE
  5
1E5
330
22
100
AcDbEntity
  8
0
  6
Continuous
 62
     7
100
AcDbLine
 10
-276.9337768554688
 20
331.4105529785156
 30
0.0
 11
-273.9337768554688
 21
334.4105529785156
 31
0.0
  0
LINE
  5
1E6
330
22
100
AcDbEntity
  8
0
  6
Continuous
 62
     7
100
AcDbLine
 10
-276.9337768554688
 20
328.5821228027344
 30
0.0
 11
-273.9337768554688
 21
331.5821228027344
 31
0.0
  0
LINE
  5
1E7
330
22
100
AcDbEntity
  8
0
  6
Continuous
 62
     7
100
AcDbLine
 10
-276.9337768554688
 20
325.7536926269531
 30
0.0
 11
-273.9337768554688
 21
328.7536926269531
 31
0.0
  0
LINE
  5
1E8
330
22
100
AcDbEntity
  8
0
  6
Continuous
 62
     7
100
AcDbLine
 10
-276.9337768554688
 20
322.9252624511719
 30
0.0
 11
-273.9337768554688
 21
325.9252624511719
 31
0.0
  0
LINE
  5
1E9
330
22
100
AcDbEntity
  8
0
  6
Continuous
 62
     7
100
AcDbLine
 10
-276.9337768554688
 20
320.0968322753906
 30
0.0
 11
-273.9337768554688
 21
323.0968322753906
 31
0.0
  0
LINE
  5
1EA
330
22
100
AcDbEntity
  8
0
  6
Continuous
 62
     7
100
AcDbLine
 10
-276.9337768554688
 20
317.2684020996094
 30
0.0
 11
-273.9337768554688
 21
320.2684020996094
 31
0.0
  0
LINE
  5
1EB
330
22
100
AcDbEntity
  8
0
  6
Continuous
 62
     7
100
AcDbLine
 10
-276.9337768554688
 20
314.4399719238281
 30
0.0
 11
-273.9337768554688
 21
317.4399719238281
 31
0.0
  0
LINE
  5
1EC
330
22
100
AcDbEntity
  8
0
  6
Continuous
 62
     7
100
AcDbLine
 10
-276.9337768554688
 20
311.6115417480469
 30
0.0
 11
-273.9337768554688
 21
314.6115417480469
 31
0.0
  0
LINE
  5
1ED
330
22
100
AcDbEntity
  8
0
  6
Continuous
 62
     7
100
AcDbLine
 10
-276.9337768554688
 20
308.7831115722656
 30
0.0
 11
-273.9337768554688
 21
311.7831115722656
 31
0.0
  0
LINE
  5
1EE
330
22
100
AcDbEntity
  8
0
  6
Continuous
 62
     7
100
AcDbLine
 10
-276.29931640625
 20
306.5891723632813
 30
0.0
 11
-273.9337768554688
 21
308.9547119140625
 31
0.0
  0
LINE
  5
1EF
330
22
100
AcDbEntity
  8
0
  6
Continuous
 62
     7
100
AcDbLine
 10
-274.3460083007813
 20
306.5891723632813
 30
0.0
 11
-276.9337768554688
 21
309.1769409179688
 31
0.0
  0
LINE
  5
1F0
330
22
100
AcDbEntity
  8
0
  6
Continuous
 62
     7
100
AcDbLine
 10
-273.9337768554688
 20
309.00537109375
 30
0.0
 11
-276.9337768554688
 21
312.00537109375
 31
0.0
  0
LINE
  5
1F1
330
22
100
AcDbEntity
  8
0
  6
Continuous
 62
     7
100
AcDbLine
 10
-273.9337768554688
 20
311.8338012695313
 30
0.0
 11
-276.9337768554688
 21
314.8338012695313
 31
0.0
  0
LINE
  5
1F2
330
22
100
AcDbEntity
  8
0
  6
Continuous
 62
     7
100
AcDbLine
 10
-273.9337768554688
 20
314.6622314453125
 30
0.0
 11
-276.9337768554688
 21
317.6622314453125
 31
0.0
  0
LINE
  5
1F3
330
22
100
AcDbEntity
  8
0
  6
Continuous
 62
     7
100
AcDbLine
 10
-273.9337768554688
 20
317.4906311035156
 30
0.0
 11
-276.9337768554688
 21
320.4906311035156
 31
0.0
  0
LINE
  5
1F4
330
22
100
AcDbEntity
  8
0
  6
Continuous
 62
     7
100
AcDbLine
 10
-273.9337768554688
 20
320.3190612792969
 30
0.0
 11
-276.9337768554688
 21
323.3190612792969
 31
0.0
  0
LINE
  5
1F5
330
22
100
AcDbEntity
  8
0
  6
Continuous
 62
     7
100
AcDbLine
 10
-273.9337768554688
 20
323.1474914550781
 30
0.0
 11
-276.9337768554688
 21
326.1474914550781
 31
0.0
  0
LINE
  5
1F6
330
22
100
AcDbEntity
  8
0
  6
Continuous
 62
     7
100
AcDbLine
 10
-273.9337768554688
 20
325.9759216308594
 30
0.0
 11
-276.9337768554688
 21
328.9759216308594
 31
0.0
  0
LINE
  5
1F7
330
22
100
AcDbEntity
  8
0
  6
Continuous
 62
     7
100
AcDbLine
 10
-273.9337768554688
 20
328.8043518066406
 30
0.0
 11
-276.9337768554688
 21
331.8043518066406
 31
0.0
  0
LINE
  5
1F8
330
22
100
AcDbEntity
  8
0
  6
Continuous
 62
     7
100
AcDbLine
 10
-273.9337768554688
 20
331.6327819824219
 30
0.0
 11
-276.9337768554688
 21
334.6327819824219
 31
0.0
  0
LINE
  5
1F9
330
22
100
AcDbEntity
  8
0
  6
Continuous
 62
     7
100
AcDbLine
 10
-273.9337768554688
 20
334.4612121582031
 30
0.0
 11
-276.9337768554688
 21
337.4612121582031
 31
0.0
  0
LINE
  5
1FA
330
22
100
AcDbEntity
  8
0
  6
Continuous
 62
     7
100
AcDbLine
 10
-273.9337768554688
 20
337.2896423339844
 30
0.0
 11
-276.9337768554688
 21
340.2896423339844
 31
0.0
  0
LINE
  5
1FB
330
22
100
AcDbEntity
  8
0
  6
Continuous
 62
     7
100
AcDbLine
 10
-273.9337768554688
 20
340.1180725097656
 30
0.0
 11
-276.9337768554688
 21
343.1180725097656
 31
0.0
  0
LINE
  5
1FC
330
22
100
AcDbEntity
  8
0
  6
Continuous
 62
     7
100
AcDbLine
 10
-273.9337768554688
 20
342.9465026855469
 30
0.0
 11
-276.9337768554688
 21
345.9465026855469
 31
0.0
  0
LINE
  5
1FD
330
22
100
AcDbEntity
  8
0
  6
Continuous
 62
     7
100
AcDbLine
 10
-273.9337768554688
 20
345.77490234375
 30
0.0
 11
-276.9337768554688
 21
348.77490234375
 31
0.0
  0
LINE
  5
1FE
330
22
100
AcDbEntity
  8
0
  6
Continuous
 62
     7
100
AcDbLine
 10
-273.9337768554688
 20
348.6033325195313
 30
0.0
 11
-276.9337768554688
 21
351.6033325195313
 31
0.0
  0
LINE
  5
1FF
330
22
100
AcDbEntity
  8
0
  6
Continuous
 62
     7
100
AcDbLine
 10
-273.9337768554688
 20
351.4317626953125
 30
0.0
 11
-276.9337768554688
 21
354.4317626953125
 31
0.0
  0
LINE
  5
200
330
22
100
AcDbEntity
  8
0
  6
Continuous
 62
     7
100
AcDbLine
 10
-273.9337768554688
 20
354.2601928710938
 30
0.0
 11
-276.9337768554688
 21
357.2601928710938
 31
0.0
  0
LINE
  5
201
330
22
100
AcDbEntity
  8
0
  6
Continuous
 62
     7
100
AcDbLine
 10
-273.9337768554688
 20
357.088623046875
 30
0.0
 11
-276.9337768554688
 21
360.088623046875
 31
0.0
  0
LINE
  5
202
330
22
100
AcDbEntity
  8
0
  6
Continuous
 62
     7
100
AcDbLine
 10
-273.9337768554688
 20
359.9170532226563
 30
0.0
 11
-276.9337768554688
 21
362.9170532226563
 31
0.0
  0
LINE
  5
203
330
22
100
AcDbEntity
  8
0
  6
Continuous
 62
     7
100
AcDbLine
 10
-273.9337768554688
 20
362.7454833984375
 30
0.0
 11
-276.4780883789063
 21
365.289794921875
 31
0.0
  0
LINE
  5
204
330
22
100
AcDbEntity
  8
0
  6
Continuous
 62
     7
100
AcDbLine
 10
-276.3212280273438
 20
370.789794921875
 30
0.0
 11
-276.9337768554688
 21
371.40234375
 31
0.0
  0
LINE
  5
205
330
22
100
AcDbEntity
  8
0
  6
Continuous
 62
     7
100
AcDbLine
 10
-273.9337768554688
 20
371.2307739257813
 30
0.0
 11
-276.9337768554688
 21
374.2307739257813
 31
0.0
  0
LINE
  5
206
330
22
100
AcDbEntity
  8
0
  6
Continuous
 62
     7
100
AcDbLine
 10
-273.9337768554688
 20
374.0591735839844
 30
0.0
 11
-276.2425231933594
 21
376.3679504394531
 31
0.0
  0
LINE
  5
207
330
22
100
AcDbEntity
  8
0
  6
Continuous
 62
     7
100
AcDbLine
 10
-277.5088195800781
 20
306.5891723632813
 30
0.0
 11
-279.9337768554688
 21
308.9762573242188
 31
0.0
  0
LINE
  5
208
330
22
100
AcDbEntity
  8
0
  6
Continuous
 62
     7
100
AcDbLine
 10
-277.5088195800781
 20
306.5891723632813
 30
0.0
 11
-271.0237426757813
 21
306.5891723632813
 31
0.0
  0
LINE
  5
209
330
22
100
AcDbEntity
  8
0
  6
Continuous
 62
     7
100
AcDbLine
 10
-277.5088195800781
 20
306.5891723632813
 30
0.0
 11
-276.4180297851563
 21
305.5154113769531
 31
0.0
  0
LINE
  5
20A
330
22
100
AcDbEntity
  8
0
  6
Continuous
 62
     7
100
AcDbLine
 10
-269.9329528808594
 20
305.5154113769531
 30
0.0
 11
-269.9329528808594
 21
303.3679504394531
 31
0.0
  0
LINE
  5
20B
330
22
100
AcDbEntity
  8
0
  6
Continuous
 62
     7
100
AcDbLine
 10
-271.0237426757813
 20
306.5891723632813
 30
0.0
 11
-269.9329528808594
 21
305.5154113769531
 31
0.0
  0
LINE
  5
20C
330
22
100
AcDbEntity
  8
0
  6
Continuous
 62
     7
100
AcDbLine
 10
-276.4180297851563
 20
305.5154113769531
 30
0.0
 11
-269.9329528808594
 21
305.5154113769531
 31
0.0
  0
LINE
  5
20D
330
22
100
AcDbEntity
  8
0
  6
Continuous
 62
     7
100
AcDbLine
 10
-274.9337768554688
 20
377.3679504394531
 30
0.0
 11
-268.854736328125
 21
377.3679504394531
 31
0.0
  0
LINE
  5
20E
330
22
100
AcDbEntity
  8
0
  6
Continuous
 62
     7
100
AcDbLine
 10
-269.660888671875
 20
369.7160339355469
 30
0.0
 11
-269.660888671875
 21
366.363525390625
 31
0.0
  0
LINE
  5
20F
330
22
100
AcDbEntity
  8
0
  6
Continuous
 62
     7
100
AcDbLine
 10
-276.1459350585938
 20
366.363525390625
 30
0.0
 11
-269.660888671875
 21
366.363525390625
 31
0.0
  0
LINE
  5
210
330
22
100
AcDbEntity
  8
0
  6
Continuous
 62
     7
100
AcDbLine
 10
-276.1459350585938
 20
369.7160339355469
 30
0.0
 11
-269.660888671875
 21
369.7160339355469
 31
0.0
  0
LINE
  5
211
330
22
100
AcDbEntity
  8
0
  6
Continuous
 62
     7
100
AcDbLine
 10
-279.9337768554688
 20
373.289794921875
 30
0.0
 11
-279.9337768554688
 21
393.8679504394531
 31
0.0
  0
LINE
  5
212
330
22
100
AcDbEntity
  8
0
  6
Continuous
 62
     7
100
AcDbLine
 10
-279.9337768554688
 20
381.3679504394531
 30
0.0
 11
-274.9337768554688
 21
381.3679504394531
 31
0.0
  0
LINE
  5
213
330
22
100
AcDbEntity
  8
0
  6
Continuous
 62
     7
100
AcDbLine
 10
-276.9337768554688
 20
382.3679504394531
 30
0.0
 11
-279.9337768554688
 21
382.3679504394531
 31
0.0
  0
LINE
  5
214
330
22
100
AcDbEntity
  8
0
  6
Continuous
 62
     7
100
AcDbLine
 10
-279.9337768554688
 20
382.3679504394531
 30
0.0
 11
-278.9337768554688
 21
381.3679504394531
 31
0.0
  0
LINE
  5
215
330
22
100
AcDbEntity
  8
0
  6
Continuous
 62
     7
100
AcDbLine
 10
-280.1308288574219
 20
362.789794921875
 30
0.0
 11
-279.7367248535156
 21
362.789794921875
 31
0.0
  0
LINE
  5
216
330
22
100
AcDbEntity
  8
0
  6
Continuous
 62
     7
100
AcDbLine
 10
-280.1308288574219
 20
373.289794921875
 30
0.0
 11
-279.7367248535156
 21
373.289794921875
 31
0.0
  0
LINE
  5
217
330
22
100
AcDbEntity
  8
0
  6
Continuous
 62
     7
100
AcDbLine
 10
-279.7367248535156
 20
373.289794921875
 30
0.0
 11
-277.2367248535156
 21
370.789794921875
 31
0.0
  0
LINE
  5
218
330
22
100
AcDbEntity
  8
0
  6
Continuous
 62
     7
100
AcDbLine
 10
-279.7367248535156
 20
362.789794921875
 30
0.0
 11
-277.2367248535156
 21
365.289794921875
 31
0.0
  0
LINE
  5
219
330
22
100
AcDbEntity
  8
0
  6
Continuous
 62
     7
100
AcDbLine
 10
-279.9337768554688
 20
393.8679504394531
 30
0.0
 11
-275.9337768554688
 21
393.8679504394531
 31
0.0
  0
LINE
  5
21A
330
22
100
AcDbEntity
  8
0
  6
Continuous
 62
     7
100
AcDbLine
 10
-279.9337768554688
 20
381.3679504394531
 30
0.0
 11
-278.9337768554688
 21
382.3679504394531
 31
0.0
  0
LINE
  5
21B
330
22
100
AcDbEntity
  8
0
  6
Continuous
 62
     7
100
AcDbLine
 10
-276.9337768554688
 20
370.789794921875
 30
0.0
 11
-276.9337768554688
 21
377.3679504394531
 31
0.0
  0
LINE
  5
21C
330
22
100
AcDbEntity
  8
0
  6
Continuous
 62
     7
100
AcDbLine
 10
-273.9337768554688
 20
376.3679504394531
 30
0.0
 11
-276.9337768554688
 21
376.3679504394531
 31
0.0
  0
LINE
  5
21D
330
22
100
AcDbEntity
  8
0
  6
Continuous
 62
     7
100
AcDbLine
 10
-274.9337768554688
 20
377.3679504394531
 30
0.0
 11
-274.9337768554688
 21
382.3679504394531
 31
0.0
  0
LINE
  5
21E
330
22
100
AcDbEntity
  8
0
  6
Continuous
 62
     7
100
AcDbLine
 10
-264.252197265625
 20
374.3215942382813
 30
0.0
 11
-251.5840148925781
 21
344.4772033691406
 31
0.0
  0
LINE
  5
21F
330
22
100
AcDbEntity
  8
0
  6
Continuous
 62
     7
100
AcDbLine
 10
-245.9337768554688
 20
344.8679504394531
 30
0.0
 11
-245.9337768554688
 21
347.3679504394531
 31
0.0
  0
LINE
  5
220
330
22
100
AcDbEntity
  8
0
  6
Continuous
 62
     7
100
AcDbLine
 10
-263.4165344238281
 20
385.1494140625
 30
0.0
 11
-250.7947235107422
 21
355.4142761230469
 31
0.0
  0
LINE
  5
221
330
22
100
AcDbEntity
  8
0
  6
Continuous
 62
     7
100
AcDbLine
 10
-274.9337768554688
 20
377.3679504394531
 30
0.0
 11
-274.9337768554688
 21
376.3679504394531
 31
0.0
  0
LINE
  5
222
330
22
100
AcDbEntity
  8
0
  6
Continuous
 62
     7
100
AcDbLine
 10
-277.2367248535156
 20
365.289794921875
 30
0.0
 11
-270.7516479492188
 21
365.289794921875
 31
0.0
  0
LINE
  5
223
330
22
100
AcDbEntity
  8
0
  6
Continuous
 62
     7
100
AcDbLine
 10
-277.2367248535156
 20
370.789794921875
 30
0.0
 11
-276.1459350585938
 21
369.7160339355469
 31
0.0
  0
LINE
  5
224
330
22
100
AcDbEntity
  8
0
  6
Continuous
 62
     7
100
AcDbLine
 10
-277.2367248535156
 20
365.289794921875
 30
0.0
 11
-276.1459350585938
 21
366.363525390625
 31
0.0
  0
LINE
  5
225
330
22
100
AcDbEntity
  8
0
  6
Continuous
 62
     7
100
AcDbLine
 10
-273.9337768554688
 20
370.789794921875
 30
0.0
 11
-273.9337768554688
 21
376.3679504394531
 31
0.0
  0
LINE
  5
226
330
22
100
AcDbEntity
  8
0
  6
Continuous
 62
     7
100
AcDbLine
 10
-275.9337768554688
 20
386.3679504394531
 30
0.0
 11
-275.9337768554688
 21
393.8679504394531
 31
0.0
  0
LINE
  5
227
330
22
100
AcDbEntity
  8
0
  6
Continuous
 62
     7
100
AcDbLine
 10
-274.9337768554688
 20
377.3679504394531
 30
0.0
 11
-276.9337768554688
 21
377.3679504394531
 31
0.0
  0
LINE
  5
228
330
22
100
AcDbEntity
  8
0
  6
Continuous
 62
     7
100
AcDbLine
 10
-274.9337768554688
 20
382.3679504394531
 30
0.0
 11
-276.9337768554688
 21
382.3679504394531
 31
0.0
  0
LINE
  5
229
330
22
100
AcDbEntity
  8
0
  6
Continuous
 62
     7
100
AcDbLine
 10
-277.2367248535156
 20
370.789794921875
 30
0.0
 11
-270.7516479492188
 21
370.789794921875
 31
0.0
  0
LINE
  5
22A
330
22
100
AcDbEntity
  8
0
  6
Continuous
 62
     7
100
AcDbLine
 10
-276.9337768554688
 20
382.3679504394531
 30
0.0
 11
-277.9337768554688
 21
381.3679504394531
 31
0.0
  0
LINE
  5
22B
330
22
100
AcDbEntity
  8
0
  6
Continuous
 62
     7
100
AcDbLine
 10
-276.9337768554688
 20
381.3679504394531
 30
0.0
 11
-277.9337768554688
 21
382.3679504394531
 31
0.0
  0
LINE
  5
22C
330
22
100
AcDbEntity
  8
0
  6
Continuous
 62
     7
100
AcDbLine
 10
-270.7516479492188
 20
370.789794921875
 30
0.0
 11
-269.660888671875
 21
369.7160339355469
 31
0.0
  0
LINE
  5
22D
330
22
100
AcDbEntity
  8
0
  6
Continuous
 62
     7
100
AcDbLine
 10
-270.7516479492188
 20
365.289794921875
 30
0.0
 11
-269.660888671875
 21
366.363525390625
 31
0.0
  0
LINE
  5
22E
330
22
100
AcDbEntity
  8
0
  6
Continuous
 62
     7
100
AcDbLine
 10
-188.9337768554688
 20
260.9179382324219
 30
0.0
 11
-188.9337768554688
 21
303.3679504394531
 31
0.0
  0
LINE
  5
22F
330
22
100
AcDbEntity
  8
0
  6
Continuous
 62
     7
100
AcDbLine
 10
-158.9337768554688
 20
256.867950439453
 30
0.0
 11
-158.9337768554688
 21
303.3679504394531
 31
0.0
  0
LINE
  5
230
330
22
100
AcDbEntity
  8
0
  6
Continuous
 62
     7
100
AcDbLine
 10
-84.93376922607422
 20
255.8679351806641
 30
0.0
 11
-84.93376922607422
 21
350.8679504394531
 31
0.0
  0
LINE
  5
231
330
22
100
AcDbEntity
  8
0
  6
Continuous
 62
     7
100
AcDbLine
 10
-123.9337692260742
 20
250.8679351806641
 30
0.0
 11
-123.9337692260742
 21
303.3679504394531
 31
0.0
  0
LINE
  5
232
330
22
100
AcDbEntity
  8
0
  6
Continuous
 62
     7
100
AcDbLine
 10
-120.4337692260742
 20
206.3679351806641
 30
0.0
 11
-120.4337692260742
 21
303.3679504394531
 31
0.0
  0
LINE
  5
233
330
22
100
AcDbEntity
  8
0
  6
Continuous
 62
     7
100
AcDbLine
 10
-218.9337768554688
 20
255.3679351806641
 30
0.0
 11
-218.9337768554688
 21
303.3679504394531
 31
0.0
  0
LINE
  5
234
330
22
100
AcDbEntity
  8
0
  6
Continuous
 62
     7
100
AcDbLine
 10
-210.4050750732422
 20
260.670166015625
 30
0.0
 11
-210.4050750732422
 21
303.3679504394531
 31
0.0
  0
LINE
  5
235
330
22
100
AcDbEntity
  8
0
  6
Continuous
 62
     7
100
AcDbLine
 10
-219.9337768554688
 20
268.7803649902344
 30
0.0
 11
-219.9337768554688
 21
303.3679504394531
 31
0.0
  0
LINE
  5
236
330
22
100
AcDbEntity
  8
0
  6
Continuous
 62
     7
100
AcDbLine
 10
-263.4165344238281
 20
221.5864715576172
 30
0.0
 11
-250.7947235107422
 21
251.3215942382813
 31
0.0
  0
LINE
  5
237
330
22
100
AcDbEntity
  8
0
  6
Continuous
 62
     7
100
AcDbLine
 10
-248.9906005859375
 20
265.7803649902344
 30
0.0
 11
-248.9906005859375
 21
255.4239959716797
 31
0.0
  0
LINE
  5
238
330
22
100
AcDbEntity
  8
0
  6
Continuous
 62
     7
100
AcDbLine
 10
-265.2575378417969
 20
220.3679351806641
 30
0.0
 11
-275.9337768554688
 21
220.3679351806641
 31
0.0
  0
LINE
  5
239
330
22
100
AcDbEntity
  8
0
  6
Continuous
 62
     7
100
AcDbLine
 10
-279.9337768554688
 20
212.8679351806641
 30
0.0
 11
-275.9337768554688
 21
212.8679351806641
 31
0.0
  0
LINE
  5
23A
330
22
100
AcDbEntity
  8
0
  6
Continuous
 62
     7
100
AcDbLine
 10
-219.9707794189453
 20
352.3679504394531
 30
0.0
 11
-218.9337768554688
 21
351.3309326171875
 31
0.0
  0
LINE
  5
23B
330
22
100
AcDbEntity
  8
0
  6
Continuous
 62
     7
100
AcDbLine
 10
-222.0921020507813
 20
352.3679504394531
 30
0.0
 11
-218.9337768554688
 21
349.2095947265625
 31
0.0
  0
LINE
  5
23C
330
22
100
AcDbEntity
  8
0
  6
Continuous
 62
     7
100
AcDbLine
 10
-222.7992095947266
 20
352.3679504394531
 30
0.0
 11
-218.9337768554688
 21
348.5025024414063
 31
0.0
  0
LINE
  5
23D
330
22
100
AcDbEntity
  8
0
  6
Continuous
 62
     7
100
AcDbLine
 10
-224.9205322265625
 20
352.3679504394531
 30
0.0
 11
-219.8428497314453
 21
347.2902526855469
 31
0.0
  0
LINE
  5
23E
330
22
100
AcDbEntity
  8
0
  6
Continuous
 62
     7
100
AcDbLine
 10
-225.6276397705078
 20
352.3679504394531
 30
0.0
 11
-220.5285339355469
 21
347.2688293457031
 31
0.0
  0
LINE
  5
23F
330
22
100
AcDbEntity
  8
0
  6
Continuous
 62
     7
100
AcDbLine
 10
-227.7489624023438
 20
352.3679504394531
 30
0.0
 11
-222.5855560302734
 21
347.2045593261719
 31
0.0
  0
LINE
  5
240
330
22
100
AcDbEntity
  8
0
  6
Continuous
 62
     7
100
AcDbLine
 10
-228.4560546875
 20
352.3679504394531
 30
0.0
 11
-223.271240234375
 21
347.18310546875
 31
0.0
  0
LINE
  5
241
330
22
100
AcDbEntity
  8
0
  6
Continuous
 62
     7
100
AcDbLine
 10
-230.5773773193359
 20
352.3679504394531
 30
0.0
 11
-225.3282775878906
 21
347.1188354492188
 31
0.0
  0
LINE
  5
242
330
22
100
AcDbEntity
  8
0
  6
Continuous
 62
     7
100
AcDbLine
 10
-264.2855834960938
 20
386.0761413574219
 30
0.0
 11
-263.5390319824219
 21
385.32958984375
 31
0.0
  0
LINE
  5
243
330
22
100
AcDbEntity
  8
0
  6
Continuous
 62
     7
100
AcDbLine
 10
-231.2844848632813
 20
352.3679504394531
 30
0.0
 11
-226.0139617919922
 21
347.097412109375
 31
0.0
  0
LINE
  5
244
330
22
100
AcDbEntity
  8
0
  6
Continuous
 62
     7
100
AcDbLine
 10
-265.2844848632813
 20
386.3679504394531
 30
0.0
 11
-262.9375610351563
 21
384.02099609375
 31
0.0
  0
LINE
  5
245
330
22
100
AcDbEntity
  8
0
  6
Continuous
 62
     7
100
AcDbLine
 10
-233.4058074951172
 20
352.3679504394531
 30
0.0
 11
-228.0709838867188
 21
347.0331115722656
 31
0.0
  0
LINE
  5
246
330
22
100
AcDbEntity
  8
0
  6
Continuous
 62
     7
100
AcDbLine
 10
-267.4058227539063
 20
386.3679504394531
 30
0.0
 11
-261.3729858398438
 21
380.3351135253906
 31
0.0
  0
LINE
  5
247
330
22
100
AcDbEntity
  8
0
  6
Continuous
 62
     7
100
AcDbLine
 10
-234.1129150390625
 20
352.3679504394531
 30
0.0
 11
-228.7566680908203
 21
347.0116882324219
 31
0.0
  0
LINE
  5
248
330
22
100
AcDbEntity
  8
0
  6
Continuous
 62
     7
100
AcDbLine
 10
-268.1129150390625
 20
386.3679504394531
 30
0.0
 11
-260.8514709472656
 21
379.1065063476563
 31
0.0
  0
LINE
  5
249
330
22
100
AcDbEntity
  8
0
  6
Continuous
 62
     7
100
AcDbLine
 10
-236.2342376708984
 20
352.3679504394531
 30
0.0
 11
-230.8137054443359
 21
346.9473876953125
 31
0.0
  0
LINE
  5
24A
330
22
100
AcDbEntity
  8
0
  6
Continuous
 62
     7
100
AcDbLine
 10
-270.2342224121094
 20
386.3679504394531
 30
0.0
 11
-259.2868957519531
 21
375.4205932617188
 31
0.0
  0
LINE
  5
24B
330
22
100
AcDbEntity
  8
0
  6
Continuous
 62
     7
100
AcDbLine
 10
-277.7342224121094
 20
393.8679504394531
 30
0.0
 11
-275.9337768554688
 21
392.0674743652344
 31
0.0
  0
LINE
  5
24C
330
22
100
AcDbEntity
  8
0
  6
Continuous
 62
     7
100
AcDbLine
 10
-236.9413452148438
 20
352.3679504394531
 30
0.0
 11
-231.4993743896484
 21
346.9259643554688
 31
0.0
  0
LINE
  5
24D
330
22
100
AcDbEntity
  8
0
  6
Continuous
 62
     7
100
AcDbLine
 10
-270.9413452148438
 20
386.3679504394531
 30
0.0
 11
-258.765380859375
 21
374.1919860839844
 31
0.0
  0
LINE
  5
24E
330
22
100
AcDbEntity
  8
0
  6
Continuous
 62
     7
100
AcDbLine
 10
-278.4413452148438
 20
393.8679504394531
 30
0.0
 11
-275.9337768554688
 21
391.3603515625
 31
0.0
  0
LINE
  5
24F
330
22
100
AcDbEntity
  8
0
  6
Continuous
 62
     7
100
AcDbLine
 10
-239.0626678466797
 20
352.3679504394531
 30
0.0
 11
-233.5564117431641
 21
346.8616943359375
 31
0.0
  0
LINE
  5
250
330
22
100
AcDbEntity
  8
0
  6
Continuous
 62
     7
100
AcDbLine
 10
-273.0626525878906
 20
386.3679504394531
 30
0.0
 11
-257.2008056640625
 21
370.506103515625
 31
0.0
  0
LINE
  5
251
330
22
100
AcDbEntity
  8
0
  6
Continuous
 62
     7
100
AcDbLine
 10
-279.9337768554688
 20
393.2390441894531
 30
0.0
 11
-275.9337768554688
 21
389.2390441894531
 31
0.0
  0
LINE
  5
252
330
22
100
AcDbEntity
  8
0
  6
Continuous
 62
     7
100
AcDbLine
 10
-239.769775390625
 20
352.3679504394531
 30
0.0
 11
-234.2420959472656
 21
346.8402709960938
 31
0.0
  0
LINE
  5
253
330
22
100
AcDbEntity
  8
0
  6
Continuous
 62
     7
100
AcDbLine
 10
-273.769775390625
 20
386.3679504394531
 30
0.0
 11
-256.6792907714845
 21
369.2774658203125
 31
0.0
  0
LINE
  5
254
330
22
100
AcDbEntity
  8
0
  6
Continuous
 62
     7
100
AcDbLine
 10
-279.9337768554688
 20
392.5319519042969
 30
0.0
 11
-275.9337768554688
 21
388.5319519042969
 31
0.0
  0
LINE
  5
255
330
22
100
AcDbEntity
  8
0
  6
Continuous
 62
     7
100
AcDbLine
 10
-241.8910980224609
 20
352.3679504394531
 30
0.0
 11
-237.8910980224609
 21
348.3679504394531
 31
0.0
  0
LINE
  5
256
330
22
100
AcDbEntity
  8
0
  6
Continuous
 62
     7
100
AcDbLine
 10
-264.842041015625
 20
375.3188781738281
 30
0.0
 11
-255.1147308349609
 21
365.5915832519531
 31
0.0
  0
LINE
  5
257
330
22
100
AcDbEntity
  8
0
  6
Continuous
 62
     7
100
AcDbLine
 10
-275.8910827636719
 20
386.3679504394531
 30
0.0
 11
-265.9381103515625
 21
376.4149475097656
 31
0.0
  0
LINE
  5
258
330
22
100
AcDbEntity
  8
0
  6
Continuous
 62
     7
100
AcDbLine
 10
-279.9337768554688
 20
390.4106140136719
 30
0.0
 11
-275.9337768554688
 21
386.4106140136719
 31
0.0
  0
LINE
  5
259
330
22
100
AcDbEntity
  8
0
  6
Continuous
 62
     7
100
AcDbLine
 10
-242.5981903076172
 20
352.3679504394531
 30
0.0
 11
-238.5981903076172
 21
348.3679504394531
 31
0.0
  0
LINE
  5
25A
330
22
100
AcDbEntity
  8
0
  6
Continuous
 62
     7
100
AcDbLine
 10
-264.0311889648438
 20
373.8009338378906
 30
0.0
 11
-254.5932006835939
 21
364.3629455566406
 31
0.0
  0
LINE
  5
25B
330
22
100
AcDbEntity
  8
0
  6
Continuous
 62
     7
100
AcDbLine
 10
-279.9337768554688
 20
389.7035217285156
 30
0.0
 11
-267.3372192382813
 21
377.10693359375
 31
0.0
  0
LINE
  5
25C
330
22
100
AcDbEntity
  8
0
  6
Continuous
 62
     7
100
AcDbLine
 10
-244.7195129394531
 20
352.3679504394531
 30
0.0
 11
-240.7195129394531
 21
348.3679504394531
 31
0.0
  0
LINE
  5
25D
330
22
100
AcDbEntity
  8
0
  6
Continuous
 62
     7
100
AcDbLine
 10
-262.4666442871094
 20
370.1150512695313
 30
0.0
 11
-253.0286407470703
 21
360.6770629882813
 31
0.0
  0
LINE
  5
25E
330
22
100
AcDbEntity
  8
0
  6
Continuous
 62
     7
100
AcDbLine
 10
-279.9337768554688
 20
387.5821838378906
 30
0.0
 11
-269.7195129394531
 21
377.3679504394531
 31
0.0
  0
LINE
  5
25F
330
22
100
AcDbEntity
  8
0
  6
Continuous
 62
     7
100
AcDbLine
 10
-245.4266204833984
 20
352.3679504394531
 30
0.0
 11
-241.4266204833984
 21
348.3679504394531
 31
0.0
  0
LINE
  5
260
330
22
100
AcDbEntity
  8
0
  6
Continuous
 62
     7
100
AcDbLine
 10
-261.9450988769531
 20
368.8864135742188
 30
0.0
 11
-252.5071258544922
 21
359.4484252929688
 31
0.0
  0
LINE
  5
261
330
22
100
AcDbEntity
  8
0
  6
Continuous
 62
     7
100
AcDbLine
 10
-274.9337768554688
 20
381.8750915527344
 30
0.0
 11
-270.4266357421875
 21
377.3679504394531
 31
0.0
  0
LINE
  5
262
330
22
100
AcDbEntity
  8
0
  6
Continuous
 62
     7
100
AcDbLine
 10
-279.9337768554688
 20
386.8750915527344
 30
0.0
 11
-275.4266357421875
 21
382.3679504394531
 31
0.0
  0
LINE
  5
263
330
22
100
AcDbEntity
  8
0
  6
Continuous
 62
     7
100
AcDbLine
 10
-247.8531799316406
 20
352.6731872558594
 30
0.0
 11
-243.5479431152344
 21
348.3679504394531
 31
0.0
  0
LINE
  5
264
330
22
100
AcDbEntity
  8
0
  6
Continuous
 62
     7
100
AcDbLine
 10
-260.3805541992188
 20
365.2005310058594
 30
0.0
 11
-250.9425506591797
 21
355.7625427246094
 31
0.0
  0
LINE
  5
265
330
22
100
AcDbEntity
  8
0
  6
Continuous
 62
     7
100
AcDbLine
 10
-274.9337768554688
 20
379.7537536621094
 30
0.0
 11
-272.5479431152344
 21
377.3679504394531
 31
0.0
  0
LINE
  5
266
330
22
100
AcDbEntity
  8
0
  6
Continuous
 62
     7
100
AcDbLine
 10
-279.9337768554688
 20
384.7537536621094
 30
0.0
 11
-277.5479431152344
 21
382.3679504394531
 31
0.0
  0
LINE
  5
267
330
22
100
AcDbEntity
  8
0
  6
Continuous
 62
     7
100
AcDbLine
 10
-249.6992797851564
 20
353.8121643066406
 30
0.0
 11
-244.2550506591797
 21
348.3679504394531
 31
0.0
  0
LINE
  5
268
330
22
100
AcDbEntity
  8
0
  6
Continuous
 62
     7
100
AcDbLine
 10
-259.8590087890625
 20
363.9718933105469
 30
0.0
 11
-249.7818908691406
 21
353.894775390625
 31
0.0
  0
LINE
  5
269
330
22
100
AcDbEntity
  8
0
  6
Continuous
 62
     7
100
AcDbLine
 10
-274.9337768554688
 20
379.0466613769531
 30
0.0
 11
-273.2550659179688
 21
377.3679504394531
 31
0.0
  0
LINE
  5
26A
330
22
100
AcDbEntity
  8
0
  6
Continuous
 62
     7
100
AcDbLine
 10
-279.9337768554688
 20
384.0466613769531
 30
0.0
 11
-278.2550659179688
 21
382.3679504394531
 31
0.0
  0
LINE
  5
26B
330
22
100
AcDbEntity
  8
0
  6
Continuous
 62
     7
100
AcDbLine
 10
-258.2944641113281
 20
360.2860107421875
 30
0.0
 11
-245.8181610107422
 21
347.8097229003906
 31
0.0
  0
LINE
  5
26C
330
22
100
AcDbEntity
  8
0
  6
Continuous
 62
     7
100
AcDbLine
 10
-257.77294921875
 20
359.0574035644531
 30
0.0
 11
-245.9337768554688
 21
347.2182312011719
 31
0.0
  0
LINE
  5
26D
330
22
100
AcDbEntity
  8
0
  6
Continuous
 62
     7
100
AcDbLine
 10
-256.2083740234375
 20
355.3715209960938
 30
0.0
 11
-245.9337768554688
 21
345.096923828125
 31
0.0
  0
LINE
  5
26E
330
22
100
AcDbEntity
  8
0
  6
Continuous
 62
     7
100
AcDbLine
 10
-255.6868438720703
 20
354.1428833007813
 30
0.0
 11
-246.0176391601563
 21
344.4736633300781
 31
0.0
  0
LINE
  5
26F
330
22
100
AcDbEntity
  8
0
  6
Continuous
 62
     7
100
AcDbLine
 10
-254.1222839355469
 20
350.4570007324219
 30
0.0
 11
-247.5332336425781
 21
343.8679504394531
 31
0.0
  0
LINE
  5
270
330
22
100
AcDbEntity
  8
0
  6
Continuous
 62
     7
100
AcDbLine
 10
-253.6007537841797
 20
349.2283630371094
 30
0.0
 11
-248.2403259277344
 21
343.8679504394531
 31
0.0
  0
LINE
  5
271
330
22
100
AcDbEntity
  8
0
  6
Continuous
 62
     7
100
AcDbLine
 10
-252.0361938476563
 20
345.54248046875
 30
0.0
 11
-250.3616485595703
 21
343.8679504394531
 31
0.0
  0
LINE
  5
272
330
22
100
AcDbEntity
  8
0
  6
Continuous
 62
     7
100
AcDbLine
 10
-251.3506469726563
 20
344.1498107910156
 30
0.0
 11
-251.3136138916016
 21
344.11279296875
 31
0.0
  0
LINE
  5
273
330
22
100
AcDbEntity
  8
0
  6
Continuous
 62
     7
100
AcDbLine
 10
-219.9337768554688
 20
352.3679504394531
 30
0.0
 11
-246.1921997070313
 21
352.3679504394531
 31
0.0
  0
LINE
  5
274
330
22
100
AcDbEntity
  8
0
  6
Continuous
 62
     7
100
AcDbLine
 10
-244.9337768554688
 20
348.3679504394531
 30
0.0
 11
-236.9337768554689
 21
348.3679504394531
 31
0.0
  0
LINE
  5
275
330
22
100
AcDbEntity
  8
0
  6
Continuous
 62
     7
100
AcDbLine
 10
-219.9337768554688
 20
254.3679351806641
 30
0.0
 11
-246.1921997070313
 21
254.3679351806641
 31
0.0
  0
LINE
  5
276
330
22
100
AcDbEntity
  8
0
  6
Continuous
 62
     7
100
AcDbLine
 10
-218.9337768554688
 20
268.7803649902344
 30
0.0
 11
-248.9906005859375
 21
268.7803649902344
 31
0.0
  0
LINE
  5
277
330
22
100
AcDbEntity
  8
0
  6
Continuous
 62
     7
100
AcDbLine
 10
-218.9337768554688
 20
265.7803649902344
 30
0.0
 11
-248.9906005859375
 21
265.7803649902344
 31
0.0
  0
LINE
  5
278
330
22
100
AcDbEntity
  8
0
  6
Continuous
 62
     7
100
AcDbLine
 10
-248.9906005859375
 20
303.3679504394531
 30
0.0
 11
-248.9906005859375
 21
268.7803649902344
 31
0.0
  0
LINE
  5
279
330
22
100
AcDbEntity
  8
0
  6
Continuous
 62
     7
100
AcDbLine
 10
-250.0710144042969
 20
252.5230560302734
 30
0.0
 11
-250.0710144042969
 21
303.3679504394531
 31
0.0
  0
LINE
  5
27A
330
22
100
AcDbEntity
  8
0
  6
Continuous
 62
     7
100
AcDbLine
 10
-275.9337768554688
 20
212.8679351806641
 30
0.0
 11
-275.9337768554688
 21
303.3679504394531
 31
0.0
  0
LINE
  5
27B
330
22
100
AcDbEntity
  8
0
  6
Continuous
 62
     7
100
AcDbLine
 10
-263.9337768554688
 20
222.5242004394531
 30
0.0
 11
-263.9337768554688
 21
303.3679504394531
 31
0.0
  0
LINE
  5
27C
330
22
100
AcDbEntity
  8
0
  6
Continuous
 62
     7
100
AcDbLine
 10
-279.9337768554688
 20
212.8679351806641
 30
0.0
 11
-279.9337768554688
 21
362.789794921875
 31
0.0
  0
ARC
  5
27D
330
22
100
AcDbEntity
  8
0
  6
Continuous
 62
     7
100
AcDbCircle
 10
-500.0953369140624
 20
300.3679504394531
 30
0.0
 40
2.0
100
AcDbArc
 50
90.00000000000019
 51
173.2763217940272
  0
ARC
  5
27E
330
22
100
AcDbEntity
  8
0
  6
Continuous
 62
     7
100
AcDbCircle
 10
-432.6636047363281
 20
303.3679504394531
 30
0.0
 40
28.0
100
AcDbArc
 50
182.0467123626556
 51
213.9533294672328
  0
ARC
  5
27F
330
22
100
AcDbEntity
  8
0
  6
Continuous
 62
     7
100
AcDbCircle
 10
-443.826904296875
 20
298.9655456542969
 30
0.0
 40
2.0
100
AcDbArc
 50
306.0005058267116
 51
21.52233664538207
  0
ARC
  5
280
330
22
100
AcDbEntity
  8
0
  6
Continuous
 62
     7
100
AcDbCircle
 10
-432.6636047363281
 20
303.3681030273438
 30
0.0
 40
64.0
100
AcDbArc
 50
111.8850383990933
 51
143.1047268321707
  0
ARC
  5
281
330
22
100
AcDbEntity
  8
0
  6
Continuous
 62
     7
100
AcDbCircle
 10
-447.9460144042969
 20
324.4025268554688
 30
0.0
 40
45.0
100
AcDbArc
 50
107.9456585941777
 51
150.7236097773277
  0
ARC
  5
282
330
22
100
AcDbEntity
  8
0
  6
Continuous
 62
     7
100
AcDbCircle
 10
-432.6636047363281
 20
303.3681030273438
 30
0.0
 40
59.0
100
AcDbArc
 50
108.9711706530749
 51
143.0288595114439
  0
ARC
  5
283
330
22
100
AcDbEntity
  8
0
  6
Continuous
 62
     7
100
AcDbCircle
 10
-432.6636047363281
 20
303.3681030273438
 30
0.0
 40
57.0
100
AcDbArc
 50
109.0052458925492
 51
142.9947722929294
  0
ARC
  5
284
330
22
100
AcDbEntity
  8
0
  6
Continuous
 62
     7
100
AcDbCircle
 10
-432.6634521484375
 20
303.3681335449219
 30
0.0
 40
28.0
100
AcDbArc
 50
38.04671539328557
 51
69.9533346987681
  0
ARC
  5
285
330
22
100
AcDbEntity
  8
0
  6
Continuous
 62
     7
100
AcDbCircle
 10
-432.6636047363281
 20
303.3681030273438
 30
0.0
 40
28.0
100
AcDbArc
 50
110.0467453713295
 51
141.9532846067144
  0
ARC
  5
286
330
22
100
AcDbEntity
  8
0
  6
Continuous
 62
     7
100
AcDbCircle
 10
-439.1072387695313
 20
313.4913024902344
 30
0.0
 40
2.0
100
AcDbArc
 50
302.4778305529872
 51
18.00006672812741
  0
ARC
  5
287
330
22
100
AcDbEntity
  8
0
  6
Continuous
 62
     7
100
AcDbCircle
 10
-432.6636047363281
 20
303.3681030273438
 30
0.0
 40
22.0
100
AcDbArc
 50
110.6052542165803
 51
141.3947569396938
  0
ARC
  5
288
330
22
100
AcDbEntity
  8
0
  6
Continuous
 62
     7
100
AcDbCircle
 10
-432.6636047363281
 20
303.3681030273438
 30
0.0
 40
20.0
100
AcDbArc
 50
110.8659581358253
 51
141.1340339684943
  0
ARC
  5
289
330
22
100
AcDbEntity
  8
0
  6
Continuous
 62
     7
100
AcDbCircle
 10
-426.2198486328125
 20
313.4913635253906
 30
0.0
 40
2.0
100
AcDbArc
 50
161.9996631070142
 51
237.5229069833515
  0
ARC
  5
28A
330
22
100
AcDbEntity
  8
0
  6
Continuous
 62
     7
100
AcDbCircle
 10
-432.6634521484375
 20
303.3681335449219
 30
0.0
 40
22.0
100
AcDbArc
 50
38.60529265108321
 51
69.39474578341972
  0
ARC
  5
28B
330
22
100
AcDbEntity
  8
0
  6
Continuous
 62
     7
100
AcDbCircle
 10
-432.6634521484375
 20
303.3681335449219
 30
0.0
 40
20.0
100
AcDbArc
 50
38.86602089168686
 51
69.13404186417468
  0
ARC
  5
28C
330
22
100
AcDbEntity
  8
0
  6
Continuous
 62
     7
100
AcDbCircle
 10
-421.5000915527343
 20
298.9656066894531
 30
0.0
 40
2.0
100
AcDbArc
 50
158.477342616818
 51
233.9996875794289
  0
ARC
  5
28D
330
22
100
AcDbEntity
  8
0
  6
Continuous
 62
     7
100
AcDbCircle
 10
-432.6633605957031
 20
303.3680114746094
 30
0.0
 40
10.0
100
AcDbArc
 50
338.4774709130313
 51
345.5224530304557
  0
ARC
  5
28E
330
22
100
AcDbEntity
  8
0
  6
Continuous
 62
     7
100
AcDbCircle
 10
-485.4536743164063
 20
345.4305114746094
 30
0.0
 40
2.0
100
AcDbArc
 50
150.723255180653
 51
233.9996875794289
  0
ARC
  5
28F
330
22
100
AcDbEntity
  8
0
  6
Continuous
 62
     7
100
AcDbCircle
 10
-432.6633605957031
 20
303.3680114746094
 30
0.0
 40
30.0
100
AcDbArc
 50
325.9102132181239
 51
358.0897854394168
  0
ARC
  5
290
330
22
100
AcDbEntity
  8
0
  6
Continuous
 62
     7
100
AcDbCircle
 10
-432.6636047363281
 20
303.3679504394531
 30
0.0
 40
30.0
100
AcDbArc
 50
181.9102126177743
 51
214.0898023827561
  0
ARC
  5
291
330
22
100
AcDbEntity
  8
0
  6
Continuous
 62
     7
100
AcDbCircle
 10
-432.6636047363281
 20
303.3681030273438
 30
0.0
 40
30.0
100
AcDbArc
 50
109.9102455492063
 51
142.0898109089862
  0
ARC
  5
292
330
22
100
AcDbEntity
  8
0
  6
Continuous
 62
     7
100
AcDbCircle
 10
-432.6636047363281
 20
303.3681030273438
 30
0.0
 40
38.0
100
AcDbArc
 50
109.5079642301294
 51
142.4920604523249
  0
ARC
  5
293
330
22
100
AcDbEntity
  8
0
  6
Continuous
 62
     7
100
AcDbCircle
 10
-432.6634521484375
 20
303.3678894042969
 30
0.0
 40
10.0
100
AcDbArc
 50
266.4774699525468
 51
273.5223555249691
  0
ARC
  5
294
330
22
100
AcDbEntity
  8
0
  6
Continuous
 62
     7
100
AcDbCircle
 10
-432.6634521484375
 20
303.3681335449219
 30
0.0
 40
10.0
100
AcDbArc
 50
50.47754406884499
 51
57.52250473490442
  0
ARC
  5
295
330
22
100
AcDbEntity
  8
0
  6
Continuous
 62
     7
100
AcDbCircle
 10
-425.0268859863281
 20
312.6246337890625
 30
0.0
 40
2.0
100
AcDbArc
 50
230.4775204647301
 51
305.9997985383335
  0
CIRCLE
  5
296
330
22
100
AcDbEntity
  8
0
  6
Continuous
 62
     7
100
AcDbCircle
 10
-432.6636047363281
 20
303.3679504394531
 30
0.0
 40
5.5
  0
CIRCLE
  5
297
330
22
100
AcDbEntity
  8
0
  6
Continuous
 62
     7
100
AcDbCircle
 10
-432.6636047363281
 20
303.3679504394531
 30
0.0
 40
5.0
  0
ARC
  5
298
330
22
100
AcDbEntity
  8
0
  6
Continuous
 62
     7
100
AcDbCircle
 10
-432.6636047363281
 20
303.3681030273438
 30
0.0
 40
10.0
100
AcDbArc
 50
122.477589155649
 51
129.522455931155
  0
ARC
  5
299
330
22
100
AcDbEntity
  8
0
  6
Continuous
 62
     7
100
AcDbCircle
 10
-440.3001708984374
 20
312.6246032714844
 30
0.0
 40
2.0
100
AcDbArc
 50
234.0002014616679
 51
309.5224795352713
  0
ARC
  5
29A
330
22
100
AcDbEntity
  8
0
  6
Continuous
 62
     7
100
AcDbCircle
 10
-432.6636047363281
 20
303.3679504394531
 30
0.0
 40
20.0
100
AcDbArc
 50
182.8659852387386
 51
213.1340589415326
  0
ARC
  5
29B
330
22
100
AcDbEntity
  8
0
  6
Continuous
 62
     7
100
AcDbCircle
 10
-432.6636047363281
 20
303.3679504394531
 30
0.0
 40
22.0
100
AcDbArc
 50
182.6052508591979
 51
213.3947952696568
  0
ARC
  5
29C
330
22
100
AcDbEntity
  8
0
  6
Continuous
 62
     7
100
AcDbCircle
 10
-379.8733825683594
 20
345.4305725097656
 30
0.0
 40
2.0
100
AcDbArc
 50
305.9997985383335
 51
29.27598222184678
  0
ARC
  5
29D
330
22
100
AcDbEntity
  8
0
  6
Continuous
 62
     7
100
AcDbCircle
 10
-411.6504516601563
 20
368.039794921875
 30
0.0
 40
5.0
100
AcDbArc
 50
252.0002118276499
 51
72.00010376374627
  0
ARC
  5
29E
330
22
100
AcDbEntity
  8
0
  6
Continuous
 62
     7
100
AcDbCircle
 10
-411.6504516601563
 20
368.039794921875
 30
0.0
 40
6.0
100
AcDbArc
 50
274.0249062849513
 51
339.471275482201
  0
ARC
  5
29F
330
22
100
AcDbEntity
  8
0
  6
Continuous
 62
     7
100
AcDbCircle
 10
-432.6636047363281
 20
303.3679504394531
 30
0.0
 40
10.0
100
AcDbArc
 50
194.4775032562587
 51
201.5225290869701
  0
ARC
  5
2A0
330
22
100
AcDbEntity
  8
0
  6
Continuous
 62
     7
100
AcDbCircle
 10
-444.2825622558594
 20
300.3679504394531
 30
0.0
 40
2.0
100
AcDbArc
 50
14.47750325625797
 51
90.00000000000019
  0
ARC
  5
2A1
330
22
100
AcDbEntity
  8
0
  6
Continuous
 62
     7
100
AcDbCircle
 10
-431.9261779785156
 20
291.3905639648438
 30
0.0
 40
2.0
100
AcDbArc
 50
18.0003368929858
 51
93.522889836456
  0
ARC
  5
2A2
330
22
100
AcDbEntity
  8
0
  6
Continuous
 62
     7
100
AcDbCircle
 10
-432.6636047363281
 20
303.3679504394531
 30
0.0
 40
70.75
100
AcDbArc
 50
72.00000095883819
 51
104.8003302058372
  0
ARC
  5
2A3
330
22
100
AcDbEntity
  8
0
  6
Continuous
 62
     7
100
AcDbCircle
 10
-432.6636047363281
 20
303.3679504394531
 30
0.0
 40
73.0
100
AcDbArc
 50
72.00000933742734
 51
108.0000134427008
  0
ARC
  5
2A4
330
22
100
AcDbEntity
  8
0
  6
Continuous
 62
     7
100
AcDbCircle
 10
-421.0444335937499
 20
300.3680114746094
 30
0.0
 40
2.0
100
AcDbArc
 50
90.00000000000019
 51
165.522496743742
  0
ARC
  5
2A5
330
22
100
AcDbEntity
  8
0
  6
Continuous
 62
     7
100
AcDbCircle
 10
-432.6633605957031
 20
303.3680114746094
 30
0.0
 40
20.0
100
AcDbArc
 50
326.8659664815871
 51
357.1340147612629
  0
ARC
  5
2A6
330
22
100
AcDbEntity
  8
0
  6
Continuous
 62
     7
100
AcDbCircle
 10
-432.6633605957031
 20
303.3680114746094
 30
0.0
 40
22.0
100
AcDbArc
 50
326.605227341463
 51
357.3947491408036
  0
ARC
  5
2A7
330
22
100
AcDbEntity
  8
0
  6
Continuous
 62
     7
100
AcDbCircle
 10
-432.6633605957031
 20
303.3680114746094
 30
0.0
 40
28.0
100
AcDbArc
 50
326.0467223325014
 51
357.9532854070791
  0
ARC
  5
2A8
330
22
100
AcDbEntity
  8
0
  6
Continuous
 62
     7
100
AcDbCircle
 10
-433.4007568359375
 20
291.3905639648438
 30
0.0
 40
2.0
100
AcDbArc
 50
86.47711016354401
 51
161.9996631070142
  0
CIRCLE
  5
2A9
330
22
100
AcDbEntity
  8
0
  6
Continuous
 62
     7
100
AcDbCircle
 10
-453.6767578125
 20
368.039794921875
 30
0.0
 40
4.75
  0
ARC
  5
2AA
330
22
100
AcDbEntity
  8
0
  6
Continuous
 62
     7
100
AcDbCircle
 10
-453.6767578125
 20
368.039794921875
 30
0.0
 40
5.0
100
AcDbArc
 50
108.0002288261015
 51
287.9997881723515
  0
ARC
  5
2AB
330
22
100
AcDbEntity
  8
0
  6
Continuous
 62
     7
100
AcDbCircle
 10
-454.2381591796875
 20
360.0595092773438
 30
0.0
 40
2.0
100
AcDbArc
 50
17.99923525763116
 51
85.97592491868764
  0
ARC
  5
2AC
330
22
100
AcDbEntity
  8
0
  6
Continuous
 62
     7
100
AcDbCircle
 10
-432.6636047363281
 20
303.3681030273438
 30
0.0
 40
36.0
100
AcDbArc
 50
109.5917638157497
 51
142.4082618370299
  0
ARC
  5
2AD
330
22
100
AcDbEntity
  8
0
  6
Continuous
 62
     7
100
AcDbCircle
 10
-432.6636047363281
 20
303.3681030273438
 30
0.0
 40
45.0
100
AcDbArc
 50
109.2733610404443
 51
142.7266707030034
  0
ARC
  5
2AE
330
22
100
AcDbEntity
  8
0
  6
Continuous
 62
     7
100
AcDbCircle
 10
-432.6636047363281
 20
303.3681030273438
 30
0.0
 40
43.0
100
AcDbArc
 50
109.3325891342214
 51
142.6674448819827
  0
ARC
  5
2AF
330
22
100
AcDbEntity
  8
0
  6
Continuous
 62
     7
100
AcDbCircle
 10
-432.6636047363281
 20
303.3681030273438
 30
0.0
 40
52.0
100
AcDbArc
 50
109.1019186688289
 51
142.89809892128
  0
ARC
  5
2B0
330
22
100
AcDbEntity
  8
0
  6
Continuous
 62
     7
100
AcDbCircle
 10
-432.6636047363281
 20
303.3681030273438
 30
0.0
 40
50.0
100
AcDbArc
 50
109.1459841670289
 51
142.8540295990644
  0
ARC
  5
2B1
330
22
100
AcDbEntity
  8
0
  6
Continuous
 62
     7
100
AcDbCircle
 10
-432.6634521484375
 20
303.3681335449219
 30
0.0
 40
57.0
100
AcDbArc
 50
37.00524617054961
 51
70.9947541074508
  0
ARC
  5
2B2
330
22
100
AcDbEntity
  8
0
  6
Continuous
 62
     7
100
AcDbCircle
 10
-432.6634521484375
 20
303.3681335449219
 30
0.0
 40
52.0
100
AcDbArc
 50
37.10192136281568
 51
70.89809233511523
  0
ARC
  5
2B3
330
22
100
AcDbEntity
  8
0
  6
Continuous
 62
     7
100
AcDbCircle
 10
-432.6634521484375
 20
303.3681335449219
 30
0.0
 40
64.0
100
AcDbArc
 50
36.8952950171683
 51
68.11502248828261
  0
ARC
  5
2B4
330
22
100
AcDbEntity
  8
0
  6
Continuous
 62
     7
100
AcDbCircle
 10
-432.6634521484375
 20
303.3681335449219
 30
0.0
 40
66.0
100
AcDbArc
 50
36.86814911741704
 51
67.16048837182255
  0
ARC
  5
2B5
330
22
100
AcDbEntity
  8
0
  6
Continuous
 62
     7
100
AcDbCircle
 10
-432.6634521484375
 20
303.3681335449219
 30
0.0
 40
50.0
100
AcDbArc
 50
37.14601939287454
 51
70.85402730248215
  0
ARC
  5
2B6
330
22
100
AcDbEntity
  8
0
  6
Continuous
 62
     7
100
AcDbCircle
 10
-432.6634521484375
 20
303.3681335449219
 30
0.0
 40
59.0
100
AcDbArc
 50
36.97116416595838
 51
71.0288573732388
  0
ARC
  5
2B7
330
22
100
AcDbEntity
  8
0
  6
Continuous
 62
     7
100
AcDbCircle
 10
-417.3810424804687
 20
324.402587890625
 30
0.0
 40
45.0
100
AcDbArc
 50
29.27635632954881
 51
72.04979523039826
  0
ARC
  5
2B8
330
22
100
AcDbEntity
  8
0
  6
Continuous
 62
     7
100
AcDbCircle
 10
-432.6636047363281
 20
303.3679504394531
 30
0.0
 40
63.01117324829102
100
AcDbArc
 50
71.99999625175343
 51
108.0000037482466
  0
ARC
  5
2B9
330
22
100
AcDbEntity
  8
0
  6
CENTER
 62
     7
100
AcDbCircle
 10
-432.6636047363281
 20
303.3679504394531
 30
0.0
 40
68.0
100
AcDbArc
 50
66.94029656950092
 51
113.0571576558759
  0
ARC
  5
2BA
330
22
100
AcDbEntity
  8
0
  6
Continuous
 62
     7
100
AcDbCircle
 10
-432.6636047363281
 20
303.3679504394531
 30
0.0
 40
65.25
100
AcDbArc
 50
71.99999566996588
 51
104.6681459095336
  0
ARC
  5
2BB
330
22
100
AcDbEntity
  8
0
  6
Continuous
 62
     7
100
AcDbCircle
 10
-411.6504516601563
 20
368.039794921875
 30
0.0
 40
2.75
100
AcDbArc
 50
252.0001619443968
 51
71.99996546293923
  0
ARC
  5
2BC
330
22
100
AcDbEntity
  8
0
  6
Continuous
 62
     7
100
AcDbCircle
 10
-411.0889282226563
 20
360.0595092773438
 30
0.0
 40
2.0
100
AcDbArc
 50
94.02494719497441
 51
161.9999332718726
  0
ARC
  5
2BD
330
22
100
AcDbEntity
  8
0
  6
Continuous
 62
     7
100
AcDbCircle
 10
-404.1288757324219
 20
365.3095397949219
 30
0.0
 40
2.0
100
AcDbArc
 50
72.04942558255544
 51
161.9996631070142
  0
ARC
  5
2BE
330
22
100
AcDbEntity
  8
0
  6
Continuous
 62
     7
100
AcDbCircle
 10
-432.6634521484375
 20
303.3681335449219
 30
0.0
 40
36.0
100
AcDbArc
 50
37.59176779232376
 51
70.40823618425036
  0
ARC
  5
2BF
330
22
100
AcDbEntity
  8
0
  6
Continuous
 62
     7
100
AcDbCircle
 10
-432.6634521484375
 20
303.3681335449219
 30
0.0
 40
38.0
100
AcDbArc
 50
37.50796756423776
 51
70.49203576987055
  0
ARC
  5
2C0
330
22
100
AcDbEntity
  8
0
  6
Continuous
 62
     7
100
AcDbCircle
 10
-432.6634521484375
 20
303.3681335449219
 30
0.0
 40
45.0
100
AcDbArc
 50
37.27336021701289
 51
70.72668846350637
  0
ARC
  5
2C1
330
22
100
AcDbEntity
  8
0
  6
Continuous
 62
     7
100
AcDbCircle
 10
-432.6634521484375
 20
303.3681335449219
 30
0.0
 40
43.0
100
AcDbArc
 50
37.33261211066585
 51
70.66741086577867
  0
ARC
  5
2C2
330
22
100
AcDbEntity
  8
0
  6
Continuous
 62
     7
100
AcDbCircle
 10
-432.6634521484375
 20
303.3681335449219
 30
0.0
 40
30.0
100
AcDbArc
 50
37.91022490238355
 51
70.08980925128113
  0
ARC
  5
2C3
330
22
100
AcDbEntity
  8
0
  6
Continuous
 62
     7
100
AcDbCircle
 10
-365.2316284179688
 20
300.3680114746094
 30
0.0
 40
2.0
100
AcDbArc
 50
6.723678205972813
 51
90.00000000000019
  0
ARC
  5
2C4
330
22
100
AcDbEntity
  8
0
  6
Continuous
 62
     7
100
AcDbCircle
 10
-461.1949462890625
 20
365.310546875
 30
0.0
 40
2.0
100
AcDbArc
 50
18.0003368929858
 51
107.9458770245446
  0
ARC
  5
2C5
330
22
100
AcDbEntity
  8
0
  6
Continuous
 62
     7
100
AcDbCircle
 10
-453.6767578125
 20
368.039794921875
 30
0.0
 40
6.0
100
AcDbArc
 50
199.2593082167827
 51
265.9759658199062
  0
ARC
  5
2C6
330
22
100
AcDbEntity
  8
0
  6
Continuous
 62
     7
100
AcDbCircle
 10
-376.3465881347656
 20
266.1596984863281
 30
0.0
 40
2.0
100
AcDbArc
 50
234.0002014616679
 51
317.2761805079672
  0
ARC
  5
2C7
330
22
100
AcDbEntity
  8
0
  6
Continuous
 62
     7
100
AcDbCircle
 10
-414.6790771484375
 20
238.3094482421875
 30
0.0
 40
2.0
100
AcDbArc
 50
294.7236051131616
 51
17.99992115332157
  0
ARC
  5
2C8
330
22
100
AcDbEntity
  8
0
  6
Continuous
 62
     7
100
AcDbCircle
 10
-450.6478576660156
 20
238.3094482421875
 30
0.0
 40
2.0
100
AcDbArc
 50
162.0000788466785
 51
245.2771890135759
  0
ARC
  5
2C9
330
22
100
AcDbEntity
  8
0
  6
Continuous
 62
     7
100
AcDbCircle
 10
-432.6634521484375
 20
303.3678894042969
 30
0.0
 40
43.0
100
AcDbArc
 50
253.3325572305443
 51
286.6674038144543
  0
ARC
  5
2CA
330
22
100
AcDbEntity
  8
0
  6
Continuous
 62
     7
100
AcDbCircle
 10
-488.9803771972656
 20
266.1596069335938
 30
0.0
 40
2.0
100
AcDbArc
 50
222.7238194920342
 51
305.9997985383335
  0
ARC
  5
2CB
330
22
100
AcDbEntity
  8
0
  6
Continuous
 62
     7
100
AcDbCircle
 10
-432.6634521484375
 20
303.3678894042969
 30
0.0
 40
45.0
100
AcDbArc
 50
253.2733153141489
 51
286.7266474737131
  0
ARC
  5
2CC
330
22
100
AcDbEntity
  8
0
  6
Continuous
 62
     7
100
AcDbCircle
 10
-432.6634521484375
 20
303.3678894042969
 30
0.0
 40
36.0
100
AcDbArc
 50
253.5917278343689
 51
286.4082255735092
  0
ARC
  5
2CD
330
22
100
AcDbEntity
  8
0
  6
Continuous
 62
     7
100
AcDbCircle
 10
-432.6634521484375
 20
303.3678894042969
 30
0.0
 40
52.0
100
AcDbArc
 50
253.1018954065114
 51
286.8980724197814
  0
ARC
  5
2CE
330
22
100
AcDbEntity
  8
0
  6
Continuous
 62
     7
100
AcDbCircle
 10
-432.6634521484375
 20
303.3678894042969
 30
0.0
 40
50.0
100
AcDbArc
 50
253.145988542308
 51
286.8540114576935
  0
ARC
  5
2CF
330
22
100
AcDbEntity
  8
0
  6
Continuous
 62
     7
100
AcDbCircle
 10
-432.6634521484375
 20
277.3678894042969
 30
0.0
 40
45.0
100
AcDbArc
 50
245.2763951370417
 51
294.7236048629597
  0
ARC
  5
2D0
330
22
100
AcDbEntity
  8
0
  6
Continuous
 62
     7
100
AcDbCircle
 10
-432.6634521484375
 20
303.3678894042969
 30
0.0
 40
30.0
100
AcDbArc
 50
253.9102164371286
 51
286.0897835628728
  0
ARC
  5
2D1
330
22
100
AcDbEntity
  8
0
  6
Continuous
 62
     7
100
AcDbCircle
 10
-432.6634521484375
 20
303.3678894042969
 30
0.0
 40
22.0
100
AcDbArc
 50
254.6052225642029
 51
285.3947008089312
  0
CIRCLE
  5
2D2
330
22
100
AcDbEntity
  8
0
  6
Continuous
 62
     7
100
AcDbCircle
 10
-432.6636047363281
 20
303.3679504394531
 30
0.0
 40
90.5
  0
ARC
  5
2D3
330
22
100
AcDbEntity
  8
0
  6
Continuous
 62
     7
100
AcDbCircle
 10
-432.6634521484375
 20
303.3678894042969
 30
0.0
 40
38.0
100
AcDbArc
 50
253.5079361148732
 51
286.4920197642686
  0
ARC
  5
2D4
330
22
100
AcDbEntity
  8
0
  6
Continuous
 62
     7
100
AcDbCircle
 10
-432.6634521484375
 20
303.3678894042969
 30
0.0
 40
28.0
100
AcDbArc
 50
254.0466610402949
 51
285.9532789173468
  0
ARC
  5
2D5
330
22
100
AcDbEntity
  8
0
  6
Continuous
 62
     7
100
AcDbCircle
 10
-432.6634521484375
 20
303.3678894042969
 30
0.0
 40
59.0
100
AcDbArc
 50
252.971137518401
 51
287.0288341448452
  0
ARC
  5
2D6
330
22
100
AcDbEntity
  8
0
  6
Continuous
 62
     7
100
AcDbCircle
 10
-432.6634521484375
 20
303.3678894042969
 30
0.0
 40
57.0
100
AcDbArc
 50
253.0052251799711
 51
286.9947454836654
  0
ARC
  5
2D7
330
22
100
AcDbEntity
  8
0
  6
Continuous
 62
     7
100
AcDbCircle
 10
-432.6634521484375
 20
303.3678894042969
 30
0.0
 40
66.0
100
AcDbArc
 50
252.8681378884871
 51
287.1318367941656
  0
ARC
  5
2D8
330
22
100
AcDbEntity
  8
0
  6
Continuous
 62
     7
100
AcDbCircle
 10
-432.6634521484375
 20
303.3678894042969
 30
0.0
 40
64.0
100
AcDbArc
 50
252.8952643778719
 51
287.1047095098047
  0
ARC
  5
2D9
330
22
100
AcDbEntity
  8
0
  6
Continuous
 62
     7
100
AcDbCircle
 10
-432.6636047363281
 20
303.3679504394531
 30
0.0
 40
38.0
100
AcDbArc
 50
181.507957472626
 51
214.4920549995236
  0
ARC
  5
2DA
330
22
100
AcDbEntity
  8
0
  6
Continuous
 62
     7
100
AcDbCircle
 10
-432.6636047363281
 20
303.3679504394531
 30
0.0
 40
43.0
100
AcDbArc
 50
181.3325800535567
 51
214.6674220093899
  0
ARC
  5
2DB
330
22
100
AcDbEntity
  8
0
  6
Continuous
 62
     7
100
AcDbCircle
 10
-432.6633605957031
 20
303.3680114746094
 30
0.0
 40
66.0
100
AcDbArc
 50
324.868157306021
 51
359.1318486113751
  0
ARC
  5
2DC
330
22
100
AcDbEntity
  8
0
  6
Continuous
 62
     7
100
AcDbCircle
 10
-432.6633605957031
 20
303.3680114746094
 30
0.0
 40
59.0
100
AcDbArc
 50
324.9711633942485
 51
359.0288384477871
  0
ARC
  5
2DD
330
22
100
AcDbEntity
  8
0
  6
Continuous
 62
     7
100
AcDbCircle
 10
-432.6633605957031
 20
303.3680114746094
 30
0.0
 40
52.0
100
AcDbArc
 50
325.1019045557915
 51
358.8980902292462
  0
ARC
  5
2DE
330
22
100
AcDbEntity
  8
0
  6
Continuous
 62
     7
100
AcDbCircle
 10
-432.6633605957031
 20
303.3680114746094
 30
0.0
 40
64.0
100
AcDbArc
 50
324.8952749954773
 51
359.1047170201015
  0
ARC
  5
2DF
330
22
100
AcDbEntity
  8
0
  6
Continuous
 62
     7
100
AcDbCircle
 10
-432.6633605957031
 20
303.3680114746094
 30
0.0
 40
57.0
100
AcDbArc
 50
325.0052405534601
 51
358.9947590243393
  0
ARC
  5
2E0
330
22
100
AcDbEntity
  8
0
  6
Continuous
 62
     7
100
AcDbCircle
 10
-432.6633605957031
 20
303.3680114746094
 30
0.0
 40
38.0
100
AcDbArc
 50
325.5079568680596
 51
358.4920413164827
  0
ARC
  5
2E1
330
22
100
AcDbEntity
  8
0
  6
Continuous
 62
     7
100
AcDbCircle
 10
-432.6633605957031
 20
303.3680114746094
 30
0.0
 40
36.0
100
AcDbArc
 50
325.5917495158509
 51
358.4082447426407
  0
ARC
  5
2E2
330
22
100
AcDbEntity
  8
0
  6
Continuous
 62
     7
100
AcDbCircle
 10
-432.6633605957031
 20
303.3680114746094
 30
0.0
 40
50.0
100
AcDbArc
 50
325.1459907758191
 51
358.8540078007234
  0
ARC
  5
2E3
330
22
100
AcDbEntity
  8
0
  6
Continuous
 62
     7
100
AcDbCircle
 10
-432.6633605957031
 20
303.3680114746094
 30
0.0
 40
45.0
100
AcDbArc
 50
325.2733341899723
 51
358.726655754168
  0
ARC
  5
2E4
330
22
100
AcDbEntity
  8
0
  6
Continuous
 62
     7
100
AcDbCircle
 10
-432.6633605957031
 20
303.3680114746094
 30
0.0
 40
43.0
100
AcDbArc
 50
325.3325548607483
 51
358.6674199464447
  0
CIRCLE
  5
2E5
330
22
100
AcDbEntity
  8
0
  6
Continuous
 62
     7
100
AcDbCircle
 10
-432.6636047363281
 20
303.3679504394531
 30
0.0
 40
78.0
  0
CIRCLE
  5
2E6
330
22
100
AcDbEntity
  8
0
  6
DASHED
 62
     7
100
AcDbCircle
 10
-432.6636047363281
 20
303.3679504394531
 30
0.0
 40
74.0
  0
CIRCLE
  5
2E7
330
22
100
AcDbEntity
  8
0
  6
Continuous
 62
     7
100
AcDbCircle
 10
-432.6636047363281
 20
303.3679504394531
 30
0.0
 40
79.0
  0
ARC
  5
2E8
330
22
100
AcDbEntity
  8
0
  6
Continuous
 62
     7
100
AcDbCircle
 10
-457.3910827636718
 20
295.33349609375
 30
0.0
 40
45.0
100
AcDbArc
 50
173.2763661098228
 51
222.7236350406065
  0
ARC
  5
2E9
330
22
100
AcDbEntity
  8
0
  6
Continuous
 62
     7
100
AcDbCircle
 10
-432.6636047363281
 20
303.3679504394531
 30
0.0
 40
64.0
100
AcDbArc
 50
180.8952829798999
 51
215.1047250045241
  0
ARC
  5
2EA
330
22
100
AcDbEntity
  8
0
  6
Continuous
 62
     7
100
AcDbCircle
 10
-432.6636047363281
 20
303.3679504394531
 30
0.0
 40
66.0
100
AcDbArc
 50
180.8681509872193
 51
215.1318643606292
  0
ARC
  5
2EB
330
22
100
AcDbEntity
  8
0
  6
Continuous
 62
     7
100
AcDbCircle
 10
-432.6636047363281
 20
303.3679504394531
 30
0.0
 40
45.0
100
AcDbArc
 50
181.2733442458334
 51
214.7266658100292
  0
ARC
  5
2EC
330
22
100
AcDbEntity
  8
0
  6
Continuous
 62
     7
100
AcDbCircle
 10
-432.6636047363281
 20
303.3679504394531
 30
0.0
 40
52.0
100
AcDbArc
 50
181.1019097707552
 51
214.898103785101
  0
ARC
  5
2ED
330
22
100
AcDbEntity
  8
0
  6
Continuous
 62
     7
100
AcDbCircle
 10
-432.6636047363281
 20
303.3679504394531
 30
0.0
 40
57.0
100
AcDbArc
 50
181.0052404374878
 51
214.9947669837078
  0
CIRCLE
  5
2EE
330
22
100
AcDbEntity
  8
0
  6
Continuous
 62
     7
100
AcDbCircle
 10
-432.6636047363281
 20
303.3679504394531
 30
0.0
 40
97.5
  0
ARC
  5
2EF
330
22
100
AcDbEntity
  8
0
  6
Continuous
 62
     7
100
AcDbCircle
 10
-407.9359130859375
 20
295.3335571289063
 30
0.0
 40
45.0
100
AcDbArc
 50
317.2764198669796
 51
6.723629340880386
  0
ARC
  5
2F0
330
22
100
AcDbEntity
  8
0
  6
Continuous
 62
     7
100
AcDbCircle
 10
-432.6636047363281
 20
303.3679504394531
 30
0.0
 40
59.0
100
AcDbArc
 50
180.9711615522143
 51
215.0288608736416
  0
ARC
  5
2F1
330
22
100
AcDbEntity
  8
0
  6
Continuous
 62
     7
100
AcDbCircle
 10
-432.6636047363281
 20
303.3679504394531
 30
0.0
 40
50.0
100
AcDbArc
 50
181.1459921992781
 51
214.8540092241823
  0
CIRCLE
  5
2F2
330
22
100
AcDbEntity
  8
0
  6
DASHED
 62
     7
100
AcDbCircle
 10
-432.6636047363281
 20
303.3679504394531
 30
0.0
 40
40.49999999999999
  0
ARC
  5
2F3
330
22
100
AcDbEntity
  8
0
  6
Continuous
 62
     7
100
AcDbCircle
 10
-432.6634521484375
 20
303.3678894042969
 30
0.0
 40
20.0
100
AcDbArc
 50
254.8659789567297
 51
285.1340210432717
  0
ARC
  5
2F4
330
22
100
AcDbEntity
  8
0
  6
Continuous
 62
     7
100
AcDbCircle
 10
-432.6636047363281
 20
303.3679504394531
 30
0.0
 40
36.0
100
AcDbArc
 50
181.5917539081869
 51
214.4082631097961
  0
ARC
  5
2F5
330
22
100
AcDbEntity
  8
0
  6
Continuous
 62
     7
100
AcDbCircle
 10
-457.3910827636718
 20
95.33349609374999
 30
0.0
 40
45.0
100
AcDbArc
 50
173.2763854043076
 51
222.7236279043287
  0
CIRCLE
  5
2F6
330
22
100
AcDbEntity
  8
0
  6
Continuous
 62
     7
100
AcDbCircle
 10
-432.6636047363281
 20
103.3679351806641
 30
0.0
 40
79.0
  0
CIRCLE
  5
2F7
330
22
100
AcDbEntity
  8
0
  6
DASHED
 62
     7
100
AcDbCircle
 10
-432.6636047363281
 20
103.3679351806641
 30
0.0
 40
74.0
  0
CIRCLE
  5
2F8
330
22
100
AcDbEntity
  8
0
  6
Continuous
 62
     7
100
AcDbCircle
 10
-432.6636047363281
 20
103.3679351806641
 30
0.0
 40
78.0
  0
CIRCLE
  5
2F9
330
22
100
AcDbEntity
  8
0
  6
Continuous
 62
     7
100
AcDbCircle
 10
-432.6636047363281
 20
103.3679351806641
 30
0.0
 40
90.5
  0
ARC
  5
2FA
330
22
100
AcDbEntity
  8
0
  6
Continuous
 62
     7
100
AcDbCircle
 10
-432.6634521484375
 20
77.36788940429687
 30
0.0
 40
45.0
100
AcDbArc
 50
245.2763910742257
 51
294.7236089257757
  0
ARC
  5
2FB
330
22
100
AcDbEntity
  8
0
  6
Continuous
 62
     7
100
AcDbCircle
 10
-488.9803771972656
 20
66.15960693359375
 30
0.0
 40
2.0
100
AcDbArc
 50
222.7236589262633
 51
305.9999270077038
  0
ARC
  5
2FC
330
22
100
AcDbEntity
  8
0
  6
Continuous
 62
     7
100
AcDbCircle
 10
-450.6478576660156
 20
38.3094482421875
 30
0.0
 40
2.0
100
AcDbArc
 50
161.9999749115786
 51
245.277097602524
  0
ARC
  5
2FD
330
22
100
AcDbEntity
  8
0
  6
Continuous
 62
     7
100
AcDbCircle
 10
-414.6790771484375
 20
38.3094482421875
 30
0.0
 40
2.0
100
AcDbArc
 50
294.7236965263817
 51
18.0000250884214
  0
ARC
  5
2FE
330
22
100
AcDbEntity
  8
0
  6
Continuous
 62
     7
100
AcDbCircle
 10
-376.3465881347656
 20
66.15968322753906
 30
0.0
 40
2.0
100
AcDbArc
 50
234.0000729922976
 51
317.2763410737382
  0
ARC
  5
2FF
330
22
100
AcDbEntity
  8
0
  6
Continuous
 62
     7
100
AcDbCircle
 10
-453.6767578125
 20
168.0397796630859
 30
0.0
 40
6.0
100
AcDbArc
 50
199.2591706606579
 51
265.9759555946796
  0
ARC
  5
300
330
22
100
AcDbEntity
  8
0
  6
Continuous
 62
     7
100
AcDbCircle
 10
-461.1949462890625
 20
165.310546875
 30
0.0
 40
2.0
100
AcDbArc
 50
18.0003368929858
 51
107.9460117130075
  0
ARC
  5
301
330
22
100
AcDbEntity
  8
0
  6
Continuous
 62
     7
100
AcDbCircle
 10
-365.2316284179688
 20
100.3680114746094
 30
0.0
 40
2.0
100
AcDbArc
 50
6.723678205972813
 51
90.00000000000019
  0
ARC
  5
302
330
22
100
AcDbEntity
  8
0
  6
Continuous
 62
     7
100
AcDbCircle
 10
-404.1288757324219
 20
165.3095397949219
 30
0.0
 40
2.0
100
AcDbArc
 50
72.04942558255544
 51
161.9996631070142
  0
ARC
  5
303
330
22
100
AcDbEntity
  8
0
  6
Continuous
 62
     7
100
AcDbCircle
 10
-411.0889282226563
 20
160.0595092773438
 30
0.0
 40
2.0
100
AcDbArc
 50
94.02491651237879
 51
161.9999332718726
  0
ARC
  5
304
330
22
100
AcDbEntity
  8
0
  6
Continuous
 62
     7
100
AcDbCircle
 10
-432.6636047363281
 20
103.3679351806641
 30
0.0
 40
65.25
100
AcDbArc
 50
75.33185409046642
 51
108.000000189612
  0
ARC
  5
305
330
22
100
AcDbEntity
  8
0
  6
CENTER
 62
     7
100
AcDbCircle
 10
-432.6636047363281
 20
103.3679351806641
 30
0.0
 40
68.0
100
AcDbArc
 50
66.94030664128357
 51
113.0571526205097
  0
ARC
  5
306
330
22
100
AcDbEntity
  8
0
  6
Continuous
 62
     7
100
AcDbCircle
 10
-432.6636047363281
 20
103.3679351806641
 30
0.0
 40
63.01117324829102
100
AcDbArc
 50
71.99999625175343
 51
108.0000037482466
  0
ARC
  5
307
330
22
100
AcDbEntity
  8
0
  6
Continuous
 62
     7
100
AcDbCircle
 10
-417.3810424804687
 20
124.4025802612305
 30
0.0
 40
45.0
100
AcDbArc
 50
29.27638174939357
 51
72.04979822417384
  0
ARC
  5
308
330
22
100
AcDbEntity
  8
0
  6
Continuous
 62
     7
100
AcDbCircle
 10
-454.2381591796875
 20
160.0594940185547
 30
0.0
 40
2.0
100
AcDbArc
 50
18.00006672812741
 51
85.97595559467889
  0
ARC
  5
309
330
22
100
AcDbEntity
  8
0
  6
Continuous
 62
     7
100
AcDbCircle
 10
-453.6767578125
 20
168.0397796630859
 30
0.0
 40
5.0
100
AcDbArc
 50
108.0002288261015
 51
287.9998962362545
  0
CIRCLE
  5
30A
330
22
100
AcDbEntity
  8
0
  6
Continuous
 62
     7
100
AcDbCircle
 10
-411.6504516601563
 20
168.0397796630859
 30
0.0
 40
4.75
  0
ARC
  5
30B
330
22
100
AcDbEntity
  8
0
  6
Continuous
 62
     7
100
AcDbCircle
 10
-433.4007568359375
 20
91.39056396484376
 30
0.0
 40
2.0
100
AcDbArc
 50
86.47711016354401
 51
162.0000788466785
  0
ARC
  5
30C
330
22
100
AcDbEntity
  8
0
  6
Continuous
 62
     7
100
AcDbCircle
 10
-421.0444335937499
 20
100.3680114746094
 30
0.0
 40
2.0
100
AcDbArc
 50
90.00000000000019
 51
165.522496743742
  0
ARC
  5
30D
330
22
100
AcDbEntity
  8
0
  6
Continuous
 62
     7
100
AcDbCircle
 10
-432.6636047363281
 20
103.3679351806641
 30
0.0
 40
73.0
100
AcDbArc
 50
72.00000933742734
 51
108.0000134427008
  0
ARC
  5
30E
330
22
100
AcDbEntity
  8
0
  6
Continuous
 62
     7
100
AcDbCircle
 10
-432.6636047363281
 20
103.3679351806641
 30
0.0
 40
70.75
100
AcDbArc
 50
75.19969684500967
 51
107.9999952226106
  0
ARC
  5
30F
330
22
100
AcDbEntity
  8
0
  6
Continuous
 62
     7
100
AcDbCircle
 10
-431.9261779785156
 20
91.39056396484376
 30
0.0
 40
2.0
100
AcDbArc
 50
17.99992115332157
 51
93.522889836456
  0
ARC
  5
310
330
22
100
AcDbEntity
  8
0
  6
Continuous
 62
     7
100
AcDbCircle
 10
-444.2825622558594
 20
100.3679351806641
 30
0.0
 40
2.0
100
AcDbArc
 50
14.47750325625797
 51
90.00000000000019
  0
ARC
  5
311
330
22
100
AcDbEntity
  8
0
  6
Continuous
 62
     7
100
AcDbCircle
 10
-432.6636047363281
 20
103.3679351806641
 30
0.0
 40
10.0
100
AcDbArc
 50
194.4775032562587
 51
201.5224884217245
  0
ARC
  5
312
330
22
100
AcDbEntity
  8
0
  6
Continuous
 62
     7
100
AcDbCircle
 10
-411.6504516601563
 20
168.0397796630859
 30
0.0
 40
6.0
100
AcDbArc
 50
274.0249267398594
 51
339.4714119396657
  0
ARC
  5
313
330
22
100
AcDbEntity
  8
0
  6
Continuous
 62
     7
100
AcDbCircle
 10
-411.6504516601563
 20
168.0397796630859
 30
0.0
 40
5.0
100
AcDbArc
 50
252.000103763747
 51
72.00010376374627
  0
ARC
  5
314
330
22
100
AcDbEntity
  8
0
  6
Continuous
 62
     7
100
AcDbCircle
 10
-379.8733825683594
 20
145.4305725097656
 30
0.0
 40
2.0
100
AcDbArc
 50
305.9997985383335
 51
29.27636352201952
  0
ARC
  5
315
330
22
100
AcDbEntity
  8
0
  6
Continuous
 62
     7
100
AcDbCircle
 10
-440.3001708984374
 20
112.6245880126953
 30
0.0
 40
2.0
100
AcDbArc
 50
234.0000729922976
 51
309.5226186264762
  0
ARC
  5
316
330
22
100
AcDbEntity
  8
0
  6
Continuous
 62
     7
100
AcDbCircle
 10
-432.6636047363281
 20
103.3680877685547
 30
0.0
 40
10.0
100
AcDbArc
 50
122.4775187376886
 51
129.5224281129066
  0
CIRCLE
  5
317
330
22
100
AcDbEntity
  8
0
  6
Continuous
 62
     7
100
AcDbCircle
 10
-432.6636047363281
 20
103.3679351806641
 30
0.0
 40
5.0
  0
CIRCLE
  5
318
330
22
100
AcDbEntity
  8
0
  6
Continuous
 62
     7
100
AcDbCircle
 10
-432.6636047363281
 20
103.3679351806641
 30
0.0
 40
5.5
  0
ARC
  5
319
330
22
100
AcDbEntity
  8
0
  6
Continuous
 62
     7
100
AcDbCircle
 10
-425.0268859863281
 20
112.6246337890625
 30
0.0
 40
2.0
100
AcDbArc
 50
230.4773813735252
 51
305.9999270077038
  0
ARC
  5
31A
330
22
100
AcDbEntity
  8
0
  6
Continuous
 62
     7
100
AcDbCircle
 10
-432.6634521484375
 20
103.3681335449219
 30
0.0
 40
10.0
100
AcDbArc
 50
50.47757188709338
 51
57.52248126231139
  0
ARC
  5
31B
330
22
100
AcDbEntity
  8
0
  6
Continuous
 62
     7
100
AcDbCircle
 10
-432.6634521484375
 20
103.3678894042969
 30
0.0
 40
10.0
100
AcDbArc
 50
266.4774699525468
 51
273.5223555249691
  0
ARC
  5
31C
330
22
100
AcDbEntity
  8
0
  6
Continuous
 62
     7
100
AcDbCircle
 10
-485.4536743164063
 20
145.4305267333984
 30
0.0
 40
2.0
100
AcDbArc
 50
150.7236364779805
 51
234.0002014616679
  0
ARC
  5
31D
330
22
100
AcDbEntity
  8
0
  6
Continuous
 62
     7
100
AcDbCircle
 10
-432.6633605957031
 20
103.3680114746094
 30
0.0
 40
10.0
100
AcDbArc
 50
338.4775115782769
 51
345.5224530304557
  0
ARC
  5
31E
330
22
100
AcDbEntity
  8
0
  6
Continuous
 62
     7
100
AcDbCircle
 10
-421.5000915527343
 20
98.96561431884766
 30
0.0
 40
2.0
100
AcDbArc
 50
158.477342616818
 51
234.0000729922976
  0
ARC
  5
31F
330
22
100
AcDbEntity
  8
0
  6
Continuous
 62
     7
100
AcDbCircle
 10
-426.2198486328125
 20
113.4913635253905
 30
0.0
 40
2.0
100
AcDbArc
 50
161.9998709766013
 51
237.5230243459425
  0
ARC
  5
320
330
22
100
AcDbEntity
  8
0
  6
Continuous
 62
     7
100
AcDbCircle
 10
-439.1072387695313
 20
113.4913177490234
 30
0.0
 40
2.0
100
AcDbArc
 50
302.4777131889842
 51
17.99985886123844
  0
ARC
  5
321
330
22
100
AcDbEntity
  8
0
  6
Continuous
 62
     7
100
AcDbCircle
 10
-447.9460144042969
 20
124.4025344848633
 30
0.0
 40
45.0
100
AcDbArc
 50
107.9456675733043
 51
150.7236182506065
  0
ARC
  5
322
330
22
100
AcDbEntity
  8
0
  6
Continuous
 62
     7
100
AcDbCircle
 10
-443.826904296875
 20
98.96553802490235
 30
0.0
 40
2.0
100
AcDbArc
 50
306.0006342971125
 51
21.52233664538207
  0
ARC
  5
323
330
22
100
AcDbEntity
  8
0
  6
Continuous
 62
     7
100
AcDbCircle
 10
-500.0953369140624
 20
100.3679351806641
 30
0.0
 40
2.0
100
AcDbArc
 50
90.00000000000019
 51
173.2763217940272
  0
CIRCLE
  5
324
330
22
100
AcDbEntity
  8
0
  6
Continuous
 62
     7
100
AcDbCircle
 10
-432.6636047363281
 20
103.3679351806641
 30
0.0
 40
97.5
  0
ARC
  5
325
330
22
100
AcDbEntity
  8
0
  6
Continuous
 62
     7
100
AcDbCircle
 10
-407.9359130859375
 20
95.3335723876953
 30
0.0
 40
45.0
100
AcDbArc
 50
317.2763984581373
 51
6.723610046408455
  0
CIRCLE
  5
326
330
22
100
AcDbEntity
  8
0
  6
DASHED
 62
     7
100
AcDbCircle
 10
-432.6636047363281
 20
103.3679351806641
 30
0.0
 40
40.49999999999999
  0
ARC
  5
327
330
22
100
AcDbEntity
  8
0
  6
Continuous
 62
     7
100
AcDbCircle
 10
-453.6767578125
 20
168.0397796630859
 30
0.0
 40
2.75
100
AcDbArc
 50
107.9999362958139
 51
287.9999362958147
  0
ARC
  5
328
330
22
100
AcDbEntity
  8
0
  6
Continuous
 62
     7
100
AcDbCircle
 10
-236.9337768554689
 20
347.3679504394531
 30
0.0
 40
1.0
100
AcDbArc
 50
0.0
 51
90.00000000000019
  0
ARC
  5
329
330
22
100
AcDbEntity
  8
0
  6
Continuous
 62
     7
100
AcDbCircle
 10
-157.9337768554688
 20
349.8679504394531
 30
0.0
 40
1.0
100
AcDbArc
 50
90.00000000000019
 51
180.0000000000004
  0
ARC
  5
32A
330
22
100
AcDbEntity
  8
0
  6
Continuous
 62
     7
100
AcDbCircle
 10
-128.9337768554688
 20
355.8679504394531
 30
0.0
 40
5.0
100
AcDbArc
 50
270.0000000000005
 51
0.0
  0
ARC
  5
32B
330
22
100
AcDbEntity
  8
0
  6
Continuous
 62
     7
100
AcDbCircle
 10
-119.4337692260742
 20
352.8679504394531
 30
0.0
 40
1.0
100
AcDbArc
 50
180.0000000000004
 51
270.0000000000005
  0
ARC
  5
32C
330
22
100
AcDbEntity
  8
0
  6
Continuous
 62
     7
100
AcDbCircle
 10
-85.93376922607422
 20
350.8679504394531
 30
0.0
 40
1.0
100
AcDbArc
 50
0.0
 51
90.00000000000019
  0
ARC
  5
32D
330
22
100
AcDbEntity
  8
0
  6
Continuous
 62
     7
100
AcDbCircle
 10
-218.2892913818359
 20
267.3377075195313
 30
0.0
 40
1.685425519943236
100
AcDbArc
 50
192.6556242146897
 51
247.518433523625
  0
ARC
  5
32E
330
22
100
AcDbEntity
  8
0
  6
Continuous
 62
     7
100
AcDbCircle
 10
-217.9651336669922
 20
267.0638732910155
 30
0.0
 40
1.970955729484558
100
AcDbArc
 50
119.4367187966421
 51
182.7751965997311
  0
ARC
  5
32F
330
22
100
AcDbEntity
  8
0
  6
Continuous
 62
     7
100
AcDbCircle
 10
-120.9337692260742
 20
400.3679504394531
 30
0.0
 40
0.5
100
AcDbArc
 50
0.0
 51
90.00000000000019
  0
ARC
  5
330
330
22
100
AcDbEntity
  8
0
  6
Continuous
 62
     7
100
AcDbCircle
 10
-121.9337692260742
 20
398.8679504394531
 30
0.0
 40
2.0
100
AcDbArc
 50
90.00000000000019
 51
180.0000000000004
  0
ARC
  5
331
330
22
100
AcDbEntity
  8
0
  6
Continuous
 62
     7
100
AcDbCircle
 10
-100.8634948730469
 20
234.0697784423828
 30
0.0
 40
17.0
100
AcDbArc
 50
98.69604263790776
 51
162.2318549080127
  0
ARC
  5
332
330
22
100
AcDbEntity
  8
0
  6
Continuous
 62
     7
100
AcDbCircle
 10
-128.9337768554688
 20
250.8679351806641
 30
0.0
 40
5.0
100
AcDbArc
 50
0.0
 51
90.00000000000019
  0
ARC
  5
333
330
22
100
AcDbEntity
  8
0
  6
Continuous
 62
     7
100
AcDbCircle
 10
-85.93376922607422
 20
255.8679351806641
 30
0.0
 40
1.0
100
AcDbArc
 50
270.0000000000005
 51
0.0
  0
ARC
  5
334
330
22
100
AcDbEntity
  8
0
  6
Continuous
 62
     7
100
AcDbCircle
 10
-121.9337692260742
 20
207.8679351806641
 30
0.0
 40
2.0
100
AcDbArc
 50
180.0000000000004
 51
270.0000000000005
  0
ARC
  5
335
330
22
100
AcDbEntity
  8
0
  6
Continuous
 62
     7
100
AcDbCircle
 10
-157.9337768554688
 20
256.867950439453
 30
0.0
 40
1.0
100
AcDbArc
 50
180.0000000000004
 51
270.0000000000005
  0
ARC
  5
336
330
22
100
AcDbEntity
  8
0
  6
Continuous
 62
     7
100
AcDbCircle
 10
-120.9337692260742
 20
206.3679351806641
 30
0.0
 40
0.5
100
AcDbArc
 50
270.0000000000005
 51
0.0
  0
ARC
  5
337
330
22
100
AcDbEntity
  8
0
  6
Continuous
 62
     7
100
AcDbCircle
 10
-118.9571838378906
 20
239.8679351806641
 30
0.0
 40
2.0
100
AcDbArc
 50
270.0000000000005
 51
342.2317638604965
  0
ARC
  5
338
330
22
100
AcDbEntity
  8
0
  6
Continuous
 62
     7
100
AcDbCircle
 10
-102.4337692260742
 20
252.8679351806641
 30
0.0
 40
2.0
100
AcDbArc
 50
270.0000000000005
 51
0.0
  0
ARC
  5
339
330
22
100
AcDbEntity
  8
0
  6
Continuous
 62
     7
100
AcDbCircle
 10
-119.4337692260742
 20
253.8679351806641
 30
0.0
 40
1.0
100
AcDbArc
 50
90.00000000000019
 51
180.0000000000004
  0
ARC
  5
33A
330
22
100
AcDbEntity
  8
0
  6
Continuous
 62
     7
100
AcDbCircle
 10
-250.6635131835938
 20
344.8679504394531
 30
0.0
 40
1.0
100
AcDbArc
 50
203.0009111813242
 51
270.0000000000005
  0
ARC
  5
33B
330
22
100
AcDbEntity
  8
0
  6
Continuous
 62
     7
100
AcDbCircle
 10
-268.854736328125
 20
372.3679504394531
 30
0.0
 40
5.0
100
AcDbArc
 50
22.99980882646621
 51
90.00000000000019
  0
ARC
  5
33C
330
22
100
AcDbEntity
  8
0
  6
Continuous
 62
     7
100
AcDbCircle
 10
-244.9337768554688
 20
347.3679504394531
 30
0.0
 40
1.0
100
AcDbArc
 50
90.00000000000019
 51
180.0000000000004
  0
ARC
  5
33D
330
22
100
AcDbEntity
  8
0
  6
Continuous
 62
     7
100
AcDbCircle
 10
-246.1921997070313
 20
357.3679504394531
 30
0.0
 40
5.0
100
AcDbArc
 50
203.000199052079
 51
270.0000000000005
  0
ARC
  5
33E
330
22
100
AcDbEntity
  8
0
  6
Continuous
 62
     7
100
AcDbCircle
 10
-265.2575378417969
 20
384.3679504394531
 30
0.0
 40
2.0
100
AcDbArc
 50
23.00010642018959
 51
90.00000000000019
  0
ARC
  5
33F
330
22
100
AcDbEntity
  8
0
  6
Continuous
 62
     7
100
AcDbCircle
 10
-246.9337768554688
 20
344.8679504394531
 30
0.0
 40
1.0
100
AcDbArc
 50
270.0000000000005
 51
0.0
  0
ARC
  5
340
330
22
100
AcDbEntity
  8
0
  6
Continuous
 62
     7
100
AcDbCircle
 10
-246.632080078125
 20
266.6895141601563
 30
0.0
 40
3.151878118515015
100
AcDbArc
 50
138.4427069519005
 51
185.0208991623429
  0
ARC
  5
341
330
22
100
AcDbEntity
  8
0
  6
Continuous
 62
     7
100
AcDbCircle
 10
-248.0460968017578
 20
267.7440795898438
 30
0.0
 40
2.179043769836426
100
AcDbArc
 50
217.6292590379484
 51
244.3134629896174
  0
ARC
  5
342
330
22
100
AcDbEntity
  8
0
  6
Continuous
 62
     7
100
AcDbCircle
 10
-246.1921997070313
 20
249.3679351806641
 30
0.0
 40
5.0
100
AcDbArc
 50
90.00000000000019
 51
156.9999619005455
  0
ARC
  5
343
330
22
100
AcDbEntity
  8
0
  6
Continuous
 62
     7
100
AcDbCircle
 10
-265.2575378417969
 20
222.3679351806641
 30
0.0
 40
2.0
100
AcDbArc
 50
270.0000000000005
 51
336.9998935798112
  0
LWPOLYLINE
  5
344
330
22
100
AcDbEntity
  8
0
  6
Continuous
 62
     7
100
AcDbPolyline
 90
       17
 70
     0
 43
0.0
 10
-280.1308288574219
 20
373.289794921875
 42
0.0491268497694673
 10
-280.5003481759619
 20
373.1889176439918
 42
0.0491268497694673
 10
-280.8556670743192
 20
372.8901624675593
 42
0.0491268497694673
 10
-281.1831308464951
 20
372.4050103864634
 42
0.0491268497694673
 10
-281.4701552433687
 20
371.7521055231044
 42
0.0491268497694673
 10
-281.7057100783332
 20
370.9565386452279
 42
0.0491268497694673
 10
-281.8807431111816
 20
370.0488829417917
 42
0.0491268497694673
 10
-281.9885279206213
 20
369.0640191124596
 42
0.0491268497694673
 10
-282.0249223968719
 20
368.039794921875
 42
0.0491268497694673
 10
-281.9885279206213
 20
367.0155707312903
 42
0.0491268497694673
 10
-281.8807431111816
 20
366.0307069019582
 42
0.0491268497694673
 10
-281.7057100783332
 20
365.1230511985221
 42
0.0491268497694673
 10
-281.4701552433686
 20
364.3274843206456
 42
0.0491268497694673
 10
-281.183130846495
 20
363.6745794572866
 42
0.0491268497694673
 10
-280.8556670743191
 20
363.1894273761907
 42
0.0491268497694673
 10
-280.5003481759618
 20
362.8906721997582
 42
0.0491268497694673
 10
-280.1308288574218
 20
362.789794921875
 42
-1.0
  0
TEXT
  5
357
330
22
100
AcDbEntity
  8
0
  6
Continuous
 62
     7
100
AcDbText
 10
-209.0295038223267
 20
145.8001251220703
 30
0.0
 40
7.0
  1
DL-SUC-80
 41
1.018441630205992
100
AcDbText
  0
TEXT
  5
358
330
22
100
AcDbEntity
  8
0
  6
Continuous
 62
     7
100
AcDbText
 10
-562.3399286270141
 20
378.4527282714844
 30
0.0
 40
7.0
  1
　全　開　時　　
 41
0.8454512837995997
100
AcDbText
  0
LINE
  5
359
330
22
100
AcDbEntity
  8
0
  6
Continuous
 62
     7
100
AcDbLine
 10
-563.3385953903196
 20
376.7027282714844
 30
0.0
 11
-563.3385953903196
 21
387.2027282714844
 31
0.0
  0
LINE
  5
35A
330
22
100
AcDbEntity
  8
0
  6
Continuous
 62
     7
100
AcDbLine
 10
-507.4132566452026
 20
376.7027282714844
 30
0.0
 11
-507.4132566452026
 21
387.2027282714844
 31
0.0
  0
LINE
  5
35B
330
22
100
AcDbEntity
  8
0
  6
Continuous
 62
     7
100
AcDbLine
 10
-563.3385953903196
 20
376.7027282714844
 30
0.0
 11
-507.4132566452026
 21
376.7027282714844
 31
0.0
  0
LINE
  5
35C
330
22
100
AcDbEntity
  8
0
  6
Continuous
 62
     7
100
AcDbLine
 10
-563.3385953903196
 20
387.2027282714844
 30
0.0
 11
-507.4132566452026
 21
387.2027282714844
 31
0.0
  0
TEXT
  5
35D
330
22
100
AcDbEntity
  8
0
  6
Continuous
 62
     7
100
AcDbText
 10
-562.3399286270141
 20
183.4527282714844
 30
0.0
 40
7.0
  1
　全　閉　時　　
 41
0.8454512837995997
100
AcDbText
  0
LINE
  5
35E
330
22
100
AcDbEntity
  8
0
  6
Continuous
 62
     7
100
AcDbLine
 10
-563.3385953903196
 20
181.7027282714844
 30
0.0
 11
-563.3385953903196
 21
192.2027282714844
 31
0.0
  0
LINE
  5
35F
330
22
100
AcDbEntity
  8
0
  6
Continuous
 62
     7
100
AcDbLine
 10
-507.4132566452026
 20
181.7027282714844
 30
0.0
 11
-507.4132566452026
 21
192.2027282714844
 31
0.0
  0
LINE
  5
360
330
22
100
AcDbEntity
  8
0
  6
Continuous
 62
     7
100
AcDbLine
 10
-563.3385953903196
 20
181.7027282714844
 30
0.0
 11
-507.4132566452026
 21
181.7027282714844
 31
0.0
  0
LINE
  5
361
330
22
100
AcDbEntity
  8
0
  6
Continuous
 62
     7
100
AcDbLine
 10
-563.3385953903196
 20
192.2027282714844
 30
0.0
 11
-507.4132566452026
 21
192.2027282714844
 31
0.0
  0
INSERT
  5
362
330
22
100
AcDbEntity
  8
0
  6
Continuous
 62
     7
100
AcDbBlockReference
  2
KOZU0001
 10
-100.4277191162109
 20
346.82373046875
 30
0.0
  0
DIMENSION
  5
363
330
22
100
AcDbEntity
  8
0
  6
Continuous
 62
     7
100
AcDbDimension
  2
*D1
 10
-120.4337692260742
 20
403.5138549804687
 30
0.0
 11
-108.3388900756836
 21
403.5138549804687
 31
0.0
 71
     5
 42
-1.0
  3
DIMSTYLE1
100
AcDbAlignedDimension
 13
-123.9337692260742
 23
421.5522766113281
 33
0.0
 14
-120.4337692260742
 24
400.3679504394531
 34
0.0
100
AcDbRotatedDimension
  0
DIMENSION
  5
364
330
22
100
AcDbEntity
  8
0
  6
Continuous
 62
     7
100
AcDbDimension
  2
*D2
 10
-502.7300210029031
 20
235.567159060893
 30
0.0
 11
-347.3778076171875
 21
385.8959655761719
 31
0.0
 70
     3
 71
     5
 42
-1.0
  3
DIMSTYLE2
100
AcDbDiametricDimension
 15
-362.5971884697531
 25
371.1687418180133
 35
0.0
 40
0.0
  0
DIMENSION
  5
365
330
22
100
AcDbEntity
  8
0
  6
Continuous
 62
     7
100
AcDbDimension
  2
*D3
 10
-510.8048100461616
 20
257.7148888474149
 30
0.0
 11
-330.4508056640625
 21
363.0845336914063
 31
0.0
 70
     3
 71
     5
 42
-1.0
  3
DIMSTYLE3
100
AcDbDiametricDimension
 15
-354.5223994264945
 25
349.0210120314914
 35
0.0
 40
0.0
  0
DIMENSION
  5
366
330
22
100
AcDbEntity
  8
0
  6
Continuous
 62
     7
100
AcDbDimension
  2
*D4
 10
-508.4452724921914
 20
284.898006418424
 30
0.0
 11
-320.3668212890625
 21
330.737548828125
 31
0.0
 70
     3
 71
     5
 42
-1.0
  3
DIMSTYLE4
100
AcDbDiametricDimension
 15
-356.8819369804648
 25
321.8378944604824
 35
0.0
 40
0.0
  0
DIMENSION
  5
367
330
22
100
AcDbEntity
  8
0
  6
Continuous
 62
     7
100
AcDbDimension
  2
*D5
 10
-123.9337692260742
 20
403.5138549804687
 30
0.0
 11
-201.9337768554688
 21
403.5138549804687
 31
0.0
 71
     5
 42
-1.0
  3
DIMSTYLE5
100
AcDbAlignedDimension
 13
-279.9337768554688
 23
393.8679504394531
 33
0.0
 14
-123.9337692260742
 24
398.8679504394531
 34
0.0
100
AcDbRotatedDimension
  0
DIMENSION
  5
368
330
22
100
AcDbEntity
  8
0
  6
Continuous
 62
     7
100
AcDbDimension
  2
*D6
 10
-218.9337768554688
 20
396.504638671875
 30
0.0
 11
-249.4337768554689
 21
396.504638671875
 31
0.0
 71
     5
 42
-1.0
  3
DIMSTYLE6
100
AcDbAlignedDimension
 13
-279.9337768554688
 23
393.8679504394531
 33
0.0
 14
-218.9337768554688
 24
351.3309326171875
 34
0.0
100
AcDbRotatedDimension
  0
DIMENSION
  5
369
330
22
100
AcDbEntity
  8
0
  6
Continuous
 62
     7
100
AcDbDimension
  2
*D7
 10
-158.9337768554688
 20
396.504638671875
 30
0.0
 11
-141.4337768554688
 21
396.504638671875
 31
0.0
 71
     5
 42
-1.0
  3
DIMSTYLE7
100
AcDbAlignedDimension
 13
-123.9337692260742
 23
398.8679504394531
 33
0.0
 14
-158.9337768554688
 24
349.8679504394531
 34
0.0
100
AcDbRotatedDimension
  0
DIMENSION
  5
36A
330
22
100
AcDbEntity
  8
0
  6
Continuous
 62
     7
100
AcDbDimension
  2
*D8
 10
-56.20055007934571
 20
351.8679504394531
 30
0.0
 11
-56.20055007934571
 21
303.3679504394531
 31
0.0
 71
     5
 42
-1.0
  3
DIMSTYLE8
100
AcDbAlignedDimension
 13
-85.93376922607422
 23
254.8679351806641
 33
0.0
 14
-85.93376922607422
 24
351.8679504394531
 34
0.0
 50
90.0
100
AcDbRotatedDimension
  0
DIMENSION
  5
36B
330
22
100
AcDbEntity
  8
0
  6
Continuous
 62
     7
100
AcDbDimension
  2
*D9
 10
-238.9337768554689
 20
318.5799560546875
 30
0.0
 11
-188.9337768554688
 21
318.5799560546875
 31
0.0
 71
     5
 42
-1.0
  3
DIMSTYLE9
100
AcDbAlignedDimension
 13
-138.9337768554687
 23
303.3679504394531
 33
0.0
 14
-238.9337768554689
 24
319.7111206054688
 34
0.0
100
AcDbRotatedDimension
  0
DIMENSION
  5
36C
330
22
100
AcDbEntity
  8
0
  6
Continuous
 62
     7
100
AcDbDimension
  2
*D10
 10
-188.9337768554688
 20
328.4829406738281
 30
0.0
 11
-163.9337768554688
 21
328.4829406738281
 31
0.0
 71
     5
 42
-1.0
  3
DIMSTYLE10
100
AcDbAlignedDimension
 13
-138.9337768554687
 23
345.8179321289063
 33
0.0
 14
-188.9337768554688
 24
345.8179321289063
 34
0.0
100
AcDbRotatedDimension
  0
DIMENSION
  5
36D
330
22
100
AcDbEntity
  8
0
  6
Continuous
 62
     7
100
AcDbDimension
  2
*D11
 10
-84.93376922607422
 20
187.9007720947266
 30
0.0
 11
-121.9337692260742
 21
187.9007720947266
 31
0.0
 71
     5
 42
-1.0
  3
DIMSTYLE11
100
AcDbAlignedDimension
 13
-158.9337768554688
 23
256.867950439453
 33
0.0
 14
-84.93376922607422
 24
255.8679351806641
 34
0.0
100
AcDbRotatedDimension
  0
DIMENSION
  5
36E
330
22
100
AcDbEntity
  8
0
  6
Continuous
 62
     7
100
AcDbDimension
  2
*D12
 10
-89.00016784667968
 20
237.8679351806641
 30
0.0
 11
-89.00016784667968
 21
246.3679351806641
 31
0.0
 71
     5
 42
-1.0
  3
DIMSTYLE12
100
AcDbAlignedDimension
 13
-85.93376922607422
 23
254.8679351806641
 33
0.0
 14
-118.9571838378906
 24
237.8679351806641
 34
0.0
 50
90.0
100
AcDbRotatedDimension
  0
DIMENSION
  5
36F
330
22
100
AcDbEntity
  8
0
  6
Continuous
 62
     7
100
AcDbDimension
  2
*D13
 10
-100.4337692260742
 20
225.7890014648438
 30
0.0
 11
-110.4337692260742
 21
225.7890014648438
 31
0.0
 71
     5
 42
-1.0
  3
DIMSTYLE13
100
AcDbAlignedDimension
 13
-120.4337692260742
 23
206.3679351806641
 33
0.0
 14
-100.4337692260742
 24
252.8679351806641
 34
0.0
100
AcDbRotatedDimension
  0
INSERT
  5
370
330
22
100
AcDbEntity
  8
0
  6
Continuous
 62
     7
100
AcDbBlockReference
  2
KOZU0002
 10
-114.4278030395508
 20
250.1798095703125
 30
0.0
  0
ENDSEC
  0
SECTION
  2
OBJECTS
  0
DICTIONARY
  5
C
330
0
100
AcDbDictionary
281
     1
  3
ACAD_COLOR
350
1B
  3
ACAD_GROUP
350
D
  3
ACAD_LAYOUT
350
19
  3
ACAD_MATERIAL
350
1A
  3
ACAD_MLINESTYLE
350
16
  3
ACAD_PLOTSETTINGS
350
18
  3
ACAD_PLOTSTYLENAME
350
E
  3
ACAD_TABLESTYLE
350
1C
  3
AcDbVariableDictionary
350
37C
  0
DICTIONARY
  5
1B
102
{ACAD_REACTORS
330
C
102
}
330
C
100
AcDbDictionary
281
     1
  0
DICTIONARY
  5
D
102
{ACAD_REACTORS
330
C
102
}
330
C
100
AcDbDictionary
281
     1
  0
DICTIONARY
  5
19
102
{ACAD_REACTORS
330
C
102
}
330
C
100
AcDbDictionary
281
     1
  3
Model
350
25
  3
レイアウト1
350
21
  0
DICTIONARY
  5
1A
102
{ACAD_REACTORS
330
C
102
}
330
C
100
AcDbDictionary
281
     1
  0
DICTIONARY
  5
16
102
{ACAD_REACTORS
330
C
102
}
330
C
100
AcDbDictionary
281
     1
  3
Standard
350
17
  0
DICTIONARY
  5
18
102
{ACAD_REACTORS
330
C
102
}
330
C
100
AcDbDictionary
281
     1
  0
ACDBDICTIONARYWDFLT
  5
E
102
{ACAD_REACTORS
330
C
102
}
330
C
100
AcDbDictionary
281
     1
  3
Normal
350
F
100
AcDbDictionaryWithDefault
340
F
  0
DICTIONARY
  5
1C
102
{ACAD_REACTORS
330
C
102
}
330
C
100
AcDbDictionary
281
     1
  3
Standard
350
1D
  0
DICTIONARY
  5
37C
102
{ACAD_REACTORS
330
C
102
}
330
C
100
AcDbDictionary
281
     1
  3
CTABLESTYLE
350
37D
  0
LAYOUT
  5
25
102
{ACAD_REACTORS
330
19
102
}
330
19
100
AcDbPlotSettings
  1

  2
PDF reDirect v2
  4
User66
  6

 40
3.174999952316284
 41
3.174999952316284
 42
3.17498779296875
 43
3.17498779296875
 44
420.0
 45
594.0
 46
0.0
 47
0.0
 48
0.0
 49
0.0
140
0.0
141
0.0
142
1.0
143
1.0
 70
 11952
 72
     1
 73
     1
 74
     2
  7
C:\Users\ck\AppData\Roaming\Autodesk\AutoCAD 2005\R16.1\jpn\Plot Styles\black.ctb
 75
    16
147
1.0
 76
     0
 77
     2
 78
   300
148
592.0
149
0.0
100
AcDbLayout
  1
Model
 70
     1
 71
     0
 10
0.0
 20
0.0
 11
12.0
 21
9.0
 12
0.0
 22
0.0
 32
0.0
 14
0.0
 24
0.0
 34
0.0
 15
0.0
 25
0.0
 35
0.0
146
0.0
 13
0.0
 23
0.0
 33
0.0
 16
1.0
 26
0.0
 36
0.0
 17
0.0
 27
1.0
 37
0.0
 76
     0
330
22
1001
ACAD_PSEXT
1000
PDF reDirect v2
1000
PDF reDirect Pro
1000
PDF_REDIRECT_PORT:
1000
PDF reDirect provided by EXP Systems
1070
     0
  0
LAYOUT
  5
21
102
{ACAD_REACTORS
330
19
102
}
330
19
100
AcDbPlotSettings
  1

  2
PDF reDirect v2
  4

  6

 40
0.0
 41
0.0
 42
0.0
 43
0.0
 44
0.0
 45
0.0
 46
0.0
 47
0.0
 48
0.0
 49
0.0
140
0.0
141
0.0
142
1.0
143
1.0
 70
   688
 72
     0
 73
     0
 74
     5
  7
C:\Users\ck\AppData\Roaming\Autodesk\AutoCAD 2005\R16.1\jpn\Plot Styles\black.ctb
 75
    16
147
1.0
 76
     0
 77
     2
 78
   300
148
0.0
149
0.0
100
AcDbLayout
  1
レイアウト1
 70
     1
 71
     1
 10
-592.0
 20
0.0
 11
0.0
 21
418.0
 12
0.0
 22
0.0
 32
0.0
 14
1.000000000000000E+20
 24
1.000000000000000E+20
 34
1.000000000000000E+20
 15
-1.000000000000000E+20
 25
-1.000000000000000E+20
 35
-1.000000000000000E+20
146
0.0
 13
0.0
 23
0.0
 33
0.0
 16
1.0
 26
0.0
 36
0.0
 17
0.0
 27
1.0
 37
0.0
 76
     0
330
1E
  0
MLINESTYLE
  5
17
102
{ACAD_REACTORS
330
16
102
}
330
16
100
AcDbMlineStyle
  2
STANDARD
 70
     0
  3

 62
   256
 51
90.0
 52
90.0
 71
     2
 49
0.5
 62
   256
  6
BYLAYER
 49
-0.5
 62
   256
  6
BYLAYER
  0
ACDBPLACEHOLDER
  5
F
102
{ACAD_REACTORS
330
E
102
}
330
E
  0
TABLESTYLE
  5
1D
102
{ACAD_REACTORS
330
1C
102
}
330
1C
100
AcDbTableStyle
  3
Standard
 70
     0
 71
     0
 40
0.06
 41
0.06
280
     0
281
     0
  7
STANDARD
140
0.18
170
     2
 62
     0
 63
     7
283
     0
274
    -2
284
     1
 64
     0
275
    -2
285
     1
 65
     0
276
    -2
286
     1
 66
     0
277
    -2
287
     1
 67
     0
278
    -2
288
     1
 68
     0
279
    -2
289
     1
 69
     0
  7
STANDARD
140
0.25
170
     5
 62
     0
 63
     7
283
     0
274
    -2
284
     1
 64
     0
275
    -2
285
     1
 65
     0
276
    -2
286
     1
 66
     0
277
    -2
287
     1
 67
     0
278
    -2
288
     1
 68
     0
279
    -2
289
     1
 69
     0
  7
STANDARD
140
0.18
170
     5
 62
     0
 63
     7
283
     0
274
    -2
284
     1
 64
     0
275
    -2
285
     1
 65
     0
276
    -2
286
     1
 66
     0
277
    -2
287
     1
 67
     0
278
    -2
288
     1
 68
     0
279
    -2
289
     1
 69
     0
  0
DICTIONARYVAR
  5
37D
102
{ACAD_REACTORS
330
37C
102
}
330
37C
100
DictionaryVariables
280
     0
  1
STANDARD
  0
ENDSEC
  0
EOF
