  0
SECTION
  2
HEADER
  9
$ACADVER
  1
AC1018
  9
$ACADMAINTVER
 70
    39
  9
$DWGCODEPAGE
  3
ANSI_932
  9
$INSBASE
 10
0.0
 20
0.0
 30
0.0
  9
$EXTMIN
 10
-367.8734425661078
 20
53.13244704009548
 30
-0.0015258207003583
  9
$EXTMAX
 10
-42.36334135542074
 20
262.5799261885461
 30
0.0000000349246037
  9
$LIMMIN
 10
-423.0
 20
-2.0
  9
$LIMMAX
 10
-5.0
 20
293.0
  9
$ORTHOMODE
 70
     0
  9
$REGENMODE
 70
     1
  9
$FILLMODE
 70
     1
  9
$QTEXTMODE
 70
     0
  9
$MIRRTEXT
 70
     0
  9
$LTSCALE
 40
1.0
  9
$ATTMODE
 70
     1
  9
$TEXTSIZE
 40
0.2
  9
$TRACEWID
 40
0.05
  9
$TEXTSTYLE
  7
STANDARD
  9
$CLAYER
  8
0
  9
$CELTYPE
  6
CONTINUOUS
  9
$CECOLOR
 62
   256
  9
$CELTSCALE
 40
1.0
  9
$DISPSILH
 70
     0
  9
$DIMSCALE
 40
1.0
  9
$DIMASZ
 40
1.0
  9
$DIMEXO
 40
2.54
  9
$DIMDLI
 40
0.38
  9
$DIMRND
 40
0.0
  9
$DIMDLE
 40
0.0
  9
$DIMEXE
 40
2.54
  9
$DIMTP
 40
0.0
  9
$DIMTM
 40
0.0
  9
$DIMTXT
 40
3.0
  9
$DIMCEN
 40
0.09
  9
$DIMTSZ
 40
0.0
  9
$DIMTOL
 70
     0
  9
$DIMLIM
 70
     0
  9
$DIMTIH
 70
     0
  9
$DIMTOH
 70
     0
  9
$DIMSE1
 70
     0
  9
$DIMSE2
 70
     0
  9
$DIMTAD
 70
     1
  9
$DIMZIN
 70
     0
  9
$DIMBLK
  1

  9
$DIMASO
 70
     1
  9
$DIMSHO
 70
     0
  9
$DIMPOST
  1

  9
$DIMAPOST
  1

  9
$DIMALT
 70
     0
  9
$DIMALTD
 70
     2
  9
$DIMALTF
 40
25.4
  9
$DIMLFAC
 40
1.0
  9
$DIMTOFL
 70
     0
  9
$DIMTVP
 40
1.0
  9
$DIMTIX
 70
     0
  9
$DIMSOXD
 70
     0
  9
$DIMSAH
 70
     1
  9
$DIMBLK1
  1

  9
$DIMBLK2
  1

  9
$DIMSTYLE
  2
DIMSTYLE1
  9
$DIMCLRD
 70
     0
  9
$DIMCLRE
 70
     0
  9
$DIMCLRT
 70
     0
  9
$DIMTFAC
 40
1.0
  9
$DIMGAP
 40
1.5
  9
$DIMJUST
 70
     0
  9
$DIMSD1
 70
     0
  9
$DIMSD2
 70
     0
  9
$DIMTOLJ
 70
     1
  9
$DIMTZIN
 70
     0
  9
$DIMALTZ
 70
     0
  9
$DIMALTTZ
 70
     0
  9
$DIMUPT
 70
     0
  9
$DIMDEC
 70
     4
  9
$DIMTDEC
 70
     4
  9
$DIMALTU
 70
     2
  9
$DIMALTTD
 70
     2
  9
$DIMTXSTY
  7
STANDARD
  9
$DIMAUNIT
 70
     0
  9
$DIMADEC
 70
     0
  9
$DIMALTRND
 40
0.0
  9
$DIMAZIN
 70
     0
  9
$DIMDSEP
 70
    46
  9
$DIMATFIT
 70
     3
  9
$DIMFRAC
 70
     0
  9
$DIMLDRBLK
  1

  9
$DIMLUNIT
 70
     2
  9
$DIMLWD
 70
    -2
  9
$DIMLWE
 70
    -2
  9
$DIMTMOVE
 70
     0
  9
$LUNITS
 70
     2
  9
$LUPREC
 70
     4
  9
$SKETCHINC
 40
0.1
  9
$FILLETRAD
 40
0.0
  9
$AUNITS
 70
     0
  9
$AUPREC
 70
     0
  9
$MENU
  1
.
  9
$ELEVATION
 40
0.0
  9
$PELEVATION
 40
0.0
  9
$THICKNESS
 40
0.0
  9
$LIMCHECK
 70
     0
  9
$CHAMFERA
 40
0.0
  9
$CHAMFERB
 40
0.0
  9
$CHAMFERC
 40
0.0
  9
$CHAMFERD
 40
0.0
  9
$SKPOLY
 70
     0
  9
$TDCREATE
 40
2457842.620542732
  9
$TDUCREATE
 40
2457842.245542732
  9
$TDUPDATE
 40
2457842.621082361
  9
$TDUUPDATE
 40
2457842.246082361
  9
$TDINDWG
 40
0.0005406713
  9
$TDUSRTIMER
 40
0.0005406713
  9
$USRTIMER
 70
     1
  9
$ANGBASE
 50
0.0
  9
$ANGDIR
 70
     0
  9
$PDMODE
 70
     0
  9
$PDSIZE
 40
0.0
  9
$PLINEWID
 40
0.0
  9
$SPLFRAME
 70
     0
  9
$SPLINETYPE
 70
     6
  9
$SPLINESEGS
 70
     8
  9
$HANDSEED
  5
1FF
  9
$SURFTAB1
 70
     6
  9
$SURFTAB2
 70
     6
  9
$SURFTYPE
 70
     6
  9
$SURFU
 70
     6
  9
$SURFV
 70
     6
  9
$UCSBASE
  2

  9
$UCSNAME
  2

  9
$UCSORG
 10
0.0
 20
0.0
 30
0.0
  9
$UCSXDIR
 10
1.0
 20
0.0
 30
0.0
  9
$UCSYDIR
 10
0.0
 20
1.0
 30
0.0
  9
$UCSORTHOREF
  2

  9
$UCSORTHOVIEW
 70
     0
  9
$UCSORGTOP
 10
0.0
 20
0.0
 30
0.0
  9
$UCSORGBOTTOM
 10
0.0
 20
0.0
 30
0.0
  9
$UCSORGLEFT
 10
0.0
 20
0.0
 30
0.0
  9
$UCSORGRIGHT
 10
0.0
 20
0.0
 30
0.0
  9
$UCSORGFRONT
 10
0.0
 20
0.0
 30
0.0
  9
$UCSORGBACK
 10
0.0
 20
0.0
 30
0.0
  9
$PUCSBASE
  2

  9
$PUCSNAME
  2

  9
$PUCSORG
 10
0.0
 20
0.0
 30
0.0
  9
$PUCSXDIR
 10
1.0
 20
0.0
 30
0.0
  9
$PUCSYDIR
 10
0.0
 20
1.0
 30
0.0
  9
$PUCSORTHOREF
  2

  9
$PUCSORTHOVIEW
 70
     0
  9
$PUCSORGTOP
 10
0.0
 20
0.0
 30
0.0
  9
$PUCSORGBOTTOM
 10
0.0
 20
0.0
 30
0.0
  9
$PUCSORGLEFT
 10
0.0
 20
0.0
 30
0.0
  9
$PUCSORGRIGHT
 10
0.0
 20
0.0
 30
0.0
  9
$PUCSORGFRONT
 10
0.0
 20
0.0
 30
0.0
  9
$PUCSORGBACK
 10
0.0
 20
0.0
 30
0.0
  9
$USERI1
 70
     0
  9
$USERI2
 70
     0
  9
$USERI3
 70
     0
  9
$USERI4
 70
     0
  9
$USERI5
 70
     0
  9
$USERR1
 40
0.0
  9
$USERR2
 40
0.0
  9
$USERR3
 40
0.0
  9
$USERR4
 40
0.0
  9
$USERR5
 40
0.0
  9
$WORLDVIEW
 70
     1
  9
$SHADEDGE
 70
     3
  9
$SHADEDIF
 70
    70
  9
$TILEMODE
 70
     1
  9
$MAXACTVP
 70
    64
  9
$PINSBASE
 10
0.0
 20
0.0
 30
0.0
  9
$PLIMCHECK
 70
     0
  9
$PEXTMIN
 10
1.000000000000000E+20
 20
1.000000000000000E+20
 30
1.000000000000000E+20
  9
$PEXTMAX
 10
-1.000000000000000E+20
 20
-1.000000000000000E+20
 30
-1.000000000000000E+20
  9
$PLIMMIN
 10
-423.0
 20
-2.0
  9
$PLIMMAX
 10
-5.0
 20
293.0
  9
$UNITMODE
 70
     0
  9
$VISRETAIN
 70
     1
  9
$PLINEGEN
 70
     0
  9
$PSLTSCALE
 70
     1
  9
$TREEDEPTH
 70
  3020
  9
$CMLSTYLE
  2
Standard
  9
$CMLJUST
 70
     0
  9
$CMLSCALE
 40
1.0
  9
$PROXYGRAPHICS
 70
     1
  9
$MEASUREMENT
 70
     0
  9
$CELWEIGHT
370
    -1
  9
$ENDCAPS
280
     0
  9
$JOINSTYLE
280
     0
  9
$LWDISPLAY
290
     0
  9
$INSUNITS
 70
     0
  9
$HYPERLINKBASE
  1

  9
$STYLESHEET
  1

  9
$XEDIT
290
     1
  9
$CEPSNTYPE
380
     0
  9
$PSTYLEMODE
290
     1
  9
$FINGERPRINTGUID
  2
{D96FD490-1F9C-44B6-9055-854ECB8690E5}
  9
$VERSIONGUID
  2
{39FDE47C-FD7B-452B-A446-CB017FC91095}
  9
$EXTNAMES
290
     1
  9
$PSVPSCALE
 40
0.0
  9
$OLESTARTUP
290
     0
  9
$SORTENTS
280
   127
  9
$INDEXCTL
280
     0
  9
$HIDETEXT
280
     0
  9
$XCLIPFRAME
290
     0
  9
$HALOGAP
280
     0
  9
$OBSCOLOR
 70
   257
  9
$OBSLTYPE
280
     0
  9
$INTERSECTIONDISPLAY
280
     0
  9
$INTERSECTIONCOLOR
 70
   257
  9
$DIMASSOC
280
     1
  9
$PROJECTNAME
  1

  0
ENDSEC
  0
SECTION
  2
CLASSES
  0
CLASS
  1
ACDBDICTIONARYWDFLT
  2
AcDbDictionaryWithDefault
  3
ObjectDBX Classes
 90
        0
 91
        1
280
     0
281
     0
  0
CLASS
  1
TABLESTYLE
  2
AcDbTableStyle
  3
ObjectDBX Classes
 90
     2047
 91
        1
280
     0
281
     0
  0
CLASS
  1
DICTIONARYVAR
  2
AcDbDictionaryVar
  3
ObjectDBX Classes
 90
        0
 91
        1
280
     0
281
     0
  0
ENDSEC
  0
SECTION
  2
TABLES
  0
TABLE
  2
VPORT
  5
8
330
0
100
AcDbSymbolTable
 70
     2
  0
VPORT
  5
1FE
330
8
100
AcDbSymbolTableRecord
100
AcDbViewportTableRecord
  2
*Active
 70
     0
 10
0.0
 20
0.0
 11
1.0
 21
1.0
 12
-214.0
 22
145.5
 13
0.0
 23
0.0
 14
1.0
 24
1.0
 15
0.0
 25
0.0
 16
0.0
 26
0.0
 36
1.0
 17
0.0
 27
0.0
 37
0.0
 40
297.3320158102766
 41
1.707124010554089
 42
50.0
 43
0.0
 44
0.0
 50
0.0
 51
0.0
 71
     0
 72
   100
 73
     1
 74
     1
 75
     0
 76
     0
 77
     0
 78
     0
281
     0
 65
     1
110
0.0
120
0.0
130
0.0
111
1.0
121
0.0
131
0.0
112
0.0
122
1.0
132
0.0
 79
     0
146
0.0
  0
ENDTAB
  0
TABLE
  2
LTYPE
  5
5
330
0
100
AcDbSymbolTable
 70
     6
  0
LTYPE
  5
13
330
5
100
AcDbSymbolTableRecord
100
AcDbLinetypeTableRecord
  2
ByBlock
 70
     0
  3

 72
    65
 73
     0
 40
0.0
  0
LTYPE
  5
14
330
5
100
AcDbSymbolTableRecord
100
AcDbLinetypeTableRecord
  2
ByLayer
 70
     0
  3

 72
    65
 73
     0
 40
0.0
  0
LTYPE
  5
15
330
5
100
AcDbSymbolTableRecord
100
AcDbLinetypeTableRecord
  2
CONTINUOUS
 70
     0
  3
Solid line
 72
    65
 73
     0
 40
0.0
  0
LTYPE
  5
26
330
5
100
AcDbSymbolTableRecord
100
AcDbLinetypeTableRecord
  2
DASHED
 70
     0
  3
__ __ __ __ __ __ __ __ __ __ __ __ __ __ __
 72
    65
 73
     2
 40
3.5
 49
2.0
 74
     0
 49
-1.5
 74
     0
  0
LTYPE
  5
27
330
5
100
AcDbSymbolTableRecord
100
AcDbLinetypeTableRecord
  2
CENTER
 70
     0
  3
____ _ ____ _ ____ _ ____ _ ____ _ ____ _ ____
 72
    65
 73
     4
 40
17.5
 49
13.0
 74
     0
 49
-1.5
 74
     0
 49
1.5
 74
     0
 49
-1.5
 74
     0
  0
LTYPE
  5
28
330
5
100
AcDbSymbolTableRecord
100
AcDbLinetypeTableRecord
  2
PHANTOM
 70
     0
  3
_____ _ _ _____ _ _ _____ _ _ _____ _ _ ____  
 72
    65
 73
     6
 40
15.5
 49
8.0
 74
     0
 49
-1.5
 74
     0
 49
1.5
 74
     0
 49
-1.5
 74
     0
 49
1.5
 74
     0
 49
-1.5
 74
     0
  0
LTYPE
  5
29
330
5
100
AcDbSymbolTableRecord
100
AcDbLinetypeTableRecord
  2
DOT
 70
     0
  3
. . . . . . . . . . . . . . . . . . . . . . . .
 72
    65
 73
     2
 40
0.25
 49
0.0
 74
     0
 49
-0.25
 74
     0
  0
LTYPE
  5
2A
330
5
100
AcDbSymbolTableRecord
100
AcDbLinetypeTableRecord
  2
HIDDEN
 70
     0
  3
__ __ __ __ __ __ __ __ __ __ __ __ __ __ __
 72
    65
 73
     2
 40
3.5
 49
2.0
 74
     0
 49
-1.5
 74
     0
  0
ENDTAB
  0
TABLE
  2
LAYER
  5
2
330
0
100
AcDbSymbolTable
 70
     3
  0
LAYER
  5
10
330
2
100
AcDbSymbolTableRecord
100
AcDbLayerTableRecord
  2
0
 70
     0
 62
     7
  6
CONTINUOUS
370
    -3
390
F
  0
LAYER
  5
2B
330
2
100
AcDbSymbolTableRecord
100
AcDbLayerTableRecord
  2
1
 70
     0
 62
     7
  6
CONTINUOUS
370
    -3
390
F
  0
LAYER
  5
2C
330
2
100
AcDbSymbolTableRecord
100
AcDbLayerTableRecord
  2
DEFPOINTS
 70
     0
 62
     7
  6
CONTINUOUS
290
     0
370
    -3
390
F
  0
ENDTAB
  0
TABLE
  2
STYLE
  5
3
330
0
100
AcDbSymbolTable
 70
     2
  0
STYLE
  5
11
330
3
100
AcDbSymbolTableRecord
100
AcDbTextStyleTableRecord
  2
STANDARD
 70
     0
 40
0.0
 41
1.0
 50
0.0
 71
     0
 42
0.2
  3

  4

1001
ACAD
1000
MS Gothic
1071
    32817
  0
ENDTAB
  0
TABLE
  2
VIEW
  5
6
330
0
100
AcDbSymbolTable
 70
     0
  0
ENDTAB
  0
TABLE
  2
UCS
  5
7
330
0
100
AcDbSymbolTable
 70
     0
  0
ENDTAB
  0
TABLE
  2
APPID
  5
9
330
0
100
AcDbSymbolTable
 70
     2
  0
APPID
  5
12
330
9
100
AcDbSymbolTableRecord
100
AcDbRegAppTableRecord
  2
ACAD
 70
     0
  0
APPID
  5
1F3
330
9
100
AcDbSymbolTableRecord
100
AcDbRegAppTableRecord
  2
ACAD_PSEXT
 70
     0
  0
ENDTAB
  0
TABLE
  2
DIMSTYLE
  5
A
330
0
100
AcDbSymbolTable
 70
     4
100
AcDbDimStyleTable
 71
     1
340
2D
  0
DIMSTYLE
105
2D
102
{ACAD_REACTORS
330
1ED
102
}
330
A
100
AcDbSymbolTableRecord
100
AcDbDimStyleTableRecord
  2
DIMSTYLE1
 70
     0
 41
1.0
 42
2.54
 44
2.54
 73
     0
 74
     0
 75
     1
 76
     1
 77
     1
140
3.0
145
1.0
147
1.5
172
     1
173
     1
279
     2
340
11
  0
DIMSTYLE
105
2E
102
{ACAD_REACTORS
330
1EE
102
}
330
A
100
AcDbSymbolTableRecord
100
AcDbDimStyleTableRecord
  2
DIMSTYLE2
 70
     0
 41
1.0
 42
2.54
 44
2.54
 73
     0
 74
     0
 75
     1
 76
     1
 77
     1
140
3.0
145
1.0
147
1.5
172
     1
173
     1
279
     2
340
11
  0
DIMSTYLE
105
2F
102
{ACAD_REACTORS
330
1EF
102
}
330
A
100
AcDbSymbolTableRecord
100
AcDbDimStyleTableRecord
  2
DIMSTYLE3
 70
     0
 41
1.0
 42
2.54
 44
2.54
 73
     0
 74
     0
 77
     1
140
3.0
145
1.0
147
1.5
172
     1
173
     1
279
     2
340
11
  0
ENDTAB
  0
TABLE
  2
BLOCK_RECORD
  5
1
330
0
100
AcDbSymbolTable
 70
     6
  0
BLOCK_RECORD
  5
22
330
1
100
AcDbSymbolTableRecord
100
AcDbBlockTableRecord
  2
*Model_Space
340
25
  0
BLOCK_RECORD
  5
1E
330
1
100
AcDbSymbolTableRecord
100
AcDbBlockTableRecord
  2
*Paper_Space
340
21
  0
BLOCK_RECORD
  5
33
330
1
100
AcDbSymbolTableRecord
100
AcDbBlockTableRecord
  2
_OPEN30
340
0
102
{BLKREFS
331
3D
331
3E
331
47
331
48
331
50
331
51
102
}
  0
BLOCK_RECORD
  5
39
330
1
100
AcDbSymbolTableRecord
100
AcDbBlockTableRecord
  2
*D1
340
0
  0
BLOCK_RECORD
  5
43
330
1
100
AcDbSymbolTableRecord
100
AcDbBlockTableRecord
  2
*D2
340
0
  0
BLOCK_RECORD
  5
4D
330
1
100
AcDbSymbolTableRecord
100
AcDbBlockTableRecord
  2
*D3
340
0
  0
BLOCK_RECORD
  5
59
330
1
100
AcDbSymbolTableRecord
100
AcDbBlockTableRecord
  2
KOZU0001
340
0
102
{BLKREFS
331
1F0
102
}
  0
ENDTAB
  0
ENDSEC
  0
SECTION
  2
BLOCKS
  0
BLOCK
  5
23
330
22
100
AcDbEntity
  8
0
100
AcDbBlockBegin
  2
*Model_Space
 70
     0
 10
0.0
 20
0.0
 30
0.0
  3
*Model_Space
  1

  0
ENDBLK
  5
24
330
22
100
AcDbEntity
  8
0
100
AcDbBlockEnd
  0
BLOCK
  5
1F
330
1E
100
AcDbEntity
 67
     1
  8
0
100
AcDbBlockBegin
  2
*Paper_Space
 70
     0
 10
0.0
 20
0.0
 30
0.0
  3
*Paper_Space
  1

  0
ENDBLK
  5
20
330
1E
100
AcDbEntity
 67
     1
  8
0
100
AcDbBlockEnd
  0
BLOCK
  5
34
330
33
100
AcDbEntity
  8
0
100
AcDbBlockBegin
  2
_OPEN30
 70
     0
 10
0.0
 20
0.0
 30
0.0
  3
_OPEN30
  1

  0
LINE
  5
35
330
33
100
AcDbEntity
  8
0
  6
ByBlock
 62
     0
100
AcDbLine
 10
0.0
 20
0.0
 30
0.0
 11
-2.999999999999993
 21
-1.000000000000017
 31
0.0
  0
LINE
  5
36
330
33
100
AcDbEntity
  8
0
  6
ByBlock
 62
     0
100
AcDbLine
 10
0.0
 20
0.0
 30
0.0
 11
-3.000000000000006
 21
0.9999999999999815
 31
0.0
  0
LINE
  5
37
330
33
100
AcDbEntity
  8
0
  6
ByBlock
 62
     0
100
AcDbLine
 10
0.0
 20
0.0
 30
0.0
 11
-3.0
 21
0.0
 31
0.0
  0
ENDBLK
  5
38
330
33
100
AcDbEntity
  8
0
100
AcDbBlockEnd
  0
BLOCK
  5
3A
330
39
100
AcDbEntity
  8
0
100
AcDbBlockBegin
  2
*D1
 70
     1
 10
0.0
 20
0.0
 30
0.0
  3
*D1
  1

  0
LINE
  5
3B
330
39
100
AcDbEntity
  8
0
  6
Continuous
 62
     7
100
AcDbLine
 10
-220.4679412841797
 20
178.8744812011719
 30
0.0
 11
-162.0323486328125
 21
196.3843994140625
 31
0.0
  0
LINE
  5
3C
330
39
100
AcDbEntity
  8
0
  6
Continuous
 62
     7
100
AcDbLine
 10
-342.6985363546529
 20
142.2487409381609
 30
0.0
 11
-223.3417010721049
 21
178.0133745403546
 31
0.0
  0
INSERT
  5
3D
330
39
100
AcDbEntity
  8
0
  6
Continuous
 62
     7
100
AcDbBlockReference
  2
_OPEN30
 10
-345.5722961425781
 20
141.3876342773438
 30
0.0
 50
196.6805619024249
  0
INSERT
  5
3E
330
39
100
AcDbEntity
  8
0
  6
Continuous
 62
     7
100
AcDbBlockReference
  2
_OPEN30
 10
-220.4679412841797
 20
178.8744812011719
 30
0.0
 50
16.68056190242421
  0
TEXT
  5
3F
330
39
100
AcDbEntity
  8
0
  6
Continuous
 62
     7
100
AcDbText
 10
-190.1602372363091
 20
188.7338096075161
 30
0.0
 40
3.0
  1
%%C１３１（目皿外径）
 50
16.70000035088335
 41
0.8443929326254473
100
AcDbText
  0
POINT
  5
40
330
39
100
AcDbEntity
  8
DEFPOINTS
  6
Continuous
 62
     7
100
AcDbPoint
 10
-345.5722961425781
 20
141.3876342773438
 30
0.0
  0
POINT
  5
41
330
39
100
AcDbEntity
  8
DEFPOINTS
  6
Continuous
 62
     7
100
AcDbPoint
 10
-220.4679412841797
 20
178.8744812011719
 30
0.0
  0
ENDBLK
  5
42
330
39
100
AcDbEntity
  8
0
100
AcDbBlockEnd
  0
BLOCK
  5
44
330
43
100
AcDbEntity
  8
0
100
AcDbBlockBegin
  2
*D2
 70
     1
 10
0.0
 20
0.0
 30
0.0
  3
*D2
  1

  0
LINE
  5
45
330
43
100
AcDbEntity
  8
0
  6
Continuous
 62
     7
100
AcDbLine
 10
-215.6719055175781
 20
199.4784545898438
 30
0.0
 11
-171.5435028076172
 21
225.2599334716797
 31
0.0
  0
LINE
  5
46
330
43
100
AcDbEntity
  8
0
  6
Continuous
 62
     7
100
AcDbLine
 10
-347.7780310222013
 20
122.2970297654149
 30
0.0
 11
-218.2622216633456
 21
197.9650933424952
 31
0.0
  0
INSERT
  5
47
330
43
100
AcDbEntity
  8
0
  6
Continuous
 62
     7
100
AcDbBlockReference
  2
_OPEN30
 10
-350.3683471679688
 20
120.7836685180664
 30
0.0
 50
210.2950977247359
  0
INSERT
  5
48
330
43
100
AcDbEntity
  8
0
  6
Continuous
 62
     7
100
AcDbBlockReference
  2
_OPEN30
 10
-215.6719055175781
 20
199.4784545898438
 30
0.0
 50
30.29509772473519
  0
TEXT
  5
49
330
43
100
AcDbEntity
  8
0
  6
Continuous
 62
     7
100
AcDbText
 10
-199.6721233709251
 20
209.693153555044
 30
0.0
 40
3.0
  1
%%C１５６（目皿受外径）
 50
30.29999981864594
 41
0.8440126077968535
100
AcDbText
  0
POINT
  5
4A
330
43
100
AcDbEntity
  8
DEFPOINTS
  6
Continuous
 62
     7
100
AcDbPoint
 10
-350.3683471679688
 20
120.7836685180664
 30
0.0
  0
POINT
  5
4B
330
43
100
AcDbEntity
  8
DEFPOINTS
  6
Continuous
 62
     7
100
AcDbPoint
 10
-215.6719055175781
 20
199.4784545898438
 30
0.0
  0
ENDBLK
  5
4C
330
43
100
AcDbEntity
  8
0
100
AcDbBlockEnd
  0
BLOCK
  5
4E
330
4D
100
AcDbEntity
  8
0
100
AcDbBlockBegin
  2
*D3
 70
     1
 10
0.0
 20
0.0
 30
0.0
  3
*D3
  1

  0
LINE
  5
4F
330
4D
100
AcDbEntity
  8
0
  6
Continuous
 62
     7
100
AcDbLine
 10
-143.1461944580078
 20
258.4728698730469
 30
0.0
 11
-96.14618682861328
 21
258.4728698730469
 31
0.0
  0
INSERT
  5
50
330
4D
100
AcDbEntity
  8
0
  6
Continuous
 62
     7
100
AcDbBlockReference
  2
_OPEN30
 10
-146.1461944580078
 20
258.4728698730469
 30
0.0
 50
180.0000000000004
  0
INSERT
  5
51
330
4D
100
AcDbEntity
  8
0
  6
Continuous
 62
     7
100
AcDbBlockReference
  2
_OPEN30
 10
-93.14618682861327
 20
258.4728698730469
 30
0.0
  0
LINE
  5
52
330
4D
100
AcDbEntity
  8
0
  6
Continuous
 62
     7
100
AcDbLine
 10
-146.1461944580078
 20
240.1710577392578
 30
0.0
 11
-146.1461944580078
 21
260.7588806152344
 31
0.0
  0
LINE
  5
53
330
4D
100
AcDbEntity
  8
0
  6
Continuous
 62
     7
100
AcDbLine
 10
-93.14618682861329
 20
203.1710577392578
 30
0.0
 11
-93.14618682861327
 21
260.7588806152344
 31
0.0
  0
TEXT
  5
54
330
4D
100
AcDbEntity
  8
0
  6
Continuous
 62
     7
100
AcDbText
 10
-122.21618694067
 20
259.2228698730469
 30
0.0
 40
3.0
  1
53
 41
1.028000020980834
100
AcDbText
  0
POINT
  5
55
330
4D
100
AcDbEntity
  8
DEFPOINTS
  6
Continuous
 62
     7
100
AcDbPoint
 10
-146.1461944580078
 20
237.6310577392578
 30
0.0
  0
POINT
  5
56
330
4D
100
AcDbEntity
  8
DEFPOINTS
  6
Continuous
 62
     7
100
AcDbPoint
 10
-93.14618682861327
 20
200.6310577392578
 30
0.0
  0
POINT
  5
57
330
4D
100
AcDbEntity
  8
DEFPOINTS
  6
Continuous
 62
     7
100
AcDbPoint
 10
-93.14618682861327
 20
258.4728698730469
 30
0.0
  0
ENDBLK
  5
58
330
4D
100
AcDbEntity
  8
0
100
AcDbBlockEnd
  0
BLOCK
  5
5A
330
59
100
AcDbEntity
  8
0
100
AcDbBlockBegin
  2
KOZU0001
 70
     0
 10
0.0
 20
0.0
 30
0.0
  3
KOZU0001
  1

  0
LINE
  5
5B
330
59
100
AcDbEntity
  8
0
  6
Continuous
 62
     7
100
AcDbLine
 10
0.0
 20
0.0
 30
0.0
 11
15.92188262939453
 21
-15.27778625488281
 31
0.0
  0
LINE
  5
5C
330
59
100
AcDbEntity
  8
0
  6
Continuous
 62
     7
100
AcDbLine
 10
15.92188262939453
 20
-15.27778625488281
 30
0.0
 11
56.14952087402343
 21
-15.27778625488281
 31
0.0
  0
LINE
  5
5D
330
59
100
AcDbEntity
  8
0
  6
Continuous
 62
     7
100
AcDbLine
 10
0.0
 20
0.0
 30
0.0
 11
2.857013873001058
 21
-1.355533743393903
 31
0.0
  0
LINE
  5
5E
330
59
100
AcDbEntity
  8
0
  6
Continuous
 62
     7
100
AcDbLine
 10
0.0
 20
0.0
 30
0.0
 11
1.472290852364504
 21
-2.798635318515759
 31
0.0
  0
TEXT
  5
5F
330
59
100
AcDbEntity
  8
0
  6
Continuous
 62
     7
100
AcDbText
 10
19.28951954841614
 20
-14.52778625488281
 30
0.0
 40
3.0
  1
配管接続口
 41
0.8487395020950888
100
AcDbText
  0
TEXT
  5
60
330
59
100
AcDbEntity
  8
0
  6
Continuous
 62
     7
100
AcDbText
 10
19.28951954841614
 20
-19.7927862548828
 30
0.0
 40
3.0
  1
Ｒｃ２　１／２（６５Ａ）
 41
0.8436974815103043
100
AcDbText
  0
ENDBLK
  5
61
330
59
100
AcDbEntity
  8
0
100
AcDbBlockEnd
  0
ENDSEC
  0
SECTION
  2
ENTITIES
  0
LINE
  5
62
330
22
100
AcDbEntity
  8
0
  6
Continuous
 62
     7
100
AcDbLine
 10
-116.7187194824219
 20
201.6310577392578
 30
0.0
 11
-112.2225570678711
 21
197.1348876953125
 31
0.0
  0
LINE
  5
63
330
22
100
AcDbEntity
  8
0
  6
Continuous
 62
     7
100
AcDbLine
 10
-108.2334442138672
 20
201.6310577392578
 30
0.0
 11
-103.9944152832031
 21
197.3920288085938
 31
0.0
  0
LINE
  5
64
330
22
100
AcDbEntity
  8
0
  6
Continuous
 62
     7
100
AcDbLine
 10
-140.1461944580078
 20
225.0585174560547
 30
0.0
 11
-138.2187194824219
 21
223.1310577392578
 31
0.0
  0
LINE
  5
65
330
22
100
AcDbEntity
  8
0
  6
Continuous
 62
     7
100
AcDbLine
 10
-146.1461944580078
 20
231.0585174560547
 30
0.0
 11
-141.2187194824219
 21
226.1310577392578
 31
0.0
  0
LINE
  5
66
330
22
100
AcDbEntity
  8
0
  6
Continuous
 62
     7
100
AcDbLine
 10
-144.0263366699219
 20
238.1310577392578
 30
0.0
 11
-142.6461944580078
 21
236.7509155273438
 31
0.0
  0
LINE
  5
67
330
22
100
AcDbEntity
  8
0
  6
Continuous
 62
     7
100
AcDbLine
 10
-146.1461944580078
 20
228.9372100830078
 30
0.0
 11
-142.9400482177734
 21
225.7310638427734
 31
0.0
  0
LINE
  5
68
330
22
100
AcDbEntity
  8
0
  6
Continuous
 62
     7
100
AcDbLine
 10
-136.0263366699219
 20
230.1310577392578
 30
0.0
 11
-130.6296844482422
 21
224.7344207763672
 31
0.0
  0
LINE
  5
69
330
22
100
AcDbEntity
  8
0
  6
Continuous
 62
     7
100
AcDbLine
 10
-107.5263366699219
 20
201.6310577392578
 30
0.0
 11
-103.3087387084961
 21
197.4134674072266
 31
0.0
  0
LINE
  5
6A
330
22
100
AcDbEntity
  8
0
  6
Continuous
 62
     7
100
AcDbLine
 10
-133.3744659423828
 20
229.6005096435547
 30
0.0
 11
-132.5796813964844
 21
228.8057250976563
 31
0.0
  0
LINE
  5
6B
330
22
100
AcDbEntity
  8
0
  6
Continuous
 62
     7
100
AcDbLine
 10
-105.4050140380859
 20
201.6310577392578
 30
0.0
 11
-101.2517013549805
 21
197.4777526855469
 31
0.0
  0
LINE
  5
6C
330
22
100
AcDbEntity
  8
0
  6
Continuous
 62
     7
100
AcDbLine
 10
-104.6979064941406
 20
201.6310577392578
 30
0.0
 11
-100.5660247802734
 21
197.4991760253906
 31
0.0
  0
LINE
  5
6D
330
22
100
AcDbEntity
  8
0
  6
Continuous
 62
     7
100
AcDbLine
 10
-102.5765838623047
 20
201.6310577392578
 30
0.0
 11
-98.50898742675781
 21
197.5634613037109
 31
0.0
  0
LINE
  5
6E
330
22
100
AcDbEntity
  8
0
  6
Continuous
 62
     7
100
AcDbLine
 10
-101.8694763183594
 20
201.6310577392578
 30
0.0
 11
-97.82331085205079
 21
197.5848846435546
 31
0.0
  0
LINE
  5
6F
330
22
100
AcDbEntity
  8
0
  6
Continuous
 62
     7
100
AcDbLine
 10
-99.74816131591795
 20
201.6310577392578
 30
0.0
 11
-95.76628112792969
 21
197.6491851806641
 31
0.0
  0
LINE
  5
70
330
22
100
AcDbEntity
  8
0
  6
Continuous
 62
     7
100
AcDbLine
 10
-99.04105377197266
 20
201.6310577392578
 30
0.0
 11
-95.08059692382813
 21
197.6706085205078
 31
0.0
  0
LINE
  5
71
330
22
100
AcDbEntity
  8
0
  6
Continuous
 62
     7
100
AcDbLine
 10
-273.0322265625
 20
154.1108703613281
 30
0.0
 11
-236.7834167480469
 21
127.7745742797852
 31
0.0
  0
LINE
  5
72
330
22
100
AcDbEntity
  8
0
  6
Continuous
 62
     7
100
AcDbLine
 10
-96.91973114013672
 20
201.6310577392578
 30
0.0
 11
-93.14618682861327
 21
197.8575134277344
 31
0.0
  0
LINE
  5
73
330
22
100
AcDbEntity
  8
0
  6
Continuous
 62
     7
100
AcDbLine
 10
-96.21262359619141
 20
201.6310577392578
 30
0.0
 11
-93.14618682861327
 21
198.5646209716797
 31
0.0
  0
LINE
  5
74
330
22
100
AcDbEntity
  8
0
  6
Continuous
 62
     7
100
AcDbLine
 10
-132.3384704589844
 20
91.86320495605469
 30
0.0
 11
-120.9333724975586
 21
116.321533203125
 31
0.0
  0
LINE
  5
75
330
22
100
AcDbEntity
  8
0
  6
Continuous
 62
     7
100
AcDbLine
 10
-146.1461944580078
 20
82.63105773925781
 30
0.0
 11
-146.1461944580078
 21
160.1310577392578
 31
0.0
  0
LINE
  5
76
330
22
100
AcDbEntity
  8
0
  6
Continuous
 62
     7
100
AcDbLine
 10
-133.2185974121094
 20
220.821533203125
 30
0.0
 11
-121.041862487793
 21
194.7084350585938
 31
0.0
  0
LINE
  5
77
330
22
100
AcDbEntity
  8
0
  6
Continuous
 62
     7
100
AcDbLine
 10
-132.3384704589844
 20
228.3989105224609
 30
0.0
 11
-120.9333724975586
 21
203.9405822753906
 31
0.0
  0
LINE
  5
78
330
22
100
AcDbEntity
  8
0
  6
Continuous
 62
     7
100
AcDbLine
 10
-142.6461944580078
 20
82.63105773925781
 30
0.0
 11
-143.1461944580078
 21
82.1310577392578
 31
0.0
  0
LINE
  5
79
330
22
100
AcDbEntity
  8
0
  6
Continuous
 62
     7
100
AcDbLine
 10
-93.14618682861327
 20
132.5365447998047
 30
0.0
 11
-118.6101455688477
 21
132.5365447998047
 31
0.0
  0
LINE
  5
7A
330
22
100
AcDbEntity
  8
0
  6
Continuous
 62
     7
100
AcDbLine
 10
-117.209716796875
 20
132.5365447998047
 30
0.0
 11
-117.209716796875
 21
160.1310577392578
 31
0.0
  0
LINE
  5
7B
330
22
100
AcDbEntity
  8
0
  6
Continuous
 62
     7
100
AcDbLine
 10
-120.459716796875
 20
118.8246307373047
 30
0.0
 11
-120.459716796875
 21
160.1310577392578
 31
0.0
  0
LINE
  5
7C
330
22
100
AcDbEntity
  8
0
  6
Continuous
 62
     7
100
AcDbLine
 10
-93.14618682861327
 20
119.6310577392578
 30
0.0
 11
-93.14618682861327
 21
160.1310577392578
 31
0.0
  0
LINE
  5
7D
330
22
100
AcDbEntity
  8
0
  6
Continuous
 62
     7
100
AcDbLine
 10
-146.1461944580078
 20
225.1310577392578
 30
0.0
 11
-145.5461883544922
 21
225.7310638427734
 31
0.0
  0
LINE
  5
7E
330
22
100
AcDbEntity
  8
0
  6
Continuous
 62
     7
100
AcDbLine
 10
-140.1461944580078
 20
225.1310577392578
 30
0.0
 11
-140.7461853027344
 21
225.7310638427734
 31
0.0
  0
LINE
  5
7F
330
22
100
AcDbEntity
  8
0
  6
Continuous
 62
     7
100
AcDbLine
 10
-143.6461944580078
 20
212.0668029785156
 30
0.0
 11
-142.5554046630859
 21
213.1405487060547
 31
0.0
  0
LINE
  5
80
330
22
100
AcDbEntity
  8
0
  6
Continuous
 62
     7
100
AcDbLine
 10
-146.1461944580078
 20
220.0668029785156
 30
0.0
 11
-146.1461944580078
 21
237.6310577392578
 31
0.0
  0
LINE
  5
81
330
22
100
AcDbEntity
  8
0
  6
Continuous
 62
     7
100
AcDbLine
 10
-140.1461944580078
 20
223.1310577392578
 30
0.0
 11
-140.1461944580078
 21
217.5668029785156
 31
0.0
  0
LINE
  5
82
330
22
100
AcDbEntity
  8
0
  6
Continuous
 62
     7
100
AcDbLine
 10
-143.1461944580078
 20
223.1310577392578
 30
0.0
 11
-143.1461944580078
 21
217.5668029785156
 31
0.0
  0
LINE
  5
83
330
22
100
AcDbEntity
  8
0
  6
Continuous
 62
     7
100
AcDbLine
 10
-135.0574035644531
 20
90.13105773925779
 30
0.0
 11
-140.6461944580078
 21
90.13105773925779
 31
0.0
  0
LINE
  5
84
330
22
100
AcDbEntity
  8
0
  6
Continuous
 62
     7
100
AcDbLine
 10
-142.6461944580078
 20
88.13105773925782
 30
0.0
 11
-142.6461944580078
 21
82.63105773925781
 31
0.0
  0
LINE
  5
85
330
22
100
AcDbEntity
  8
0
  6
Continuous
 62
     7
100
AcDbLine
 10
-145.6461944580078
 20
82.1310577392578
 30
0.0
 11
-143.1461944580078
 21
82.1310577392578
 31
0.0
  0
LINE
  5
86
330
22
100
AcDbEntity
  8
0
  6
Continuous
 62
     7
100
AcDbLine
 10
-145.6461944580078
 20
82.1310577392578
 30
0.0
 11
-146.1461944580078
 21
82.63105773925781
 31
0.0
  0
LINE
  5
87
330
22
100
AcDbEntity
  8
0
  6
Continuous
 62
     7
100
AcDbLine
 10
-142.1461944580078
 20
225.7310638427734
 30
0.0
 11
-140.7461853027344
 21
225.7310638427734
 31
0.0
  0
LINE
  5
88
330
22
100
AcDbEntity
  8
0
  6
Continuous
 62
     7
100
AcDbLine
 10
-146.1461944580078
 20
237.6310577392578
 30
0.0
 11
-145.6461944580078
 21
238.1310577392578
 31
0.0
  0
LINE
  5
89
330
22
100
AcDbEntity
  8
0
  6
Continuous
 62
     7
100
AcDbLine
 10
-140.1461944580078
 20
226.1310577392578
 30
0.0
 11
-142.1461944580078
 21
226.1310577392578
 31
0.0
  0
LINE
  5
8A
330
22
100
AcDbEntity
  8
0
  6
Continuous
 62
     7
100
AcDbLine
 10
-143.6461944580078
 20
217.5668029785156
 30
0.0
 11
-137.1611175537109
 21
217.5668029785156
 31
0.0
  0
LINE
  5
8B
330
22
100
AcDbEntity
  8
0
  6
Continuous
 62
     7
100
AcDbLine
 10
-143.6461944580078
 20
212.0668029785156
 30
0.0
 11
-137.1611175537109
 21
212.0668029785156
 31
0.0
  0
LINE
  5
8C
330
22
100
AcDbEntity
  8
0
  6
Continuous
 62
     7
100
AcDbLine
 10
-137.1611175537109
 20
217.5668029785156
 30
0.0
 11
-136.0703430175781
 21
216.4930725097656
 31
0.0
  0
LINE
  5
8D
330
22
100
AcDbEntity
  8
0
  6
Continuous
 62
     7
100
AcDbLine
 10
-136.0703430175781
 20
216.4930725097656
 30
0.0
 11
-136.0703430175781
 21
213.1405487060547
 31
0.0
  0
LINE
  5
8E
330
22
100
AcDbEntity
  8
0
  6
Continuous
 62
     7
100
AcDbLine
 10
-142.5554046630859
 20
213.1405487060547
 30
0.0
 11
-136.0703430175781
 21
213.1405487060547
 31
0.0
  0
LINE
  5
8F
330
22
100
AcDbEntity
  8
0
  6
Continuous
 62
     7
100
AcDbLine
 10
-137.1611175537109
 20
212.0668029785156
 30
0.0
 11
-136.0703430175781
 21
213.1405487060547
 31
0.0
  0
LINE
  5
90
330
22
100
AcDbEntity
  8
0
  6
CENTER
 62
     7
100
AcDbLine
 10
-151.3333435058594
 20
160.1310577392578
 30
0.0
 11
-88.37485504150391
 21
160.1310577392578
 31
0.0
  0
LINE
  5
91
330
22
100
AcDbEntity
  8
0
  6
Continuous
 62
     7
100
AcDbLine
 10
-135.0574035644531
 20
230.1310577392578
 30
0.0
 11
-140.6461944580078
 21
230.1310577392578
 31
0.0
  0
LINE
  5
92
330
22
100
AcDbEntity
  8
0
  6
Continuous
 62
     7
100
AcDbLine
 10
-140.1461944580078
 20
223.1310577392578
 30
0.0
 11
-136.8438262939453
 21
223.1310577392578
 31
0.0
  0
LINE
  5
93
330
22
100
AcDbEntity
  8
0
  6
Continuous
 62
     7
100
AcDbLine
 10
-142.1461944580078
 20
226.1310577392578
 30
0.0
 11
-142.1461944580078
 21
225.7310638427734
 31
0.0
  0
LINE
  5
94
330
22
100
AcDbEntity
  8
0
  6
Continuous
 62
     7
100
AcDbLine
 10
-142.1461944580078
 20
225.7310638427734
 30
0.0
 11
-142.7461853027344
 21
225.1310577392578
 31
0.0
  0
LINE
  5
95
330
22
100
AcDbEntity
  8
0
  6
Continuous
 62
     7
100
AcDbLine
 10
-146.1461944580078
 20
225.1310577392578
 30
0.0
 11
-140.1461944580078
 21
225.1310577392578
 31
0.0
  0
LINE
  5
96
330
22
100
AcDbEntity
  8
0
  6
Continuous
 62
     7
100
AcDbLine
 10
-143.1551055908203
 20
163.3522796630859
 30
0.0
 11
-143.1461944580078
 21
163.3612060546875
 31
0.0
  0
LINE
  5
97
330
22
100
AcDbEntity
  8
0
  6
Continuous
 62
     7
100
AcDbLine
 10
-144.8612823486328
 20
164.4745330810547
 30
0.0
 11
-143.1461944580078
 21
166.1896362304688
 31
0.0
  0
LINE
  5
98
330
22
100
AcDbEntity
  8
0
  6
Continuous
 62
     7
100
AcDbLine
 10
-146.1461944580078
 20
166.01806640625
 30
0.0
 11
-143.1461944580078
 21
169.01806640625
 31
0.0
  0
LINE
  5
99
330
22
100
AcDbEntity
  8
0
  6
Continuous
 62
     7
100
AcDbLine
 10
-146.1461944580078
 20
168.8464813232422
 30
0.0
 11
-143.1461944580078
 21
171.8464813232422
 31
0.0
  0
LINE
  5
9A
330
22
100
AcDbEntity
  8
0
  6
Continuous
 62
     7
100
AcDbLine
 10
-146.1461944580078
 20
171.6749114990234
 30
0.0
 11
-143.1461944580078
 21
174.6749114990234
 31
0.0
  0
LINE
  5
9B
330
22
100
AcDbEntity
  8
0
  6
Continuous
 62
     7
100
AcDbLine
 10
-146.1461944580078
 20
174.5033416748047
 30
0.0
 11
-143.1461944580078
 21
177.5033416748047
 31
0.0
  0
LINE
  5
9C
330
22
100
AcDbEntity
  8
0
  6
Continuous
 62
     7
100
AcDbLine
 10
-146.1461944580078
 20
177.3317718505859
 30
0.0
 11
-143.1461944580078
 21
180.3317718505859
 31
0.0
  0
LINE
  5
9D
330
22
100
AcDbEntity
  8
0
  6
Continuous
 62
     7
100
AcDbLine
 10
-146.1461944580078
 20
180.1602020263672
 30
0.0
 11
-143.1461944580078
 21
183.1602020263671
 31
0.0
  0
LINE
  5
9E
330
22
100
AcDbEntity
  8
0
  6
Continuous
 62
     7
100
AcDbLine
 10
-146.1461944580078
 20
182.9886169433594
 30
0.0
 11
-143.1461944580078
 21
185.9886169433594
 31
0.0
  0
LINE
  5
9F
330
22
100
AcDbEntity
  8
0
  6
Continuous
 62
     7
100
AcDbLine
 10
-146.1461944580078
 20
185.8170471191406
 30
0.0
 11
-143.1461944580078
 21
188.8170471191406
 31
0.0
  0
LINE
  5
A0
330
22
100
AcDbEntity
  8
0
  6
Continuous
 62
     7
100
AcDbLine
 10
-146.1461944580078
 20
188.6454772949219
 30
0.0
 11
-143.1461944580078
 21
191.6454772949219
 31
0.0
  0
LINE
  5
A1
330
22
100
AcDbEntity
  8
0
  6
Continuous
 62
     7
100
AcDbLine
 10
-146.1461944580078
 20
191.4739074707031
 30
0.0
 11
-143.1461944580078
 21
194.4739074707031
 31
0.0
  0
LINE
  5
A2
330
22
100
AcDbEntity
  8
0
  6
Continuous
 62
     7
100
AcDbLine
 10
-146.1461944580078
 20
194.3023376464844
 30
0.0
 11
-143.1461944580078
 21
197.3023376464844
 31
0.0
  0
LINE
  5
A3
330
22
100
AcDbEntity
  8
0
  6
Continuous
 62
     7
100
AcDbLine
 10
-146.1461944580078
 20
197.1307525634766
 30
0.0
 11
-143.1461944580078
 21
200.1307525634766
 31
0.0
  0
LINE
  5
A4
330
22
100
AcDbEntity
  8
0
  6
Continuous
 62
     7
100
AcDbLine
 10
-146.1461944580078
 20
199.9591827392578
 30
0.0
 11
-143.1461944580078
 21
202.9591827392578
 31
0.0
  0
LINE
  5
A5
330
22
100
AcDbEntity
  8
0
  6
Continuous
 62
     7
100
AcDbLine
 10
-146.1461944580078
 20
202.7876129150391
 30
0.0
 11
-143.1461944580078
 21
205.7876129150391
 31
0.0
  0
LINE
  5
A6
330
22
100
AcDbEntity
  8
0
  6
Continuous
 62
     7
100
AcDbLine
 10
-146.1461944580078
 20
205.6160430908203
 30
0.0
 11
-143.1461944580078
 21
208.6160430908203
 31
0.0
  0
LINE
  5
A7
330
22
100
AcDbEntity
  8
0
  6
Continuous
 62
     7
100
AcDbLine
 10
-146.1461944580078
 20
208.4444732666016
 30
0.0
 11
-143.1461944580078
 21
211.4444732666016
 31
0.0
  0
LINE
  5
A8
330
22
100
AcDbEntity
  8
0
  6
Continuous
 62
     7
100
AcDbLine
 10
-144.5776519775391
 20
218.4982757568359
 30
0.0
 11
-143.1461944580078
 21
219.9297485351563
 31
0.0
  0
LINE
  5
A9
330
22
100
AcDbEntity
  8
0
  6
Continuous
 62
     7
100
AcDbLine
 10
-145.9918670654297
 20
219.9124908447266
 30
0.0
 11
-143.1461944580078
 21
222.7581787109375
 31
0.0
  0
LINE
  5
AA
330
22
100
AcDbEntity
  8
0
  6
Continuous
 62
     7
100
AcDbLine
 10
-142.7733001708984
 20
223.1310577392578
 30
0.0
 11
-140.7733001708984
 21
225.1310577392578
 31
0.0
  0
LINE
  5
AB
330
22
100
AcDbEntity
  8
0
  6
Continuous
 62
     7
100
AcDbLine
 10
-146.1461944580078
 20
222.5866088867189
 30
0.0
 11
-143.6017303466797
 21
225.1310577392578
 31
0.0
  0
LINE
  5
AC
330
22
100
AcDbEntity
  8
0
  6
Continuous
 62
     7
100
AcDbLine
 10
-140.1461944580078
 20
212.0668029785156
 30
0.0
 11
-140.1461944580078
 21
163.3522796630859
 31
0.0
  0
LINE
  5
AD
330
22
100
AcDbEntity
  8
0
  6
Continuous
 62
     7
100
AcDbLine
 10
-143.1461944580078
 20
212.0668029785156
 30
0.0
 11
-143.1461944580078
 21
163.3522796630859
 31
0.0
  0
LINE
  5
AE
330
22
100
AcDbEntity
  8
0
  6
Continuous
 62
     7
100
AcDbLine
 10
-146.1461944580078
 20
160.1310577392578
 30
0.0
 11
-146.1461944580078
 21
209.5668029785156
 31
0.0
  0
LINE
  5
AF
330
22
100
AcDbEntity
  8
0
  6
Continuous
 62
     7
100
AcDbLine
 10
-140.1461944580078
 20
220.1601715087891
 30
0.0
 11
-142.1170806884766
 21
222.1310577392578
 31
0.0
  0
LINE
  5
B0
330
22
100
AcDbEntity
  8
0
  6
Continuous
 62
     7
100
AcDbLine
 10
-140.1461944580078
 20
218.1802673339844
 30
0.0
 11
-143.1461944580078
 21
221.1802673339844
 31
0.0
  0
LINE
  5
B1
330
22
100
AcDbEntity
  8
0
  6
Continuous
 62
     7
100
AcDbLine
 10
-141.5126342773438
 20
217.5668029785156
 30
0.0
 11
-143.1461944580078
 21
219.2003631591797
 31
0.0
  0
LINE
  5
B2
330
22
100
AcDbEntity
  8
0
  6
CENTER
 62
     7
100
AcDbLine
 10
-367.8637084960938
 20
160.1310577392578
 30
0.0
 11
-198.9205627441406
 21
160.1310577392578
 31
0.0
  0
LINE
  5
B3
330
22
100
AcDbEntity
  8
0
  6
Continuous
 62
     7
100
AcDbLine
 10
-140.1461944580078
 20
210.2606658935547
 30
0.0
 11
-141.9523315429688
 21
212.0668029785156
 31
0.0
  0
LINE
  5
B4
330
22
100
AcDbEntity
  8
0
  6
Continuous
 62
     7
100
AcDbLine
 10
-140.1461944580078
 20
208.2807769775391
 30
0.0
 11
-143.1461944580078
 21
211.2807769775391
 31
0.0
  0
LINE
  5
B5
330
22
100
AcDbEntity
  8
0
  6
Continuous
 62
     7
100
AcDbLine
 10
-140.1461944580078
 20
206.3008728027344
 30
0.0
 11
-143.1461944580078
 21
209.3008728027344
 31
0.0
  0
LINE
  5
B6
330
22
100
AcDbEntity
  8
0
  6
Continuous
 62
     7
100
AcDbLine
 10
-140.1461944580078
 20
204.3209686279297
 30
0.0
 11
-143.1461944580078
 21
207.3209686279297
 31
0.0
  0
LINE
  5
B7
330
22
100
AcDbEntity
  8
0
  6
Continuous
 62
     7
100
AcDbLine
 10
-140.1461944580078
 20
202.3410797119141
 30
0.0
 11
-143.1461944580078
 21
205.3410797119141
 31
0.0
  0
LINE
  5
B8
330
22
100
AcDbEntity
  8
0
  6
Continuous
 62
     7
100
AcDbLine
 10
-140.1461944580078
 20
200.3611755371094
 30
0.0
 11
-143.1461944580078
 21
203.3611755371094
 31
0.0
  0
LINE
  5
B9
330
22
100
AcDbEntity
  8
0
  6
Continuous
 62
     7
100
AcDbLine
 10
-140.1461944580078
 20
198.3812713623047
 30
0.0
 11
-143.1461944580078
 21
201.3812713623047
 31
0.0
  0
LINE
  5
BA
330
22
100
AcDbEntity
  8
0
  6
Continuous
 62
     7
100
AcDbLine
 10
-140.1461944580078
 20
196.4013824462891
 30
0.0
 11
-143.1461944580078
 21
199.4013824462891
 31
0.0
  0
LINE
  5
BB
330
22
100
AcDbEntity
  8
0
  6
Continuous
 62
     7
100
AcDbLine
 10
-140.1461944580078
 20
194.4214782714844
 30
0.0
 11
-143.1461944580078
 21
197.4214782714844
 31
0.0
  0
LINE
  5
BC
330
22
100
AcDbEntity
  8
0
  6
Continuous
 62
     7
100
AcDbLine
 10
-140.1461944580078
 20
192.4415740966797
 30
0.0
 11
-143.1461944580078
 21
195.4415740966797
 31
0.0
  0
LINE
  5
BD
330
22
100
AcDbEntity
  8
0
  6
Continuous
 62
     7
100
AcDbLine
 10
-140.1461944580078
 20
190.4616851806641
 30
0.0
 11
-143.1461944580078
 21
193.4616851806641
 31
0.0
  0
LINE
  5
BE
330
22
100
AcDbEntity
  8
0
  6
Continuous
 62
     7
100
AcDbLine
 10
-140.1461944580078
 20
188.4817810058594
 30
0.0
 11
-143.1461944580078
 21
191.4817810058594
 31
0.0
  0
LINE
  5
BF
330
22
100
AcDbEntity
  8
0
  6
Continuous
 62
     7
100
AcDbLine
 10
-140.1461944580078
 20
186.5018768310546
 30
0.0
 11
-143.1461944580078
 21
189.5018768310547
 31
0.0
  0
LINE
  5
C0
330
22
100
AcDbEntity
  8
0
  6
Continuous
 62
     7
100
AcDbLine
 10
-140.1461944580078
 20
184.5219879150391
 30
0.0
 11
-143.1461944580078
 21
187.5219879150391
 31
0.0
  0
LINE
  5
C1
330
22
100
AcDbEntity
  8
0
  6
Continuous
 62
     7
100
AcDbLine
 10
-140.1461944580078
 20
182.5420837402344
 30
0.0
 11
-143.1461944580078
 21
185.5420837402344
 31
0.0
  0
LINE
  5
C2
330
22
100
AcDbEntity
  8
0
  6
Continuous
 62
     7
100
AcDbLine
 10
-140.1461944580078
 20
180.5621795654296
 30
0.0
 11
-143.1461944580078
 21
183.5621795654297
 31
0.0
  0
LINE
  5
C3
330
22
100
AcDbEntity
  8
0
  6
Continuous
 62
     7
100
AcDbLine
 10
-140.1461944580078
 20
178.5822906494141
 30
0.0
 11
-143.1461944580078
 21
181.5822906494141
 31
0.0
  0
LINE
  5
C4
330
22
100
AcDbEntity
  8
0
  6
Continuous
 62
     7
100
AcDbLine
 10
-140.1461944580078
 20
176.6023864746094
 30
0.0
 11
-143.1461944580078
 21
179.6023864746094
 31
0.0
  0
LINE
  5
C5
330
22
100
AcDbEntity
  8
0
  6
Continuous
 62
     7
100
AcDbLine
 10
-140.1461944580078
 20
174.6224975585938
 30
0.0
 11
-143.1461944580078
 21
177.6224975585938
 31
0.0
  0
LINE
  5
C6
330
22
100
AcDbEntity
  8
0
  6
Continuous
 62
     7
100
AcDbLine
 10
-140.1461944580078
 20
172.6425933837891
 30
0.0
 11
-143.1461944580078
 21
175.6425933837891
 31
0.0
  0
LINE
  5
C7
330
22
100
AcDbEntity
  8
0
  6
Continuous
 62
     7
100
AcDbLine
 10
-140.1461944580078
 20
170.6626892089844
 30
0.0
 11
-143.1461944580078
 21
173.6626892089844
 31
0.0
  0
LINE
  5
C8
330
22
100
AcDbEntity
  8
0
  6
Continuous
 62
     7
100
AcDbLine
 10
-140.1461944580078
 20
168.6828002929688
 30
0.0
 11
-143.1461944580078
 21
171.6828002929688
 31
0.0
  0
LINE
  5
C9
330
22
100
AcDbEntity
  8
0
  6
Continuous
 62
     7
100
AcDbLine
 10
-140.1461944580078
 20
166.7028961181641
 30
0.0
 11
-143.1461944580078
 21
169.7028961181641
 31
0.0
  0
LINE
  5
CA
330
22
100
AcDbEntity
  8
0
  6
Continuous
 62
     7
100
AcDbLine
 10
-140.1461944580078
 20
164.7229919433594
 30
0.0
 11
-143.1461944580078
 21
167.7229919433594
 31
0.0
  0
LINE
  5
CB
330
22
100
AcDbEntity
  8
0
  6
Continuous
 62
     7
100
AcDbLine
 10
-140.75537109375
 20
163.3522796630859
 30
0.0
 11
-143.1461944580078
 21
165.7431030273438
 31
0.0
  0
LINE
  5
CC
330
22
100
AcDbEntity
  8
0
  6
Continuous
 62
     7
100
AcDbLine
 10
-142.7352752685547
 20
163.3522796630859
 30
0.0
 11
-143.1461944580078
 21
163.7631988525391
 31
0.0
  0
LINE
  5
CD
330
22
100
AcDbEntity
  8
0
  6
Continuous
 62
     7
100
AcDbLine
 10
-140.3229827880859
 20
163.3522796630859
 30
0.0
 11
-140.1461944580078
 21
163.5290832519531
 31
0.0
  0
LINE
  5
CE
330
22
100
AcDbEntity
  8
0
  6
Continuous
 62
     7
100
AcDbLine
 10
-142.3028869628906
 20
163.3522796630859
 30
0.0
 11
-140.1461944580078
 21
165.5089721679688
 31
0.0
  0
LINE
  5
CF
330
22
100
AcDbEntity
  8
0
  6
Continuous
 62
     7
100
AcDbLine
 10
-143.1461944580078
 20
164.4888763427734
 30
0.0
 11
-140.1461944580078
 21
167.4888763427734
 31
0.0
  0
LINE
  5
D0
330
22
100
AcDbEntity
  8
0
  6
Continuous
 62
     7
100
AcDbLine
 10
-143.1461944580078
 20
166.4687805175781
 30
0.0
 11
-140.1461944580078
 21
169.4687805175781
 31
0.0
  0
LINE
  5
D1
330
22
100
AcDbEntity
  8
0
  6
Continuous
 62
     7
100
AcDbLine
 10
-143.1461944580078
 20
168.4486694335938
 30
0.0
 11
-140.1461944580078
 21
171.4486694335938
 31
0.0
  0
LINE
  5
D2
330
22
100
AcDbEntity
  8
0
  6
Continuous
 62
     7
100
AcDbLine
 10
-143.1461944580078
 20
170.4285736083984
 30
0.0
 11
-140.1461944580078
 21
173.4285736083984
 31
0.0
  0
LINE
  5
D3
330
22
100
AcDbEntity
  8
0
  6
CENTER
 62
     7
100
AcDbLine
 10
-282.8760375976563
 20
241.5910949707031
 30
0.0
 11
-282.8760375976563
 21
78.03517150878906
 31
0.0
  0
LINE
  5
D4
330
22
100
AcDbEntity
  8
0
  6
Continuous
 62
     7
100
AcDbLine
 10
-143.1461944580078
 20
172.4084777832031
 30
0.0
 11
-140.1461944580078
 21
175.4084777832031
 31
0.0
  0
LINE
  5
D5
330
22
100
AcDbEntity
  8
0
  6
Continuous
 62
     7
100
AcDbLine
 10
-143.1461944580078
 20
174.3883666992188
 30
0.0
 11
-140.1461944580078
 21
177.3883666992188
 31
0.0
  0
LINE
  5
D6
330
22
100
AcDbEntity
  8
0
  6
Continuous
 62
     7
100
AcDbLine
 10
-143.1461944580078
 20
176.3682708740234
 30
0.0
 11
-140.1461944580078
 21
179.3682708740234
 31
0.0
  0
LINE
  5
D7
330
22
100
AcDbEntity
  8
0
  6
Continuous
 62
     7
100
AcDbLine
 10
-143.1461944580078
 20
178.3481750488281
 30
0.0
 11
-140.1461944580078
 21
181.3481750488281
 31
0.0
  0
LINE
  5
D8
330
22
100
AcDbEntity
  8
0
  6
Continuous
 62
     7
100
AcDbLine
 10
-143.1461944580078
 20
180.3280639648438
 30
0.0
 11
-140.1461944580078
 21
183.3280639648438
 31
0.0
  0
LINE
  5
D9
330
22
100
AcDbEntity
  8
0
  6
Continuous
 62
     7
100
AcDbLine
 10
-143.1461944580078
 20
182.3079681396484
 30
0.0
 11
-140.1461944580078
 21
185.3079681396484
 31
0.0
  0
LINE
  5
DA
330
22
100
AcDbEntity
  8
0
  6
Continuous
 62
     7
100
AcDbLine
 10
-143.1461944580078
 20
184.2878723144531
 30
0.0
 11
-140.1461944580078
 21
187.2878723144531
 31
0.0
  0
LINE
  5
DB
330
22
100
AcDbEntity
  8
0
  6
Continuous
 62
     7
100
AcDbLine
 10
-143.1461944580078
 20
186.2677612304688
 30
0.0
 11
-140.1461944580078
 21
189.2677612304688
 31
0.0
  0
LINE
  5
DC
330
22
100
AcDbEntity
  8
0
  6
Continuous
 62
     7
100
AcDbLine
 10
-143.1461944580078
 20
188.2476654052734
 30
0.0
 11
-140.1461944580078
 21
191.2476654052734
 31
0.0
  0
LINE
  5
DD
330
22
100
AcDbEntity
  8
0
  6
Continuous
 62
     7
100
AcDbLine
 10
-143.1461944580078
 20
190.2275695800781
 30
0.0
 11
-140.1461944580078
 21
193.2275695800781
 31
0.0
  0
LINE
  5
DE
330
22
100
AcDbEntity
  8
0
  6
Continuous
 62
     7
100
AcDbLine
 10
-143.1461944580078
 20
192.2074584960938
 30
0.0
 11
-140.1461944580078
 21
195.2074584960938
 31
0.0
  0
LINE
  5
DF
330
22
100
AcDbEntity
  8
0
  6
Continuous
 62
     7
100
AcDbLine
 10
-143.1461944580078
 20
194.1873626708984
 30
0.0
 11
-140.1461944580078
 21
197.1873626708984
 31
0.0
  0
LINE
  5
E0
330
22
100
AcDbEntity
  8
0
  6
Continuous
 62
     7
100
AcDbLine
 10
-143.1461944580078
 20
196.1672668457031
 30
0.0
 11
-140.1461944580078
 21
199.1672668457031
 31
0.0
  0
LINE
  5
E1
330
22
100
AcDbEntity
  8
0
  6
Continuous
 62
     7
100
AcDbLine
 10
-143.1461944580078
 20
198.1471557617188
 30
0.0
 11
-140.1461944580078
 21
201.1471557617188
 31
0.0
  0
LINE
  5
E2
330
22
100
AcDbEntity
  8
0
  6
Continuous
 62
     7
100
AcDbLine
 10
-143.1461944580078
 20
200.1270599365234
 30
0.0
 11
-140.1461944580078
 21
203.1270599365234
 31
0.0
  0
LINE
  5
E3
330
22
100
AcDbEntity
  8
0
  6
Continuous
 62
     7
100
AcDbLine
 10
-143.1461944580078
 20
202.1069641113281
 30
0.0
 11
-140.1461944580078
 21
205.1069641113281
 31
0.0
  0
LINE
  5
E4
330
22
100
AcDbEntity
  8
0
  6
Continuous
 62
     7
100
AcDbLine
 10
-143.1461944580078
 20
204.0868530273438
 30
0.0
 11
-140.1461944580078
 21
207.0868530273438
 31
0.0
  0
LINE
  5
E5
330
22
100
AcDbEntity
  8
0
  6
Continuous
 62
     7
100
AcDbLine
 10
-143.1461944580078
 20
206.0667572021484
 30
0.0
 11
-140.1461944580078
 21
209.0667572021484
 31
0.0
  0
LINE
  5
E6
330
22
100
AcDbEntity
  8
0
  6
Continuous
 62
     7
100
AcDbLine
 10
-143.1461944580078
 20
208.0466613769531
 30
0.0
 11
-140.1461944580078
 21
211.0466613769531
 31
0.0
  0
LINE
  5
E7
330
22
100
AcDbEntity
  8
0
  6
Continuous
 62
     7
100
AcDbLine
 10
-143.1461944580078
 20
210.0265502929688
 30
0.0
 11
-141.1059265136719
 21
212.0668029785156
 31
0.0
  0
LINE
  5
E8
330
22
100
AcDbEntity
  8
0
  6
Continuous
 62
     7
100
AcDbLine
 10
-143.1461944580078
 20
212.0064544677734
 30
0.0
 11
-143.0858306884766
 21
212.0668029785156
 31
0.0
  0
LINE
  5
E9
330
22
100
AcDbEntity
  8
0
  6
Continuous
 62
     7
100
AcDbLine
 10
-141.5456237792969
 20
217.5668029785156
 30
0.0
 11
-140.1461944580078
 21
218.9662475585938
 31
0.0
  0
LINE
  5
EA
330
22
100
AcDbEntity
  8
0
  6
Continuous
 62
     7
100
AcDbLine
 10
-143.1461944580078
 20
217.9461517333984
 30
0.0
 11
-140.1461944580078
 21
220.9461517333984
 31
0.0
  0
LINE
  5
EB
330
22
100
AcDbEntity
  8
0
  6
Continuous
 62
     7
100
AcDbLine
 10
-143.1461944580078
 20
219.9260559082031
 30
0.0
 11
-140.9411773681641
 21
222.1310577392578
 31
0.0
  0
LINE
  5
EC
330
22
100
AcDbEntity
  8
0
  6
Continuous
 62
     7
100
AcDbLine
 10
-143.1461944580078
 20
221.9059448242188
 30
0.0
 11
-142.9210815429688
 21
222.1310577392578
 31
0.0
  0
LINE
  5
ED
330
22
100
AcDbEntity
  8
0
  6
Continuous
 62
     7
100
AcDbLine
 10
-136.1453704833984
 20
162.2785491943359
 30
0.0
 11
-136.1453704833984
 21
160.1310577392578
 31
0.0
  0
LINE
  5
EE
330
22
100
AcDbEntity
  8
0
  6
Continuous
 62
     7
100
AcDbLine
 10
-142.6304473876953
 20
162.2785491943359
 30
0.0
 11
-136.1453704833984
 21
162.2785491943359
 31
0.0
  0
LINE
  5
EF
330
22
100
AcDbEntity
  8
0
  6
Continuous
 62
     7
100
AcDbLine
 10
-140.1461944580078
 20
223.1310577392578
 30
0.0
 11
-143.1461944580078
 21
223.1310577392578
 31
0.0
  0
LINE
  5
F0
330
22
100
AcDbEntity
  8
0
  6
Continuous
 62
     7
100
AcDbLine
 10
-140.1461944580078
 20
222.1310577392578
 30
0.0
 11
-143.1461944580078
 21
222.1310577392578
 31
0.0
  0
LINE
  5
F1
330
22
100
AcDbEntity
  8
0
  6
Continuous
 62
     7
100
AcDbLine
 10
-143.7212219238281
 20
163.3522796630859
 30
0.0
 11
-137.2361602783203
 21
163.3522796630859
 31
0.0
  0
LINE
  5
F2
330
22
100
AcDbEntity
  8
0
  6
Continuous
 62
     7
100
AcDbLine
 10
-137.2361602783203
 20
163.3522796630859
 30
0.0
 11
-136.1453704833984
 21
162.2785491943359
 31
0.0
  0
LINE
  5
F3
330
22
100
AcDbEntity
  8
0
  6
Continuous
 62
     7
100
AcDbLine
 10
-142.5554046630859
 20
216.4930725097656
 30
0.0
 11
-136.0703430175781
 21
216.4930725097656
 31
0.0
  0
LINE
  5
F4
330
22
100
AcDbEntity
  8
0
  6
Continuous
 62
     7
100
AcDbLine
 10
-146.1461944580078
 20
225.7310638427734
 30
0.0
 11
-145.5461883544922
 21
225.1310577392578
 31
0.0
  0
LINE
  5
F5
330
22
100
AcDbEntity
  8
0
  6
PHANTOM
 62
     7
100
AcDbLine
 10
-145.5461883544922
 20
225.1310577392578
 30
0.0
 11
-142.7461853027344
 21
225.1310577392578
 31
0.0
  0
LINE
  5
F6
330
22
100
AcDbEntity
  8
0
  6
Continuous
 62
     7
100
AcDbLine
 10
-140.1461944580078
 20
223.1310577392578
 30
0.0
 11
-140.1461944580078
 21
226.1310577392578
 31
0.0
  0
LINE
  5
F7
330
22
100
AcDbEntity
  8
0
  6
Continuous
 62
     7
100
AcDbLine
 10
-142.6461944580078
 20
232.1310577392578
 30
0.0
 11
-142.6461944580078
 21
237.6310577392578
 31
0.0
  0
LINE
  5
F8
330
22
100
AcDbEntity
  8
0
  6
Continuous
 62
     7
100
AcDbLine
 10
-142.6461944580078
 20
237.6310577392578
 30
0.0
 11
-143.1461944580078
 21
238.1310577392578
 31
0.0
  0
LINE
  5
F9
330
22
100
AcDbEntity
  8
0
  6
Continuous
 62
     7
100
AcDbLine
 10
-145.6461944580078
 20
238.1310577392578
 30
0.0
 11
-143.1461944580078
 21
238.1310577392578
 31
0.0
  0
LINE
  5
FA
330
22
100
AcDbEntity
  8
0
  6
Continuous
 62
     7
100
AcDbLine
 10
-146.1461944580078
 20
209.5668029785156
 30
0.0
 11
-143.6461944580078
 21
212.0668029785156
 31
0.0
  0
LINE
  5
FB
330
22
100
AcDbEntity
  8
0
  6
Continuous
 62
     7
100
AcDbLine
 10
-146.1461944580078
 20
220.0668029785156
 30
0.0
 11
-143.6461944580078
 21
217.5668029785156
 31
0.0
  0
LINE
  5
FC
330
22
100
AcDbEntity
  8
0
  6
Continuous
 62
     7
100
AcDbLine
 10
-146.540283203125
 20
220.0668029785156
 30
0.0
 11
-146.1461944580078
 21
220.0668029785156
 31
0.0
  0
LINE
  5
FD
330
22
100
AcDbEntity
  8
0
  6
Continuous
 62
     7
100
AcDbLine
 10
-146.540283203125
 20
209.5668029785156
 30
0.0
 11
-146.1461944580078
 21
209.5668029785156
 31
0.0
  0
LINE
  5
FE
330
22
100
AcDbEntity
  8
0
  6
Continuous
 62
     7
100
AcDbLine
 10
-143.6461944580078
 20
217.5668029785156
 30
0.0
 11
-142.5554046630859
 21
216.4930725097656
 31
0.0
  0
LINE
  5
FF
330
22
100
AcDbEntity
  8
0
  6
PHANTOM
 62
     7
100
AcDbLine
 10
-146.1461944580078
 20
225.7310638427734
 30
0.0
 11
-142.1461944580078
 21
225.7310638427734
 31
0.0
  0
LINE
  5
100
330
22
100
AcDbEntity
  8
0
  6
Continuous
 62
     7
100
AcDbLine
 10
-143.7212219238281
 20
163.3522796630859
 30
0.0
 11
-146.1461944580078
 21
165.7393646240234
 31
0.0
  0
LINE
  5
101
330
22
100
AcDbEntity
  8
0
  6
Continuous
 62
     7
100
AcDbLine
 10
-143.7212219238281
 20
163.3522796630859
 30
0.0
 11
-142.6304473876953
 21
162.2785491943359
 31
0.0
  0
LINE
  5
102
330
22
100
AcDbEntity
  8
0
  6
Continuous
 62
     7
100
AcDbLine
 10
-93.14618682861327
 20
119.6310577392578
 30
0.0
 11
-94.14618682861329
 21
118.6310577392578
 31
0.0
  0
LINE
  5
103
330
22
100
AcDbEntity
  8
0
  6
Continuous
 62
     7
100
AcDbLine
 10
-94.14618682861329
 20
118.6310577392578
 30
0.0
 11
-117.308135986328
 21
118.6310577392578
 31
0.0
  0
LINE
  5
104
330
22
100
AcDbEntity
  8
0
  6
Continuous
 62
     7
100
AcDbLine
 10
-93.14618682861327
 20
128.8164520263672
 30
0.0
 11
-119.6706848144531
 21
128.8164520263672
 31
0.0
  0
LINE
  5
105
330
22
100
AcDbEntity
  8
0
  6
Continuous
 62
     7
100
AcDbLine
 10
-117.209716796875
 20
120.7572402954102
 30
0.0
 11
-117.209716796875
 21
128.8164520263672
 31
0.0
  0
LINE
  5
106
330
22
100
AcDbEntity
  8
0
  6
Continuous
 62
     7
100
AcDbLine
 10
-120.1355514526367
 20
194.1310577392578
 30
0.0
 11
-116.6461868286133
 21
194.1310577392578
 31
0.0
  0
LINE
  5
107
330
22
100
AcDbEntity
  8
0
  6
Continuous
 62
     7
100
AcDbLine
 10
-116.1461868286133
 20
195.1310577392578
 30
0.0
 11
-116.1461868286133
 21
195.494384765625
 31
0.0
  0
LINE
  5
108
330
22
100
AcDbEntity
  8
0
  6
Continuous
 62
     7
100
AcDbLine
 10
-116.1461868286133
 20
195.494384765625
 30
0.0
 11
-114.5793380737305
 21
197.0612335205078
 31
0.0
  0
LINE
  5
109
330
22
100
AcDbEntity
  8
0
  6
Continuous
 62
     7
100
AcDbLine
 10
-120.6728515625
 20
160.1310577392578
 30
0.0
 11
-120.6728515625
 21
194.2876739501953
 31
0.0
  0
LINE
  5
10A
330
22
100
AcDbEntity
  8
0
  6
Continuous
 62
     7
100
AcDbLine
 10
-110.1461868286133
 20
197.2230529785156
 30
0.0
 11
-108.6829223632813
 21
195.7597961425781
 31
0.0
  0
LINE
  5
10B
330
22
100
AcDbEntity
  8
0
  6
Continuous
 62
     7
100
AcDbLine
 10
-111.0618667602539
 20
201.6310577392578
 30
0.0
 11
-106.7371292114258
 21
197.3063201904297
 31
0.0
  0
LINE
  5
10C
330
22
100
AcDbEntity
  8
0
  6
Continuous
 62
     7
100
AcDbLine
 10
-139.5618743896484
 20
230.1310577392578
 30
0.0
 11
-127.540557861328
 21
218.1097564697266
 31
0.0
  0
LINE
  5
10D
330
22
100
AcDbEntity
  8
0
  6
Continuous
 62
     7
100
AcDbLine
 10
-280.3804321289063
 20
148.7718505859375
 30
0.0
 11
-266.5346374511719
 21
106.1588287353516
 31
0.0
  0
LINE
  5
10E
330
22
100
AcDbEntity
  8
0
  6
Continuous
 62
     7
100
AcDbLine
 10
-297.4646911621094
 20
217.4864349365234
 30
0.0
 11
-299.4869995117188
 21
214.8168029785156
 31
0.0
  0
LINE
  5
10F
330
22
100
AcDbEntity
  8
0
  6
Continuous
 62
     7
100
AcDbLine
 10
-304.1305541992188
 20
217.5039978027344
 30
0.0
 11
-302.0902099609375
 21
214.8168029785156
 31
0.0
  0
LINE
  5
110
330
22
100
AcDbEntity
  8
0
  6
Continuous
 62
     7
100
AcDbLine
 10
-303.8031616210938
 20
217.8313903808594
 30
0.0
 11
-303.4757690429688
 21
218.1587677001953
 31
0.0
  0
LINE
  5
111
330
22
100
AcDbEntity
  8
0
  6
Continuous
 62
     7
100
AcDbLine
 10
-304.1125183105469
 20
212.1471862792969
 30
0.0
 11
-302.0902099609375
 21
214.8168029785156
 31
0.0
  0
LINE
  5
112
330
22
100
AcDbEntity
  8
0
  6
Continuous
 62
     7
100
AcDbLine
 10
-304.1125183105469
 20
212.1471862792969
 30
0.0
 11
-303.7853698730469
 21
211.8200378417969
 31
0.0
  0
LINE
  5
113
330
22
100
AcDbEntity
  8
0
  6
Continuous
 62
     7
100
AcDbLine
 10
-303.4582214355469
 20
211.4928894042969
 30
0.0
 11
-303.7853698730469
 21
211.8200378417969
 31
0.0
  0
LINE
  5
114
330
22
100
AcDbEntity
  8
0
  6
Continuous
 62
     7
100
AcDbLine
 10
-279.8614501953125
 20
157.1164855957031
 30
0.0
 11
-280.1888427734375
 21
156.7890930175781
 31
0.0
  0
LINE
  5
115
330
22
100
AcDbEntity
  8
0
  6
Continuous
 62
     7
100
AcDbLine
 10
-285.545654296875
 20
156.8071441650391
 30
0.0
 11
-282.8760375976563
 21
158.8294525146484
 31
0.0
  0
LINE
  5
116
330
22
100
AcDbEntity
  8
0
  6
Continuous
 62
     7
100
AcDbLine
 10
-294.6388854980469
 20
159.1309967041016
 30
0.0
 11
-339.4448852539063
 21
159.1309967041016
 31
0.0
  0
LINE
  5
117
330
22
100
AcDbEntity
  8
0
  6
Continuous
 62
     7
100
AcDbLine
 10
-279.8614501953125
 20
157.1164855957031
 30
0.0
 11
-279.5340576171875
 21
157.4438781738281
 31
0.0
  0
LINE
  5
118
330
22
100
AcDbEntity
  8
0
  6
Continuous
 62
     7
100
AcDbLine
 10
-286.199951171875
 20
157.46142578125
 30
0.0
 11
-284.1776123046875
 21
160.1310577392578
 31
0.0
  0
LINE
  5
119
330
22
100
AcDbEntity
  8
0
  6
Continuous
 62
     7
100
AcDbLine
 10
-297.4466247558594
 20
212.1296234130859
 30
0.0
 11
-299.4869995117188
 21
214.8168029785156
 31
0.0
  0
LINE
  5
11A
330
22
100
AcDbEntity
  8
0
  6
Continuous
 62
     7
100
AcDbLine
 10
-298.1189575195313
 20
218.1407165527344
 30
0.0
 11
-297.7918395996094
 21
217.8135833740234
 31
0.0
  0
LINE
  5
11B
330
22
100
AcDbEntity
  8
0
  6
Continuous
 62
     7
100
AcDbLine
 10
-297.4646911621094
 20
217.4864349365234
 30
0.0
 11
-297.7918395996094
 21
217.8135833740234
 31
0.0
  0
LINE
  5
11C
330
22
100
AcDbEntity
  8
0
  6
Continuous
 62
     7
100
AcDbLine
 10
-297.7740173339844
 20
211.8022308349609
 30
0.0
 11
-298.1014099121093
 21
211.4748382568359
 31
0.0
  0
LINE
  5
11D
330
22
100
AcDbEntity
  8
0
  6
Continuous
 62
     7
100
AcDbLine
 10
-303.4757690429688
 20
218.1587677001953
 30
0.0
 11
-300.7886047363281
 21
216.118408203125
 31
0.0
  0
LINE
  5
11E
330
22
100
AcDbEntity
  8
0
  6
Continuous
 62
     7
100
AcDbLine
 10
-286.199951171875
 20
157.46142578125
 30
0.0
 11
-285.872802734375
 21
157.1342926025391
 31
0.0
  0
LINE
  5
11F
330
22
100
AcDbEntity
  8
0
  6
Continuous
 62
     7
100
AcDbLine
 10
-285.8905944824219
 20
163.1456298828125
 30
0.0
 11
-286.2179870605469
 21
162.8182373046875
 31
0.0
  0
LINE
  5
120
330
22
100
AcDbEntity
  8
0
  6
Continuous
 62
     7
100
AcDbLine
 10
-285.8905944824219
 20
163.1456298828125
 30
0.0
 11
-285.5632019042969
 21
163.4730224609375
 31
0.0
  0
LINE
  5
121
330
22
100
AcDbEntity
  8
0
  6
Continuous
 62
     7
100
AcDbLine
 10
-279.5520935058594
 20
162.8006896972656
 30
0.0
 11
-279.8792419433594
 21
163.1278381347656
 31
0.0
  0
LINE
  5
122
330
22
100
AcDbEntity
  8
0
  6
Continuous
 62
     7
100
AcDbLine
 10
-280.2063903808594
 20
163.4549713134766
 30
0.0
 11
-279.8792419433594
 21
163.1278381347656
 31
0.0
  0
LINE
  5
123
330
22
100
AcDbEntity
  8
0
  6
Continuous
 62
     7
100
AcDbLine
 10
-298.1014099121093
 20
211.4748382568359
 30
0.0
 11
-300.7886047363281
 21
213.5152130126953
 31
0.0
  0
LINE
  5
124
330
22
100
AcDbEntity
  8
0
  6
Continuous
 62
     7
100
AcDbLine
 10
-297.7740173339844
 20
211.8022308349609
 30
0.0
 11
-297.4466247558594
 21
212.1296234130859
 31
0.0
  0
LINE
  5
125
330
22
100
AcDbEntity
  8
0
  6
Continuous
 62
     7
100
AcDbLine
 10
-298.1189575195313
 20
218.1407165527344
 30
0.0
 11
-300.7886047363281
 21
216.118408203125
 31
0.0
  0
LINE
  5
126
330
22
100
AcDbEntity
  8
0
  6
Continuous
 62
     7
100
AcDbLine
 10
-303.8031616210938
 20
217.8313903808594
 30
0.0
 11
-304.1305541992188
 21
217.5039978027344
 31
0.0
  0
LINE
  5
127
330
22
100
AcDbEntity
  8
0
  6
Continuous
 62
     7
100
AcDbLine
 10
-287.5616149902344
 20
170.872314453125
 30
0.0
 11
-299.4479370117188
 21
207.4545745849609
 31
0.0
  0
LINE
  5
128
330
22
100
AcDbEntity
  8
0
  6
Continuous
 62
     7
100
AcDbLine
 10
-303.4582214355469
 20
211.4928894042969
 30
0.0
 11
-300.7886047363281
 21
213.5152130126953
 31
0.0
  0
LINE
  5
129
330
22
100
AcDbEntity
  8
0
  6
Continuous
 62
     7
100
AcDbLine
 10
-280.1888427734375
 20
156.7890930175781
 30
0.0
 11
-282.8760375976563
 21
158.8294525146484
 31
0.0
  0
LINE
  5
12A
330
22
100
AcDbEntity
  8
0
  6
Continuous
 62
     7
100
AcDbLine
 10
-285.5632019042969
 20
163.4730224609375
 30
0.0
 11
-282.8760375976563
 21
161.4326629638672
 31
0.0
  0
LINE
  5
12B
330
22
100
AcDbEntity
  8
0
  6
Continuous
 62
     7
100
AcDbLine
 10
-286.2179870605469
 20
162.8182373046875
 30
0.0
 11
-284.1776123046875
 21
160.1310577392578
 31
0.0
  0
LINE
  5
12C
330
22
100
AcDbEntity
  8
0
  6
Continuous
 62
     7
100
AcDbLine
 10
-280.2063903808594
 20
163.4549713134766
 30
0.0
 11
-282.8760375976563
 21
161.4326629638672
 31
0.0
  0
LINE
  5
12D
330
22
100
AcDbEntity
  8
0
  6
Continuous
 62
     7
100
AcDbLine
 10
-279.5520935058594
 20
162.8006896972656
 30
0.0
 11
-281.5744323730469
 21
160.1310577392578
 31
0.0
  0
LINE
  5
12E
330
22
100
AcDbEntity
  8
0
  6
Continuous
 62
     7
100
AcDbLine
 10
-279.5340576171875
 20
157.4438781738281
 30
0.0
 11
-281.5744323730469
 21
160.1310577392578
 31
0.0
  0
LINE
  5
12F
330
22
100
AcDbEntity
  8
0
  6
Continuous
 62
     7
100
AcDbLine
 10
-285.545654296875
 20
156.8071441650391
 30
0.0
 11
-285.872802734375
 21
157.1342926025391
 31
0.0
  0
LINE
  5
130
330
22
100
AcDbEntity
  8
0
  6
Continuous
 62
     7
100
AcDbLine
 10
-124.0716247558594
 20
201.2057800292969
 30
0.0
 11
-116.9968948364258
 21
194.1310577392578
 31
0.0
  0
LINE
  5
131
330
22
100
AcDbEntity
  8
0
  6
Continuous
 62
     7
100
AcDbLine
 10
-123.4537963867188
 20
199.8808441162109
 30
0.0
 11
-117.7040023803711
 21
194.1310577392578
 31
0.0
  0
LINE
  5
132
330
22
100
AcDbEntity
  8
0
  6
Continuous
 62
     7
100
AcDbLine
 10
-133.709716796875
 20
93.83377075195312
 30
0.0
 11
-133.709716796875
 21
160.1310577392578
 31
0.0
  0
LINE
  5
133
330
22
100
AcDbEntity
  8
0
  6
Continuous
 62
     7
100
AcDbLine
 10
-120.8127136230469
 20
194.4113464355469
 30
0.0
 11
-120.7448425292969
 21
194.3434753417969
 31
0.0
  0
LINE
  5
134
330
22
100
AcDbEntity
  8
0
  6
Continuous
 62
     7
100
AcDbLine
 10
-121.6003189086914
 20
195.9060516357422
 30
0.0
 11
-119.825325012207
 21
194.1310577392578
 31
0.0
  0
LINE
  5
135
330
22
100
AcDbEntity
  8
0
  6
Continuous
 62
     7
100
AcDbLine
 10
-142.6461944580078
 20
88.13105773925782
 30
0.0
 11
-142.6461944580078
 21
160.1310577392578
 31
0.0
  0
LINE
  5
136
330
22
100
AcDbEntity
  8
0
  6
Continuous
 62
     7
100
AcDbLine
 10
-138.8547668457031
 20
230.1310577392578
 30
0.0
 11
-128.1583862304688
 21
219.4346771240234
 31
0.0
  0
LINE
  5
137
330
22
100
AcDbEntity
  8
0
  6
Continuous
 62
     7
100
AcDbLine
 10
-110.3547592163086
 20
201.6310577392578
 30
0.0
 11
-106.0514526367188
 21
197.3277435302734
 31
0.0
  0
LINE
  5
138
330
22
100
AcDbEntity
  8
0
  6
Continuous
 62
     7
100
AcDbLine
 10
-146.1461944580078
 20
237.4224853515625
 30
0.0
 11
-142.6461944580078
 21
233.9224853515625
 31
0.0
  0
LINE
  5
139
330
22
100
AcDbEntity
  8
0
  6
Continuous
 62
     7
100
AcDbLine
 10
-131.4855346679687
 20
217.10498046875
 30
0.0
 11
-123.2157745361328
 21
208.8352203369141
 31
0.0
  0
LINE
  5
13A
330
22
100
AcDbEntity
  8
0
  6
Continuous
 62
     7
100
AcDbLine
 10
-116.0116119384766
 20
201.6310577392578
 30
0.0
 11
-111.5368804931641
 21
197.1563262939453
 31
0.0
  0
LINE
  5
13B
330
22
100
AcDbEntity
  8
0
  6
Continuous
 62
     7
100
AcDbLine
 10
-146.1461944580078
 20
233.8869476318359
 30
0.0
 11
-134.8233795166016
 21
222.5641479492189
 31
0.0
  0
LINE
  5
13C
330
22
100
AcDbEntity
  8
0
  6
Continuous
 62
     7
100
AcDbLine
 10
-133.394287109375
 20
221.1350555419922
 30
0.0
 11
-125.0692520141602
 21
212.8100128173828
 31
0.0
  0
LINE
  5
13D
330
22
100
AcDbEntity
  8
0
  6
Continuous
 62
     7
100
AcDbLine
 10
-140.1461944580078
 20
225.765625
 30
0.0
 11
-137.5116119384766
 21
223.1310577392578
 31
0.0
  0
LINE
  5
13E
330
22
100
AcDbEntity
  8
0
  6
Continuous
 62
     7
100
AcDbLine
 10
-146.1461944580078
 20
231.765625
 30
0.0
 11
-140.5116119384766
 21
226.1310577392578
 31
0.0
  0
LINE
  5
13F
330
22
100
AcDbEntity
  8
0
  6
Continuous
 62
     7
100
AcDbLine
 10
-113.8902969360352
 20
201.6310577392578
 30
0.0
 11
-109.4798431396484
 21
197.2206115722656
 31
0.0
  0
LINE
  5
140
330
22
100
AcDbEntity
  8
0
  6
Continuous
 62
     7
100
AcDbLine
 10
-146.1461944580078
 20
234.5940551757813
 30
0.0
 11
-125.6870803833008
 21
214.1349487304688
 31
0.0
  0
LINE
  5
141
330
22
100
AcDbEntity
  8
0
  6
Continuous
 62
     7
100
AcDbLine
 10
-146.1461944580078
 20
236.7153778076172
 30
0.0
 11
-142.6461944580078
 21
233.2153778076172
 31
0.0
  0
LINE
  5
142
330
22
100
AcDbEntity
  8
0
  6
Continuous
 62
     7
100
AcDbLine
 10
-278.4786071777344
 20
170.8725128173828
 30
0.0
 11
-266.5923767089844
 21
207.4545593261719
 31
0.0
  0
LINE
  5
143
330
22
100
AcDbEntity
  8
0
  6
Continuous
 62
     7
100
AcDbLine
 10
-291.832275390625
 20
167.76953125
 30
0.0
 11
-328.0810852050781
 21
194.1058197021484
 31
0.0
  0
LINE
  5
144
330
22
100
AcDbEntity
  8
0
  6
Continuous
 62
     7
100
AcDbLine
 10
-271.4010009765625
 20
159.1313018798828
 30
0.0
 11
-226.5950012207031
 21
159.1313018798828
 31
0.0
  0
LINE
  5
145
330
22
100
AcDbEntity
  8
0
  6
Continuous
 62
     7
100
AcDbLine
 10
-274.2079772949219
 20
167.7697143554688
 30
0.0
 11
-237.9591674804689
 21
194.1060180664063
 31
0.0
  0
LINE
  5
146
330
22
100
AcDbEntity
  8
0
  6
Continuous
 62
     7
100
AcDbLine
 10
-93.14618682861327
 20
200.6310577392578
 30
0.0
 11
-93.14618682861327
 21
160.1310577392578
 31
0.0
  0
LINE
  5
147
330
22
100
AcDbEntity
  8
0
  6
Continuous
 62
     7
100
AcDbLine
 10
-93.14618682861327
 20
200.6310577392578
 30
0.0
 11
-94.14618682861329
 21
201.6310577392578
 31
0.0
  0
LINE
  5
148
330
22
100
AcDbEntity
  8
0
  6
Continuous
 62
     7
100
AcDbLine
 10
-93.14618682861327
 20
197.7310638427734
 30
0.0
 11
-94.71303558349609
 21
196.1642150878906
 31
0.0
  0
LINE
  5
149
330
22
100
AcDbEntity
  8
0
  6
Continuous
 62
     7
100
AcDbLine
 10
-93.14618682861327
 20
197.7310638427734
 30
0.0
 11
-114.5793380737305
 21
197.0612335205078
 31
0.0
  0
LINE
  5
14A
330
22
100
AcDbEntity
  8
0
  6
Continuous
 62
     7
100
AcDbLine
 10
-94.14618682861329
 20
201.6310577392578
 30
0.0
 11
-117.308135986328
 21
201.6310577392578
 31
0.0
  0
LINE
  5
14B
330
22
100
AcDbEntity
  8
0
  6
Continuous
 62
     7
100
AcDbLine
 10
-108.6999816894531
 20
195.77685546875
 30
0.0
 11
-94.66167449951171
 21
196.215576171875
 31
0.0
  0
LINE
  5
14C
330
22
100
AcDbEntity
  8
0
  6
Continuous
 62
     7
100
AcDbLine
 10
-116.1461868286133
 20
160.1310577392578
 30
0.0
 11
-116.1461868286133
 21
194.6310577392578
 31
0.0
  0
LINE
  5
14D
330
22
100
AcDbEntity
  8
0
  6
Continuous
 62
     7
100
AcDbLine
 10
-116.1461868286133
 20
195.1310577392578
 30
0.0
 11
-116.1461868286133
 21
194.6310577392578
 31
0.0
  0
LINE
  5
14E
330
22
100
AcDbEntity
  8
0
  6
Continuous
 62
     7
100
AcDbLine
 10
-285.6592407226563
 20
148.7718505859375
 30
0.0
 11
-299.5050354003906
 21
106.1588287353516
 31
0.0
  0
LINE
  5
14F
330
22
100
AcDbEntity
  8
0
  6
Continuous
 62
     7
100
AcDbLine
 10
-293.0076599121094
 20
154.1105651855469
 30
0.0
 11
-329.2564697265625
 21
127.7742691040039
 31
0.0
  0
LINE
  5
150
330
22
100
AcDbEntity
  8
0
  6
Continuous
 62
     7
100
AcDbLine
 10
-130.8677215576172
 20
215.7800445556641
 30
0.0
 11
-122.5979461669922
 21
207.5102844238281
 31
0.0
  0
LINE
  5
151
330
22
100
AcDbEntity
  8
0
  6
Continuous
 62
     7
100
AcDbLine
 10
-119.5065078735352
 20
202.2975158691406
 30
0.0
 11
-114.2795867919922
 21
197.0706024169922
 31
0.0
  0
LINE
  5
152
330
22
100
AcDbEntity
  8
0
  6
Continuous
 62
     7
100
AcDbLine
 10
-129.0142364501953
 20
211.8052520751953
 30
0.0
 11
-120.6645965576172
 21
203.4556121826172
 31
0.0
  0
LINE
  5
153
330
22
100
AcDbEntity
  8
0
  6
Continuous
 62
     7
100
AcDbLine
 10
-144.7334442138672
 20
238.1310577392578
 30
0.0
 11
-142.6461944580078
 21
236.0438079833984
 31
0.0
  0
LINE
  5
154
330
22
100
AcDbEntity
  8
0
  6
Continuous
 62
     7
100
AcDbLine
 10
-136.7334442138672
 20
230.1310577392578
 30
0.0
 11
-130.0118713378906
 21
223.4094848632814
 31
0.0
  0
LINE
  5
155
330
22
100
AcDbEntity
  8
0
  6
Continuous
 62
     7
100
AcDbLine
 10
-128.3964080810547
 20
210.4803161621094
 30
0.0
 11
-114.7783355712891
 21
196.8622436523438
 31
0.0
  0
LINE
  5
156
330
22
100
AcDbEntity
  8
0
  6
Continuous
 62
     7
100
AcDbLine
 10
-146.1461944580078
 20
226.1087799072266
 30
0.0
 11
-145.7684631347656
 21
225.7310638427734
 31
0.0
  0
LINE
  5
157
330
22
100
AcDbEntity
  8
0
  6
Continuous
 62
     7
100
AcDbLine
 10
-126.5429306030273
 20
206.5055236816406
 30
0.0
 11
-115.838996887207
 21
195.8015899658203
 31
0.0
  0
LINE
  5
158
330
22
100
AcDbEntity
  8
0
  6
Continuous
 62
     7
100
AcDbLine
 10
-146.1461944580078
 20
228.2301025390625
 30
0.0
 11
-143.6471557617188
 21
225.7310638427734
 31
0.0
  0
LINE
  5
159
330
22
100
AcDbEntity
  8
0
  6
Continuous
 62
     7
100
AcDbLine
 10
-125.9251022338867
 20
205.1805877685547
 30
0.0
 11
-116.1461868286133
 21
195.4016723632813
 31
0.0
  0
LINE
  5
15A
330
22
100
AcDbEntity
  8
0
  6
Continuous
 62
     7
100
AcDbLine
 10
-113.1831893920898
 20
201.6310577392578
 30
0.0
 11
-108.7941665649414
 21
197.2420349121094
 31
0.0
  0
LINE
  5
15B
330
22
100
AcDbEntity
  8
0
  6
Continuous
 62
     7
100
AcDbLine
 10
-114.5793380737305
 20
197.0612335205078
 30
0.0
 11
-114.5793380737305
 21
160.1310577392578
 31
0.0
  0
LINE
  5
15C
330
22
100
AcDbEntity
  8
0
  6
Continuous
 62
     7
100
AcDbLine
 10
-108.6999816894531
 20
195.77685546875
 30
0.0
 11
-108.6999816894531
 21
160.1310577392578
 31
0.0
  0
LINE
  5
15D
330
22
100
AcDbEntity
  8
0
  6
Continuous
 62
     7
100
AcDbLine
 10
-110.1236190795898
 20
197.2004852294922
 30
0.0
 11
-110.1236190795898
 21
160.1310577392578
 31
0.0
  0
LINE
  5
15E
330
22
100
AcDbEntity
  8
0
  6
Continuous
 62
     7
100
AcDbLine
 10
-94.66167449951171
 20
196.215576171875
 30
0.0
 11
-94.66167449951171
 21
160.1310577392578
 31
0.0
  0
CIRCLE
  5
15F
330
22
100
AcDbEntity
  8
0
  6
DASHED
 62
     7
100
AcDbCircle
 10
-282.8760375976563
 20
160.1310577392578
 30
0.0
 40
35.5
  0
ARC
  5
160
330
22
100
AcDbEntity
  8
0
  6
Continuous
 62
     7
100
AcDbCircle
 10
-116.8126983642578
 20
129.0828399658203
 30
0.0
 40
3.893448591232299
100
AcDbArc
 50
117.4942861557544
 51
151.7055404667902
  0
ARC
  5
161
330
22
100
AcDbEntity
  8
0
  6
Continuous
 62
     7
100
AcDbCircle
 10
-91.34873962402343
 20
129.0828399658203
 30
0.0
 40
3.893448591232299
100
AcDbArc
 50
117.4942861557544
 51
151.7055404667902
  0
ARC
  5
162
330
22
100
AcDbEntity
  8
0
  6
Continuous
 62
     7
100
AcDbCircle
 10
-135.0574035644531
 20
93.1310577392578
 30
0.0
 40
3.0
100
AcDbArc
 50
270.0000000000005
 51
335.0001133038098
  0
ARC
  5
163
330
22
100
AcDbEntity
  8
0
  6
Continuous
 62
     7
100
AcDbCircle
 10
-140.6461944580078
 20
88.13105773925782
 30
0.0
 40
2.0
100
AcDbArc
 50
90.00000000000019
 51
180.0000000000004
  0
ARC
  5
164
330
22
100
AcDbEntity
  8
0
  6
Continuous
 62
     7
100
AcDbCircle
 10
-135.0574035644531
 20
227.1310577392578
 30
0.0
 40
3.0
100
AcDbArc
 50
24.99988669619089
 51
90.00000000000019
  0
ARC
  5
165
330
22
100
AcDbEntity
  8
0
  6
Continuous
 62
     7
100
AcDbCircle
 10
-136.8438262939453
 20
219.1310577392578
 30
0.0
 40
4.0
100
AcDbArc
 50
25.0000450952786
 51
90.00000000000019
  0
CIRCLE
  5
166
330
22
100
AcDbEntity
  8
0
  6
Continuous
 62
     7
100
AcDbCircle
 10
-283.0201110839844
 20
160.1310577392578
 30
0.0
 40
65.30000305175781
  0
CIRCLE
  5
167
330
22
100
AcDbEntity
  8
0
  6
Continuous
 62
     7
100
AcDbCircle
 10
-283.0201110839844
 20
160.1310577392578
 30
0.0
 40
65.59999847412109
  0
ARC
  5
168
330
22
100
AcDbEntity
  8
0
  6
Continuous
 62
     7
100
AcDbCircle
 10
-140.6461944580078
 20
232.1310577392578
 30
0.0
 40
2.0
100
AcDbArc
 50
180.0000000000004
 51
270.0000000000005
  0
ARC
  5
169
330
22
100
AcDbEntity
  8
0
  6
Continuous
 62
     7
100
AcDbCircle
 10
-93.42008972167969
 20
130.1269378662109
 30
0.0
 40
1.57590627670288
100
AcDbArc
 50
149.4335601976634
 51
226.9554939786574
  0
ARC
  5
16A
330
22
100
AcDbEntity
  8
0
  6
Continuous
 62
     7
100
AcDbCircle
 10
-117.308135986328
 20
114.6310577392578
 30
0.0
 40
4.0
100
AcDbArc
 50
90.00000000000019
 51
155.0000010897342
  0
ARC
  5
16B
330
22
100
AcDbEntity
  8
0
  6
Continuous
 62
     7
100
AcDbCircle
 10
-119.6128234863281
 20
129.2642669677734
 30
0.0
 40
0.4515255987644197
100
AcDbArc
 50
219.8025962206476
 51
262.6377095474394
  0
ARC
  5
16C
330
22
100
AcDbEntity
  8
0
  6
Continuous
 62
     7
100
AcDbCircle
 10
-118.8840484619141
 20
130.1269378662109
 30
0.0
 40
1.57590627670288
100
AcDbArc
 50
149.4335601976634
 51
226.9554939786574
  0
ARC
  5
16D
330
22
100
AcDbEntity
  8
0
  6
Continuous
 62
     7
100
AcDbCircle
 10
-94.14886474609376
 20
129.2642669677734
 30
0.0
 40
0.4515255987644197
100
AcDbArc
 50
219.8025962206476
 51
262.6377095474394
  0
ARC
  5
16E
330
22
100
AcDbEntity
  8
0
  6
Continuous
 62
     7
100
AcDbCircle
 10
-116.6461868286133
 20
194.6310577392578
 30
0.0
 40
0.5
100
AcDbArc
 50
270.0000000000005
 51
0.0
  0
ARC
  5
16F
330
22
100
AcDbEntity
  8
0
  6
Continuous
 62
     7
100
AcDbCircle
 10
-120.1355514526367
 20
195.1310577392578
 30
0.0
 40
1.0
100
AcDbArc
 50
205.0001508126527
 51
270.0000000000005
  0
ARC
  5
170
330
22
100
AcDbEntity
  8
0
  6
Continuous
 62
     7
100
AcDbCircle
 10
-283.0198364257813
 20
160.1311492919922
 30
0.0
 40
27.0
100
AcDbArc
 50
254.1225302445964
 51
285.8774697554051
  0
ARC
  5
171
330
22
100
AcDbEntity
  8
0
  6
Continuous
 62
     7
100
AcDbCircle
 10
-283.0198364257813
 20
160.1311492919922
 30
0.0
 40
33.5
100
AcDbArc
 50
253.7105870349259
 51
286.2894129650754
  0
ARC
  5
172
330
22
100
AcDbEntity
  8
0
  6
Continuous
 62
     7
100
AcDbCircle
 10
-283.0198364257813
 20
160.1311492919922
 30
0.0
 40
35.0
100
AcDbArc
 50
253.637269009031
 51
286.3627789254948
  0
ARC
  5
173
330
22
100
AcDbEntity
  8
0
  6
Continuous
 62
     7
100
AcDbCircle
 10
-268.4367370605469
 20
105.5407943725586
 30
0.0
 40
2.0
100
AcDbArc
 50
292.5667364747894
 51
18.00012902339873
  0
ARC
  5
174
330
22
100
AcDbEntity
  8
0
  6
Continuous
 62
     7
100
AcDbCircle
 10
-283.0198364257813
 20
140.6311492919922
 30
0.0
 40
40.0
100
AcDbArc
 50
247.4328792599041
 51
292.5671207400973
  0
ARC
  5
175
330
22
100
AcDbEntity
  8
0
  6
Continuous
 62
     7
100
AcDbCircle
 10
-297.6029357910156
 20
105.5407943725586
 30
0.0
 40
2.0
100
AcDbArc
 50
161.9998709766013
 51
247.4332635252121
  0
ARC
  5
176
330
22
100
AcDbEntity
  8
0
  6
Continuous
 62
     7
100
AcDbCircle
 10
-283.0198364257813
 20
160.1311492919922
 30
0.0
 40
54.5
100
AcDbArc
 50
253.051347760266
 51
286.9486522397356
  0
ARC
  5
177
330
22
100
AcDbEntity
  8
0
  6
Continuous
 62
     7
100
AcDbCircle
 10
-283.0198364257813
 20
160.1311492919922
 30
0.0
 40
53.0
100
AcDbArc
 50
253.0811259295917
 51
286.9188740704097
  0
ARC
  5
178
330
22
100
AcDbEntity
  8
0
  6
Continuous
 62
     7
100
AcDbCircle
 10
-283.0198364257813
 20
160.1311492919922
 30
0.0
 40
40.0
100
AcDbArc
 50
253.4325406473757
 51
286.5674593526258
  0
ARC
  5
179
330
22
100
AcDbEntity
  8
0
  6
Continuous
 62
     7
100
AcDbCircle
 10
-283.0198364257813
 20
160.1311492919922
 30
0.0
 40
41.5
100
AcDbArc
 50
253.3807652030676
 51
286.6192347969339
  0
ARC
  5
17A
330
22
100
AcDbEntity
  8
0
  6
Continuous
 62
     7
100
AcDbCircle
 10
-283.0198364257813
 20
160.1311492919922
 30
0.0
 40
46.5
100
AcDbArc
 50
253.2322524739929
 51
286.7677475260084
  0
ARC
  5
17B
330
22
100
AcDbEntity
  8
0
  6
Continuous
 62
     7
100
AcDbCircle
 10
-283.0198364257813
 20
160.1311492919922
 30
0.0
 40
48.0
100
AcDbArc
 50
253.1937481861266
 51
286.8062518138749
  0
ARC
  5
17C
330
22
100
AcDbEntity
  8
0
  6
Continuous
 62
     7
100
AcDbCircle
 10
-330.4320373535156
 20
129.3923034667969
 30
0.0
 40
2.0
100
AcDbArc
 50
220.5671093586342
 51
305.9999270077038
  0
ARC
  5
17D
330
22
100
AcDbEntity
  8
0
  6
Continuous
 62
     7
100
AcDbCircle
 10
-283.0199279785156
 20
160.1313018798828
 30
0.0
 40
40.0
100
AcDbArc
 50
325.4325424014375
 51
358.567455895265
  0
ARC
  5
17E
330
22
100
AcDbEntity
  8
0
  6
Continuous
 62
     7
100
AcDbCircle
 10
-283.0199279785156
 20
160.1313018798828
 30
0.0
 40
35.0
100
AcDbArc
 50
325.6372293131522
 51
358.3627545080832
  0
ARC
  5
17F
330
22
100
AcDbEntity
  8
0
  6
Continuous
 62
     7
100
AcDbCircle
 10
-271.5583190917969
 20
175.9070739746094
 30
0.0
 40
40.0
100
AcDbArc
 50
31.43286352815379
 51
69.11711463523207
  0
ARC
  5
180
330
22
100
AcDbEntity
  8
0
  6
Continuous
 62
     7
100
AcDbCircle
 10
-283.0199279785156
 20
160.1313018798828
 30
0.0
 40
28.5
100
AcDbArc
 50
326.0107820399137
 51
357.9892080709777
  0
ARC
  5
181
330
22
100
AcDbEntity
  8
0
  6
Continuous
 62
     7
100
AcDbCircle
 10
-283.0199279785156
 20
160.1313018798828
 30
0.0
 40
33.5
100
AcDbArc
 50
325.7105610148386
 51
358.2894236267593
  0
ARC
  5
182
330
22
100
AcDbEntity
  8
0
  6
Continuous
 62
     7
100
AcDbCircle
 10
-226.5950012207031
 20
157.1313018798828
 30
0.0
 40
2.0
100
AcDbArc
 50
4.567176015491929
 51
90.00000000000019
  0
ARC
  5
183
330
22
100
AcDbEntity
  8
0
  6
Continuous
 62
     7
100
AcDbCircle
 10
-283.0201110839844
 20
160.1310577392578
 30
0.0
 40
35.0
100
AcDbArc
 50
109.6372482151674
 51
142.3627452452276
  0
ARC
  5
184
330
22
100
AcDbEntity
  8
0
  6
Continuous
 62
     7
100
AcDbCircle
 10
-283.0201110839844
 20
160.1310577392578
 30
0.0
 40
46.5
100
AcDbArc
 50
109.2322861800627
 51
142.7677598370582
  0
ARC
  5
185
330
22
100
AcDbEntity
  8
0
  6
Continuous
 62
     7
100
AcDbCircle
 10
-283.0201110839844
 20
160.1310577392578
 30
0.0
 40
41.5
100
AcDbArc
 50
109.3807605342109
 51
142.6192557642679
  0
ARC
  5
186
330
22
100
AcDbEntity
  8
0
  6
Continuous
 62
     7
100
AcDbCircle
 10
-283.0201110839844
 20
160.1310577392578
 30
0.0
 40
40.0
100
AcDbArc
 50
109.4325665305475
 51
142.5674606611863
  0
ARC
  5
187
330
22
100
AcDbEntity
  8
0
  6
Continuous
 62
     7
100
AcDbCircle
 10
-283.0201110839844
 20
160.1310577392578
 30
0.0
 40
33.5
100
AcDbArc
 50
109.7105882629015
 51
142.2894531444245
  0
ARC
  5
188
330
22
100
AcDbEntity
  8
0
  6
Continuous
 62
     7
100
AcDbCircle
 10
-308.0272827148438
 20
211.4107360839844
 30
0.0
 40
2.0
100
AcDbArc
 50
25.19882027978493
 51
110.882974839171
  0
ARC
  5
189
330
22
100
AcDbEntity
  8
0
  6
Continuous
 62
     7
100
AcDbCircle
 10
-283.0201110839844
 20
160.1310577392578
 30
0.0
 40
48.0
100
AcDbArc
 50
109.1937681224776
 51
142.8062513135096
  0
ARC
  5
18A
330
22
100
AcDbEntity
  8
0
  6
Continuous
 62
     7
100
AcDbCircle
 10
-283.0201110839844
 20
160.1310577392578
 30
0.0
 40
53.0
100
AcDbArc
 50
112.1198987606435
 51
142.9188994850081
  0
ARC
  5
18B
330
22
100
AcDbEntity
  8
0
  6
Continuous
 62
     7
100
AcDbCircle
 10
-283.0201110839844
 20
160.1310577392578
 30
0.0
 40
27.0
100
AcDbArc
 50
110.1225399024542
 51
141.8774478006412
  0
ARC
  5
18C
330
22
100
AcDbEntity
  8
0
  6
Continuous
 62
     7
100
AcDbCircle
 10
-283.0198364257813
 20
160.1311492919922
 30
0.0
 40
10.0
100
AcDbArc
 50
266.4774699525468
 51
273.5225300474547
  0
ARC
  5
18D
330
22
100
AcDbEntity
  8
0
  6
Continuous
 62
     7
100
AcDbCircle
 10
-283.0198364257813
 20
160.1311492919922
 30
0.0
 40
22.0
100
AcDbArc
 50
254.6052225642029
 51
285.3947774357985
  0
ARC
  5
18E
330
22
100
AcDbEntity
  8
0
  6
Continuous
 62
     7
100
AcDbCircle
 10
-283.7571105957031
 20
148.1538238525391
 30
0.0
 40
2.0
100
AcDbArc
 50
86.47798277862007
 51
162.0003490061406
  0
ARC
  5
18F
330
22
100
AcDbEntity
  8
0
  6
Continuous
 62
     7
100
AcDbCircle
 10
-282.2825622558594
 20
148.1538238525391
 30
0.0
 40
2.0
100
AcDbArc
 50
17.99965099385939
 51
93.52201722137991
  0
ARC
  5
190
330
22
100
AcDbEntity
  8
0
  6
Continuous
 62
     7
100
AcDbCircle
 10
-283.0198364257813
 20
160.1311492919922
 30
0.0
 40
20.5
100
AcDbArc
 50
254.7960162311589
 51
285.2039837688425
  0
ARC
  5
191
330
22
100
AcDbEntity
  8
0
  6
Continuous
 62
     7
100
AcDbCircle
 10
-339.4448852539063
 20
157.1309967041016
 30
0.0
 40
2.0
100
AcDbArc
 50
90.00000000000019
 51
175.4328239845081
  0
ARC
  5
192
330
22
100
AcDbEntity
  8
0
  6
Continuous
 62
     7
100
AcDbCircle
 10
-294.6388854980469
 20
157.1309967041016
 30
0.0
 40
2.0
100
AcDbArc
 50
14.47750325625797
 51
90.00000000000019
  0
ARC
  5
193
330
22
100
AcDbEntity
  8
0
  6
Continuous
 62
     7
100
AcDbCircle
 10
-258.0128784179688
 20
211.4109039306641
 30
0.0
 40
2.0
100
AcDbArc
 50
69.11702516082904
 51
154.8027385479748
  0
ARC
  5
194
330
22
100
AcDbEntity
  8
0
  6
Continuous
 62
     7
100
AcDbCircle
 10
-239.1347351074219
 20
195.7240447998047
 30
0.0
 40
2.0
100
AcDbArc
 50
306.0000554778671
 51
31.43298476144768
  0
ARC
  5
195
330
22
100
AcDbEntity
  8
0
  6
Continuous
 62
     7
100
AcDbCircle
 10
-300.7886047363281
 20
214.8168029785156
 30
0.0
 40
6.0
100
AcDbArc
 50
205.1986962039167
 51
265.9756546661071
  0
CIRCLE
  5
196
330
22
100
AcDbEntity
  8
0
  6
Continuous
 62
     7
100
AcDbCircle
 10
-282.8760375976563
 20
160.1310577392578
 30
0.0
 40
5.5
  0
CIRCLE
  5
197
330
22
100
AcDbEntity
  8
0
  6
Continuous
 62
     7
100
AcDbCircle
 10
-282.8760375976563
 20
160.1310577392578
 30
0.0
 40
5.0
  0
ARC
  5
198
330
22
100
AcDbEntity
  8
0
  6
Continuous
 62
     7
100
AcDbCircle
 10
-294.1832275390625
 20
155.7286071777344
 30
0.0
 40
2.0
100
AcDbArc
 50
305.9997985383335
 51
21.52265738318204
  0
ARC
  5
199
330
22
100
AcDbEntity
  8
0
  6
Continuous
 62
     7
100
AcDbCircle
 10
-300.7886047363281
 20
214.8168029785156
 30
0.0
 40
5.0
100
AcDbArc
 50
107.9998422041455
 51
288.0002288261021
  0
ARC
  5
19A
330
22
100
AcDbEntity
  8
0
  6
Continuous
 62
     7
100
AcDbCircle
 10
-301.3500366210938
 20
206.8365325927734
 30
0.0
 40
2.0
100
AcDbArc
 50
18.0003368929858
 51
85.97595559467889
  0
CIRCLE
  5
19B
330
22
100
AcDbEntity
  8
0
  6
Continuous
 62
     7
100
AcDbCircle
 10
-300.7886047363281
 20
214.8168029785156
 30
0.0
 40
4.75
  0
ARC
  5
19C
330
22
100
AcDbEntity
  8
0
  6
Continuous
 62
     7
100
AcDbCircle
 10
-283.0201110839844
 20
160.1312408447266
 30
0.0
 40
10.0
100
AcDbArc
 50
50.47759970530903
 51
57.52250473490442
  0
ARC
  5
19D
330
22
100
AcDbEntity
  8
0
  6
Continuous
 62
     7
100
AcDbCircle
 10
-289.4637451171875
 20
170.2542877197266
 30
0.0
 40
2.0
100
AcDbArc
 50
302.4775958257367
 51
17.99965099385939
  0
ARC
  5
19E
330
22
100
AcDbEntity
  8
0
  6
Continuous
 62
     7
100
AcDbCircle
 10
-276.5765075683594
 20
170.2544708251953
 30
0.0
 40
2.0
100
AcDbArc
 50
161.9996631070142
 51
237.5229069833515
  0
ARC
  5
19F
330
22
100
AcDbEntity
  8
0
  6
Continuous
 62
     7
100
AcDbCircle
 10
-283.0201110839844
 20
160.1310577392578
 30
0.0
 40
20.5
100
AcDbArc
 50
110.7960751016874
 51
141.2039875312855
  0
ARC
  5
1A0
330
22
100
AcDbEntity
  8
0
  6
Continuous
 62
     7
100
AcDbCircle
 10
-294.48193359375
 20
175.9068908691406
 30
0.0
 40
40.0
100
AcDbArc
 50
110.8827550485682
 51
148.5671250736448
  0
ARC
  5
1A1
330
22
100
AcDbEntity
  8
0
  6
Continuous
 62
     7
100
AcDbCircle
 10
-326.9054870605469
 20
195.7238616943359
 30
0.0
 40
2.0
100
AcDbArc
 50
148.5672432024339
 51
233.99949417329
  0
ARC
  5
1A2
330
22
100
AcDbEntity
  8
0
  6
Continuous
 62
     7
100
AcDbCircle
 10
-283.0201110839844
 20
160.1310577392578
 30
0.0
 40
22.0
100
AcDbArc
 50
110.6052402312371
 51
141.3947569396938
  0
ARC
  5
1A3
330
22
100
AcDbEntity
  8
0
  6
Continuous
 62
     7
100
AcDbCircle
 10
-283.0201110839844
 20
160.1310577392578
 30
0.0
 40
28.5
100
AcDbArc
 50
110.0108033694466
 51
141.9892261949316
  0
ARC
  5
1A4
330
22
100
AcDbEntity
  8
0
  6
Continuous
 62
     7
100
AcDbCircle
 10
-283.0199279785156
 20
160.1309967041016
 30
0.0
 40
40.0
100
AcDbArc
 50
181.4325430119064
 51
214.5674451976474
  0
ARC
  5
1A5
330
22
100
AcDbEntity
  8
0
  6
Continuous
 62
     7
100
AcDbCircle
 10
-283.0199279785156
 20
160.1309967041016
 30
0.0
 40
10.0
100
AcDbArc
 50
194.4775032562587
 51
201.5223836090911
  0
ARC
  5
1A6
330
22
100
AcDbEntity
  8
0
  6
Continuous
 62
     7
100
AcDbCircle
 10
-283.0199279785156
 20
160.1309967041016
 30
0.0
 40
28.5
100
AcDbArc
 50
182.0107908526746
 51
213.9891836621352
  0
ARC
  5
1A7
330
22
100
AcDbEntity
  8
0
  6
Continuous
 62
     7
100
AcDbCircle
 10
-283.0199279785156
 20
160.1309967041016
 30
0.0
 40
27.0
100
AcDbArc
 50
182.1225513068435
 51
213.8774399190749
  0
ARC
  5
1A8
330
22
100
AcDbEntity
  8
0
  6
Continuous
 62
     7
100
AcDbCircle
 10
-283.0199279785156
 20
160.1309967041016
 30
0.0
 40
20.5
100
AcDbArc
 50
182.7960228024485
 51
213.2039479505484
  0
ARC
  5
1A9
330
22
100
AcDbEntity
  8
0
  6
Continuous
 62
     7
100
AcDbCircle
 10
-283.0199279785156
 20
160.1309967041016
 30
0.0
 40
22.0
100
AcDbArc
 50
182.6052508591979
 51
213.3947289131737
  0
ARC
  5
1AA
330
22
100
AcDbEntity
  8
0
  6
Continuous
 62
     7
100
AcDbCircle
 10
-283.0199279785156
 20
160.1309967041016
 30
0.0
 40
33.5
100
AcDbArc
 50
181.7105755942139
 51
214.2894095799518
  0
ARC
  5
1AB
330
22
100
AcDbEntity
  8
0
  6
Continuous
 62
     7
100
AcDbCircle
 10
-283.0199279785156
 20
160.1309967041016
 30
0.0
 40
35.0
100
AcDbArc
 50
181.6372447782331
 51
214.3627283901643
  0
ARC
  5
1AC
330
22
100
AcDbEntity
  8
0
  6
Continuous
 62
     7
100
AcDbCircle
 10
-265.2516479492188
 20
214.8168029785156
 30
0.0
 40
5.0
100
AcDbArc
 50
252.000103763747
 51
71.9998252068702
  0
ARC
  5
1AD
330
22
100
AcDbEntity
  8
0
  6
Continuous
 62
     7
100
AcDbCircle
 10
-283.0201110839844
 20
160.1312408447266
 30
0.0
 40
48.0
100
AcDbArc
 50
37.19375969698024
 51
70.8062662802649
  0
ARC
  5
1AE
330
22
100
AcDbEntity
  8
0
  6
Continuous
 62
     7
100
AcDbCircle
 10
-283.0201110839844
 20
160.1312408447266
 30
0.0
 40
46.5
100
AcDbArc
 50
37.23227788385278
 51
70.7677493241186
  0
ARC
  5
1AF
330
22
100
AcDbEntity
  8
0
  6
Continuous
 62
     7
100
AcDbCircle
 10
-283.0201110839844
 20
160.1312408447266
 30
0.0
 40
53.0
100
AcDbArc
 50
37.08113356667757
 51
67.87985003111784
  0
ARC
  5
1B0
330
22
100
AcDbEntity
  8
0
  6
Continuous
 62
     7
100
AcDbCircle
 10
-283.0201110839844
 20
160.1312408447266
 30
0.0
 40
54.5
100
AcDbArc
 50
37.05135991299354
 51
66.6796450524134
  0
ARC
  5
1B1
330
22
100
AcDbEntity
  8
0
  6
Continuous
 62
     7
100
AcDbCircle
 10
-283.0199279785156
 20
160.1313018798828
 30
0.0
 40
27.0
100
AcDbArc
 50
326.1225239823133
 51
357.8774462946253
  0
ARC
  5
1B2
330
22
100
AcDbEntity
  8
0
  6
Continuous
 62
     7
100
AcDbCircle
 10
-283.0201110839844
 20
160.1312408447266
 30
0.0
 40
40.0
100
AcDbArc
 50
37.43255262384856
 51
70.56747469248209
  0
ARC
  5
1B3
330
22
100
AcDbEntity
  8
0
  6
Continuous
 62
     7
100
AcDbCircle
 10
-265.2516479492188
 20
214.8168029785156
 30
0.0
 40
6.0
100
AcDbArc
 50
274.0240546306004
 51
334.8026067019914
  0
ARC
  5
1B4
330
22
100
AcDbEntity
  8
0
  6
Continuous
 62
     7
100
AcDbCircle
 10
-283.0199279785156
 20
160.1313018798828
 30
0.0
 40
22.0
100
AcDbArc
 50
326.605227341463
 51
357.3947455281377
  0
ARC
  5
1B5
330
22
100
AcDbEntity
  8
0
  6
Continuous
 62
     7
100
AcDbCircle
 10
-283.0199279785156
 20
160.1313018798828
 30
0.0
 40
20.5
100
AcDbArc
 50
326.7960053405766
 51
357.203973036869
  0
ARC
  5
1B6
330
22
100
AcDbEntity
  8
0
  6
Continuous
 62
     7
100
AcDbCircle
 10
-264.6902770996094
 20
206.8365325927734
 30
0.0
 40
2.0
100
AcDbArc
 50
94.0231722963958
 51
162.0000788466785
  0
ARC
  5
1B7
330
22
100
AcDbEntity
  8
0
  6
Continuous
 62
     7
100
AcDbCircle
 10
-265.2516479492188
 20
214.8168029785156
 30
0.0
 40
2.75
100
AcDbArc
 50
252.0000637041868
 51
72.00016194439604
  0
ARC
  5
1B8
330
22
100
AcDbEntity
  8
0
  6
Continuous
 62
     7
100
AcDbCircle
 10
-283.0201110839844
 20
160.1312408447266
 30
0.0
 40
41.5
100
AcDbArc
 50
37.38075702545589
 51
70.61927921148939
  0
ARC
  5
1B9
330
22
100
AcDbEntity
  8
0
  6
Continuous
 62
     7
100
AcDbCircle
 10
-275.383544921875
 20
169.3877410888672
 30
0.0
 40
2.0
100
AcDbArc
 50
230.4772422815017
 51
306.0000554778671
  0
ARC
  5
1BA
330
22
100
AcDbEntity
  8
0
  6
Continuous
 62
     7
100
AcDbCircle
 10
-283.0201110839844
 20
160.1312408447266
 30
0.0
 40
22.0
100
AcDbArc
 50
38.60529265108321
 51
69.39475976876291
  0
ARC
  5
1BB
330
22
100
AcDbEntity
  8
0
  6
Continuous
 62
     7
100
AcDbCircle
 10
-283.0201110839844
 20
160.1310577392578
 30
0.0
 40
52.5
100
AcDbArc
 50
72.00000319223343
 51
107.9999968077666
  0
ARC
  5
1BC
330
22
100
AcDbEntity
  8
0
  6
Continuous
 62
     7
100
AcDbCircle
 10
-283.0201110839844
 20
160.1310577392578
 30
0.0
 40
54.75
100
AcDbArc
 50
72.00000933742734
 51
104.0442564573641
  0
ARC
  5
1BD
330
22
100
AcDbEntity
  8
0
  6
Continuous
 62
     7
100
AcDbCircle
 10
-271.8566589355469
 20
155.7289123535156
 30
0.0
 40
2.0
100
AcDbArc
 50
158.477342616818
 51
234.0002014616679
  0
ARC
  5
1BE
330
22
100
AcDbEntity
  8
0
  6
Continuous
 62
     7
100
AcDbCircle
 10
-283.0199279785156
 20
160.1313018798828
 30
0.0
 40
10.0
100
AcDbArc
 50
338.4775522435453
 51
345.5224530304557
  0
ARC
  5
1BF
330
22
100
AcDbEntity
  8
0
  6
Continuous
 62
     7
100
AcDbCircle
 10
-271.4010009765625
 20
157.1313018798828
 30
0.0
 40
2.0
100
AcDbArc
 50
90.00000000000019
 51
165.522496743742
  0
ARC
  5
1C0
330
22
100
AcDbEntity
  8
0
  6
Continuous
 62
     7
100
AcDbCircle
 10
-283.0201110839844
 20
160.1312408447266
 30
0.0
 40
20.5
100
AcDbArc
 50
38.79606590972857
 51
69.2040197769673
  0
ARC
  5
1C1
330
22
100
AcDbEntity
  8
0
  6
Continuous
 62
     7
100
AcDbCircle
 10
-283.0201110839844
 20
160.1310577392578
 30
0.0
 40
10.0
100
AcDbArc
 50
122.4775422103119
 51
129.5225908081691
  0
ARC
  5
1C2
330
22
100
AcDbEntity
  8
0
  6
Continuous
 62
     7
100
AcDbCircle
 10
-290.6567077636719
 20
169.3875579833984
 30
0.0
 40
2.0
100
AcDbArc
 50
233.9999445221343
 51
309.5224795352713
  0
ARC
  5
1C3
330
22
100
AcDbEntity
  8
0
  6
Continuous
 62
     7
100
AcDbCircle
 10
-283.0201110839844
 20
160.1312408447266
 30
0.0
 40
27.0
100
AcDbArc
 50
38.12255219935885
 51
69.87746009754582
  0
ARC
  5
1C4
330
22
100
AcDbEntity
  8
0
  6
Continuous
 62
     7
100
AcDbCircle
 10
-283.0201110839844
 20
160.1310577392578
 30
0.0
 40
62.5
100
AcDbArc
 50
71.99999699906573
 51
108.0000030009343
  0
ARC
  5
1C5
330
22
100
AcDbEntity
  8
0
  6
Continuous
 62
     7
100
AcDbCircle
 10
-283.0201110839844
 20
160.1310577392578
 30
0.0
 40
60.25
100
AcDbArc
 50
72.00001878438252
 51
104.2292021625122
  0
ARC
  5
1C6
330
22
100
AcDbEntity
  8
0
  6
Continuous
 62
     7
100
AcDbCircle
 10
-283.0201110839844
 20
160.1312408447266
 30
0.0
 40
33.5
100
AcDbArc
 50
37.71059942772799
 51
70.2894608737866
  0
ARC
  5
1C7
330
22
100
AcDbEntity
  8
0
  6
Continuous
 62
     7
100
AcDbCircle
 10
-283.0201110839844
 20
160.1312408447266
 30
0.0
 40
35.0
100
AcDbArc
 50
37.6372547547723
 51
70.36275178483258
  0
ARC
  5
1C8
330
22
100
AcDbEntity
  8
0
  6
Continuous
 62
     7
100
AcDbCircle
 10
-283.0201110839844
 20
160.1312408447266
 30
0.0
 40
28.5
100
AcDbArc
 50
38.01081158615865
 51
69.98925427851562
  0
CIRCLE
  5
1C9
330
22
100
AcDbEntity
  8
0
  6
Continuous
 62
     7
100
AcDbCircle
 10
-283.0201110839844
 20
160.1310577392578
 30
0.0
 40
78.0
  0
ARC
  5
1CA
330
22
100
AcDbEntity
  8
0
  6
Continuous
 62
     7
100
AcDbCircle
 10
-235.6078491210938
 20
129.3926086425781
 30
0.0
 40
2.0
100
AcDbArc
 50
234.0000729922976
 51
319.4328906413672
  0
ARC
  5
1CB
330
22
100
AcDbEntity
  8
0
  6
Continuous
 62
     7
100
AcDbCircle
 10
-264.4743347167969
 20
154.10546875
 30
0.0
 40
40.0
100
AcDbArc
 50
319.4328692599675
 51
4.567139402662893
  0
ARC
  5
1CC
330
22
100
AcDbEntity
  8
0
  6
Continuous
 62
     7
100
AcDbCircle
 10
-283.0199279785156
 20
160.1313018798828
 30
0.0
 40
53.0
100
AcDbArc
 50
325.0811050723137
 51
358.9188831919972
  0
ARC
  5
1CD
330
22
100
AcDbEntity
  8
0
  6
Continuous
 62
     7
100
AcDbCircle
 10
-283.0199279785156
 20
160.1313018798828
 30
0.0
 40
46.5
100
AcDbArc
 50
325.2322528423899
 51
358.7677372057066
  0
ARC
  5
1CE
330
22
100
AcDbEntity
  8
0
  6
Continuous
 62
     7
100
AcDbCircle
 10
-283.0199279785156
 20
160.1313018798828
 30
0.0
 40
48.0
100
AcDbArc
 50
325.193743637125
 51
358.8062510850333
  0
ARC
  5
1CF
330
22
100
AcDbEntity
  8
0
  6
Continuous
 62
     7
100
AcDbCircle
 10
-283.0199279785156
 20
160.1313018798828
 30
0.0
 40
41.5
100
AcDbArc
 50
325.3807476083445
 51
358.6192445082708
  0
ARC
  5
1D0
330
22
100
AcDbEntity
  8
0
  6
Continuous
 62
     7
100
AcDbCircle
 10
-283.0199279785156
 20
160.1313018798828
 30
0.0
 40
54.5
100
AcDbArc
 50
325.0513515261308
 51
358.9486420873947
  0
ARC
  5
1D1
330
22
100
AcDbEntity
  8
0
  6
Continuous
 62
     7
100
AcDbCircle
 10
-283.0199279785156
 20
160.1309967041016
 30
0.0
 40
41.5
100
AcDbArc
 50
181.3807539688436
 51
214.6192284549244
  0
ARC
  5
1D2
330
22
100
AcDbEntity
  8
0
  6
Continuous
 62
     7
100
AcDbCircle
 10
-283.0199279785156
 20
160.1309967041016
 30
0.0
 40
53.0
100
AcDbArc
 50
181.0811164967674
 51
214.9188625173021
  0
ARC
  5
1D3
330
22
100
AcDbEntity
  8
0
  6
Continuous
 62
     7
100
AcDbCircle
 10
-283.0199279785156
 20
160.1309967041016
 30
0.0
 40
48.0
100
AcDbArc
 50
181.193748156058
 51
214.8062251733364
  0
ARC
  5
1D4
330
22
100
AcDbEntity
  8
0
  6
Continuous
 62
     7
100
AcDbCircle
 10
-283.0199279785156
 20
160.1309967041016
 30
0.0
 40
46.5
100
AcDbArc
 50
181.2322619856332
 51
214.7677257145979
  0
ARC
  5
1D5
330
22
100
AcDbEntity
  8
0
  6
Continuous
 62
     7
100
AcDbCircle
 10
-283.0199279785156
 20
160.1309967041016
 30
0.0
 40
54.5
100
AcDbArc
 50
181.0513573239263
 51
214.9486209060647
  0
ARC
  5
1D6
330
22
100
AcDbEntity
  8
0
  6
Continuous
 62
     7
100
AcDbCircle
 10
-301.5655517578125
 20
154.1051635742188
 30
0.0
 40
40.0
100
AcDbArc
 50
175.4328605973371
 51
220.567130740034
  0
ARC
  5
1D7
330
22
100
AcDbEntity
  8
0
  6
Continuous
 62
     7
100
AcDbCircle
 10
-283.0198364257813
 20
160.1311492919922
 30
0.0
 40
28.5
100
AcDbArc
 50
254.0108072559962
 51
285.9891927440052
  0
ARC
  5
1D8
330
22
100
AcDbEntity
  8
0
  6
Continuous
 62
     7
100
AcDbCircle
 10
-117.308135986328
 20
205.6310577392578
 30
0.0
 40
4.0
100
AcDbArc
 50
204.9999989102665
 51
270.0000000000005
  0
LWPOLYLINE
  5
1D9
330
22
100
AcDbEntity
  8
0
  6
Continuous
 62
     7
100
AcDbPolyline
 90
       17
 70
     0
 43
0.0
 10
-146.5402832031251
 20
220.0668029785157
 42
0.0491268497694673
 10
-146.909802521665
 20
219.9659257006326
 42
0.0491268497694673
 10
-147.2651214200223
 20
219.6671705241999
 42
0.0491268497694673
 10
-147.5925851921982
 20
219.182018443104
 42
0.0491268497694673
 10
-147.8796095890718
 20
218.529113579745
 42
0.0491268497694673
 10
-148.1151644240363
 20
217.7335467018685
 42
0.0491268497694673
 10
-148.2901974568848
 20
216.8258909984323
 42
0.0491268497694673
 10
-148.3979822663244
 20
215.8410271691003
 42
0.0491268497694673
 10
-148.434376742575
 20
214.8168029785156
 42
0.0491268497694673
 10
-148.3979822663244
 20
213.7925787879309
 42
0.0491268497694673
 10
-148.2901974568847
 20
212.8077149585989
 42
0.0491268497694673
 10
-148.1151644240362
 20
211.9000592551627
 42
0.0491268497694673
 10
-147.8796095890717
 20
211.1044923772862
 42
0.0491268497694673
 10
-147.592585192198
 20
210.4515875139272
 42
0.0491268497694673
 10
-147.2651214200222
 20
209.9664354328313
 42
0.0491268497694673
 10
-146.9098025216649
 20
209.6676802563986
 42
0.0491268497694673
 10
-146.5402832031249
 20
209.5668029785156
 42
-1.0
  0
TEXT
  5
1EC
330
22
100
AcDbEntity
  8
0
  6
Continuous
 62
     7
100
AcDbText
 10
-303.9364557266235
 20
54.4123306274414
 30
0.0
 40
7.0
  1
ＤＬ－ＳＵＣ－６５Ｇ
 41
0.8443929888818491
100
AcDbText
  0
DIMENSION
  5
1ED
330
22
100
AcDbEntity
  8
0
  6
Continuous
 62
     7
100
AcDbDimension
  2
*D1
 10
-345.572286038061
 20
141.3876373717217
 30
0.0
 11
-175.9892425537109
 21
192.2022857666016
 31
0.0
 70
     3
 71
     5
 42
-1.0
  3
DIMSTYLE1
100
AcDbDiametricDimension
 15
-220.4679361299077
 25
178.8744781067939
 35
0.0
 40
0.0
  0
DIMENSION
  5
1EE
330
22
100
AcDbEntity
  8
0
  6
Continuous
 62
     7
100
AcDbDimension
  2
*D2
 10
-350.3683322350012
 20
120.7836676378326
 30
0.0
 11
-185.4189605712891
 21
217.1533660888672
 31
0.0
 70
     3
 71
     5
 42
-1.0
  3
DIMSTYLE2
100
AcDbDiametricDimension
 15
-215.6718899329676
 25
199.4784478406829
 35
0.0
 40
0.0
  0
DIMENSION
  5
1EF
330
22
100
AcDbEntity
  8
0
  6
Continuous
 62
     7
100
AcDbDimension
  2
*D3
 10
-93.14618682861327
 20
258.4728698730469
 30
0.0
 11
-119.6461868286133
 21
258.4728698730469
 31
0.0
 71
     5
 42
-1.0
  3
DIMSTYLE3
100
AcDbAlignedDimension
 13
-146.1461944580078
 23
237.6310577392578
 33
0.0
 14
-93.14618682861327
 24
200.6310577392578
 34
0.0
100
AcDbRotatedDimension
  0
INSERT
  5
1F0
330
22
100
AcDbEntity
  8
0
  6
Continuous
 62
     7
100
AcDbBlockReference
  2
KOZU0001
 10
-101.1332092285156
 20
196.0133361816406
 30
0.0
  0
ENDSEC
  0
SECTION
  2
OBJECTS
  0
DICTIONARY
  5
C
330
0
100
AcDbDictionary
281
     1
  3
ACAD_COLOR
350
1B
  3
ACAD_GROUP
350
D
  3
ACAD_LAYOUT
350
19
  3
ACAD_MATERIAL
350
1A
  3
ACAD_MLINESTYLE
350
16
  3
ACAD_PLOTSETTINGS
350
18
  3
ACAD_PLOTSTYLENAME
350
E
  3
ACAD_TABLESTYLE
350
1C
  3
AcDbVariableDictionary
350
1FC
  0
DICTIONARY
  5
1B
102
{ACAD_REACTORS
330
C
102
}
330
C
100
AcDbDictionary
281
     1
  0
DICTIONARY
  5
D
102
{ACAD_REACTORS
330
C
102
}
330
C
100
AcDbDictionary
281
     1
  0
DICTIONARY
  5
19
102
{ACAD_REACTORS
330
C
102
}
330
C
100
AcDbDictionary
281
     1
  3
Model
350
25
  3
レイアウト1
350
21
  0
DICTIONARY
  5
1A
102
{ACAD_REACTORS
330
C
102
}
330
C
100
AcDbDictionary
281
     1
  0
DICTIONARY
  5
16
102
{ACAD_REACTORS
330
C
102
}
330
C
100
AcDbDictionary
281
     1
  3
Standard
350
17
  0
DICTIONARY
  5
18
102
{ACAD_REACTORS
330
C
102
}
330
C
100
AcDbDictionary
281
     1
  0
ACDBDICTIONARYWDFLT
  5
E
102
{ACAD_REACTORS
330
C
102
}
330
C
100
AcDbDictionary
281
     1
  3
Normal
350
F
100
AcDbDictionaryWithDefault
340
F
  0
DICTIONARY
  5
1C
102
{ACAD_REACTORS
330
C
102
}
330
C
100
AcDbDictionary
281
     1
  3
Standard
350
1D
  0
DICTIONARY
  5
1FC
102
{ACAD_REACTORS
330
C
102
}
330
C
100
AcDbDictionary
281
     1
  3
CTABLESTYLE
350
1FD
  0
LAYOUT
  5
25
102
{ACAD_REACTORS
330
19
102
}
330
19
100
AcDbPlotSettings
  1

  2
PDF reDirect v2
  4
A3
  6

 40
3.174999952316284
 41
3.174999952316284
 42
3.17498779296875
 43
3.17498779296875
 44
297.0530090332031
 45
420.1583251953125
 46
0.0
 47
0.0
 48
0.0
 49
0.0
140
0.0
141
0.0
142
1.0
143
1.0
 70
 11952
 72
     1
 73
     1
 74
     2
  7
C:\Users\ck\AppData\Roaming\Autodesk\AutoCAD 2005\R16.1\jpn\Plot Styles\black.ctb
 75
    16
147
1.0
 76
     0
 77
     2
 78
   300
148
423.0
149
2.0
100
AcDbLayout
  1
Model
 70
     1
 71
     0
 10
0.0
 20
0.0
 11
12.0
 21
9.0
 12
0.0
 22
0.0
 32
0.0
 14
0.0
 24
0.0
 34
0.0
 15
0.0
 25
0.0
 35
0.0
146
0.0
 13
0.0
 23
0.0
 33
0.0
 16
1.0
 26
0.0
 36
0.0
 17
0.0
 27
1.0
 37
0.0
 76
     0
330
22
1001
ACAD_PSEXT
1000
PDF reDirect v2
1000
PDF reDirect Pro
1000
PDF_REDIRECT_PORT:
1000
PDF reDirect provided by EXP Systems
1070
     0
  0
LAYOUT
  5
21
102
{ACAD_REACTORS
330
19
102
}
330
19
100
AcDbPlotSettings
  1

  2
PDF reDirect v2
  4

  6

 40
0.0
 41
0.0
 42
0.0
 43
0.0
 44
0.0
 45
0.0
 46
0.0
 47
0.0
 48
0.0
 49
0.0
140
0.0
141
0.0
142
1.0
143
1.0
 70
   688
 72
     0
 73
     0
 74
     5
  7
C:\Users\ck\AppData\Roaming\Autodesk\AutoCAD 2005\R16.1\jpn\Plot Styles\black.ctb
 75
    16
147
1.0
 76
     0
 77
     2
 78
   300
148
0.0
149
0.0
100
AcDbLayout
  1
レイアウト1
 70
     1
 71
     1
 10
-423.0
 20
-2.0
 11
-5.0
 21
293.0
 12
0.0
 22
0.0
 32
0.0
 14
1.000000000000000E+20
 24
1.000000000000000E+20
 34
1.000000000000000E+20
 15
-1.000000000000000E+20
 25
-1.000000000000000E+20
 35
-1.000000000000000E+20
146
0.0
 13
0.0
 23
0.0
 33
0.0
 16
1.0
 26
0.0
 36
0.0
 17
0.0
 27
1.0
 37
0.0
 76
     0
330
1E
  0
MLINESTYLE
  5
17
102
{ACAD_REACTORS
330
16
102
}
330
16
100
AcDbMlineStyle
  2
STANDARD
 70
     0
  3

 62
   256
 51
90.0
 52
90.0
 71
     2
 49
0.5
 62
   256
  6
BYLAYER
 49
-0.5
 62
   256
  6
BYLAYER
  0
ACDBPLACEHOLDER
  5
F
102
{ACAD_REACTORS
330
E
102
}
330
E
  0
TABLESTYLE
  5
1D
102
{ACAD_REACTORS
330
1C
102
}
330
1C
100
AcDbTableStyle
  3
Standard
 70
     0
 71
     0
 40
0.06
 41
0.06
280
     0
281
     0
  7
STANDARD
140
0.18
170
     2
 62
     0
 63
     7
283
     0
274
    -2
284
     1
 64
     0
275
    -2
285
     1
 65
     0
276
    -2
286
     1
 66
     0
277
    -2
287
     1
 67
     0
278
    -2
288
     1
 68
     0
279
    -2
289
     1
 69
     0
  7
STANDARD
140
0.25
170
     5
 62
     0
 63
     7
283
     0
274
    -2
284
     1
 64
     0
275
    -2
285
     1
 65
     0
276
    -2
286
     1
 66
     0
277
    -2
287
     1
 67
     0
278
    -2
288
     1
 68
     0
279
    -2
289
     1
 69
     0
  7
STANDARD
140
0.18
170
     5
 62
     0
 63
     7
283
     0
274
    -2
284
     1
 64
     0
275
    -2
285
     1
 65
     0
276
    -2
286
     1
 66
     0
277
    -2
287
     1
 67
     0
278
    -2
288
     1
 68
     0
279
    -2
289
     1
 69
     0
  0
DICTIONARYVAR
  5
1FD
102
{ACAD_REACTORS
330
1FC
102
}
330
1FC
100
DictionaryVariables
280
     0
  1
STANDARD
  0
ENDSEC
  0
EOF
