  0
SECTION
  2
HEADER
  9
$ACADVER
  1
AC1018
  9
$ACADMAINTVER
 70
    39
  9
$DWGCODEPAGE
  3
ANSI_932
  9
$INSBASE
 10
0.0
 20
0.0
 30
0.0
  9
$EXTMIN
 10
-563.3828110883277
 20
8.82101538779807
 30
-0.0015258207003583
  9
$EXTMAX
 10
-62.8078600228855
 20
411.5708017469976
 30
0.0000000349246037
  9
$LIMMIN
 10
-592.0
 20
0.0
  9
$LIMMAX
 10
0.0
 20
418.0
  9
$ORTHOMODE
 70
     0
  9
$REGENMODE
 70
     1
  9
$FILLMODE
 70
     1
  9
$QTEXTMODE
 70
     0
  9
$MIRRTEXT
 70
     0
  9
$LTSCALE
 40
1.0
  9
$ATTMODE
 70
     1
  9
$TEXTSIZE
 40
0.2
  9
$TRACEWID
 40
0.05
  9
$TEXTSTYLE
  7
STANDARD
  9
$CLAYER
  8
0
  9
$CELTYPE
  6
CONTINUOUS
  9
$CECOLOR
 62
   256
  9
$CELTSCALE
 40
1.0
  9
$DISPSILH
 70
     0
  9
$DIMSCALE
 40
1.0
  9
$DIMASZ
 40
1.0
  9
$DIMEXO
 40
2.54
  9
$DIMDLI
 40
0.38
  9
$DIMRND
 40
0.0
  9
$DIMDLE
 40
0.0
  9
$DIMEXE
 40
2.54
  9
$DIMTP
 40
0.0
  9
$DIMTM
 40
0.0
  9
$DIMTXT
 40
3.0
  9
$DIMCEN
 40
0.09
  9
$DIMTSZ
 40
0.0
  9
$DIMTOL
 70
     0
  9
$DIMLIM
 70
     0
  9
$DIMTIH
 70
     0
  9
$DIMTOH
 70
     0
  9
$DIMSE1
 70
     0
  9
$DIMSE2
 70
     0
  9
$DIMTAD
 70
     1
  9
$DIMZIN
 70
     0
  9
$DIMBLK
  1

  9
$DIMASO
 70
     1
  9
$DIMSHO
 70
     0
  9
$DIMPOST
  1

  9
$DIMAPOST
  1

  9
$DIMALT
 70
     0
  9
$DIMALTD
 70
     2
  9
$DIMALTF
 40
25.4
  9
$DIMLFAC
 40
1.0
  9
$DIMTOFL
 70
     0
  9
$DIMTVP
 40
1.0
  9
$DIMTIX
 70
     0
  9
$DIMSOXD
 70
     0
  9
$DIMSAH
 70
     1
  9
$DIMBLK1
  1

  9
$DIMBLK2
  1

  9
$DIMSTYLE
  2
DIMSTYLE1
  9
$DIMCLRD
 70
     0
  9
$DIMCLRE
 70
     0
  9
$DIMCLRT
 70
     0
  9
$DIMTFAC
 40
1.0
  9
$DIMGAP
 40
1.5
  9
$DIMJUST
 70
     0
  9
$DIMSD1
 70
     0
  9
$DIMSD2
 70
     0
  9
$DIMTOLJ
 70
     1
  9
$DIMTZIN
 70
     0
  9
$DIMALTZ
 70
     0
  9
$DIMALTTZ
 70
     0
  9
$DIMUPT
 70
     0
  9
$DIMDEC
 70
     4
  9
$DIMTDEC
 70
     4
  9
$DIMALTU
 70
     2
  9
$DIMALTTD
 70
     2
  9
$DIMTXSTY
  7
STANDARD
  9
$DIMAUNIT
 70
     0
  9
$DIMADEC
 70
     0
  9
$DIMALTRND
 40
0.0
  9
$DIMAZIN
 70
     0
  9
$DIMDSEP
 70
    46
  9
$DIMATFIT
 70
     3
  9
$DIMFRAC
 70
     0
  9
$DIMLDRBLK
  1

  9
$DIMLUNIT
 70
     2
  9
$DIMLWD
 70
    -2
  9
$DIMLWE
 70
    -2
  9
$DIMTMOVE
 70
     0
  9
$LUNITS
 70
     2
  9
$LUPREC
 70
     4
  9
$SKETCHINC
 40
0.1
  9
$FILLETRAD
 40
0.0
  9
$AUNITS
 70
     0
  9
$AUPREC
 70
     0
  9
$MENU
  1
.
  9
$ELEVATION
 40
0.0
  9
$PELEVATION
 40
0.0
  9
$THICKNESS
 40
0.0
  9
$LIMCHECK
 70
     0
  9
$CHAMFERA
 40
0.0
  9
$CHAMFERB
 40
0.0
  9
$CHAMFERC
 40
0.0
  9
$CHAMFERD
 40
0.0
  9
$SKPOLY
 70
     0
  9
$TDCREATE
 40
2457841.610446481
  9
$TDUCREATE
 40
2457841.235446482
  9
$TDUPDATE
 40
2457841.611113692
  9
$TDUUPDATE
 40
2457841.236113692
  9
$TDINDWG
 40
0.0006682870
  9
$TDUSRTIMER
 40
0.0006682870
  9
$USRTIMER
 70
     1
  9
$ANGBASE
 50
0.0
  9
$ANGDIR
 70
     0
  9
$PDMODE
 70
     0
  9
$PDSIZE
 40
0.0
  9
$PLINEWID
 40
0.0
  9
$SPLFRAME
 70
     0
  9
$SPLINETYPE
 70
     6
  9
$SPLINESEGS
 70
     8
  9
$HANDSEED
  5
38A
  9
$SURFTAB1
 70
     6
  9
$SURFTAB2
 70
     6
  9
$SURFTYPE
 70
     6
  9
$SURFU
 70
     6
  9
$SURFV
 70
     6
  9
$UCSBASE
  2

  9
$UCSNAME
  2

  9
$UCSORG
 10
0.0
 20
0.0
 30
0.0
  9
$UCSXDIR
 10
1.0
 20
0.0
 30
0.0
  9
$UCSYDIR
 10
0.0
 20
1.0
 30
0.0
  9
$UCSORTHOREF
  2

  9
$UCSORTHOVIEW
 70
     0
  9
$UCSORGTOP
 10
0.0
 20
0.0
 30
0.0
  9
$UCSORGBOTTOM
 10
0.0
 20
0.0
 30
0.0
  9
$UCSORGLEFT
 10
0.0
 20
0.0
 30
0.0
  9
$UCSORGRIGHT
 10
0.0
 20
0.0
 30
0.0
  9
$UCSORGFRONT
 10
0.0
 20
0.0
 30
0.0
  9
$UCSORGBACK
 10
0.0
 20
0.0
 30
0.0
  9
$PUCSBASE
  2

  9
$PUCSNAME
  2

  9
$PUCSORG
 10
0.0
 20
0.0
 30
0.0
  9
$PUCSXDIR
 10
1.0
 20
0.0
 30
0.0
  9
$PUCSYDIR
 10
0.0
 20
1.0
 30
0.0
  9
$PUCSORTHOREF
  2

  9
$PUCSORTHOVIEW
 70
     0
  9
$PUCSORGTOP
 10
0.0
 20
0.0
 30
0.0
  9
$PUCSORGBOTTOM
 10
0.0
 20
0.0
 30
0.0
  9
$PUCSORGLEFT
 10
0.0
 20
0.0
 30
0.0
  9
$PUCSORGRIGHT
 10
0.0
 20
0.0
 30
0.0
  9
$PUCSORGFRONT
 10
0.0
 20
0.0
 30
0.0
  9
$PUCSORGBACK
 10
0.0
 20
0.0
 30
0.0
  9
$USERI1
 70
     0
  9
$USERI2
 70
     0
  9
$USERI3
 70
     0
  9
$USERI4
 70
     0
  9
$USERI5
 70
     0
  9
$USERR1
 40
0.0
  9
$USERR2
 40
0.0
  9
$USERR3
 40
0.0
  9
$USERR4
 40
0.0
  9
$USERR5
 40
0.0
  9
$WORLDVIEW
 70
     1
  9
$SHADEDGE
 70
     3
  9
$SHADEDIF
 70
    70
  9
$TILEMODE
 70
     1
  9
$MAXACTVP
 70
    64
  9
$PINSBASE
 10
0.0
 20
0.0
 30
0.0
  9
$PLIMCHECK
 70
     0
  9
$PEXTMIN
 10
1.000000000000000E+20
 20
1.000000000000000E+20
 30
1.000000000000000E+20
  9
$PEXTMAX
 10
-1.000000000000000E+20
 20
-1.000000000000000E+20
 30
-1.000000000000000E+20
  9
$PLIMMIN
 10
-592.0
 20
0.0
  9
$PLIMMAX
 10
0.0
 20
418.0
  9
$UNITMODE
 70
     0
  9
$VISRETAIN
 70
     1
  9
$PLINEGEN
 70
     0
  9
$PSLTSCALE
 70
     1
  9
$TREEDEPTH
 70
  3020
  9
$CMLSTYLE
  2
Standard
  9
$CMLJUST
 70
     0
  9
$CMLSCALE
 40
1.0
  9
$PROXYGRAPHICS
 70
     1
  9
$MEASUREMENT
 70
     0
  9
$CELWEIGHT
370
    -1
  9
$ENDCAPS
280
     0
  9
$JOINSTYLE
280
     0
  9
$LWDISPLAY
290
     0
  9
$INSUNITS
 70
     0
  9
$HYPERLINKBASE
  1

  9
$STYLESHEET
  1

  9
$XEDIT
290
     1
  9
$CEPSNTYPE
380
     0
  9
$PSTYLEMODE
290
     1
  9
$FINGERPRINTGUID
  2
{1B6644F8-63A7-4E51-8988-E2B63CB1BB58}
  9
$VERSIONGUID
  2
{225B41DA-E705-4049-B75A-08580B5D6FA5}
  9
$EXTNAMES
290
     1
  9
$PSVPSCALE
 40
0.0
  9
$OLESTARTUP
290
     0
  9
$SORTENTS
280
   127
  9
$INDEXCTL
280
     0
  9
$HIDETEXT
280
     0
  9
$XCLIPFRAME
290
     0
  9
$HALOGAP
280
     0
  9
$OBSCOLOR
 70
   257
  9
$OBSLTYPE
280
     0
  9
$INTERSECTIONDISPLAY
280
     0
  9
$INTERSECTIONCOLOR
 70
   257
  9
$DIMASSOC
280
     1
  9
$PROJECTNAME
  1

  0
ENDSEC
  0
SECTION
  2
CLASSES
  0
CLASS
  1
ACDBDICTIONARYWDFLT
  2
AcDbDictionaryWithDefault
  3
ObjectDBX Classes
 90
        0
 91
        1
280
     0
281
     0
  0
CLASS
  1
TABLESTYLE
  2
AcDbTableStyle
  3
ObjectDBX Classes
 90
     2047
 91
        1
280
     0
281
     0
  0
CLASS
  1
DICTIONARYVAR
  2
AcDbDictionaryVar
  3
ObjectDBX Classes
 90
        0
 91
        1
280
     0
281
     0
  0
ENDSEC
  0
SECTION
  2
TABLES
  0
TABLE
  2
VPORT
  5
8
330
0
100
AcDbSymbolTable
 70
     2
  0
VPORT
  5
389
330
8
100
AcDbSymbolTableRecord
100
AcDbViewportTableRecord
  2
*Active
 70
     0
 10
0.0
 20
0.0
 11
1.0
 21
1.0
 12
-296.0
 22
209.0
 13
0.0
 23
0.0
 14
1.0
 24
1.0
 15
0.0
 25
0.0
 16
0.0
 26
0.0
 36
1.0
 17
0.0
 27
0.0
 37
0.0
 40
421.3043478260869
 41
1.707124010554089
 42
50.0
 43
0.0
 44
0.0
 50
0.0
 51
0.0
 71
     0
 72
   100
 73
     1
 74
     1
 75
     0
 76
     0
 77
     0
 78
     0
281
     0
 65
     1
110
0.0
120
0.0
130
0.0
111
1.0
121
0.0
131
0.0
112
0.0
122
1.0
132
0.0
 79
     0
146
0.0
  0
ENDTAB
  0
TABLE
  2
LTYPE
  5
5
330
0
100
AcDbSymbolTable
 70
     6
  0
LTYPE
  5
13
330
5
100
AcDbSymbolTableRecord
100
AcDbLinetypeTableRecord
  2
ByBlock
 70
     0
  3

 72
    65
 73
     0
 40
0.0
  0
LTYPE
  5
14
330
5
100
AcDbSymbolTableRecord
100
AcDbLinetypeTableRecord
  2
ByLayer
 70
     0
  3

 72
    65
 73
     0
 40
0.0
  0
LTYPE
  5
15
330
5
100
AcDbSymbolTableRecord
100
AcDbLinetypeTableRecord
  2
CONTINUOUS
 70
     0
  3
Solid line
 72
    65
 73
     0
 40
0.0
  0
LTYPE
  5
26
330
5
100
AcDbSymbolTableRecord
100
AcDbLinetypeTableRecord
  2
DASHED
 70
     0
  3
__ __ __ __ __ __ __ __ __ __ __ __ __ __ __
 72
    65
 73
     2
 40
3.5
 49
2.0
 74
     0
 49
-1.5
 74
     0
  0
LTYPE
  5
27
330
5
100
AcDbSymbolTableRecord
100
AcDbLinetypeTableRecord
  2
CENTER
 70
     0
  3
____ _ ____ _ ____ _ ____ _ ____ _ ____ _ ____
 72
    65
 73
     4
 40
17.5
 49
13.0
 74
     0
 49
-1.5
 74
     0
 49
1.5
 74
     0
 49
-1.5
 74
     0
  0
LTYPE
  5
28
330
5
100
AcDbSymbolTableRecord
100
AcDbLinetypeTableRecord
  2
PHANTOM
 70
     0
  3
_____ _ _ _____ _ _ _____ _ _ _____ _ _ ____  
 72
    65
 73
     6
 40
15.5
 49
8.0
 74
     0
 49
-1.5
 74
     0
 49
1.5
 74
     0
 49
-1.5
 74
     0
 49
1.5
 74
     0
 49
-1.5
 74
     0
  0
LTYPE
  5
29
330
5
100
AcDbSymbolTableRecord
100
AcDbLinetypeTableRecord
  2
DOT
 70
     0
  3
. . . . . . . . . . . . . . . . . . . . . . . .
 72
    65
 73
     2
 40
0.25
 49
0.0
 74
     0
 49
-0.25
 74
     0
  0
LTYPE
  5
2A
330
5
100
AcDbSymbolTableRecord
100
AcDbLinetypeTableRecord
  2
HIDDEN
 70
     0
  3
__ __ __ __ __ __ __ __ __ __ __ __ __ __ __
 72
    65
 73
     2
 40
3.5
 49
2.0
 74
     0
 49
-1.5
 74
     0
  0
ENDTAB
  0
TABLE
  2
LAYER
  5
2
330
0
100
AcDbSymbolTable
 70
     2
  0
LAYER
  5
10
330
2
100
AcDbSymbolTableRecord
100
AcDbLayerTableRecord
  2
0
 70
     0
 62
     7
  6
CONTINUOUS
370
    -3
390
F
  0
LAYER
  5
2B
330
2
100
AcDbSymbolTableRecord
100
AcDbLayerTableRecord
  2
DEFPOINTS
 70
     0
 62
     7
  6
CONTINUOUS
290
     0
370
    -3
390
F
  0
ENDTAB
  0
TABLE
  2
STYLE
  5
3
330
0
100
AcDbSymbolTable
 70
     3
  0
STYLE
  5
11
330
3
100
AcDbSymbolTableRecord
100
AcDbTextStyleTableRecord
  2
STANDARD
 70
     0
 40
0.0
 41
1.0
 50
0.0
 71
     0
 42
0.2
  3

  4

1001
ACAD
1000
MS Gothic
1071
    32817
  0
ENDTAB
  0
TABLE
  2
VIEW
  5
6
330
0
100
AcDbSymbolTable
 70
     0
  0
ENDTAB
  0
TABLE
  2
UCS
  5
7
330
0
100
AcDbSymbolTable
 70
     0
  0
ENDTAB
  0
TABLE
  2
APPID
  5
9
330
0
100
AcDbSymbolTable
 70
     2
  0
APPID
  5
12
330
9
100
AcDbSymbolTableRecord
100
AcDbRegAppTableRecord
  2
ACAD
 70
     0
  0
APPID
  5
376
330
9
100
AcDbSymbolTableRecord
100
AcDbRegAppTableRecord
  2
ACAD_PSEXT
 70
     0
  0
ENDTAB
  0
TABLE
  2
DIMSTYLE
  5
A
330
0
100
AcDbSymbolTable
 70
    15
100
AcDbDimStyleTable
 71
     1
340
2C
  0
DIMSTYLE
105
2C
102
{ACAD_REACTORS
330
366
102
}
330
A
100
AcDbSymbolTableRecord
100
AcDbDimStyleTableRecord
  2
DIMSTYLE1
 70
     0
 41
1.0
 42
2.54
 44
2.54
 73
     0
 74
     0
 77
     1
140
3.0
145
1.0
147
1.5
172
     1
173
     1
279
     2
340
11
  0
DIMSTYLE
105
2D
102
{ACAD_REACTORS
330
367
102
}
330
A
100
AcDbSymbolTableRecord
100
AcDbDimStyleTableRecord
  2
DIMSTYLE2
 70
     0
 41
1.0
 42
2.54
 44
2.54
 73
     0
 74
     0
 75
     1
 76
     1
 77
     1
140
3.0
145
1.0
147
1.5
172
     1
173
     1
279
     2
340
11
  0
DIMSTYLE
105
2E
102
{ACAD_REACTORS
330
368
102
}
330
A
100
AcDbSymbolTableRecord
100
AcDbDimStyleTableRecord
  2
DIMSTYLE3
 70
     0
 41
1.0
 42
2.54
 44
2.54
 73
     0
 74
     0
 75
     1
 76
     1
 77
     1
140
3.0
145
1.0
147
1.5
172
     1
173
     1
279
     2
340
11
  0
DIMSTYLE
105
2F
102
{ACAD_REACTORS
330
369
102
}
330
A
100
AcDbSymbolTableRecord
100
AcDbDimStyleTableRecord
  2
DIMSTYLE4
 70
     0
 41
1.0
 42
2.54
 44
2.54
 73
     0
 74
     0
 75
     1
 76
     1
 77
     1
140
3.0
145
1.0
147
1.5
172
     1
173
     1
279
     2
340
11
  0
DIMSTYLE
105
30
102
{ACAD_REACTORS
330
36A
102
}
330
A
100
AcDbSymbolTableRecord
100
AcDbDimStyleTableRecord
  2
DIMSTYLE5
 70
     0
 41
1.0
 42
2.54
 44
2.54
 73
     0
 74
     0
 77
     1
140
3.0
145
1.0
147
1.5
172
     1
173
     1
279
     2
340
11
  0
DIMSTYLE
105
31
102
{ACAD_REACTORS
330
36B
102
}
330
A
100
AcDbSymbolTableRecord
100
AcDbDimStyleTableRecord
  2
DIMSTYLE6
 70
     0
 41
1.0
 42
2.54
 44
2.54
 73
     0
 74
     0
 77
     1
140
3.0
145
1.0
147
1.5
172
     1
173
     1
279
     2
340
11
  0
DIMSTYLE
105
32
102
{ACAD_REACTORS
330
36C
102
}
330
A
100
AcDbSymbolTableRecord
100
AcDbDimStyleTableRecord
  2
DIMSTYLE7
 70
     0
 41
1.0
 42
2.54
 44
2.54
 73
     0
 74
     0
 77
     1
140
3.0
145
1.0
147
1.5
172
     1
173
     1
279
     2
340
11
  0
DIMSTYLE
105
33
102
{ACAD_REACTORS
330
36D
102
}
330
A
100
AcDbSymbolTableRecord
100
AcDbDimStyleTableRecord
  2
DIMSTYLE8
 70
     0
 41
1.0
 42
2.54
 44
2.54
 73
     0
 74
     0
 77
     1
140
3.0
145
1.0
147
1.5
172
     1
173
     1
279
     2
340
11
  0
DIMSTYLE
105
34
102
{ACAD_REACTORS
330
36E
102
}
330
A
100
AcDbSymbolTableRecord
100
AcDbDimStyleTableRecord
  2
DIMSTYLE9
 70
     0
 41
1.0
 42
2.54
 44
2.54
 73
     0
 74
     0
 77
     1
140
3.0
145
1.0
147
1.5
172
     1
173
     1
279
     2
340
11
  0
DIMSTYLE
105
35
102
{ACAD_REACTORS
330
36F
102
}
330
A
100
AcDbSymbolTableRecord
100
AcDbDimStyleTableRecord
  2
DIMSTYLE10
 70
     0
 41
1.0
 42
2.54
 44
2.54
 73
     0
 74
     0
 77
     1
140
3.0
145
1.0
147
1.5
172
     1
173
     1
279
     2
340
11
  0
DIMSTYLE
105
36
102
{ACAD_REACTORS
330
370
102
}
330
A
100
AcDbSymbolTableRecord
100
AcDbDimStyleTableRecord
  2
DIMSTYLE11
 70
     0
 41
1.0
 42
2.54
 44
2.54
 73
     0
 74
     0
 77
     1
140
3.0
145
1.0
147
1.5
172
     1
173
     1
279
     2
340
11
  0
DIMSTYLE
105
37
102
{ACAD_REACTORS
330
371
102
}
330
A
100
AcDbSymbolTableRecord
100
AcDbDimStyleTableRecord
  2
DIMSTYLE12
 70
     0
 41
1.0
 42
2.54
 44
2.54
 73
     0
 74
     0
 77
     1
140
3.0
145
1.0
147
1.5
172
     1
173
     1
279
     2
340
11
  0
DIMSTYLE
105
38
102
{ACAD_REACTORS
330
372
102
}
330
A
100
AcDbSymbolTableRecord
100
AcDbDimStyleTableRecord
  2
DIMSTYLE13
 70
     0
 41
1.0
 42
2.54
 44
2.54
 73
     0
 74
     0
 77
     1
140
3.0
145
1.0
147
1.5
172
     1
173
     1
279
     2
340
11
  0
ENDTAB
  0
TABLE
  2
BLOCK_RECORD
  5
1
330
0
100
AcDbSymbolTable
 70
    18
  0
BLOCK_RECORD
  5
22
330
1
100
AcDbSymbolTableRecord
100
AcDbBlockTableRecord
  2
*Model_Space
340
25
  0
BLOCK_RECORD
  5
1E
330
1
100
AcDbSymbolTableRecord
100
AcDbBlockTableRecord
  2
*Paper_Space
340
21
  0
BLOCK_RECORD
  5
3C
330
1
100
AcDbSymbolTableRecord
100
AcDbBlockTableRecord
  2
_OPEN30
340
0
102
{BLKREFS
331
46
331
48
331
54
331
55
331
5E
331
5F
331
68
331
69
331
71
331
72
331
7D
331
7E
331
88
331
89
331
93
331
94
331
9F
331
A0
331
A9
331
AA
331
B4
331
B5
331
C0
331
C1
331
CB
331
CC
102
}
  0
BLOCK_RECORD
  5
42
330
1
100
AcDbSymbolTableRecord
100
AcDbBlockTableRecord
  2
*D1
340
0
  0
BLOCK_RECORD
  5
50
330
1
100
AcDbSymbolTableRecord
100
AcDbBlockTableRecord
  2
*D2
340
0
  0
BLOCK_RECORD
  5
5A
330
1
100
AcDbSymbolTableRecord
100
AcDbBlockTableRecord
  2
*D3
340
0
  0
BLOCK_RECORD
  5
64
330
1
100
AcDbSymbolTableRecord
100
AcDbBlockTableRecord
  2
*D4
340
0
  0
BLOCK_RECORD
  5
6E
330
1
100
AcDbSymbolTableRecord
100
AcDbBlockTableRecord
  2
*D5
340
0
  0
BLOCK_RECORD
  5
7A
330
1
100
AcDbSymbolTableRecord
100
AcDbBlockTableRecord
  2
*D6
340
0
  0
BLOCK_RECORD
  5
85
330
1
100
AcDbSymbolTableRecord
100
AcDbBlockTableRecord
  2
*D7
340
0
  0
BLOCK_RECORD
  5
90
330
1
100
AcDbSymbolTableRecord
100
AcDbBlockTableRecord
  2
*D8
340
0
  0
BLOCK_RECORD
  5
9C
330
1
100
AcDbSymbolTableRecord
100
AcDbBlockTableRecord
  2
*D9
340
0
  0
BLOCK_RECORD
  5
A6
330
1
100
AcDbSymbolTableRecord
100
AcDbBlockTableRecord
  2
*D10
340
0
  0
BLOCK_RECORD
  5
B1
330
1
100
AcDbSymbolTableRecord
100
AcDbBlockTableRecord
  2
*D11
340
0
  0
BLOCK_RECORD
  5
BD
330
1
100
AcDbSymbolTableRecord
100
AcDbBlockTableRecord
  2
*D12
340
0
  0
BLOCK_RECORD
  5
C8
330
1
100
AcDbSymbolTableRecord
100
AcDbBlockTableRecord
  2
*D13
340
0
  0
BLOCK_RECORD
  5
D3
330
1
100
AcDbSymbolTableRecord
100
AcDbBlockTableRecord
  2
KOZU0001
340
0
102
{BLKREFS
331
365
102
}
  0
BLOCK_RECORD
  5
DC
330
1
100
AcDbSymbolTableRecord
100
AcDbBlockTableRecord
  2
KOZU0002
340
0
102
{BLKREFS
331
373
102
}
  0
ENDTAB
  0
ENDSEC
  0
SECTION
  2
BLOCKS
  0
BLOCK
  5
23
330
22
100
AcDbEntity
  8
0
100
AcDbBlockBegin
  2
*Model_Space
 70
     0
 10
0.0
 20
0.0
 30
0.0
  3
*Model_Space
  1

  0
ENDBLK
  5
24
330
22
100
AcDbEntity
  8
0
100
AcDbBlockEnd
  0
BLOCK
  5
1F
330
1E
100
AcDbEntity
 67
     1
  8
0
100
AcDbBlockBegin
  2
*Paper_Space
 70
     0
 10
0.0
 20
0.0
 30
0.0
  3
*Paper_Space
  1

  0
ENDBLK
  5
20
330
1E
100
AcDbEntity
 67
     1
  8
0
100
AcDbBlockEnd
  0
BLOCK
  5
3D
330
3C
100
AcDbEntity
  8
0
100
AcDbBlockBegin
  2
_OPEN30
 70
     0
 10
0.0
 20
0.0
 30
0.0
  3
_OPEN30
  1

  0
LINE
  5
3E
330
3C
100
AcDbEntity
  8
0
  6
ByBlock
 62
     0
100
AcDbLine
 10
0.0
 20
0.0
 30
0.0
 11
-2.999999999999993
 21
-1.000000000000017
 31
0.0
  0
LINE
  5
3F
330
3C
100
AcDbEntity
  8
0
  6
ByBlock
 62
     0
100
AcDbLine
 10
0.0
 20
0.0
 30
0.0
 11
-3.000000000000006
 21
0.9999999999999815
 31
0.0
  0
LINE
  5
40
330
3C
100
AcDbEntity
  8
0
  6
ByBlock
 62
     0
100
AcDbLine
 10
0.0
 20
0.0
 30
0.0
 11
-3.0
 21
0.0
 31
0.0
  0
ENDBLK
  5
41
330
3C
100
AcDbEntity
  8
0
100
AcDbBlockEnd
  0
BLOCK
  5
43
330
42
100
AcDbEntity
  8
0
100
AcDbBlockBegin
  2
*D1
 70
     1
 10
0.0
 20
0.0
 30
0.0
  3
*D1
  1

  0
LINE
  5
44
330
42
100
AcDbEntity
  8
0
  6
Continuous
 62
     7
100
AcDbLine
 10
-145.4337768554688
 20
399.7996215820313
 30
0.0
 11
-129.2688903808594
 21
399.7996215820313
 31
0.0
  0
LINE
  5
45
330
42
100
AcDbEntity
  8
0
  6
Continuous
 62
     7
100
AcDbLine
 10
-148.9337768554688
 20
399.7996215820313
 30
0.0
 11
-145.4337768554688
 21
399.7996215820313
 31
0.0
  0
INSERT
  5
46
330
42
100
AcDbEntity
  8
0
  6
Continuous
 62
     7
100
AcDbBlockReference
  2
_OPEN30
 10
-148.9337768554688
 20
399.7996215820313
 30
0.0
 50
0.0000000000003562
  0
LINE
  5
47
330
42
100
AcDbEntity
  8
0
  6
Continuous
 62
     7
100
AcDbLine
 10
-151.9337768554688
 20
399.7996215820313
 30
0.0
 11
-155.2837768554686
 21
399.7996215820312
 31
0.0
  0
INSERT
  5
48
330
42
100
AcDbEntity
  8
0
  6
Continuous
 62
     7
100
AcDbBlockReference
  2
_OPEN30
 10
-145.4337768554688
 20
399.7996215820313
 30
0.0
 50
180.0
  0
LINE
  5
49
330
42
100
AcDbEntity
  8
0
  6
Continuous
 62
     7
100
AcDbLine
 10
-142.4337768554688
 20
399.7996215820313
 30
0.0
 11
-139.0837768554687
 21
399.7996215820313
 31
0.0
  0
LINE
  5
4A
330
42
100
AcDbEntity
  8
0
  6
Continuous
 62
     7
100
AcDbLine
 10
-145.4337768554688
 20
386.4079504394532
 30
0.0
 11
-145.4337768554688
 21
402.0856323242187
 31
0.0
  0
TEXT
  5
4B
330
42
100
AcDbEntity
  8
0
  6
Continuous
 62
     7
100
AcDbText
 10
-137.4088978767395
 20
400.5496215820313
 30
0.0
 40
3.0
  1
3.5
 41
1.356666684150696
100
AcDbText
  0
POINT
  5
4C
330
42
100
AcDbEntity
  8
DEFPOINTS
  6
Continuous
 62
     7
100
AcDbPoint
 10
-148.9337768554688
 20
411.5522766113281
 30
0.0
  0
POINT
  5
4D
330
42
100
AcDbEntity
  8
DEFPOINTS
  6
Continuous
 62
     7
100
AcDbPoint
 10
-145.4337768554688
 20
383.8679504394531
 30
0.0
  0
POINT
  5
4E
330
42
100
AcDbEntity
  8
DEFPOINTS
  6
Continuous
 62
     7
100
AcDbPoint
 10
-145.4337768554688
 20
399.7996215820313
 30
0.0
  0
ENDBLK
  5
4F
330
42
100
AcDbEntity
  8
0
100
AcDbBlockEnd
  0
BLOCK
  5
51
330
50
100
AcDbEntity
  8
0
100
AcDbBlockBegin
  2
*D2
 70
     1
 10
0.0
 20
0.0
 30
0.0
  3
*D2
  1

  0
LINE
  5
52
330
50
100
AcDbEntity
  8
0
  6
Continuous
 62
     7
100
AcDbLine
 10
-373.6727905273438
 20
362.6577758789063
 30
0.0
 11
-349.7573852539063
 21
390.7484741210938
 31
0.0
  0
LINE
  5
53
330
50
100
AcDbEntity
  8
0
  6
Continuous
 62
     7
100
AcDbLine
 10
-489.7096968413459
 20
226.362374947031
 30
0.0
 11
-375.6175431488884
 21
360.3734954142971
 31
0.0
  0
INSERT
  5
54
330
50
100
AcDbEntity
  8
0
  6
Continuous
 62
     7
100
AcDbBlockReference
  2
_OPEN30
 10
-491.6544494628906
 20
224.0780944824219
 30
0.0
 50
229.590145292685
  0
INSERT
  5
55
330
50
100
AcDbEntity
  8
0
  6
Continuous
 62
     7
100
AcDbBlockReference
  2
_OPEN30
 10
-373.6727905273438
 20
362.6577758789063
 30
0.0
 50
49.59014529268426
  0
TEXT
  5
56
330
50
100
AcDbEntity
  8
0
  6
Continuous
 62
     7
100
AcDbText
 10
-371.1612455522326
 20
366.7604978413513
 30
0.0
 40
3.0
  1
%%C１８２（防水皿外径）
 50
49.60000046955386
 41
0.8440126077968535
100
AcDbText
  0
POINT
  5
57
330
50
100
AcDbEntity
  8
DEFPOINTS
  6
Continuous
 62
     7
100
AcDbPoint
 10
-491.6544494628906
 20
224.0780944824219
 30
0.0
  0
POINT
  5
58
330
50
100
AcDbEntity
  8
DEFPOINTS
  6
Continuous
 62
     7
100
AcDbPoint
 10
-373.6727905273438
 20
362.6577758789063
 30
0.0
  0
ENDBLK
  5
59
330
50
100
AcDbEntity
  8
0
100
AcDbBlockEnd
  0
BLOCK
  5
5B
330
5A
100
AcDbEntity
  8
0
100
AcDbBlockBegin
  2
*D3
 70
     1
 10
0.0
 20
0.0
 30
0.0
  3
*D3
  1

  0
LINE
  5
5C
330
5A
100
AcDbEntity
  8
0
  6
Continuous
 62
     7
100
AcDbLine
 10
-365.45947265625
 20
332.71533203125
 30
0.0
 11
-321.3310852050781
 21
358.496826171875
 31
0.0
  0
LINE
  5
5D
330
5A
100
AcDbEntity
  8
0
  6
Continuous
 62
     7
100
AcDbLine
 10
-497.5655982247789
 20
255.5338996868096
 30
0.0
 11
-368.0497887381118
 21
331.2019706745185
 31
0.0
  0
INSERT
  5
5E
330
5A
100
AcDbEntity
  8
0
  6
Continuous
 62
     7
100
AcDbBlockReference
  2
_OPEN30
 10
-500.1559143066406
 20
254.0205383300781
 30
0.0
 50
210.2951001442024
  0
INSERT
  5
5F
330
5A
100
AcDbEntity
  8
0
  6
Continuous
 62
     7
100
AcDbBlockReference
  2
_OPEN30
 10
-365.45947265625
 20
332.71533203125
 30
0.0
 50
30.29510014420166
  0
TEXT
  5
60
330
5A
100
AcDbEntity
  8
0
  6
Continuous
 62
     7
100
AcDbText
 10
-349.4597057683861
 20
342.9300462552393
 30
0.0
 40
3.0
  1
%%C１５６（目皿受外径）
 50
30.29999981864594
 41
0.8440126077968535
100
AcDbText
  0
POINT
  5
61
330
5A
100
AcDbEntity
  8
DEFPOINTS
  6
Continuous
 62
     7
100
AcDbPoint
 10
-500.1559143066406
 20
254.0205383300781
 30
0.0
  0
POINT
  5
62
330
5A
100
AcDbEntity
  8
DEFPOINTS
  6
Continuous
 62
     7
100
AcDbPoint
 10
-365.45947265625
 20
332.71533203125
 30
0.0
  0
ENDBLK
  5
63
330
5A
100
AcDbEntity
  8
0
100
AcDbBlockEnd
  0
BLOCK
  5
65
330
64
100
AcDbEntity
  8
0
100
AcDbBlockBegin
  2
*D4
 70
     1
 10
0.0
 20
0.0
 30
0.0
  3
*D4
  1

  0
LINE
  5
66
330
64
100
AcDbEntity
  8
0
  6
Continuous
 62
     7
100
AcDbLine
 10
-370.2555236816406
 20
312.1113586425781
 30
0.0
 11
-311.8199157714844
 21
329.6212768554688
 31
0.0
  0
LINE
  5
67
330
64
100
AcDbEntity
  8
0
  6
Continuous
 62
     7
100
AcDbLine
 10
-492.4861035222029
 20
275.4856184759419
 30
0.0
 11
-373.1292834406877
 21
311.2502518853862
 31
0.0
  0
INSERT
  5
68
330
64
100
AcDbEntity
  8
0
  6
Continuous
 62
     7
100
AcDbBlockReference
  2
_OPEN30
 10
-495.3598632812499
 20
274.62451171875
 30
0.0
 50
196.6805638239021
  0
INSERT
  5
69
330
64
100
AcDbEntity
  8
0
  6
Continuous
 62
     7
100
AcDbBlockReference
  2
_OPEN30
 10
-370.2555236816406
 20
312.1113586425781
 30
0.0
 50
16.68056382390136
  0
TEXT
  5
6A
330
64
100
AcDbEntity
  8
0
  6
Continuous
 62
     7
100
AcDbText
 10
-339.94781963377
 20
321.9706717901335
 30
0.0
 40
3.0
  1
%%C１３１（目皿外径）
 50
16.70000035088335
 41
0.8443929326254473
100
AcDbText
  0
POINT
  5
6B
330
64
100
AcDbEntity
  8
DEFPOINTS
  6
Continuous
 62
     7
100
AcDbPoint
 10
-495.3598632812499
 20
274.62451171875
 30
0.0
  0
POINT
  5
6C
330
64
100
AcDbEntity
  8
DEFPOINTS
  6
Continuous
 62
     7
100
AcDbPoint
 10
-370.2555236816406
 20
312.1113586425781
 30
0.0
  0
ENDBLK
  5
6D
330
64
100
AcDbEntity
  8
0
100
AcDbBlockEnd
  0
BLOCK
  5
6F
330
6E
100
AcDbEntity
  8
0
100
AcDbBlockBegin
  2
*D5
 70
     1
 10
0.0
 20
0.0
 30
0.0
  3
*D5
  1

  0
LINE
  5
70
330
6E
100
AcDbEntity
  8
0
  6
Continuous
 62
     7
100
AcDbLine
 10
-292.9337768554688
 20
399.7996215820313
 30
0.0
 11
-151.9337768554688
 21
399.7996215820313
 31
0.0
  0
INSERT
  5
71
330
6E
100
AcDbEntity
  8
0
  6
Continuous
 62
     7
100
AcDbBlockReference
  2
_OPEN30
 10
-295.9337768554688
 20
399.7996215820313
 30
0.0
 50
180.0000000000004
  0
INSERT
  5
72
330
6E
100
AcDbEntity
  8
0
  6
Continuous
 62
     7
100
AcDbBlockReference
  2
_OPEN30
 10
-148.9337768554688
 20
399.7996215820313
 30
0.0
  0
LINE
  5
73
330
6E
100
AcDbEntity
  8
0
  6
Continuous
 62
     7
100
AcDbLine
 10
-295.9337768554688
 20
373.4079504394532
 30
0.0
 11
-295.9337768554688
 21
402.0856323242187
 31
0.0
  0
LINE
  5
74
330
6E
100
AcDbEntity
  8
0
  6
Continuous
 62
     7
100
AcDbLine
 10
-148.9337768554688
 20
384.9079504394532
 30
0.0
 11
-148.9337768554688
 21
402.0856323242187
 31
0.0
  0
TEXT
  5
75
330
6E
100
AcDbEntity
  8
0
  6
Continuous
 62
     7
100
AcDbText
 10
-241.5037776231766
 20
400.5496215820313
 30
0.0
 40
3.0
  1
１４７　（１３７～１５６）
 41
0.8434321120058422
100
AcDbText
  0
POINT
  5
76
330
6E
100
AcDbEntity
  8
DEFPOINTS
  6
Continuous
 62
     7
100
AcDbPoint
 10
-295.9337768554688
 20
370.8679504394531
 30
0.0
  0
POINT
  5
77
330
6E
100
AcDbEntity
  8
DEFPOINTS
  6
Continuous
 62
     7
100
AcDbPoint
 10
-148.9337768554688
 20
382.3679504394531
 30
0.0
  0
POINT
  5
78
330
6E
100
AcDbEntity
  8
DEFPOINTS
  6
Continuous
 62
     7
100
AcDbPoint
 10
-148.9337768554688
 20
399.7996215820313
 30
0.0
  0
ENDBLK
  5
79
330
6E
100
AcDbEntity
  8
0
100
AcDbBlockEnd
  0
BLOCK
  5
7B
330
7A
100
AcDbEntity
  8
0
100
AcDbBlockBegin
  2
*D6
 70
     1
 10
0.0
 20
0.0
 30
0.0
  3
*D6
  1

  0
LINE
  5
7C
330
7A
100
AcDbEntity
  8
0
  6
Continuous
 62
     7
100
AcDbLine
 10
-151.9337768554688
 20
391.3061828613281
 30
0.0
 11
-177.9337768554688
 21
391.3061828613281
 31
0.0
  0
INSERT
  5
7D
330
7A
100
AcDbEntity
  8
0
  6
Continuous
 62
     7
100
AcDbBlockReference
  2
_OPEN30
 10
-148.9337768554688
 20
391.3061828613281
 30
0.0
  0
INSERT
  5
7E
330
7A
100
AcDbEntity
  8
0
  6
Continuous
 62
     7
100
AcDbBlockReference
  2
_OPEN30
 10
-180.9337768554688
 20
391.3061828613281
 30
0.0
 50
180.0000000000004
  0
LINE
  5
7F
330
7A
100
AcDbEntity
  8
0
  6
Continuous
 62
     7
100
AcDbLine
 10
-180.9337768554688
 20
335.9079504394532
 30
0.0
 11
-180.9337768554688
 21
393.5921936035157
 31
0.0
  0
TEXT
  5
80
330
7A
100
AcDbEntity
  8
0
  6
Continuous
 62
     7
100
AcDbText
 10
-167.5037769675255
 20
392.0561828613281
 30
0.0
 40
3.0
  1
32
 41
1.028000020980834
100
AcDbText
  0
POINT
  5
81
330
7A
100
AcDbEntity
  8
DEFPOINTS
  6
Continuous
 62
     7
100
AcDbPoint
 10
-148.9337768554688
 20
382.3679504394531
 30
0.0
  0
POINT
  5
82
330
7A
100
AcDbEntity
  8
DEFPOINTS
  6
Continuous
 62
     7
100
AcDbPoint
 10
-180.9337768554688
 20
333.3679504394531
 30
0.0
  0
POINT
  5
83
330
7A
100
AcDbEntity
  8
DEFPOINTS
  6
Continuous
 62
     7
100
AcDbPoint
 10
-180.9337768554688
 20
391.3061828613281
 30
0.0
  0
ENDBLK
  5
84
330
7A
100
AcDbEntity
  8
0
100
AcDbBlockEnd
  0
BLOCK
  5
86
330
85
100
AcDbEntity
  8
0
100
AcDbBlockBegin
  2
*D7
 70
     1
 10
0.0
 20
0.0
 30
0.0
  3
*D7
  1

  0
LINE
  5
87
330
85
100
AcDbEntity
  8
0
  6
Continuous
 62
     7
100
AcDbLine
 10
-292.9337768554688
 20
391.3061828613281
 30
0.0
 11
-245.9337768554688
 21
391.3061828613281
 31
0.0
  0
INSERT
  5
88
330
85
100
AcDbEntity
  8
0
  6
Continuous
 62
     7
100
AcDbBlockReference
  2
_OPEN30
 10
-295.9337768554688
 20
391.3061828613281
 30
0.0
 50
180.0000000000004
  0
INSERT
  5
89
330
85
100
AcDbEntity
  8
0
  6
Continuous
 62
     7
100
AcDbBlockReference
  2
_OPEN30
 10
-242.9337768554688
 20
391.3061828613281
 30
0.0
  0
LINE
  5
8A
330
85
100
AcDbEntity
  8
0
  6
Continuous
 62
     7
100
AcDbLine
 10
-242.9337768554688
 20
336.4079504394532
 30
0.0
 11
-242.9337768554688
 21
393.5921936035157
 31
0.0
  0
TEXT
  5
8B
330
85
100
AcDbEntity
  8
0
  6
Continuous
 62
     7
100
AcDbText
 10
-272.0037769675255
 20
392.0561828613281
 30
0.0
 40
3.0
  1
53
 41
1.028000020980834
100
AcDbText
  0
POINT
  5
8C
330
85
100
AcDbEntity
  8
DEFPOINTS
  6
Continuous
 62
     7
100
AcDbPoint
 10
-295.9337768554688
 20
402.0856323242187
 30
0.0
  0
POINT
  5
8D
330
85
100
AcDbEntity
  8
DEFPOINTS
  6
Continuous
 62
     7
100
AcDbPoint
 10
-242.9337768554688
 20
333.8679504394531
 30
0.0
  0
POINT
  5
8E
330
85
100
AcDbEntity
  8
DEFPOINTS
  6
Continuous
 62
     7
100
AcDbPoint
 10
-242.9337768554688
 20
391.3061828613281
 30
0.0
  0
ENDBLK
  5
8F
330
85
100
AcDbEntity
  8
0
100
AcDbBlockEnd
  0
BLOCK
  5
91
330
90
100
AcDbEntity
  8
0
100
AcDbBlockBegin
  2
*D8
 70
     1
 10
0.0
 20
0.0
 30
0.0
  3
*D8
  1

  0
LINE
  5
92
330
90
100
AcDbEntity
  8
0
  6
Continuous
 62
     7
100
AcDbLine
 10
-79.06874847412111
 20
254.8679351806641
 30
0.0
 11
-79.06874847412106
 21
331.8679504394531
 31
0.0
  0
INSERT
  5
93
330
90
100
AcDbEntity
  8
0
  6
Continuous
 62
     7
100
AcDbBlockReference
  2
_OPEN30
 10
-79.06874847412109
 20
251.8679351806641
 30
0.0
 50
270.0000000000005
  0
INSERT
  5
94
330
90
100
AcDbEntity
  8
0
  6
Continuous
 62
     7
100
AcDbBlockReference
  2
_OPEN30
 10
-79.06874847412109
 20
334.8679504394531
 30
0.0
 50
90.00000000000019
  0
LINE
  5
95
330
90
100
AcDbEntity
  8
0
  6
Continuous
 62
     7
100
AcDbLine
 10
-111.3937692260742
 20
251.8679351806641
 30
0.0
 11
-76.78274536132812
 21
251.8679351806641
 31
0.0
  0
LINE
  5
96
330
90
100
AcDbEntity
  8
0
  6
Continuous
 62
     7
100
AcDbLine
 10
-111.3937692260742
 20
334.8679504394531
 30
0.0
 11
-76.78274536132812
 21
334.8679504394531
 31
0.0
  0
TEXT
  5
97
330
90
100
AcDbEntity
  8
0
  6
Continuous
 62
     7
100
AcDbText
 10
-79.81874829621573
 20
289.2979502350082
 30
0.0
 40
3.0
  1
%%C83
 50
90.00000250447815
 41
0.9498249830693319
100
AcDbText
  0
POINT
  5
98
330
90
100
AcDbEntity
  8
DEFPOINTS
  6
Continuous
 62
     7
100
AcDbPoint
 10
-113.9337692260742
 20
251.8679351806641
 30
0.0
  0
POINT
  5
99
330
90
100
AcDbEntity
  8
DEFPOINTS
  6
Continuous
 62
     7
100
AcDbPoint
 10
-113.9337692260742
 20
334.8679504394531
 30
0.0
  0
POINT
  5
9A
330
90
100
AcDbEntity
  8
DEFPOINTS
  6
Continuous
 62
     7
100
AcDbPoint
 10
-79.06874847412109
 20
334.8679504394531
 30
0.0
  0
ENDBLK
  5
9B
330
90
100
AcDbEntity
  8
0
100
AcDbBlockEnd
  0
BLOCK
  5
9D
330
9C
100
AcDbEntity
  8
0
100
AcDbBlockBegin
  2
*D9
 70
     1
 10
0.0
 20
0.0
 30
0.0
  3
*D9
  1

  0
LINE
  5
9E
330
9C
100
AcDbEntity
  8
0
  6
Continuous
 62
     7
100
AcDbLine
 10
-163.9337768554688
 20
302.3562316894531
 30
0.0
 11
-257.9337768554688
 21
302.3562316894531
 31
0.0
  0
INSERT
  5
9F
330
9C
100
AcDbEntity
  8
0
  6
Continuous
 62
     7
100
AcDbBlockReference
  2
_OPEN30
 10
-160.9337768554688
 20
302.3562316894531
 30
0.0
  0
INSERT
  5
A0
330
9C
100
AcDbEntity
  8
0
  6
Continuous
 62
     7
100
AcDbBlockReference
  2
_OPEN30
 10
-260.9337768554688
 20
302.3562316894531
 30
0.0
 50
180.0000000000004
  0
TEXT
  5
A1
330
9C
100
AcDbEntity
  8
0
  6
Continuous
 62
     7
100
AcDbText
 10
-215.0037770271301
 20
303.1062316894531
 30
0.0
 40
3.0
  1
100
 41
1.320000017011488
100
AcDbText
  0
POINT
  5
A2
330
9C
100
AcDbEntity
  8
DEFPOINTS
  6
Continuous
 62
     7
100
AcDbPoint
 10
-160.9337768554688
 20
293.3679504394531
 30
0.0
  0
POINT
  5
A3
330
9C
100
AcDbEntity
  8
DEFPOINTS
  6
Continuous
 62
     7
100
AcDbPoint
 10
-260.9337768554688
 20
293.3679504394531
 30
0.0
  0
POINT
  5
A4
330
9C
100
AcDbEntity
  8
DEFPOINTS
  6
Continuous
 62
     7
100
AcDbPoint
 10
-260.9337768554688
 20
302.3562316894531
 30
0.0
  0
ENDBLK
  5
A5
330
9C
100
AcDbEntity
  8
0
100
AcDbBlockEnd
  0
BLOCK
  5
A7
330
A6
100
AcDbEntity
  8
0
100
AcDbBlockBegin
  2
*D10
 70
     1
 10
0.0
 20
0.0
 30
0.0
  3
*D10
  1

  0
LINE
  5
A8
330
A6
100
AcDbEntity
  8
0
  6
Continuous
 62
     7
100
AcDbLine
 10
-163.9337768554688
 20
312.7971496582031
 30
0.0
 11
-207.9337768554688
 21
312.7971496582031
 31
0.0
  0
INSERT
  5
A9
330
A6
100
AcDbEntity
  8
0
  6
Continuous
 62
     7
100
AcDbBlockReference
  2
_OPEN30
 10
-160.9337768554688
 20
312.7971496582031
 30
0.0
  0
INSERT
  5
AA
330
A6
100
AcDbEntity
  8
0
  6
Continuous
 62
     7
100
AcDbBlockReference
  2
_OPEN30
 10
-210.9337768554688
 20
312.7971496582031
 30
0.0
 50
180.0000000000004
  0
LINE
  5
AB
330
A6
100
AcDbEntity
  8
0
  6
Continuous
 62
     7
100
AcDbLine
 10
-210.9337768554687
 20
326.9429406738281
 30
0.0
 11
-210.9337768554688
 21
310.5111389160156
 31
0.0
  0
TEXT
  5
AC
330
A6
100
AcDbEntity
  8
0
  6
Continuous
 62
     7
100
AcDbText
 10
-188.5037769675255
 20
313.5471496582031
 30
0.0
 40
3.0
  1
50
 41
1.101428593908038
100
AcDbText
  0
POINT
  5
AD
330
A6
100
AcDbEntity
  8
DEFPOINTS
  6
Continuous
 62
     7
100
AcDbPoint
 10
-160.9337768554688
 20
329.4829406738281
 30
0.0
  0
POINT
  5
AE
330
A6
100
AcDbEntity
  8
DEFPOINTS
  6
Continuous
 62
     7
100
AcDbPoint
 10
-210.9337768554688
 20
329.4829406738281
 30
0.0
  0
POINT
  5
AF
330
A6
100
AcDbEntity
  8
DEFPOINTS
  6
Continuous
 62
     7
100
AcDbPoint
 10
-210.9337768554688
 20
312.7971496582031
 30
0.0
  0
ENDBLK
  5
B0
330
A6
100
AcDbEntity
  8
0
100
AcDbBlockEnd
  0
BLOCK
  5
B2
330
B1
100
AcDbEntity
  8
0
100
AcDbBlockBegin
  2
*D11
 70
     1
 10
0.0
 20
0.0
 30
0.0
  3
*D11
  1

  0
LINE
  5
B3
330
B1
100
AcDbEntity
  8
0
  6
Continuous
 62
     7
100
AcDbLine
 10
-177.9337768554688
 20
189.1499176025391
 30
0.0
 11
-115.9337692260742
 21
189.149917602539
 31
0.0
  0
INSERT
  5
B4
330
B1
100
AcDbEntity
  8
0
  6
Continuous
 62
     7
100
AcDbBlockReference
  2
_OPEN30
 10
-180.9337768554688
 20
189.1499176025391
 30
0.0
 50
180.0000000000004
  0
INSERT
  5
B5
330
B1
100
AcDbEntity
  8
0
  6
Continuous
 62
     7
100
AcDbBlockReference
  2
_OPEN30
 10
-112.9337692260742
 20
189.1499176025391
 30
0.0
  0
LINE
  5
B6
330
B1
100
AcDbEntity
  8
0
  6
Continuous
 62
     7
100
AcDbLine
 10
-180.9337768554686
 20
250.8279351806641
 30
0.0
 11
-180.9337768554688
 21
186.8639221191406
 31
0.0
  0
LINE
  5
B7
330
B1
100
AcDbEntity
  8
0
  6
Continuous
 62
     7
100
AcDbLine
 10
-112.9337692260742
 20
250.3279351806641
 30
0.0
 11
-112.9337692260742
 21
186.8639221191406
 31
0.0
  0
TEXT
  5
B8
330
B1
100
AcDbEntity
  8
0
  6
Continuous
 62
     7
100
AcDbText
 10
-149.5037769675255
 20
189.8999176025391
 30
0.0
 40
3.0
  1
68
 41
1.028000020980834
100
AcDbText
  0
POINT
  5
B9
330
B1
100
AcDbEntity
  8
DEFPOINTS
  6
Continuous
 62
     7
100
AcDbPoint
 10
-180.9337768554688
 20
253.3679351806641
 30
0.0
  0
POINT
  5
BA
330
B1
100
AcDbEntity
  8
DEFPOINTS
  6
Continuous
 62
     7
100
AcDbPoint
 10
-112.9337692260742
 20
252.8679351806641
 30
0.0
  0
POINT
  5
BB
330
B1
100
AcDbEntity
  8
DEFPOINTS
  6
Continuous
 62
     7
100
AcDbPoint
 10
-112.9337692260742
 20
189.1499176025391
 30
0.0
  0
ENDBLK
  5
BC
330
B1
100
AcDbEntity
  8
0
100
AcDbBlockEnd
  0
BLOCK
  5
BE
330
BD
100
AcDbEntity
  8
0
100
AcDbBlockBegin
  2
*D12
 70
     1
 10
0.0
 20
0.0
 30
0.0
  3
*D12
  1

  0
LINE
  5
BF
330
BD
100
AcDbEntity
  8
0
  6
Continuous
 62
     7
100
AcDbLine
 10
-117.5782928466797
 20
248.8679351806641
 30
0.0
 11
-117.5782928466797
 21
238.8679351806641
 31
0.0
  0
INSERT
  5
C0
330
BD
100
AcDbEntity
  8
0
  6
Continuous
 62
     7
100
AcDbBlockReference
  2
_OPEN30
 10
-117.5782928466797
 20
251.8679351806641
 30
0.0
 50
90.00000000000019
  0
INSERT
  5
C1
330
BD
100
AcDbEntity
  8
0
  6
Continuous
 62
     7
100
AcDbBlockReference
  2
_OPEN30
 10
-117.5782928466797
 20
235.8679351806641
 30
0.0
 50
270.0000000000005
  0
LINE
  5
C2
330
BD
100
AcDbEntity
  8
0
  6
Continuous
 62
     7
100
AcDbLine
 10
-141.3928002929688
 20
235.8679351806641
 30
0.0
 11
-115.2922973632813
 21
235.8679351806641
 31
0.0
  0
TEXT
  5
C3
330
BD
100
AcDbEntity
  8
0
  6
Continuous
 62
     7
100
AcDbText
 10
-118.3282927343414
 20
241.2979350358238
 30
0.0
 40
3.0
  1
16
 50
90.00000250447815
 41
1.285000026226043
100
AcDbText
  0
POINT
  5
C4
330
BD
100
AcDbEntity
  8
DEFPOINTS
  6
Continuous
 62
     7
100
AcDbPoint
 10
-113.9337692260742
 20
251.8679351806641
 30
0.0
  0
POINT
  5
C5
330
BD
100
AcDbEntity
  8
DEFPOINTS
  6
Continuous
 62
     7
100
AcDbPoint
 10
-143.9328002929688
 20
235.8679351806641
 30
0.0
  0
POINT
  5
C6
330
BD
100
AcDbEntity
  8
DEFPOINTS
  6
Continuous
 62
     7
100
AcDbPoint
 10
-117.5782928466797
 20
235.8679351806641
 30
0.0
  0
ENDBLK
  5
C7
330
BD
100
AcDbEntity
  8
0
100
AcDbBlockEnd
  0
BLOCK
  5
C9
330
C8
100
AcDbEntity
  8
0
100
AcDbBlockBegin
  2
*D13
 70
     1
 10
0.0
 20
0.0
 30
0.0
  3
*D13
  1

  0
LINE
  5
CA
330
C8
100
AcDbEntity
  8
0
  6
Continuous
 62
     7
100
AcDbLine
 10
-142.4337768554688
 20
225.1356506347656
 30
0.0
 11
-130.4337692260742
 21
225.1356506347656
 31
0.0
  0
INSERT
  5
CB
330
C8
100
AcDbEntity
  8
0
  6
Continuous
 62
     7
100
AcDbBlockReference
  2
_OPEN30
 10
-145.4337768554688
 20
225.1356506347656
 30
0.0
 50
180.0000000000004
  0
INSERT
  5
CC
330
C8
100
AcDbEntity
  8
0
  6
Continuous
 62
     7
100
AcDbBlockReference
  2
_OPEN30
 10
-127.4337692260742
 20
225.1356506347656
 30
0.0
  0
LINE
  5
CD
330
C8
100
AcDbEntity
  8
0
  6
Continuous
 62
     7
100
AcDbLine
 10
-127.4337692260742
 20
247.3279351806641
 30
0.0
 11
-127.4337692260742
 21
222.8496551513672
 31
0.0
  0
TEXT
  5
CE
330
C8
100
AcDbEntity
  8
0
  6
Continuous
 62
     7
100
AcDbText
 10
-139.0037769675255
 20
225.8856506347656
 30
0.0
 40
3.0
  1
18
 41
1.285000026226043
100
AcDbText
  0
POINT
  5
CF
330
C8
100
AcDbEntity
  8
DEFPOINTS
  6
Continuous
 62
     7
100
AcDbPoint
 10
-145.4337768554688
 20
246.8679351806641
 30
0.0
  0
POINT
  5
D0
330
C8
100
AcDbEntity
  8
DEFPOINTS
  6
Continuous
 62
     7
100
AcDbPoint
 10
-127.4337692260742
 20
249.8679351806641
 30
0.0
  0
POINT
  5
D1
330
C8
100
AcDbEntity
  8
DEFPOINTS
  6
Continuous
 62
     7
100
AcDbPoint
 10
-127.4337692260742
 20
225.1356506347656
 30
0.0
  0
ENDBLK
  5
D2
330
C8
100
AcDbEntity
  8
0
100
AcDbBlockEnd
  0
BLOCK
  5
D4
330
D3
100
AcDbEntity
  8
0
100
AcDbBlockBegin
  2
KOZU0001
 70
     0
 10
0.0
 20
0.0
 30
0.0
  3
KOZU0001
  1

  0
LINE
  5
D5
330
D3
100
AcDbEntity
  8
0
  6
Continuous
 62
     7
100
AcDbLine
 10
0.0
 20
0.0
 30
0.0
 11
21.67559814453125
 21
21.20831298828125
 31
0.0
  0
LINE
  5
D6
330
D3
100
AcDbEntity
  8
0
  6
Continuous
 62
     7
100
AcDbLine
 10
21.67559814453125
 20
21.20831298828125
 30
0.0
 11
59.39669799804688
 21
21.20831298828125
 31
0.0
  0
LINE
  5
D7
330
D3
100
AcDbEntity
  8
0
  6
Continuous
 62
     7
100
AcDbLine
 10
0.0
 20
0.0
 30
0.0
 11
1.44494777964946
 21
2.812850140708903
 31
0.0
  0
LINE
  5
D8
330
D3
100
AcDbEntity
  8
0
  6
Continuous
 62
     7
100
AcDbLine
 10
0.0
 20
0.0
 30
0.0
 11
2.84366830814491
 21
1.383311444777447
 31
0.0
  0
TEXT
  5
D9
330
D3
100
AcDbEntity
  8
0
  6
Continuous
 62
     7
100
AcDbText
 10
23.21682667732239
 20
21.95831298828125
 30
0.0
 40
3.0
  1
配管接続口
 41
0.8487395020950888
100
AcDbText
  0
TEXT
  5
DA
330
D3
100
AcDbEntity
  8
0
  6
Continuous
 62
     7
100
AcDbText
 10
23.21682667732239
 20
16.69331298828125
 30
0.0
 40
3.0
  1
Ｒｃ２　１／２（６５Ａ）
 41
0.8436974815103043
100
AcDbText
  0
ENDBLK
  5
DB
330
D3
100
AcDbEntity
  8
0
100
AcDbBlockEnd
  0
BLOCK
  5
DD
330
DC
100
AcDbEntity
  8
0
100
AcDbBlockBegin
  2
KOZU0002
 70
     0
 10
0.0
 20
0.0
 30
0.0
  3
KOZU0002
  1

  0
LINE
  5
DE
330
DC
100
AcDbEntity
  8
0
  6
Continuous
 62
     7
100
AcDbLine
 10
0.0
 20
0.0
 30
0.0
 11
32.24721527099609
 21
-41.16665649414063
 31
0.0
  0
LINE
  5
DF
330
DC
100
AcDbEntity
  8
0
  6
Continuous
 62
     7
100
AcDbLine
 10
32.24721527099609
 20
-41.16665649414063
 30
0.0
 11
64.14221954345703
 21
-41.16665649414063
 31
0.0
  0
LINE
  5
E0
330
DC
100
AcDbEntity
  8
0
  6
Continuous
 62
     7
100
AcDbLine
 10
0.0
 20
0.0
 30
0.0
 11
2.637214006045136
 21
-1.745022144936664
 31
0.0
  0
LINE
  5
E1
330
DC
100
AcDbEntity
  8
0
  6
Continuous
 62
     7
100
AcDbLine
 10
0.0
 20
0.0
 30
0.0
 11
1.06275791787411
 21
-2.978346119576413
 31
0.0
  0
TEXT
  5
E2
330
DC
100
AcDbEntity
  8
0
  6
Continuous
 62
     7
100
AcDbText
 10
39.28221821784973
 20
-40.41665649414063
 30
0.0
 40
3.0
  1
共廻り防止用羽根
 41
0.8454512278006642
100
AcDbText
  0
TEXT
  5
E3
330
DC
100
AcDbEntity
  8
0
  6
Continuous
 62
     7
100
AcDbText
 10
39.28221821784973
 20
-45.68165649414063
 30
0.0
 40
3.0
  1
３ヶ所
 41
0.8550420278260688
100
AcDbText
  0
ENDBLK
  5
E4
330
DC
100
AcDbEntity
  8
0
100
AcDbBlockEnd
  0
ENDSEC
  0
SECTION
  2
ENTITIES
  0
LINE
  5
E5
330
22
100
AcDbEntity
  8
0
  6
CENTER
 62
     7
100
AcDbLine
 10
-432.6636047363281
 20
387.1133422851563
 30
0.0
 11
-432.6636047363281
 21
198.8314819335938
 31
0.0
  0
LINE
  5
E6
330
22
100
AcDbEntity
  8
0
  6
CENTER
 62
     7
100
AcDbLine
 10
-527.0244140625
 20
293.3679504394531
 30
0.0
 11
-339.4932861328125
 21
293.3679504394531
 31
0.0
  0
LINE
  5
E7
330
22
100
AcDbEntity
  8
0
  6
CENTER
 62
     7
100
AcDbLine
 10
-301.1209106445313
 20
293.3679504394531
 30
0.0
 11
-107.8454818725586
 21
293.3679504394531
 31
0.0
  0
LINE
  5
E8
330
22
100
AcDbEntity
  8
0
  6
Continuous
 62
     7
100
AcDbLine
 10
-423.9955749511718
 20
301.006591796875
 30
0.0
 11
-387.7467651367188
 21
327.3428955078125
 31
0.0
  0
LINE
  5
E9
330
22
100
AcDbEntity
  8
0
  6
Continuous
 62
     7
100
AcDbLine
 10
-421.1885681152343
 20
292.3681945800781
 30
0.0
 11
-376.3825988769531
 21
292.3681945800781
 31
0.0
  0
LINE
  5
EA
330
22
100
AcDbEntity
  8
0
  6
Continuous
 62
     7
100
AcDbLine
 10
-441.6198425292968
 20
301.0064086914063
 30
0.0
 11
-477.86865234375
 21
327.3427124023438
 31
0.0
  0
LINE
  5
EB
330
22
100
AcDbEntity
  8
0
  6
Continuous
 62
     7
100
AcDbLine
 10
-428.2662048339843
 20
304.109375
 30
0.0
 11
-416.3799743652344
 21
340.6914367675781
 31
0.0
  0
LINE
  5
EC
330
22
100
AcDbEntity
  8
0
  6
Continuous
 62
     7
100
AcDbLine
 10
-435.3332214355468
 20
290.0440368652344
 30
0.0
 11
-435.6603698730468
 21
290.3711547851563
 31
0.0
  0
LINE
  5
ED
330
22
100
AcDbEntity
  8
0
  6
Continuous
 62
     7
100
AcDbLine
 10
-429.3216552734374
 20
290.6807556152344
 30
0.0
 11
-431.3619995117187
 21
293.3679504394531
 31
0.0
  0
LINE
  5
EE
330
22
100
AcDbEntity
  8
0
  6
Continuous
 62
     7
100
AcDbLine
 10
-429.3396911621093
 20
296.0375671386719
 30
0.0
 11
-431.3619995117187
 21
293.3679504394531
 31
0.0
  0
LINE
  5
EF
330
22
100
AcDbEntity
  8
0
  6
Continuous
 62
     7
100
AcDbLine
 10
-429.9939880371093
 20
296.6918640136719
 30
0.0
 11
-432.6636047363281
 21
294.6695251464844
 31
0.0
  0
LINE
  5
F0
330
22
100
AcDbEntity
  8
0
  6
Continuous
 62
     7
100
AcDbLine
 10
-436.0055847167968
 20
296.0551147460938
 30
0.0
 11
-433.9652099609375
 21
293.3679504394531
 31
0.0
  0
LINE
  5
F1
330
22
100
AcDbEntity
  8
0
  6
Continuous
 62
     7
100
AcDbLine
 10
-435.3507995605468
 20
296.7098999023438
 30
0.0
 11
-432.6636047363281
 21
294.6695251464844
 31
0.0
  0
LINE
  5
F2
330
22
100
AcDbEntity
  8
0
  6
Continuous
 62
     7
100
AcDbLine
 10
-429.9764099121094
 20
290.0259704589844
 30
0.0
 11
-432.6636047363281
 21
292.0663452148438
 31
0.0
  0
LINE
  5
F3
330
22
100
AcDbEntity
  8
0
  6
Continuous
 62
     7
100
AcDbLine
 10
-453.2458190917968
 20
344.7297668457031
 30
0.0
 11
-450.576171875
 21
346.7520751953125
 31
0.0
  0
LINE
  5
F4
330
22
100
AcDbEntity
  8
0
  6
Continuous
 62
     7
100
AcDbLine
 10
-437.3492126464843
 20
304.1091918945313
 30
0.0
 11
-449.2355041503905
 21
340.6914367675781
 31
0.0
  0
LINE
  5
F5
330
22
100
AcDbEntity
  8
0
  6
Continuous
 62
     7
100
AcDbLine
 10
-453.5907592773438
 20
351.0682678222656
 30
0.0
 11
-453.9181518554688
 21
350.7408752441406
 31
0.0
  0
LINE
  5
F6
330
22
100
AcDbEntity
  8
0
  6
Continuous
 62
     7
100
AcDbLine
 10
-447.9065551757813
 20
351.3775939941406
 30
0.0
 11
-450.576171875
 21
349.3552856445313
 31
0.0
  0
LINE
  5
F7
330
22
100
AcDbEntity
  8
0
  6
Continuous
 62
     7
100
AcDbLine
 10
-447.5616149902343
 20
345.0391235351563
 30
0.0
 11
-447.2342224121093
 21
345.3665161132813
 31
0.0
  0
LINE
  5
F8
330
22
100
AcDbEntity
  8
0
  6
Continuous
 62
     7
100
AcDbLine
 10
-447.8890075683593
 20
344.7117309570313
 30
0.0
 11
-450.576171875
 21
346.7520751953125
 31
0.0
  0
LINE
  5
F9
330
22
100
AcDbEntity
  8
0
  6
Continuous
 62
     7
100
AcDbLine
 10
-429.9939880371093
 20
296.6918640136719
 30
0.0
 11
-429.6668395996094
 21
296.3647155761719
 31
0.0
  0
LINE
  5
FA
330
22
100
AcDbEntity
  8
0
  6
Continuous
 62
     7
100
AcDbLine
 10
-429.3396911621093
 20
296.0375671386719
 30
0.0
 11
-429.6668395996094
 21
296.3647155761719
 31
0.0
  0
LINE
  5
FB
330
22
100
AcDbEntity
  8
0
  6
Continuous
 62
     7
100
AcDbLine
 10
-435.6781921386718
 20
296.3825073242188
 30
0.0
 11
-435.3507995605468
 21
296.7098999023438
 31
0.0
  0
LINE
  5
FC
330
22
100
AcDbEntity
  8
0
  6
Continuous
 62
     7
100
AcDbLine
 10
-435.6781921386718
 20
296.3825073242188
 30
0.0
 11
-436.0055847167968
 21
296.0551147460938
 31
0.0
  0
LINE
  5
FD
330
22
100
AcDbEntity
  8
0
  6
Continuous
 62
     7
100
AcDbLine
 10
-435.9875183105469
 20
290.6983032226563
 30
0.0
 11
-435.6603698730468
 21
290.3711547851563
 31
0.0
  0
LINE
  5
FE
330
22
100
AcDbEntity
  8
0
  6
Continuous
 62
     7
100
AcDbLine
 10
-453.2633666992188
 20
351.3956604003906
 30
0.0
 11
-450.576171875
 21
349.3552856445313
 31
0.0
  0
LINE
  5
FF
330
22
100
AcDbEntity
  8
0
  6
Continuous
 62
     7
100
AcDbLine
 10
-447.5616149902343
 20
345.0391235351563
 30
0.0
 11
-447.8890075683593
 21
344.7117309570313
 31
0.0
  0
LINE
  5
100
330
22
100
AcDbEntity
  8
0
  6
Continuous
 62
     7
100
AcDbLine
 10
-447.2522583007813
 20
350.7233276367188
 30
0.0
 11
-447.5794067382813
 21
351.0504455566406
 31
0.0
  0
LINE
  5
101
330
22
100
AcDbEntity
  8
0
  6
Continuous
 62
     7
100
AcDbLine
 10
-447.9065551757813
 20
351.3775939941406
 30
0.0
 11
-447.5794067382813
 21
351.0504455566406
 31
0.0
  0
LINE
  5
102
330
22
100
AcDbEntity
  8
0
  6
Continuous
 62
     7
100
AcDbLine
 10
-447.2342224121093
 20
345.3665161132813
 30
0.0
 11
-449.2745666503906
 21
348.0536804199219
 31
0.0
  0
LINE
  5
103
330
22
100
AcDbEntity
  8
0
  6
Continuous
 62
     7
100
AcDbLine
 10
-435.9875183105469
 20
290.6983032226563
 30
0.0
 11
-433.9652099609375
 21
293.3679504394531
 31
0.0
  0
LINE
  5
104
330
22
100
AcDbEntity
  8
0
  6
Continuous
 62
     7
100
AcDbLine
 10
-429.6490478515624
 20
290.3533630371094
 30
0.0
 11
-429.3216552734374
 21
290.6807556152344
 31
0.0
  0
LINE
  5
105
330
22
100
AcDbEntity
  8
0
  6
Continuous
 62
     7
100
AcDbLine
 10
-444.4264831542969
 20
292.3678894042969
 30
0.0
 11
-489.2324829101562
 21
292.3678894042969
 31
0.0
  0
LINE
  5
106
330
22
100
AcDbEntity
  8
0
  6
Continuous
 62
     7
100
AcDbLine
 10
-435.3332214355468
 20
290.0440368652344
 30
0.0
 11
-432.6636047363281
 21
292.0663452148438
 31
0.0
  0
LINE
  5
107
330
22
100
AcDbEntity
  8
0
  6
Continuous
 62
     7
100
AcDbLine
 10
-429.6490478515624
 20
290.3533630371094
 30
0.0
 11
-429.9764099121094
 21
290.0259704589844
 31
0.0
  0
LINE
  5
108
330
22
100
AcDbEntity
  8
0
  6
Continuous
 62
     7
100
AcDbLine
 10
-453.2458190917968
 20
344.7297668457031
 30
0.0
 11
-453.5729675292968
 21
345.0569152832031
 31
0.0
  0
LINE
  5
109
330
22
100
AcDbEntity
  8
0
  6
Continuous
 62
     7
100
AcDbLine
 10
-453.9000854492187
 20
345.3840637207031
 30
0.0
 11
-453.5729675292968
 21
345.0569152832031
 31
0.0
  0
LINE
  5
10A
330
22
100
AcDbEntity
  8
0
  6
Continuous
 62
     7
100
AcDbLine
 10
-453.9000854492187
 20
345.3840637207031
 30
0.0
 11
-451.8777770996093
 21
348.0536804199219
 31
0.0
  0
LINE
  5
10B
330
22
100
AcDbEntity
  8
0
  6
Continuous
 62
     7
100
AcDbLine
 10
-453.5907592773438
 20
351.0682678222656
 30
0.0
 11
-453.2633666992188
 21
351.3956604003906
 31
0.0
  0
LINE
  5
10C
330
22
100
AcDbEntity
  8
0
  6
Continuous
 62
     7
100
AcDbLine
 10
-453.9181518554688
 20
350.7408752441406
 30
0.0
 11
-451.8777770996093
 21
348.0536804199219
 31
0.0
  0
LINE
  5
10D
330
22
100
AcDbEntity
  8
0
  6
Continuous
 62
     7
100
AcDbLine
 10
-447.2522583007813
 20
350.7233276367188
 30
0.0
 11
-449.2745666503906
 21
348.0536804199219
 31
0.0
  0
LINE
  5
10E
330
22
100
AcDbEntity
  8
0
  6
Continuous
 62
     7
100
AcDbLine
 10
-430.1680297851563
 20
282.0087280273438
 30
0.0
 11
-416.3222045898438
 21
239.3957061767578
 31
0.0
  0
LINE
  5
10F
330
22
100
AcDbEntity
  8
0
  6
Continuous
 62
     7
100
AcDbLine
 10
-422.81982421875
 20
287.3477478027344
 30
0.0
 11
-386.5710144042969
 21
261.0114440917969
 31
0.0
  0
LINE
  5
110
330
22
100
AcDbEntity
  8
0
  6
Continuous
 62
     7
100
AcDbLine
 10
-435.4468078613281
 20
282.0087280273438
 30
0.0
 11
-449.2926330566406
 21
239.3957061767578
 31
0.0
  0
LINE
  5
111
330
22
100
AcDbEntity
  8
0
  6
Continuous
 62
     7
100
AcDbLine
 10
-442.7952270507812
 20
287.3474426269531
 30
0.0
 11
-479.0440368652343
 21
261.0111389160156
 31
0.0
  0
LINE
  5
112
330
22
100
AcDbEntity
  8
0
  6
Continuous
 62
     7
100
AcDbLine
 10
-422.81982421875
 20
97.34774780273438
 30
0.0
 11
-386.5710144042969
 21
71.0114517211914
 31
0.0
  0
LINE
  5
113
330
22
100
AcDbEntity
  8
0
  6
CENTER
 62
     7
100
AcDbLine
 10
-527.0244140625
 20
103.3679351806641
 30
0.0
 11
-339.4932861328125
 21
103.3679351806641
 31
0.0
  0
LINE
  5
114
330
22
100
AcDbEntity
  8
0
  6
CENTER
 62
     7
100
AcDbLine
 10
-432.6636047363281
 20
197.1133575439453
 30
0.0
 11
-432.6636047363281
 21
8.831488609313964
 31
0.0
  0
LINE
  5
115
330
22
100
AcDbEntity
  8
0
  6
Continuous
 62
     7
100
AcDbLine
 10
-430.1680297851563
 20
92.00873565673829
 30
0.0
 11
-416.3222045898438
 21
49.39570617675781
 31
0.0
  0
LINE
  5
116
330
22
100
AcDbEntity
  8
0
  6
Continuous
 62
     7
100
AcDbLine
 10
-411.7153015136718
 20
160.7233123779297
 30
0.0
 11
-413.7376403808593
 21
158.0536804199219
 31
0.0
  0
LINE
  5
117
330
22
100
AcDbEntity
  8
0
  6
Continuous
 62
     7
100
AcDbLine
 10
-418.3811950683593
 20
160.7408752441406
 30
0.0
 11
-416.3408203124999
 21
158.0536804199219
 31
0.0
  0
LINE
  5
118
330
22
100
AcDbEntity
  8
0
  6
Continuous
 62
     7
100
AcDbLine
 10
-418.0538024902343
 20
161.0682678222656
 30
0.0
 11
-417.7264099121093
 21
161.3956451416016
 31
0.0
  0
LINE
  5
119
330
22
100
AcDbEntity
  8
0
  6
Continuous
 62
     7
100
AcDbLine
 10
-418.3631286621094
 20
155.3840637207031
 30
0.0
 11
-416.3408203124999
 21
158.0536804199219
 31
0.0
  0
LINE
  5
11A
330
22
100
AcDbEntity
  8
0
  6
Continuous
 62
     7
100
AcDbLine
 10
-418.3631286621094
 20
155.3840637207031
 30
0.0
 11
-418.0360107421875
 21
155.0569152832031
 31
0.0
  0
LINE
  5
11B
330
22
100
AcDbEntity
  8
0
  6
Continuous
 62
     7
100
AcDbLine
 10
-417.7088623046874
 20
154.7297668457031
 30
0.0
 11
-418.0360107421875
 21
155.0569152832031
 31
0.0
  0
LINE
  5
11C
330
22
100
AcDbEntity
  8
0
  6
Continuous
 62
     7
100
AcDbLine
 10
-429.6490478515624
 20
100.3533630371094
 30
0.0
 11
-429.9764099121094
 21
100.0259704589844
 31
0.0
  0
LINE
  5
11D
330
22
100
AcDbEntity
  8
0
  6
Continuous
 62
     7
100
AcDbLine
 10
-435.3332214355468
 20
100.0440216064453
 30
0.0
 11
-432.6636047363281
 21
102.0663375854492
 31
0.0
  0
LINE
  5
11E
330
22
100
AcDbEntity
  8
0
  6
Continuous
 62
     7
100
AcDbLine
 10
-444.4264831542969
 20
102.3678817749023
 30
0.0
 11
-489.2324829101562
 21
102.3678817749023
 31
0.0
  0
LINE
  5
11F
330
22
100
AcDbEntity
  8
0
  6
Continuous
 62
     7
100
AcDbLine
 10
-429.6490478515624
 20
100.3533630371094
 30
0.0
 11
-429.3216552734374
 21
100.6807556152344
 31
0.0
  0
LINE
  5
120
330
22
100
AcDbEntity
  8
0
  6
Continuous
 62
     7
100
AcDbLine
 10
-435.9875183105469
 20
100.6983108520508
 30
0.0
 11
-433.9652099609375
 21
103.3679351806641
 31
0.0
  0
LINE
  5
121
330
22
100
AcDbEntity
  8
0
  6
Continuous
 62
     7
100
AcDbLine
 10
-411.6972656249999
 20
155.3665008544922
 30
0.0
 11
-413.7376403808593
 21
158.0536804199219
 31
0.0
  0
LINE
  5
122
330
22
100
AcDbEntity
  8
0
  6
Continuous
 62
     7
100
AcDbLine
 10
-412.3695983886718
 20
161.3775939941406
 30
0.0
 11
-412.0424499511718
 21
161.0504608154297
 31
0.0
  0
LINE
  5
123
330
22
100
AcDbEntity
  8
0
  6
Continuous
 62
     7
100
AcDbLine
 10
-411.7153015136718
 20
160.7233123779297
 30
0.0
 11
-412.0424499511718
 21
161.0504608154297
 31
0.0
  0
LINE
  5
124
330
22
100
AcDbEntity
  8
0
  6
Continuous
 62
     7
100
AcDbLine
 10
-412.0246582031249
 20
155.0391082763672
 30
0.0
 11
-412.3520507812499
 21
154.7117156982421
 31
0.0
  0
LINE
  5
125
330
22
100
AcDbEntity
  8
0
  6
Continuous
 62
     7
100
AcDbLine
 10
-417.7264099121093
 20
161.3956451416016
 30
0.0
 11
-415.0392150878905
 21
159.3552856445313
 31
0.0
  0
LINE
  5
126
330
22
100
AcDbEntity
  8
0
  6
Continuous
 62
     7
100
AcDbLine
 10
-435.9875183105469
 20
100.6983108520508
 30
0.0
 11
-435.6603698730468
 21
100.3711624145508
 31
0.0
  0
LINE
  5
127
330
22
100
AcDbEntity
  8
0
  6
Continuous
 62
     7
100
AcDbLine
 10
-435.6781921386718
 20
106.3825149536133
 30
0.0
 11
-436.0055847167968
 21
106.0551223754883
 31
0.0
  0
LINE
  5
128
330
22
100
AcDbEntity
  8
0
  6
Continuous
 62
     7
100
AcDbLine
 10
-435.6781921386718
 20
106.3825149536133
 30
0.0
 11
-435.3507995605468
 21
106.7098999023438
 31
0.0
  0
LINE
  5
129
330
22
100
AcDbEntity
  8
0
  6
Continuous
 62
     7
100
AcDbLine
 10
-429.3396911621093
 20
106.0375671386719
 30
0.0
 11
-429.6668395996094
 21
106.3647079467773
 31
0.0
  0
LINE
  5
12A
330
22
100
AcDbEntity
  8
0
  6
Continuous
 62
     7
100
AcDbLine
 10
-429.9939880371093
 20
106.6918487548828
 30
0.0
 11
-429.6668395996094
 21
106.3647079467773
 31
0.0
  0
LINE
  5
12B
330
22
100
AcDbEntity
  8
0
  6
Continuous
 62
     7
100
AcDbLine
 10
-412.3520507812499
 20
154.7117156982421
 30
0.0
 11
-415.0392150878905
 21
156.7520904541016
 31
0.0
  0
LINE
  5
12C
330
22
100
AcDbEntity
  8
0
  6
Continuous
 62
     7
100
AcDbLine
 10
-412.0246582031249
 20
155.0391082763672
 30
0.0
 11
-411.6972656249999
 21
155.3665008544922
 31
0.0
  0
LINE
  5
12D
330
22
100
AcDbEntity
  8
0
  6
Continuous
 62
     7
100
AcDbLine
 10
-412.3695983886718
 20
161.3775939941406
 30
0.0
 11
-415.0392150878905
 21
159.3552856445313
 31
0.0
  0
LINE
  5
12E
330
22
100
AcDbEntity
  8
0
  6
Continuous
 62
     7
100
AcDbLine
 10
-418.0538024902343
 20
161.0682678222656
 30
0.0
 11
-418.3811950683593
 21
160.7408752441406
 31
0.0
  0
LINE
  5
12F
330
22
100
AcDbEntity
  8
0
  6
Continuous
 62
     7
100
AcDbLine
 10
-437.3492126464843
 20
114.1091995239258
 30
0.0
 11
-449.2355041503905
 21
150.6914520263672
 31
0.0
  0
LINE
  5
130
330
22
100
AcDbEntity
  8
0
  6
Continuous
 62
     7
100
AcDbLine
 10
-417.7088623046874
 20
154.7297668457031
 30
0.0
 11
-415.0392150878905
 21
156.7520904541016
 31
0.0
  0
LINE
  5
131
330
22
100
AcDbEntity
  8
0
  6
Continuous
 62
     7
100
AcDbLine
 10
-429.9764099121094
 20
100.0259704589844
 30
0.0
 11
-432.6636047363281
 21
102.0663375854492
 31
0.0
  0
LINE
  5
132
330
22
100
AcDbEntity
  8
0
  6
Continuous
 62
     7
100
AcDbLine
 10
-435.3507995605468
 20
106.7098999023438
 30
0.0
 11
-432.6636047363281
 21
104.6695404052734
 31
0.0
  0
LINE
  5
133
330
22
100
AcDbEntity
  8
0
  6
Continuous
 62
     7
100
AcDbLine
 10
-436.0055847167968
 20
106.0551223754883
 30
0.0
 11
-433.9652099609375
 21
103.3679351806641
 31
0.0
  0
LINE
  5
134
330
22
100
AcDbEntity
  8
0
  6
Continuous
 62
     7
100
AcDbLine
 10
-429.9939880371093
 20
106.6918487548828
 30
0.0
 11
-432.6636047363281
 21
104.6695404052734
 31
0.0
  0
LINE
  5
135
330
22
100
AcDbEntity
  8
0
  6
Continuous
 62
     7
100
AcDbLine
 10
-429.3396911621093
 20
106.0375671386719
 30
0.0
 11
-431.3619995117187
 21
103.3679351806641
 31
0.0
  0
LINE
  5
136
330
22
100
AcDbEntity
  8
0
  6
Continuous
 62
     7
100
AcDbLine
 10
-429.3216552734374
 20
100.6807556152344
 30
0.0
 11
-431.3619995117187
 21
103.3679351806641
 31
0.0
  0
LINE
  5
137
330
22
100
AcDbEntity
  8
0
  6
Continuous
 62
     7
100
AcDbLine
 10
-435.3332214355468
 20
100.0440216064453
 30
0.0
 11
-435.6603698730468
 21
100.3711624145508
 31
0.0
  0
LINE
  5
138
330
22
100
AcDbEntity
  8
0
  6
Continuous
 62
     7
100
AcDbLine
 10
-428.2662048339843
 20
114.1093826293945
 30
0.0
 11
-416.3799743652344
 21
150.6914367675781
 31
0.0
  0
LINE
  5
139
330
22
100
AcDbEntity
  8
0
  6
Continuous
 62
     7
100
AcDbLine
 10
-441.6198425292968
 20
111.0064010620117
 30
0.0
 11
-477.86865234375
 21
137.3426971435547
 31
0.0
  0
LINE
  5
13A
330
22
100
AcDbEntity
  8
0
  6
Continuous
 62
     7
100
AcDbLine
 10
-421.1885681152343
 20
102.3681793212891
 30
0.0
 11
-376.3825988769531
 21
102.3681793212891
 31
0.0
  0
LINE
  5
13B
330
22
100
AcDbEntity
  8
0
  6
Continuous
 62
     7
100
AcDbLine
 10
-423.9955749511718
 20
111.006591796875
 30
0.0
 11
-387.7467651367188
 21
137.3428955078125
 31
0.0
  0
LINE
  5
13C
330
22
100
AcDbEntity
  8
0
  6
Continuous
 62
     7
100
AcDbLine
 10
-435.4468078613281
 20
92.00873565673829
 30
0.0
 11
-449.2926330566406
 21
49.39570617675781
 31
0.0
  0
LINE
  5
13D
330
22
100
AcDbEntity
  8
0
  6
Continuous
 62
     7
100
AcDbLine
 10
-442.7952270507812
 20
97.34745025634765
 30
0.0
 11
-479.0440368652343
 21
71.01114654541015
 31
0.0
  0
LINE
  5
13E
330
22
100
AcDbEntity
  8
0
  6
Continuous
 62
     7
100
AcDbLine
 10
-265.9337768554688
 20
328.3679504394531
 30
0.0
 11
-265.9337768554688
 21
327.8679504394531
 31
0.0
  0
LINE
  5
13F
330
22
100
AcDbEntity
  8
0
  6
Continuous
 62
     7
100
AcDbLine
 10
-265.9337768554688
 20
293.3679504394531
 30
0.0
 11
-265.9337768554688
 21
327.8679504394531
 31
0.0
  0
LINE
  5
140
330
22
100
AcDbEntity
  8
0
  6
Continuous
 62
     7
100
AcDbLine
 10
-160.9337768554688
 20
311.4254455566406
 30
0.0
 11
-160.9337768554688
 21
305.662841796875
 31
0.0
  0
LINE
  5
141
330
22
100
AcDbEntity
  8
0
  6
Continuous
 62
     7
100
AcDbLine
 10
-260.9337768554688
 20
308.8991394042969
 30
0.0
 11
-260.9337768554688
 21
313.662841796875
 31
0.0
  0
LINE
  5
142
330
22
100
AcDbEntity
  8
0
  6
Continuous
 62
     7
100
AcDbLine
 10
-259.9175415039063
 20
327.3679504394531
 30
0.0
 11
-258.2647705078125
 21
329.0206909179688
 31
0.0
  0
LINE
  5
143
330
22
100
AcDbEntity
  8
0
  6
Continuous
 62
     7
100
AcDbLine
 10
-256.3819885253906
 20
327.3679504394531
 30
0.0
 11
-254.6151885986328
 21
329.1347351074219
 31
0.0
  0
LINE
  5
144
330
22
100
AcDbEntity
  8
0
  6
Continuous
 62
     7
100
AcDbLine
 10
-252.8464660644531
 20
327.3679504394531
 30
0.0
 11
-250.9655914306641
 21
329.2488098144531
 31
0.0
  0
LINE
  5
145
330
22
100
AcDbEntity
  8
0
  6
Continuous
 62
     7
100
AcDbLine
 10
-249.3109283447266
 20
327.3679504394531
 30
0.0
 11
-247.3160095214844
 21
329.3628540039063
 31
0.0
  0
LINE
  5
146
330
22
100
AcDbEntity
  8
0
  6
Continuous
 62
     7
100
AcDbLine
 10
-245.7754058837891
 20
327.3679504394531
 30
0.0
 11
-243.6664123535156
 21
329.4769287109375
 31
0.0
  0
LINE
  5
147
330
22
100
AcDbEntity
  8
0
  6
Continuous
 62
     7
100
AcDbLine
 10
-242.2398681640625
 20
327.3679504394531
 30
0.0
 11
-240.0168304443359
 21
329.5909729003906
 31
0.0
  0
LINE
  5
148
330
22
100
AcDbEntity
  8
0
  6
Continuous
 62
     7
100
AcDbLine
 10
-238.7043304443359
 20
327.3679504394531
 30
0.0
 11
-236.3672485351564
 21
329.7050170898438
 31
0.0
  0
LINE
  5
149
330
22
100
AcDbEntity
  8
0
  6
Continuous
 62
     7
100
AcDbLine
 10
-235.1687927246094
 20
327.3679504394531
 30
0.0
 11
-231.018798828125
 21
331.5179443359375
 31
0.0
  0
LINE
  5
14A
330
22
100
AcDbEntity
  8
0
  6
Continuous
 62
     7
100
AcDbLine
 10
-231.6332702636719
 20
327.3679504394531
 30
0.0
 11
-227.4832611083984
 21
331.5179443359375
 31
0.0
  0
LINE
  5
14B
330
22
100
AcDbEntity
  8
0
  6
Continuous
 62
     7
100
AcDbLine
 10
-228.0977325439453
 20
327.3679504394531
 30
0.0
 11
-223.9477233886719
 21
331.5179443359375
 31
0.0
  0
LINE
  5
14C
330
22
100
AcDbEntity
  8
0
  6
Continuous
 62
     7
100
AcDbLine
 10
-224.5621948242188
 20
327.3679504394531
 30
0.0
 11
-220.4122009277344
 21
331.5179443359375
 31
0.0
  0
LINE
  5
14D
330
22
100
AcDbEntity
  8
0
  6
Continuous
 62
     7
100
AcDbLine
 10
-221.0266571044922
 20
327.3679504394531
 30
0.0
 11
-216.8766632080078
 21
331.5179443359375
 31
0.0
  0
LINE
  5
14E
330
22
100
AcDbEntity
  8
0
  6
Continuous
 62
     7
100
AcDbLine
 10
-217.4911346435547
 20
327.3679504394531
 30
0.0
 11
-213.3411254882813
 21
331.5179443359375
 31
0.0
  0
LINE
  5
14F
330
22
100
AcDbEntity
  8
0
  6
Continuous
 62
     7
100
AcDbLine
 10
-213.9555969238281
 20
327.3679504394531
 30
0.0
 11
-211.4081726074219
 21
329.9153747558594
 31
0.0
  0
LINE
  5
150
330
22
100
AcDbEntity
  8
0
  6
Continuous
 62
     7
100
AcDbLine
 10
-210.4200592041016
 20
327.3679504394531
 30
0.0
 11
-208.3050537109375
 21
329.4829406738281
 31
0.0
  0
LINE
  5
151
330
22
100
AcDbEntity
  8
0
  6
Continuous
 62
     7
100
AcDbLine
 10
-206.884521484375
 20
327.3679504394531
 30
0.0
 11
-204.76953125
 21
329.4829406738281
 31
0.0
  0
LINE
  5
152
330
22
100
AcDbEntity
  8
0
  6
Continuous
 62
     7
100
AcDbLine
 10
-203.3489990234375
 20
327.3679504394531
 30
0.0
 11
-201.2339935302734
 21
329.4829406738281
 31
0.0
  0
LINE
  5
153
330
22
100
AcDbEntity
  8
0
  6
Continuous
 62
     7
100
AcDbLine
 10
-199.8134613037109
 20
327.3679504394531
 30
0.0
 11
-197.6984558105469
 21
329.4829406738281
 31
0.0
  0
LINE
  5
154
330
22
100
AcDbEntity
  8
0
  6
Continuous
 62
     7
100
AcDbLine
 10
-196.2779235839844
 20
327.3679504394531
 30
0.0
 11
-194.1629180908203
 21
329.4829406738281
 31
0.0
  0
LINE
  5
155
330
22
100
AcDbEntity
  8
0
  6
Continuous
 62
     7
100
AcDbLine
 10
-192.7423858642578
 20
327.3679504394531
 30
0.0
 11
-190.6273956298828
 21
329.4829406738281
 31
0.0
  0
LINE
  5
156
330
22
100
AcDbEntity
  8
0
  6
Continuous
 62
     7
100
AcDbLine
 10
-189.2068634033203
 20
327.3679504394531
 30
0.0
 11
-187.0918579101563
 21
329.4829406738281
 31
0.0
  0
LINE
  5
157
330
22
100
AcDbEntity
  8
0
  6
Continuous
 62
     7
100
AcDbLine
 10
-185.6713256835938
 20
327.3679504394531
 30
0.0
 11
-183.5563201904297
 21
329.4829406738281
 31
0.0
  0
LINE
  5
158
330
22
100
AcDbEntity
  8
0
  6
Continuous
 62
     7
100
AcDbLine
 10
-182.1357879638672
 20
327.3679504394531
 30
0.0
 11
-180.0207824707031
 21
329.4829406738281
 31
0.0
  0
LINE
  5
159
330
22
100
AcDbEntity
  8
0
  6
Continuous
 62
     7
100
AcDbLine
 10
-178.6002502441406
 20
327.3679504394531
 30
0.0
 11
-176.4852600097656
 21
329.4829406738281
 31
0.0
  0
LINE
  5
15A
330
22
100
AcDbEntity
  8
0
  6
Continuous
 62
     7
100
AcDbLine
 10
-175.0647277832031
 20
327.3679504394531
 30
0.0
 11
-172.9497222900391
 21
329.4829406738281
 31
0.0
  0
LINE
  5
15B
330
22
100
AcDbEntity
  8
0
  6
Continuous
 62
     7
100
AcDbLine
 10
-171.5291900634766
 20
327.3679504394531
 30
0.0
 11
-169.4141845703125
 21
329.4829406738281
 31
0.0
  0
LINE
  5
15C
330
22
100
AcDbEntity
  8
0
  6
Continuous
 62
     7
100
AcDbLine
 10
-167.99365234375
 20
327.3679504394531
 30
0.0
 11
-165.8786468505859
 21
329.4829406738281
 31
0.0
  0
LINE
  5
15D
330
22
100
AcDbEntity
  8
0
  6
Continuous
 62
     7
100
AcDbLine
 10
-164.4581146240234
 20
327.3679504394531
 30
0.0
 11
-162.3431243896484
 21
329.4829406738281
 31
0.0
  0
LINE
  5
15E
330
22
100
AcDbEntity
  8
0
  6
Continuous
 62
     7
100
AcDbLine
 10
-160.9337768554688
 20
327.3679504394531
 30
0.0
 11
-260.9337768554688
 21
327.3679504394531
 31
0.0
  0
LINE
  5
15F
330
22
100
AcDbEntity
  8
0
  6
Continuous
 62
     7
100
AcDbLine
 10
-259.4104309082031
 20
330.4606018066406
 30
0.0
 11
-232.71044921875
 21
331.2950134277344
 31
0.0
  0
LINE
  5
160
330
22
100
AcDbEntity
  8
0
  6
Continuous
 62
     7
100
AcDbLine
 10
-260.9337768554688
 20
328.9372863769531
 30
0.0
 11
-234.2337646484375
 21
329.7716979980469
 31
0.0
  0
LINE
  5
161
330
22
100
AcDbEntity
  8
0
  6
Continuous
 62
     7
100
AcDbLine
 10
-243.9337768554688
 20
334.8679504394531
 30
0.0
 11
-267.0957336425781
 21
334.8679504394531
 31
0.0
  0
LINE
  5
162
330
22
100
AcDbEntity
  8
0
  6
Continuous
 62
     7
100
AcDbLine
 10
-242.9337768554688
 20
330.9679260253906
 30
0.0
 11
-264.3669128417969
 21
330.2981262207031
 31
0.0
  0
LINE
  5
163
330
22
100
AcDbEntity
  8
0
  6
Continuous
 62
     7
100
AcDbLine
 10
-244.5006256103516
 20
329.4010925292969
 30
0.0
 11
-265.9337768554688
 21
328.7312622070313
 31
0.0
  0
LINE
  5
164
330
22
100
AcDbEntity
  8
0
  6
Continuous
 62
     7
100
AcDbLine
 10
-234.2337646484375
 20
329.7716979980469
 30
0.0
 11
-232.4875335693359
 21
331.5179443359375
 31
0.0
  0
LINE
  5
165
330
22
100
AcDbEntity
  8
0
  6
Continuous
 62
     7
100
AcDbLine
 10
-242.9337768554688
 20
330.9679260253906
 30
0.0
 11
-244.5006256103516
 21
329.4010925292969
 31
0.0
  0
LINE
  5
166
330
22
100
AcDbEntity
  8
0
  6
Continuous
 62
     7
100
AcDbLine
 10
-242.9337768554688
 20
333.8679504394531
 30
0.0
 11
-243.9337768554688
 21
334.8679504394531
 31
0.0
  0
LINE
  5
167
330
22
100
AcDbEntity
  8
0
  6
Continuous
 62
     7
100
AcDbLine
 10
-242.9337768554688
 20
333.8679504394531
 30
0.0
 11
-242.9337768554688
 21
330.9679260253906
 31
0.0
  0
LINE
  5
168
330
22
100
AcDbEntity
  8
0
  6
Continuous
 62
     7
100
AcDbLine
 10
-142.9337768554688
 20
328.544677734375
 30
0.0
 11
-142.9337768554688
 21
293.3679504394531
 31
0.0
  0
LINE
  5
169
330
22
100
AcDbEntity
  8
0
  6
Continuous
 62
     7
100
AcDbLine
 10
-150.4087677001953
 20
293.3679504394531
 30
0.0
 11
-150.4087677001953
 21
329.4829406738281
 31
0.0
  0
LINE
  5
16A
330
22
100
AcDbEntity
  8
0
  6
Continuous
 62
     7
100
AcDbLine
 10
-114.4570999145508
 20
329.4346008300781
 30
0.0
 11
-114.4570999145508
 21
293.3679504394531
 31
0.0
  0
LINE
  5
16B
330
22
100
AcDbEntity
  8
0
  6
Continuous
 62
     7
100
AcDbLine
 10
-160.9337768554688
 20
293.3679504394531
 30
0.0
 11
-160.9337768554688
 21
329.4829406738281
 31
0.0
  0
LINE
  5
16C
330
22
100
AcDbEntity
  8
0
  6
Continuous
 62
     7
100
AcDbLine
 10
-180.9337768554688
 20
330.9579467773438
 30
0.0
 11
-180.9337768554688
 21
333.3679504394531
 31
0.0
  0
LINE
  5
16D
330
22
100
AcDbEntity
  8
0
  6
Continuous
 62
     7
100
AcDbLine
 10
-213.1663055419922
 20
331.5179443359375
 30
0.0
 11
-232.4875335693359
 21
331.5179443359375
 31
0.0
  0
LINE
  5
16E
330
22
100
AcDbEntity
  8
0
  6
Continuous
 62
     7
100
AcDbLine
 10
-112.9337692260742
 20
330.9579467773438
 30
0.0
 11
-144.3647766113281
 21
329.9756774902344
 31
0.0
  0
LINE
  5
16F
330
22
100
AcDbEntity
  8
0
  6
Continuous
 62
     7
100
AcDbLine
 10
-112.9337692260742
 20
330.9579467773438
 30
0.0
 11
-114.4570999145508
 21
329.4346008300781
 31
0.0
  0
LINE
  5
170
330
22
100
AcDbEntity
  8
0
  6
Continuous
 62
     7
100
AcDbLine
 10
-148.8666076660156
 20
382.7055969238281
 30
0.0
 11
-147.2714385986328
 21
384.30078125
 31
0.0
  0
LINE
  5
171
330
22
100
AcDbEntity
  8
0
  6
Continuous
 62
     7
100
AcDbLine
 10
-148.9337768554688
 20
379.8099975585938
 30
0.0
 11
-145.4337768554688
 21
383.3099975585938
 31
0.0
  0
LINE
  5
172
330
22
100
AcDbEntity
  8
0
  6
Continuous
 62
     7
100
AcDbLine
 10
-148.9337768554688
 20
376.9815979003906
 30
0.0
 11
-145.4337768554688
 21
380.4815979003906
 31
0.0
  0
LINE
  5
173
330
22
100
AcDbEntity
  8
0
  6
Continuous
 62
     7
100
AcDbLine
 10
-148.9337768554688
 20
374.1531677246094
 30
0.0
 11
-145.4337768554688
 21
377.6531677246094
 31
0.0
  0
LINE
  5
174
330
22
100
AcDbEntity
  8
0
  6
Continuous
 62
     7
100
AcDbLine
 10
-148.9337768554688
 20
371.3247375488281
 30
0.0
 11
-145.4337768554688
 21
374.8247375488281
 31
0.0
  0
LINE
  5
175
330
22
100
AcDbEntity
  8
0
  6
Continuous
 62
     7
100
AcDbLine
 10
-148.8717498779297
 20
368.5583190917969
 30
0.0
 11
-145.4337768554688
 21
371.9963073730469
 31
0.0
  0
LINE
  5
176
330
22
100
AcDbEntity
  8
0
  6
Continuous
 62
     7
100
AcDbLine
 10
-148.9337768554688
 20
365.6678771972656
 30
0.0
 11
-145.4337768554688
 21
369.1678771972656
 31
0.0
  0
LINE
  5
177
330
22
100
AcDbEntity
  8
0
  6
Continuous
 62
     7
100
AcDbLine
 10
-180.8592987060547
 20
333.7423400878906
 30
0.0
 11
-180.3081817626953
 21
334.29345703125
 31
0.0
  0
LINE
  5
178
330
22
100
AcDbEntity
  8
0
  6
Continuous
 62
     7
100
AcDbLine
 10
-148.9337768554688
 20
362.8394470214844
 30
0.0
 11
-145.4337768554688
 21
366.3394470214844
 31
0.0
  0
LINE
  5
179
330
22
100
AcDbEntity
  8
0
  6
Continuous
 62
     7
100
AcDbLine
 10
-180.8152770996094
 20
330.9579467773438
 30
0.0
 11
-177.4052886962891
 21
334.3679504394531
 31
0.0
  0
LINE
  5
17A
330
22
100
AcDbEntity
  8
0
  6
Continuous
 62
     7
100
AcDbLine
 10
-148.9337768554688
 20
360.0110168457031
 30
0.0
 11
-145.4337768554688
 21
363.5110168457031
 31
0.0
  0
LINE
  5
17B
330
22
100
AcDbEntity
  8
0
  6
Continuous
 62
     7
100
AcDbLine
 10
-177.9868621826172
 20
330.9579467773438
 30
0.0
 11
-174.5768585205078
 21
334.3679504394531
 31
0.0
  0
LINE
  5
17C
330
22
100
AcDbEntity
  8
0
  6
Continuous
 62
     7
100
AcDbLine
 10
-148.9337768554688
 20
357.1825866699219
 30
0.0
 11
-145.4337768554688
 21
360.6825866699219
 31
0.0
  0
LINE
  5
17D
330
22
100
AcDbEntity
  8
0
  6
Continuous
 62
     7
100
AcDbLine
 10
-175.1584320068359
 20
330.9579467773438
 30
0.0
 11
-171.7484283447266
 21
334.3679504394531
 31
0.0
  0
LINE
  5
17E
330
22
100
AcDbEntity
  8
0
  6
Continuous
 62
     7
100
AcDbLine
 10
-148.9337768554688
 20
354.3541564941406
 30
0.0
 11
-145.4337768554688
 21
357.8541564941406
 31
0.0
  0
LINE
  5
17F
330
22
100
AcDbEntity
  8
0
  6
Continuous
 62
     7
100
AcDbLine
 10
-172.3300018310547
 20
330.9579467773438
 30
0.0
 11
-168.9199981689453
 21
334.3679504394531
 31
0.0
  0
LINE
  5
180
330
22
100
AcDbEntity
  8
0
  6
Continuous
 62
     7
100
AcDbLine
 10
-148.3876800537109
 20
352.0718383789063
 30
0.0
 11
-145.4337768554688
 21
355.0257263183594
 31
0.0
  0
LINE
  5
181
330
22
100
AcDbEntity
  8
0
  6
Continuous
 62
     7
100
AcDbLine
 10
-169.5015716552734
 20
330.9579467773438
 30
0.0
 11
-166.0915679931641
 21
334.3679504394531
 31
0.0
  0
LINE
  5
182
330
22
100
AcDbEntity
  8
0
  6
Continuous
 62
     7
100
AcDbLine
 10
-148.9337768554688
 20
348.6973266601563
 30
0.0
 11
-145.4337768554688
 21
352.1973266601563
 31
0.0
  0
LINE
  5
183
330
22
100
AcDbEntity
  8
0
  6
Continuous
 62
     7
100
AcDbLine
 10
-166.6731414794922
 20
330.9579467773438
 30
0.0
 11
-163.2631530761719
 21
334.3679504394531
 31
0.0
  0
LINE
  5
184
330
22
100
AcDbEntity
  8
0
  6
Continuous
 62
     7
100
AcDbLine
 10
-148.9337768554688
 20
345.868896484375
 30
0.0
 11
-145.4337768554688
 21
349.368896484375
 31
0.0
  0
LINE
  5
185
330
22
100
AcDbEntity
  8
0
  6
Continuous
 62
     7
100
AcDbLine
 10
-163.8447265625
 20
330.9579467773438
 30
0.0
 11
-160.4347229003906
 21
334.3679504394531
 31
0.0
  0
LINE
  5
186
330
22
100
AcDbEntity
  8
0
  6
Continuous
 62
     7
100
AcDbLine
 10
-148.9337768554688
 20
343.0404663085938
 30
0.0
 11
-145.4337768554688
 21
346.5404663085938
 31
0.0
  0
LINE
  5
187
330
22
100
AcDbEntity
  8
0
  6
Continuous
 62
     7
100
AcDbLine
 10
-161.0162963867188
 20
330.9579467773438
 30
0.0
 11
-157.6062927246094
 21
334.3679504394531
 31
0.0
  0
LINE
  5
188
330
22
100
AcDbEntity
  8
0
  6
Continuous
 62
     7
100
AcDbLine
 10
-148.9337768554688
 20
340.2120361328125
 30
0.0
 11
-145.4337768554688
 21
343.7120361328125
 31
0.0
  0
LINE
  5
189
330
22
100
AcDbEntity
  8
0
  6
Continuous
 62
     7
100
AcDbLine
 10
-158.1878662109375
 20
330.9579467773438
 30
0.0
 11
-154.7778625488281
 21
334.3679504394531
 31
0.0
  0
LINE
  5
18A
330
22
100
AcDbEntity
  8
0
  6
Continuous
 62
     7
100
AcDbLine
 10
-150.0012817382813
 20
336.3161010742188
 30
0.0
 11
-145.4337768554688
 21
340.8836059570313
 31
0.0
  0
LINE
  5
18B
330
22
100
AcDbEntity
  8
0
  6
Continuous
 62
     7
100
AcDbLine
 10
-155.3594360351563
 20
330.9579467773438
 30
0.0
 11
-150.8819274902344
 21
335.4354553222656
 31
0.0
  0
LINE
  5
18C
330
22
100
AcDbEntity
  8
0
  6
Continuous
 62
     7
100
AcDbLine
 10
-152.531005859375
 20
330.9579467773438
 30
0.0
 11
-145.4337768554688
 21
338.05517578125
 31
0.0
  0
LINE
  5
18D
330
22
100
AcDbEntity
  8
0
  6
Continuous
 62
     7
100
AcDbLine
 10
-149.7025909423828
 20
330.9579467773438
 30
0.0
 11
-145.2845916748047
 21
335.3759155273438
 31
0.0
  0
LINE
  5
18E
330
22
100
AcDbEntity
  8
0
  6
Continuous
 62
     7
100
AcDbLine
 10
-146.8741607666016
 20
330.9579467773438
 30
0.0
 11
-142.9641571044922
 21
334.8679504394531
 31
0.0
  0
LINE
  5
18F
330
22
100
AcDbEntity
  8
0
  6
Continuous
 62
     7
100
AcDbLine
 10
-144.3647766113281
 20
330.6388854980469
 30
0.0
 11
-140.1357269287109
 21
334.8679504394531
 31
0.0
  0
LINE
  5
190
330
22
100
AcDbEntity
  8
0
  6
Continuous
 62
     7
100
AcDbLine
 10
-142.1297302246094
 20
330.0455322265625
 30
0.0
 11
-137.3072967529297
 21
334.8679504394531
 31
0.0
  0
LINE
  5
191
330
22
100
AcDbEntity
  8
0
  6
Continuous
 62
     7
100
AcDbLine
 10
-139.2100524902344
 20
330.1367492675781
 30
0.0
 11
-134.4788818359375
 21
334.8679504394531
 31
0.0
  0
LINE
  5
192
330
22
100
AcDbEntity
  8
0
  6
Continuous
 62
     7
100
AcDbLine
 10
-136.2903747558594
 20
330.2279968261719
 30
0.0
 11
-131.6504516601562
 21
334.8679504394531
 31
0.0
  0
LINE
  5
193
330
22
100
AcDbEntity
  8
0
  6
Continuous
 62
     7
100
AcDbLine
 10
-133.3707122802734
 20
330.3192443847656
 30
0.0
 11
-128.822021484375
 21
334.8679504394531
 31
0.0
  0
LINE
  5
194
330
22
100
AcDbEntity
  8
0
  6
Continuous
 62
     7
100
AcDbLine
 10
-130.4510345458984
 20
330.4104919433594
 30
0.0
 11
-125.9935989379883
 21
334.8679504394531
 31
0.0
  0
LINE
  5
195
330
22
100
AcDbEntity
  8
0
  6
Continuous
 62
     7
100
AcDbLine
 10
-127.531364440918
 20
330.5017395019531
 30
0.0
 11
-123.165168762207
 21
334.8679504394531
 31
0.0
  0
LINE
  5
196
330
22
100
AcDbEntity
  8
0
  6
Continuous
 62
     7
100
AcDbLine
 10
-124.6116943359375
 20
330.5929870605469
 30
0.0
 11
-120.3367385864258
 21
334.8679504394531
 31
0.0
  0
LINE
  5
197
330
22
100
AcDbEntity
  8
0
  6
Continuous
 62
     7
100
AcDbLine
 10
-121.692024230957
 20
330.6842346191406
 30
0.0
 11
-117.5083160400391
 21
334.8679504394531
 31
0.0
  0
LINE
  5
198
330
22
100
AcDbEntity
  8
0
  6
Continuous
 62
     7
100
AcDbLine
 10
-118.7723541259766
 20
330.7754821777344
 30
0.0
 11
-114.6798858642578
 21
334.8679504394531
 31
0.0
  0
LINE
  5
199
330
22
100
AcDbEntity
  8
0
  6
Continuous
 62
     7
100
AcDbLine
 10
-115.8526840209961
 20
330.8667297363281
 30
0.0
 11
-112.9337692260742
 21
333.7856140136719
 31
0.0
  0
LINE
  5
19A
330
22
100
AcDbEntity
  8
0
  6
Continuous
 62
     7
100
AcDbLine
 10
-259.9337768554688
 20
330.4599304199219
 30
0.0
 11
-258.4704895019531
 21
328.9966735839844
 31
0.0
  0
LINE
  5
19B
330
22
100
AcDbEntity
  8
0
  6
Continuous
 62
     7
100
AcDbLine
 10
-260.9337768554688
 20
328.9372863769531
 30
0.0
 11
-259.4104309082031
 21
330.4606018066406
 31
0.0
  0
LINE
  5
19C
330
22
100
AcDbEntity
  8
0
  6
Continuous
 62
     7
100
AcDbLine
 10
-260.9337768554688
 20
293.3679504394531
 30
0.0
 11
-260.9337768554688
 21
328.9372863769531
 31
0.0
  0
LINE
  5
19D
330
22
100
AcDbEntity
  8
0
  6
Continuous
 62
     7
100
AcDbLine
 10
-270.46044921875
 20
293.3679504394531
 30
0.0
 11
-270.46044921875
 21
327.5245361328125
 31
0.0
  0
LINE
  5
19E
330
22
100
AcDbEntity
  8
0
  6
Continuous
 62
     7
100
AcDbLine
 10
-265.9337768554688
 20
328.7312622070313
 30
0.0
 11
-264.3669128417969
 21
330.2981262207031
 31
0.0
  0
LINE
  5
19F
330
22
100
AcDbEntity
  8
0
  6
Continuous
 62
     7
100
AcDbLine
 10
-265.9337768554688
 20
328.3679504394531
 30
0.0
 11
-265.9337768554688
 21
328.7312622070313
 31
0.0
  0
LINE
  5
1A0
330
22
100
AcDbEntity
  8
0
  6
Continuous
 62
     7
100
AcDbLine
 10
-269.9231262207031
 20
327.3679504394531
 30
0.0
 11
-266.4337768554688
 21
327.3679504394531
 31
0.0
  0
LINE
  5
1A1
330
22
100
AcDbEntity
  8
0
  6
Continuous
 62
     7
100
AcDbLine
 10
-160.9337768554688
 20
329.4829406738281
 30
0.0
 11
-210.9337768554688
 21
329.4829406738281
 31
0.0
  0
LINE
  5
1A2
330
22
100
AcDbEntity
  8
0
  6
Continuous
 62
     7
100
AcDbLine
 10
-180.9337768554688
 20
330.9579467773438
 30
0.0
 11
-148.9337768554688
 21
330.9579467773438
 31
0.0
  0
LINE
  5
1A3
330
22
100
AcDbEntity
  8
0
  6
Continuous
 62
     7
100
AcDbLine
 10
-153.9337768554688
 20
334.3679504394531
 30
0.0
 11
-179.9337768554688
 21
334.3679504394531
 31
0.0
  0
LINE
  5
1A4
330
22
100
AcDbEntity
  8
0
  6
Continuous
 62
     7
100
AcDbLine
 10
-179.4587707519531
 20
329.4829406738281
 30
0.0
 11
-150.4087677001953
 21
329.4829406738281
 31
0.0
  0
LINE
  5
1A5
330
22
100
AcDbEntity
  8
0
  6
Continuous
 62
     7
100
AcDbLine
 10
-144.3647766113281
 20
329.9756774902344
 30
0.0
 11
-144.3647766113281
 21
293.3679504394531
 31
0.0
  0
LINE
  5
1A6
330
22
100
AcDbEntity
  8
0
  6
Continuous
 62
     7
100
AcDbLine
 10
-210.9337768554688
 20
329.4829406738281
 30
0.0
 11
-213.1663055419922
 21
331.5179443359375
 31
0.0
  0
LINE
  5
1A7
330
22
100
AcDbEntity
  8
0
  6
Continuous
 62
     7
100
AcDbLine
 10
-162.4087677001953
 20
330.9579467773438
 30
0.0
 11
-212.5519409179688
 21
330.9579467773438
 31
0.0
  0
LINE
  5
1A8
330
22
100
AcDbEntity
  8
0
  6
Continuous
 62
     7
100
AcDbLine
 10
-144.4337768554688
 20
334.8679504394531
 30
0.0
 11
-113.9337692260742
 21
334.8679504394531
 31
0.0
  0
LINE
  5
1A9
330
22
100
AcDbEntity
  8
0
  6
Continuous
 62
     7
100
AcDbLine
 10
-142.9337768554688
 20
328.544677734375
 30
0.0
 11
-114.4570999145508
 21
329.4346008300781
 31
0.0
  0
LINE
  5
1AA
330
22
100
AcDbEntity
  8
0
  6
Continuous
 62
     7
100
AcDbLine
 10
-144.3647766113281
 20
329.9756774902344
 30
0.0
 11
-148.9337768554688
 21
329.9756774902344
 31
0.0
  0
LINE
  5
1AB
330
22
100
AcDbEntity
  8
0
  6
Continuous
 62
     7
100
AcDbLine
 10
-145.4337768554688
 20
335.8679504394531
 30
0.0
 11
-145.4337768554688
 21
383.8679504394531
 31
0.0
  0
LINE
  5
1AC
330
22
100
AcDbEntity
  8
0
  6
Continuous
 62
     7
100
AcDbLine
 10
-148.9337768554688
 20
339.3679504394531
 30
0.0
 11
-148.9337768554688
 21
382.3679504394531
 31
0.0
  0
LINE
  5
1AD
330
22
100
AcDbEntity
  8
0
  6
Continuous
 62
     7
100
AcDbLine
 10
-147.9337768554688
 20
351.6179504394531
 30
0.0
 11
-148.9337768554688
 21
352.6179504394531
 31
0.0
  0
LINE
  5
1AE
330
22
100
AcDbEntity
  8
0
  6
Continuous
 62
     7
100
AcDbLine
 10
-148.9337768554688
 20
330.9579467773438
 30
0.0
 11
-148.9337768554688
 21
293.3679504394531
 31
0.0
  0
LINE
  5
1AF
330
22
100
AcDbEntity
  8
0
  6
Continuous
 62
     7
100
AcDbLine
 10
-148.9337768554688
 20
375.2406921386719
 30
0.0
 11
-148.9337768554688
 21
379.31396484375
 31
0.0
  0
LINE
  5
1B0
330
22
100
AcDbEntity
  8
0
  6
Continuous
 62
     7
100
AcDbLine
 10
-145.9337768554688
 20
384.3679504394531
 30
0.0
 11
-146.9337768554688
 21
384.3679504394531
 31
0.0
  0
LINE
  5
1B1
330
22
100
AcDbEntity
  8
0
  6
Continuous
 62
     7
100
AcDbLine
 10
-147.9337768554688
 20
367.6203308105469
 30
0.0
 11
-148.9337768554688
 21
366.6203308105469
 31
0.0
  0
LINE
  5
1B2
330
22
100
AcDbEntity
  8
0
  6
Continuous
 62
     7
100
AcDbLine
 10
-147.9337768554688
 20
367.6203308105469
 30
0.0
 11
-148.9337768554688
 21
368.6203308105469
 31
0.0
  0
LINE
  5
1B3
330
22
100
AcDbEntity
  8
0
  6
Continuous
 62
     7
100
AcDbLine
 10
-150.4087677001953
 20
329.4829406738281
 30
0.0
 11
-148.9337768554688
 21
330.9579467773438
 31
0.0
  0
LINE
  5
1B4
330
22
100
AcDbEntity
  8
0
  6
Continuous
 62
     7
100
AcDbLine
 10
-142.9337768554688
 20
328.544677734375
 30
0.0
 11
-144.3647766113281
 21
329.9756774902344
 31
0.0
  0
LINE
  5
1B5
330
22
100
AcDbEntity
  8
0
  6
Continuous
 62
     7
100
AcDbLine
 10
-242.9337768554688
 20
257.2360534667969
 30
0.0
 11
-234.2337646484375
 21
256.9641723632813
 31
0.0
  0
LINE
  5
1B6
330
22
100
AcDbEntity
  8
0
  6
Continuous
 62
     7
100
AcDbLine
 10
-242.9337768554688
 20
255.7603454589844
 30
0.0
 11
-232.71044921875
 21
255.4408416748047
 31
0.0
  0
LINE
  5
1B7
330
22
100
AcDbEntity
  8
0
  6
Continuous
 62
     7
100
AcDbLine
 10
-145.4337768554688
 20
235.8679351806641
 30
0.0
 11
-143.9328002929688
 21
235.8679351806641
 31
0.0
  0
LINE
  5
1B8
330
22
100
AcDbEntity
  8
0
  6
Continuous
 62
     7
100
AcDbLine
 10
-145.9337768554688
 20
202.3679351806641
 30
0.0
 11
-146.9337768554688
 21
202.3679351806641
 31
0.0
  0
LINE
  5
1B9
330
22
100
AcDbEntity
  8
0
  6
Continuous
 62
     7
100
AcDbLine
 10
-266.997283935547
 20
253.9941101074219
 30
0.0
 11
-266.997283935547
 21
262.0533447265625
 31
0.0
  0
LINE
  5
1BA
330
22
100
AcDbEntity
  8
0
  6
Continuous
 62
     7
100
AcDbLine
 10
-148.9337768554688
 20
204.3679351806641
 30
0.0
 11
-148.9337768554688
 21
247.3679351806641
 31
0.0
  0
LINE
  5
1BB
330
22
100
AcDbEntity
  8
0
  6
Continuous
 62
     7
100
AcDbLine
 10
-145.4337768554688
 20
202.8679351806641
 30
0.0
 11
-145.4337768554688
 21
246.8679351806641
 31
0.0
  0
LINE
  5
1BC
330
22
100
AcDbEntity
  8
0
  6
Continuous
 62
     7
100
AcDbLine
 10
-242.9337768554688
 20
262.0533447265625
 30
0.0
 11
-269.4582824707031
 21
262.0533447265625
 31
0.0
  0
LINE
  5
1BD
330
22
100
AcDbEntity
  8
0
  6
Continuous
 62
     7
100
AcDbLine
 10
-243.9337768554688
 20
251.8679351806641
 30
0.0
 11
-267.0957336425781
 21
251.8679351806641
 31
0.0
  0
LINE
  5
1BE
330
22
100
AcDbEntity
  8
0
  6
Continuous
 62
     7
100
AcDbLine
 10
-147.9337768554688
 20
351.6179504394531
 30
0.0
 11
-148.9337768554688
 21
350.6179504394531
 31
0.0
  0
LINE
  5
1BF
330
22
100
AcDbEntity
  8
0
  6
Continuous
 62
     7
100
AcDbLine
 10
-160.9337768554688
 20
329.4829406738281
 30
0.0
 11
-162.4087677001953
 21
330.9579467773438
 31
0.0
  0
LINE
  5
1C0
330
22
100
AcDbEntity
  8
0
  6
Continuous
 62
     7
100
AcDbLine
 10
-180.9337768554688
 20
330.9579467773438
 30
0.0
 11
-179.4587707519531
 21
329.4829406738281
 31
0.0
  0
LINE
  5
1C1
330
22
100
AcDbEntity
  8
0
  6
Continuous
 62
     7
100
AcDbLine
 10
-180.9337768554688
 20
257.2529296875
 30
0.0
 11
-208.8164367675781
 21
257.2529296875
 31
0.0
  0
LINE
  5
1C2
330
22
100
AcDbEntity
  8
0
  6
Continuous
 62
     7
100
AcDbLine
 10
-144.4337768554688
 20
251.8679351806641
 30
0.0
 11
-113.9337692260742
 21
251.8679351806641
 31
0.0
  0
LINE
  5
1C3
330
22
100
AcDbEntity
  8
0
  6
Continuous
 62
     7
100
AcDbLine
 10
-145.4337768554688
 20
246.8679351806641
 30
0.0
 11
-145.4337768554688
 21
250.8679351806641
 31
0.0
  0
LINE
  5
1C4
330
22
100
AcDbEntity
  8
0
  6
Continuous
 62
     7
100
AcDbLine
 10
-211.0489654541016
 20
255.2179412841797
 30
0.0
 11
-232.4875335693359
 21
255.2179412841797
 31
0.0
  0
LINE
  5
1C5
330
22
100
AcDbEntity
  8
0
  6
Continuous
 62
     7
100
AcDbLine
 10
-153.9337768554688
 20
252.3679351806641
 30
0.0
 11
-179.9337768554688
 21
252.3679351806641
 31
0.0
  0
LINE
  5
1C6
330
22
100
AcDbEntity
  8
0
  6
Continuous
 62
     7
100
AcDbLine
 10
-127.4337692260742
 20
251.8679351806641
 30
0.0
 11
-127.4337692260742
 21
249.8679351806641
 31
0.0
  0
LINE
  5
1C7
330
22
100
AcDbEntity
  8
0
  6
Continuous
 62
     7
100
AcDbLine
 10
-208.8164367675781
 20
257.2529296875
 30
0.0
 11
-211.0489654541016
 21
255.2179412841797
 31
0.0
  0
LINE
  5
1C8
330
22
100
AcDbEntity
  8
0
  6
Continuous
 62
     7
100
AcDbLine
 10
-180.9337768554688
 20
255.7779388427734
 30
0.0
 11
-210.4346008300781
 21
255.7779388427734
 31
0.0
  0
LINE
  5
1C9
330
22
100
AcDbEntity
  8
0
  6
Continuous
 62
     7
100
AcDbLine
 10
-234.2337646484375
 20
256.9641723632813
 30
0.0
 11
-232.4875335693359
 21
255.2179412841797
 31
0.0
  0
LINE
  5
1CA
330
22
100
AcDbEntity
  8
0
  6
Continuous
 62
     7
100
AcDbLine
 10
-242.9337768554688
 20
252.8679351806641
 30
0.0
 11
-243.9337768554688
 21
251.8679351806641
 31
0.0
  0
LINE
  5
1CB
330
22
100
AcDbEntity
  8
0
  6
Continuous
 62
     7
100
AcDbLine
 10
-293.5088195800781
 20
296.5891723632813
 30
0.0
 11
-292.4180297851563
 21
295.5154113769531
 31
0.0
  0
LINE
  5
1CC
330
22
100
AcDbEntity
  8
0
  6
Continuous
 62
     7
100
AcDbLine
 10
-293.5088195800781
 20
296.5891723632813
 30
0.0
 11
-295.9337768554688
 21
298.9762573242188
 31
0.0
  0
LINE
  5
1CD
330
22
100
AcDbEntity
  8
0
  6
PHANTOM
 62
     7
100
AcDbLine
 10
-295.9337768554688
 20
358.9679260253906
 30
0.0
 11
-291.9337768554688
 21
358.9679260253906
 31
0.0
  0
LINE
  5
1CE
330
22
100
AcDbEntity
  8
0
  6
Continuous
 62
     7
100
AcDbLine
 10
-293.4337768554688
 20
350.8036804199219
 30
0.0
 11
-292.3429870605469
 21
349.7299499511719
 31
0.0
  0
LINE
  5
1CF
330
22
100
AcDbEntity
  8
0
  6
Continuous
 62
     7
100
AcDbLine
 10
-296.3278503417969
 20
342.8036804199219
 30
0.0
 11
-295.9337768554688
 21
342.8036804199219
 31
0.0
  0
LINE
  5
1D0
330
22
100
AcDbEntity
  8
0
  6
Continuous
 62
     7
100
AcDbLine
 10
-296.3278503417969
 20
353.3036804199219
 30
0.0
 11
-295.9337768554688
 21
353.3036804199219
 31
0.0
  0
LINE
  5
1D1
330
22
100
AcDbEntity
  8
0
  6
Continuous
 62
     7
100
AcDbLine
 10
-295.9337768554688
 20
353.3036804199219
 30
0.0
 11
-293.4337768554688
 21
350.8036804199219
 31
0.0
  0
LINE
  5
1D2
330
22
100
AcDbEntity
  8
0
  6
Continuous
 62
     7
100
AcDbLine
 10
-295.9337768554688
 20
342.8036804199219
 30
0.0
 11
-293.4337768554688
 21
345.3036804199219
 31
0.0
  0
LINE
  5
1D3
330
22
100
AcDbEntity
  8
0
  6
Continuous
 62
     7
100
AcDbLine
 10
-295.4337768554688
 20
371.3679504394531
 30
0.0
 11
-292.9337768554688
 21
371.3679504394531
 31
0.0
  0
LINE
  5
1D4
330
22
100
AcDbEntity
  8
0
  6
Continuous
 62
     7
100
AcDbLine
 10
-292.4337768554688
 20
370.8679504394531
 30
0.0
 11
-292.9337768554688
 21
371.3679504394531
 31
0.0
  0
LINE
  5
1D5
330
22
100
AcDbEntity
  8
0
  6
Continuous
 62
     7
100
AcDbLine
 10
-292.4337768554688
 20
365.3679504394531
 30
0.0
 11
-292.4337768554688
 21
370.8679504394531
 31
0.0
  0
LINE
  5
1D6
330
22
100
AcDbEntity
  8
0
  6
Continuous
 62
     7
100
AcDbLine
 10
-289.9337768554688
 20
356.3679504394531
 30
0.0
 11
-289.9337768554688
 21
359.3679504394531
 31
0.0
  0
LINE
  5
1D7
330
22
100
AcDbEntity
  8
0
  6
PHANTOM
 62
     7
100
AcDbLine
 10
-295.3337707519531
 20
358.3679504394531
 30
0.0
 11
-292.5337829589844
 21
358.3679504394531
 31
0.0
  0
LINE
  5
1D8
330
22
100
AcDbEntity
  8
0
  6
Continuous
 62
     7
100
AcDbLine
 10
-295.9337768554688
 20
358.9679260253906
 30
0.0
 11
-295.3337707519531
 21
358.3679504394531
 31
0.0
  0
LINE
  5
1D9
330
22
100
AcDbEntity
  8
0
  6
Continuous
 62
     7
100
AcDbLine
 10
-292.3429870605469
 20
349.7299499511719
 30
0.0
 11
-285.85791015625
 21
349.7299499511719
 31
0.0
  0
LINE
  5
1DA
330
22
100
AcDbEntity
  8
0
  6
Continuous
 62
     7
100
AcDbLine
 10
-287.0237426757813
 20
296.5891723632813
 30
0.0
 11
-285.9329528808594
 21
295.5154113769531
 31
0.0
  0
LINE
  5
1DB
330
22
100
AcDbEntity
  8
0
  6
Continuous
 62
     7
100
AcDbLine
 10
-293.5088195800781
 20
296.5891723632813
 30
0.0
 11
-287.0237426757813
 21
296.5891723632813
 31
0.0
  0
LINE
  5
1DC
330
22
100
AcDbEntity
  8
0
  6
Continuous
 62
     7
100
AcDbLine
 10
-289.9337768554688
 20
355.3679504394531
 30
0.0
 11
-292.9337768554688
 21
355.3679504394531
 31
0.0
  0
LINE
  5
1DD
330
22
100
AcDbEntity
  8
0
  6
Continuous
 62
     7
100
AcDbLine
 10
-289.9337768554688
 20
356.3679504394531
 30
0.0
 11
-292.9337768554688
 21
356.3679504394531
 31
0.0
  0
LINE
  5
1DE
330
22
100
AcDbEntity
  8
0
  6
Continuous
 62
     7
100
AcDbLine
 10
-292.4180297851563
 20
295.5154113769531
 30
0.0
 11
-285.9329528808594
 21
295.5154113769531
 31
0.0
  0
LINE
  5
1DF
330
22
100
AcDbEntity
  8
0
  6
Continuous
 62
     7
100
AcDbLine
 10
-285.9329528808594
 20
295.5154113769531
 30
0.0
 11
-285.9329528808594
 21
293.3679504394531
 31
0.0
  0
LINE
  5
1E0
330
22
100
AcDbEntity
  8
0
  6
Continuous
 62
     7
100
AcDbLine
 10
-292.9337768554688
 20
355.142822265625
 30
0.0
 11
-292.7086486816406
 21
355.3679504394531
 31
0.0
  0
LINE
  5
1E1
330
22
100
AcDbEntity
  8
0
  6
Continuous
 62
     7
100
AcDbLine
 10
-292.9337768554688
 20
353.1629333496094
 30
0.0
 11
-290.728759765625
 21
355.3679504394531
 31
0.0
  0
LINE
  5
1E2
330
22
100
AcDbEntity
  8
0
  6
Continuous
 62
     7
100
AcDbLine
 10
-292.9337768554688
 20
351.1830139160156
 30
0.0
 11
-289.9337768554688
 21
354.1830139160156
 31
0.0
  0
LINE
  5
1E3
330
22
100
AcDbEntity
  8
0
  6
Continuous
 62
     7
100
AcDbLine
 10
-291.3332214355469
 20
350.8036804199219
 30
0.0
 11
-289.9337768554688
 21
352.203125
 31
0.0
  0
LINE
  5
1E4
330
22
100
AcDbEntity
  8
0
  6
Continuous
 62
     7
100
AcDbLine
 10
-292.9337768554688
 20
345.2433166503906
 30
0.0
 11
-292.8734130859375
 21
345.3036804199219
 31
0.0
  0
LINE
  5
1E5
330
22
100
AcDbEntity
  8
0
  6
Continuous
 62
     7
100
AcDbLine
 10
-292.9337768554688
 20
343.263427734375
 30
0.0
 11
-290.8935241699219
 21
345.3036804199219
 31
0.0
  0
LINE
  5
1E6
330
22
100
AcDbEntity
  8
0
  6
Continuous
 62
     7
100
AcDbLine
 10
-292.9337768554688
 20
341.2835388183594
 30
0.0
 11
-289.9337768554688
 21
344.2835388183594
 31
0.0
  0
LINE
  5
1E7
330
22
100
AcDbEntity
  8
0
  6
Continuous
 62
     7
100
AcDbLine
 10
-292.9337768554688
 20
339.3036193847656
 30
0.0
 11
-289.9337768554688
 21
342.3036193847656
 31
0.0
  0
LINE
  5
1E8
330
22
100
AcDbEntity
  8
0
  6
Continuous
 62
     7
100
AcDbLine
 10
-292.9337768554688
 20
337.32373046875
 30
0.0
 11
-289.9337768554688
 21
340.32373046875
 31
0.0
  0
LINE
  5
1E9
330
22
100
AcDbEntity
  8
0
  6
Continuous
 62
     7
100
AcDbLine
 10
-292.9337768554688
 20
335.3438415527344
 30
0.0
 11
-289.9337768554688
 21
338.3438415527344
 31
0.0
  0
LINE
  5
1EA
330
22
100
AcDbEntity
  8
0
  6
Continuous
 62
     7
100
AcDbLine
 10
-292.9337768554688
 20
333.3639221191406
 30
0.0
 11
-289.9337768554688
 21
336.3639221191406
 31
0.0
  0
LINE
  5
1EB
330
22
100
AcDbEntity
  8
0
  6
Continuous
 62
     7
100
AcDbLine
 10
-292.9337768554688
 20
331.384033203125
 30
0.0
 11
-289.9337768554688
 21
334.384033203125
 31
0.0
  0
LINE
  5
1EC
330
22
100
AcDbEntity
  8
0
  6
Continuous
 62
     7
100
AcDbLine
 10
-292.9337768554688
 20
329.4041442871094
 30
0.0
 11
-289.9337768554688
 21
332.4041442871094
 31
0.0
  0
LINE
  5
1ED
330
22
100
AcDbEntity
  8
0
  6
Continuous
 62
     7
100
AcDbLine
 10
-292.9337768554688
 20
327.4242553710938
 30
0.0
 11
-289.9337768554688
 21
330.4242553710938
 31
0.0
  0
LINE
  5
1EE
330
22
100
AcDbEntity
  8
0
  6
Continuous
 62
     7
100
AcDbLine
 10
-292.9337768554688
 20
325.4443359375
 30
0.0
 11
-289.9337768554688
 21
328.4443359375
 31
0.0
  0
LINE
  5
1EF
330
22
100
AcDbEntity
  8
0
  6
Continuous
 62
     7
100
AcDbLine
 10
-292.9337768554688
 20
323.4644470214844
 30
0.0
 11
-289.9337768554688
 21
326.4644470214844
 31
0.0
  0
LINE
  5
1F0
330
22
100
AcDbEntity
  8
0
  6
Continuous
 62
     7
100
AcDbLine
 10
-292.9337768554688
 20
321.4845581054688
 30
0.0
 11
-289.9337768554688
 21
324.4845581054688
 31
0.0
  0
LINE
  5
1F1
330
22
100
AcDbEntity
  8
0
  6
Continuous
 62
     7
100
AcDbLine
 10
-292.9337768554688
 20
319.504638671875
 30
0.0
 11
-289.9337768554688
 21
322.504638671875
 31
0.0
  0
LINE
  5
1F2
330
22
100
AcDbEntity
  8
0
  6
Continuous
 62
     7
100
AcDbLine
 10
-292.9337768554688
 20
317.5247497558594
 30
0.0
 11
-289.9337768554688
 21
320.5247497558594
 31
0.0
  0
LINE
  5
1F3
330
22
100
AcDbEntity
  8
0
  6
Continuous
 62
     7
100
AcDbLine
 10
-292.9337768554688
 20
315.5448608398438
 30
0.0
 11
-289.9337768554688
 21
318.5448608398438
 31
0.0
  0
LINE
  5
1F4
330
22
100
AcDbEntity
  8
0
  6
Continuous
 62
     7
100
AcDbLine
 10
-292.9337768554688
 20
313.56494140625
 30
0.0
 11
-289.9337768554688
 21
316.56494140625
 31
0.0
  0
LINE
  5
1F5
330
22
100
AcDbEntity
  8
0
  6
Continuous
 62
     7
100
AcDbLine
 10
-292.9337768554688
 20
311.5850524902344
 30
0.0
 11
-289.9337768554688
 21
314.5850524902344
 31
0.0
  0
LINE
  5
1F6
330
22
100
AcDbEntity
  8
0
  6
Continuous
 62
     7
100
AcDbLine
 10
-292.9337768554688
 20
309.6051635742188
 30
0.0
 11
-289.9337768554688
 21
312.6051635742188
 31
0.0
  0
LINE
  5
1F7
330
22
100
AcDbEntity
  8
0
  6
Continuous
 62
     7
100
AcDbLine
 10
-292.9337768554688
 20
307.625244140625
 30
0.0
 11
-289.9337768554688
 21
310.625244140625
 31
0.0
  0
LINE
  5
1F8
330
22
100
AcDbEntity
  8
0
  6
Continuous
 62
     7
100
AcDbLine
 10
-292.9337768554688
 20
305.6453552246094
 30
0.0
 11
-289.9337768554688
 21
308.6453552246094
 31
0.0
  0
LINE
  5
1F9
330
22
100
AcDbEntity
  8
0
  6
Continuous
 62
     7
100
AcDbLine
 10
-292.9337768554688
 20
303.6654663085938
 30
0.0
 11
-289.9337768554688
 21
306.6654663085938
 31
0.0
  0
LINE
  5
1FA
330
22
100
AcDbEntity
  8
0
  6
Continuous
 62
     7
100
AcDbLine
 10
-292.9337768554688
 20
301.685546875
 30
0.0
 11
-289.9337768554688
 21
304.685546875
 31
0.0
  0
LINE
  5
1FB
330
22
100
AcDbEntity
  8
0
  6
Continuous
 62
     7
100
AcDbLine
 10
-292.9337768554688
 20
299.7056579589844
 30
0.0
 11
-289.9337768554688
 21
302.7056579589844
 31
0.0
  0
LINE
  5
1FC
330
22
100
AcDbEntity
  8
0
  6
Continuous
 62
     7
100
AcDbLine
 10
-292.9337768554688
 20
297.7257690429688
 30
0.0
 11
-289.9337768554688
 21
300.7257690429688
 31
0.0
  0
LINE
  5
1FD
330
22
100
AcDbEntity
  8
0
  6
Continuous
 62
     7
100
AcDbLine
 10
-292.0904541015625
 20
296.5891723632813
 30
0.0
 11
-289.9337768554688
 21
298.745849609375
 31
0.0
  0
LINE
  5
1FE
330
22
100
AcDbEntity
  8
0
  6
Continuous
 62
     7
100
AcDbLine
 10
-290.1105651855469
 20
296.5891723632813
 30
0.0
 11
-289.9337768554688
 21
296.7659606933594
 31
0.0
  0
LINE
  5
1FF
330
22
100
AcDbEntity
  8
0
  6
Continuous
 62
     7
100
AcDbLine
 10
-292.5228576660156
 20
296.5891723632813
 30
0.0
 11
-292.9337768554688
 21
297.0000610351563
 31
0.0
  0
LINE
  5
200
330
22
100
AcDbEntity
  8
0
  6
Continuous
 62
     7
100
AcDbLine
 10
-290.54296875
 20
296.5891723632813
 30
0.0
 11
-292.9337768554688
 21
298.97998046875
 31
0.0
  0
LINE
  5
201
330
22
100
AcDbEntity
  8
0
  6
Continuous
 62
     7
100
AcDbLine
 10
-289.9337768554688
 20
297.9598693847656
 30
0.0
 11
-292.9337768554688
 21
300.9598693847656
 31
0.0
  0
LINE
  5
202
330
22
100
AcDbEntity
  8
0
  6
Continuous
 62
     7
100
AcDbLine
 10
-289.9337768554688
 20
299.9397583007813
 30
0.0
 11
-292.9337768554688
 21
302.9397583007813
 31
0.0
  0
LINE
  5
203
330
22
100
AcDbEntity
  8
0
  6
Continuous
 62
     7
100
AcDbLine
 10
-289.9337768554688
 20
301.919677734375
 30
0.0
 11
-292.9337768554688
 21
304.919677734375
 31
0.0
  0
LINE
  5
204
330
22
100
AcDbEntity
  8
0
  6
Continuous
 62
     7
100
AcDbLine
 10
-289.9337768554688
 20
303.8995666503906
 30
0.0
 11
-292.9337768554688
 21
306.8995666503906
 31
0.0
  0
LINE
  5
205
330
22
100
AcDbEntity
  8
0
  6
Continuous
 62
     7
100
AcDbLine
 10
-289.9337768554688
 20
305.8794555664063
 30
0.0
 11
-292.9337768554688
 21
308.8794555664063
 31
0.0
  0
LINE
  5
206
330
22
100
AcDbEntity
  8
0
  6
Continuous
 62
     7
100
AcDbLine
 10
-289.9337768554688
 20
307.859375
 30
0.0
 11
-292.9337768554688
 21
310.859375
 31
0.0
  0
LINE
  5
207
330
22
100
AcDbEntity
  8
0
  6
Continuous
 62
     7
100
AcDbLine
 10
-289.9337768554688
 20
309.8392639160156
 30
0.0
 11
-292.9337768554688
 21
312.8392639160156
 31
0.0
  0
LINE
  5
208
330
22
100
AcDbEntity
  8
0
  6
Continuous
 62
     7
100
AcDbLine
 10
-289.9337768554688
 20
311.8191528320313
 30
0.0
 11
-292.9337768554688
 21
314.8191528320313
 31
0.0
  0
LINE
  5
209
330
22
100
AcDbEntity
  8
0
  6
Continuous
 62
     7
100
AcDbLine
 10
-289.9337768554688
 20
313.799072265625
 30
0.0
 11
-292.9337768554688
 21
316.799072265625
 31
0.0
  0
LINE
  5
20A
330
22
100
AcDbEntity
  8
0
  6
Continuous
 62
     7
100
AcDbLine
 10
-289.9337768554688
 20
315.7789611816406
 30
0.0
 11
-292.9337768554688
 21
318.7789611816406
 31
0.0
  0
LINE
  5
20B
330
22
100
AcDbEntity
  8
0
  6
Continuous
 62
     7
100
AcDbLine
 10
-289.9337768554688
 20
317.7588500976563
 30
0.0
 11
-292.9337768554688
 21
320.7588500976563
 31
0.0
  0
LINE
  5
20C
330
22
100
AcDbEntity
  8
0
  6
Continuous
 62
     7
100
AcDbLine
 10
-289.9337768554688
 20
319.73876953125
 30
0.0
 11
-292.9337768554688
 21
322.73876953125
 31
0.0
  0
LINE
  5
20D
330
22
100
AcDbEntity
  8
0
  6
Continuous
 62
     7
100
AcDbLine
 10
-289.9337768554688
 20
321.7186584472656
 30
0.0
 11
-292.9337768554688
 21
324.7186584472656
 31
0.0
  0
LINE
  5
20E
330
22
100
AcDbEntity
  8
0
  6
Continuous
 62
     7
100
AcDbLine
 10
-289.9337768554688
 20
323.6985473632813
 30
0.0
 11
-292.9337768554688
 21
326.6985473632813
 31
0.0
  0
LINE
  5
20F
330
22
100
AcDbEntity
  8
0
  6
Continuous
 62
     7
100
AcDbLine
 10
-289.9337768554688
 20
325.678466796875
 30
0.0
 11
-292.9337768554688
 21
328.678466796875
 31
0.0
  0
LINE
  5
210
330
22
100
AcDbEntity
  8
0
  6
Continuous
 62
     7
100
AcDbLine
 10
-289.9337768554688
 20
327.6583557128906
 30
0.0
 11
-292.9337768554688
 21
330.6583557128906
 31
0.0
  0
LINE
  5
211
330
22
100
AcDbEntity
  8
0
  6
Continuous
 62
     7
100
AcDbLine
 10
-289.9337768554688
 20
329.6382446289063
 30
0.0
 11
-292.9337768554688
 21
332.6382446289063
 31
0.0
  0
LINE
  5
212
330
22
100
AcDbEntity
  8
0
  6
Continuous
 62
     7
100
AcDbLine
 10
-289.9337768554688
 20
331.6181640625
 30
0.0
 11
-292.9337768554688
 21
334.6181640625
 31
0.0
  0
LINE
  5
213
330
22
100
AcDbEntity
  8
0
  6
Continuous
 62
     7
100
AcDbLine
 10
-289.9337768554688
 20
333.5980529785156
 30
0.0
 11
-292.9337768554688
 21
336.5980529785156
 31
0.0
  0
LINE
  5
214
330
22
100
AcDbEntity
  8
0
  6
Continuous
 62
     7
100
AcDbLine
 10
-289.9337768554688
 20
335.5779418945313
 30
0.0
 11
-292.9337768554688
 21
338.5779418945313
 31
0.0
  0
LINE
  5
215
330
22
100
AcDbEntity
  8
0
  6
Continuous
 62
     7
100
AcDbLine
 10
-289.9337768554688
 20
337.557861328125
 30
0.0
 11
-292.9337768554688
 21
340.557861328125
 31
0.0
  0
LINE
  5
216
330
22
100
AcDbEntity
  8
0
  6
Continuous
 62
     7
100
AcDbLine
 10
-289.9337768554688
 20
339.5377502441406
 30
0.0
 11
-292.9337768554688
 21
342.5377502441406
 31
0.0
  0
LINE
  5
217
330
22
100
AcDbEntity
  8
0
  6
Continuous
 62
     7
100
AcDbLine
 10
-289.9337768554688
 20
341.5176391601563
 30
0.0
 11
-292.9337768554688
 21
344.5176391601563
 31
0.0
  0
LINE
  5
218
330
22
100
AcDbEntity
  8
0
  6
Continuous
 62
     7
100
AcDbLine
 10
-289.9337768554688
 20
343.49755859375
 30
0.0
 11
-291.7398986816406
 21
345.3036804199219
 31
0.0
  0
LINE
  5
219
330
22
100
AcDbEntity
  8
0
  6
Continuous
 62
     7
100
AcDbLine
 10
-291.3002014160156
 20
350.8036804199219
 30
0.0
 11
-292.9337768554688
 21
352.437255859375
 31
0.0
  0
LINE
  5
21A
330
22
100
AcDbEntity
  8
0
  6
Continuous
 62
     7
100
AcDbLine
 10
-289.9337768554688
 20
351.4171447753906
 30
0.0
 11
-292.9337768554688
 21
354.4171447753906
 31
0.0
  0
LINE
  5
21B
330
22
100
AcDbEntity
  8
0
  6
Continuous
 62
     7
100
AcDbLine
 10
-289.9337768554688
 20
353.3970336914063
 30
0.0
 11
-291.9046630859375
 21
355.3679504394531
 31
0.0
  0
LINE
  5
21C
330
22
100
AcDbEntity
  8
0
  6
Continuous
 62
     7
100
AcDbLine
 10
-295.9337768554688
 20
293.3679504394531
 30
0.0
 11
-295.9337768554688
 21
342.8036804199219
 31
0.0
  0
LINE
  5
21D
330
22
100
AcDbEntity
  8
0
  6
Continuous
 62
     7
100
AcDbLine
 10
-292.9337768554688
 20
345.3036804199219
 30
0.0
 11
-292.9337768554688
 21
296.5891723632813
 31
0.0
  0
LINE
  5
21E
330
22
100
AcDbEntity
  8
0
  6
Continuous
 62
     7
100
AcDbLine
 10
-289.9337768554688
 20
345.3036804199219
 30
0.0
 11
-289.9337768554688
 21
296.5891723632813
 31
0.0
  0
LINE
  5
21F
330
22
100
AcDbEntity
  8
0
  6
Continuous
 62
     7
100
AcDbLine
 10
-295.9337768554688
 20
355.823486328125
 30
0.0
 11
-293.3893127441406
 21
358.3679504394531
 31
0.0
  0
LINE
  5
220
330
22
100
AcDbEntity
  8
0
  6
Continuous
 62
     7
100
AcDbLine
 10
-292.5608825683594
 20
356.3679504394531
 30
0.0
 11
-290.5608825683594
 21
358.3679504394531
 31
0.0
  0
LINE
  5
221
330
22
100
AcDbEntity
  8
0
  6
Continuous
 62
     7
100
AcDbLine
 10
-295.7794494628906
 20
353.1493835449219
 30
0.0
 11
-292.9337768554688
 21
355.9950561523438
 31
0.0
  0
LINE
  5
222
330
22
100
AcDbEntity
  8
0
  6
Continuous
 62
     7
100
AcDbLine
 10
-294.365234375
 20
351.7351684570313
 30
0.0
 11
-292.9337768554688
 21
353.1666259765625
 31
0.0
  0
LINE
  5
223
330
22
100
AcDbEntity
  8
0
  6
Continuous
 62
     7
100
AcDbLine
 10
-295.9337768554688
 20
341.6813354492188
 30
0.0
 11
-292.9337768554688
 21
344.6813354492188
 31
0.0
  0
LINE
  5
224
330
22
100
AcDbEntity
  8
0
  6
Continuous
 62
     7
100
AcDbLine
 10
-295.9337768554688
 20
338.8529052734375
 30
0.0
 11
-292.9337768554688
 21
341.8529052734375
 31
0.0
  0
LINE
  5
225
330
22
100
AcDbEntity
  8
0
  6
Continuous
 62
     7
100
AcDbLine
 10
-295.9337768554688
 20
336.0245056152344
 30
0.0
 11
-292.9337768554688
 21
339.0245056152344
 31
0.0
  0
LINE
  5
226
330
22
100
AcDbEntity
  8
0
  6
Continuous
 62
     7
100
AcDbLine
 10
-295.9337768554688
 20
333.1960754394531
 30
0.0
 11
-292.9337768554688
 21
336.1960754394531
 31
0.0
  0
LINE
  5
227
330
22
100
AcDbEntity
  8
0
  6
Continuous
 62
     7
100
AcDbLine
 10
-295.9337768554688
 20
330.3676452636719
 30
0.0
 11
-292.9337768554688
 21
333.3676452636719
 31
0.0
  0
LINE
  5
228
330
22
100
AcDbEntity
  8
0
  6
Continuous
 62
     7
100
AcDbLine
 10
-295.9337768554688
 20
327.5392150878906
 30
0.0
 11
-292.9337768554688
 21
330.5392150878906
 31
0.0
  0
LINE
  5
229
330
22
100
AcDbEntity
  8
0
  6
Continuous
 62
     7
100
AcDbLine
 10
-295.9337768554688
 20
324.7107849121094
 30
0.0
 11
-292.9337768554688
 21
327.7107849121094
 31
0.0
  0
LINE
  5
22A
330
22
100
AcDbEntity
  8
0
  6
Continuous
 62
     7
100
AcDbLine
 10
-295.9337768554688
 20
321.8823547363281
 30
0.0
 11
-292.9337768554688
 21
324.8823547363281
 31
0.0
  0
LINE
  5
22B
330
22
100
AcDbEntity
  8
0
  6
Continuous
 62
     7
100
AcDbLine
 10
-295.9337768554688
 20
319.0539245605469
 30
0.0
 11
-292.9337768554688
 21
322.0539245605469
 31
0.0
  0
LINE
  5
22C
330
22
100
AcDbEntity
  8
0
  6
Continuous
 62
     7
100
AcDbLine
 10
-295.9337768554688
 20
316.2254943847656
 30
0.0
 11
-292.9337768554688
 21
319.2254943847656
 31
0.0
  0
LINE
  5
22D
330
22
100
AcDbEntity
  8
0
  6
Continuous
 62
     7
100
AcDbLine
 10
-295.9337768554688
 20
313.3970642089844
 30
0.0
 11
-292.9337768554688
 21
316.3970642089844
 31
0.0
  0
LINE
  5
22E
330
22
100
AcDbEntity
  8
0
  6
Continuous
 62
     7
100
AcDbLine
 10
-295.9337768554688
 20
310.5686340332031
 30
0.0
 11
-292.9337768554688
 21
313.5686340332031
 31
0.0
  0
LINE
  5
22F
330
22
100
AcDbEntity
  8
0
  6
Continuous
 62
     7
100
AcDbLine
 10
-295.9337768554688
 20
307.740234375
 30
0.0
 11
-292.9337768554688
 21
310.740234375
 31
0.0
  0
LINE
  5
230
330
22
100
AcDbEntity
  8
0
  6
Continuous
 62
     7
100
AcDbLine
 10
-295.9337768554688
 20
304.9118041992188
 30
0.0
 11
-292.9337768554688
 21
307.9118041992188
 31
0.0
  0
LINE
  5
231
330
22
100
AcDbEntity
  8
0
  6
Continuous
 62
     7
100
AcDbLine
 10
-295.9337768554688
 20
302.0833740234375
 30
0.0
 11
-292.9337768554688
 21
305.0833740234375
 31
0.0
  0
LINE
  5
232
330
22
100
AcDbEntity
  8
0
  6
Continuous
 62
     7
100
AcDbLine
 10
-295.9337768554688
 20
299.2549438476563
 30
0.0
 11
-292.9337768554688
 21
302.2549438476563
 31
0.0
  0
LINE
  5
233
330
22
100
AcDbEntity
  8
0
  6
Continuous
 62
     7
100
AcDbLine
 10
-294.6488647460938
 20
297.71142578125
 30
0.0
 11
-292.9337768554688
 21
299.426513671875
 31
0.0
  0
LINE
  5
234
330
22
100
AcDbEntity
  8
0
  6
Continuous
 62
     7
100
AcDbLine
 10
-292.9426879882813
 20
296.5891723632813
 30
0.0
 11
-292.9337768554688
 21
296.5980834960938
 31
0.0
  0
LINE
  5
235
330
22
100
AcDbEntity
  8
0
  6
Continuous
 62
     7
100
AcDbLine
 10
-295.9337768554688
 20
358.3679504394531
 30
0.0
 11
-289.9337768554688
 21
358.3679504394531
 31
0.0
  0
LINE
  5
236
330
22
100
AcDbEntity
  8
0
  6
Continuous
 62
     7
100
AcDbLine
 10
-291.9337768554688
 20
358.9679260253906
 30
0.0
 11
-292.5337829589844
 21
358.3679504394531
 31
0.0
  0
LINE
  5
237
330
22
100
AcDbEntity
  8
0
  6
Continuous
 62
     7
100
AcDbLine
 10
-291.9337768554688
 20
359.3679504394531
 30
0.0
 11
-291.9337768554688
 21
358.9679260253906
 31
0.0
  0
LINE
  5
238
330
22
100
AcDbEntity
  8
0
  6
Continuous
 62
     7
100
AcDbLine
 10
-289.9337768554688
 20
356.3679504394531
 30
0.0
 11
-286.6314086914063
 21
356.3679504394531
 31
0.0
  0
LINE
  5
239
330
22
100
AcDbEntity
  8
0
  6
Continuous
 62
     7
100
AcDbLine
 10
-284.844970703125
 20
363.3679504394531
 30
0.0
 11
-290.4337768554688
 21
363.3679504394531
 31
0.0
  0
LINE
  5
23A
330
22
100
AcDbEntity
  8
0
  6
Continuous
 62
     7
100
AcDbLine
 10
-286.9486999511719
 20
345.3036804199219
 30
0.0
 11
-285.85791015625
 21
346.37744140625
 31
0.0
  0
LINE
  5
23B
330
22
100
AcDbEntity
  8
0
  6
Continuous
 62
     7
100
AcDbLine
 10
-292.3429870605469
 20
346.37744140625
 30
0.0
 11
-285.85791015625
 21
346.37744140625
 31
0.0
  0
LINE
  5
23C
330
22
100
AcDbEntity
  8
0
  6
Continuous
 62
     7
100
AcDbLine
 10
-285.85791015625
 20
349.7299499511719
 30
0.0
 11
-285.85791015625
 21
346.37744140625
 31
0.0
  0
LINE
  5
23D
330
22
100
AcDbEntity
  8
0
  6
Continuous
 62
     7
100
AcDbLine
 10
-286.9486999511719
 20
350.8036804199219
 30
0.0
 11
-285.85791015625
 21
349.7299499511719
 31
0.0
  0
LINE
  5
23E
330
22
100
AcDbEntity
  8
0
  6
Continuous
 62
     7
100
AcDbLine
 10
-293.4337768554688
 20
345.3036804199219
 30
0.0
 11
-286.9486999511719
 21
345.3036804199219
 31
0.0
  0
LINE
  5
23F
330
22
100
AcDbEntity
  8
0
  6
Continuous
 62
     7
100
AcDbLine
 10
-293.4337768554688
 20
350.8036804199219
 30
0.0
 11
-286.9486999511719
 21
350.8036804199219
 31
0.0
  0
LINE
  5
240
330
22
100
AcDbEntity
  8
0
  6
Continuous
 62
     7
100
AcDbLine
 10
-289.9337768554688
 20
359.3679504394531
 30
0.0
 11
-291.9337768554688
 21
359.3679504394531
 31
0.0
  0
LINE
  5
241
330
22
100
AcDbEntity
  8
0
  6
Continuous
 62
     7
100
AcDbLine
 10
-295.9337768554688
 20
370.8679504394531
 30
0.0
 11
-295.4337768554688
 21
371.3679504394531
 31
0.0
  0
LINE
  5
242
330
22
100
AcDbEntity
  8
0
  6
Continuous
 62
     7
100
AcDbLine
 10
-291.9337768554688
 20
358.9679260253906
 30
0.0
 11
-290.5337829589844
 21
358.9679260253906
 31
0.0
  0
LINE
  5
243
330
22
100
AcDbEntity
  8
0
  6
Continuous
 62
     7
100
AcDbLine
 10
-295.4337768554688
 20
215.3679351806641
 30
0.0
 11
-295.9337768554688
 21
215.8679351806641
 31
0.0
  0
LINE
  5
244
330
22
100
AcDbEntity
  8
0
  6
Continuous
 62
     7
100
AcDbLine
 10
-295.4337768554688
 20
215.3679351806641
 30
0.0
 11
-292.9337768554688
 21
215.3679351806641
 31
0.0
  0
LINE
  5
245
330
22
100
AcDbEntity
  8
0
  6
Continuous
 62
     7
100
AcDbLine
 10
-292.4337768554688
 20
221.3679351806641
 30
0.0
 11
-292.4337768554688
 21
215.8679351806641
 31
0.0
  0
LINE
  5
246
330
22
100
AcDbEntity
  8
0
  6
Continuous
 62
     7
100
AcDbLine
 10
-284.844970703125
 20
223.3679351806641
 30
0.0
 11
-290.4337768554688
 21
223.3679351806641
 31
0.0
  0
LINE
  5
247
330
22
100
AcDbEntity
  8
0
  6
Continuous
 62
     7
100
AcDbLine
 10
-292.9337768554688
 20
356.3679504394531
 30
0.0
 11
-292.9337768554688
 21
350.8036804199219
 31
0.0
  0
LINE
  5
248
330
22
100
AcDbEntity
  8
0
  6
Continuous
 62
     7
100
AcDbLine
 10
-289.9337768554688
 20
356.3679504394531
 30
0.0
 11
-289.9337768554688
 21
350.8036804199219
 31
0.0
  0
LINE
  5
249
330
22
100
AcDbEntity
  8
0
  6
Continuous
 62
     7
100
AcDbLine
 10
-295.9337768554688
 20
353.3036804199219
 30
0.0
 11
-295.9337768554688
 21
370.8679504394531
 31
0.0
  0
LINE
  5
24A
330
22
100
AcDbEntity
  8
0
  6
Continuous
 62
     7
100
AcDbLine
 10
-293.4337768554688
 20
345.3036804199219
 30
0.0
 11
-292.3429870605469
 21
346.37744140625
 31
0.0
  0
LINE
  5
24B
330
22
100
AcDbEntity
  8
0
  6
Continuous
 62
     7
100
AcDbLine
 10
-289.9337768554688
 20
358.3679504394531
 30
0.0
 11
-290.5337829589844
 21
358.9679260253906
 31
0.0
  0
LINE
  5
24C
330
22
100
AcDbEntity
  8
0
  6
Continuous
 62
     7
100
AcDbLine
 10
-295.9337768554688
 20
358.3679504394531
 30
0.0
 11
-295.3337707519531
 21
358.9679260253906
 31
0.0
  0
LINE
  5
24D
330
22
100
AcDbEntity
  8
0
  6
Continuous
 62
     7
100
AcDbLine
 10
-145.4337768554688
 20
250.8679351806641
 30
0.0
 11
-145.4337768554688
 21
293.3679504394531
 31
0.0
  0
LINE
  5
24E
330
22
100
AcDbEntity
  8
0
  6
Continuous
 62
     7
100
AcDbLine
 10
-148.9337768554688
 20
247.3679351806641
 30
0.0
 11
-148.9337768554688
 21
293.3679504394531
 31
0.0
  0
LINE
  5
24F
330
22
100
AcDbEntity
  8
0
  6
Continuous
 62
     7
100
AcDbLine
 10
-180.9337768554688
 20
253.3679351806641
 30
0.0
 11
-180.9337768554688
 21
293.3679504394531
 31
0.0
  0
LINE
  5
250
330
22
100
AcDbEntity
  8
0
  6
Continuous
 62
     7
100
AcDbLine
 10
-208.8164367675781
 20
257.2529296875
 30
0.0
 11
-208.8164367675781
 21
293.3679504394531
 31
0.0
  0
LINE
  5
251
330
22
100
AcDbEntity
  8
0
  6
Continuous
 62
     7
100
AcDbLine
 10
-234.2337646484375
 20
256.9641723632813
 30
0.0
 11
-234.2337646484375
 21
293.3679504394531
 31
0.0
  0
LINE
  5
252
330
22
100
AcDbEntity
  8
0
  6
Continuous
 62
     7
100
AcDbLine
 10
-242.9337768554688
 20
252.8679351806641
 30
0.0
 11
-242.9337768554688
 21
293.3679504394531
 31
0.0
  0
LINE
  5
253
330
22
100
AcDbEntity
  8
0
  6
Continuous
 62
     7
100
AcDbLine
 10
-112.9337692260742
 20
252.8679351806641
 30
0.0
 11
-112.9337692260742
 21
333.8679504394531
 31
0.0
  0
LINE
  5
254
330
22
100
AcDbEntity
  8
0
  6
Continuous
 62
     7
100
AcDbLine
 10
-270.2472839355469
 20
252.0615081787109
 30
0.0
 11
-270.2472839355469
 21
293.3679504394531
 31
0.0
  0
LINE
  5
255
330
22
100
AcDbEntity
  8
0
  6
Continuous
 62
     7
100
AcDbLine
 10
-266.997283935547
 20
265.7734375
 30
0.0
 11
-266.997283935547
 21
293.3679504394531
 31
0.0
  0
LINE
  5
256
330
22
100
AcDbEntity
  8
0
  6
Continuous
 62
     7
100
AcDbLine
 10
-242.9337768554688
 20
265.7734375
 30
0.0
 11
-268.3977355957031
 21
265.7734375
 31
0.0
  0
LINE
  5
257
330
22
100
AcDbEntity
  8
0
  6
Continuous
 62
     7
100
AcDbLine
 10
-292.4337768554688
 20
215.8679351806641
 30
0.0
 11
-292.9337768554688
 21
215.3679351806641
 31
0.0
  0
LINE
  5
258
330
22
100
AcDbEntity
  8
0
  6
Continuous
 62
     7
100
AcDbLine
 10
-282.1260681152344
 20
361.6358032226563
 30
0.0
 11
-270.720947265625
 21
337.1774597167969
 31
0.0
  0
LINE
  5
259
330
22
100
AcDbEntity
  8
0
  6
Continuous
 62
     7
100
AcDbLine
 10
-283.0061645507813
 20
354.0584106445313
 30
0.0
 11
-270.8294372558594
 21
327.9453125
 31
0.0
  0
LINE
  5
25A
330
22
100
AcDbEntity
  8
0
  6
Continuous
 62
     7
100
AcDbLine
 10
-282.1260681152344
 20
225.1000823974609
 30
0.0
 11
-270.720947265625
 21
249.5584106445313
 31
0.0
  0
LINE
  5
25B
330
22
100
AcDbEntity
  8
0
  6
Continuous
 62
     7
100
AcDbLine
 10
-246.0002136230469
 20
334.8679504394531
 30
0.0
 11
-242.9337768554688
 21
331.801513671875
 31
0.0
  0
LINE
  5
25C
330
22
100
AcDbEntity
  8
0
  6
Continuous
 62
     7
100
AcDbLine
 10
-246.7073211669922
 20
334.8679504394531
 30
0.0
 11
-242.9337768554688
 21
331.0943908691406
 31
0.0
  0
LINE
  5
25D
330
22
100
AcDbEntity
  8
0
  6
Continuous
 62
     7
100
AcDbLine
 10
-248.8286437988281
 20
334.8679504394531
 30
0.0
 11
-244.8681793212891
 21
330.907470703125
 31
0.0
  0
LINE
  5
25E
330
22
100
AcDbEntity
  8
0
  6
Continuous
 62
     7
100
AcDbLine
 10
-249.5357360839844
 20
334.8679504394531
 30
0.0
 11
-245.5538635253906
 21
330.8860473632813
 31
0.0
  0
LINE
  5
25F
330
22
100
AcDbEntity
  8
0
  6
Continuous
 62
     7
100
AcDbLine
 10
-251.6570587158203
 20
334.8679504394531
 30
0.0
 11
-247.6109008789063
 21
330.82177734375
 31
0.0
  0
LINE
  5
260
330
22
100
AcDbEntity
  8
0
  6
Continuous
 62
     7
100
AcDbLine
 10
-252.3641662597656
 20
334.8679504394531
 30
0.0
 11
-248.2965698242189
 21
330.8003540039063
 31
0.0
  0
LINE
  5
261
330
22
100
AcDbEntity
  8
0
  6
Continuous
 62
     7
100
AcDbLine
 10
-254.4854888916016
 20
334.8679504394531
 30
0.0
 11
-250.3536071777344
 21
330.7360534667969
 31
0.0
  0
LINE
  5
262
330
22
100
AcDbEntity
  8
0
  6
Continuous
 62
     7
100
AcDbLine
 10
-255.1925964355469
 20
334.8679504394531
 30
0.0
 11
-251.0392913818359
 21
330.7146301269531
 31
0.0
  0
LINE
  5
263
330
22
100
AcDbEntity
  8
0
  6
Continuous
 62
     7
100
AcDbLine
 10
-283.1620483398438
 20
362.83740234375
 30
0.0
 11
-282.3672485351563
 21
362.0426025390625
 31
0.0
  0
LINE
  5
264
330
22
100
AcDbEntity
  8
0
  6
Continuous
 62
     7
100
AcDbLine
 10
-257.3139038085938
 20
334.8679504394531
 30
0.0
 11
-253.0963287353516
 21
330.6503295898438
 31
0.0
  0
LINE
  5
265
330
22
100
AcDbEntity
  8
0
  6
Continuous
 62
     7
100
AcDbLine
 10
-285.8139038085938
 20
363.3679504394531
 30
0.0
 11
-280.4172668457031
 21
357.9712829589844
 31
0.0
  0
LINE
  5
266
330
22
100
AcDbEntity
  8
0
  6
Continuous
 62
     7
100
AcDbLine
 10
-293.8139038085938
 20
371.3679504394531
 30
0.0
 11
-292.4337768554688
 21
369.98779296875
 31
0.0
  0
LINE
  5
267
330
22
100
AcDbEntity
  8
0
  6
Continuous
 62
     7
100
AcDbLine
 10
-258.0210266113281
 20
334.8679504394531
 30
0.0
 11
-253.7819976806641
 21
330.62890625
 31
0.0
  0
LINE
  5
268
330
22
100
AcDbEntity
  8
0
  6
Continuous
 62
     7
100
AcDbLine
 10
-286.5210266113281
 20
363.3679504394531
 30
0.0
 11
-279.7994384765625
 21
356.6463623046875
 31
0.0
  0
LINE
  5
269
330
22
100
AcDbEntity
  8
0
  6
Continuous
 62
     7
100
AcDbLine
 10
-294.5210266113281
 20
371.3679504394531
 30
0.0
 11
-292.4337768554688
 21
369.2806701660156
 31
0.0
  0
LINE
  5
26A
330
22
100
AcDbEntity
  8
0
  6
Continuous
 62
     7
100
AcDbLine
 10
-260.142333984375
 20
334.8679504394531
 30
0.0
 11
-255.8390350341797
 21
330.5646362304688
 31
0.0
  0
LINE
  5
26B
330
22
100
AcDbEntity
  8
0
  6
Continuous
 62
     7
100
AcDbLine
 10
-288.642333984375
 20
363.3679504394531
 30
0.0
 11
-277.9459838867188
 21
352.6715698242188
 31
0.0
  0
LINE
  5
26C
330
22
100
AcDbEntity
  8
0
  6
Continuous
 62
     7
100
AcDbLine
 10
-295.9337768554688
 20
370.6593627929688
 30
0.0
 11
-292.4337768554688
 21
367.1593627929688
 31
0.0
  0
LINE
  5
26D
330
22
100
AcDbEntity
  8
0
  6
Continuous
 62
     7
100
AcDbLine
 10
-260.8494567871094
 20
334.8679504394531
 30
0.0
 11
-256.5247192382813
 21
330.543212890625
 31
0.0
  0
LINE
  5
26E
330
22
100
AcDbEntity
  8
0
  6
Continuous
 62
     7
100
AcDbLine
 10
-289.3494567871094
 20
363.3679504394531
 30
0.0
 11
-277.3281555175781
 21
351.3466186523438
 31
0.0
  0
LINE
  5
26F
330
22
100
AcDbEntity
  8
0
  6
Continuous
 62
     7
100
AcDbLine
 10
-295.9337768554688
 20
369.9522705078125
 30
0.0
 11
-292.4337768554688
 21
366.4522705078125
 31
0.0
  0
LINE
  5
270
330
22
100
AcDbEntity
  8
0
  6
Continuous
 62
     7
100
AcDbLine
 10
-262.9707641601563
 20
334.8679504394531
 30
0.0
 11
-258.5817565917969
 21
330.4789123535156
 31
0.0
  0
LINE
  5
271
330
22
100
AcDbEntity
  8
0
  6
Continuous
 62
     7
100
AcDbLine
 10
-295.9337768554688
 20
367.8309326171875
 30
0.0
 11
-275.4746704101563
 21
347.371826171875
 31
0.0
  0
LINE
  5
272
330
22
100
AcDbEntity
  8
0
  6
Continuous
 62
     7
100
AcDbLine
 10
-263.6778869628906
 20
334.8679504394531
 30
0.0
 11
-259.2674255371094
 21
330.4574890136719
 31
0.0
  0
LINE
  5
273
330
22
100
AcDbEntity
  8
0
  6
Continuous
 62
     7
100
AcDbLine
 10
-283.181884765625
 20
354.3719482421875
 30
0.0
 11
-274.8568420410156
 21
346.0469055175781
 31
0.0
  0
LINE
  5
274
330
22
100
AcDbEntity
  8
0
  6
Continuous
 62
     7
100
AcDbLine
 10
-295.9337768554688
 20
367.1238403320313
 30
0.0
 11
-284.6109619140625
 21
355.801025390625
 31
0.0
  0
LINE
  5
275
330
22
100
AcDbEntity
  8
0
  6
Continuous
 62
     7
100
AcDbLine
 10
-265.7991943359375
 20
334.8679504394531
 30
0.0
 11
-261.324462890625
 21
330.3931884765625
 31
0.0
  0
LINE
  5
276
330
22
100
AcDbEntity
  8
0
  6
Continuous
 62
     7
100
AcDbLine
 10
-281.2731323242188
 20
350.3418579101563
 30
0.0
 11
-273.0033569335938
 21
342.0720825195313
 31
0.0
  0
LINE
  5
277
330
22
100
AcDbEntity
  8
0
  6
Continuous
 62
     7
100
AcDbLine
 10
-289.9337768554688
 20
359.0025024414063
 30
0.0
 11
-287.2991943359375
 21
356.3679504394531
 31
0.0
  0
LINE
  5
278
330
22
100
AcDbEntity
  8
0
  6
Continuous
 62
     7
100
AcDbLine
 10
-295.9337768554688
 20
365.0025024414063
 30
0.0
 11
-290.2991943359375
 21
359.3679504394531
 31
0.0
  0
LINE
  5
279
330
22
100
AcDbEntity
  8
0
  6
Continuous
 62
     7
100
AcDbLine
 10
-266.5063171386719
 20
334.8679504394531
 30
0.0
 11
-262.0101318359375
 21
330.3717651367188
 31
0.0
  0
LINE
  5
27A
330
22
100
AcDbEntity
  8
0
  6
Continuous
 62
     7
100
AcDbLine
 10
-280.6553039550781
 20
349.0169372558594
 30
0.0
 11
-272.3855285644531
 21
340.7471618652344
 31
0.0
  0
LINE
  5
27B
330
22
100
AcDbEntity
  8
0
  6
Continuous
 62
     7
100
AcDbLine
 10
-289.9337768554688
 20
358.29541015625
 30
0.0
 11
-288.0063171386719
 21
356.3679504394531
 31
0.0
  0
LINE
  5
27C
330
22
100
AcDbEntity
  8
0
  6
Continuous
 62
     7
100
AcDbLine
 10
-295.9337768554688
 20
364.29541015625
 30
0.0
 11
-291.0063171386719
 21
359.3679504394531
 31
0.0
  0
LINE
  5
27D
330
22
100
AcDbEntity
  8
0
  6
Continuous
 62
     7
100
AcDbLine
 10
-269.2940979003906
 20
335.5343933105469
 30
0.0
 11
-264.0671691894531
 21
330.3074951171875
 31
0.0
  0
LINE
  5
27E
330
22
100
AcDbEntity
  8
0
  6
Continuous
 62
     7
100
AcDbLine
 10
-278.8018188476563
 20
345.0421142578125
 30
0.0
 11
-270.4521789550781
 21
336.6924743652344
 31
0.0
  0
LINE
  5
27F
330
22
100
AcDbEntity
  8
0
  6
Continuous
 62
     7
100
AcDbLine
 10
-295.9337768554688
 20
362.174072265625
 30
0.0
 11
-292.7276306152344
 21
358.9679260253906
 31
0.0
  0
LINE
  5
280
330
22
100
AcDbEntity
  8
0
  6
Continuous
 62
     7
100
AcDbLine
 10
-278.1839904785156
 20
343.7171936035156
 30
0.0
 11
-264.56591796875
 21
330.09912109375
 31
0.0
  0
LINE
  5
281
330
22
100
AcDbEntity
  8
0
  6
Continuous
 62
     7
100
AcDbLine
 10
-295.9337768554688
 20
361.4669799804688
 30
0.0
 11
-293.4347229003906
 21
358.9679260253906
 31
0.0
  0
LINE
  5
282
330
22
100
AcDbEntity
  8
0
  6
Continuous
 62
     7
100
AcDbLine
 10
-276.3305053710938
 20
339.7424011230469
 30
0.0
 11
-265.6265869140625
 21
329.0384521484375
 31
0.0
  0
LINE
  5
283
330
22
100
AcDbEntity
  8
0
  6
Continuous
 62
     7
100
AcDbLine
 10
-295.9337768554688
 20
359.3456420898438
 30
0.0
 11
-295.5560607910156
 21
358.9679260253906
 31
0.0
  0
LINE
  5
284
330
22
100
AcDbEntity
  8
0
  6
Continuous
 62
     7
100
AcDbLine
 10
-275.7126770019531
 20
338.4174499511719
 30
0.0
 11
-265.9337768554688
 21
328.6385498046875
 31
0.0
  0
LINE
  5
285
330
22
100
AcDbEntity
  8
0
  6
Continuous
 62
     7
100
AcDbLine
 10
-273.8591918945313
 20
334.4426574707031
 30
0.0
 11
-266.7844848632813
 21
327.3679504394531
 31
0.0
  0
LINE
  5
286
330
22
100
AcDbEntity
  8
0
  6
Continuous
 62
     7
100
AcDbLine
 10
-273.2413940429688
 20
333.1177368164063
 30
0.0
 11
-267.4915771484375
 21
327.3679504394531
 31
0.0
  0
LINE
  5
287
330
22
100
AcDbEntity
  8
0
  6
Continuous
 62
     7
100
AcDbLine
 10
-271.3879089355469
 20
329.1429138183594
 30
0.0
 11
-269.6129150390625
 21
327.3679504394531
 31
0.0
  0
LINE
  5
288
330
22
100
AcDbEntity
  8
0
  6
Continuous
 62
     7
100
AcDbLine
 10
-270.600311279297
 20
327.6482238769531
 30
0.0
 11
-270.5324096679688
 21
327.5803527832031
 31
0.0
  0
LINE
  5
289
330
22
100
AcDbEntity
  8
0
  6
Continuous
 62
     7
100
AcDbLine
 10
-292.4337768554688
 20
221.3679351806641
 30
0.0
 11
-292.4337768554688
 21
293.3679504394531
 31
0.0
  0
LINE
  5
28A
330
22
100
AcDbEntity
  8
0
  6
Continuous
 62
     7
100
AcDbLine
 10
-283.4972839355469
 20
227.0706481933594
 30
0.0
 11
-283.4972839355469
 21
293.3679504394531
 31
0.0
  0
LINE
  5
28B
330
22
100
AcDbEntity
  8
0
  6
Continuous
 62
     7
100
AcDbLine
 10
-295.9337768554688
 20
215.8679351806641
 30
0.0
 11
-295.9337768554688
 21
293.3679504394531
 31
0.0
  0
ARC
  5
28C
330
22
100
AcDbEntity
  8
0
  6
Continuous
 62
     7
100
AcDbCircle
 10
-432.8077087402343
 20
293.3681335449218
 30
0.0
 40
28.5
100
AcDbArc
 50
38.01074963565483
 51
69.98918613332552
  0
ARC
  5
28D
330
22
100
AcDbEntity
  8
0
  6
Continuous
 62
     7
100
AcDbCircle
 10
-432.8077087402343
 20
293.3681335449218
 30
0.0
 40
35.0
100
AcDbArc
 50
37.63721519341085
 51
70.36274339029557
  0
ARC
  5
28E
330
22
100
AcDbEntity
  8
0
  6
Continuous
 62
     7
100
AcDbCircle
 10
-432.8077087402343
 20
293.3681335449218
 30
0.0
 40
33.5
100
AcDbArc
 50
37.7105581357931
 51
70.28940293523411
  0
ARC
  5
28F
330
22
100
AcDbEntity
  8
0
  6
Continuous
 62
     7
100
AcDbCircle
 10
-432.8077087402343
 20
293.3679504394531
 30
0.0
 40
60.25
100
AcDbArc
 50
71.99998669953815
 51
104.2292092959725
  0
ARC
  5
290
330
22
100
AcDbEntity
  8
0
  6
Continuous
 62
     7
100
AcDbCircle
 10
-432.8077087402343
 20
293.3679504394531
 30
0.0
 40
62.5
100
AcDbArc
 50
71.99998835386162
 51
108.0000116461384
  0
ARC
  5
291
330
22
100
AcDbEntity
  8
0
  6
Continuous
 62
     7
100
AcDbCircle
 10
-432.8077087402343
 20
293.3681335449218
 30
0.0
 40
27.0
100
AcDbArc
 50
38.12255219935885
 51
69.87743781809498
  0
ARC
  5
292
330
22
100
AcDbEntity
  8
0
  6
Continuous
 62
     7
100
AcDbCircle
 10
-440.4442749023438
 20
302.6244201660156
 30
0.0
 40
2.0
100
AcDbArc
 50
233.9996875794289
 51
309.5230359050026
  0
ARC
  5
293
330
22
100
AcDbEntity
  8
0
  6
Continuous
 62
     7
100
AcDbCircle
 10
-432.8077087402343
 20
293.3679504394531
 30
0.0
 40
10.0
100
AcDbArc
 50
122.477589155649
 51
129.522455931155
  0
ARC
  5
294
330
22
100
AcDbEntity
  8
0
  6
Continuous
 62
     7
100
AcDbCircle
 10
-432.8077087402343
 20
293.3681335449218
 30
0.0
 40
20.5
100
AcDbArc
 50
38.79601246871454
 51
69.20392489831264
  0
ARC
  5
295
330
22
100
AcDbEntity
  8
0
  6
Continuous
 62
     7
100
AcDbCircle
 10
-421.1885681152343
 20
290.3681945800781
 30
0.0
 40
2.0
100
AcDbArc
 50
90.00000000000019
 51
165.522496743742
  0
ARC
  5
296
330
22
100
AcDbEntity
  8
0
  6
Continuous
 62
     7
100
AcDbCircle
 10
-432.8075256347656
 20
293.3681945800781
 30
0.0
 40
10.0
100
AcDbArc
 50
338.4774709130313
 51
345.5224967437428
  0
ARC
  5
297
330
22
100
AcDbEntity
  8
0
  6
Continuous
 62
     7
100
AcDbCircle
 10
-421.6442565917969
 20
288.9657897949219
 30
0.0
 40
2.0
100
AcDbArc
 50
158.477342616818
 51
234.0002014616679
  0
ARC
  5
298
330
22
100
AcDbEntity
  8
0
  6
Continuous
 62
     7
100
AcDbCircle
 10
-432.8077087402343
 20
293.3679504394531
 30
0.0
 40
54.75
100
AcDbArc
 50
72.00000933742734
 51
104.044260332412
  0
ARC
  5
299
330
22
100
AcDbEntity
  8
0
  6
Continuous
 62
     7
100
AcDbCircle
 10
-432.8077087402343
 20
293.3679504394531
 30
0.0
 40
52.5
100
AcDbArc
 50
71.99999804628028
 51
108.0000019537197
  0
ARC
  5
29A
330
22
100
AcDbEntity
  8
0
  6
Continuous
 62
     7
100
AcDbCircle
 10
-432.8077087402343
 20
293.3681335449218
 30
0.0
 40
22.0
100
AcDbArc
 50
38.60524306030618
 51
69.39474578341972
  0
ARC
  5
29B
330
22
100
AcDbEntity
  8
0
  6
Continuous
 62
     7
100
AcDbCircle
 10
-425.171142578125
 20
302.6246337890625
 30
0.0
 40
2.0
100
AcDbArc
 50
230.4775204647301
 51
305.9997985383335
  0
ARC
  5
29C
330
22
100
AcDbEntity
  8
0
  6
Continuous
 62
     7
100
AcDbCircle
 10
-432.8077087402343
 20
293.3681335449218
 30
0.0
 40
41.5
100
AcDbArc
 50
37.38072749581242
 51
70.61922548411186
  0
ARC
  5
29D
330
22
100
AcDbEntity
  8
0
  6
Continuous
 62
     7
100
AcDbCircle
 10
-415.0392150878905
 20
348.0536804199219
 30
0.0
 40
2.75
100
AcDbArc
 50
251.9993607521268
 51
72.00016194439604
  0
ARC
  5
29E
330
22
100
AcDbEntity
  8
0
  6
Continuous
 62
     7
100
AcDbCircle
 10
-414.4778442382813
 20
340.0733947753906
 30
0.0
 40
2.0
100
AcDbArc
 50
94.02401372979678
 51
161.9999332718726
  0
ARC
  5
29F
330
22
100
AcDbEntity
  8
0
  6
Continuous
 62
     7
100
AcDbCircle
 10
-432.8075256347656
 20
293.3681945800781
 30
0.0
 40
20.5
100
AcDbArc
 50
326.7959806816882
 51
357.203973036869
  0
ARC
  5
2A0
330
22
100
AcDbEntity
  8
0
  6
Continuous
 62
     7
100
AcDbCircle
 10
-432.8075256347656
 20
293.3681945800781
 30
0.0
 40
22.0
100
AcDbArc
 50
326.6052047303446
 51
357.3947491408036
  0
ARC
  5
2A1
330
22
100
AcDbEntity
  8
0
  6
Continuous
 62
     7
100
AcDbCircle
 10
-415.0392150878905
 20
348.0536804199219
 30
0.0
 40
6.0
100
AcDbArc
 50
274.0237639270989
 51
334.8027385479755
  0
ARC
  5
2A2
330
22
100
AcDbEntity
  8
0
  6
Continuous
 62
     7
100
AcDbCircle
 10
-432.8077087402343
 20
293.3681335449218
 30
0.0
 40
40.0
100
AcDbArc
 50
37.43253933881376
 51
70.56742619782055
  0
ARC
  5
2A3
330
22
100
AcDbEntity
  8
0
  6
Continuous
 62
     7
100
AcDbCircle
 10
-432.8075256347656
 20
293.3681945800781
 30
0.0
 40
27.0
100
AcDbArc
 50
326.1225063148886
 51
357.8774486931579
  0
ARC
  5
2A4
330
22
100
AcDbEntity
  8
0
  6
Continuous
 62
     7
100
AcDbCircle
 10
-432.8077087402343
 20
293.3681335449218
 30
0.0
 40
54.5
100
AcDbArc
 50
37.05135991299354
 51
66.67960288952528
  0
ARC
  5
2A5
330
22
100
AcDbEntity
  8
0
  6
Continuous
 62
     7
100
AcDbCircle
 10
-432.8077087402343
 20
293.3681335449218
 30
0.0
 40
53.0
100
AcDbArc
 50
37.08110051499193
 51
67.87985003111784
  0
ARC
  5
2A6
330
22
100
AcDbEntity
  8
0
  6
Continuous
 62
     7
100
AcDbCircle
 10
-432.8077087402343
 20
293.3681335449218
 30
0.0
 40
46.5
100
AcDbArc
 50
37.23226291439335
 51
70.76774313097705
  0
ARC
  5
2A7
330
22
100
AcDbEntity
  8
0
  6
Continuous
 62
     7
100
AcDbCircle
 10
-432.8077087402343
 20
293.3681335449218
 30
0.0
 40
48.0
100
AcDbArc
 50
37.19373417741972
 51
70.80623187752242
  0
ARC
  5
2A8
330
22
100
AcDbEntity
  8
0
  6
Continuous
 62
     7
100
AcDbCircle
 10
-415.0392150878905
 20
348.0536804199219
 30
0.0
 40
5.0
100
AcDbArc
 50
251.9997711738992
 51
72.00010376374627
  0
ARC
  5
2A9
330
22
100
AcDbEntity
  8
0
  6
Continuous
 62
     7
100
AcDbCircle
 10
-432.8075256347656
 20
293.3678894042969
 30
0.0
 40
35.0
100
AcDbArc
 50
181.6372447782331
 51
214.3627565879441
  0
ARC
  5
2AA
330
22
100
AcDbEntity
  8
0
  6
Continuous
 62
     7
100
AcDbCircle
 10
-432.8075256347656
 20
293.3678894042969
 30
0.0
 40
33.5
100
AcDbArc
 50
181.7105755942139
 51
214.2894389851628
  0
ARC
  5
2AB
330
22
100
AcDbEntity
  8
0
  6
Continuous
 62
     7
100
AcDbCircle
 10
-432.8075256347656
 20
293.3678894042969
 30
0.0
 40
22.0
100
AcDbArc
 50
182.6052508591979
 51
213.3947952696568
  0
ARC
  5
2AC
330
22
100
AcDbEntity
  8
0
  6
Continuous
 62
     7
100
AcDbCircle
 10
-432.8075256347656
 20
293.3678894042969
 30
0.0
 40
20.5
100
AcDbArc
 50
182.7960269631324
 51
213.2040193183132
  0
ARC
  5
2AD
330
22
100
AcDbEntity
  8
0
  6
Continuous
 62
     7
100
AcDbCircle
 10
-432.8075256347656
 20
293.3678894042969
 30
0.0
 40
27.0
100
AcDbArc
 50
182.1225513068435
 51
213.8774399190749
  0
ARC
  5
2AE
330
22
100
AcDbEntity
  8
0
  6
Continuous
 62
     7
100
AcDbCircle
 10
-432.8075256347656
 20
293.3678894042969
 30
0.0
 40
28.5
100
AcDbArc
 50
182.0107908526746
 51
213.9892090968639
  0
ARC
  5
2AF
330
22
100
AcDbEntity
  8
0
  6
Continuous
 62
     7
100
AcDbCircle
 10
-432.8075256347656
 20
293.3678894042969
 30
0.0
 40
10.0
100
AcDbArc
 50
194.4775032562587
 51
201.5225290869701
  0
ARC
  5
2B0
330
22
100
AcDbEntity
  8
0
  6
Continuous
 62
     7
100
AcDbCircle
 10
-432.8075256347656
 20
293.3678894042969
 30
0.0
 40
40.0
100
AcDbArc
 50
181.4325441047364
 51
214.567481193664
  0
ARC
  5
2B1
330
22
100
AcDbEntity
  8
0
  6
Continuous
 62
     7
100
AcDbCircle
 10
-432.8077087402343
 20
293.3679504394531
 30
0.0
 40
28.5
100
AcDbArc
 50
110.0108138666745
 51
141.9892125832629
  0
ARC
  5
2B2
330
22
100
AcDbEntity
  8
0
  6
Continuous
 62
     7
100
AcDbCircle
 10
-432.8077087402343
 20
293.3679504394531
 30
0.0
 40
22.0
100
AcDbArc
 50
110.6052542165803
 51
141.394819049316
  0
ARC
  5
2B3
330
22
100
AcDbEntity
  8
0
  6
Continuous
 62
     7
100
AcDbCircle
 10
-476.6930847167968
 20
328.9607238769531
 30
0.0
 40
2.0
100
AcDbArc
 50
148.5672432024339
 51
233.9996875794289
  0
ARC
  5
2B4
330
22
100
AcDbEntity
  8
0
  6
Continuous
 62
     7
100
AcDbCircle
 10
-444.2695312499999
 20
309.1437683105469
 30
0.0
 40
40.0
100
AcDbArc
 50
110.8827550485682
 51
148.567143722836
  0
ARC
  5
2B5
330
22
100
AcDbEntity
  8
0
  6
Continuous
 62
     7
100
AcDbCircle
 10
-432.8077087402343
 20
293.3679504394531
 30
0.0
 40
20.5
100
AcDbArc
 50
110.7959953644997
 51
141.2039875312855
  0
ARC
  5
2B6
330
22
100
AcDbEntity
  8
0
  6
Continuous
 62
     7
100
AcDbCircle
 10
-426.3640747070312
 20
303.4913635253906
 30
0.0
 40
2.0
100
AcDbArc
 50
162.0007647423689
 51
237.5226388984937
  0
ARC
  5
2B7
330
22
100
AcDbEntity
  8
0
  6
Continuous
 62
     7
100
AcDbCircle
 10
-439.2513122558593
 20
303.4911499023438
 30
0.0
 40
2.0
100
AcDbArc
 50
302.47709301665
 51
18.0003368929858
  0
ARC
  5
2B8
330
22
100
AcDbEntity
  8
0
  6
Continuous
 62
     7
100
AcDbCircle
 10
-432.8077087402343
 20
293.3681335449218
 30
0.0
 40
10.0
100
AcDbArc
 50
50.47754406884499
 51
57.52241084435099
  0
CIRCLE
  5
2B9
330
22
100
AcDbEntity
  8
0
  6
Continuous
 62
     7
100
AcDbCircle
 10
-450.576171875
 20
348.0536804199219
 30
0.0
 40
4.75
  0
ARC
  5
2BA
330
22
100
AcDbEntity
  8
0
  6
Continuous
 62
     7
100
AcDbCircle
 10
-451.1376342773438
 20
340.0734252929688
 30
0.0
 40
2.0
100
AcDbArc
 50
17.99923525763116
 51
85.97505280502559
  0
ARC
  5
2BB
330
22
100
AcDbEntity
  8
0
  6
Continuous
 62
     7
100
AcDbCircle
 10
-450.576171875
 20
348.0536804199219
 30
0.0
 40
5.0
100
AcDbArc
 50
108.0002288261015
 51
287.9998962362545
  0
ARC
  5
2BC
330
22
100
AcDbEntity
  8
0
  6
Continuous
 62
     7
100
AcDbCircle
 10
-443.9708251953125
 20
288.9654846191406
 30
0.0
 40
2.0
100
AcDbArc
 50
306.0005058267116
 51
21.52233664538207
  0
CIRCLE
  5
2BD
330
22
100
AcDbEntity
  8
0
  6
Continuous
 62
     7
100
AcDbCircle
 10
-432.6636047363281
 20
293.3679504394531
 30
0.0
 40
5.0
  0
CIRCLE
  5
2BE
330
22
100
AcDbEntity
  8
0
  6
Continuous
 62
     7
100
AcDbCircle
 10
-432.6636047363281
 20
293.3679504394531
 30
0.0
 40
5.5
  0
ARC
  5
2BF
330
22
100
AcDbEntity
  8
0
  6
Continuous
 62
     7
100
AcDbCircle
 10
-450.576171875
 20
348.0536804199219
 30
0.0
 40
6.0
100
AcDbArc
 50
205.1985643592718
 51
265.9756546661071
  0
ARC
  5
2C0
330
22
100
AcDbEntity
  8
0
  6
Continuous
 62
     7
100
AcDbCircle
 10
-388.9223327636719
 20
328.9609375
 30
0.0
 40
2.0
100
AcDbArc
 50
305.9997985383335
 51
31.43201082625543
  0
ARC
  5
2C1
330
22
100
AcDbEntity
  8
0
  6
Continuous
 62
     7
100
AcDbCircle
 10
-407.8004455566405
 20
344.6477661132813
 30
0.0
 40
2.0
100
AcDbArc
 50
69.1178419990336
 51
154.8019474763525
  0
ARC
  5
2C2
330
22
100
AcDbEntity
  8
0
  6
Continuous
 62
     7
100
AcDbCircle
 10
-444.4264831542969
 20
290.3678894042969
 30
0.0
 40
2.0
100
AcDbArc
 50
14.47750325625797
 51
90.00000000000019
  0
ARC
  5
2C3
330
22
100
AcDbEntity
  8
0
  6
Continuous
 62
     7
100
AcDbCircle
 10
-489.2324829101562
 20
290.3678894042969
 30
0.0
 40
2.0
100
AcDbArc
 50
90.00000000000019
 51
175.4331901180107
  0
ARC
  5
2C4
330
22
100
AcDbEntity
  8
0
  6
Continuous
 62
     7
100
AcDbCircle
 10
-432.8074035644531
 20
293.3680419921875
 30
0.0
 40
20.5
100
AcDbArc
 50
254.7960274156084
 51
285.203972584393
  0
ARC
  5
2C5
330
22
100
AcDbEntity
  8
0
  6
Continuous
 62
     7
100
AcDbCircle
 10
-432.0701293945313
 20
281.3906860351563
 30
0.0
 40
2.0
100
AcDbArc
 50
18.0003368929858
 51
93.52283611597508
  0
ARC
  5
2C6
330
22
100
AcDbEntity
  8
0
  6
Continuous
 62
     7
100
AcDbCircle
 10
-433.5447082519531
 20
281.3906860351563
 30
0.0
 40
2.0
100
AcDbArc
 50
86.47716388402495
 51
161.9996631070142
  0
ARC
  5
2C7
330
22
100
AcDbEntity
  8
0
  6
Continuous
 62
     7
100
AcDbCircle
 10
-432.8074035644531
 20
293.3680419921875
 30
0.0
 40
22.0
100
AcDbArc
 50
254.6052225642029
 51
285.3947008089312
  0
ARC
  5
2C8
330
22
100
AcDbEntity
  8
0
  6
Continuous
 62
     7
100
AcDbCircle
 10
-432.8074035644531
 20
293.3680419921875
 30
0.0
 40
10.0
100
AcDbArc
 50
266.4774699525468
 51
273.5223555249691
  0
ARC
  5
2C9
330
22
100
AcDbEntity
  8
0
  6
Continuous
 62
     7
100
AcDbCircle
 10
-432.8077087402343
 20
293.3679504394531
 30
0.0
 40
27.0
100
AcDbArc
 50
110.122562181905
 51
141.8774987470883
  0
ARC
  5
2CA
330
22
100
AcDbEntity
  8
0
  6
Continuous
 62
     7
100
AcDbCircle
 10
-432.8077087402343
 20
293.3679504394531
 30
0.0
 40
53.0
100
AcDbArc
 50
112.1198681977492
 51
142.9188795931876
  0
ARC
  5
2CB
330
22
100
AcDbEntity
  8
0
  6
Continuous
 62
     7
100
AcDbCircle
 10
-432.8077087402343
 20
293.3679504394531
 30
0.0
 40
48.0
100
AcDbArc
 50
109.1937337197351
 51
142.8062658225803
  0
ARC
  5
2CC
330
22
100
AcDbEntity
  8
0
  6
Continuous
 62
     7
100
AcDbCircle
 10
-457.8148803710938
 20
344.6476135253906
 30
0.0
 40
2.0
100
AcDbArc
 50
25.19884358499167
 51
110.882974839171
  0
ARC
  5
2CD
330
22
100
AcDbEntity
  8
0
  6
Continuous
 62
     7
100
AcDbCircle
 10
-432.8077087402343
 20
293.3679504394531
 30
0.0
 40
33.5
100
AcDbArc
 50
109.7105970647659
 51
142.2894418642069
  0
ARC
  5
2CE
330
22
100
AcDbEntity
  8
0
  6
Continuous
 62
     7
100
AcDbCircle
 10
-432.8077087402343
 20
293.3679504394531
 30
0.0
 40
40.0
100
AcDbArc
 50
109.4325325791368
 51
142.5674606611863
  0
ARC
  5
2CF
330
22
100
AcDbEntity
  8
0
  6
Continuous
 62
     7
100
AcDbCircle
 10
-432.8077087402343
 20
293.3679504394531
 30
0.0
 40
41.5
100
AcDbArc
 50
109.3807745158882
 51
142.6192469247367
  0
ARC
  5
2D0
330
22
100
AcDbEntity
  8
0
  6
Continuous
 62
     7
100
AcDbCircle
 10
-432.8077087402343
 20
293.3679504394531
 30
0.0
 40
46.5
100
AcDbArc
 50
109.232256869023
 51
142.7677370856067
  0
ARC
  5
2D1
330
22
100
AcDbEntity
  8
0
  6
Continuous
 62
     7
100
AcDbCircle
 10
-432.8077087402343
 20
293.3679504394531
 30
0.0
 40
35.0
100
AcDbArc
 50
109.6372566097045
 51
142.3627848065892
  0
ARC
  5
2D2
330
22
100
AcDbEntity
  8
0
  6
Continuous
 62
     7
100
AcDbCircle
 10
-376.3825988769531
 20
290.3681945800781
 30
0.0
 40
2.0
100
AcDbArc
 50
4.56674027182449
 51
90.00000000000019
  0
ARC
  5
2D3
330
22
100
AcDbEntity
  8
0
  6
Continuous
 62
     7
100
AcDbCircle
 10
-432.8075256347656
 20
293.3681945800781
 30
0.0
 40
33.5
100
AcDbArc
 50
325.7105610148386
 51
358.2894244057875
  0
ARC
  5
2D4
330
22
100
AcDbEntity
  8
0
  6
Continuous
 62
     7
100
AcDbCircle
 10
-432.8075256347656
 20
293.3681945800781
 30
0.0
 40
28.5
100
AcDbArc
 50
326.0107909031376
 51
357.9892091473268
  0
ARC
  5
2D5
330
22
100
AcDbEntity
  8
0
  6
Continuous
 62
     7
100
AcDbCircle
 10
-421.3458862304688
 20
309.1439514160156
 30
0.0
 40
40.0
100
AcDbArc
 50
31.43285627716406
 51
69.11714768599326
  0
ARC
  5
2D6
330
22
100
AcDbEntity
  8
0
  6
Continuous
 62
     7
100
AcDbCircle
 10
-432.8075256347656
 20
293.3681945800781
 30
0.0
 40
35.0
100
AcDbArc
 50
325.6372021727502
 51
358.3627552217683
  0
ARC
  5
2D7
330
22
100
AcDbEntity
  8
0
  6
Continuous
 62
     7
100
AcDbCircle
 10
-432.8075256347656
 20
293.3681945800781
 30
0.0
 40
40.0
100
AcDbArc
 50
325.4325188063375
 51
358.567455895265
  0
ARC
  5
2D8
330
22
100
AcDbEntity
  8
0
  6
Continuous
 62
     7
100
AcDbCircle
 10
-480.2196044921875
 20
262.6291809082031
 30
0.0
 40
2.0
100
AcDbArc
 50
220.5668728598289
 51
305.9997985383335
  0
ARC
  5
2D9
330
22
100
AcDbEntity
  8
0
  6
Continuous
 62
     7
100
AcDbCircle
 10
-432.8074035644531
 20
293.3680419921875
 30
0.0
 40
48.0
100
AcDbArc
 50
253.1937508192667
 51
286.8062491807348
  0
ARC
  5
2DA
330
22
100
AcDbEntity
  8
0
  6
Continuous
 62
     7
100
AcDbCircle
 10
-432.8074035644531
 20
293.3680419921875
 30
0.0
 40
46.5
100
AcDbArc
 50
253.2322606100862
 51
286.7677033859512
  0
ARC
  5
2DB
330
22
100
AcDbEntity
  8
0
  6
Continuous
 62
     7
100
AcDbCircle
 10
-432.8074035644531
 20
293.3680419921875
 30
0.0
 40
41.5
100
AcDbArc
 50
253.3807338678086
 51
286.6192257590438
  0
ARC
  5
2DC
330
22
100
AcDbEntity
  8
0
  6
Continuous
 62
     7
100
AcDbCircle
 10
-432.8074035644531
 20
293.3680419921875
 30
0.0
 40
40.0
100
AcDbArc
 50
253.4325468796545
 51
286.567453120347
  0
ARC
  5
2DD
330
22
100
AcDbEntity
  8
0
  6
Continuous
 62
     7
100
AcDbCircle
 10
-432.8074035644531
 20
293.3680419921875
 30
0.0
 40
53.0
100
AcDbArc
 50
253.0810991669202
 51
286.9188692699188
  0
ARC
  5
2DE
330
22
100
AcDbEntity
  8
0
  6
Continuous
 62
     7
100
AcDbCircle
 10
-432.8074035644531
 20
293.3680419921875
 30
0.0
 40
54.5
100
AcDbArc
 50
253.0513547747794
 51
286.9486145356209
  0
ARC
  5
2DF
330
22
100
AcDbEntity
  8
0
  6
Continuous
 62
     7
100
AcDbCircle
 10
-447.3905029296875
 20
238.7776641845703
 30
0.0
 40
2.0
100
AcDbArc
 50
161.9999332718726
 51
247.4322884441075
  0
ARC
  5
2E0
330
22
100
AcDbEntity
  8
0
  6
Continuous
 62
     7
100
AcDbCircle
 10
-432.8074035644531
 20
273.8680419921875
 30
0.0
 40
40.0
100
AcDbArc
 50
247.4328430877043
 51
292.5671165461921
  0
ARC
  5
2E1
330
22
100
AcDbEntity
  8
0
  6
Continuous
 62
     7
100
AcDbCircle
 10
-418.2243347167968
 20
238.7776641845703
 30
0.0
 40
2.0
100
AcDbArc
 50
292.5677115558939
 51
18.00006672812741
  0
ARC
  5
2E2
330
22
100
AcDbEntity
  8
0
  6
Continuous
 62
     7
100
AcDbCircle
 10
-432.8074035644531
 20
293.3680419921875
 30
0.0
 40
35.0
100
AcDbArc
 50
253.6372316300478
 51
286.3627204354568
  0
ARC
  5
2E3
330
22
100
AcDbEntity
  8
0
  6
Continuous
 62
     7
100
AcDbCircle
 10
-432.8074035644531
 20
293.3680419921875
 30
0.0
 40
33.5
100
AcDbArc
 50
253.7105369353096
 51
286.2894129650754
  0
ARC
  5
2E4
330
22
100
AcDbEntity
  8
0
  6
Continuous
 62
     7
100
AcDbCircle
 10
-432.8074035644531
 20
293.3680419921875
 30
0.0
 40
27.0
100
AcDbArc
 50
254.1225391031864
 51
285.8773986071946
  0
CIRCLE
  5
2E5
330
22
100
AcDbEntity
  8
0
  6
Continuous
 62
     7
100
AcDbCircle
 10
-432.8077087402343
 20
293.3679504394531
 30
0.0
 40
65.59999847412109
  0
CIRCLE
  5
2E6
330
22
100
AcDbEntity
  8
0
  6
Continuous
 62
     7
100
AcDbCircle
 10
-432.8077087402343
 20
293.3679504394531
 30
0.0
 40
65.30000305175781
  0
CIRCLE
  5
2E7
330
22
100
AcDbEntity
  8
0
  6
DASHED
 62
     7
100
AcDbCircle
 10
-432.6636047363281
 20
293.3679504394531
 30
0.0
 40
35.5
  0
CIRCLE
  5
2E8
330
22
100
AcDbEntity
  8
0
  6
Continuous
 62
     7
100
AcDbCircle
 10
-432.8077087402343
 20
293.3679504394531
 30
0.0
 40
78.0
  0
CIRCLE
  5
2E9
330
22
100
AcDbEntity
  8
0
  6
Continuous
 62
     7
100
AcDbCircle
 10
-432.6636047363281
 20
293.3679504394531
 30
0.0
 40
91.0
  0
ARC
  5
2EA
330
22
100
AcDbEntity
  8
0
  6
Continuous
 62
     7
100
AcDbCircle
 10
-385.3954467773438
 20
262.6294860839844
 30
0.0
 40
2.0
100
AcDbArc
 50
234.0002014616679
 51
319.4325585773743
  0
ARC
  5
2EB
330
22
100
AcDbEntity
  8
0
  6
Continuous
 62
     7
100
AcDbCircle
 10
-414.2619323730468
 20
287.3423461914063
 30
0.0
 40
40.0
100
AcDbArc
 50
319.4328526567168
 51
4.567139402662893
  0
ARC
  5
2EC
330
22
100
AcDbEntity
  8
0
  6
Continuous
 62
     7
100
AcDbCircle
 10
-432.8075256347656
 20
293.3681945800781
 30
0.0
 40
53.0
100
AcDbArc
 50
325.0810915465692
 51
358.9188835032339
  0
ARC
  5
2ED
330
22
100
AcDbEntity
  8
0
  6
Continuous
 62
     7
100
AcDbCircle
 10
-432.8075256347656
 20
293.3681945800781
 30
0.0
 40
46.5
100
AcDbArc
 50
325.2322373976132
 51
358.7677380143682
  0
ARC
  5
2EE
330
22
100
AcDbEntity
  8
0
  6
Continuous
 62
     7
100
AcDbCircle
 10
-432.8075256347656
 20
293.3681945800781
 30
0.0
 40
48.0
100
AcDbArc
 50
325.1937390784993
 51
358.8062518439434
  0
ARC
  5
2EF
330
22
100
AcDbEntity
  8
0
  6
Continuous
 62
     7
100
AcDbCircle
 10
-432.8075256347656
 20
293.3681945800781
 30
0.0
 40
41.5
100
AcDbArc
 50
325.3807542084071
 51
358.6192450159001
  0
ARC
  5
2F0
330
22
100
AcDbEntity
  8
0
  6
Continuous
 62
     7
100
AcDbCircle
 10
-432.8075256347656
 20
293.3681945800781
 30
0.0
 40
54.5
100
AcDbArc
 50
325.0513344179936
 51
358.9486420873947
  0
ARC
  5
2F1
330
22
100
AcDbEntity
  8
0
  6
Continuous
 62
     7
100
AcDbCircle
 10
-432.8075256347656
 20
293.3678894042969
 30
0.0
 40
41.5
100
AcDbArc
 50
181.3807549841013
 51
214.6192457915943
  0
ARC
  5
2F2
330
22
100
AcDbEntity
  8
0
  6
Continuous
 62
     7
100
AcDbCircle
 10
-432.8075256347656
 20
293.3678894042969
 30
0.0
 40
53.0
100
AcDbArc
 50
181.0811164967674
 51
214.9188895687891
  0
ARC
  5
2F3
330
22
100
AcDbEntity
  8
0
  6
Continuous
 62
     7
100
AcDbCircle
 10
-432.8075256347656
 20
293.3678894042969
 30
0.0
 40
48.0
100
AcDbArc
 50
181.193748156058
 51
214.8062609215021
  0
ARC
  5
2F4
330
22
100
AcDbEntity
  8
0
  6
Continuous
 62
     7
100
AcDbCircle
 10
-432.8075256347656
 20
293.3678894042969
 30
0.0
 40
46.5
100
AcDbArc
 50
181.2322619856332
 51
214.7677626023882
  0
ARC
  5
2F5
330
22
100
AcDbEntity
  8
0
  6
Continuous
 62
     7
100
AcDbCircle
 10
-432.8075256347656
 20
293.3678894042969
 30
0.0
 40
54.5
100
AcDbArc
 50
181.0513579126068
 51
214.9486655820078
  0
ARC
  5
2F6
330
22
100
AcDbEntity
  8
0
  6
Continuous
 62
     7
100
AcDbCircle
 10
-451.3531188964844
 20
287.342041015625
 30
0.0
 40
40.0
100
AcDbArc
 50
175.4328605973371
 51
220.5671189149057
  0
ARC
  5
2F7
330
22
100
AcDbEntity
  8
0
  6
Continuous
 62
     7
100
AcDbCircle
 10
-432.8074035644531
 20
293.3680419921875
 30
0.0
 40
28.5
100
AcDbArc
 50
254.0107651773862
 51
285.9891758442728
  0
CIRCLE
  5
2F8
330
22
100
AcDbEntity
  8
0
  6
DASHED
 62
     7
100
AcDbCircle
 10
-432.6636047363281
 20
103.3679351806641
 30
0.0
 40
35.5
  0
CIRCLE
  5
2F9
330
22
100
AcDbEntity
  8
0
  6
Continuous
 62
     7
100
AcDbCircle
 10
-432.8077087402343
 20
103.3679351806641
 30
0.0
 40
65.30000305175781
  0
CIRCLE
  5
2FA
330
22
100
AcDbEntity
  8
0
  6
Continuous
 62
     7
100
AcDbCircle
 10
-432.8077087402343
 20
103.3679351806641
 30
0.0
 40
65.59999847412109
  0
ARC
  5
2FB
330
22
100
AcDbEntity
  8
0
  6
Continuous
 62
     7
100
AcDbCircle
 10
-418.2243347167968
 20
48.77767181396484
 30
0.0
 40
2.0
100
AcDbArc
 50
292.567543796182
 51
17.99985886123844
  0
ARC
  5
2FC
330
22
100
AcDbEntity
  8
0
  6
Continuous
 62
     7
100
AcDbCircle
 10
-432.8074035644531
 20
83.86802673339843
 30
0.0
 40
40.0
100
AcDbArc
 50
247.4328388937933
 51
292.5671207400973
  0
ARC
  5
2FD
330
22
100
AcDbEntity
  8
0
  6
Continuous
 62
     7
100
AcDbCircle
 10
-447.3905029296875
 20
48.77767181396484
 30
0.0
 40
2.0
100
AcDbArc
 50
162.0001411387616
 51
247.4324562038195
  0
ARC
  5
2FE
330
22
100
AcDbEntity
  8
0
  6
Continuous
 62
     7
100
AcDbCircle
 10
-480.2196044921875
 20
72.62918090820313
 30
0.0
 40
2.0
100
AcDbArc
 50
220.5665407968639
 51
305.9999270077038
  0
ARC
  5
2FF
330
22
100
AcDbEntity
  8
0
  6
Continuous
 62
     7
100
AcDbCircle
 10
-421.3458862304688
 20
119.1439514160156
 30
0.0
 40
40.0
100
AcDbArc
 50
31.43287492635519
 51
69.11715547696326
  0
ARC
  5
300
330
22
100
AcDbEntity
  8
0
  6
Continuous
 62
     7
100
AcDbCircle
 10
-376.3825988769531
 20
100.3681793212891
 30
0.0
 40
2.0
100
AcDbArc
 50
4.567176015491929
 51
90.00000000000019
  0
ARC
  5
301
330
22
100
AcDbEntity
  8
0
  6
Continuous
 62
     7
100
AcDbCircle
 10
-457.8148803710938
 20
154.6476135253906
 30
0.0
 40
2.0
100
AcDbArc
 50
25.19844805560436
 51
110.882974839171
  0
ARC
  5
302
330
22
100
AcDbEntity
  8
0
  6
Continuous
 62
     7
100
AcDbCircle
 10
-432.8074035644531
 20
103.3680267333984
 30
0.0
 40
10.0
100
AcDbArc
 50
266.4774672667609
 51
273.5223582106225
  0
ARC
  5
303
330
22
100
AcDbEntity
  8
0
  6
Continuous
 62
     7
100
AcDbCircle
 10
-433.5447082519531
 20
91.3907012939453
 30
0.0
 40
2.0
100
AcDbArc
 50
86.47712359381765
 51
161.9998709766013
  0
ARC
  5
304
330
22
100
AcDbEntity
  8
0
  6
Continuous
 62
     7
100
AcDbCircle
 10
-432.0701293945313
 20
91.3907012939453
 30
0.0
 40
2.0
100
AcDbArc
 50
18.00012902339873
 51
93.52287640618236
  0
ARC
  5
305
330
22
100
AcDbEntity
  8
0
  6
Continuous
 62
     7
100
AcDbCircle
 10
-489.2324829101562
 20
100.3678817749023
 30
0.0
 40
2.0
100
AcDbArc
 50
90.00000000000019
 51
175.432972242818
  0
ARC
  5
306
330
22
100
AcDbEntity
  8
0
  6
Continuous
 62
     7
100
AcDbCircle
 10
-444.4264831542969
 20
100.3678817749023
 30
0.0
 40
2.0
100
AcDbArc
 50
14.47750325625797
 51
90.00000000000019
  0
ARC
  5
307
330
22
100
AcDbEntity
  8
0
  6
Continuous
 62
     7
100
AcDbCircle
 10
-407.8004455566405
 20
154.6477813720703
 30
0.0
 40
2.0
100
AcDbArc
 50
69.1178419990336
 51
154.8027385479748
  0
ARC
  5
308
330
22
100
AcDbEntity
  8
0
  6
Continuous
 62
     7
100
AcDbCircle
 10
-388.9223327636719
 20
138.9609222412109
 30
0.0
 40
2.0
100
AcDbArc
 50
306.0000554778671
 51
31.43275679756615
  0
ARC
  5
309
330
22
100
AcDbEntity
  8
0
  6
Continuous
 62
     7
100
AcDbCircle
 10
-450.576171875
 20
158.0536804199219
 30
0.0
 40
6.0
100
AcDbArc
 50
205.1986962039167
 51
265.9756546661071
  0
CIRCLE
  5
30A
330
22
100
AcDbEntity
  8
0
  6
Continuous
 62
     7
100
AcDbCircle
 10
-432.6636047363281
 20
103.3679351806641
 30
0.0
 40
5.5
  0
CIRCLE
  5
30B
330
22
100
AcDbEntity
  8
0
  6
Continuous
 62
     7
100
AcDbCircle
 10
-432.6636047363281
 20
103.3679351806641
 30
0.0
 40
5.0
  0
ARC
  5
30C
330
22
100
AcDbEntity
  8
0
  6
Continuous
 62
     7
100
AcDbCircle
 10
-443.9708251953125
 20
98.96548461914065
 30
0.0
 40
2.0
100
AcDbArc
 50
306.0006342971125
 51
21.52233664538207
  0
ARC
  5
30D
330
22
100
AcDbEntity
  8
0
  6
Continuous
 62
     7
100
AcDbCircle
 10
-450.576171875
 20
158.0536804199219
 30
0.0
 40
5.0
100
AcDbArc
 50
108.0001747931298
 51
287.9998962362545
  0
ARC
  5
30E
330
22
100
AcDbEntity
  8
0
  6
Continuous
 62
     7
100
AcDbCircle
 10
-451.1376342773438
 20
150.0734100341797
 30
0.0
 40
2.0
100
AcDbArc
 50
18.00006672812741
 51
85.97508348762124
  0
CIRCLE
  5
30F
330
22
100
AcDbEntity
  8
0
  6
Continuous
 62
     7
100
AcDbCircle
 10
-415.0392150878905
 20
158.0536804199219
 30
0.0
 40
4.75
  0
ARC
  5
310
330
22
100
AcDbEntity
  8
0
  6
Continuous
 62
     7
100
AcDbCircle
 10
-432.8077087402343
 20
103.3681259155273
 30
0.0
 40
10.0
100
AcDbArc
 50
50.47754406884499
 51
57.52245778968815
  0
ARC
  5
311
330
22
100
AcDbEntity
  8
0
  6
Continuous
 62
     7
100
AcDbCircle
 10
-439.2513122558593
 20
113.4911651611328
 30
0.0
 40
2.0
100
AcDbArc
 50
302.4769756540589
 51
18.00012902339873
  0
ARC
  5
312
330
22
100
AcDbEntity
  8
0
  6
Continuous
 62
     7
100
AcDbCircle
 10
-426.3640747070312
 20
113.4913482666016
 30
0.0
 40
2.0
100
AcDbArc
 50
162.0001411387616
 51
237.5222868110172
  0
ARC
  5
313
330
22
100
AcDbEntity
  8
0
  6
Continuous
 62
     7
100
AcDbCircle
 10
-444.2695312499999
 20
119.1437683105469
 30
0.0
 40
40.0
100
AcDbArc
 50
110.8827550485682
 51
148.5671250736448
  0
ARC
  5
314
330
22
100
AcDbEntity
  8
0
  6
Continuous
 62
     7
100
AcDbCircle
 10
-476.6930847167968
 20
138.9607391357422
 30
0.0
 40
2.0
100
AcDbArc
 50
148.5672432024339
 51
234.0002014616679
  0
ARC
  5
315
330
22
100
AcDbEntity
  8
0
  6
Continuous
 62
     7
100
AcDbCircle
 10
-432.8075256347656
 20
103.3678817749023
 30
0.0
 40
10.0
100
AcDbArc
 50
194.4775032562587
 51
201.5224884217245
  0
ARC
  5
316
330
22
100
AcDbEntity
  8
0
  6
Continuous
 62
     7
100
AcDbCircle
 10
-415.0392150878905
 20
158.0536804199219
 30
0.0
 40
5.0
100
AcDbArc
 50
251.9997711738992
 51
72.00015779585455
  0
ARC
  5
317
330
22
100
AcDbEntity
  8
0
  6
Continuous
 62
     7
100
AcDbCircle
 10
-415.0392150878905
 20
158.0536804199219
 30
0.0
 40
6.0
100
AcDbArc
 50
274.0237639270989
 51
334.8026067019914
  0
ARC
  5
318
330
22
100
AcDbEntity
  8
0
  6
Continuous
 62
     7
100
AcDbCircle
 10
-414.4778442382813
 20
150.0734100341797
 30
0.0
 40
2.0
100
AcDbArc
 50
94.02404440532112
 51
162.0003490061406
  0
ARC
  5
319
330
22
100
AcDbEntity
  8
0
  6
Continuous
 62
     7
100
AcDbCircle
 10
-425.171142578125
 20
112.6246185302734
 30
0.0
 40
2.0
100
AcDbArc
 50
230.4773813735252
 51
306.0000554778671
  0
ARC
  5
31A
330
22
100
AcDbEntity
  8
0
  6
Continuous
 62
     7
100
AcDbCircle
 10
-432.8077087402343
 20
103.3679351806641
 30
0.0
 40
52.5
100
AcDbArc
 50
72.00000319223343
 51
107.9999968077666
  0
ARC
  5
31B
330
22
100
AcDbEntity
  8
0
  6
Continuous
 62
     7
100
AcDbCircle
 10
-432.8077087402343
 20
103.3679351806641
 30
0.0
 40
54.75
100
AcDbArc
 50
75.95574354263589
 51
107.9999906625727
  0
ARC
  5
31C
330
22
100
AcDbEntity
  8
0
  6
Continuous
 62
     7
100
AcDbCircle
 10
-421.6442565917969
 20
98.96578216552734
 30
0.0
 40
2.0
100
AcDbArc
 50
158.477342616818
 51
234.0000729922976
  0
ARC
  5
31D
330
22
100
AcDbEntity
  8
0
  6
Continuous
 62
     7
100
AcDbCircle
 10
-432.8075256347656
 20
103.3681793212891
 30
0.0
 40
10.0
100
AcDbArc
 50
338.4775115782769
 51
345.5224967437428
  0
ARC
  5
31E
330
22
100
AcDbEntity
  8
0
  6
Continuous
 62
     7
100
AcDbCircle
 10
-421.1885681152343
 20
100.3681793212891
 30
0.0
 40
2.0
100
AcDbArc
 50
90.00000000000019
 51
165.522496743742
  0
ARC
  5
31F
330
22
100
AcDbEntity
  8
0
  6
Continuous
 62
     7
100
AcDbCircle
 10
-432.8077087402343
 20
103.3679351806641
 30
0.0
 40
10.0
100
AcDbArc
 50
122.4775187376886
 51
129.5224281129066
  0
ARC
  5
320
330
22
100
AcDbEntity
  8
0
  6
Continuous
 62
     7
100
AcDbCircle
 10
-440.4442749023438
 20
112.6244354248047
 30
0.0
 40
2.0
100
AcDbArc
 50
234.0000729922976
 51
309.5226186264762
  0
ARC
  5
321
330
22
100
AcDbEntity
  8
0
  6
Continuous
 62
     7
100
AcDbCircle
 10
-432.8077087402343
 20
103.3679351806641
 30
0.0
 40
62.5
100
AcDbArc
 50
71.99999699906573
 51
108.0000030009343
  0
ARC
  5
322
330
22
100
AcDbEntity
  8
0
  6
Continuous
 62
     7
100
AcDbCircle
 10
-432.8077087402343
 20
103.3679351806641
 30
0.0
 40
60.25
100
AcDbArc
 50
75.77079783748779
 51
107.9999812156175
  0
CIRCLE
  5
323
330
22
100
AcDbEntity
  8
0
  6
Continuous
 62
     7
100
AcDbCircle
 10
-432.8077087402343
 20
103.3679351806641
 30
0.0
 40
78.0
  0
CIRCLE
  5
324
330
22
100
AcDbEntity
  8
0
  6
Continuous
 62
     7
100
AcDbCircle
 10
-432.6636047363281
 20
103.3679351806641
 30
0.0
 40
91.0
  0
ARC
  5
325
330
22
100
AcDbEntity
  8
0
  6
Continuous
 62
     7
100
AcDbCircle
 10
-385.3954467773438
 20
72.62948608398438
 30
0.0
 40
2.0
100
AcDbArc
 50
234.0000729922976
 51
319.4327246089589
  0
ARC
  5
326
330
22
100
AcDbEntity
  8
0
  6
Continuous
 62
     7
100
AcDbCircle
 10
-414.2619323730468
 20
97.34234619140623
 30
0.0
 40
40.0
100
AcDbArc
 50
319.4328609583412
 51
4.567139402662893
  0
ARC
  5
327
330
22
100
AcDbEntity
  8
0
  6
Continuous
 62
     7
100
AcDbCircle
 10
-451.3531188964844
 20
97.34204864501952
 30
0.0
 40
40.0
100
AcDbArc
 50
175.4328714909401
 51
220.5671106132827
  0
ARC
  5
328
330
22
100
AcDbEntity
  8
0
  6
Continuous
 62
     7
100
AcDbCircle
 10
-450.576171875
 20
158.0536804199219
 30
0.0
 40
2.75
100
AcDbArc
 50
107.999838055604
 51
287.9999362958147
  0
ARC
  5
329
330
22
100
AcDbEntity
  8
0
  6
Continuous
 62
     7
100
AcDbCircle
 10
-267.0957336425781
 20
338.8679504394531
 30
0.0
 40
4.0
100
AcDbArc
 50
205.0003355540952
 51
270.0000000000005
  0
ARC
  5
32A
330
22
100
AcDbEntity
  8
0
  6
Continuous
 62
     7
100
AcDbCircle
 10
-113.9337692260742
 20
333.8679504394531
 30
0.0
 40
1.0
100
AcDbArc
 50
0.0
 51
90.00000000000019
  0
ARC
  5
32B
330
22
100
AcDbEntity
  8
0
  6
Continuous
 62
     7
100
AcDbCircle
 10
-269.9231262207031
 20
328.3679504394531
 30
0.0
 40
1.0
100
AcDbArc
 50
205.0009431552232
 51
270.0000000000005
  0
ARC
  5
32C
330
22
100
AcDbEntity
  8
0
  6
Continuous
 62
     7
100
AcDbCircle
 10
-266.4337768554688
 20
327.8679504394531
 30
0.0
 40
0.5
100
AcDbArc
 50
270.0000000000005
 51
0.0
  0
ARC
  5
32D
330
22
100
AcDbEntity
  8
0
  6
Continuous
 62
     7
100
AcDbCircle
 10
-179.9337768554688
 20
333.3679504394531
 30
0.0
 40
1.0
100
AcDbArc
 50
90.00000000000019
 51
180.0000000000004
  0
ARC
  5
32E
330
22
100
AcDbEntity
  8
0
  6
Continuous
 62
     7
100
AcDbCircle
 10
-153.9337768554688
 20
339.3679504394531
 30
0.0
 40
5.0
100
AcDbArc
 50
270.0000000000005
 51
0.0
  0
ARC
  5
32F
330
22
100
AcDbEntity
  8
0
  6
Continuous
 62
     7
100
AcDbCircle
 10
-146.9337768554688
 20
382.3679504394531
 30
0.0
 40
2.0
100
AcDbArc
 50
90.00000000000019
 51
180.0000000000004
  0
ARC
  5
330
330
22
100
AcDbEntity
  8
0
  6
Continuous
 62
     7
100
AcDbCircle
 10
-144.4337768554688
 20
335.8679504394531
 30
0.0
 40
1.0
100
AcDbArc
 50
180.0000000000004
 51
270.0000000000005
  0
ARC
  5
331
330
22
100
AcDbEntity
  8
0
  6
Continuous
 62
     7
100
AcDbCircle
 10
-243.9364471435547
 20
262.5011291503906
 30
0.0
 40
0.4515255987644197
100
AcDbArc
 50
219.8011086883044
 51
262.6372132952101
  0
ARC
  5
332
330
22
100
AcDbEntity
  8
0
  6
Continuous
 62
     7
100
AcDbCircle
 10
-113.9337692260742
 20
252.8679351806641
 30
0.0
 40
1.0
100
AcDbArc
 50
270.0000000000005
 51
0.0
  0
ARC
  5
333
330
22
100
AcDbEntity
  8
0
  6
Continuous
 62
     7
100
AcDbCircle
 10
-126.8883056640625
 20
232.0813140869141
 30
0.0
 40
16.0
100
AcDbArc
 50
99.15419448772251
 51
161.2476139822793
  0
ARC
  5
334
330
22
100
AcDbEntity
  8
0
  6
Continuous
 62
     7
100
AcDbCircle
 10
-143.9328002929688
 20
237.8679351806641
 30
0.0
 40
2.0
100
AcDbArc
 50
270.0000000000005
 51
341.2475271089839
  0
ARC
  5
335
330
22
100
AcDbEntity
  8
0
  6
Continuous
 62
     7
100
AcDbCircle
 10
-146.9337768554688
 20
204.3679351806641
 30
0.0
 40
2.0
100
AcDbArc
 50
180.0000000000004
 51
270.0000000000005
  0
ARC
  5
336
330
22
100
AcDbEntity
  8
0
  6
Continuous
 62
     7
100
AcDbCircle
 10
-145.9337768554688
 20
202.8679351806641
 30
0.0
 40
0.5
100
AcDbArc
 50
270.0000000000005
 51
0.0
  0
ARC
  5
337
330
22
100
AcDbEntity
  8
0
  6
Continuous
 62
     7
100
AcDbCircle
 10
-268.671630859375
 20
263.3638000488281
 30
0.0
 40
1.57590627670288
100
AcDbArc
 50
149.4328003958231
 51
226.9555207505827
  0
ARC
  5
338
330
22
100
AcDbEntity
  8
0
  6
Continuous
 62
     7
100
AcDbCircle
 10
-269.400390625
 20
262.5011291503906
 30
0.0
 40
0.4515255987644197
100
AcDbArc
 50
219.8011086883044
 51
262.6333726127321
  0
ARC
  5
339
330
22
100
AcDbEntity
  8
0
  6
Continuous
 62
     7
100
AcDbCircle
 10
-267.0957336425781
 20
247.8679351806641
 30
0.0
 40
4.0
100
AcDbArc
 50
90.00000000000019
 51
154.9998625342167
  0
ARC
  5
33A
330
22
100
AcDbEntity
  8
0
  6
Continuous
 62
     7
100
AcDbCircle
 10
-145.9337768554688
 20
383.8679504394531
 30
0.0
 40
0.5
100
AcDbArc
 50
0.0
 51
90.00000000000019
  0
ARC
  5
33B
330
22
100
AcDbEntity
  8
0
  6
Continuous
 62
     7
100
AcDbCircle
 10
-144.4337768554688
 20
250.8679351806641
 30
0.0
 40
1.0
100
AcDbArc
 50
90.00000000000019
 51
180.0000000000004
  0
ARC
  5
33C
330
22
100
AcDbEntity
  8
0
  6
Continuous
 62
     7
100
AcDbCircle
 10
-179.9337768554688
 20
253.3679351806641
 30
0.0
 40
1.0
100
AcDbArc
 50
180.0000000000004
 51
270.0000000000005
  0
ARC
  5
33D
330
22
100
AcDbEntity
  8
0
  6
Continuous
 62
     7
100
AcDbCircle
 10
-243.2076721191406
 20
263.3638000488281
 30
0.0
 40
1.57590627670288
100
AcDbArc
 50
149.4330825215213
 51
226.9551153120445
  0
ARC
  5
33E
330
22
100
AcDbEntity
  8
0
  6
Continuous
 62
     7
100
AcDbCircle
 10
-129.4337768554687
 20
249.8679351806641
 30
0.0
 40
2.0
100
AcDbArc
 50
270.0000000000005
 51
0.0
  0
ARC
  5
33F
330
22
100
AcDbEntity
  8
0
  6
Continuous
 62
     7
100
AcDbCircle
 10
-153.9337768554688
 20
247.3679351806641
 30
0.0
 40
5.0
100
AcDbArc
 50
0.0
 51
90.00000000000019
  0
ARC
  5
340
330
22
100
AcDbEntity
  8
0
  6
Continuous
 62
     7
100
AcDbCircle
 10
-290.4337768554688
 20
365.3679504394531
 30
0.0
 40
2.0
100
AcDbArc
 50
180.0000000000004
 51
270.0000000000005
  0
ARC
  5
341
330
22
100
AcDbEntity
  8
0
  6
Continuous
 62
     7
100
AcDbCircle
 10
-286.6314086914063
 20
352.3679504394531
 30
0.0
 40
4.0
100
AcDbArc
 50
24.99975463753455
 51
90.00000000000019
  0
ARC
  5
342
330
22
100
AcDbEntity
  8
0
  6
Continuous
 62
     7
100
AcDbCircle
 10
-284.844970703125
 20
360.3679504394531
 30
0.0
 40
3.0
100
AcDbArc
 50
25.00013301677646
 51
90.00000000000019
  0
ARC
  5
343
330
22
100
AcDbEntity
  8
0
  6
Continuous
 62
     7
100
AcDbCircle
 10
-290.4337768554688
 20
221.3679351806641
 30
0.0
 40
2.0
100
AcDbArc
 50
90.00000000000019
 51
180.0000000000004
  0
ARC
  5
344
330
22
100
AcDbEntity
  8
0
  6
Continuous
 62
     7
100
AcDbCircle
 10
-284.844970703125
 20
226.3679351806641
 30
0.0
 40
3.0
100
AcDbArc
 50
270.0000000000005
 51
334.9998669832243
  0
ARC
  5
345
330
22
100
AcDbEntity
  8
0
  6
Continuous
 62
     7
100
AcDbCircle
 10
-241.1363220214844
 20
262.3197021484375
 30
0.0
 40
3.893448591232299
100
AcDbArc
 50
117.4941784203562
 51
151.7053427476673
  0
ARC
  5
346
330
22
100
AcDbEntity
  8
0
  6
Continuous
 62
     7
100
AcDbCircle
 10
-266.6002807617188
 20
262.3197021484375
 30
0.0
 40
3.893448591232299
100
AcDbArc
 50
117.4941784203562
 51
151.7052363105
  0
LWPOLYLINE
  5
347
330
22
100
AcDbEntity
  8
0
  6
Continuous
 62
     7
100
AcDbPolyline
 90
       17
 70
     0
 43
0.0
 10
-296.3278503417969
 20
353.3036804199219
 42
0.0491268497694673
 10
-296.6973696603369
 20
353.2028031420389
 42
0.0491268497694673
 10
-297.0526885586942
 20
352.9040479656061
 42
0.0491268497694673
 10
-297.3801523308702
 20
352.4188958845102
 42
0.0491268497694673
 10
-297.6671767277437
 20
351.7659910211512
 42
0.0491268497694673
 10
-297.9027315627082
 20
350.9704241432749
 42
0.0491268497694673
 10
-298.0777645955566
 20
350.0627684398387
 42
0.0491268497694673
 10
-298.1855494049963
 20
349.0779046105066
 42
0.0491268497694673
 10
-298.2219438812469
 20
348.0536804199219
 42
0.0491268497694673
 10
-298.1855494049963
 20
347.0294562293371
 42
0.0491268497694673
 10
-298.0777645955566
 20
346.0445924000051
 42
0.0491268497694673
 10
-297.9027315627082
 20
345.1369366965689
 42
0.0491268497694673
 10
-297.6671767277435
 20
344.3413698186924
 42
0.0491268497694673
 10
-297.38015233087
 20
343.6884649553335
 42
0.0491268497694673
 10
-297.0526885586941
 20
343.2033128742376
 42
0.0491268497694673
 10
-296.6973696603368
 20
342.9045576978049
 42
0.0491268497694673
 10
-296.3278503417968
 20
342.8036804199219
 42
-1.0
  0
TEXT
  5
35A
330
22
100
AcDbEntity
  8
0
  6
Continuous
 62
     7
100
AcDbText
 10
-234.0295038223267
 20
165.8001251220703
 30
0.0
 40
7.0
  1
ＤＬ－ＳＵＣ－６５
 41
0.8448610808647003
100
AcDbText
  0
TEXT
  5
35B
330
22
100
AcDbEntity
  8
0
  6
Continuous
 62
     7
100
AcDbText
 10
-562.3399286270141
 20
363.4527282714844
 30
0.0
 40
7.0
  1
　全　開　時　　
 41
0.8454512837995997
100
AcDbText
  0
LINE
  5
35C
330
22
100
AcDbEntity
  8
0
  6
Continuous
 62
     7
100
AcDbLine
 10
-563.3385953903196
 20
361.7027282714844
 30
0.0
 11
-563.3385953903196
 21
372.2027282714844
 31
0.0
  0
LINE
  5
35D
330
22
100
AcDbEntity
  8
0
  6
Continuous
 62
     7
100
AcDbLine
 10
-507.4132566452026
 20
361.7027282714844
 30
0.0
 11
-507.4132566452026
 21
372.2027282714844
 31
0.0
  0
LINE
  5
35E
330
22
100
AcDbEntity
  8
0
  6
Continuous
 62
     7
100
AcDbLine
 10
-563.3385953903196
 20
361.7027282714844
 30
0.0
 11
-507.4132566452026
 21
361.7027282714844
 31
0.0
  0
LINE
  5
35F
330
22
100
AcDbEntity
  8
0
  6
Continuous
 62
     7
100
AcDbLine
 10
-563.3385953903196
 20
372.2027282714844
 30
0.0
 11
-507.4132566452026
 21
372.2027282714844
 31
0.0
  0
TEXT
  5
360
330
22
100
AcDbEntity
  8
0
  6
Continuous
 62
     7
100
AcDbText
 10
-562.3399286270141
 20
173.4527282714844
 30
0.0
 40
7.0
  1
　全　閉　時　　
 41
0.8454512837995997
100
AcDbText
  0
LINE
  5
361
330
22
100
AcDbEntity
  8
0
  6
Continuous
 62
     7
100
AcDbLine
 10
-563.3385953903196
 20
171.7027282714844
 30
0.0
 11
-563.3385953903196
 21
182.2027282714844
 31
0.0
  0
LINE
  5
362
330
22
100
AcDbEntity
  8
0
  6
Continuous
 62
     7
100
AcDbLine
 10
-507.4132566452026
 20
171.7027282714844
 30
0.0
 11
-507.4132566452026
 21
182.2027282714844
 31
0.0
  0
LINE
  5
363
330
22
100
AcDbEntity
  8
0
  6
Continuous
 62
     7
100
AcDbLine
 10
-563.3385953903196
 20
171.7027282714844
 30
0.0
 11
-507.4132566452026
 21
171.7027282714844
 31
0.0
  0
LINE
  5
364
330
22
100
AcDbEntity
  8
0
  6
Continuous
 62
     7
100
AcDbLine
 10
-563.3385953903196
 20
182.2027282714844
 30
0.0
 11
-507.4132566452026
 21
182.2027282714844
 31
0.0
  0
INSERT
  5
365
330
22
100
AcDbEntity
  8
0
  6
Continuous
 62
     7
100
AcDbBlockReference
  2
KOZU0001
 10
-125.5061721801758
 20
330.5650329589844
 30
0.0
  0
DIMENSION
  5
366
330
22
100
AcDbEntity
  8
0
  6
Continuous
 62
     7
100
AcDbDimension
  2
*D1
 10
-145.4337768554688
 20
399.7996215820313
 30
0.0
 11
-133.3388977050781
 21
399.7996215820313
 31
0.0
 71
     5
 42
-1.0
  3
DIMSTYLE1
100
AcDbAlignedDimension
 13
-148.9337768554688
 23
411.5522766113281
 33
0.0
 14
-145.4337768554688
 24
383.8679504394531
 34
0.0
100
AcDbRotatedDimension
  0
DIMENSION
  5
367
330
22
100
AcDbEntity
  8
0
  6
Continuous
 62
     7
100
AcDbDimension
  2
*D2
 10
-491.6544352071806
 20
224.0781104890019
 30
0.0
 11
-360.1748046875
 21
378.5123291015625
 31
0.0
 70
     3
 71
     5
 42
-1.0
  3
DIMSTYLE2
100
AcDbDiametricDimension
 15
-373.6727742654757
 25
362.6577903899044
 35
0.0
 40
0.0
  0
DIMENSION
  5
368
330
22
100
AcDbEntity
  8
0
  6
Continuous
 62
     7
100
AcDbDimension
  2
*D3
 10
-500.1559298912511
 20
254.0205603380279
 30
0.0
 11
-335.20654296875
 21
350.3902587890625
 31
0.0
 70
     3
 71
     5
 42
-1.0
  3
DIMSTYLE3
100
AcDbDiametricDimension
 15
-365.4594875892176
 25
332.7153405408783
 35
0.0
 40
0.0
  0
DIMENSION
  5
369
330
22
100
AcDbEntity
  8
0
  6
Continuous
 62
     7
100
AcDbDimension
  2
*D4
 10
-495.3598836943109
 20
274.624530071917
 30
0.0
 11
-325.7768249511719
 21
325.4391479492188
 31
0.0
 70
     3
 71
     5
 42
-1.0
  3
DIMSTYLE4
100
AcDbDiametricDimension
 15
-370.2555337861577
 25
312.1113708069893
 35
0.0
 40
0.0
  0
DIMENSION
  5
36A
330
22
100
AcDbEntity
  8
0
  6
Continuous
 62
     7
100
AcDbDimension
  2
*D5
 10
-148.9337768554688
 20
399.7996215820313
 30
0.0
 11
-222.4337768554689
 21
399.7996215820313
 31
0.0
 71
     5
 42
-1.0
  3
DIMSTYLE5
100
AcDbAlignedDimension
 13
-295.9337768554688
 23
370.8679504394531
 33
0.0
 14
-148.9337768554688
 24
382.3679504394531
 34
0.0
100
AcDbRotatedDimension
  0
DIMENSION
  5
36B
330
22
100
AcDbEntity
  8
0
  6
Continuous
 62
     7
100
AcDbDimension
  2
*D6
 10
-180.9337768554688
 20
391.3061828613281
 30
0.0
 11
-164.9337768554688
 21
391.3061828613281
 31
0.0
 71
     5
 42
-1.0
  3
DIMSTYLE6
100
AcDbAlignedDimension
 13
-148.9337768554688
 23
382.3679504394531
 33
0.0
 14
-180.9337768554688
 24
333.3679504394531
 34
0.0
100
AcDbRotatedDimension
  0
DIMENSION
  5
36C
330
22
100
AcDbEntity
  8
0
  6
Continuous
 62
     7
100
AcDbDimension
  2
*D7
 10
-242.9337768554688
 20
391.3061828613281
 30
0.0
 11
-269.4337768554688
 21
391.3061828613281
 31
0.0
 71
     5
 42
-1.0
  3
DIMSTYLE7
100
AcDbAlignedDimension
 13
-295.9337768554688
 23
402.0856323242187
 33
0.0
 14
-242.9337768554688
 24
333.8679504394531
 34
0.0
100
AcDbRotatedDimension
  0
DIMENSION
  5
36D
330
22
100
AcDbEntity
  8
0
  6
Continuous
 62
     7
100
AcDbDimension
  2
*D8
 10
-79.06874847412109
 20
334.8679504394531
 30
0.0
 11
-79.06874847412109
 21
293.3679504394531
 31
0.0
 71
     5
 42
-1.0
  3
DIMSTYLE8
100
AcDbAlignedDimension
 13
-113.9337692260742
 23
251.8679351806641
 33
0.0
 14
-113.9337692260742
 24
334.8679504394531
 34
0.0
 50
90.0
100
AcDbRotatedDimension
  0
DIMENSION
  5
36E
330
22
100
AcDbEntity
  8
0
  6
Continuous
 62
     7
100
AcDbDimension
  2
*D9
 10
-260.9337768554688
 20
302.3562316894531
 30
0.0
 11
-210.9337768554688
 21
302.3562316894531
 31
0.0
 71
     5
 42
-1.0
  3
DIMSTYLE9
100
AcDbAlignedDimension
 13
-160.9337768554688
 23
293.3679504394531
 33
0.0
 14
-260.9337768554688
 24
293.3679504394531
 34
0.0
100
AcDbRotatedDimension
  0
DIMENSION
  5
36F
330
22
100
AcDbEntity
  8
0
  6
Continuous
 62
     7
100
AcDbDimension
  2
*D10
 10
-210.9337768554688
 20
312.7971496582031
 30
0.0
 11
-185.9337768554688
 21
312.7971496582031
 31
0.0
 71
     5
 42
-1.0
  3
DIMSTYLE10
100
AcDbAlignedDimension
 13
-160.9337768554688
 23
329.4829406738281
 33
0.0
 14
-210.9337768554688
 24
329.4829406738281
 34
0.0
100
AcDbRotatedDimension
  0
DIMENSION
  5
370
330
22
100
AcDbEntity
  8
0
  6
Continuous
 62
     7
100
AcDbDimension
  2
*D11
 10
-112.9337692260742
 20
189.1499176025391
 30
0.0
 11
-146.9337768554688
 21
189.1499176025391
 31
0.0
 71
     5
 42
-1.0
  3
DIMSTYLE11
100
AcDbAlignedDimension
 13
-180.9337768554688
 23
253.3679351806641
 33
0.0
 14
-112.9337692260742
 24
252.8679351806641
 34
0.0
100
AcDbRotatedDimension
  0
DIMENSION
  5
371
330
22
100
AcDbEntity
  8
0
  6
Continuous
 62
     7
100
AcDbDimension
  2
*D12
 10
-117.5782928466797
 20
235.8679351806641
 30
0.0
 11
-117.5782928466797
 21
243.8679351806641
 31
0.0
 71
     5
 42
-1.0
  3
DIMSTYLE12
100
AcDbAlignedDimension
 13
-113.9337692260742
 23
251.8679351806641
 33
0.0
 14
-143.9328002929688
 24
235.8679351806641
 34
0.0
 50
90.0
100
AcDbRotatedDimension
  0
DIMENSION
  5
372
330
22
100
AcDbEntity
  8
0
  6
Continuous
 62
     7
100
AcDbDimension
  2
*D13
 10
-127.4337692260742
 20
225.1356506347656
 30
0.0
 11
-136.4337768554688
 21
225.1356506347656
 31
0.0
 71
     5
 42
-1.0
  3
DIMSTYLE13
100
AcDbAlignedDimension
 13
-145.4337768554688
 23
246.8679351806641
 33
0.0
 14
-127.4337692260742
 24
249.8679351806641
 34
0.0
100
AcDbRotatedDimension
  0
INSERT
  5
373
330
22
100
AcDbEntity
  8
0
  6
Continuous
 62
     7
100
AcDbBlockReference
  2
KOZU0002
 10
-138.6317901611328
 20
247.8609008789063
 30
0.0
  0
ENDSEC
  0
SECTION
  2
OBJECTS
  0
DICTIONARY
  5
C
330
0
100
AcDbDictionary
281
     1
  3
ACAD_COLOR
350
1B
  3
ACAD_GROUP
350
D
  3
ACAD_LAYOUT
350
19
  3
ACAD_MATERIAL
350
1A
  3
ACAD_MLINESTYLE
350
16
  3
ACAD_PLOTSETTINGS
350
18
  3
ACAD_PLOTSTYLENAME
350
E
  3
ACAD_TABLESTYLE
350
1C
  3
AcDbVariableDictionary
350
387
  0
DICTIONARY
  5
1B
102
{ACAD_REACTORS
330
C
102
}
330
C
100
AcDbDictionary
281
     1
  0
DICTIONARY
  5
D
102
{ACAD_REACTORS
330
C
102
}
330
C
100
AcDbDictionary
281
     1
  0
DICTIONARY
  5
19
102
{ACAD_REACTORS
330
C
102
}
330
C
100
AcDbDictionary
281
     1
  3
Model
350
25
  3
レイアウト1
350
21
  0
DICTIONARY
  5
1A
102
{ACAD_REACTORS
330
C
102
}
330
C
100
AcDbDictionary
281
     1
  0
DICTIONARY
  5
16
102
{ACAD_REACTORS
330
C
102
}
330
C
100
AcDbDictionary
281
     1
  3
Standard
350
17
  0
DICTIONARY
  5
18
102
{ACAD_REACTORS
330
C
102
}
330
C
100
AcDbDictionary
281
     1
  0
ACDBDICTIONARYWDFLT
  5
E
102
{ACAD_REACTORS
330
C
102
}
330
C
100
AcDbDictionary
281
     1
  3
Normal
350
F
100
AcDbDictionaryWithDefault
340
F
  0
DICTIONARY
  5
1C
102
{ACAD_REACTORS
330
C
102
}
330
C
100
AcDbDictionary
281
     1
  3
Standard
350
1D
  0
DICTIONARY
  5
387
102
{ACAD_REACTORS
330
C
102
}
330
C
100
AcDbDictionary
281
     1
  3
CTABLESTYLE
350
388
  0
LAYOUT
  5
25
102
{ACAD_REACTORS
330
19
102
}
330
19
100
AcDbPlotSettings
  1

  2
PDF reDirect v2
  4
User66
  6

 40
3.174999952316284
 41
3.174999952316284
 42
3.17498779296875
 43
3.17498779296875
 44
420.0
 45
594.0
 46
0.0
 47
0.0
 48
0.0
 49
0.0
140
0.0
141
0.0
142
1.0
143
1.0
 70
 11952
 72
     1
 73
     1
 74
     2
  7
C:\Users\ck\AppData\Roaming\Autodesk\AutoCAD 2005\R16.1\jpn\Plot Styles\black.ctb
 75
    16
147
1.0
 76
     0
 77
     2
 78
   300
148
592.0
149
0.0
100
AcDbLayout
  1
Model
 70
     1
 71
     0
 10
0.0
 20
0.0
 11
12.0
 21
9.0
 12
0.0
 22
0.0
 32
0.0
 14
0.0
 24
0.0
 34
0.0
 15
0.0
 25
0.0
 35
0.0
146
0.0
 13
0.0
 23
0.0
 33
0.0
 16
1.0
 26
0.0
 36
0.0
 17
0.0
 27
1.0
 37
0.0
 76
     0
330
22
1001
ACAD_PSEXT
1000
PDF reDirect v2
1000
PDF reDirect Pro
1000
PDF_REDIRECT_PORT:
1000
PDF reDirect provided by EXP Systems
1070
     0
  0
LAYOUT
  5
21
102
{ACAD_REACTORS
330
19
102
}
330
19
100
AcDbPlotSettings
  1

  2
PDF reDirect v2
  4

  6

 40
0.0
 41
0.0
 42
0.0
 43
0.0
 44
0.0
 45
0.0
 46
0.0
 47
0.0
 48
0.0
 49
0.0
140
0.0
141
0.0
142
1.0
143
1.0
 70
   688
 72
     0
 73
     0
 74
     5
  7
C:\Users\ck\AppData\Roaming\Autodesk\AutoCAD 2005\R16.1\jpn\Plot Styles\black.ctb
 75
    16
147
1.0
 76
     0
 77
     2
 78
   300
148
0.0
149
0.0
100
AcDbLayout
  1
レイアウト1
 70
     1
 71
     1
 10
-592.0
 20
0.0
 11
0.0
 21
418.0
 12
0.0
 22
0.0
 32
0.0
 14
1.000000000000000E+20
 24
1.000000000000000E+20
 34
1.000000000000000E+20
 15
-1.000000000000000E+20
 25
-1.000000000000000E+20
 35
-1.000000000000000E+20
146
0.0
 13
0.0
 23
0.0
 33
0.0
 16
1.0
 26
0.0
 36
0.0
 17
0.0
 27
1.0
 37
0.0
 76
     0
330
1E
  0
MLINESTYLE
  5
17
102
{ACAD_REACTORS
330
16
102
}
330
16
100
AcDbMlineStyle
  2
STANDARD
 70
     0
  3

 62
   256
 51
90.0
 52
90.0
 71
     2
 49
0.5
 62
   256
  6
BYLAYER
 49
-0.5
 62
   256
  6
BYLAYER
  0
ACDBPLACEHOLDER
  5
F
102
{ACAD_REACTORS
330
E
102
}
330
E
  0
TABLESTYLE
  5
1D
102
{ACAD_REACTORS
330
1C
102
}
330
1C
100
AcDbTableStyle
  3
Standard
 70
     0
 71
     0
 40
0.06
 41
0.06
280
     0
281
     0
  7
STANDARD
140
0.18
170
     2
 62
     0
 63
     7
283
     0
274
    -2
284
     1
 64
     0
275
    -2
285
     1
 65
     0
276
    -2
286
     1
 66
     0
277
    -2
287
     1
 67
     0
278
    -2
288
     1
 68
     0
279
    -2
289
     1
 69
     0
  7
STANDARD
140
0.25
170
     5
 62
     0
 63
     7
283
     0
274
    -2
284
     1
 64
     0
275
    -2
285
     1
 65
     0
276
    -2
286
     1
 66
     0
277
    -2
287
     1
 67
     0
278
    -2
288
     1
 68
     0
279
    -2
289
     1
 69
     0
  7
STANDARD
140
0.18
170
     5
 62
     0
 63
     7
283
     0
274
    -2
284
     1
 64
     0
275
    -2
285
     1
 65
     0
276
    -2
286
     1
 66
     0
277
    -2
287
     1
 67
     0
278
    -2
288
     1
 68
     0
279
    -2
289
     1
 69
     0
  0
DICTIONARYVAR
  5
388
102
{ACAD_REACTORS
330
387
102
}
330
387
100
DictionaryVariables
280
     0
  1
STANDARD
  0
ENDSEC
  0
EOF
