  0
SECTION
  2
HEADER
  9
$ACADVER
  1
AC1018
  9
$ACADMAINTVER
 70
    39
  9
$DWGCODEPAGE
  3
ANSI_932
  9
$INSBASE
 10
0.0
 20
0.0
 30
0.0
  9
$EXTMIN
 10
-350.7799366868332
 20
53.13244704009548
 30
-0.0015258207003583
  9
$EXTMAX
 10
-44.88272002046301
 20
243.6517798042062
 30
0.0000000349246037
  9
$LIMMIN
 10
-423.0
 20
-2.0
  9
$LIMMAX
 10
-5.0
 20
293.0
  9
$ORTHOMODE
 70
     0
  9
$REGENMODE
 70
     1
  9
$FILLMODE
 70
     1
  9
$QTEXTMODE
 70
     0
  9
$MIRRTEXT
 70
     0
  9
$LTSCALE
 40
1.0
  9
$ATTMODE
 70
     1
  9
$TEXTSIZE
 40
0.2
  9
$TRACEWID
 40
0.05
  9
$TEXTSTYLE
  7
STANDARD
  9
$CLAYER
  8
0
  9
$CELTYPE
  6
CONTINUOUS
  9
$CECOLOR
 62
   256
  9
$CELTSCALE
 40
1.0
  9
$DISPSILH
 70
     0
  9
$DIMSCALE
 40
1.0
  9
$DIMASZ
 40
1.0
  9
$DIMEXO
 40
2.54
  9
$DIMDLI
 40
0.38
  9
$DIMRND
 40
0.0
  9
$DIMDLE
 40
0.0
  9
$DIMEXE
 40
2.54
  9
$DIMTP
 40
0.0
  9
$DIMTM
 40
0.0
  9
$DIMTXT
 40
3.0
  9
$DIMCEN
 40
0.09
  9
$DIMTSZ
 40
0.0
  9
$DIMTOL
 70
     0
  9
$DIMLIM
 70
     0
  9
$DIMTIH
 70
     0
  9
$DIMTOH
 70
     0
  9
$DIMSE1
 70
     0
  9
$DIMSE2
 70
     0
  9
$DIMTAD
 70
     1
  9
$DIMZIN
 70
     0
  9
$DIMBLK
  1

  9
$DIMASO
 70
     1
  9
$DIMSHO
 70
     0
  9
$DIMPOST
  1

  9
$DIMAPOST
  1

  9
$DIMALT
 70
     0
  9
$DIMALTD
 70
     2
  9
$DIMALTF
 40
25.4
  9
$DIMLFAC
 40
1.0
  9
$DIMTOFL
 70
     0
  9
$DIMTVP
 40
1.0
  9
$DIMTIX
 70
     0
  9
$DIMSOXD
 70
     0
  9
$DIMSAH
 70
     1
  9
$DIMBLK1
  1

  9
$DIMBLK2
  1

  9
$DIMSTYLE
  2
DIMSTYLE1
  9
$DIMCLRD
 70
     0
  9
$DIMCLRE
 70
     0
  9
$DIMCLRT
 70
     0
  9
$DIMTFAC
 40
1.0
  9
$DIMGAP
 40
1.5
  9
$DIMJUST
 70
     0
  9
$DIMSD1
 70
     0
  9
$DIMSD2
 70
     0
  9
$DIMTOLJ
 70
     1
  9
$DIMTZIN
 70
     0
  9
$DIMALTZ
 70
     0
  9
$DIMALTTZ
 70
     0
  9
$DIMUPT
 70
     0
  9
$DIMDEC
 70
     4
  9
$DIMTDEC
 70
     4
  9
$DIMALTU
 70
     2
  9
$DIMALTTD
 70
     2
  9
$DIMTXSTY
  7
STANDARD
  9
$DIMAUNIT
 70
     0
  9
$DIMADEC
 70
     0
  9
$DIMALTRND
 40
0.0
  9
$DIMAZIN
 70
     0
  9
$DIMDSEP
 70
    46
  9
$DIMATFIT
 70
     3
  9
$DIMFRAC
 70
     0
  9
$DIMLDRBLK
  1

  9
$DIMLUNIT
 70
     2
  9
$DIMLWD
 70
    -2
  9
$DIMLWE
 70
    -2
  9
$DIMTMOVE
 70
     0
  9
$LUNITS
 70
     2
  9
$LUPREC
 70
     4
  9
$SKETCHINC
 40
0.1
  9
$FILLETRAD
 40
0.0
  9
$AUNITS
 70
     0
  9
$AUPREC
 70
     0
  9
$MENU
  1
.
  9
$ELEVATION
 40
0.0
  9
$PELEVATION
 40
0.0
  9
$THICKNESS
 40
0.0
  9
$LIMCHECK
 70
     0
  9
$CHAMFERA
 40
0.0
  9
$CHAMFERB
 40
0.0
  9
$CHAMFERC
 40
0.0
  9
$CHAMFERD
 40
0.0
  9
$SKPOLY
 70
     0
  9
$TDCREATE
 40
2457842.591828125
  9
$TDUCREATE
 40
2457842.216828125
  9
$TDUPDATE
 40
2457842.592447002
  9
$TDUUPDATE
 40
2457842.217447002
  9
$TDINDWG
 40
0.0006200347
  9
$TDUSRTIMER
 40
0.0006200347
  9
$USRTIMER
 70
     1
  9
$ANGBASE
 50
0.0
  9
$ANGDIR
 70
     0
  9
$PDMODE
 70
     0
  9
$PDSIZE
 40
0.0
  9
$PLINEWID
 40
0.0
  9
$SPLFRAME
 70
     0
  9
$SPLINETYPE
 70
     6
  9
$SPLINESEGS
 70
     8
  9
$HANDSEED
  5
1A2
  9
$SURFTAB1
 70
     6
  9
$SURFTAB2
 70
     6
  9
$SURFTYPE
 70
     6
  9
$SURFU
 70
     6
  9
$SURFV
 70
     6
  9
$UCSBASE
  2

  9
$UCSNAME
  2

  9
$UCSORG
 10
0.0
 20
0.0
 30
0.0
  9
$UCSXDIR
 10
1.0
 20
0.0
 30
0.0
  9
$UCSYDIR
 10
0.0
 20
1.0
 30
0.0
  9
$UCSORTHOREF
  2

  9
$UCSORTHOVIEW
 70
     0
  9
$UCSORGTOP
 10
0.0
 20
0.0
 30
0.0
  9
$UCSORGBOTTOM
 10
0.0
 20
0.0
 30
0.0
  9
$UCSORGLEFT
 10
0.0
 20
0.0
 30
0.0
  9
$UCSORGRIGHT
 10
0.0
 20
0.0
 30
0.0
  9
$UCSORGFRONT
 10
0.0
 20
0.0
 30
0.0
  9
$UCSORGBACK
 10
0.0
 20
0.0
 30
0.0
  9
$PUCSBASE
  2

  9
$PUCSNAME
  2

  9
$PUCSORG
 10
0.0
 20
0.0
 30
0.0
  9
$PUCSXDIR
 10
1.0
 20
0.0
 30
0.0
  9
$PUCSYDIR
 10
0.0
 20
1.0
 30
0.0
  9
$PUCSORTHOREF
  2

  9
$PUCSORTHOVIEW
 70
     0
  9
$PUCSORGTOP
 10
0.0
 20
0.0
 30
0.0
  9
$PUCSORGBOTTOM
 10
0.0
 20
0.0
 30
0.0
  9
$PUCSORGLEFT
 10
0.0
 20
0.0
 30
0.0
  9
$PUCSORGRIGHT
 10
0.0
 20
0.0
 30
0.0
  9
$PUCSORGFRONT
 10
0.0
 20
0.0
 30
0.0
  9
$PUCSORGBACK
 10
0.0
 20
0.0
 30
0.0
  9
$USERI1
 70
     0
  9
$USERI2
 70
     0
  9
$USERI3
 70
     0
  9
$USERI4
 70
     0
  9
$USERI5
 70
     0
  9
$USERR1
 40
0.0
  9
$USERR2
 40
0.0
  9
$USERR3
 40
0.0
  9
$USERR4
 40
0.0
  9
$USERR5
 40
0.0
  9
$WORLDVIEW
 70
     1
  9
$SHADEDGE
 70
     3
  9
$SHADEDIF
 70
    70
  9
$TILEMODE
 70
     1
  9
$MAXACTVP
 70
    64
  9
$PINSBASE
 10
0.0
 20
0.0
 30
0.0
  9
$PLIMCHECK
 70
     0
  9
$PEXTMIN
 10
1.000000000000000E+20
 20
1.000000000000000E+20
 30
1.000000000000000E+20
  9
$PEXTMAX
 10
-1.000000000000000E+20
 20
-1.000000000000000E+20
 30
-1.000000000000000E+20
  9
$PLIMMIN
 10
-423.0
 20
-2.0
  9
$PLIMMAX
 10
-5.0
 20
293.0
  9
$UNITMODE
 70
     0
  9
$VISRETAIN
 70
     1
  9
$PLINEGEN
 70
     0
  9
$PSLTSCALE
 70
     1
  9
$TREEDEPTH
 70
  3020
  9
$CMLSTYLE
  2
Standard
  9
$CMLJUST
 70
     0
  9
$CMLSCALE
 40
1.0
  9
$PROXYGRAPHICS
 70
     1
  9
$MEASUREMENT
 70
     0
  9
$CELWEIGHT
370
    -1
  9
$ENDCAPS
280
     0
  9
$JOINSTYLE
280
     0
  9
$LWDISPLAY
290
     0
  9
$INSUNITS
 70
     0
  9
$HYPERLINKBASE
  1

  9
$STYLESHEET
  1

  9
$XEDIT
290
     1
  9
$CEPSNTYPE
380
     0
  9
$PSTYLEMODE
290
     1
  9
$FINGERPRINTGUID
  2
{7FDF0987-07FA-4E5A-988E-78AAD7CDB25B}
  9
$VERSIONGUID
  2
{64745C04-9B14-412C-9A60-7314C66C791E}
  9
$EXTNAMES
290
     1
  9
$PSVPSCALE
 40
0.0
  9
$OLESTARTUP
290
     0
  9
$SORTENTS
280
   127
  9
$INDEXCTL
280
     0
  9
$HIDETEXT
280
     0
  9
$XCLIPFRAME
290
     0
  9
$HALOGAP
280
     0
  9
$OBSCOLOR
 70
   257
  9
$OBSLTYPE
280
     0
  9
$INTERSECTIONDISPLAY
280
     0
  9
$INTERSECTIONCOLOR
 70
   257
  9
$DIMASSOC
280
     1
  9
$PROJECTNAME
  1

  0
ENDSEC
  0
SECTION
  2
CLASSES
  0
CLASS
  1
ACDBDICTIONARYWDFLT
  2
AcDbDictionaryWithDefault
  3
ObjectDBX Classes
 90
        0
 91
        1
280
     0
281
     0
  0
CLASS
  1
TABLESTYLE
  2
AcDbTableStyle
  3
ObjectDBX Classes
 90
     2047
 91
        1
280
     0
281
     0
  0
CLASS
  1
DICTIONARYVAR
  2
AcDbDictionaryVar
  3
ObjectDBX Classes
 90
        0
 91
        1
280
     0
281
     0
  0
ENDSEC
  0
SECTION
  2
TABLES
  0
TABLE
  2
VPORT
  5
8
330
0
100
AcDbSymbolTable
 70
     2
  0
VPORT
  5
1A1
330
8
100
AcDbSymbolTableRecord
100
AcDbViewportTableRecord
  2
*Active
 70
     0
 10
0.0
 20
0.0
 11
1.0
 21
1.0
 12
-214.0
 22
145.5
 13
0.0
 23
0.0
 14
1.0
 24
1.0
 15
0.0
 25
0.0
 16
0.0
 26
0.0
 36
1.0
 17
0.0
 27
0.0
 37
0.0
 40
297.3320158102766
 41
1.707124010554089
 42
50.0
 43
0.0
 44
0.0
 50
0.0
 51
0.0
 71
     0
 72
   100
 73
     1
 74
     1
 75
     0
 76
     0
 77
     0
 78
     0
281
     0
 65
     1
110
0.0
120
0.0
130
0.0
111
1.0
121
0.0
131
0.0
112
0.0
122
1.0
132
0.0
 79
     0
146
0.0
  0
ENDTAB
  0
TABLE
  2
LTYPE
  5
5
330
0
100
AcDbSymbolTable
 70
     6
  0
LTYPE
  5
13
330
5
100
AcDbSymbolTableRecord
100
AcDbLinetypeTableRecord
  2
ByBlock
 70
     0
  3

 72
    65
 73
     0
 40
0.0
  0
LTYPE
  5
14
330
5
100
AcDbSymbolTableRecord
100
AcDbLinetypeTableRecord
  2
ByLayer
 70
     0
  3

 72
    65
 73
     0
 40
0.0
  0
LTYPE
  5
15
330
5
100
AcDbSymbolTableRecord
100
AcDbLinetypeTableRecord
  2
CONTINUOUS
 70
     0
  3
Solid line
 72
    65
 73
     0
 40
0.0
  0
LTYPE
  5
26
330
5
100
AcDbSymbolTableRecord
100
AcDbLinetypeTableRecord
  2
DASHED
 70
     0
  3
__ __ __ __ __ __ __ __ __ __ __ __ __ __ __
 72
    65
 73
     2
 40
3.5
 49
2.0
 74
     0
 49
-1.5
 74
     0
  0
LTYPE
  5
27
330
5
100
AcDbSymbolTableRecord
100
AcDbLinetypeTableRecord
  2
CENTER
 70
     0
  3
____ _ ____ _ ____ _ ____ _ ____ _ ____ _ ____
 72
    65
 73
     4
 40
17.5
 49
13.0
 74
     0
 49
-1.5
 74
     0
 49
1.5
 74
     0
 49
-1.5
 74
     0
  0
LTYPE
  5
28
330
5
100
AcDbSymbolTableRecord
100
AcDbLinetypeTableRecord
  2
PHANTOM
 70
     0
  3
_____ _ _ _____ _ _ _____ _ _ _____ _ _ ____  
 72
    65
 73
     6
 40
15.5
 49
8.0
 74
     0
 49
-1.5
 74
     0
 49
1.5
 74
     0
 49
-1.5
 74
     0
 49
1.5
 74
     0
 49
-1.5
 74
     0
  0
LTYPE
  5
29
330
5
100
AcDbSymbolTableRecord
100
AcDbLinetypeTableRecord
  2
DOT
 70
     0
  3
. . . . . . . . . . . . . . . . . . . . . . . .
 72
    65
 73
     2
 40
0.25
 49
0.0
 74
     0
 49
-0.25
 74
     0
  0
LTYPE
  5
2A
330
5
100
AcDbSymbolTableRecord
100
AcDbLinetypeTableRecord
  2
HIDDEN
 70
     0
  3
__ __ __ __ __ __ __ __ __ __ __ __ __ __ __
 72
    65
 73
     2
 40
3.5
 49
2.0
 74
     0
 49
-1.5
 74
     0
  0
ENDTAB
  0
TABLE
  2
LAYER
  5
2
330
0
100
AcDbSymbolTable
 70
     3
  0
LAYER
  5
10
330
2
100
AcDbSymbolTableRecord
100
AcDbLayerTableRecord
  2
0
 70
     0
 62
     7
  6
CONTINUOUS
370
    -3
390
F
  0
LAYER
  5
2B
330
2
100
AcDbSymbolTableRecord
100
AcDbLayerTableRecord
  2
1
 70
     0
 62
     7
  6
CONTINUOUS
370
    -3
390
F
  0
LAYER
  5
2C
330
2
100
AcDbSymbolTableRecord
100
AcDbLayerTableRecord
  2
DEFPOINTS
 70
     0
 62
     7
  6
CONTINUOUS
290
     0
370
    -3
390
F
  0
ENDTAB
  0
TABLE
  2
STYLE
  5
3
330
0
100
AcDbSymbolTable
 70
     2
  0
STYLE
  5
11
330
3
100
AcDbSymbolTableRecord
100
AcDbTextStyleTableRecord
  2
STANDARD
 70
     0
 40
0.0
 41
1.0
 50
0.0
 71
     0
 42
0.2
  3

  4

1001
ACAD
1000
MS Gothic
1071
    32817
  0
ENDTAB
  0
TABLE
  2
VIEW
  5
6
330
0
100
AcDbSymbolTable
 70
     0
  0
ENDTAB
  0
TABLE
  2
UCS
  5
7
330
0
100
AcDbSymbolTable
 70
     0
  0
ENDTAB
  0
TABLE
  2
APPID
  5
9
330
0
100
AcDbSymbolTable
 70
     2
  0
APPID
  5
12
330
9
100
AcDbSymbolTableRecord
100
AcDbRegAppTableRecord
  2
ACAD
 70
     0
  0
APPID
  5
196
330
9
100
AcDbSymbolTableRecord
100
AcDbRegAppTableRecord
  2
ACAD_PSEXT
 70
     0
  0
ENDTAB
  0
TABLE
  2
DIMSTYLE
  5
A
330
0
100
AcDbSymbolTable
 70
     4
100
AcDbDimStyleTable
 71
     1
340
2D
  0
DIMSTYLE
105
2D
102
{ACAD_REACTORS
330
190
102
}
330
A
100
AcDbSymbolTableRecord
100
AcDbDimStyleTableRecord
  2
DIMSTYLE1
 70
     0
 41
1.0
 42
2.54
 44
2.54
 73
     0
 74
     0
 75
     1
 76
     1
 77
     1
140
3.0
145
1.0
147
1.5
172
     1
173
     1
279
     2
340
11
  0
DIMSTYLE
105
2E
102
{ACAD_REACTORS
330
191
102
}
330
A
100
AcDbSymbolTableRecord
100
AcDbDimStyleTableRecord
  2
DIMSTYLE2
 70
     0
 41
1.0
 42
2.54
 44
2.54
 73
     0
 74
     0
 75
     1
 76
     1
 77
     1
140
3.0
145
1.0
147
1.5
172
     1
173
     1
279
     2
340
11
  0
DIMSTYLE
105
2F
102
{ACAD_REACTORS
330
192
102
}
330
A
100
AcDbSymbolTableRecord
100
AcDbDimStyleTableRecord
  2
DIMSTYLE3
 70
     0
 41
1.0
 42
2.54
 44
2.54
 73
     0
 74
     0
 77
     1
140
3.0
145
1.0
147
1.5
172
     1
173
     1
279
     2
340
11
  0
ENDTAB
  0
TABLE
  2
BLOCK_RECORD
  5
1
330
0
100
AcDbSymbolTable
 70
     6
  0
BLOCK_RECORD
  5
22
330
1
100
AcDbSymbolTableRecord
100
AcDbBlockTableRecord
  2
*Model_Space
340
25
  0
BLOCK_RECORD
  5
1E
330
1
100
AcDbSymbolTableRecord
100
AcDbBlockTableRecord
  2
*Paper_Space
340
21
  0
BLOCK_RECORD
  5
33
330
1
100
AcDbSymbolTableRecord
100
AcDbBlockTableRecord
  2
_OPEN30
340
0
102
{BLKREFS
331
3D
331
3E
331
47
331
48
331
50
331
51
102
}
  0
BLOCK_RECORD
  5
39
330
1
100
AcDbSymbolTableRecord
100
AcDbBlockTableRecord
  2
*D1
340
0
  0
BLOCK_RECORD
  5
43
330
1
100
AcDbSymbolTableRecord
100
AcDbBlockTableRecord
  2
*D2
340
0
  0
BLOCK_RECORD
  5
4D
330
1
100
AcDbSymbolTableRecord
100
AcDbBlockTableRecord
  2
*D3
340
0
  0
BLOCK_RECORD
  5
59
330
1
100
AcDbSymbolTableRecord
100
AcDbBlockTableRecord
  2
KOZU0001
340
0
102
{BLKREFS
331
193
102
}
  0
ENDTAB
  0
ENDSEC
  0
SECTION
  2
BLOCKS
  0
BLOCK
  5
23
330
22
100
AcDbEntity
  8
0
100
AcDbBlockBegin
  2
*Model_Space
 70
     0
 10
0.0
 20
0.0
 30
0.0
  3
*Model_Space
  1

  0
ENDBLK
  5
24
330
22
100
AcDbEntity
  8
0
100
AcDbBlockEnd
  0
BLOCK
  5
1F
330
1E
100
AcDbEntity
 67
     1
  8
0
100
AcDbBlockBegin
  2
*Paper_Space
 70
     0
 10
0.0
 20
0.0
 30
0.0
  3
*Paper_Space
  1

  0
ENDBLK
  5
20
330
1E
100
AcDbEntity
 67
     1
  8
0
100
AcDbBlockEnd
  0
BLOCK
  5
34
330
33
100
AcDbEntity
  8
0
100
AcDbBlockBegin
  2
_OPEN30
 70
     0
 10
0.0
 20
0.0
 30
0.0
  3
_OPEN30
  1

  0
LINE
  5
35
330
33
100
AcDbEntity
  8
0
  6
ByBlock
 62
     0
100
AcDbLine
 10
0.0
 20
0.0
 30
0.0
 11
-2.999999999999993
 21
-1.000000000000017
 31
0.0
  0
LINE
  5
36
330
33
100
AcDbEntity
  8
0
  6
ByBlock
 62
     0
100
AcDbLine
 10
0.0
 20
0.0
 30
0.0
 11
-3.000000000000006
 21
0.9999999999999815
 31
0.0
  0
LINE
  5
37
330
33
100
AcDbEntity
  8
0
  6
ByBlock
 62
     0
100
AcDbLine
 10
0.0
 20
0.0
 30
0.0
 11
-3.0
 21
0.0
 31
0.0
  0
ENDBLK
  5
38
330
33
100
AcDbEntity
  8
0
100
AcDbBlockEnd
  0
BLOCK
  5
3A
330
39
100
AcDbEntity
  8
0
100
AcDbBlockBegin
  2
*D1
 70
     1
 10
0.0
 20
0.0
 30
0.0
  3
*D1
  1

  0
LINE
  5
3B
330
39
100
AcDbEntity
  8
0
  6
Continuous
 62
     7
100
AcDbLine
 10
-239.4979095458984
 20
185.6059722900391
 30
0.0
 11
-183.8517303466797
 21
218.1165924072266
 31
0.0
  0
LINE
  5
3C
330
39
100
AcDbEntity
  8
0
  6
Continuous
 62
     7
100
AcDbLine
 10
-324.1149144902398
 20
136.1695043042291
 30
0.0
 11
-242.0882257685493
 21
184.0926111742865
 31
0.0
  0
INSERT
  5
3D
330
39
100
AcDbEntity
  8
0
  6
Continuous
 62
     7
100
AcDbBlockReference
  2
_OPEN30
 10
-326.7052307128906
 20
134.6561431884766
 30
0.0
 50
210.2950948139344
  0
INSERT
  5
3E
330
39
100
AcDbEntity
  8
0
  6
Continuous
 62
     7
100
AcDbBlockReference
  2
_OPEN30
 10
-239.4979095458984
 20
185.6059722900391
 30
0.0
 50
30.29509481393375
  0
TEXT
  5
3F
330
39
100
AcDbEntity
  8
0
  6
Continuous
 62
     7
100
AcDbText
 10
-211.9803509099876
 20
202.5497972318018
 30
0.0
 40
3.0
  1
%%C１０１（目皿受外径）
 50
30.29999981864594
 41
0.8440126077968535
100
AcDbText
  0
POINT
  5
40
330
39
100
AcDbEntity
  8
DEFPOINTS
  6
Continuous
 62
     7
100
AcDbPoint
 10
-326.7052307128906
 20
134.6561431884766
 30
0.0
  0
POINT
  5
41
330
39
100
AcDbEntity
  8
DEFPOINTS
  6
Continuous
 62
     7
100
AcDbPoint
 10
-239.4979095458984
 20
185.6059722900391
 30
0.0
  0
ENDBLK
  5
42
330
39
100
AcDbEntity
  8
0
100
AcDbBlockEnd
  0
BLOCK
  5
44
330
43
100
AcDbEntity
  8
0
100
AcDbBlockBegin
  2
*D2
 70
     1
 10
0.0
 20
0.0
 30
0.0
  3
*D2
  1

  0
LINE
  5
45
330
43
100
AcDbEntity
  8
0
  6
Continuous
 62
     7
100
AcDbLine
 10
-242.6433868408203
 20
172.1865539550781
 30
0.0
 11
-180.9687652587891
 21
190.6670227050781
 31
0.0
  0
LINE
  5
46
330
43
100
AcDbEntity
  8
0
  6
Continuous
 62
     7
100
AcDbLine
 10
-320.2349133301201
 20
148.9366682588171
 30
0.0
 11
-245.5171466064033
 21
171.3254472196985
 31
0.0
  0
INSERT
  5
47
330
43
100
AcDbEntity
  8
0
  6
Continuous
 62
     7
100
AcDbBlockReference
  2
_OPEN30
 10
-323.1086730957031
 20
148.0755615234375
 30
0.0
 50
196.6805633890172
  0
INSERT
  5
48
330
43
100
AcDbEntity
  8
0
  6
Continuous
 62
     7
100
AcDbBlockReference
  2
_OPEN30
 10
-242.6433868408203
 20
172.1865539550781
 30
0.0
 50
16.6805633890166
  0
TEXT
  5
49
330
43
100
AcDbEntity
  8
0
  6
Continuous
 62
     7
100
AcDbText
 10
-206.2230304171292
 20
183.8780309552097
 30
0.0
 40
3.0
  1
%%C８４（目皿外径）
 50
16.70000035088335
 41
0.8448610247221777
100
AcDbText
  0
POINT
  5
4A
330
43
100
AcDbEntity
  8
DEFPOINTS
  6
Continuous
 62
     7
100
AcDbPoint
 10
-323.1086730957031
 20
148.0755615234375
 30
0.0
  0
POINT
  5
4B
330
43
100
AcDbEntity
  8
DEFPOINTS
  6
Continuous
 62
     7
100
AcDbPoint
 10
-242.6433868408203
 20
172.1865539550781
 30
0.0
  0
ENDBLK
  5
4C
330
43
100
AcDbEntity
  8
0
100
AcDbBlockEnd
  0
BLOCK
  5
4E
330
4D
100
AcDbEntity
  8
0
100
AcDbBlockBegin
  2
*D3
 70
     1
 10
0.0
 20
0.0
 30
0.0
  3
*D3
  1

  0
LINE
  5
4F
330
4D
100
AcDbEntity
  8
0
  6
Continuous
 62
     7
100
AcDbLine
 10
-138.1461944580077
 20
239.5487213134766
 30
0.0
 11
-99.14618682861329
 21
239.5487213134765
 31
0.0
  0
INSERT
  5
50
330
4D
100
AcDbEntity
  8
0
  6
Continuous
 62
     7
100
AcDbBlockReference
  2
_OPEN30
 10
-141.1461944580078
 20
239.5487213134766
 30
0.0
 50
180.0000000000004
  0
INSERT
  5
51
330
4D
100
AcDbEntity
  8
0
  6
Continuous
 62
     7
100
AcDbBlockReference
  2
_OPEN30
 10
-96.14618682861328
 20
239.5487213134766
 30
0.0
  0
LINE
  5
52
330
4D
100
AcDbEntity
  8
0
  6
Continuous
 62
     7
100
AcDbLine
 10
-141.1461944580078
 20
212.6710577392578
 30
0.0
 11
-141.1461944580078
 21
241.8347320556641
 31
0.0
  0
LINE
  5
53
330
4D
100
AcDbEntity
  8
0
  6
Continuous
 62
     7
100
AcDbLine
 10
-96.1461868286133
 20
190.1710577392578
 30
0.0
 11
-96.14618682861328
 21
241.8347320556641
 31
0.0
  0
TEXT
  5
54
330
4D
100
AcDbEntity
  8
0
  6
Continuous
 62
     7
100
AcDbText
 10
-121.21618694067
 20
240.2987213134766
 30
0.0
 40
3.0
  1
45
 41
1.028000020980834
100
AcDbText
  0
POINT
  5
55
330
4D
100
AcDbEntity
  8
DEFPOINTS
  6
Continuous
 62
     7
100
AcDbPoint
 10
-141.1461944580078
 20
210.1310577392578
 30
0.0
  0
POINT
  5
56
330
4D
100
AcDbEntity
  8
DEFPOINTS
  6
Continuous
 62
     7
100
AcDbPoint
 10
-96.14618682861328
 20
187.6310577392578
 30
0.0
  0
POINT
  5
57
330
4D
100
AcDbEntity
  8
DEFPOINTS
  6
Continuous
 62
     7
100
AcDbPoint
 10
-96.14618682861328
 20
239.5487213134766
 30
0.0
  0
ENDBLK
  5
58
330
4D
100
AcDbEntity
  8
0
100
AcDbBlockEnd
  0
BLOCK
  5
5A
330
59
100
AcDbEntity
  8
0
100
AcDbBlockBegin
  2
KOZU0001
 70
     0
 10
0.0
 20
0.0
 30
0.0
  3
KOZU0001
  1

  0
LINE
  5
5B
330
59
100
AcDbEntity
  8
0
  6
Continuous
 62
     7
100
AcDbLine
 10
0.0
 20
0.0
 30
0.0
 11
13.89918518066406
 21
-10.21037292480469
 31
0.0
  0
LINE
  5
5C
330
59
100
AcDbEntity
  8
0
  6
Continuous
 62
     7
100
AcDbLine
 10
13.89918518066406
 20
-10.21037292480469
 30
0.0
 11
54.69699478149414
 21
-10.21037292480469
 31
0.0
  0
LINE
  5
5D
330
59
100
AcDbEntity
  8
0
  6
Continuous
 62
     7
100
AcDbLine
 10
0.0
 20
0.0
 30
0.0
 11
3.009779602514481
 21
-0.9701684102710078
 31
0.0
  0
LINE
  5
5E
330
59
100
AcDbEntity
  8
0
  6
Continuous
 62
     7
100
AcDbLine
 10
0.0
 20
0.0
 30
0.0
 11
1.825722635848979
 21
-2.582002489725494
 31
0.0
  0
TEXT
  5
5F
330
59
100
AcDbEntity
  8
0
  6
Continuous
 62
     7
100
AcDbText
 10
17.83699727058411
 20
-9.460372924804687
 30
0.0
 40
3.0
  1
配管接続口
 41
0.8487395020950888
100
AcDbText
  0
TEXT
  5
60
330
59
100
AcDbEntity
  8
0
  6
Continuous
 62
     7
100
AcDbText
 10
17.83699727058411
 20
-14.72537292480469
 30
0.0
 40
3.0
  1
Ｒｃ１　１／２（４０Ａ）
 41
0.8436974815103043
100
AcDbText
  0
ENDBLK
  5
61
330
59
100
AcDbEntity
  8
0
100
AcDbBlockEnd
  0
ENDSEC
  0
SECTION
  2
ENTITIES
  0
LINE
  5
62
330
22
100
AcDbEntity
  8
0
  6
Continuous
 62
     7
100
AcDbLine
 10
-135.9371185302734
 20
204.6597137451172
 30
0.0
 11
-130.1172943115234
 21
198.8398742675781
 31
0.0
  0
LINE
  5
63
330
22
100
AcDbEntity
  8
0
  6
Continuous
 62
     7
100
AcDbLine
 10
-124.0241012573242
 20
190.6253662109375
 30
0.0
 11
-114.8924560546875
 21
181.4937286376953
 31
0.0
  0
LINE
  5
64
330
22
100
AcDbEntity
  8
0
  6
Continuous
 62
     7
100
AcDbLine
 10
-141.1461944580078
 20
207.7474517822266
 30
0.0
 11
-132.27978515625
 21
198.8810577392578
 31
0.0
  0
LINE
  5
65
330
22
100
AcDbEntity
  8
0
  6
Continuous
 62
     7
100
AcDbLine
 10
-123.0581741333008
 20
188.9523315429688
 30
0.0
 11
-115.304801940918
 21
181.1989593505859
 31
0.0
  0
LINE
  5
66
330
22
100
AcDbEntity
  8
0
  6
Continuous
 62
     7
100
AcDbLine
 10
-141.1461944580078
 20
209.8687744140625
 30
0.0
 11
-137.6175384521484
 21
206.3401184082031
 31
0.0
  0
LINE
  5
67
330
22
100
AcDbEntity
  8
0
  6
Continuous
 62
     7
100
AcDbLine
 10
-141.1461944580078
 20
207.0403442382813
 30
0.0
 11
-132.9868927001953
 21
198.8810577392578
 31
0.0
  0
LINE
  5
68
330
22
100
AcDbEntity
  8
0
  6
Continuous
 62
     7
100
AcDbLine
 10
-139.0800476074219
 20
210.6310577392578
 30
0.0
 11
-137.6461944580078
 21
209.1972045898438
 31
0.0
  0
LINE
  5
69
330
22
100
AcDbEntity
  8
0
  6
Continuous
 62
     7
100
AcDbLine
 10
-117.5800399780273
 20
189.1310577392578
 30
0.0
 11
-112.5800399780273
 21
184.1310577392578
 31
0.0
  0
LINE
  5
6A
330
22
100
AcDbEntity
  8
0
  6
Continuous
 62
     7
100
AcDbLine
 10
-126.921875
 20
195.6444702148438
 30
0.0
 11
-114.6461868286133
 21
183.3687744140625
 31
0.0
  0
LINE
  5
6B
330
22
100
AcDbEntity
  8
0
  6
Continuous
 62
     7
100
AcDbLine
 10
-133.0800476074219
 20
204.6310577392578
 30
0.0
 11
-122.5894241333008
 21
194.1404418945313
 31
0.0
  0
LINE
  5
6C
330
22
100
AcDbEntity
  8
0
  6
Continuous
 62
     7
100
AcDbLine
 10
-138.3729400634766
 20
210.6310577392578
 30
0.0
 11
-137.6461944580078
 21
209.9043121337891
 31
0.0
  0
LINE
  5
6D
330
22
100
AcDbEntity
  8
0
  6
Continuous
 62
     7
100
AcDbLine
 10
-132.3729400634766
 20
204.6310577392578
 30
0.0
 11
-123.5553512573242
 21
195.8134765625
 31
0.0
  0
LINE
  5
6E
330
22
100
AcDbEntity
  8
0
  6
Continuous
 62
     7
100
AcDbLine
 10
-111.9231872558594
 20
189.1310577392578
 30
0.0
 11
-106.499626159668
 21
183.7075042724609
 31
0.0
  0
LINE
  5
6F
330
22
100
AcDbEntity
  8
0
  6
Continuous
 62
     7
100
AcDbLine
 10
-129.3459014892578
 20
204.4324645996094
 30
0.0
 11
-127.419059753418
 21
202.5055999755859
 31
0.0
  0
LINE
  5
70
330
22
100
AcDbEntity
  8
0
  6
Continuous
 62
     7
100
AcDbLine
 10
-114.7516174316406
 20
189.1310577392578
 30
0.0
 11
-109.7516174316406
 21
184.1310577392578
 31
0.0
  0
LINE
  5
71
330
22
100
AcDbEntity
  8
0
  6
Continuous
 62
     7
100
AcDbLine
 10
-130.2482299804688
 20
204.6276702880859
 30
0.0
 11
-126.4531326293945
 21
200.8325805664064
 31
0.0
  0
LINE
  5
72
330
22
100
AcDbEntity
  8
0
  6
Continuous
 62
     7
100
AcDbLine
 10
-114.0445098876953
 20
189.1310577392578
 30
0.0
 11
-109.0445098876953
 21
184.1310577392578
 31
0.0
  0
LINE
  5
73
330
22
100
AcDbEntity
  8
0
  6
Continuous
 62
     7
100
AcDbLine
 10
-116.8729400634766
 20
189.1310577392578
 30
0.0
 11
-111.8729400634766
 21
184.1310577392578
 31
0.0
  0
LINE
  5
74
330
22
100
AcDbEntity
  8
0
  6
Continuous
 62
     7
100
AcDbLine
 10
-109.0947647094727
 20
189.1310577392578
 30
0.0
 11
-103.7569122314453
 21
183.793212890625
 31
0.0
  0
LINE
  5
75
330
22
100
AcDbEntity
  8
0
  6
Continuous
 62
     7
100
AcDbLine
 10
-108.3876571655273
 20
189.1310577392578
 30
0.0
 11
-103.0712356567383
 21
183.8146362304688
 31
0.0
  0
LINE
  5
76
330
22
100
AcDbEntity
  8
0
  6
Continuous
 62
     7
100
AcDbLine
 10
-111.2160797119141
 20
189.1310577392578
 30
0.0
 11
-105.8139495849609
 21
183.7289276123047
 31
0.0
  0
LINE
  5
77
330
22
100
AcDbEntity
  8
0
  6
Continuous
 62
     7
100
AcDbLine
 10
-105.5592269897461
 20
189.1310577392578
 30
0.0
 11
-100.3285217285156
 21
183.9003601074219
 31
0.0
  0
LINE
  5
78
330
22
100
AcDbEntity
  8
0
  6
Continuous
 62
     7
100
AcDbLine
 10
-106.2663345336914
 20
189.1310577392578
 30
0.0
 11
-101.0141983032227
 21
183.8789215087891
 31
0.0
  0
LINE
  5
79
330
22
100
AcDbEntity
  8
0
  6
Continuous
 62
     7
100
AcDbLine
 10
-103.4379043579102
 20
189.1310577392578
 30
0.0
 11
-98.27149200439452
 21
183.9646453857422
 31
0.0
  0
LINE
  5
7A
330
22
100
AcDbEntity
  8
0
  6
Continuous
 62
     7
100
AcDbLine
 10
-108.1461868286133
 20
183.6310577392578
 30
0.0
 11
-108.6461868286133
 21
184.1310577392578
 31
0.0
  0
LINE
  5
7B
330
22
100
AcDbEntity
  8
0
  6
Continuous
 62
     7
100
AcDbLine
 10
-96.68565368652345
 20
188.0356597900391
 30
0.0
 11
-96.14618682861328
 21
187.4962005615234
 31
0.0
  0
LINE
  5
7C
330
22
100
AcDbEntity
  8
0
  6
Continuous
 62
     7
100
AcDbLine
 10
-99.90237426757813
 20
189.1310577392578
 30
0.0
 11
-96.14618682861328
 21
185.3748779296875
 31
0.0
  0
LINE
  5
7D
330
22
100
AcDbEntity
  8
0
  6
Continuous
 62
     7
100
AcDbLine
 10
-100.6094818115234
 20
189.1310577392578
 30
0.0
 11
-96.14618682861328
 21
184.6677703857421
 31
0.0
  0
LINE
  5
7E
330
22
100
AcDbEntity
  8
0
  6
Continuous
 62
     7
100
AcDbLine
 10
-98.14618682861329
 20
189.1310577392578
 30
0.0
 11
-119.6972579956055
 21
189.1310577392578
 31
0.0
  0
LINE
  5
7F
330
22
100
AcDbEntity
  8
0
  6
Continuous
 62
     7
100
AcDbLine
 10
-102.7308044433594
 20
189.1310577392578
 30
0.0
 11
-97.58580780029296
 21
183.9860687255859
 31
0.0
  0
LINE
  5
80
330
22
100
AcDbEntity
  8
0
  6
Continuous
 62
     7
100
AcDbLine
 10
-108.6461868286133
 20
184.1310577392578
 30
0.0
 11
-114.1461868286133
 21
184.1310577392578
 31
0.0
  0
LINE
  5
81
330
22
100
AcDbEntity
  8
0
  6
Continuous
 62
     7
100
AcDbLine
 10
-108.17041015625
 20
183.6552886962891
 30
0.0
 11
-96.14618682861328
 21
184.0310668945313
 31
0.0
  0
LINE
  5
82
330
22
100
AcDbEntity
  8
0
  6
Continuous
 62
     7
100
AcDbLine
 10
-96.14618682861328
 20
142.6466369628906
 30
0.0
 11
-117.3211212158203
 21
142.6466369628906
 31
0.0
  0
LINE
  5
83
330
22
100
AcDbEntity
  8
0
  6
Continuous
 62
     7
100
AcDbLine
 10
-96.14618682861328
 20
138.8927307128906
 30
0.0
 11
-117.4440155029297
 21
138.8927307128906
 31
0.0
  0
LINE
  5
84
330
22
100
AcDbEntity
  8
0
  6
Continuous
 62
     7
100
AcDbLine
 10
-97.69533538818359
 20
160.1310577392578
 30
0.0
 11
-97.69533538818359
 21
182.4819183349609
 31
0.0
  0
LINE
  5
85
330
22
100
AcDbEntity
  8
0
  6
CENTER
 62
     7
100
AcDbLine
 10
-150.0614166259766
 20
160.1310577392578
 30
0.0
 11
-90.93743896484376
 21
160.1310577392578
 31
0.0
  0
LINE
  5
86
330
22
100
AcDbEntity
  8
0
  6
Continuous
 62
     7
100
AcDbLine
 10
-96.64618682861329
 20
132.8810577392578
 30
0.0
 11
-116.9548416137695
 21
132.8810577392578
 31
0.0
  0
LINE
  5
87
330
22
100
AcDbEntity
  8
0
  6
Continuous
 62
     7
100
AcDbLine
 10
-106.7151565551758
 20
182.2000274658203
 30
0.0
 11
-97.69533538818359
 21
182.4819183349609
 31
0.0
  0
LINE
  5
88
330
22
100
AcDbEntity
  8
0
  6
Continuous
 62
     7
100
AcDbLine
 10
-108.17041015625
 20
183.6552886962891
 30
0.0
 11
-106.7151565551758
 21
182.2000274658203
 31
0.0
  0
LINE
  5
89
330
22
100
AcDbEntity
  8
0
  6
Continuous
 62
     7
100
AcDbLine
 10
-96.64618682861329
 20
132.8810577392578
 30
0.0
 11
-96.14618682861328
 21
133.3810577392578
 31
0.0
  0
LINE
  5
8A
330
22
100
AcDbEntity
  8
0
  6
Continuous
 62
     7
100
AcDbLine
 10
-137.6461944580078
 20
113.6310577392578
 30
0.0
 11
-137.6461944580078
 21
160.1310577392578
 31
0.0
  0
LINE
  5
8B
330
22
100
AcDbEntity
  8
0
  6
Continuous
 62
     7
100
AcDbLine
 10
-119.5529174804688
 20
132.1803741455078
 30
0.0
 11
-119.5529174804688
 21
160.1310577392578
 31
0.0
  0
LINE
  5
8C
330
22
100
AcDbEntity
  8
0
  6
Continuous
 62
     7
100
AcDbLine
 10
-140.7520904541016
 20
196.1925811767578
 30
0.0
 11
-138.2520904541016
 21
193.6925811767578
 31
0.0
  0
LINE
  5
8D
330
22
100
AcDbEntity
  8
0
  6
Continuous
 62
     7
100
AcDbLine
 10
-141.1461944580078
 20
196.1925811767578
 30
0.0
 11
-140.7520904541016
 21
196.1925811767578
 31
0.0
  0
LINE
  5
8E
330
22
100
AcDbEntity
  8
0
  6
Continuous
 62
     7
100
AcDbLine
 10
-138.1461944580077
 20
109.6310577392578
 30
0.0
 11
-140.6461944580078
 21
109.6310577392578
 31
0.0
  0
LINE
  5
8F
330
22
100
AcDbEntity
  8
0
  6
Continuous
 62
     7
100
AcDbLine
 10
-140.6461944580078
 20
109.6310577392578
 30
0.0
 11
-141.1461944580078
 21
110.1310577392578
 31
0.0
  0
LINE
  5
90
330
22
100
AcDbEntity
  8
0
  6
Continuous
 62
     7
100
AcDbLine
 10
-135.6461944580078
 20
115.6310577392578
 30
0.0
 11
-130.3782348632813
 21
115.6310577392578
 31
0.0
  0
LINE
  5
91
330
22
100
AcDbEntity
  8
0
  6
Continuous
 62
     7
100
AcDbLine
 10
-137.6461944580078
 20
110.1310577392578
 30
0.0
 11
-137.6461944580078
 21
113.6310577392578
 31
0.0
  0
LINE
  5
92
330
22
100
AcDbEntity
  8
0
  6
Continuous
 62
     7
100
AcDbLine
 10
-138.1461944580077
 20
109.6310577392578
 30
0.0
 11
-137.6461944580078
 21
110.1310577392578
 31
0.0
  0
LINE
  5
93
330
22
100
AcDbEntity
  8
0
  6
Continuous
 62
     7
100
AcDbLine
 10
-127.780158996582
 20
117.1310577392578
 30
0.0
 11
-119.5529174804688
 21
131.3810577392578
 31
0.0
  0
LINE
  5
94
330
22
100
AcDbEntity
  8
0
  6
CENTER
 62
     7
100
AcDbLine
 10
-350.7583923339844
 20
160.1310577392578
 30
0.0
 11
-215.6768951416016
 21
160.1310577392578
 31
0.0
  0
LINE
  5
95
330
22
100
AcDbEntity
  8
0
  6
Continuous
 62
     7
100
AcDbLine
 10
-96.14618682861328
 20
133.6310577392578
 30
0.0
 11
-96.14618682861328
 21
160.1310577392578
 31
0.0
  0
LINE
  5
96
330
22
100
AcDbEntity
  8
0
  6
Continuous
 62
     7
100
AcDbLine
 10
-96.14618682861328
 20
133.3810577392578
 30
0.0
 11
-96.14618682861328
 21
160.1310577392578
 31
0.0
  0
LINE
  5
97
330
22
100
AcDbEntity
  8
0
  6
Continuous
 62
     7
100
AcDbLine
 10
-141.1461944580078
 20
196.1925811767578
 30
0.0
 11
-141.1461944580078
 21
210.1310577392578
 31
0.0
  0
LINE
  5
98
330
22
100
AcDbEntity
  8
0
  6
Continuous
 62
     7
100
AcDbLine
 10
-141.1461944580078
 20
196.1925811767578
 30
0.0
 11
-141.1461944580078
 21
200.7310638427734
 31
0.0
  0
LINE
  5
99
330
22
100
AcDbEntity
  8
0
  6
Continuous
 62
     7
100
AcDbLine
 10
-138.2520904541016
 20
193.6925811767578
 30
0.0
 11
-131.7670288085938
 21
193.6925811767578
 31
0.0
  0
LINE
  5
9A
330
22
100
AcDbEntity
  8
0
  6
Continuous
 62
     7
100
AcDbLine
 10
-140.4961853027344
 20
201.3810577392578
 30
0.0
 11
-136.3961944580078
 21
201.3810577392578
 31
0.0
  0
LINE
  5
9B
330
22
100
AcDbEntity
  8
0
  6
Continuous
 62
     7
100
AcDbLine
 10
-141.1461944580078
 20
200.7310638427734
 30
0.0
 11
-140.4961853027344
 21
201.3810577392578
 31
0.0
  0
LINE
  5
9C
330
22
100
AcDbEntity
  8
0
  6
Continuous
 62
     7
100
AcDbLine
 10
-138.1461944580077
 20
201.3810577392578
 30
0.0
 11
-138.1461944580077
 21
201.6310577392578
 31
0.0
  0
LINE
  5
9D
330
22
100
AcDbEntity
  8
0
  6
Continuous
 62
     7
100
AcDbLine
 10
-135.2461853027344
 20
198.8810577392578
 30
0.0
 11
-135.7461853027344
 21
199.3810577392578
 31
0.0
  0
LINE
  5
9E
330
22
100
AcDbEntity
  8
0
  6
Continuous
 62
     7
100
AcDbLine
 10
-135.2461853027344
 20
198.8810577392578
 30
0.0
 11
-130.5225830078125
 21
198.8810577392578
 31
0.0
  0
LINE
  5
9F
330
22
100
AcDbEntity
  8
0
  6
Continuous
 62
     7
100
AcDbLine
 10
-141.1461944580078
 20
201.3810577392578
 30
0.0
 11
-138.1461944580077
 21
201.3810577392578
 31
0.0
  0
LINE
  5
A0
330
22
100
AcDbEntity
  8
0
  6
Continuous
 62
     7
100
AcDbLine
 10
-135.7461853027344
 20
201.6310577392578
 30
0.0
 11
-138.1461944580077
 21
201.6310577392578
 31
0.0
  0
LINE
  5
A1
330
22
100
AcDbEntity
  8
0
  6
Continuous
 62
     7
100
AcDbLine
 10
-135.6461944580078
 20
204.6310577392578
 30
0.0
 11
-130.3782348632813
 21
204.6310577392578
 31
0.0
  0
LINE
  5
A2
330
22
100
AcDbEntity
  8
0
  6
Continuous
 62
     7
100
AcDbLine
 10
-138.1461944580077
 20
210.6310577392578
 30
0.0
 11
-137.6461944580078
 21
210.1310577392578
 31
0.0
  0
LINE
  5
A3
330
22
100
AcDbEntity
  8
0
  6
Continuous
 62
     7
100
AcDbLine
 10
-135.7461853027344
 20
199.3810577392578
 30
0.0
 11
-135.7461853027344
 21
201.6310577392578
 31
0.0
  0
LINE
  5
A4
330
22
100
AcDbEntity
  8
0
  6
Continuous
 62
     7
100
AcDbLine
 10
-135.1461944580078
 20
193.6925811767578
 30
0.0
 11
-135.1461944580078
 21
197.6310577392578
 31
0.0
  0
LINE
  5
A5
330
22
100
AcDbEntity
  8
0
  6
Continuous
 62
     7
100
AcDbLine
 10
-135.7461853027344
 20
198.8810577392578
 30
0.0
 11
-135.7461853027344
 21
197.6310577392578
 31
0.0
  0
LINE
  5
A6
330
22
100
AcDbEntity
  8
0
  6
Continuous
 62
     7
100
AcDbLine
 10
-135.1461944580078
 20
197.6310577392578
 30
0.0
 11
-138.1461944580077
 21
197.6310577392578
 31
0.0
  0
LINE
  5
A7
330
22
100
AcDbEntity
  8
0
  6
Continuous
 62
     7
100
AcDbLine
 10
-138.1461944580077
 20
193.6925811767578
 30
0.0
 11
-138.1461944580077
 21
198.3810577392578
 31
0.0
  0
LINE
  5
A8
330
22
100
AcDbEntity
  8
0
  6
Continuous
 62
     7
100
AcDbLine
 10
-138.1461944580077
 20
198.3810577392578
 30
0.0
 11
-136.2461853027344
 21
198.3810577392578
 31
0.0
  0
LINE
  5
A9
330
22
100
AcDbEntity
  8
0
  6
Continuous
 62
     7
100
AcDbLine
 10
-135.7461853027344
 20
198.8810577392578
 30
0.0
 11
-135.7461853027344
 21
200.7310638427734
 31
0.0
  0
LINE
  5
AA
330
22
100
AcDbEntity
  8
0
  6
Continuous
 62
     7
100
AcDbLine
 10
-135.7461853027344
 20
200.7310638427734
 30
0.0
 11
-136.3961944580078
 21
201.3810577392578
 31
0.0
  0
LINE
  5
AB
330
22
100
AcDbEntity
  8
0
  6
Continuous
 62
     7
100
AcDbLine
 10
-136.2461853027344
 20
198.3810577392578
 30
0.0
 11
-135.7461853027344
 21
198.8810577392578
 31
0.0
  0
LINE
  5
AC
330
22
100
AcDbEntity
  8
0
  6
Continuous
 62
     7
100
AcDbLine
 10
-137.6461944580078
 20
206.6310577392578
 30
0.0
 11
-137.6461944580078
 21
210.1310577392578
 31
0.0
  0
LINE
  5
AD
330
22
100
AcDbEntity
  8
0
  6
CENTER
 62
     7
100
AcDbLine
 10
-282.8760375976563
 20
224.4766693115234
 30
0.0
 11
-282.8760375976563
 21
92.73427581787109
 31
0.0
  0
LINE
  5
AE
330
22
100
AcDbEntity
  8
0
  6
Continuous
 62
     7
100
AcDbLine
 10
-116.9548416137695
 20
142.6466369628906
 30
0.0
 11
-116.9548416137695
 21
160.1310577392578
 31
0.0
  0
LINE
  5
AF
330
22
100
AcDbEntity
  8
0
  6
Continuous
 62
     7
100
AcDbLine
 10
-138.7212219238281
 20
163.3522796630859
 30
0.0
 11
-132.2361602783203
 21
163.3522796630859
 31
0.0
  0
LINE
  5
B0
330
22
100
AcDbEntity
  8
0
  6
Continuous
 62
     7
100
AcDbLine
 10
-137.6304473876952
 20
162.2785491943359
 30
0.0
 11
-131.1453704833984
 21
162.2785491943359
 31
0.0
  0
LINE
  5
B1
330
22
100
AcDbEntity
  8
0
  6
Continuous
 62
     7
100
AcDbLine
 10
-132.2361602783203
 20
163.3522796630859
 30
0.0
 11
-131.1453704833984
 21
162.2785491943359
 31
0.0
  0
LINE
  5
B2
330
22
100
AcDbEntity
  8
0
  6
Continuous
 62
     7
100
AcDbLine
 10
-117.9652099609375
 20
181.1310577392578
 30
0.0
 11
-115.6461868286133
 21
181.1310577392578
 31
0.0
  0
LINE
  5
B3
330
22
100
AcDbEntity
  8
0
  6
Continuous
 62
     7
100
AcDbLine
 10
-138.7212219238281
 20
163.3522796630859
 30
0.0
 11
-137.6304473876952
 21
162.2785491943359
 31
0.0
  0
LINE
  5
B4
330
22
100
AcDbEntity
  8
0
  6
Continuous
 62
     7
100
AcDbLine
 10
-138.7212219238281
 20
163.3522796630859
 30
0.0
 11
-141.1461944580078
 21
165.7393646240234
 31
0.0
  0
LINE
  5
B5
330
22
100
AcDbEntity
  8
0
  6
Continuous
 62
     7
100
AcDbLine
 10
-114.6461868286133
 20
160.1310577392578
 30
0.0
 11
-114.6461868286133
 21
182.1310577392578
 31
0.0
  0
LINE
  5
B6
330
22
100
AcDbEntity
  8
0
  6
Continuous
 62
     7
100
AcDbLine
 10
-118.8312301635742
 20
160.1310577392578
 30
0.0
 11
-118.8312301635742
 21
180.7693023681641
 31
0.0
  0
LINE
  5
B7
330
22
100
AcDbEntity
  8
0
  6
Continuous
 62
     7
100
AcDbLine
 10
-114.6461868286133
 20
182.1310577392578
 30
0.0
 11
-114.6461868286133
 21
183.6310577392578
 31
0.0
  0
LINE
  5
B8
330
22
100
AcDbEntity
  8
0
  6
Continuous
 62
     7
100
AcDbLine
 10
-131.1453704833984
 20
162.2785491943359
 30
0.0
 11
-131.1453704833984
 21
160.1310577392578
 31
0.0
  0
LINE
  5
B9
330
22
100
AcDbEntity
  8
0
  6
Continuous
 62
     7
100
AcDbLine
 10
-141.1461944580078
 20
200.7310638427734
 30
0.0
 11
-135.7461853027344
 21
200.7310638427734
 31
0.0
  0
LINE
  5
BA
330
22
100
AcDbEntity
  8
0
  6
Continuous
 62
     7
100
AcDbLine
 10
-140.6461944580078
 20
210.6310577392578
 30
0.0
 11
-138.1461944580077
 21
210.6310577392578
 31
0.0
  0
LINE
  5
BB
330
22
100
AcDbEntity
  8
0
  6
Continuous
 62
     7
100
AcDbLine
 10
-141.1461944580078
 20
210.1310577392578
 30
0.0
 11
-140.6461944580078
 21
210.6310577392578
 31
0.0
  0
LINE
  5
BC
330
22
100
AcDbEntity
  8
0
  6
Continuous
 62
     7
100
AcDbLine
 10
-135.1461944580078
 20
196.7504119873047
 30
0.0
 11
-136.0268402099609
 21
197.6310577392578
 31
0.0
  0
LINE
  5
BD
330
22
100
AcDbEntity
  8
0
  6
Continuous
 62
     7
100
AcDbLine
 10
-135.1461944580078
 20
193.9219818115234
 30
0.0
 11
-138.1461944580077
 21
196.9219818115234
 31
0.0
  0
LINE
  5
BE
330
22
100
AcDbEntity
  8
0
  6
Continuous
 62
     7
100
AcDbLine
 10
-137.7452087402344
 20
193.6925811767578
 30
0.0
 11
-138.1461944580077
 21
194.0935516357422
 31
0.0
  0
LINE
  5
BF
330
22
100
AcDbEntity
  8
0
  6
Continuous
 62
     7
100
AcDbLine
 10
-135.1461944580078
 20
182.6082763671875
 30
0.0
 11
-138.1461944580077
 21
185.6082763671875
 31
0.0
  0
LINE
  5
C0
330
22
100
AcDbEntity
  8
0
  6
Continuous
 62
     7
100
AcDbLine
 10
-135.1461944580078
 20
179.7798461914063
 30
0.0
 11
-138.1461944580077
 21
182.7798461914063
 31
0.0
  0
LINE
  5
C1
330
22
100
AcDbEntity
  8
0
  6
Continuous
 62
     7
100
AcDbLine
 10
-135.1461944580078
 20
176.951416015625
 30
0.0
 11
-138.1461944580077
 21
179.951416015625
 31
0.0
  0
LINE
  5
C2
330
22
100
AcDbEntity
  8
0
  6
Continuous
 62
     7
100
AcDbLine
 10
-135.1461944580078
 20
174.1230010986328
 30
0.0
 11
-138.1461944580077
 21
177.1230010986328
 31
0.0
  0
LINE
  5
C3
330
22
100
AcDbEntity
  8
0
  6
Continuous
 62
     7
100
AcDbLine
 10
-135.1461944580078
 20
171.2945709228516
 30
0.0
 11
-138.1461944580077
 21
174.2945709228516
 31
0.0
  0
LINE
  5
C4
330
22
100
AcDbEntity
  8
0
  6
Continuous
 62
     7
100
AcDbLine
 10
-135.1461944580078
 20
168.4661407470703
 30
0.0
 11
-138.1461944580077
 21
171.4661407470703
 31
0.0
  0
LINE
  5
C5
330
22
100
AcDbEntity
  8
0
  6
Continuous
 62
     7
100
AcDbLine
 10
-135.1461944580078
 20
165.6377105712891
 30
0.0
 11
-138.1461944580077
 21
168.6377105712891
 31
0.0
  0
LINE
  5
C6
330
22
100
AcDbEntity
  8
0
  6
Continuous
 62
     7
100
AcDbLine
 10
-135.6891937255859
 20
163.3522796630859
 30
0.0
 11
-138.1461944580077
 21
165.8092803955078
 31
0.0
  0
LINE
  5
C7
330
22
100
AcDbEntity
  8
0
  6
Continuous
 62
     7
100
AcDbLine
 10
-135.9602813720703
 20
163.3522796630859
 30
0.0
 11
-135.1461944580078
 21
164.1663818359375
 31
0.0
  0
LINE
  5
C8
330
22
100
AcDbEntity
  8
0
  6
Continuous
 62
     7
100
AcDbLine
 10
-138.1461944580077
 20
163.9947967529297
 30
0.0
 11
-135.1461944580078
 21
166.9947967529297
 31
0.0
  0
LINE
  5
C9
330
22
100
AcDbEntity
  8
0
  6
Continuous
 62
     7
100
AcDbLine
 10
-138.1461944580077
 20
166.8232269287109
 30
0.0
 11
-135.1461944580078
 21
169.8232269287109
 31
0.0
  0
LINE
  5
CA
330
22
100
AcDbEntity
  8
0
  6
Continuous
 62
     7
100
AcDbLine
 10
-138.1461944580077
 20
169.6516571044922
 30
0.0
 11
-135.1461944580078
 21
172.6516571044922
 31
0.0
  0
LINE
  5
CB
330
22
100
AcDbEntity
  8
0
  6
Continuous
 62
     7
100
AcDbLine
 10
-138.1461944580077
 20
172.4800872802734
 30
0.0
 11
-135.1461944580078
 21
175.4800872802734
 31
0.0
  0
LINE
  5
CC
330
22
100
AcDbEntity
  8
0
  6
Continuous
 62
     7
100
AcDbLine
 10
-138.1461944580077
 20
175.3085174560547
 30
0.0
 11
-135.1461944580078
 21
178.3085174560547
 31
0.0
  0
LINE
  5
CD
330
22
100
AcDbEntity
  8
0
  6
Continuous
 62
     7
100
AcDbLine
 10
-138.1461944580077
 20
178.1369323730469
 30
0.0
 11
-135.1461944580078
 21
181.1369323730469
 31
0.0
  0
LINE
  5
CE
330
22
100
AcDbEntity
  8
0
  6
Continuous
 62
     7
100
AcDbLine
 10
-138.1461944580077
 20
180.9653625488281
 30
0.0
 11
-135.1461944580078
 21
183.9653625488281
 31
0.0
  0
LINE
  5
CF
330
22
100
AcDbEntity
  8
0
  6
Continuous
 62
     7
100
AcDbLine
 10
-138.1461944580077
 20
183.7937927246094
 30
0.0
 11
-135.1461944580078
 21
186.7937927246094
 31
0.0
  0
LINE
  5
D0
330
22
100
AcDbEntity
  8
0
  6
Continuous
 62
     7
100
AcDbLine
 10
-138.1461944580077
 20
186.6222229003906
 30
0.0
 11
-136.5758361816406
 21
188.1925811767578
 31
0.0
  0
LINE
  5
D1
330
22
100
AcDbEntity
  8
0
  6
Continuous
 62
     7
100
AcDbLine
 10
-136.7326812744141
 20
193.6925811767578
 30
0.0
 11
-135.1461944580078
 21
195.2790679931641
 31
0.0
  0
LINE
  5
D2
330
22
100
AcDbEntity
  8
0
  6
Continuous
 62
     7
100
AcDbLine
 10
-138.1461944580077
 20
195.1074981689453
 30
0.0
 11
-135.6226348876953
 21
197.6310577392578
 31
0.0
  0
LINE
  5
D3
330
22
100
AcDbEntity
  8
0
  6
Continuous
 62
     7
100
AcDbLine
 10
-127.9244995117188
 20
197.3810577392578
 30
0.0
 11
-118.8312301635742
 21
181.6310577392578
 31
0.0
  0
LINE
  5
D4
330
22
100
AcDbEntity
  8
0
  6
Continuous
 62
     7
100
AcDbLine
 10
-141.1461944580078
 20
168.5667266845703
 30
0.0
 11
-138.1461944580077
 21
165.5667266845703
 31
0.0
  0
LINE
  5
D5
330
22
100
AcDbEntity
  8
0
  6
Continuous
 62
     7
100
AcDbLine
 10
-141.1461944580078
 20
171.3951568603516
 30
0.0
 11
-138.1461944580077
 21
168.3951568603516
 31
0.0
  0
LINE
  5
D6
330
22
100
AcDbEntity
  8
0
  6
Continuous
 62
     7
100
AcDbLine
 10
-141.1461944580078
 20
174.2235717773438
 30
0.0
 11
-138.1461944580077
 21
171.2235717773438
 31
0.0
  0
LINE
  5
D7
330
22
100
AcDbEntity
  8
0
  6
Continuous
 62
     7
100
AcDbLine
 10
-141.1461944580078
 20
177.052001953125
 30
0.0
 11
-138.1461944580077
 21
174.052001953125
 31
0.0
  0
LINE
  5
D8
330
22
100
AcDbEntity
  8
0
  6
Continuous
 62
     7
100
AcDbLine
 10
-141.1461944580078
 20
179.8804321289063
 30
0.0
 11
-138.1461944580077
 21
176.8804321289063
 31
0.0
  0
LINE
  5
D9
330
22
100
AcDbEntity
  8
0
  6
Continuous
 62
     7
100
AcDbLine
 10
-141.1461944580078
 20
182.7088623046875
 30
0.0
 11
-138.1461944580077
 21
179.7088623046875
 31
0.0
  0
LINE
  5
DA
330
22
100
AcDbEntity
  8
0
  6
Continuous
 62
     7
100
AcDbLine
 10
-141.1461944580078
 20
185.5372924804688
 30
0.0
 11
-138.1461944580077
 21
182.5372924804688
 31
0.0
  0
LINE
  5
DB
330
22
100
AcDbEntity
  8
0
  6
Continuous
 62
     7
100
AcDbLine
 10
-139.6125793457031
 20
186.8320922851563
 30
0.0
 11
-138.1461944580077
 21
185.3657073974609
 31
0.0
  0
LINE
  5
DC
330
22
100
AcDbEntity
  8
0
  6
Continuous
 62
     7
100
AcDbLine
 10
-141.1461944580078
 20
196.8509979248047
 30
0.0
 11
-138.1461944580077
 21
193.8509979248047
 31
0.0
  0
LINE
  5
DD
330
22
100
AcDbEntity
  8
0
  6
Continuous
 62
     7
100
AcDbLine
 10
-141.1461944580078
 20
199.6794281005859
 30
0.0
 11
-138.1461944580077
 21
196.6794281005859
 31
0.0
  0
LINE
  5
DE
330
22
100
AcDbEntity
  8
0
  6
Continuous
 62
     7
100
AcDbLine
 10
-139.3694000244141
 20
200.7310638427734
 30
0.0
 11
-137.0193939208984
 21
198.3810577392578
 31
0.0
  0
LINE
  5
DF
330
22
100
AcDbEntity
  8
0
  6
Continuous
 62
     7
100
AcDbLine
 10
-136.5409698486327
 20
200.7310638427734
 30
0.0
 11
-135.7461853027344
 21
199.936279296875
 31
0.0
  0
LINE
  5
E0
330
22
100
AcDbEntity
  8
0
  6
Continuous
 62
     7
100
AcDbLine
 10
-135.1461944580078
 20
163.3522796630859
 30
0.0
 11
-135.1461944580078
 21
188.1925811767578
 31
0.0
  0
LINE
  5
E1
330
22
100
AcDbEntity
  8
0
  6
Continuous
 62
     7
100
AcDbLine
 10
-140.7520904541016
 20
185.6925811767578
 30
0.0
 11
-138.2520904541016
 21
188.1925811767578
 31
0.0
  0
LINE
  5
E2
330
22
100
AcDbEntity
  8
0
  6
Continuous
 62
     7
100
AcDbLine
 10
-137.1613159179688
 20
192.6188354492188
 30
0.0
 11
-130.6762390136719
 21
192.6188354492188
 31
0.0
  0
LINE
  5
E3
330
22
100
AcDbEntity
  8
0
  6
Continuous
 62
     7
100
AcDbLine
 10
-141.1461944580078
 20
160.1310577392578
 30
0.0
 11
-141.1461944580078
 21
185.6925811767578
 31
0.0
  0
LINE
  5
E4
330
22
100
AcDbEntity
  8
0
  6
Continuous
 62
     7
100
AcDbLine
 10
-141.1461944580078
 20
185.6925811767578
 30
0.0
 11
-140.7520904541016
 21
185.6925811767578
 31
0.0
  0
LINE
  5
E5
330
22
100
AcDbEntity
  8
0
  6
Continuous
 62
     7
100
AcDbLine
 10
-130.6762390136719
 20
192.6188354492188
 30
0.0
 11
-130.6762390136719
 21
189.2663269042969
 31
0.0
  0
LINE
  5
E6
330
22
100
AcDbEntity
  8
0
  6
Continuous
 62
     7
100
AcDbLine
 10
-138.1461944580077
 20
163.3522796630859
 30
0.0
 11
-138.1461944580077
 21
188.1925811767578
 31
0.0
  0
LINE
  5
E7
330
22
100
AcDbEntity
  8
0
  6
Continuous
 62
     7
100
AcDbLine
 10
-141.1461944580078
 20
160.1310577392578
 30
0.0
 11
-141.1461944580078
 21
185.6925811767578
 31
0.0
  0
LINE
  5
E8
330
22
100
AcDbEntity
  8
0
  6
Continuous
 62
     7
100
AcDbLine
 10
-131.7670288085938
 20
193.6925811767578
 30
0.0
 11
-130.6762390136719
 21
192.6188354492188
 31
0.0
  0
LINE
  5
E9
330
22
100
AcDbEntity
  8
0
  6
Continuous
 62
     7
100
AcDbLine
 10
-138.2520904541016
 20
193.6925811767578
 30
0.0
 11
-137.1613159179688
 21
192.6188354492188
 31
0.0
  0
LINE
  5
EA
330
22
100
AcDbEntity
  8
0
  6
Continuous
 62
     7
100
AcDbLine
 10
-137.1613159179688
 20
189.2663269042969
 30
0.0
 11
-130.6762390136719
 21
189.2663269042969
 31
0.0
  0
LINE
  5
EB
330
22
100
AcDbEntity
  8
0
  6
Continuous
 62
     7
100
AcDbLine
 10
-127.780158996582
 20
203.1310577392578
 30
0.0
 11
-119.6972579956055
 21
189.1310577392578
 31
0.0
  0
LINE
  5
EC
330
22
100
AcDbEntity
  8
0
  6
Continuous
 62
     7
100
AcDbLine
 10
-138.2520904541016
 20
188.1925811767578
 30
0.0
 11
-137.1613159179688
 21
189.2663269042969
 31
0.0
  0
LINE
  5
ED
330
22
100
AcDbEntity
  8
0
  6
Continuous
 62
     7
100
AcDbLine
 10
-138.2520904541016
 20
188.1925811767578
 30
0.0
 11
-131.7670288085938
 21
188.1925811767578
 31
0.0
  0
LINE
  5
EE
330
22
100
AcDbEntity
  8
0
  6
Continuous
 62
     7
100
AcDbLine
 10
-131.7670288085938
 20
188.1925811767578
 30
0.0
 11
-130.6762390136719
 21
189.2663269042969
 31
0.0
  0
LINE
  5
EF
330
22
100
AcDbEntity
  8
0
  6
Continuous
 62
     7
100
AcDbLine
 10
-114.6461868286133
 20
183.6310577392578
 30
0.0
 11
-114.1461868286133
 21
184.1310577392578
 31
0.0
  0
LINE
  5
F0
330
22
100
AcDbEntity
  8
0
  6
Continuous
 62
     7
100
AcDbLine
 10
-96.14618682861328
 20
187.6310577392578
 30
0.0
 11
-98.14618682861329
 21
189.1310577392578
 31
0.0
  0
LINE
  5
F1
330
22
100
AcDbEntity
  8
0
  6
Continuous
 62
     7
100
AcDbLine
 10
-96.14618682861328
 20
160.1310577392578
 30
0.0
 11
-96.14618682861328
 21
187.6310577392578
 31
0.0
  0
LINE
  5
F2
330
22
100
AcDbEntity
  8
0
  6
Continuous
 62
     7
100
AcDbLine
 10
-96.14618682861328
 20
184.0310668945313
 30
0.0
 11
-97.69533538818359
 21
182.4819183349609
 31
0.0
  0
LINE
  5
F3
330
22
100
AcDbEntity
  8
0
  6
Continuous
 62
     7
100
AcDbLine
 10
-286.2028503417969
 20
148.4361877441406
 30
0.0
 11
-292.4871520996094
 21
129.0951385498047
 31
0.0
  0
LINE
  5
F4
330
22
100
AcDbEntity
  8
0
  6
Continuous
 62
     7
100
AcDbLine
 10
-280.924072265625
 20
148.4361877441406
 30
0.0
 11
-274.6397705078125
 21
129.0951385498047
 31
0.0
  0
LINE
  5
F5
330
22
100
AcDbEntity
  8
0
  6
Continuous
 62
     7
100
AcDbLine
 10
-296.6983337402344
 20
193.9571533203125
 30
0.0
 11
-297.0257263183594
 21
193.6297607421875
 31
0.0
  0
LINE
  5
F6
330
22
100
AcDbEntity
  8
0
  6
Continuous
 62
     7
100
AcDbLine
 10
-296.6983337402344
 20
193.9571533203125
 30
0.0
 11
-296.3709411621094
 21
194.2845458984375
 31
0.0
  0
LINE
  5
F7
330
22
100
AcDbEntity
  8
0
  6
Continuous
 62
     7
100
AcDbLine
 10
-290.3598327636719
 20
193.6121978759766
 30
0.0
 11
-291.0141296386719
 21
194.2664947509766
 31
0.0
  0
LINE
  5
F8
330
22
100
AcDbEntity
  8
0
  6
Continuous
 62
     7
100
AcDbLine
 10
-279.0219421386719
 20
170.5367279052734
 30
0.0
 11
-274.94970703125
 21
183.06982421875
 31
0.0
  0
LINE
  5
F9
330
22
100
AcDbEntity
  8
0
  6
Continuous
 62
     7
100
AcDbLine
 10
-286.4254760742188
 20
157.46142578125
 30
0.0
 11
-284.4031677246094
 21
160.1310577392578
 31
0.0
  0
LINE
  5
FA
330
22
100
AcDbEntity
  8
0
  6
Continuous
 62
     7
100
AcDbLine
 10
-279.7776489257813
 20
162.8006896972656
 30
0.0
 11
-280.1047973632813
 21
163.1278381347656
 31
0.0
  0
LINE
  5
FB
330
22
100
AcDbEntity
  8
0
  6
Continuous
 62
     7
100
AcDbLine
 10
-285.7711791992188
 20
156.8071441650391
 30
0.0
 11
-283.1015625
 21
158.8294525146484
 31
0.0
  0
LINE
  5
FC
330
22
100
AcDbEntity
  8
0
  6
Continuous
 62
     7
100
AcDbLine
 10
-286.4254760742188
 20
157.46142578125
 30
0.0
 11
-286.0983276367188
 21
157.1342926025391
 31
0.0
  0
LINE
  5
FD
330
22
100
AcDbEntity
  8
0
  6
Continuous
 62
     7
100
AcDbLine
 10
-279.7596130371094
 20
157.4438781738281
 30
0.0
 11
-281.7999572753906
 21
160.1310577392578
 31
0.0
  0
LINE
  5
FE
330
22
100
AcDbEntity
  8
0
  6
Continuous
 62
     7
100
AcDbLine
 10
-280.0869750976563
 20
157.1164855957031
 30
0.0
 11
-280.4143676757813
 21
156.7890930175781
 31
0.0
  0
LINE
  5
FF
330
22
100
AcDbEntity
  8
0
  6
Continuous
 62
     7
100
AcDbLine
 10
-280.0869750976563
 20
157.1164855957031
 30
0.0
 11
-279.7596130371094
 21
157.4438781738281
 31
0.0
  0
LINE
  5
100
330
22
100
AcDbEntity
  8
0
  6
Continuous
 62
     7
100
AcDbLine
 10
-271.9445190429688
 20
158.7954711914063
 30
0.0
 11
-251.6081237792969
 21
158.7954711914063
 31
0.0
  0
LINE
  5
101
330
22
100
AcDbEntity
  8
0
  6
Continuous
 62
     7
100
AcDbLine
 10
-292.3756103515625
 20
167.4339294433594
 30
0.0
 11
-308.8280639648438
 21
179.3873596191406
 31
0.0
  0
LINE
  5
102
330
22
100
AcDbEntity
  8
0
  6
Continuous
 62
     7
100
AcDbLine
 10
-286.1161499023438
 20
163.1456298828125
 30
0.0
 11
-286.4435424804688
 21
162.8182373046875
 31
0.0
  0
LINE
  5
103
330
22
100
AcDbEntity
  8
0
  6
Continuous
 62
     7
100
AcDbLine
 10
-286.1161499023438
 20
163.1456298828125
 30
0.0
 11
-285.7887573242188
 21
163.4730224609375
 31
0.0
  0
LINE
  5
104
330
22
100
AcDbEntity
  8
0
  6
Continuous
 62
     7
100
AcDbLine
 10
-285.7887573242188
 20
163.4730224609375
 30
0.0
 11
-283.1015625
 21
161.4326629638672
 31
0.0
  0
LINE
  5
105
330
22
100
AcDbEntity
  8
0
  6
Continuous
 62
     7
100
AcDbLine
 10
-286.4435424804688
 20
162.8182373046875
 30
0.0
 11
-284.4031677246094
 21
160.1310577392578
 31
0.0
  0
LINE
  5
106
330
22
100
AcDbEntity
  8
0
  6
Continuous
 62
     7
100
AcDbLine
 10
-279.7776489257813
 20
162.8006896972656
 30
0.0
 11
-281.7999572753906
 21
160.1310577392578
 31
0.0
  0
LINE
  5
107
330
22
100
AcDbEntity
  8
0
  6
Continuous
 62
     7
100
AcDbLine
 10
-280.4319458007813
 20
163.4549713134766
 30
0.0
 11
-280.1047973632813
 21
163.1278381347656
 31
0.0
  0
LINE
  5
108
330
22
100
AcDbEntity
  8
0
  6
Continuous
 62
     7
100
AcDbLine
 10
-274.7513122558594
 20
167.4339294433594
 30
0.0
 11
-258.298828125
 21
179.3873596191406
 31
0.0
  0
LINE
  5
109
330
22
100
AcDbEntity
  8
0
  6
Continuous
 62
     7
100
AcDbLine
 10
-280.4319458007813
 20
163.4549713134766
 30
0.0
 11
-283.1015625
 21
161.4326629638672
 31
0.0
  0
LINE
  5
10A
330
22
100
AcDbEntity
  8
0
  6
Continuous
 62
     7
100
AcDbLine
 10
-280.4143676757813
 20
156.7890930175781
 30
0.0
 11
-283.1015625
 21
158.8294525146484
 31
0.0
  0
LINE
  5
10B
330
22
100
AcDbEntity
  8
0
  6
Continuous
 62
     7
100
AcDbLine
 10
-288.1049499511719
 20
170.5367279052734
 30
0.0
 11
-292.1772155761719
 21
183.06982421875
 31
0.0
  0
LINE
  5
10C
330
22
100
AcDbEntity
  8
0
  6
Continuous
 62
     7
100
AcDbLine
 10
-295.1824035644531
 20
158.7954711914063
 30
0.0
 11
-315.518798828125
 21
158.7954711914063
 31
0.0
  0
LINE
  5
10D
330
22
100
AcDbEntity
  8
0
  6
Continuous
 62
     7
100
AcDbLine
 10
-285.7711791992188
 20
156.8071441650391
 30
0.0
 11
-286.0983276367188
 21
157.1342926025391
 31
0.0
  0
LINE
  5
10E
330
22
100
AcDbEntity
  8
0
  6
Continuous
 62
     7
100
AcDbLine
 10
-273.5757446289063
 20
153.7750396728516
 30
0.0
 11
-257.1232604980469
 21
141.8216247558594
 31
0.0
  0
LINE
  5
10F
330
22
100
AcDbEntity
  8
0
  6
Continuous
 62
     7
100
AcDbLine
 10
-293.5511779785156
 20
153.7750396728516
 30
0.0
 11
-310.0036315917969
 21
141.8216247558594
 31
0.0
  0
LINE
  5
110
330
22
100
AcDbEntity
  8
0
  6
Continuous
 62
     7
100
AcDbLine
 10
-297.0076904296875
 20
188.27294921875
 30
0.0
 11
-294.9853515625
 21
190.9425811767578
 31
0.0
  0
LINE
  5
111
330
22
100
AcDbEntity
  8
0
  6
Continuous
 62
     7
100
AcDbLine
 10
-297.0257263183594
 20
193.6297607421875
 30
0.0
 11
-294.9853515625
 21
190.9425811767578
 31
0.0
  0
LINE
  5
112
330
22
100
AcDbEntity
  8
0
  6
Continuous
 62
     7
100
AcDbLine
 10
-290.3598327636719
 20
193.6121978759766
 30
0.0
 11
-292.3821716308594
 21
190.9425811767578
 31
0.0
  0
LINE
  5
113
330
22
100
AcDbEntity
  8
0
  6
Continuous
 62
     7
100
AcDbLine
 10
-291.0141296386719
 20
194.2664947509766
 30
0.0
 11
-293.6837463378907
 21
192.2441864013672
 31
0.0
  0
LINE
  5
114
330
22
100
AcDbEntity
  8
0
  6
Continuous
 62
     7
100
AcDbLine
 10
-297.0076904296875
 20
188.27294921875
 30
0.0
 11
-296.6805419921875
 21
187.94580078125
 31
0.0
  0
LINE
  5
115
330
22
100
AcDbEntity
  8
0
  6
Continuous
 62
     7
100
AcDbLine
 10
-296.3533935546875
 20
187.6186676025391
 30
0.0
 11
-296.6805419921875
 21
187.94580078125
 31
0.0
  0
LINE
  5
116
330
22
100
AcDbEntity
  8
0
  6
Continuous
 62
     7
100
AcDbLine
 10
-296.3533935546875
 20
187.6186676025391
 30
0.0
 11
-293.6837463378907
 21
189.6409759521484
 31
0.0
  0
LINE
  5
117
330
22
100
AcDbEntity
  8
0
  6
Continuous
 62
     7
100
AcDbLine
 10
-290.669189453125
 20
187.9280090332031
 30
0.0
 11
-290.99658203125
 21
187.6006164550781
 31
0.0
  0
LINE
  5
118
330
22
100
AcDbEntity
  8
0
  6
Continuous
 62
     7
100
AcDbLine
 10
-296.3709411621094
 20
194.2845458984375
 30
0.0
 11
-293.6837463378907
 21
192.2441864013672
 31
0.0
  0
LINE
  5
119
330
22
100
AcDbEntity
  8
0
  6
Continuous
 62
     7
100
AcDbLine
 10
-290.669189453125
 20
187.9280090332031
 30
0.0
 11
-290.341796875
 21
188.2553863525391
 31
0.0
  0
LINE
  5
11A
330
22
100
AcDbEntity
  8
0
  6
Continuous
 62
     7
100
AcDbLine
 10
-140.9237823486328
 20
210.3534698486328
 30
0.0
 11
-137.6461944580078
 21
207.0758819580078
 31
0.0
  0
LINE
  5
11B
330
22
100
AcDbEntity
  8
0
  6
Continuous
 62
     7
100
AcDbLine
 10
-135.2013702392578
 20
204.6310577392578
 30
0.0
 11
-129.047119140625
 21
198.4768218994141
 31
0.0
  0
LINE
  5
11C
330
22
100
AcDbEntity
  8
0
  6
Continuous
 62
     7
100
AcDbLine
 10
-127.8878021240234
 20
197.3175048828125
 30
0.0
 11
-114.4237747192383
 21
183.8534698486328
 31
0.0
  0
LINE
  5
11D
330
22
100
AcDbEntity
  8
0
  6
Continuous
 62
     7
100
AcDbLine
 10
-290.99658203125
 20
187.6006164550781
 30
0.0
 11
-293.6837463378907
 21
189.6409759521484
 31
0.0
  0
LINE
  5
11E
330
22
100
AcDbEntity
  8
0
  6
Continuous
 62
     7
100
AcDbLine
 10
-290.341796875
 20
188.2553863525391
 30
0.0
 11
-292.3821716308594
 21
190.9425811767578
 31
0.0
  0
LINE
  5
11F
330
22
100
AcDbEntity
  8
0
  6
Continuous
 62
     7
100
AcDbLine
 10
-120.1603927612305
 20
183.9332427978516
 30
0.0
 11
-117.3582153320313
 21
181.1310577392578
 31
0.0
  0
LINE
  5
120
330
22
100
AcDbEntity
  8
0
  6
Continuous
 62
     7
100
AcDbLine
 10
-135.7461853027344
 20
199.5190277099609
 30
0.0
 11
-135.1082153320313
 21
198.8810577392578
 31
0.0
  0
LINE
  5
121
330
22
100
AcDbEntity
  8
0
  6
Continuous
 62
     7
100
AcDbLine
 10
-141.1461944580078
 20
204.9190216064453
 30
0.0
 11
-137.8582153320313
 21
201.6310577392578
 31
0.0
  0
LINE
  5
122
330
22
100
AcDbEntity
  8
0
  6
Continuous
 62
     7
100
AcDbLine
 10
-119.1944732666016
 20
182.2602081298828
 30
0.0
 11
-118.0800476074219
 21
181.1457824707031
 31
0.0
  0
LINE
  5
123
330
22
100
AcDbEntity
  8
0
  6
Continuous
 62
     7
100
AcDbLine
 10
-141.1461944580078
 20
204.2119293212891
 30
0.0
 11
-138.3153228759766
 21
201.3810577392578
 31
0.0
  0
LINE
  5
124
330
22
100
AcDbEntity
  8
0
  6
Continuous
 62
     7
100
AcDbLine
 10
-141.1461944580078
 20
202.0906066894531
 30
0.0
 11
-140.4366455078125
 21
201.3810577392578
 31
0.0
  0
LINE
  5
125
330
22
100
AcDbEntity
  8
0
  6
Continuous
 62
     7
100
AcDbLine
 10
-141.1461944580078
 20
201.3834991455078
 30
0.0
 11
-141.1437530517578
 21
201.3810577392578
 31
0.0
  0
LINE
  5
126
330
22
100
AcDbEntity
  8
0
  6
Continuous
 62
     7
100
AcDbLine
 10
-106.7151565551758
 20
160.1310577392578
 30
0.0
 11
-106.7151565551758
 21
182.2000274658203
 31
0.0
  0
LINE
  5
127
330
22
100
AcDbEntity
  8
0
  6
Continuous
 62
     7
100
AcDbLine
 10
-116.9548416137695
 20
133.6803741455078
 30
0.0
 11
-116.9548416137695
 21
138.8927307128906
 31
0.0
  0
LINE
  5
128
330
22
100
AcDbEntity
  8
0
  6
Continuous
 62
     7
100
AcDbLine
 10
-141.1461944580078
 20
110.1310577392578
 30
0.0
 11
-141.1461944580078
 21
160.1310577392578
 31
0.0
  0
LINE
  5
129
330
22
100
AcDbEntity
  8
0
  6
Continuous
 62
     7
100
AcDbLine
 10
-129.5338287353516
 20
118.6310577392578
 30
0.0
 11
-129.5338287353516
 21
160.1310577392578
 31
0.0
  0
LINE
  5
12A
330
22
100
AcDbEntity
  8
0
  6
Continuous
 62
     7
100
AcDbLine
 10
-108.6461868286133
 20
160.1310577392578
 30
0.0
 11
-108.6461868286133
 21
184.1310577392578
 31
0.0
  0
ARC
  5
12B
330
22
100
AcDbEntity
  8
0
  6
Continuous
 62
     7
100
AcDbCircle
 10
-96.42454528808594
 20
140.7776794433594
 30
0.0
 40
1.905385494232178
100
AcDbArc
 50
205.3695828757676
 51
278.4004000370363
  0
ARC
  5
12C
330
22
100
AcDbEntity
  8
0
  6
Continuous
 62
     7
100
AcDbCircle
 10
-94.88824462890624
 20
139.6195373535156
 30
0.0
 40
3.278074979782104
100
AcDbArc
 50
112.5658272542942
 51
173.646451712581
  0
CIRCLE
  5
12D
330
22
100
AcDbEntity
  8
0
  6
Continuous
 62
     7
100
AcDbCircle
 10
-282.8760375976563
 20
160.1310577392578
 30
0.0
 40
42.6500015258789
  0
CIRCLE
  5
12E
330
22
100
AcDbEntity
  8
0
  6
Continuous
 62
     7
100
AcDbCircle
 10
-282.8760375976563
 20
160.1310577392578
 30
0.0
 40
42.0
  0
ARC
  5
12F
330
22
100
AcDbEntity
  8
0
  6
Continuous
 62
     7
100
AcDbCircle
 10
-130.3782348632813
 20
118.6310577392578
 30
0.0
 40
3.0
100
AcDbArc
 50
270.0000000000005
 51
329.9999967087962
  0
ARC
  5
130
330
22
100
AcDbEntity
  8
0
  6
Continuous
 62
     7
100
AcDbCircle
 10
-135.6461944580078
 20
113.6310577392578
 30
0.0
 40
2.0
100
AcDbArc
 50
90.00000000000019
 51
180.0000000000004
  0
ARC
  5
131
330
22
100
AcDbEntity
  8
0
  6
Continuous
 62
     7
100
AcDbCircle
 10
-130.3782348632813
 20
201.6310577392578
 30
0.0
 40
3.0
100
AcDbArc
 50
30.00000329120452
 51
90.00000000000019
  0
ARC
  5
132
330
22
100
AcDbEntity
  8
0
  6
Continuous
 62
     7
100
AcDbCircle
 10
-130.5225830078125
 20
195.8810577392578
 30
0.0
 40
3.0
100
AcDbArc
 50
29.99993043599933
 51
90.00000000000019
  0
ARC
  5
133
330
22
100
AcDbEntity
  8
0
  6
Continuous
 62
     7
100
AcDbCircle
 10
-135.6461944580078
 20
206.6310577392578
 30
0.0
 40
2.0
100
AcDbArc
 50
180.0000000000004
 51
270.0000000000005
  0
ARC
  5
134
330
22
100
AcDbEntity
  8
0
  6
Continuous
 62
     7
100
AcDbCircle
 10
-117.2321853637695
 20
140.3267364501953
 30
0.0
 40
2.320734500885009
100
AcDbArc
 50
91.54020879671035
 51
190.8758801628265
  0
ARC
  5
135
330
22
100
AcDbEntity
  8
0
  6
Continuous
 62
     7
100
AcDbCircle
 10
-115.6461868286133
 20
182.1310577392578
 30
0.0
 40
1.0
100
AcDbArc
 50
270.0000000000005
 51
0.0
  0
ARC
  5
136
330
22
100
AcDbEntity
  8
0
  6
Continuous
 62
     7
100
AcDbCircle
 10
-117.9652099609375
 20
182.1310577392578
 30
0.0
 40
1.0
100
AcDbArc
 50
210.0001490025784
 51
270.0000000000005
  0
ARC
  5
137
330
22
100
AcDbEntity
  8
0
  6
Continuous
 62
     7
100
AcDbCircle
 10
-117.7986297607422
 20
140.7998962402344
 30
0.0
 40
1.939849734306334
100
AcDbArc
 50
208.0112466261875
 51
280.5331660480588
  0
CIRCLE
  5
138
330
22
100
AcDbEntity
  8
0
  6
Continuous
 62
     7
100
AcDbCircle
 10
-283.1015625
 20
160.1310577392578
 30
0.0
 40
60.25240325927734
  0
CIRCLE
  5
139
330
22
100
AcDbEntity
  8
0
  6
Continuous
 62
     7
100
AcDbCircle
 10
-283.1015625
 20
160.1310577392578
 30
0.0
 40
50.5
  0
CIRCLE
  5
13A
330
22
100
AcDbEntity
  8
0
  6
DASHED
 62
     7
100
AcDbCircle
 10
-283.5634460449219
 20
159.7954711914063
 30
0.0
 40
38.25
  0
ARC
  5
13B
330
22
100
AcDbEntity
  8
0
  6
Continuous
 62
     7
100
AcDbCircle
 10
-283.5636291503906
 20
159.7955322265625
 30
0.0
 40
27.5
100
AcDbArc
 50
254.0839408586874
 51
285.9160591413139
  0
ARC
  5
13C
330
22
100
AcDbEntity
  8
0
  6
Continuous
 62
     7
100
AcDbCircle
 10
-283.5634460449219
 20
142.2954711914063
 30
0.0
 40
17.5
100
AcDbArc
 50
243.0633671925533
 51
296.9365437315121
  0
ARC
  5
13D
330
22
100
AcDbEntity
  8
0
  6
Continuous
 62
     7
100
AcDbCircle
 10
-290.5850219726563
 20
128.4770965576172
 30
0.0
 40
2.0
100
AcDbArc
 50
161.9999332718726
 51
243.0634138350244
  0
ARC
  5
13E
330
22
100
AcDbEntity
  8
0
  6
Continuous
 62
     7
100
AcDbCircle
 10
-276.5419006347656
 20
128.4770965576172
 30
0.0
 40
2.0
100
AcDbArc
 50
296.9373655754881
 51
18.00006672812741
  0
ARC
  5
13F
330
22
100
AcDbEntity
  8
0
  6
Continuous
 62
     7
100
AcDbCircle
 10
-283.5636291503906
 20
159.7955322265625
 30
0.0
 40
29.0
100
AcDbArc
 50
253.9761318567917
 51
286.0239260946502
  0
CIRCLE
  5
140
330
22
100
AcDbEntity
  8
0
  6
DASHED
 62
     7
100
AcDbCircle
 10
-283.1015625
 20
160.1310577392578
 30
0.0
 40
21.0
  0
ARC
  5
141
330
22
100
AcDbEntity
  8
0
  6
Continuous
 62
     7
100
AcDbCircle
 10
-283.5636291503906
 20
159.7955322265625
 30
0.0
 40
20.5
100
AcDbArc
 50
254.7960274156084
 51
285.203972584393
  0
ARC
  5
142
330
22
100
AcDbEntity
  8
0
  6
Continuous
 62
     7
100
AcDbCircle
 10
-283.5634460449219
 20
159.7954711914063
 30
0.0
 40
37.99994659423828
100
AcDbArc
 50
71.96160263338153
 51
107.9616101981265
  0
ARC
  5
143
330
22
100
AcDbEntity
  8
0
  6
Continuous
 62
     7
100
AcDbCircle
 10
-283.5634460449219
 20
159.7954711914063
 30
0.0
 40
35.49990463256836
100
AcDbArc
 50
71.96159407391609
 51
101.4883888458284
  0
ARC
  5
144
330
22
100
AcDbEntity
  8
0
  6
Continuous
 62
     7
100
AcDbCircle
 10
-283.5634460449219
 20
159.7954711914063
 30
0.0
 40
10.0
100
AcDbArc
 50
266.477464580971
 51
273.5223608962801
  0
ARC
  5
145
330
22
100
AcDbEntity
  8
0
  6
Continuous
 62
     7
100
AcDbCircle
 10
-284.3007507324219
 20
147.8181457519531
 30
0.0
 40
2.0
100
AcDbArc
 50
86.47713702398901
 51
161.9996631070142
  0
ARC
  5
146
330
22
100
AcDbEntity
  8
0
  6
Continuous
 62
     7
100
AcDbCircle
 10
-283.5634460449219
 20
159.7954711914063
 30
0.0
 40
10.0
100
AcDbArc
 50
194.4775032562587
 51
201.5224477564561
  0
ARC
  5
147
330
22
100
AcDbEntity
  8
0
  6
Continuous
 62
     7
100
AcDbCircle
 10
-307.6524963378906
 20
181.0054016113281
 30
0.0
 40
2.0
100
AcDbArc
 50
152.9368290030684
 51
234.0002014616679
  0
ARC
  5
148
330
22
100
AcDbEntity
  8
0
  6
Continuous
 62
     7
100
AcDbCircle
 10
-259.4743957519531
 20
181.0053863525391
 30
0.0
 40
2.0
100
AcDbArc
 50
306.0000554778671
 51
27.06356026519619
  0
ARC
  5
149
330
22
100
AcDbEntity
  8
0
  6
Continuous
 62
     7
100
AcDbCircle
 10
-283.5634765625
 20
159.7954711914063
 30
0.0
 40
10.0
100
AcDbArc
 50
338.4776163909103
 51
345.5224967437428
  0
ARC
  5
14A
330
22
100
AcDbEntity
  8
0
  6
Continuous
 62
     7
100
AcDbCircle
 10
-295.1824035644531
 20
156.7954711914063
 30
0.0
 40
2.0
100
AcDbArc
 50
14.47750325625797
 51
90.00000000000019
  0
ARC
  5
14B
330
22
100
AcDbEntity
  8
0
  6
Continuous
 62
     7
100
AcDbCircle
 10
-283.5634460449219
 20
159.7954711914063
 30
0.0
 40
10.0
100
AcDbArc
 50
122.4775422103119
 51
129.5225908081691
  0
ARC
  5
14C
330
22
100
AcDbEntity
  8
0
  6
Continuous
 62
     7
100
AcDbCircle
 10
-291.2000122070313
 20
169.0519714355469
 30
0.0
 40
2.0
100
AcDbArc
 50
233.99949417329
 51
309.5218051454692
  0
ARC
  5
14D
330
22
100
AcDbEntity
  8
0
  6
Continuous
 62
     7
100
AcDbCircle
 10
-283.5636291503906
 20
159.7955322265625
 30
0.0
 40
19.0
100
AcDbArc
 50
255.0170207853275
 51
284.9830681137543
  0
ARC
  5
14E
330
22
100
AcDbEntity
  8
0
  6
Continuous
 62
     7
100
AcDbCircle
 10
-283.5634460449219
 20
159.7954711914063
 30
0.0
 40
10.0
100
AcDbArc
 50
50.47754406884499
 51
57.5226052961333
  0
ARC
  5
14F
330
22
100
AcDbEntity
  8
0
  6
Continuous
 62
     7
100
AcDbCircle
 10
-290.007080078125
 20
169.918701171875
 30
0.0
 40
2.0
100
AcDbArc
 50
302.4775958257367
 51
17.99965099385939
  0
ARC
  5
150
330
22
100
AcDbEntity
  8
0
  6
Continuous
 62
     7
100
AcDbCircle
 10
-283.563720703125
 20
159.7953948974609
 30
0.0
 40
20.5
100
AcDbArc
 50
326.7960163655562
 51
357.203973036869
  0
ARC
  5
151
330
22
100
AcDbEntity
  8
0
  6
Continuous
 62
     7
100
AcDbCircle
 10
-283.5634460449219
 20
159.7954711914063
 30
0.0
 40
20.5
100
AcDbArc
 50
182.7960228024485
 51
213.2039479505484
  0
ARC
  5
152
330
22
100
AcDbEntity
  8
0
  6
Continuous
 62
     7
100
AcDbCircle
 10
-283.5634460449219
 20
159.7954711914063
 30
0.0
 40
19.0
100
AcDbArc
 50
183.0169617273827
 51
212.9830112544211
  0
ARC
  5
153
330
22
100
AcDbEntity
  8
0
  6
Continuous
 62
     7
100
AcDbCircle
 10
-277.1198425292969
 20
169.918701171875
 30
0.0
 40
2.0
100
AcDbArc
 50
162.0000788466785
 51
237.5224041742646
  0
ARC
  5
154
330
22
100
AcDbEntity
  8
0
  6
Continuous
 62
     7
100
AcDbCircle
 10
-283.5636291503906
 20
159.7952423095703
 30
0.0
 40
20.5
100
AcDbArc
 50
38.79601246871454
 51
69.20392489831264
  0
ARC
  5
155
330
22
100
AcDbEntity
  8
0
  6
Continuous
 62
     7
100
AcDbCircle
 10
-283.5636291503906
 20
159.7952423095703
 30
0.0
 40
19.0
100
AcDbArc
 50
39.01694853826873
 51
68.98304071232928
  0
ARC
  5
156
330
22
100
AcDbEntity
  8
0
  6
Continuous
 62
     7
100
AcDbCircle
 10
-251.6081237792969
 20
156.7954711914063
 30
0.0
 40
2.0
100
AcDbArc
 50
8.936697490769292
 51
90.00000000000019
  0
ARC
  5
157
330
22
100
AcDbEntity
  8
0
  6
Continuous
 62
     7
100
AcDbCircle
 10
-275.9268798828125
 20
169.0519714355469
 30
0.0
 40
2.0
100
AcDbArc
 50
230.4775204647301
 51
305.9997985383335
  0
ARC
  5
158
330
22
100
AcDbEntity
  8
0
  6
Continuous
 62
     7
100
AcDbCircle
 10
-271.9445190429688
 20
156.7954711914063
 30
0.0
 40
2.0
100
AcDbArc
 50
90.00000000000019
 51
165.522496743742
  0
CIRCLE
  5
159
330
22
100
AcDbEntity
  8
0
  6
Continuous
 62
     7
100
AcDbCircle
 10
-283.1015625
 20
160.1310577392578
 30
0.0
 40
5.5
  0
CIRCLE
  5
15A
330
22
100
AcDbEntity
  8
0
  6
Continuous
 62
     7
100
AcDbCircle
 10
-283.1015625
 20
160.1310577392578
 30
0.0
 40
5.0
  0
ARC
  5
15B
330
22
100
AcDbEntity
  8
0
  6
Continuous
 62
     7
100
AcDbCircle
 10
-283.563720703125
 20
159.7953948974609
 30
0.0
 40
19.0
100
AcDbArc
 50
327.0169501476515
 51
356.9830382726187
  0
ARC
  5
15C
330
22
100
AcDbEntity
  8
0
  6
Continuous
 62
     7
100
AcDbCircle
 10
-272.4001770019531
 20
155.3930816650391
 30
0.0
 40
2.0
100
AcDbArc
 50
158.477342616818
 51
234.0002014616679
  0
ARC
  5
15D
330
22
100
AcDbEntity
  8
0
  6
Continuous
 62
     7
100
AcDbCircle
 10
-294.7267456054688
 20
155.3930816650391
 30
0.0
 40
2.0
100
AcDbArc
 50
305.9997985383335
 51
21.52233664538207
  0
ARC
  5
15E
330
22
100
AcDbEntity
  8
0
  6
Continuous
 62
     7
100
AcDbCircle
 10
-315.518798828125
 20
156.7954711914063
 30
0.0
 40
2.0
100
AcDbArc
 50
90.00000000000019
 51
171.0633025092307
  0
ARC
  5
15F
330
22
100
AcDbEntity
  8
0
  6
Continuous
 62
     7
100
AcDbCircle
 10
-282.826171875
 20
147.8181457519531
 30
0.0
 40
2.0
100
AcDbArc
 50
18.0003368929858
 51
93.52286297601098
  0
ARC
  5
160
330
22
100
AcDbEntity
  8
0
  6
Continuous
 62
     7
100
AcDbCircle
 10
-283.563720703125
 20
159.7953948974609
 30
0.0
 40
29.0
100
AcDbArc
 50
325.9760810741647
 51
358.0238909524206
  0
ARC
  5
161
330
22
100
AcDbEntity
  8
0
  6
Continuous
 62
     7
100
AcDbCircle
 10
-283.563720703125
 20
159.7953948974609
 30
0.0
 40
27.5
100
AcDbArc
 50
326.0839431397737
 51
357.9160576166098
  0
ARC
  5
162
330
22
100
AcDbEntity
  8
0
  6
Continuous
 62
     7
100
AcDbCircle
 10
-283.5634460449219
 20
159.7954711914063
 30
0.0
 40
27.5
100
AcDbArc
 50
182.0839423833917
 51
213.916030477923
  0
ARC
  5
163
330
22
100
AcDbEntity
  8
0
  6
Continuous
 62
     7
100
AcDbCircle
 10
-283.5634460449219
 20
159.7953033447266
 30
0.0
 40
20.5
100
AcDbArc
 50
110.7960751016874
 51
141.2039875312855
  0
ARC
  5
164
330
22
100
AcDbEntity
  8
0
  6
Continuous
 62
     7
100
AcDbCircle
 10
-283.5634460449219
 20
159.7953033447266
 30
0.0
 40
19.0
100
AcDbArc
 50
111.0169592876707
 51
140.9830514617313
  0
ARC
  5
165
330
22
100
AcDbEntity
  8
0
  6
Continuous
 62
     7
100
AcDbCircle
 10
-283.5634460449219
 20
159.7954711914063
 30
0.0
 40
29.0
100
AcDbArc
 50
181.9761080080274
 51
214.0238602029704
  0
ARC
  5
166
330
22
100
AcDbEntity
  8
0
  6
Continuous
 62
     7
100
AcDbCircle
 10
-266.9199829101563
 20
154.3876800537109
 30
0.0
 40
17.5
100
AcDbArc
 50
315.0634094517092
 51
8.936598392159748
  0
ARC
  5
167
330
22
100
AcDbEntity
  8
0
  6
Continuous
 62
     7
100
AcDbCircle
 10
-300.2069396972656
 20
154.3876800537109
 30
0.0
 40
17.5
100
AcDbArc
 50
171.0634016078403
 51
224.9365905482924
  0
ARC
  5
168
330
22
100
AcDbEntity
  8
0
  6
Continuous
 62
     7
100
AcDbCircle
 10
-255.9476928710938
 20
143.4396514892578
 30
0.0
 40
2.0
100
AcDbArc
 50
233.9999445221343
 51
315.0633655584535
  0
ARC
  5
169
330
22
100
AcDbEntity
  8
0
  6
Continuous
 62
     7
100
AcDbCircle
 10
-311.1792297363281
 20
143.4396514892578
 30
0.0
 40
2.0
100
AcDbArc
 50
224.9366344415479
 51
306.0007627683063
  0
ARC
  5
16A
330
22
100
AcDbEntity
  8
0
  6
Continuous
 62
     7
100
AcDbCircle
 10
-293.6837463378907
 20
190.9425811767578
 30
0.0
 40
6.5
100
AcDbArc
 50
204.1339753054623
 51
267.3326685715049
  0
ARC
  5
16B
330
22
100
AcDbEntity
  8
0
  6
Continuous
 62
     7
100
AcDbCircle
 10
-294.0793151855469
 20
182.4517822265625
 30
0.0
 40
2.0
100
AcDbArc
 50
18.0003368929858
 51
87.33253108540637
  0
ARC
  5
16C
330
22
100
AcDbEntity
  8
0
  6
Continuous
 62
     7
100
AcDbCircle
 10
-301.4407958984375
 20
187.4671630859375
 30
0.0
 40
2.0
100
AcDbArc
 50
24.13398806271314
 51
119.3239165189763
  0
CIRCLE
  5
16D
330
22
100
AcDbEntity
  8
0
  6
Continuous
 62
     7
100
AcDbCircle
 10
-293.6837463378907
 20
190.9425811767578
 30
0.0
 40
4.75
  0
ARC
  5
16E
330
22
100
AcDbEntity
  8
0
  6
Continuous
 62
     7
100
AcDbCircle
 10
-273.0475769042969
 20
182.4517822265625
 30
0.0
 40
2.0
100
AcDbArc
 50
92.66746891459364
 51
161.9999332718726
  0
ARC
  5
16F
330
22
100
AcDbEntity
  8
0
  6
Continuous
 62
     7
100
AcDbCircle
 10
-283.5634460449219
 20
159.7954711914063
 30
0.0
 40
30.00008010864258
100
AcDbArc
 50
71.96162618919546
 51
100.9159102288907
  0
ARC
  5
170
330
22
100
AcDbEntity
  8
0
  6
Continuous
 62
     7
100
AcDbCircle
 10
-283.5634460449219
 20
159.7954711914063
 30
0.0
 40
27.50003814697266
100
AcDbArc
 50
71.96160743687963
 51
108.0384530207187
  0
ARC
  5
171
330
22
100
AcDbEntity
  8
0
  6
Continuous
 62
     7
100
AcDbCircle
 10
-273.443145751953
 20
190.9425811767578
 30
0.0
 40
2.75
100
AcDbArc
 50
252.41881028106
 51
71.5040275491344
  0
ARC
  5
172
330
22
100
AcDbEntity
  8
0
  6
Continuous
 62
     7
100
AcDbCircle
 10
-283.5636291503906
 20
159.7952423095703
 30
0.0
 40
29.0
100
AcDbArc
 50
37.97608498409246
 51
62.11731554446481
  0
ARC
  5
173
330
22
100
AcDbEntity
  8
0
  6
Continuous
 62
     7
100
AcDbCircle
 10
-283.5634460449219
 20
159.7953033447266
 30
0.0
 40
27.5
100
AcDbArc
 50
115.3213295772688
 51
141.9160752279228
  0
ARC
  5
174
330
22
100
AcDbEntity
  8
0
  6
Continuous
 62
     7
100
AcDbCircle
 10
-273.2772216796875
 20
173.9532623291016
 30
0.0
 40
17.5
100
AcDbArc
 50
27.06337022081696
 51
60.67600248455851
  0
ARC
  5
175
330
22
100
AcDbEntity
  8
0
  6
Continuous
 62
     7
100
AcDbCircle
 10
-293.6837463378907
 20
190.9425811767578
 30
0.0
 40
5.25
100
AcDbArc
 50
107.7222260096943
 51
287.798482794146
  0
ARC
  5
176
330
22
100
AcDbEntity
  8
0
  6
Continuous
 62
     7
100
AcDbCircle
 10
-273.443145751953
 20
190.9425811767578
 30
0.0
 40
5.25
100
AcDbArc
 50
252.2012000939152
 51
71.7219793548702
  0
ARC
  5
177
330
22
100
AcDbEntity
  8
0
  6
Continuous
 62
     7
100
AcDbCircle
 10
-283.5636291503906
 20
159.7952423095703
 30
0.0
 40
27.5
100
AcDbArc
 50
38.08392477207723
 51
64.67874149376685
  0
ARC
  5
178
330
22
100
AcDbEntity
  8
0
  6
Continuous
 62
     7
100
AcDbCircle
 10
-265.6861267089844
 20
187.4671630859375
 30
0.0
 40
2.0
100
AcDbArc
 50
60.67608348102377
 51
155.8656544725485
  0
ARC
  5
179
330
22
100
AcDbEntity
  8
0
  6
Continuous
 62
     7
100
AcDbCircle
 10
-273.443145751953
 20
190.9425811767578
 30
0.0
 40
6.5
100
AcDbArc
 50
272.6673314284964
 51
335.8659019491977
  0
ARC
  5
17A
330
22
100
AcDbEntity
  8
0
  6
Continuous
 62
     7
100
AcDbCircle
 10
-293.8497009277344
 20
173.9532623291016
 30
0.0
 40
17.5
100
AcDbArc
 50
119.3239975154415
 51
152.9365843198438
  0
ARC
  5
17B
330
22
100
AcDbEntity
  8
0
  6
Continuous
 62
     7
100
AcDbCircle
 10
-116.9548416137695
 20
129.8810577392577
 30
0.0
 40
3.0
100
AcDbArc
 50
90.00000000000019
 51
149.9999967087955
  0
LWPOLYLINE
  5
17C
330
22
100
AcDbEntity
  8
0
  6
Continuous
 62
     7
100
AcDbPolyline
 90
       17
 70
     0
 43
0.0
 10
-141.1461944580079
 20
196.1925811767578
 42
0.0491268497694673
 10
-141.5157137765478
 20
196.0917038988748
 42
0.0491268497694673
 10
-141.8710326749051
 20
195.7929487224421
 42
0.0491268497694673
 10
-142.198496447081
 20
195.3077966413461
 42
0.0491268497694673
 10
-142.4855208439546
 20
194.6548917779871
 42
0.0491268497694673
 10
-142.721075678919
 20
193.8593249001107
 42
0.0491268497694673
 10
-142.8961087117676
 20
192.9516691966745
 42
0.0491268497694673
 10
-143.0038935212073
 20
191.9668053673425
 42
0.0491268497694673
 10
-143.0402879974578
 20
190.9425811767578
 42
0.0491268497694673
 10
-143.0038935212071
 20
189.9183569861731
 42
0.0491268497694673
 10
-142.8961087117675
 20
188.9334931568411
 42
0.0491268497694673
 10
-142.721075678919
 20
188.0258374534049
 42
0.0491268497694673
 10
-142.4855208439545
 20
187.2302705755284
 42
0.0491268497694673
 10
-142.1984964470809
 20
186.5773657121694
 42
0.0491268497694673
 10
-141.871032674905
 20
186.0922136310736
 42
0.0491268497694673
 10
-141.5157137765477
 20
185.7934584546408
 42
0.0491268497694673
 10
-141.1461944580078
 20
185.6925811767578
 42
-1.0
  0
TEXT
  5
18F
330
22
100
AcDbEntity
  8
0
  6
Continuous
 62
     7
100
AcDbText
 10
-303.9364557266235
 20
54.4123306274414
 30
0.0
 40
7.0
  1
ＤＬ－ＳＵＣ－４０Ｇ
 41
0.8443929888818491
100
AcDbText
  0
DIMENSION
  5
190
330
22
100
AcDbEntity
  8
0
  6
Continuous
 62
     7
100
AcDbDimension
  2
*D1
 10
-326.7052185016198
 20
134.6561449171812
 30
0.0
 11
-197.7271881103516
 21
210.010009765625
 31
0.0
 70
     3
 71
     5
 42
-1.0
  3
DIMSTYLE1
100
AcDbDiametricDimension
 15
-239.4979064983802
 25
185.6059705613344
 35
0.0
 40
0.0
  0
DIMENSION
  5
191
330
22
100
AcDbEntity
  8
0
  6
Continuous
 62
     7
100
AcDbDimension
  2
*D2
 10
-323.1086750446846
 20
148.0755658763777
 30
0.0
 11
-193.48876953125
 21
186.9154663085938
 31
0.0
 70
     3
 71
     5
 42
-1.0
  3
DIMSTYLE2
100
AcDbDiametricDimension
 15
-242.6434001506279
 25
172.1865496021379
 35
0.0
 40
0.0
  0
DIMENSION
  5
192
330
22
100
AcDbEntity
  8
0
  6
Continuous
 62
     7
100
AcDbDimension
  2
*D3
 10
-96.14618682861328
 20
239.5487213134766
 30
0.0
 11
-118.6461868286133
 21
239.5487213134766
 31
0.0
 71
     5
 42
-1.0
  3
DIMSTYLE3
100
AcDbAlignedDimension
 13
-141.1461944580078
 23
210.1310577392578
 33
0.0
 14
-96.14618682861328
 24
187.6310577392578
 34
0.0
100
AcDbRotatedDimension
  0
INSERT
  5
193
330
22
100
AcDbEntity
  8
0
  6
Continuous
 62
     7
100
AcDbBlockReference
  2
KOZU0001
 10
-102.2052459716797
 20
182.3409729003906
 30
0.0
  0
ENDSEC
  0
SECTION
  2
OBJECTS
  0
DICTIONARY
  5
C
330
0
100
AcDbDictionary
281
     1
  3
ACAD_COLOR
350
1B
  3
ACAD_GROUP
350
D
  3
ACAD_LAYOUT
350
19
  3
ACAD_MATERIAL
350
1A
  3
ACAD_MLINESTYLE
350
16
  3
ACAD_PLOTSETTINGS
350
18
  3
ACAD_PLOTSTYLENAME
350
E
  3
ACAD_TABLESTYLE
350
1C
  3
AcDbVariableDictionary
350
19F
  0
DICTIONARY
  5
1B
102
{ACAD_REACTORS
330
C
102
}
330
C
100
AcDbDictionary
281
     1
  0
DICTIONARY
  5
D
102
{ACAD_REACTORS
330
C
102
}
330
C
100
AcDbDictionary
281
     1
  0
DICTIONARY
  5
19
102
{ACAD_REACTORS
330
C
102
}
330
C
100
AcDbDictionary
281
     1
  3
Model
350
25
  3
レイアウト1
350
21
  0
DICTIONARY
  5
1A
102
{ACAD_REACTORS
330
C
102
}
330
C
100
AcDbDictionary
281
     1
  0
DICTIONARY
  5
16
102
{ACAD_REACTORS
330
C
102
}
330
C
100
AcDbDictionary
281
     1
  3
Standard
350
17
  0
DICTIONARY
  5
18
102
{ACAD_REACTORS
330
C
102
}
330
C
100
AcDbDictionary
281
     1
  0
ACDBDICTIONARYWDFLT
  5
E
102
{ACAD_REACTORS
330
C
102
}
330
C
100
AcDbDictionary
281
     1
  3
Normal
350
F
100
AcDbDictionaryWithDefault
340
F
  0
DICTIONARY
  5
1C
102
{ACAD_REACTORS
330
C
102
}
330
C
100
AcDbDictionary
281
     1
  3
Standard
350
1D
  0
DICTIONARY
  5
19F
102
{ACAD_REACTORS
330
C
102
}
330
C
100
AcDbDictionary
281
     1
  3
CTABLESTYLE
350
1A0
  0
LAYOUT
  5
25
102
{ACAD_REACTORS
330
19
102
}
330
19
100
AcDbPlotSettings
  1

  2
PDF reDirect v2
  4
A3
  6

 40
3.174999952316284
 41
3.174999952316284
 42
3.17498779296875
 43
3.17498779296875
 44
297.0530090332031
 45
420.1583251953125
 46
0.0
 47
0.0
 48
0.0
 49
0.0
140
0.0
141
0.0
142
1.0
143
1.0
 70
 11952
 72
     1
 73
     1
 74
     2
  7
C:\Users\ck\AppData\Roaming\Autodesk\AutoCAD 2005\R16.1\jpn\Plot Styles\black.ctb
 75
    16
147
1.0
 76
     0
 77
     2
 78
   300
148
423.0
149
2.0
100
AcDbLayout
  1
Model
 70
     1
 71
     0
 10
0.0
 20
0.0
 11
12.0
 21
9.0
 12
0.0
 22
0.0
 32
0.0
 14
0.0
 24
0.0
 34
0.0
 15
0.0
 25
0.0
 35
0.0
146
0.0
 13
0.0
 23
0.0
 33
0.0
 16
1.0
 26
0.0
 36
0.0
 17
0.0
 27
1.0
 37
0.0
 76
     0
330
22
1001
ACAD_PSEXT
1000
PDF reDirect v2
1000
PDF reDirect Pro
1000
PDF_REDIRECT_PORT:
1000
PDF reDirect provided by EXP Systems
1070
     0
  0
LAYOUT
  5
21
102
{ACAD_REACTORS
330
19
102
}
330
19
100
AcDbPlotSettings
  1

  2
PDF reDirect v2
  4

  6

 40
0.0
 41
0.0
 42
0.0
 43
0.0
 44
0.0
 45
0.0
 46
0.0
 47
0.0
 48
0.0
 49
0.0
140
0.0
141
0.0
142
1.0
143
1.0
 70
   688
 72
     0
 73
     0
 74
     5
  7
C:\Users\ck\AppData\Roaming\Autodesk\AutoCAD 2005\R16.1\jpn\Plot Styles\black.ctb
 75
    16
147
1.0
 76
     0
 77
     2
 78
   300
148
0.0
149
0.0
100
AcDbLayout
  1
レイアウト1
 70
     1
 71
     1
 10
-423.0
 20
-2.0
 11
-5.0
 21
293.0
 12
0.0
 22
0.0
 32
0.0
 14
1.000000000000000E+20
 24
1.000000000000000E+20
 34
1.000000000000000E+20
 15
-1.000000000000000E+20
 25
-1.000000000000000E+20
 35
-1.000000000000000E+20
146
0.0
 13
0.0
 23
0.0
 33
0.0
 16
1.0
 26
0.0
 36
0.0
 17
0.0
 27
1.0
 37
0.0
 76
     0
330
1E
  0
MLINESTYLE
  5
17
102
{ACAD_REACTORS
330
16
102
}
330
16
100
AcDbMlineStyle
  2
STANDARD
 70
     0
  3

 62
   256
 51
90.0
 52
90.0
 71
     2
 49
0.5
 62
   256
  6
BYLAYER
 49
-0.5
 62
   256
  6
BYLAYER
  0
ACDBPLACEHOLDER
  5
F
102
{ACAD_REACTORS
330
E
102
}
330
E
  0
TABLESTYLE
  5
1D
102
{ACAD_REACTORS
330
1C
102
}
330
1C
100
AcDbTableStyle
  3
Standard
 70
     0
 71
     0
 40
0.06
 41
0.06
280
     0
281
     0
  7
STANDARD
140
0.18
170
     2
 62
     0
 63
     7
283
     0
274
    -2
284
     1
 64
     0
275
    -2
285
     1
 65
     0
276
    -2
286
     1
 66
     0
277
    -2
287
     1
 67
     0
278
    -2
288
     1
 68
     0
279
    -2
289
     1
 69
     0
  7
STANDARD
140
0.25
170
     5
 62
     0
 63
     7
283
     0
274
    -2
284
     1
 64
     0
275
    -2
285
     1
 65
     0
276
    -2
286
     1
 66
     0
277
    -2
287
     1
 67
     0
278
    -2
288
     1
 68
     0
279
    -2
289
     1
 69
     0
  7
STANDARD
140
0.18
170
     5
 62
     0
 63
     7
283
     0
274
    -2
284
     1
 64
     0
275
    -2
285
     1
 65
     0
276
    -2
286
     1
 66
     0
277
    -2
287
     1
 67
     0
278
    -2
288
     1
 68
     0
279
    -2
289
     1
 69
     0
  0
DICTIONARYVAR
  5
1A0
102
{ACAD_REACTORS
330
19F
102
}
330
19F
100
DictionaryVariables
280
     0
  1
STANDARD
  0
ENDSEC
  0
EOF
