  0
SECTION
  2
HEADER
  9
$ACADVER
  1
AC1018
  9
$ACADMAINTVER
 70
    39
  9
$DWGCODEPAGE
  3
ANSI_932
  9
$INSBASE
 10
0.0
 20
0.0
 30
0.0
  9
$EXTMIN
 10
-602.3143288257001
 20
21.44467303185343
 30
-0.0015258207003583
  9
$EXTMAX
 10
-162.6253797055983
 20
561.3940900866805
 30
0.0000000349246037
  9
$LIMMIN
 10
-839.0
 20
0.0
  9
$LIMMAX
 10
0.0
 20
591.0
  9
$ORTHOMODE
 70
     0
  9
$REGENMODE
 70
     1
  9
$FILLMODE
 70
     1
  9
$QTEXTMODE
 70
     0
  9
$MIRRTEXT
 70
     0
  9
$LTSCALE
 40
1.0
  9
$ATTMODE
 70
     1
  9
$TEXTSIZE
 40
0.2
  9
$TRACEWID
 40
0.05
  9
$TEXTSTYLE
  7
STANDARD
  9
$CLAYER
  8
0
  9
$CELTYPE
  6
CONTINUOUS
  9
$CECOLOR
 62
   256
  9
$CELTSCALE
 40
1.0
  9
$DISPSILH
 70
     0
  9
$DIMSCALE
 40
1.0
  9
$DIMASZ
 40
1.0
  9
$DIMEXO
 40
2.54
  9
$DIMDLI
 40
0.38
  9
$DIMRND
 40
0.0
  9
$DIMDLE
 40
0.0
  9
$DIMEXE
 40
2.54
  9
$DIMTP
 40
0.0
  9
$DIMTM
 40
0.0
  9
$DIMTXT
 40
3.0
  9
$DIMCEN
 40
0.09
  9
$DIMTSZ
 40
0.0
  9
$DIMTOL
 70
     0
  9
$DIMLIM
 70
     0
  9
$DIMTIH
 70
     0
  9
$DIMTOH
 70
     0
  9
$DIMSE1
 70
     0
  9
$DIMSE2
 70
     0
  9
$DIMTAD
 70
     1
  9
$DIMZIN
 70
     0
  9
$DIMBLK
  1

  9
$DIMASO
 70
     1
  9
$DIMSHO
 70
     0
  9
$DIMPOST
  1

  9
$DIMAPOST
  1

  9
$DIMALT
 70
     0
  9
$DIMALTD
 70
     2
  9
$DIMALTF
 40
25.4
  9
$DIMLFAC
 40
1.0
  9
$DIMTOFL
 70
     0
  9
$DIMTVP
 40
1.0
  9
$DIMTIX
 70
     0
  9
$DIMSOXD
 70
     0
  9
$DIMSAH
 70
     1
  9
$DIMBLK1
  1

  9
$DIMBLK2
  1

  9
$DIMSTYLE
  2
DIMSTYLE1
  9
$DIMCLRD
 70
     0
  9
$DIMCLRE
 70
     0
  9
$DIMCLRT
 70
     0
  9
$DIMTFAC
 40
1.0
  9
$DIMGAP
 40
1.5
  9
$DIMJUST
 70
     0
  9
$DIMSD1
 70
     0
  9
$DIMSD2
 70
     0
  9
$DIMTOLJ
 70
     1
  9
$DIMTZIN
 70
     0
  9
$DIMALTZ
 70
     0
  9
$DIMALTTZ
 70
     0
  9
$DIMUPT
 70
     0
  9
$DIMDEC
 70
     4
  9
$DIMTDEC
 70
     4
  9
$DIMALTU
 70
     2
  9
$DIMALTTD
 70
     2
  9
$DIMTXSTY
  7
STANDARD
  9
$DIMAUNIT
 70
     0
  9
$DIMADEC
 70
     0
  9
$DIMALTRND
 40
0.0
  9
$DIMAZIN
 70
     0
  9
$DIMDSEP
 70
    46
  9
$DIMATFIT
 70
     3
  9
$DIMFRAC
 70
     0
  9
$DIMLDRBLK
  1

  9
$DIMLUNIT
 70
     2
  9
$DIMLWD
 70
    -2
  9
$DIMLWE
 70
    -2
  9
$DIMTMOVE
 70
     0
  9
$LUNITS
 70
     2
  9
$LUPREC
 70
     4
  9
$SKETCHINC
 40
0.1
  9
$FILLETRAD
 40
0.0
  9
$AUNITS
 70
     0
  9
$AUPREC
 70
     0
  9
$MENU
  1
.
  9
$ELEVATION
 40
0.0
  9
$PELEVATION
 40
0.0
  9
$THICKNESS
 40
0.0
  9
$LIMCHECK
 70
     0
  9
$CHAMFERA
 40
0.0
  9
$CHAMFERB
 40
0.0
  9
$CHAMFERC
 40
0.0
  9
$CHAMFERD
 40
0.0
  9
$SKPOLY
 70
     0
  9
$TDCREATE
 40
2457842.552785648
  9
$TDUCREATE
 40
2457842.177785648
  9
$TDUPDATE
 40
2457842.553294328
  9
$TDUUPDATE
 40
2457842.178294328
  9
$TDINDWG
 40
0.0005092593
  9
$TDUSRTIMER
 40
0.0005092593
  9
$USRTIMER
 70
     1
  9
$ANGBASE
 50
0.0
  9
$ANGDIR
 70
     0
  9
$PDMODE
 70
     0
  9
$PDSIZE
 40
0.0
  9
$PLINEWID
 40
0.0
  9
$SPLFRAME
 70
     0
  9
$SPLINETYPE
 70
     6
  9
$SPLINESEGS
 70
     8
  9
$HANDSEED
  5
57A
  9
$SURFTAB1
 70
     6
  9
$SURFTAB2
 70
     6
  9
$SURFTYPE
 70
     6
  9
$SURFU
 70
     6
  9
$SURFV
 70
     6
  9
$UCSBASE
  2

  9
$UCSNAME
  2

  9
$UCSORG
 10
0.0
 20
0.0
 30
0.0
  9
$UCSXDIR
 10
1.0
 20
0.0
 30
0.0
  9
$UCSYDIR
 10
0.0
 20
1.0
 30
0.0
  9
$UCSORTHOREF
  2

  9
$UCSORTHOVIEW
 70
     0
  9
$UCSORGTOP
 10
0.0
 20
0.0
 30
0.0
  9
$UCSORGBOTTOM
 10
0.0
 20
0.0
 30
0.0
  9
$UCSORGLEFT
 10
0.0
 20
0.0
 30
0.0
  9
$UCSORGRIGHT
 10
0.0
 20
0.0
 30
0.0
  9
$UCSORGFRONT
 10
0.0
 20
0.0
 30
0.0
  9
$UCSORGBACK
 10
0.0
 20
0.0
 30
0.0
  9
$PUCSBASE
  2

  9
$PUCSNAME
  2

  9
$PUCSORG
 10
0.0
 20
0.0
 30
0.0
  9
$PUCSXDIR
 10
1.0
 20
0.0
 30
0.0
  9
$PUCSYDIR
 10
0.0
 20
1.0
 30
0.0
  9
$PUCSORTHOREF
  2

  9
$PUCSORTHOVIEW
 70
     0
  9
$PUCSORGTOP
 10
0.0
 20
0.0
 30
0.0
  9
$PUCSORGBOTTOM
 10
0.0
 20
0.0
 30
0.0
  9
$PUCSORGLEFT
 10
0.0
 20
0.0
 30
0.0
  9
$PUCSORGRIGHT
 10
0.0
 20
0.0
 30
0.0
  9
$PUCSORGFRONT
 10
0.0
 20
0.0
 30
0.0
  9
$PUCSORGBACK
 10
0.0
 20
0.0
 30
0.0
  9
$USERI1
 70
     0
  9
$USERI2
 70
     0
  9
$USERI3
 70
     0
  9
$USERI4
 70
     0
  9
$USERI5
 70
     0
  9
$USERR1
 40
0.0
  9
$USERR2
 40
0.0
  9
$USERR3
 40
0.0
  9
$USERR4
 40
0.0
  9
$USERR5
 40
0.0
  9
$WORLDVIEW
 70
     1
  9
$SHADEDGE
 70
     3
  9
$SHADEDIF
 70
    70
  9
$TILEMODE
 70
     1
  9
$MAXACTVP
 70
    64
  9
$PINSBASE
 10
0.0
 20
0.0
 30
0.0
  9
$PLIMCHECK
 70
     0
  9
$PEXTMIN
 10
1.000000000000000E+20
 20
1.000000000000000E+20
 30
1.000000000000000E+20
  9
$PEXTMAX
 10
-1.000000000000000E+20
 20
-1.000000000000000E+20
 30
-1.000000000000000E+20
  9
$PLIMMIN
 10
-839.0
 20
0.0
  9
$PLIMMAX
 10
0.0
 20
591.0
  9
$UNITMODE
 70
     0
  9
$VISRETAIN
 70
     1
  9
$PLINEGEN
 70
     0
  9
$PSLTSCALE
 70
     1
  9
$TREEDEPTH
 70
  3020
  9
$CMLSTYLE
  2
Standard
  9
$CMLJUST
 70
     0
  9
$CMLSCALE
 40
1.0
  9
$PROXYGRAPHICS
 70
     1
  9
$MEASUREMENT
 70
     0
  9
$CELWEIGHT
370
    -1
  9
$ENDCAPS
280
     0
  9
$JOINSTYLE
280
     0
  9
$LWDISPLAY
290
     0
  9
$INSUNITS
 70
     0
  9
$HYPERLINKBASE
  1

  9
$STYLESHEET
  1

  9
$XEDIT
290
     1
  9
$CEPSNTYPE
380
     0
  9
$PSTYLEMODE
290
     1
  9
$FINGERPRINTGUID
  2
{6D0CA0C2-C6A1-41BC-8E1E-E26D926BBE5B}
  9
$VERSIONGUID
  2
{3E06138C-708E-4C1F-8A7E-4EDC90FBE964}
  9
$EXTNAMES
290
     1
  9
$PSVPSCALE
 40
0.0
  9
$OLESTARTUP
290
     0
  9
$SORTENTS
280
   127
  9
$INDEXCTL
280
     0
  9
$HIDETEXT
280
     0
  9
$XCLIPFRAME
290
     0
  9
$HALOGAP
280
     0
  9
$OBSCOLOR
 70
   257
  9
$OBSLTYPE
280
     0
  9
$INTERSECTIONDISPLAY
280
     0
  9
$INTERSECTIONCOLOR
 70
   257
  9
$DIMASSOC
280
     1
  9
$PROJECTNAME
  1

  0
ENDSEC
  0
SECTION
  2
CLASSES
  0
CLASS
  1
ACDBDICTIONARYWDFLT
  2
AcDbDictionaryWithDefault
  3
ObjectDBX Classes
 90
        0
 91
        1
280
     0
281
     0
  0
CLASS
  1
TABLESTYLE
  2
AcDbTableStyle
  3
ObjectDBX Classes
 90
     2047
 91
        1
280
     0
281
     0
  0
CLASS
  1
DICTIONARYVAR
  2
AcDbDictionaryVar
  3
ObjectDBX Classes
 90
        0
 91
        1
280
     0
281
     0
  0
ENDSEC
  0
SECTION
  2
TABLES
  0
TABLE
  2
VPORT
  5
8
330
0
100
AcDbSymbolTable
 70
     2
  0
VPORT
  5
579
330
8
100
AcDbSymbolTableRecord
100
AcDbViewportTableRecord
  2
*Active
 70
     0
 10
0.0
 20
0.0
 11
1.0
 21
1.0
 12
-419.5
 22
295.5
 13
0.0
 23
0.0
 14
1.0
 24
1.0
 15
0.0
 25
0.0
 16
0.0
 26
0.0
 36
1.0
 17
0.0
 27
0.0
 37
0.0
 40
595.6719367588932
 41
1.707124010554089
 42
50.0
 43
0.0
 44
0.0
 50
0.0
 51
0.0
 71
     0
 72
   100
 73
     1
 74
     1
 75
     0
 76
     0
 77
     0
 78
     0
281
     0
 65
     1
110
0.0
120
0.0
130
0.0
111
1.0
121
0.0
131
0.0
112
0.0
122
1.0
132
0.0
 79
     0
146
0.0
  0
ENDTAB
  0
TABLE
  2
LTYPE
  5
5
330
0
100
AcDbSymbolTable
 70
     6
  0
LTYPE
  5
13
330
5
100
AcDbSymbolTableRecord
100
AcDbLinetypeTableRecord
  2
ByBlock
 70
     0
  3

 72
    65
 73
     0
 40
0.0
  0
LTYPE
  5
14
330
5
100
AcDbSymbolTableRecord
100
AcDbLinetypeTableRecord
  2
ByLayer
 70
     0
  3

 72
    65
 73
     0
 40
0.0
  0
LTYPE
  5
15
330
5
100
AcDbSymbolTableRecord
100
AcDbLinetypeTableRecord
  2
CONTINUOUS
 70
     0
  3
Solid line
 72
    65
 73
     0
 40
0.0
  0
LTYPE
  5
26
330
5
100
AcDbSymbolTableRecord
100
AcDbLinetypeTableRecord
  2
DASHED
 70
     0
  3
__ __ __ __ __ __ __ __ __ __ __ __ __ __ __
 72
    65
 73
     2
 40
3.5
 49
2.0
 74
     0
 49
-1.5
 74
     0
  0
LTYPE
  5
27
330
5
100
AcDbSymbolTableRecord
100
AcDbLinetypeTableRecord
  2
CENTER
 70
     0
  3
____ _ ____ _ ____ _ ____ _ ____ _ ____ _ ____
 72
    65
 73
     4
 40
17.5
 49
13.0
 74
     0
 49
-1.5
 74
     0
 49
1.5
 74
     0
 49
-1.5
 74
     0
  0
LTYPE
  5
28
330
5
100
AcDbSymbolTableRecord
100
AcDbLinetypeTableRecord
  2
PHANTOM
 70
     0
  3
_____ _ _ _____ _ _ _____ _ _ _____ _ _ ____  
 72
    65
 73
     6
 40
15.5
 49
8.0
 74
     0
 49
-1.5
 74
     0
 49
1.5
 74
     0
 49
-1.5
 74
     0
 49
1.5
 74
     0
 49
-1.5
 74
     0
  0
LTYPE
  5
29
330
5
100
AcDbSymbolTableRecord
100
AcDbLinetypeTableRecord
  2
DOT
 70
     0
  3
. . . . . . . . . . . . . . . . . . . . . . . .
 72
    65
 73
     2
 40
0.25
 49
0.0
 74
     0
 49
-0.25
 74
     0
  0
LTYPE
  5
2A
330
5
100
AcDbSymbolTableRecord
100
AcDbLinetypeTableRecord
  2
HIDDEN
 70
     0
  3
__ __ __ __ __ __ __ __ __ __ __ __ __ __ __
 72
    65
 73
     2
 40
3.5
 49
2.0
 74
     0
 49
-1.5
 74
     0
  0
ENDTAB
  0
TABLE
  2
LAYER
  5
2
330
0
100
AcDbSymbolTable
 70
     2
  0
LAYER
  5
10
330
2
100
AcDbSymbolTableRecord
100
AcDbLayerTableRecord
  2
0
 70
     0
 62
     7
  6
CONTINUOUS
370
    -3
390
F
  0
LAYER
  5
2B
330
2
100
AcDbSymbolTableRecord
100
AcDbLayerTableRecord
  2
DEFPOINTS
 70
     0
 62
     7
  6
CONTINUOUS
290
     0
370
    -3
390
F
  0
ENDTAB
  0
TABLE
  2
STYLE
  5
3
330
0
100
AcDbSymbolTable
 70
     2
  0
STYLE
  5
11
330
3
100
AcDbSymbolTableRecord
100
AcDbTextStyleTableRecord
  2
STANDARD
 70
     0
 40
0.0
 41
1.0
 50
0.0
 71
     0
 42
0.2
  3

  4

1001
ACAD
1000
MS Gothic
1071
    32817
  0
ENDTAB
  0
TABLE
  2
VIEW
  5
6
330
0
100
AcDbSymbolTable
 70
     0
  0
ENDTAB
  0
TABLE
  2
UCS
  5
7
330
0
100
AcDbSymbolTable
 70
     0
  0
ENDTAB
  0
TABLE
  2
APPID
  5
9
330
0
100
AcDbSymbolTable
 70
     2
  0
APPID
  5
12
330
9
100
AcDbSymbolTableRecord
100
AcDbRegAppTableRecord
  2
ACAD
 70
     0
  0
APPID
  5
56E
330
9
100
AcDbSymbolTableRecord
100
AcDbRegAppTableRecord
  2
ACAD_PSEXT
 70
     0
  0
ENDTAB
  0
TABLE
  2
DIMSTYLE
  5
A
330
0
100
AcDbSymbolTable
 70
     6
100
AcDbDimStyleTable
 71
     1
340
2C
  0
DIMSTYLE
105
2C
102
{ACAD_REACTORS
330
567
102
}
330
A
100
AcDbSymbolTableRecord
100
AcDbDimStyleTableRecord
  2
DIMSTYLE1
 70
     0
 41
1.0
 42
2.54
 44
2.54
 73
     0
 74
     0
 77
     1
140
3.0
145
1.0
147
1.5
172
     1
173
     1
279
     2
340
11
  0
DIMSTYLE
105
2D
102
{ACAD_REACTORS
330
568
102
}
330
A
100
AcDbSymbolTableRecord
100
AcDbDimStyleTableRecord
  2
DIMSTYLE2
 70
     0
 41
1.0
 42
2.54
 44
2.54
 73
     0
 74
     0
 77
     1
140
3.0
145
1.0
147
1.5
172
     1
173
     1
279
     2
340
11
  0
DIMSTYLE
105
2E
102
{ACAD_REACTORS
330
569
102
}
330
A
100
AcDbSymbolTableRecord
100
AcDbDimStyleTableRecord
  2
DIMSTYLE3
 70
     0
 41
1.0
 42
2.54
 44
2.54
 73
     0
 74
     0
 77
     1
140
3.0
145
1.0
147
1.5
172
     1
173
     1
279
     2
340
11
  0
DIMSTYLE
105
2F
102
{ACAD_REACTORS
330
56A
102
}
330
A
100
AcDbSymbolTableRecord
100
AcDbDimStyleTableRecord
  2
DIMSTYLE4
 70
     0
 41
1.0
 42
2.54
 44
2.54
 73
     0
 74
     0
 77
     1
140
3.0
145
1.0
147
1.5
172
     1
173
     1
279
     2
340
11
  0
DIMSTYLE
105
30
102
{ACAD_REACTORS
330
56B
102
}
330
A
100
AcDbSymbolTableRecord
100
AcDbDimStyleTableRecord
  2
DIMSTYLE5
 70
     0
 41
1.0
 42
2.54
 44
2.54
 73
     0
 74
     0
 77
     1
140
3.0
145
1.0
147
1.5
172
     1
173
     1
279
     2
340
11
  0
ENDTAB
  0
TABLE
  2
BLOCK_RECORD
  5
1
330
0
100
AcDbSymbolTable
 70
     8
  0
BLOCK_RECORD
  5
22
330
1
100
AcDbSymbolTableRecord
100
AcDbBlockTableRecord
  2
*Model_Space
340
25
  0
BLOCK_RECORD
  5
1E
330
1
100
AcDbSymbolTableRecord
100
AcDbBlockTableRecord
  2
*Paper_Space
340
21
  0
BLOCK_RECORD
  5
34
330
1
100
AcDbSymbolTableRecord
100
AcDbBlockTableRecord
  2
_OPEN30
340
0
102
{BLKREFS
331
3D
331
3E
331
49
331
4A
331
55
331
56
331
61
331
62
331
6D
331
6E
102
}
  0
BLOCK_RECORD
  5
3A
330
1
100
AcDbSymbolTableRecord
100
AcDbBlockTableRecord
  2
*D1
340
0
  0
BLOCK_RECORD
  5
46
330
1
100
AcDbSymbolTableRecord
100
AcDbBlockTableRecord
  2
*D2
340
0
  0
BLOCK_RECORD
  5
52
330
1
100
AcDbSymbolTableRecord
100
AcDbBlockTableRecord
  2
*D3
340
0
  0
BLOCK_RECORD
  5
5E
330
1
100
AcDbSymbolTableRecord
100
AcDbBlockTableRecord
  2
*D4
340
0
  0
BLOCK_RECORD
  5
6A
330
1
100
AcDbSymbolTableRecord
100
AcDbBlockTableRecord
  2
*D5
340
0
  0
BLOCK_RECORD
  5
76
330
1
100
AcDbSymbolTableRecord
100
AcDbBlockTableRecord
  2
KOZU0001
340
0
102
{BLKREFS
331
566
102
}
  0
ENDTAB
  0
ENDSEC
  0
SECTION
  2
BLOCKS
  0
BLOCK
  5
23
330
22
100
AcDbEntity
  8
0
100
AcDbBlockBegin
  2
*Model_Space
 70
     0
 10
0.0
 20
0.0
 30
0.0
  3
*Model_Space
  1

  0
ENDBLK
  5
24
330
22
100
AcDbEntity
  8
0
100
AcDbBlockEnd
  0
BLOCK
  5
1F
330
1E
100
AcDbEntity
 67
     1
  8
0
100
AcDbBlockBegin
  2
*Paper_Space
 70
     0
 10
0.0
 20
0.0
 30
0.0
  3
*Paper_Space
  1

  0
ENDBLK
  5
20
330
1E
100
AcDbEntity
 67
     1
  8
0
100
AcDbBlockEnd
  0
BLOCK
  5
35
330
34
100
AcDbEntity
  8
0
100
AcDbBlockBegin
  2
_OPEN30
 70
     0
 10
0.0
 20
0.0
 30
0.0
  3
_OPEN30
  1

  0
LINE
  5
36
330
34
100
AcDbEntity
  8
0
  6
ByBlock
 62
     0
100
AcDbLine
 10
0.0
 20
0.0
 30
0.0
 11
-2.999999999999993
 21
-1.000000000000017
 31
0.0
  0
LINE
  5
37
330
34
100
AcDbEntity
  8
0
  6
ByBlock
 62
     0
100
AcDbLine
 10
0.0
 20
0.0
 30
0.0
 11
-3.000000000000006
 21
0.9999999999999815
 31
0.0
  0
LINE
  5
38
330
34
100
AcDbEntity
  8
0
  6
ByBlock
 62
     0
100
AcDbLine
 10
0.0
 20
0.0
 30
0.0
 11
-3.0
 21
0.0
 31
0.0
  0
ENDBLK
  5
39
330
34
100
AcDbEntity
  8
0
100
AcDbBlockEnd
  0
BLOCK
  5
3B
330
3A
100
AcDbEntity
  8
0
100
AcDbBlockBegin
  2
*D1
 70
     1
 10
0.0
 20
0.0
 30
0.0
  3
*D1
  1

  0
LINE
  5
3C
330
3A
100
AcDbEntity
  8
0
  6
Continuous
 62
     7
100
AcDbLine
 10
-250.7546997070313
 20
226.1767425537109
 30
0.0
 11
-250.7546997070312
 21
520.1767578124999
 31
0.0
  0
INSERT
  5
3D
330
3A
100
AcDbEntity
  8
0
  6
Continuous
 62
     7
100
AcDbBlockReference
  2
_OPEN30
 10
-250.7546997070313
 20
223.1767425537109
 30
0.0
 50
270.0000000000005
  0
INSERT
  5
3E
330
3A
100
AcDbEntity
  8
0
  6
Continuous
 62
     7
100
AcDbBlockReference
  2
_OPEN30
 10
-250.7546997070313
 20
523.1767578124999
 30
0.0
 50
90.00000000000019
  0
LINE
  5
3F
330
3A
100
AcDbEntity
  8
0
  6
Continuous
 62
     7
100
AcDbLine
 10
-293.3481225585937
 20
223.1767425537109
 30
0.0
 11
-248.4686889648438
 21
223.1767425537109
 31
0.0
  0
LINE
  5
40
330
3A
100
AcDbEntity
  8
0
  6
Continuous
 62
     7
100
AcDbLine
 10
-293.3481225585937
 20
523.1767578124999
 30
0.0
 11
-248.4686889648438
 21
523.1767578124999
 31
0.0
  0
TEXT
  5
41
330
3A
100
AcDbEntity
  8
0
  6
Continuous
 62
     7
100
AcDbText
 10
-251.5046995291259
 20
369.106727090477
 30
0.0
 40
3.0
  1
300
 50
90.00000250447815
 41
1.135813968126164
100
AcDbText
  0
POINT
  5
42
330
3A
100
AcDbEntity
  8
DEFPOINTS
  6
Continuous
 62
     7
100
AcDbPoint
 10
-295.8881225585938
 20
223.1767425537109
 30
0.0
  0
POINT
  5
43
330
3A
100
AcDbEntity
  8
DEFPOINTS
  6
Continuous
 62
     7
100
AcDbPoint
 10
-295.8881225585938
 20
523.1767578124999
 30
0.0
  0
POINT
  5
44
330
3A
100
AcDbEntity
  8
DEFPOINTS
  6
Continuous
 62
     7
100
AcDbPoint
 10
-250.7546997070313
 20
523.1767578124999
 30
0.0
  0
ENDBLK
  5
45
330
3A
100
AcDbEntity
  8
0
100
AcDbBlockEnd
  0
BLOCK
  5
47
330
46
100
AcDbEntity
  8
0
100
AcDbBlockBegin
  2
*D2
 70
     1
 10
0.0
 20
0.0
 30
0.0
  3
*D2
  1

  0
LINE
  5
48
330
46
100
AcDbEntity
  8
0
  6
Continuous
 62
     7
100
AcDbLine
 10
-587.8881225585937
 20
557.2726440429688
 30
0.0
 11
-293.8881225585938
 21
557.2726440429688
 31
0.0
  0
INSERT
  5
49
330
46
100
AcDbEntity
  8
0
  6
Continuous
 62
     7
100
AcDbBlockReference
  2
_OPEN30
 10
-590.8881225585937
 20
557.2726440429688
 30
0.0
 50
180.0000000000004
  0
INSERT
  5
4A
330
46
100
AcDbEntity
  8
0
  6
Continuous
 62
     7
100
AcDbBlockReference
  2
_OPEN30
 10
-290.8881225585938
 20
557.2726440429688
 30
0.0
  0
LINE
  5
4B
330
46
100
AcDbEntity
  8
0
  6
Continuous
 62
     7
100
AcDbLine
 10
-590.8881225585937
 20
520.7167578124999
 30
0.0
 11
-590.8881225585937
 21
559.5586547851564
 31
0.0
  0
LINE
  5
4C
330
46
100
AcDbEntity
  8
0
  6
Continuous
 62
     7
100
AcDbLine
 10
-290.8881225585938
 20
520.7167578124999
 30
0.0
 11
-290.8881225585938
 21
559.5586547851564
 31
0.0
  0
TEXT
  5
4D
330
46
100
AcDbEntity
  8
0
  6
Continuous
 62
     7
100
AcDbText
 10
-444.9581227302551
 20
558.0226440429688
 30
0.0
 40
3.0
  1
300
 41
1.135813968126164
100
AcDbText
  0
POINT
  5
4E
330
46
100
AcDbEntity
  8
DEFPOINTS
  6
Continuous
 62
     7
100
AcDbPoint
 10
-590.8881225585937
 20
518.1767578125
 30
0.0
  0
POINT
  5
4F
330
46
100
AcDbEntity
  8
DEFPOINTS
  6
Continuous
 62
     7
100
AcDbPoint
 10
-290.8881225585938
 20
518.1767578125
 30
0.0
  0
POINT
  5
50
330
46
100
AcDbEntity
  8
DEFPOINTS
  6
Continuous
 62
     7
100
AcDbPoint
 10
-290.8881225585938
 20
557.2726440429688
 30
0.0
  0
ENDBLK
  5
51
330
46
100
AcDbEntity
  8
0
100
AcDbBlockEnd
  0
BLOCK
  5
53
330
52
100
AcDbEntity
  8
0
100
AcDbBlockBegin
  2
*D3
 70
     1
 10
0.0
 20
0.0
 30
0.0
  3
*D3
  1

  0
LINE
  5
54
330
52
100
AcDbEntity
  8
0
  6
Continuous
 62
     7
100
AcDbLine
 10
-264.8357543945313
 20
49.5848388671875
 30
0.0
 11
-264.8357543945313
 21
148.5848388671875
 31
0.0
  0
INSERT
  5
55
330
52
100
AcDbEntity
  8
0
  6
Continuous
 62
     7
100
AcDbBlockReference
  2
_OPEN30
 10
-264.8357543945313
 20
46.5848388671875
 30
0.0
 50
270.0000000000005
  0
INSERT
  5
56
330
52
100
AcDbEntity
  8
0
  6
Continuous
 62
     7
100
AcDbBlockReference
  2
_OPEN30
 10
-264.8357543945313
 20
151.5848388671875
 30
0.0
 50
90.00000000000019
  0
LINE
  5
57
330
52
100
AcDbEntity
  8
0
  6
Continuous
 62
     7
100
AcDbLine
 10
-388.8483972167969
 20
46.5848388671875
 30
0.0
 11
-262.5497436523438
 21
46.5848388671875
 31
0.0
  0
LINE
  5
58
330
52
100
AcDbEntity
  8
0
  6
Continuous
 62
     7
100
AcDbLine
 10
-289.3481225585937
 20
151.5848388671875
 30
0.0
 11
-262.5497436523438
 21
151.5848388671875
 31
0.0
  0
TEXT
  5
59
330
52
100
AcDbEntity
  8
0
  6
Continuous
 62
     7
100
AcDbText
 10
-265.5857542166259
 20
95.01483866274258
 30
0.0
 40
3.0
  1
105
 50
90.00000250447815
 41
1.252307708446795
100
AcDbText
  0
POINT
  5
5A
330
52
100
AcDbEntity
  8
DEFPOINTS
  6
Continuous
 62
     7
100
AcDbPoint
 10
-391.3883972167969
 20
46.5848388671875
 30
0.0
  0
POINT
  5
5B
330
52
100
AcDbEntity
  8
DEFPOINTS
  6
Continuous
 62
     7
100
AcDbPoint
 10
-291.8881225585938
 20
151.5848388671875
 30
0.0
  0
POINT
  5
5C
330
52
100
AcDbEntity
  8
DEFPOINTS
  6
Continuous
 62
     7
100
AcDbPoint
 10
-264.8357543945313
 20
151.5848388671875
 30
0.0
  0
ENDBLK
  5
5D
330
52
100
AcDbEntity
  8
0
100
AcDbBlockEnd
  0
BLOCK
  5
5F
330
5E
100
AcDbEntity
  8
0
100
AcDbBlockBegin
  2
*D4
 70
     1
 10
0.0
 20
0.0
 30
0.0
  3
*D4
  1

  0
LINE
  5
60
330
5E
100
AcDbEntity
  8
0
  6
Continuous
 62
     7
100
AcDbLine
 10
-573.3881225585937
 20
544.1240234374999
 30
0.0
 11
-308.3881225585938
 21
544.1240234374999
 31
0.0
  0
INSERT
  5
61
330
5E
100
AcDbEntity
  8
0
  6
Continuous
 62
     7
100
AcDbBlockReference
  2
_OPEN30
 10
-576.3881225585937
 20
544.1240234374999
 30
0.0
 50
180.0000000000004
  0
INSERT
  5
62
330
5E
100
AcDbEntity
  8
0
  6
Continuous
 62
     7
100
AcDbBlockReference
  2
_OPEN30
 10
-305.3881225585938
 20
544.1240234374999
 30
0.0
  0
LINE
  5
63
330
5E
100
AcDbEntity
  8
0
  6
Continuous
 62
     7
100
AcDbLine
 10
-576.3881225585937
 20
510.2167272949219
 30
0.0
 11
-576.3881225585937
 21
546.4100341796875
 31
0.0
  0
LINE
  5
64
330
5E
100
AcDbEntity
  8
0
  6
Continuous
 62
     7
100
AcDbLine
 10
-305.3881225585938
 20
510.2167272949219
 30
0.0
 11
-305.3881225585938
 21
546.4100341796875
 31
0.0
  0
TEXT
  5
65
330
5E
100
AcDbEntity
  8
0
  6
Continuous
 62
     7
100
AcDbText
 10
-444.9581227302551
 20
544.8740234375
 30
0.0
 40
3.0
  1
271
 41
1.110000014305114
100
AcDbText
  0
POINT
  5
66
330
5E
100
AcDbEntity
  8
DEFPOINTS
  6
Continuous
 62
     7
100
AcDbPoint
 10
-576.3881225585937
 20
507.6767272949219
 30
0.0
  0
POINT
  5
67
330
5E
100
AcDbEntity
  8
DEFPOINTS
  6
Continuous
 62
     7
100
AcDbPoint
 10
-305.3881225585938
 20
507.6767272949219
 30
0.0
  0
POINT
  5
68
330
5E
100
AcDbEntity
  8
DEFPOINTS
  6
Continuous
 62
     7
100
AcDbPoint
 10
-305.3881225585938
 20
544.1240234374999
 30
0.0
  0
ENDBLK
  5
69
330
5E
100
AcDbEntity
  8
0
100
AcDbBlockEnd
  0
BLOCK
  5
6B
330
6A
100
AcDbEntity
  8
0
100
AcDbBlockBegin
  2
*D5
 70
     1
 10
0.0
 20
0.0
 30
0.0
  3
*D5
  1

  0
LINE
  5
6C
330
6A
100
AcDbEntity
  8
0
  6
Continuous
 62
     7
100
AcDbLine
 10
-264.8357543945313
 20
240.6767425537109
 30
0.0
 11
-264.8357543945313
 21
505.6767272949218
 31
0.0
  0
INSERT
  5
6D
330
6A
100
AcDbEntity
  8
0
  6
Continuous
 62
     7
100
AcDbBlockReference
  2
_OPEN30
 10
-264.8357543945313
 20
237.6767425537109
 30
0.0
 50
270.0000000000005
  0
INSERT
  5
6E
330
6A
100
AcDbEntity
  8
0
  6
Continuous
 62
     7
100
AcDbBlockReference
  2
_OPEN30
 10
-264.8357543945313
 20
508.6767272949218
 30
0.0
 50
90.00000000000019
  0
LINE
  5
6F
330
6A
100
AcDbEntity
  8
0
  6
Continuous
 62
     7
100
AcDbLine
 10
-303.8481225585937
 20
237.6767425537109
 30
0.0
 11
-262.5497436523438
 21
237.6767425537109
 31
0.0
  0
LINE
  5
70
330
6A
100
AcDbEntity
  8
0
  6
Continuous
 62
     7
100
AcDbLine
 10
-303.8481225585937
 20
508.6767272949218
 30
0.0
 11
-262.5497436523438
 21
508.6767272949218
 31
0.0
  0
TEXT
  5
71
330
6A
100
AcDbEntity
  8
0
  6
Continuous
 62
     7
100
AcDbText
 10
-265.5857542166259
 20
369.106727090477
 30
0.0
 40
3.0
  1
271
 50
90.00000250447815
 41
1.110000014305114
100
AcDbText
  0
POINT
  5
72
330
6A
100
AcDbEntity
  8
DEFPOINTS
  6
Continuous
 62
     7
100
AcDbPoint
 10
-306.3881225585938
 20
237.6767425537109
 30
0.0
  0
POINT
  5
73
330
6A
100
AcDbEntity
  8
DEFPOINTS
  6
Continuous
 62
     7
100
AcDbPoint
 10
-306.3881225585938
 20
508.6767272949218
 30
0.0
  0
POINT
  5
74
330
6A
100
AcDbEntity
  8
DEFPOINTS
  6
Continuous
 62
     7
100
AcDbPoint
 10
-264.8357543945313
 20
508.6767272949218
 30
0.0
  0
ENDBLK
  5
75
330
6A
100
AcDbEntity
  8
0
100
AcDbBlockEnd
  0
BLOCK
  5
77
330
76
100
AcDbEntity
  8
0
100
AcDbBlockBegin
  2
KOZU0001
 70
     0
 10
0.0
 20
0.0
 30
0.0
  3
KOZU0001
  1

  0
LINE
  5
78
330
76
100
AcDbEntity
  8
0
  6
Continuous
 62
     7
100
AcDbLine
 10
0.0
 20
0.0
 30
0.0
 11
-23.83966064453125
 21
-33.73812103271484
 31
0.0
  0
LINE
  5
79
330
76
100
AcDbEntity
  8
0
  6
Continuous
 62
     7
100
AcDbLine
 10
-23.83966064453125
 20
-33.73812103271484
 30
0.0
 11
-56.36724853515625
 21
-33.73812103271484
 31
0.0
  0
LINE
  5
7A
330
76
100
AcDbEntity
  8
0
  6
Continuous
 62
     7
100
AcDbLine
 10
0.0
 20
0.0
 30
0.0
 11
-0.9145495118348371
 21
-3.027143734678394
 31
0.0
  0
LINE
  5
7B
330
76
100
AcDbEntity
  8
0
  6
Continuous
 62
     7
100
AcDbLine
 10
0.0
 20
0.0
 30
0.0
 11
-2.547925850274906
 21
-1.872985280641813
 31
0.0
  0
TEXT
  5
7C
330
76
100
AcDbEntity
  8
0
  6
Continuous
 62
     7
100
AcDbText
 10
-54.64724814891815
 20
-32.98812103271484
 30
0.0
 40
3.0
  1
配管接続口
 41
0.8487395020950888
100
AcDbText
  0
TEXT
  5
7D
330
76
100
AcDbEntity
  8
0
  6
Continuous
 62
     7
100
AcDbText
 10
-54.64724814891815
 20
-38.25312103271484
 30
0.0
 40
3.0
  1
Ｒｃ３（８０Ａ）
 41
0.8454512278006642
100
AcDbText
  0
ENDBLK
  5
7E
330
76
100
AcDbEntity
  8
0
100
AcDbBlockEnd
  0
ENDSEC
  0
SECTION
  2
ENTITIES
  0
LINE
  5
7F
330
22
100
AcDbEntity
  8
0
  6
Continuous
 62
     7
100
AcDbLine
 10
-314.6817321777344
 20
144.0848388671875
 30
0.0
 11
-314.6817321777344
 21
132.0848388671875
 31
0.0
  0
LINE
  5
80
330
22
100
AcDbEntity
  8
0
  6
Continuous
 62
     7
100
AcDbLine
 10
-310.9317321777344
 20
144.0848388671875
 30
0.0
 11
-310.9317321777344
 21
134.0848388671875
 31
0.0
  0
LINE
  5
81
330
22
100
AcDbEntity
  8
0
  6
Continuous
 62
     7
100
AcDbLine
 10
-314.9317321777344
 20
134.0848388671875
 30
0.0
 11
-310.9317321777344
 21
134.0848388671875
 31
0.0
  0
LINE
  5
82
330
22
100
AcDbEntity
  8
0
  6
Continuous
 62
     7
100
AcDbLine
 10
-312.9317321777344
 20
130.3348388671875
 30
0.0
 11
-311.1817321777344
 21
132.0848388671875
 31
0.0
  0
LINE
  5
83
330
22
100
AcDbEntity
  8
0
  6
Continuous
 62
     7
100
AcDbLine
 10
-311.1817321777344
 20
144.0848388671875
 30
0.0
 11
-311.1817321777344
 21
132.0848388671875
 31
0.0
  0
LINE
  5
84
330
22
100
AcDbEntity
  8
0
  6
Continuous
 62
     7
100
AcDbLine
 10
-290.8881225585938
 20
150.5848388671875
 30
0.0
 11
-290.8881225585938
 21
148.5848388671875
 31
0.0
  0
LINE
  5
85
330
22
100
AcDbEntity
  8
0
  6
Continuous
 62
     7
100
AcDbLine
 10
-299.8881225585938
 20
147.5848388671875
 30
0.0
 11
-291.8881225585938
 21
147.5848388671875
 31
0.0
  0
LINE
  5
86
330
22
100
AcDbEntity
  8
0
  6
Continuous
 62
     7
100
AcDbLine
 10
-300.8881225585938
 20
129.4715881347656
 30
0.0
 11
-300.8881225585938
 21
146.5848388671875
 31
0.0
  0
LINE
  5
87
330
22
100
AcDbEntity
  8
0
  6
Continuous
 62
     7
100
AcDbLine
 10
-314.9317321777344
 20
144.0848388671875
 30
0.0
 11
-314.9317321777344
 21
134.0848388671875
 31
0.0
  0
LINE
  5
88
330
22
100
AcDbEntity
  8
0
  6
Continuous
 62
     7
100
AcDbLine
 10
-391.3883972167969
 20
46.5848388671875
 30
0.0
 11
-390.3883972167969
 21
47.5848388671875
 31
0.0
  0
LINE
  5
89
330
22
100
AcDbEntity
  8
0
  6
Continuous
 62
     7
100
AcDbLine
 10
-390.3883972167969
 20
47.5848388671875
 30
0.0
 11
-390.3883972167969
 21
72.01734924316406
 31
0.0
  0
LINE
  5
8A
330
22
100
AcDbEntity
  8
0
  6
Continuous
 62
     7
100
AcDbLine
 10
-317.8881225585938
 20
144.5848388671875
 30
0.0
 11
-317.8881225585938
 21
144.0848388671875
 31
0.0
  0
LINE
  5
8B
330
22
100
AcDbEntity
  8
0
  6
Continuous
 62
     7
100
AcDbLine
 10
-305.8881225585938
 20
151.5848388671875
 30
0.0
 11
-305.8881225585938
 21
145.0848388671875
 31
0.0
  0
LINE
  5
8C
330
22
100
AcDbEntity
  8
0
  6
Continuous
 62
     7
100
AcDbLine
 10
-315.1817321777344
 20
144.0848388671875
 30
0.0
 11
-315.1817321777344
 21
148.8348388671875
 31
0.0
  0
LINE
  5
8D
330
22
100
AcDbEntity
  8
0
  6
Continuous
 62
     7
100
AcDbLine
 10
-310.6817321777344
 20
144.0848388671875
 30
0.0
 11
-310.6817321777344
 21
148.8348388671875
 31
0.0
  0
LINE
  5
8E
330
22
100
AcDbEntity
  8
0
  6
Continuous
 62
     7
100
AcDbLine
 10
-315.1817321777344
 20
148.8348388671875
 30
0.0
 11
-314.9317321777344
 21
148.5848388671875
 31
0.0
  0
LINE
  5
8F
330
22
100
AcDbEntity
  8
0
  6
Continuous
 62
     7
100
AcDbLine
 10
-310.6817321777344
 20
148.8348388671875
 30
0.0
 11
-310.9317321777344
 21
148.5848388671875
 31
0.0
  0
LINE
  5
90
330
22
100
AcDbEntity
  8
0
  6
Continuous
 62
     7
100
AcDbLine
 10
-314.9317321777344
 20
148.5848388671875
 30
0.0
 11
-310.9317321777344
 21
148.5848388671875
 31
0.0
  0
LINE
  5
91
330
22
100
AcDbEntity
  8
0
  6
Continuous
 62
     7
100
AcDbLine
 10
-314.9317321777344
 20
148.5848388671875
 30
0.0
 11
-314.9317321777344
 21
136.6953125
 31
0.0
  0
LINE
  5
92
330
22
100
AcDbEntity
  8
0
  6
Continuous
 62
     7
100
AcDbLine
 10
-310.9317321777344
 20
148.5848388671875
 30
0.0
 11
-310.9317321777344
 21
136.6953125
 31
0.0
  0
LINE
  5
93
330
22
100
AcDbEntity
  8
0
  6
Continuous
 62
     7
100
AcDbLine
 10
-308.4317321777344
 20
151.0848388671875
 30
0.0
 11
-310.6817321777344
 21
148.8348388671875
 31
0.0
  0
LINE
  5
94
330
22
100
AcDbEntity
  8
0
  6
Continuous
 62
     7
100
AcDbLine
 10
-317.4317321777344
 20
151.0848388671875
 30
0.0
 11
-315.1817321777344
 21
148.8348388671875
 31
0.0
  0
LINE
  5
95
330
22
100
AcDbEntity
  8
0
  6
CENTER
 62
     7
100
AcDbLine
 10
-312.9317321777344
 20
152.8274536132813
 30
0.0
 11
-312.9317321777344
 21
125.0071105957031
 31
0.0
  0
LINE
  5
96
330
22
100
AcDbEntity
  8
0
  6
Continuous
 62
     7
100
AcDbLine
 10
-314.6817321777344
 20
132.0848388671875
 30
0.0
 11
-312.9317321777344
 21
130.3348388671875
 31
0.0
  0
LINE
  5
97
330
22
100
AcDbEntity
  8
0
  6
Continuous
 62
     7
100
AcDbLine
 10
-590.8881225585937
 20
150.5848388671875
 30
0.0
 11
-590.8881225585937
 21
148.5848388671875
 31
0.0
  0
LINE
  5
98
330
22
100
AcDbEntity
  8
0
  6
Continuous
 62
     7
100
AcDbLine
 10
-580.8881225585937
 20
129.4715881347656
 30
0.0
 11
-580.8881225585937
 21
147.5848388671875
 31
0.0
  0
LINE
  5
99
330
22
100
AcDbEntity
  8
0
  6
Continuous
 62
     7
100
AcDbLine
 10
-461.5755310058593
 20
71.14263916015625
 30
0.0
 11
-440.8883972167968
 21
71.14263916015625
 31
0.0
  0
LINE
  5
9A
330
22
100
AcDbEntity
  8
0
  6
Continuous
 62
     7
100
AcDbLine
 10
-462.0445861816405
 20
47.5848388671875
 30
0.0
 11
-440.8883972167968
 21
47.5848388671875
 31
0.0
  0
LINE
  5
9B
330
22
100
AcDbEntity
  8
0
  6
Continuous
 62
     7
100
AcDbLine
 10
-489.0582580566406
 20
73.8341064453125
 30
0.0
 11
-440.8883972167968
 21
73.8341064453125
 31
0.0
  0
LINE
  5
9C
330
22
100
AcDbEntity
  8
0
  6
Continuous
 62
     7
100
AcDbLine
 10
-490.3878479003906
 20
46.5848388671875
 30
0.0
 11
-440.8881225585938
 21
46.5848388671875
 31
0.0
  0
LINE
  5
9D
330
22
100
AcDbEntity
  8
0
  6
Continuous
 62
     7
100
AcDbLine
 10
-491.3878479003906
 20
47.5848388671875
 30
0.0
 11
-491.3878479003906
 21
74.91182708740234
 31
0.0
  0
LINE
  5
9E
330
22
100
AcDbEntity
  8
0
  6
Continuous
 62
     7
100
AcDbLine
 10
-491.3878479003906
 20
47.5848388671875
 30
0.0
 11
-491.3878479003906
 21
74.91182708740234
 31
0.0
  0
LINE
  5
9F
330
22
100
AcDbEntity
  8
0
  6
Continuous
 62
     7
100
AcDbLine
 10
-490.3878479003906
 20
46.5848388671875
 30
0.0
 11
-491.3878479003906
 21
47.5848388671875
 31
0.0
  0
LINE
  5
A0
330
22
100
AcDbEntity
  8
0
  6
Continuous
 62
     7
100
AcDbLine
 10
-468.1539001464844
 20
46.5848388671875
 30
0.0
 11
-468.1539001464844
 21
72.52880859375
 31
0.0
  0
LINE
  5
A1
330
22
100
AcDbEntity
  8
0
  6
Continuous
 62
     7
100
AcDbLine
 10
-488.3883972167969
 20
47.5848388671875
 30
0.0
 11
-487.3883972167968
 21
46.5848388671875
 31
0.0
  0
LINE
  5
A2
330
22
100
AcDbEntity
  8
0
  6
Continuous
 62
     7
100
AcDbLine
 10
-488.3883972167969
 20
47.5848388671875
 30
0.0
 11
-468.6493835449218
 21
47.5848388671875
 31
0.0
  0
LINE
  5
A3
330
22
100
AcDbEntity
  8
0
  6
Continuous
 62
     7
100
AcDbLine
 10
-488.3883972167969
 20
47.5848388671875
 30
0.0
 11
-488.3883972167969
 21
70.29335021972656
 31
0.0
  0
LINE
  5
A4
330
22
100
AcDbEntity
  8
0
  6
Continuous
 62
     7
100
AcDbLine
 10
-462.4410400390624
 20
46.5848388671875
 30
0.0
 11
-462.4410400390624
 21
71.14263916015625
 31
0.0
  0
LINE
  5
A5
330
22
100
AcDbEntity
  8
0
  6
Continuous
 62
     7
100
AcDbLine
 10
-469.2484436035156
 20
71.14263916015625
 30
0.0
 11
-487.3346862792969
 21
71.14263916015625
 31
0.0
  0
LINE
  5
A6
330
22
100
AcDbEntity
  8
0
  6
Continuous
 62
     7
100
AcDbLine
 10
-435.8881225585938
 20
144.0848388671875
 30
0.0
 11
-435.8881225585938
 21
121.620735168457
 31
0.0
  0
LINE
  5
A7
330
22
100
AcDbEntity
  8
0
  6
Continuous
 62
     7
100
AcDbLine
 10
-317.8881225585938
 20
144.0848388671875
 30
0.0
 11
-317.8881225585938
 21
123.120735168457
 31
0.0
  0
LINE
  5
A8
330
22
100
AcDbEntity
  8
0
  6
Continuous
 62
     7
100
AcDbLine
 10
-303.3881225585938
 20
125.1414642333984
 30
0.0
 11
-387.8887023925781
 21
76.34729766845703
 31
0.0
  0
LINE
  5
A9
330
22
100
AcDbEntity
  8
0
  6
Continuous
 62
     7
100
AcDbLine
 10
-589.8881225585937
 20
147.5848388671875
 30
0.0
 11
-440.8881225585938
 21
147.5848388671875
 31
0.0
  0
LINE
  5
AA
330
22
100
AcDbEntity
  8
0
  6
Continuous
 62
     7
100
AcDbLine
 10
-578.3881225585937
 20
126.5848388671875
 30
0.0
 11
-440.8881225585938
 21
126.5848388671875
 31
0.0
  0
LINE
  5
AB
330
22
100
AcDbEntity
  8
0
  6
Continuous
 62
     7
100
AcDbLine
 10
-578.3881225585937
 20
125.1414642333984
 30
0.0
 11
-490.8883972167968
 21
74.62347412109375
 31
0.0
  0
LINE
  5
AC
330
22
100
AcDbEntity
  8
0
  6
CENTER
 62
     7
100
AcDbLine
 10
-440.8881225585938
 20
41.18728256225586
 30
0.0
 11
-440.8881225585938
 21
157.8832702636719
 31
0.0
  0
LINE
  5
AD
330
22
100
AcDbEntity
  8
0
  6
Continuous
 62
     7
100
AcDbLine
 10
-440.8881225585938
 20
46.5848388671875
 30
0.0
 11
-391.3883972167969
 21
46.5848388671875
 31
0.0
  0
LINE
  5
AE
330
22
100
AcDbEntity
  8
0
  6
Continuous
 62
     7
100
AcDbLine
 10
-396.9383850097656
 20
46.5848388671875
 30
0.0
 11
-398.4384155273438
 21
48.21400451660156
 31
0.0
  0
LINE
  5
AF
330
22
100
AcDbEntity
  8
0
  6
Continuous
 62
     7
100
AcDbLine
 10
-396.9383850097656
 20
46.5848388671875
 30
0.0
 11
-397.6964721679688
 21
70.84227752685547
 31
0.0
  0
LINE
  5
B0
330
22
100
AcDbEntity
  8
0
  6
Continuous
 62
     7
100
AcDbLine
 10
-398.4384155273438
 20
48.21400451660156
 30
0.0
 11
-399.1923828125
 21
72.33997344970703
 31
0.0
  0
LINE
  5
B1
330
22
100
AcDbEntity
  8
0
  6
Continuous
 62
     7
100
AcDbLine
 10
-399.7059936523438
 20
73.8369140625
 30
0.0
 11
-398.9625854492188
 21
74.580322265625
 31
0.0
  0
LINE
  5
B2
330
22
100
AcDbEntity
  8
0
  6
Continuous
 62
     7
100
AcDbLine
 10
-398.7843322753906
 20
71.93013763427734
 30
0.0
 11
-392.2704467773438
 21
78.44402313232421
 31
0.0
  0
LINE
  5
B3
330
22
100
AcDbEntity
  8
0
  6
Continuous
 62
     7
100
AcDbLine
 10
-397.6766967773438
 20
70.20935821533203
 30
0.0
 11
-385.5783386230469
 21
82.30772399902344
 31
0.0
  0
LINE
  5
B4
330
22
100
AcDbEntity
  8
0
  6
Continuous
 62
     7
100
AcDbLine
 10
-397.5909729003906
 20
67.46664428710939
 30
0.0
 11
-378.8861999511719
 21
86.17143249511718
 31
0.0
  0
LINE
  5
B5
330
22
100
AcDbEntity
  8
0
  6
Continuous
 62
     7
100
AcDbLine
 10
-383.1395263671875
 20
79.08966064453125
 30
0.0
 11
-372.1940612792969
 21
90.0351333618164
 31
0.0
  0
LINE
  5
B6
330
22
100
AcDbEntity
  8
0
  6
Continuous
 62
     7
100
AcDbLine
 10
-397.5052795410156
 20
64.72393035888671
 30
0.0
 11
-390.3883972167969
 21
71.84080505371094
 31
0.0
  0
LINE
  5
B7
330
22
100
AcDbEntity
  8
0
  6
Continuous
 62
     7
100
AcDbLine
 10
-317.8881225585938
 20
141.5126495361328
 30
0.0
 11
-315.31591796875
 21
144.0848388671875
 31
0.0
  0
LINE
  5
B8
330
22
100
AcDbEntity
  8
0
  6
Continuous
 62
     7
100
AcDbLine
 10
-376.4459533691406
 20
82.95481872558594
 30
0.0
 11
-365.5019226074219
 21
93.89883422851564
 31
0.0
  0
LINE
  5
B9
330
22
100
AcDbEntity
  8
0
  6
Continuous
 62
     7
100
AcDbLine
 10
-397.4195556640625
 20
61.98121643066406
 30
0.0
 11
-390.3883972167969
 21
69.01237487792968
 31
0.0
  0
LINE
  5
BA
330
22
100
AcDbEntity
  8
0
  6
Continuous
 62
     7
100
AcDbLine
 10
-305.8881225585938
 20
150.6842346191406
 30
0.0
 11
-304.9875183105469
 21
151.5848388671875
 31
0.0
  0
LINE
  5
BB
330
22
100
AcDbEntity
  8
0
  6
Continuous
 62
     7
100
AcDbLine
 10
-317.8881225585938
 20
138.6842346191406
 30
0.0
 11
-314.9317321777344
 21
141.6406097412109
 31
0.0
  0
LINE
  5
BC
330
22
100
AcDbEntity
  8
0
  6
Continuous
 62
     7
100
AcDbLine
 10
-369.7523803710938
 20
86.81996917724609
 30
0.0
 11
-358.809814453125
 21
97.76254272460938
 31
0.0
  0
LINE
  5
BD
330
22
100
AcDbEntity
  8
0
  6
Continuous
 62
     7
100
AcDbLine
 10
-397.3338317871094
 20
59.2385025024414
 30
0.0
 11
-390.3883972167969
 21
66.18395233154297
 31
0.0
  0
LINE
  5
BE
330
22
100
AcDbEntity
  8
0
  6
Continuous
 62
     7
100
AcDbLine
 10
-305.8881225585938
 20
147.8558044433594
 30
0.0
 11
-302.1590881347656
 21
151.5848388671875
 31
0.0
  0
LINE
  5
BF
330
22
100
AcDbEntity
  8
0
  6
Continuous
 62
     7
100
AcDbLine
 10
-310.9317321777344
 20
142.8121795654297
 30
0.0
 11
-309.6590881347656
 21
144.0848388671875
 31
0.0
  0
LINE
  5
C0
330
22
100
AcDbEntity
  8
0
  6
Continuous
 62
     7
100
AcDbLine
 10
-317.8881225585938
 20
135.8558044433594
 30
0.0
 11
-314.9317321777344
 21
138.8121795654297
 31
0.0
  0
LINE
  5
C1
330
22
100
AcDbEntity
  8
0
  6
Continuous
 62
     7
100
AcDbLine
 10
-363.0588073730469
 20
90.68511962890623
 30
0.0
 11
-352.11767578125
 21
101.6262435913086
 31
0.0
  0
LINE
  5
C2
330
22
100
AcDbEntity
  8
0
  6
Continuous
 62
     7
100
AcDbLine
 10
-397.2481384277344
 20
56.49578857421875
 30
0.0
 11
-390.3883972167969
 21
63.35552215576171
 31
0.0
  0
LINE
  5
C3
330
22
100
AcDbEntity
  8
0
  6
Continuous
 62
     7
100
AcDbLine
 10
-305.9287414550781
 20
144.9867401123047
 30
0.0
 11
-299.3306579589844
 21
151.5848388671875
 31
0.0
  0
LINE
  5
C4
330
22
100
AcDbEntity
  8
0
  6
Continuous
 62
     7
100
AcDbLine
 10
-310.9317321777344
 20
139.9837493896484
 30
0.0
 11
-306.7900085449219
 21
144.1254730224609
 31
0.0
  0
LINE
  5
C5
330
22
100
AcDbEntity
  8
0
  6
Continuous
 62
     7
100
AcDbLine
 10
-317.8881225585938
 20
133.0273742675781
 30
0.0
 11
-314.9317321777344
 21
135.9837493896484
 31
0.0
  0
LINE
  5
C6
330
22
100
AcDbEntity
  8
0
  6
Continuous
 62
     7
100
AcDbLine
 10
-356.3652038574219
 20
94.5502700805664
 30
0.0
 11
-345.425537109375
 21
105.4899444580078
 31
0.0
  0
LINE
  5
C7
330
22
100
AcDbEntity
  8
0
  6
Continuous
 62
     7
100
AcDbLine
 10
-397.1624145507813
 20
53.75307464599609
 30
0.0
 11
-390.3883972167969
 21
60.52709579467773
 31
0.0
  0
LINE
  5
C8
330
22
100
AcDbEntity
  8
0
  6
Continuous
 62
     7
100
AcDbLine
 10
-310.9317321777344
 20
137.1553192138672
 30
0.0
 11
-296.5022277832031
 21
151.5848388671875
 31
0.0
  0
LINE
  5
C9
330
22
100
AcDbEntity
  8
0
  6
Continuous
 62
     7
100
AcDbLine
 10
-317.8881225585938
 20
130.1989440917969
 30
0.0
 11
-314.6817321777344
 21
133.4053192138672
 31
0.0
  0
LINE
  5
CA
330
22
100
AcDbEntity
  8
0
  6
Continuous
 62
     7
100
AcDbLine
 10
-349.671630859375
 20
98.41542816162109
 30
0.0
 11
-338.7333984375
 21
109.3536529541016
 31
0.0
  0
LINE
  5
CB
330
22
100
AcDbEntity
  8
0
  6
Continuous
 62
     7
100
AcDbLine
 10
-397.0766906738281
 20
51.0103645324707
 30
0.0
 11
-390.3883972167969
 21
57.69866943359375
 31
0.0
  0
LINE
  5
CC
330
22
100
AcDbEntity
  8
0
  6
Continuous
 62
     7
100
AcDbLine
 10
-297.6737976074219
 20
147.5848388671875
 30
0.0
 11
-293.6737976074219
 21
151.5848388671875
 31
0.0
  0
LINE
  5
CD
330
22
100
AcDbEntity
  8
0
  6
Continuous
 62
     7
100
AcDbLine
 10
-310.9317321777344
 20
134.3268890380859
 30
0.0
 11
-300.8881225585938
 21
144.3705139160156
 31
0.0
  0
LINE
  5
CE
330
22
100
AcDbEntity
  8
0
  6
Continuous
 62
     7
100
AcDbLine
 10
-317.8881225585938
 20
127.3705215454102
 30
0.0
 11
-313.9277648925781
 21
131.3308715820312
 31
0.0
  0
LINE
  5
CF
330
22
100
AcDbEntity
  8
0
  6
Continuous
 62
     7
100
AcDbLine
 10
-342.9780578613281
 20
102.2805786132813
 30
0.0
 11
-332.0412902832031
 21
113.2173538208008
 31
0.0
  0
LINE
  5
D0
330
22
100
AcDbEntity
  8
0
  6
Continuous
 62
     7
100
AcDbLine
 10
-396.9909973144531
 20
48.26765060424804
 30
0.0
 11
-390.3883972167969
 21
54.8702392578125
 31
0.0
  0
LINE
  5
D1
330
22
100
AcDbEntity
  8
0
  6
Continuous
 62
     7
100
AcDbLine
 10
-294.8453674316406
 20
147.5848388671875
 30
0.0
 11
-291.1684875488281
 21
151.26171875
 31
0.0
  0
LINE
  5
D2
330
22
100
AcDbEntity
  8
0
  6
Continuous
 62
     7
100
AcDbLine
 10
-312.9317321777344
 20
129.4984741210938
 30
0.0
 11
-300.8881225585938
 21
141.5420989990234
 31
0.0
  0
LINE
  5
D3
330
22
100
AcDbEntity
  8
0
  6
Continuous
 62
     7
100
AcDbLine
 10
-317.8881225585938
 20
124.5420913696289
 30
0.0
 11
-312.9317321777344
 21
129.4984741210938
 31
0.0
  0
LINE
  5
D4
330
22
100
AcDbEntity
  8
0
  6
Continuous
 62
     7
100
AcDbLine
 10
-336.2844848632813
 20
106.1457290649414
 30
0.0
 11
-325.3491516113281
 21
117.0810546875
 31
0.0
  0
LINE
  5
D5
330
22
100
AcDbEntity
  8
0
  6
Continuous
 62
     7
100
AcDbLine
 10
-395.8453674316406
 20
46.5848388671875
 30
0.0
 11
-390.3883972167969
 21
52.04181289672852
 31
0.0
  0
LINE
  5
D6
330
22
100
AcDbEntity
  8
0
  6
Continuous
 62
     7
100
AcDbLine
 10
-292.0169372558594
 20
147.5848388671875
 30
0.0
 11
-290.8881225585938
 21
148.7136688232422
 31
0.0
  0
LINE
  5
D7
330
22
100
AcDbEntity
  8
0
  6
Continuous
 62
     7
100
AcDbLine
 10
-312.9317321777344
 20
126.6700439453125
 30
0.0
 11
-300.8881225585938
 21
138.7136688232422
 31
0.0
  0
LINE
  5
D8
330
22
100
AcDbEntity
  8
0
  6
Continuous
 62
     7
100
AcDbLine
 10
-329.5909118652344
 20
110.0108795166016
 30
0.0
 11
-312.9317321777344
 21
126.6700439453125
 31
0.0
  0
LINE
  5
D9
330
22
100
AcDbEntity
  8
0
  6
Continuous
 62
     7
100
AcDbLine
 10
-393.0169372558594
 20
46.5848388671875
 30
0.0
 11
-390.3883972167969
 21
49.21338653564453
 31
0.0
  0
LINE
  5
DA
330
22
100
AcDbEntity
  8
0
  6
Continuous
 62
     7
100
AcDbLine
 10
-322.8973083496094
 20
113.8760375976563
 30
0.0
 11
-300.8881225585938
 21
135.8852386474609
 31
0.0
  0
LINE
  5
DB
330
22
100
AcDbEntity
  8
0
  6
Continuous
 62
     7
100
AcDbLine
 10
-316.2037353515625
 20
117.7411880493164
 30
0.0
 11
-300.8881225585938
 21
133.0568084716797
 31
0.0
  0
LINE
  5
DC
330
22
100
AcDbEntity
  8
0
  6
Continuous
 62
     7
100
AcDbLine
 10
-309.5101623535156
 20
121.6063385009766
 30
0.0
 11
-300.8881225585938
 21
130.2283782958984
 31
0.0
  0
LINE
  5
DD
330
22
100
AcDbEntity
  8
0
  6
Continuous
 62
     7
100
AcDbLine
 10
-319.3881225585938
 20
120.5226593017578
 30
0.0
 11
-399.5198059082031
 21
74.25860595703125
 31
0.0
  0
LINE
  5
DE
330
22
100
AcDbEntity
  8
0
  6
Continuous
 62
     7
100
AcDbLine
 10
-399.8200073242188
 20
73.54425811767578
 30
0.0
 11
-399.8200073242188
 21
72.83997344970703
 31
0.0
  0
LINE
  5
DF
330
22
100
AcDbEntity
  8
0
  6
Continuous
 62
     7
100
AcDbLine
 10
-399.2625427246094
 20
74.5848388671875
 30
0.0
 11
-399.2627258300781
 21
74.58997344970703
 31
0.0
  0
LINE
  5
E0
330
22
100
AcDbEntity
  8
0
  6
Continuous
 62
     7
100
AcDbLine
 10
-399.3883972167969
 20
74.5848388671875
 30
0.0
 11
-399.2625427246094
 21
74.5848388671875
 31
0.0
  0
LINE
  5
E1
330
22
100
AcDbEntity
  8
0
  6
Continuous
 62
     7
100
AcDbLine
 10
-399.1941833496094
 20
72.33997344970703
 30
0.0
 11
-397.6964721679688
 21
70.84227752685547
 31
0.0
  0
LINE
  5
E2
330
22
100
AcDbEntity
  8
0
  6
Continuous
 62
     7
100
AcDbLine
 10
-440.8881225585938
 20
48.21400451660156
 30
0.0
 11
-398.4384155273438
 21
48.21400451660156
 31
0.0
  0
LINE
  5
E3
330
22
100
AcDbEntity
  8
0
  6
Continuous
 62
     7
100
AcDbLine
 10
-306.6593322753906
 20
151.0848388671875
 30
0.0
 11
-305.8881225585938
 21
150.3136291503906
 31
0.0
  0
LINE
  5
E4
330
22
100
AcDbEntity
  8
0
  6
Continuous
 62
     7
100
AcDbLine
 10
-309.6668395996094
 20
149.8497314453125
 30
0.0
 11
-305.8881225585938
 21
146.0709991455078
 31
0.0
  0
LINE
  5
E5
330
22
100
AcDbEntity
  8
0
  6
Continuous
 62
     7
100
AcDbLine
 10
-310.6817321777344
 20
146.6219787597656
 30
0.0
 11
-308.1445922851563
 21
144.0848388671875
 31
0.0
  0
LINE
  5
E6
330
22
100
AcDbEntity
  8
0
  6
Continuous
 62
     7
100
AcDbLine
 10
-319.3872375488281
 20
151.0848388671875
 30
0.0
 11
-315.1817321777344
 21
146.8793334960938
 31
0.0
  0
LINE
  5
E7
330
22
100
AcDbEntity
  8
0
  6
Continuous
 62
     7
100
AcDbLine
 10
-323.6298828125
 20
151.0848388671875
 30
0.0
 11
-316.6298828125
 21
144.0848388671875
 31
0.0
  0
LINE
  5
E8
330
22
100
AcDbEntity
  8
0
  6
Continuous
 62
     7
100
AcDbLine
 10
-327.8725280761719
 20
151.0848388671875
 30
0.0
 11
-321.3725280761719
 21
144.5848388671875
 31
0.0
  0
LINE
  5
E9
330
22
100
AcDbEntity
  8
0
  6
Continuous
 62
     7
100
AcDbLine
 10
-332.1151733398438
 20
151.0848388671875
 30
0.0
 11
-325.6151733398438
 21
144.5848388671875
 31
0.0
  0
LINE
  5
EA
330
22
100
AcDbEntity
  8
0
  6
Continuous
 62
     7
100
AcDbLine
 10
-336.3578186035156
 20
151.0848388671875
 30
0.0
 11
-329.8578186035156
 21
144.5848388671875
 31
0.0
  0
LINE
  5
EB
330
22
100
AcDbEntity
  8
0
  6
Continuous
 62
     7
100
AcDbLine
 10
-340.6004333496094
 20
151.0848388671875
 30
0.0
 11
-334.1004333496094
 21
144.5848388671875
 31
0.0
  0
LINE
  5
EC
330
22
100
AcDbEntity
  8
0
  6
Continuous
 62
     7
100
AcDbLine
 10
-344.8430786132813
 20
151.0848388671875
 30
0.0
 11
-338.3430786132813
 21
144.5848388671875
 31
0.0
  0
LINE
  5
ED
330
22
100
AcDbEntity
  8
0
  6
Continuous
 62
     7
100
AcDbLine
 10
-349.0857238769531
 20
151.0848388671875
 30
0.0
 11
-342.5857238769531
 21
144.5848388671875
 31
0.0
  0
LINE
  5
EE
330
22
100
AcDbEntity
  8
0
  6
Continuous
 62
     7
100
AcDbLine
 10
-353.328369140625
 20
151.0848388671875
 30
0.0
 11
-346.828369140625
 21
144.5848388671875
 31
0.0
  0
LINE
  5
EF
330
22
100
AcDbEntity
  8
0
  6
Continuous
 62
     7
100
AcDbLine
 10
-357.5710144042969
 20
151.0848388671875
 30
0.0
 11
-351.0710144042969
 21
144.5848388671875
 31
0.0
  0
LINE
  5
F0
330
22
100
AcDbEntity
  8
0
  6
Continuous
 62
     7
100
AcDbLine
 10
-361.8136596679688
 20
151.0848388671875
 30
0.0
 11
-355.3136596679688
 21
144.5848388671875
 31
0.0
  0
LINE
  5
F1
330
22
100
AcDbEntity
  8
0
  6
Continuous
 62
     7
100
AcDbLine
 10
-366.0563049316406
 20
151.0848388671875
 30
0.0
 11
-359.5563049316406
 21
144.5848388671875
 31
0.0
  0
LINE
  5
F2
330
22
100
AcDbEntity
  8
0
  6
Continuous
 62
     7
100
AcDbLine
 10
-370.2989196777344
 20
151.0848388671875
 30
0.0
 11
-363.7989196777344
 21
144.5848388671875
 31
0.0
  0
LINE
  5
F3
330
22
100
AcDbEntity
  8
0
  6
Continuous
 62
     7
100
AcDbLine
 10
-374.5415649414063
 20
151.0848388671875
 30
0.0
 11
-368.0415649414063
 21
144.5848388671875
 31
0.0
  0
LINE
  5
F4
330
22
100
AcDbEntity
  8
0
  6
Continuous
 62
     7
100
AcDbLine
 10
-378.7842102050781
 20
151.0848388671875
 30
0.0
 11
-372.2842102050781
 21
144.5848388671875
 31
0.0
  0
LINE
  5
F5
330
22
100
AcDbEntity
  8
0
  6
Continuous
 62
     7
100
AcDbLine
 10
-383.02685546875
 20
151.0848388671875
 30
0.0
 11
-376.52685546875
 21
144.5848388671875
 31
0.0
  0
LINE
  5
F6
330
22
100
AcDbEntity
  8
0
  6
Continuous
 62
     7
100
AcDbLine
 10
-387.2695007324219
 20
151.0848388671875
 30
0.0
 11
-380.7695007324219
 21
144.5848388671875
 31
0.0
  0
LINE
  5
F7
330
22
100
AcDbEntity
  8
0
  6
Continuous
 62
     7
100
AcDbLine
 10
-391.5121459960938
 20
151.0848388671875
 30
0.0
 11
-385.0121459960938
 21
144.5848388671875
 31
0.0
  0
LINE
  5
F8
330
22
100
AcDbEntity
  8
0
  6
Continuous
 62
     7
100
AcDbLine
 10
-395.7547607421875
 20
151.0848388671875
 30
0.0
 11
-389.2547607421875
 21
144.5848388671875
 31
0.0
  0
LINE
  5
F9
330
22
100
AcDbEntity
  8
0
  6
Continuous
 62
     7
100
AcDbLine
 10
-399.9974060058594
 20
151.0848388671875
 30
0.0
 11
-393.4974060058594
 21
144.5848388671875
 31
0.0
  0
LINE
  5
FA
330
22
100
AcDbEntity
  8
0
  6
Continuous
 62
     7
100
AcDbLine
 10
-404.2400512695313
 20
151.0848388671875
 30
0.0
 11
-397.7400512695313
 21
144.5848388671875
 31
0.0
  0
LINE
  5
FB
330
22
100
AcDbEntity
  8
0
  6
Continuous
 62
     7
100
AcDbLine
 10
-408.4826965332031
 20
151.0848388671875
 30
0.0
 11
-401.9826965332031
 21
144.5848388671875
 31
0.0
  0
LINE
  5
FC
330
22
100
AcDbEntity
  8
0
  6
Continuous
 62
     7
100
AcDbLine
 10
-412.7253417968749
 20
151.0848388671875
 30
0.0
 11
-406.225341796875
 21
144.5848388671875
 31
0.0
  0
LINE
  5
FD
330
22
100
AcDbEntity
  8
0
  6
Continuous
 62
     7
100
AcDbLine
 10
-416.9679870605468
 20
151.0848388671875
 30
0.0
 11
-410.4679870605468
 21
144.5848388671875
 31
0.0
  0
LINE
  5
FE
330
22
100
AcDbEntity
  8
0
  6
Continuous
 62
     7
100
AcDbLine
 10
-421.2106323242188
 20
151.0848388671875
 30
0.0
 11
-414.7106323242188
 21
144.5848388671875
 31
0.0
  0
LINE
  5
FF
330
22
100
AcDbEntity
  8
0
  6
Continuous
 62
     7
100
AcDbLine
 10
-425.4532470703124
 20
151.0848388671875
 30
0.0
 11
-418.9532470703125
 21
144.5848388671875
 31
0.0
  0
LINE
  5
100
330
22
100
AcDbEntity
  8
0
  6
Continuous
 62
     7
100
AcDbLine
 10
-429.6958923339843
 20
151.0848388671875
 30
0.0
 11
-423.1958923339844
 21
144.5848388671875
 31
0.0
  0
LINE
  5
101
330
22
100
AcDbEntity
  8
0
  6
Continuous
 62
     7
100
AcDbLine
 10
-433.9385375976562
 20
151.0848388671875
 30
0.0
 11
-427.4385375976563
 21
144.5848388671875
 31
0.0
  0
LINE
  5
102
330
22
100
AcDbEntity
  8
0
  6
Continuous
 62
     7
100
AcDbLine
 10
-438.1811828613281
 20
151.0848388671875
 30
0.0
 11
-431.6811828613281
 21
144.5848388671875
 31
0.0
  0
LINE
  5
103
330
22
100
AcDbEntity
  8
0
  6
Continuous
 62
     7
100
AcDbLine
 10
-440.8881225585938
 20
149.5491333007813
 30
0.0
 11
-435.9238281249999
 21
144.5848388671875
 31
0.0
  0
LINE
  5
104
330
22
100
AcDbEntity
  8
0
  6
Continuous
 62
     7
100
AcDbLine
 10
-440.8881225585938
 20
145.3064880371094
 30
0.0
 11
-440.1664733886718
 21
144.5848388671875
 31
0.0
  0
LINE
  5
105
330
22
100
AcDbEntity
  8
0
  6
Continuous
 62
     7
100
AcDbLine
 10
-308.606201171875
 20
150.9103851318359
 30
0.0
 11
-305.8881225585938
 21
148.1923217773438
 31
0.0
  0
LINE
  5
106
330
22
100
AcDbEntity
  8
0
  6
Continuous
 62
     7
100
AcDbLine
 10
-310.6817321777344
 20
148.7433013916016
 30
0.0
 11
-306.2765808105469
 21
144.3381500244141
 31
0.0
  0
LINE
  5
107
330
22
100
AcDbEntity
  8
0
  6
Continuous
 62
     7
100
AcDbLine
 10
-321.5085754394531
 20
151.0848388671875
 30
0.0
 11
-315.1817321777344
 21
144.7580108642578
 31
0.0
  0
LINE
  5
108
330
22
100
AcDbEntity
  8
0
  6
Continuous
 62
     7
100
AcDbLine
 10
-325.7511901855469
 20
151.0848388671875
 30
0.0
 11
-319.2511901855469
 21
144.5848388671875
 31
0.0
  0
LINE
  5
109
330
22
100
AcDbEntity
  8
0
  6
Continuous
 62
     7
100
AcDbLine
 10
-329.9938354492188
 20
151.0848388671875
 30
0.0
 11
-323.4938354492188
 21
144.5848388671875
 31
0.0
  0
LINE
  5
10A
330
22
100
AcDbEntity
  8
0
  6
Continuous
 62
     7
100
AcDbLine
 10
-334.2364807128906
 20
151.0848388671875
 30
0.0
 11
-327.7364807128906
 21
144.5848388671875
 31
0.0
  0
LINE
  5
10B
330
22
100
AcDbEntity
  8
0
  6
Continuous
 62
     7
100
AcDbLine
 10
-338.4791259765625
 20
151.0848388671875
 30
0.0
 11
-331.9791259765625
 21
144.5848388671875
 31
0.0
  0
LINE
  5
10C
330
22
100
AcDbEntity
  8
0
  6
Continuous
 62
     7
100
AcDbLine
 10
-342.7217712402344
 20
151.0848388671875
 30
0.0
 11
-336.2217712402344
 21
144.5848388671875
 31
0.0
  0
LINE
  5
10D
330
22
100
AcDbEntity
  8
0
  6
Continuous
 62
     7
100
AcDbLine
 10
-346.9644165039063
 20
151.0848388671875
 30
0.0
 11
-340.4644165039063
 21
144.5848388671875
 31
0.0
  0
LINE
  5
10E
330
22
100
AcDbEntity
  8
0
  6
Continuous
 62
     7
100
AcDbLine
 10
-351.2070617675781
 20
151.0848388671875
 30
0.0
 11
-344.7070617675781
 21
144.5848388671875
 31
0.0
  0
LINE
  5
10F
330
22
100
AcDbEntity
  8
0
  6
Continuous
 62
     7
100
AcDbLine
 10
-355.4496765136719
 20
151.0848388671875
 30
0.0
 11
-348.9496765136719
 21
144.5848388671875
 31
0.0
  0
LINE
  5
110
330
22
100
AcDbEntity
  8
0
  6
Continuous
 62
     7
100
AcDbLine
 10
-359.6923217773438
 20
151.0848388671875
 30
0.0
 11
-353.1923217773438
 21
144.5848388671875
 31
0.0
  0
LINE
  5
111
330
22
100
AcDbEntity
  8
0
  6
Continuous
 62
     7
100
AcDbLine
 10
-363.9349670410156
 20
151.0848388671875
 30
0.0
 11
-357.4349670410156
 21
144.5848388671875
 31
0.0
  0
LINE
  5
112
330
22
100
AcDbEntity
  8
0
  6
Continuous
 62
     7
100
AcDbLine
 10
-368.1776123046875
 20
151.0848388671875
 30
0.0
 11
-361.6776123046875
 21
144.5848388671875
 31
0.0
  0
LINE
  5
113
330
22
100
AcDbEntity
  8
0
  6
Continuous
 62
     7
100
AcDbLine
 10
-372.4202575683594
 20
151.0848388671875
 30
0.0
 11
-365.9202575683594
 21
144.5848388671875
 31
0.0
  0
LINE
  5
114
330
22
100
AcDbEntity
  8
0
  6
Continuous
 62
     7
100
AcDbLine
 10
-376.6629028320313
 20
151.0848388671875
 30
0.0
 11
-370.1629028320313
 21
144.5848388671875
 31
0.0
  0
LINE
  5
115
330
22
100
AcDbEntity
  8
0
  6
Continuous
 62
     7
100
AcDbLine
 10
-380.905517578125
 20
151.0848388671875
 30
0.0
 11
-374.405517578125
 21
144.5848388671875
 31
0.0
  0
LINE
  5
116
330
22
100
AcDbEntity
  8
0
  6
Continuous
 62
     7
100
AcDbLine
 10
-385.1481628417969
 20
151.0848388671875
 30
0.0
 11
-378.6481628417969
 21
144.5848388671875
 31
0.0
  0
LINE
  5
117
330
22
100
AcDbEntity
  8
0
  6
Continuous
 62
     7
100
AcDbLine
 10
-389.3908081054688
 20
151.0848388671875
 30
0.0
 11
-382.8908081054688
 21
144.5848388671875
 31
0.0
  0
LINE
  5
118
330
22
100
AcDbEntity
  8
0
  6
Continuous
 62
     7
100
AcDbLine
 10
-393.6334533691406
 20
151.0848388671875
 30
0.0
 11
-387.1334533691406
 21
144.5848388671875
 31
0.0
  0
LINE
  5
119
330
22
100
AcDbEntity
  8
0
  6
Continuous
 62
     7
100
AcDbLine
 10
-397.8760986328125
 20
151.0848388671875
 30
0.0
 11
-391.3760986328125
 21
144.5848388671875
 31
0.0
  0
LINE
  5
11A
330
22
100
AcDbEntity
  8
0
  6
Continuous
 62
     7
100
AcDbLine
 10
-402.1187438964843
 20
151.0848388671875
 30
0.0
 11
-395.6187438964844
 21
144.5848388671875
 31
0.0
  0
LINE
  5
11B
330
22
100
AcDbEntity
  8
0
  6
Continuous
 62
     7
100
AcDbLine
 10
-406.3613891601563
 20
151.0848388671875
 30
0.0
 11
-399.8613891601563
 21
144.5848388671875
 31
0.0
  0
LINE
  5
11C
330
22
100
AcDbEntity
  8
0
  6
Continuous
 62
     7
100
AcDbLine
 10
-410.60400390625
 20
151.0848388671875
 30
0.0
 11
-404.1040039062499
 21
144.5848388671875
 31
0.0
  0
LINE
  5
11D
330
22
100
AcDbEntity
  8
0
  6
Continuous
 62
     7
100
AcDbLine
 10
-414.8466491699219
 20
151.0848388671875
 30
0.0
 11
-408.3466491699218
 21
144.5848388671875
 31
0.0
  0
LINE
  5
11E
330
22
100
AcDbEntity
  8
0
  6
Continuous
 62
     7
100
AcDbLine
 10
-419.0892944335938
 20
151.0848388671875
 30
0.0
 11
-412.5892944335937
 21
144.5848388671875
 31
0.0
  0
LINE
  5
11F
330
22
100
AcDbEntity
  8
0
  6
Continuous
 62
     7
100
AcDbLine
 10
-423.3319396972656
 20
151.0848388671875
 30
0.0
 11
-416.8319396972655
 21
144.5848388671875
 31
0.0
  0
LINE
  5
120
330
22
100
AcDbEntity
  8
0
  6
Continuous
 62
     7
100
AcDbLine
 10
-427.5745849609375
 20
151.0848388671875
 30
0.0
 11
-421.0745849609375
 21
144.5848388671875
 31
0.0
  0
LINE
  5
121
330
22
100
AcDbEntity
  8
0
  6
Continuous
 62
     7
100
AcDbLine
 10
-431.8172302246093
 20
151.0848388671875
 30
0.0
 11
-425.3172302246094
 21
144.5848388671875
 31
0.0
  0
LINE
  5
122
330
22
100
AcDbEntity
  8
0
  6
Continuous
 62
     7
100
AcDbLine
 10
-436.0598754882813
 20
151.0848388671875
 30
0.0
 11
-429.5598754882813
 21
144.5848388671875
 31
0.0
  0
LINE
  5
123
330
22
100
AcDbEntity
  8
0
  6
Continuous
 62
     7
100
AcDbLine
 10
-440.302490234375
 20
151.0848388671875
 30
0.0
 11
-433.8024902343749
 21
144.5848388671875
 31
0.0
  0
LINE
  5
124
330
22
100
AcDbEntity
  8
0
  6
Continuous
 62
     7
100
AcDbLine
 10
-440.8881225585938
 20
147.4278106689453
 30
0.0
 11
-438.0451354980468
 21
144.5848388671875
 31
0.0
  0
LINE
  5
125
330
22
100
AcDbEntity
  8
0
  6
Continuous
 62
     7
100
AcDbLine
 10
-440.8881225585938
 20
144.5848388671875
 30
0.0
 11
-317.8881225585938
 21
144.5848388671875
 31
0.0
  0
LINE
  5
126
330
22
100
AcDbEntity
  8
0
  6
Continuous
 62
     7
100
AcDbLine
 10
-305.8881225585938
 20
151.0848388671875
 30
0.0
 11
-440.8881225585938
 21
151.0848388671875
 31
0.0
  0
LINE
  5
127
330
22
100
AcDbEntity
  8
0
  6
Continuous
 62
     7
100
AcDbLine
 10
-323.2933959960938
 20
121.620735168457
 30
0.0
 11
-440.8881225585938
 21
121.620735168457
 31
0.0
  0
LINE
  5
128
330
22
100
AcDbEntity
  8
0
  6
Continuous
 62
     7
100
AcDbLine
 10
-399.1941833496094
 20
72.33997344970703
 30
0.0
 11
-440.8200073242188
 21
72.33997344970703
 31
0.0
  0
LINE
  5
129
330
22
100
AcDbEntity
  8
0
  6
Continuous
 62
     7
100
AcDbLine
 10
-399.0087890625
 20
74.58997344970703
 30
0.0
 11
-440.8200073242188
 21
74.58997344970703
 31
0.0
  0
LINE
  5
12A
330
22
100
AcDbEntity
  8
0
  6
Continuous
 62
     7
100
AcDbLine
 10
-440.8881225585938
 20
144.0848388671875
 30
0.0
 11
-306.8881225585938
 21
144.0848388671875
 31
0.0
  0
LINE
  5
12B
330
22
100
AcDbEntity
  8
0
  6
Continuous
 62
     7
100
AcDbLine
 10
-589.8881225585937
 20
151.5848388671875
 30
0.0
 11
-291.8881225585938
 21
151.5848388671875
 31
0.0
  0
LINE
  5
12C
330
22
100
AcDbEntity
  8
0
  6
DASHED
 62
     7
100
AcDbLine
 10
-317.8881225585938
 20
501.1767272949218
 30
0.0
 11
-317.8881225585938
 21
502.6767272949219
 31
0.0
  0
LINE
  5
12D
330
22
100
AcDbEntity
  8
0
  6
DASHED
 62
     7
100
AcDbLine
 10
-312.8881225585938
 20
496.1767272949218
 30
0.0
 11
-311.3881225585938
 21
496.1767272949218
 31
0.0
  0
LINE
  5
12E
330
22
100
AcDbEntity
  8
0
  6
CENTER
 62
     7
100
AcDbLine
 10
-312.8881225585938
 20
506.8908081054687
 30
0.0
 11
-312.8881225585938
 21
495.5137329101563
 31
0.0
  0
LINE
  5
12F
330
22
100
AcDbEntity
  8
0
  6
Continuous
 62
     7
100
AcDbLine
 10
-315.6493225097656
 20
503.3944091796874
 30
0.0
 11
-313.9693603515625
 21
501.1767272949218
 31
0.0
  0
LINE
  5
130
330
22
100
AcDbEntity
  8
0
  6
Continuous
 62
     7
100
AcDbLine
 10
-310.6704406738281
 20
498.4155578613281
 30
0.0
 11
-312.8881225585938
 21
500.0954895019531
 31
0.0
  0
LINE
  5
131
330
22
100
AcDbEntity
  8
0
  6
Continuous
 62
     7
100
AcDbLine
 10
-315.120361328125
 20
498.4005432128906
 30
0.0
 11
-312.8881225585938
 21
500.0954895019531
 31
0.0
  0
LINE
  5
132
330
22
100
AcDbEntity
  8
0
  6
Continuous
 62
     7
100
AcDbLine
 10
-310.6704406738281
 20
498.4155578613281
 30
0.0
 11
-310.398681640625
 21
498.6873168945312
 31
0.0
  0
LINE
  5
133
330
22
100
AcDbEntity
  8
0
  6
Continuous
 62
     7
100
AcDbLine
 10
-310.1119384765625
 20
503.4089965820313
 30
0.0
 11
-311.8068542480469
 21
501.1767272949218
 31
0.0
  0
LINE
  5
134
330
22
100
AcDbEntity
  8
0
  6
Continuous
 62
     7
100
AcDbLine
 10
-310.3838806152344
 20
503.6809692382813
 30
0.0
 11
-310.1119384765625
 21
503.4089965820313
 31
0.0
  0
LINE
  5
135
330
22
100
AcDbEntity
  8
0
  6
Continuous
 62
     7
100
AcDbLine
 10
-310.1119384765625
 20
503.4089965820313
 30
0.0
 11
-311.8068542480469
 21
501.1767272949218
 31
0.0
  0
LINE
  5
136
330
22
100
AcDbEntity
  8
0
  6
Continuous
 62
     7
100
AcDbLine
 10
-310.3838806152344
 20
503.6809692382813
 30
0.0
 11
-310.6558532714844
 21
503.9529418945313
 31
0.0
  0
LINE
  5
137
330
22
100
AcDbEntity
  8
0
  6
Continuous
 62
     7
100
AcDbLine
 10
-315.1058044433594
 20
503.9379272460938
 30
0.0
 11
-312.8881225585938
 21
502.2579956054688
 31
0.0
  0
LINE
  5
138
330
22
100
AcDbEntity
  8
0
  6
Continuous
 62
     7
100
AcDbLine
 10
-315.6493225097656
 20
503.3944091796874
 30
0.0
 11
-313.9693603515625
 21
501.1767272949218
 31
0.0
  0
LINE
  5
139
330
22
100
AcDbEntity
  8
0
  6
Continuous
 62
     7
100
AcDbLine
 10
-315.6493225097656
 20
503.3944091796874
 30
0.0
 11
-315.3775634765625
 21
503.6661682128906
 31
0.0
  0
LINE
  5
13A
330
22
100
AcDbEntity
  8
0
  6
Continuous
 62
     7
100
AcDbLine
 10
-315.1058044433594
 20
503.9379272460938
 30
0.0
 11
-315.3775634765625
 21
503.6661682128906
 31
0.0
  0
LINE
  5
13B
330
22
100
AcDbEntity
  8
0
  6
Continuous
 62
     7
100
AcDbLine
 10
-315.6493225097656
 20
503.3944091796874
 30
0.0
 11
-315.3775634765625
 21
503.6661682128906
 31
0.0
  0
LINE
  5
13C
330
22
100
AcDbEntity
  8
0
  6
Continuous
 62
     7
100
AcDbLine
 10
-310.3838806152344
 20
503.6809692382813
 30
0.0
 11
-310.1119384765625
 21
503.4089965820313
 31
0.0
  0
LINE
  5
13D
330
22
100
AcDbEntity
  8
0
  6
Continuous
 62
     7
100
AcDbLine
 10
-310.6558532714844
 20
503.9529418945313
 30
0.0
 11
-312.8881225585938
 21
502.2579956054688
 31
0.0
  0
LINE
  5
13E
330
22
100
AcDbEntity
  8
0
  6
Continuous
 62
     7
100
AcDbLine
 10
-315.120361328125
 20
498.4005432128906
 30
0.0
 11
-312.8881225585938
 21
500.0954895019531
 31
0.0
  0
LINE
  5
13F
330
22
100
AcDbEntity
  8
0
  6
Continuous
 62
     7
100
AcDbLine
 10
-315.1058044433594
 20
503.9379272460938
 30
0.0
 11
-315.3775634765625
 21
503.6661682128906
 31
0.0
  0
LINE
  5
140
330
22
100
AcDbEntity
  8
0
  6
Continuous
 62
     7
100
AcDbLine
 10
-310.6704406738281
 20
498.4155578613281
 30
0.0
 11
-312.8881225585938
 21
500.0954895019531
 31
0.0
  0
LINE
  5
141
330
22
100
AcDbEntity
  8
0
  6
Continuous
 62
     7
100
AcDbLine
 10
-310.1269226074219
 20
498.9590759277343
 30
0.0
 11
-311.8068542480469
 21
501.1767272949218
 31
0.0
  0
LINE
  5
142
330
22
100
AcDbEntity
  8
0
  6
Continuous
 62
     7
100
AcDbLine
 10
-315.664306640625
 20
498.9444885253906
 30
0.0
 11
-313.9693603515625
 21
501.1767272949218
 31
0.0
  0
LINE
  5
143
330
22
100
AcDbEntity
  8
0
  6
Continuous
 62
     7
100
AcDbLine
 10
-310.1269226074219
 20
498.9590759277343
 30
0.0
 11
-310.398681640625
 21
498.6873168945312
 31
0.0
  0
LINE
  5
144
330
22
100
AcDbEntity
  8
0
  6
Continuous
 62
     7
100
AcDbLine
 10
-315.1058044433594
 20
503.9379272460938
 30
0.0
 11
-312.8881225585938
 21
502.2579956054688
 31
0.0
  0
LINE
  5
145
330
22
100
AcDbEntity
  8
0
  6
Continuous
 62
     7
100
AcDbLine
 10
-310.3838806152344
 20
503.6809692382813
 30
0.0
 11
-310.6558532714844
 21
503.9529418945313
 31
0.0
  0
LINE
  5
146
330
22
100
AcDbEntity
  8
0
  6
Continuous
 62
     7
100
AcDbLine
 10
-310.6558532714844
 20
503.9529418945313
 30
0.0
 11
-312.8881225585938
 21
502.2579956054688
 31
0.0
  0
LINE
  5
147
330
22
100
AcDbEntity
  8
0
  6
Continuous
 62
     7
100
AcDbLine
 10
-310.1269226074219
 20
498.9590759277343
 30
0.0
 11
-311.8068542480469
 21
501.1767272949218
 31
0.0
  0
LINE
  5
148
330
22
100
AcDbEntity
  8
0
  6
Continuous
 62
     7
100
AcDbLine
 10
-310.1269226074219
 20
498.9590759277343
 30
0.0
 11
-310.398681640625
 21
498.6873168945312
 31
0.0
  0
LINE
  5
149
330
22
100
AcDbEntity
  8
0
  6
Continuous
 62
     7
100
AcDbLine
 10
-310.6704406738281
 20
498.4155578613281
 30
0.0
 11
-310.398681640625
 21
498.6873168945312
 31
0.0
  0
LINE
  5
14A
330
22
100
AcDbEntity
  8
0
  6
Continuous
 62
     7
100
AcDbLine
 10
-315.392333984375
 20
498.6725158691406
 30
0.0
 11
-315.120361328125
 21
498.4005432128906
 31
0.0
  0
LINE
  5
14B
330
22
100
AcDbEntity
  8
0
  6
Continuous
 62
     7
100
AcDbLine
 10
-315.392333984375
 20
498.6725158691406
 30
0.0
 11
-315.664306640625
 21
498.9444885253906
 31
0.0
  0
LINE
  5
14C
330
22
100
AcDbEntity
  8
0
  6
Continuous
 62
     7
100
AcDbLine
 10
-315.392333984375
 20
498.6725158691406
 30
0.0
 11
-315.664306640625
 21
498.9444885253906
 31
0.0
  0
LINE
  5
14D
330
22
100
AcDbEntity
  8
0
  6
Continuous
 62
     7
100
AcDbLine
 10
-315.392333984375
 20
498.6725158691406
 30
0.0
 11
-315.120361328125
 21
498.4005432128906
 31
0.0
  0
LINE
  5
14E
330
22
100
AcDbEntity
  8
0
  6
Continuous
 62
     7
100
AcDbLine
 10
-315.664306640625
 20
498.9444885253906
 30
0.0
 11
-313.9693603515625
 21
501.1767272949218
 31
0.0
  0
LINE
  5
14F
330
22
100
AcDbEntity
  8
0
  6
CENTER
 62
     7
100
AcDbLine
 10
-307.0677490234375
 20
501.1767272949218
 30
0.0
 11
-319.2385559082031
 21
501.1767272949218
 31
0.0
  0
LINE
  5
150
330
22
100
AcDbEntity
  8
0
  6
Continuous
 62
     7
100
AcDbLine
 10
-381.8881225585938
 20
476.6767272949218
 30
0.0
 11
-381.8881225585938
 21
445.6767272949218
 31
0.0
  0
LINE
  5
151
330
22
100
AcDbEntity
  8
0
  6
Continuous
 62
     7
100
AcDbLine
 10
-366.8881225585938
 20
455.6767272949218
 30
0.0
 11
-366.8881225585938
 21
424.6767272949218
 31
0.0
  0
LINE
  5
152
330
22
100
AcDbEntity
  8
0
  6
Continuous
 62
     7
100
AcDbLine
 10
-356.8881225585938
 20
476.6767272949218
 30
0.0
 11
-356.8881225585938
 21
445.6767272949218
 31
0.0
  0
LINE
  5
153
330
22
100
AcDbEntity
  8
0
  6
Continuous
 62
     7
100
AcDbLine
 10
-361.8881225585938
 20
476.6767272949218
 30
0.0
 11
-361.8881225585938
 21
445.6767272949218
 31
0.0
  0
LINE
  5
154
330
22
100
AcDbEntity
  8
0
  6
Continuous
 62
     7
100
AcDbLine
 10
-341.8881225585938
 20
476.6767272949218
 30
0.0
 11
-341.8881225585938
 21
445.6767272949218
 31
0.0
  0
LINE
  5
155
330
22
100
AcDbEntity
  8
0
  6
Continuous
 62
     7
100
AcDbLine
 10
-351.8881225585938
 20
455.6767272949218
 30
0.0
 11
-351.8881225585938
 21
424.6767272949218
 31
0.0
  0
LINE
  5
156
330
22
100
AcDbEntity
  8
0
  6
Continuous
 62
     7
100
AcDbLine
 10
-331.8881225585938
 20
455.6767272949218
 30
0.0
 11
-331.8881225585938
 21
424.6767272949218
 31
0.0
  0
LINE
  5
157
330
22
100
AcDbEntity
  8
0
  6
Continuous
 62
     7
100
AcDbLine
 10
-326.8881225585938
 20
455.6767272949218
 30
0.0
 11
-326.8881225585938
 21
424.6767272949218
 31
0.0
  0
LINE
  5
158
330
22
100
AcDbEntity
  8
0
  6
Continuous
 62
     7
100
AcDbLine
 10
-321.8881225585938
 20
476.6767272949218
 30
0.0
 11
-321.8881225585938
 21
445.6767272949218
 31
0.0
  0
LINE
  5
159
330
22
100
AcDbEntity
  8
0
  6
Continuous
 62
     7
100
AcDbLine
 10
-346.8881225585938
 20
455.6767272949218
 30
0.0
 11
-346.8881225585938
 21
424.6767272949218
 31
0.0
  0
LINE
  5
15A
330
22
100
AcDbEntity
  8
0
  6
Continuous
 62
     7
100
AcDbLine
 10
-316.8881225585938
 20
476.6767272949218
 30
0.0
 11
-316.8881225585938
 21
445.6767272949218
 31
0.0
  0
LINE
  5
15B
330
22
100
AcDbEntity
  8
0
  6
Continuous
 62
     7
100
AcDbLine
 10
-391.8881225585938
 20
332.6767272949219
 30
0.0
 11
-391.8881225585938
 21
363.6767272949219
 31
0.0
  0
LINE
  5
15C
330
22
100
AcDbEntity
  8
0
  6
Continuous
 62
     7
100
AcDbLine
 10
-336.8881225585938
 20
476.6767272949218
 30
0.0
 11
-336.8881225585938
 21
445.6767272949218
 31
0.0
  0
LINE
  5
15D
330
22
100
AcDbEntity
  8
0
  6
Continuous
 62
     7
100
AcDbLine
 10
-376.8881225585938
 20
476.6767272949218
 30
0.0
 11
-376.8881225585938
 21
445.6767272949218
 31
0.0
  0
LINE
  5
15E
330
22
100
AcDbEntity
  8
0
  6
Continuous
 62
     7
100
AcDbLine
 10
-371.8881225585938
 20
455.6767272949218
 30
0.0
 11
-371.8881225585938
 21
424.6767272949218
 31
0.0
  0
LINE
  5
15F
330
22
100
AcDbEntity
  8
0
  6
Continuous
 62
     7
100
AcDbLine
 10
-391.8881225585938
 20
455.6767272949218
 30
0.0
 11
-391.8881225585938
 21
424.6767272949218
 31
0.0
  0
LINE
  5
160
330
22
100
AcDbEntity
  8
0
  6
Continuous
 62
     7
100
AcDbLine
 10
-386.8881225585938
 20
455.6767272949218
 30
0.0
 11
-386.8881225585938
 21
424.6767272949218
 31
0.0
  0
LINE
  5
161
330
22
100
AcDbEntity
  8
0
  6
Continuous
 62
     7
100
AcDbLine
 10
-321.8881225585938
 20
353.6767272949219
 30
0.0
 11
-321.8881225585938
 21
363.6767272949219
 31
0.0
  0
LINE
  5
162
330
22
100
AcDbEntity
  8
0
  6
Continuous
 62
     7
100
AcDbLine
 10
-326.8881225585938
 20
332.6767272949219
 30
0.0
 11
-326.8881225585938
 21
363.6767272949219
 31
0.0
  0
LINE
  5
163
330
22
100
AcDbEntity
  8
0
  6
Continuous
 62
     7
100
AcDbLine
 10
-310.6704406738281
 20
370.4155578613281
 30
0.0
 11
-310.398681640625
 21
370.6873168945313
 31
0.0
  0
LINE
  5
164
330
22
100
AcDbEntity
  8
0
  6
Continuous
 62
     7
100
AcDbLine
 10
-315.120361328125
 20
370.4005432128906
 30
0.0
 11
-312.8881225585938
 21
372.0954895019531
 31
0.0
  0
LINE
  5
165
330
22
100
AcDbEntity
  8
0
  6
Continuous
 62
     7
100
AcDbLine
 10
-310.6704406738281
 20
370.4155578613281
 30
0.0
 11
-312.8881225585938
 21
372.0954895019531
 31
0.0
  0
LINE
  5
166
330
22
100
AcDbEntity
  8
0
  6
Continuous
 62
     7
100
AcDbLine
 10
-315.664306640625
 20
370.9444885253906
 30
0.0
 11
-313.9693603515625
 21
373.1767272949219
 31
0.0
  0
LINE
  5
167
330
22
100
AcDbEntity
  8
0
  6
Continuous
 62
     7
100
AcDbLine
 10
-315.392333984375
 20
370.6725158691406
 30
0.0
 11
-315.120361328125
 21
370.4005432128906
 31
0.0
  0
LINE
  5
168
330
22
100
AcDbEntity
  8
0
  6
Continuous
 62
     7
100
AcDbLine
 10
-315.392333984375
 20
370.6725158691406
 30
0.0
 11
-315.664306640625
 21
370.9444885253906
 31
0.0
  0
LINE
  5
169
330
22
100
AcDbEntity
  8
0
  6
Continuous
 62
     7
100
AcDbLine
 10
-315.392333984375
 20
370.6725158691406
 30
0.0
 11
-315.664306640625
 21
370.9444885253906
 31
0.0
  0
LINE
  5
16A
330
22
100
AcDbEntity
  8
0
  6
Continuous
 62
     7
100
AcDbLine
 10
-315.392333984375
 20
370.6725158691406
 30
0.0
 11
-315.120361328125
 21
370.4005432128906
 31
0.0
  0
LINE
  5
16B
330
22
100
AcDbEntity
  8
0
  6
Continuous
 62
     7
100
AcDbLine
 10
-310.6704406738281
 20
370.4155578613281
 30
0.0
 11
-310.398681640625
 21
370.6873168945313
 31
0.0
  0
LINE
  5
16C
330
22
100
AcDbEntity
  8
0
  6
Continuous
 62
     7
100
AcDbLine
 10
-310.1269226074219
 20
370.9590759277344
 30
0.0
 11
-310.398681640625
 21
370.6873168945313
 31
0.0
  0
LINE
  5
16D
330
22
100
AcDbEntity
  8
0
  6
Continuous
 62
     7
100
AcDbLine
 10
-310.1269226074219
 20
370.9590759277344
 30
0.0
 11
-311.8068542480469
 21
373.1767272949219
 31
0.0
  0
LINE
  5
16E
330
22
100
AcDbEntity
  8
0
  6
Continuous
 62
     7
100
AcDbLine
 10
-310.1269226074219
 20
370.9590759277344
 30
0.0
 11
-310.398681640625
 21
370.6873168945313
 31
0.0
  0
LINE
  5
16F
330
22
100
AcDbEntity
  8
0
  6
Continuous
 62
     7
100
AcDbLine
 10
-315.664306640625
 20
370.9444885253906
 30
0.0
 11
-313.9693603515625
 21
373.1767272949219
 31
0.0
  0
LINE
  5
170
330
22
100
AcDbEntity
  8
0
  6
Continuous
 62
     7
100
AcDbLine
 10
-315.120361328125
 20
370.4005432128906
 30
0.0
 11
-312.8881225585938
 21
372.0954895019531
 31
0.0
  0
LINE
  5
171
330
22
100
AcDbEntity
  8
0
  6
Continuous
 62
     7
100
AcDbLine
 10
-310.1119384765625
 20
375.4089965820313
 30
0.0
 11
-311.8068542480469
 21
373.1767272949219
 31
0.0
  0
LINE
  5
172
330
22
100
AcDbEntity
  8
0
  6
Continuous
 62
     7
100
AcDbLine
 10
-315.6493225097656
 20
375.3944091796875
 30
0.0
 11
-313.9693603515625
 21
373.1767272949219
 31
0.0
  0
LINE
  5
173
330
22
100
AcDbEntity
  8
0
  6
Continuous
 62
     7
100
AcDbLine
 10
-310.6558532714844
 20
375.9529418945313
 30
0.0
 11
-312.8881225585938
 21
374.2579956054688
 31
0.0
  0
LINE
  5
174
330
22
100
AcDbEntity
  8
0
  6
Continuous
 62
     7
100
AcDbLine
 10
-310.1269226074219
 20
370.9590759277344
 30
0.0
 11
-311.8068542480469
 21
373.1767272949219
 31
0.0
  0
LINE
  5
175
330
22
100
AcDbEntity
  8
0
  6
Continuous
 62
     7
100
AcDbLine
 10
-310.6704406738281
 20
370.4155578613281
 30
0.0
 11
-312.8881225585938
 21
372.0954895019531
 31
0.0
  0
LINE
  5
176
330
22
100
AcDbEntity
  8
0
  6
DASHED
 62
     7
100
AcDbLine
 10
-312.8881225585938
 20
368.1767272949219
 30
0.0
 11
-311.3881225585938
 21
368.1767272949219
 31
0.0
  0
LINE
  5
177
330
22
100
AcDbEntity
  8
0
  6
Continuous
 62
     7
100
AcDbLine
 10
-316.8881225585938
 20
353.6767272949219
 30
0.0
 11
-316.8881225585938
 21
363.6767272949219
 31
0.0
  0
LINE
  5
178
330
22
100
AcDbEntity
  8
0
  6
Continuous
 62
     7
100
AcDbLine
 10
-341.8881225585938
 20
353.6767272949219
 30
0.0
 11
-341.8881225585938
 21
363.6767272949219
 31
0.0
  0
LINE
  5
179
330
22
100
AcDbEntity
  8
0
  6
Continuous
 62
     7
100
AcDbLine
 10
-381.8881225585938
 20
353.6767272949219
 30
0.0
 11
-381.8881225585938
 21
363.6767272949219
 31
0.0
  0
LINE
  5
17A
330
22
100
AcDbEntity
  8
0
  6
Continuous
 62
     7
100
AcDbLine
 10
-346.8881225585938
 20
332.6767272949219
 30
0.0
 11
-346.8881225585938
 21
363.6767272949219
 31
0.0
  0
LINE
  5
17B
330
22
100
AcDbEntity
  8
0
  6
Continuous
 62
     7
100
AcDbLine
 10
-310.3838806152344
 20
375.6809692382813
 30
0.0
 11
-310.6558532714844
 21
375.9529418945313
 31
0.0
  0
LINE
  5
17C
330
22
100
AcDbEntity
  8
0
  6
Continuous
 62
     7
100
AcDbLine
 10
-315.1058044433594
 20
375.9379272460938
 30
0.0
 11
-312.8881225585938
 21
374.2579956054688
 31
0.0
  0
LINE
  5
17D
330
22
100
AcDbEntity
  8
0
  6
Continuous
 62
     7
100
AcDbLine
 10
-315.1058044433594
 20
375.9379272460938
 30
0.0
 11
-315.3775634765625
 21
375.6661682128906
 31
0.0
  0
LINE
  5
17E
330
22
100
AcDbEntity
  8
0
  6
Continuous
 62
     7
100
AcDbLine
 10
-310.6558532714844
 20
375.9529418945313
 30
0.0
 11
-312.8881225585938
 21
374.2579956054688
 31
0.0
  0
LINE
  5
17F
330
22
100
AcDbEntity
  8
0
  6
Continuous
 62
     7
100
AcDbLine
 10
-310.3838806152344
 20
375.6809692382813
 30
0.0
 11
-310.1119384765625
 21
375.4089965820313
 31
0.0
  0
LINE
  5
180
330
22
100
AcDbEntity
  8
0
  6
Continuous
 62
     7
100
AcDbLine
 10
-315.6493225097656
 20
375.3944091796875
 30
0.0
 11
-315.3775634765625
 21
375.6661682128906
 31
0.0
  0
LINE
  5
181
330
22
100
AcDbEntity
  8
0
  6
Continuous
 62
     7
100
AcDbLine
 10
-315.1058044433594
 20
375.9379272460938
 30
0.0
 11
-315.3775634765625
 21
375.6661682128906
 31
0.0
  0
LINE
  5
182
330
22
100
AcDbEntity
  8
0
  6
Continuous
 62
     7
100
AcDbLine
 10
-315.6493225097656
 20
375.3944091796875
 30
0.0
 11
-315.3775634765625
 21
375.6661682128906
 31
0.0
  0
LINE
  5
183
330
22
100
AcDbEntity
  8
0
  6
Continuous
 62
     7
100
AcDbLine
 10
-315.6493225097656
 20
375.3944091796875
 30
0.0
 11
-313.9693603515625
 21
373.1767272949219
 31
0.0
  0
LINE
  5
184
330
22
100
AcDbEntity
  8
0
  6
Continuous
 62
     7
100
AcDbLine
 10
-315.1058044433594
 20
375.9379272460938
 30
0.0
 11
-312.8881225585938
 21
374.2579956054688
 31
0.0
  0
LINE
  5
185
330
22
100
AcDbEntity
  8
0
  6
Continuous
 62
     7
100
AcDbLine
 10
-310.3838806152344
 20
375.6809692382813
 30
0.0
 11
-310.6558532714844
 21
375.9529418945313
 31
0.0
  0
LINE
  5
186
330
22
100
AcDbEntity
  8
0
  6
Continuous
 62
     7
100
AcDbLine
 10
-310.1119384765625
 20
375.4089965820313
 30
0.0
 11
-311.8068542480469
 21
373.1767272949219
 31
0.0
  0
LINE
  5
187
330
22
100
AcDbEntity
  8
0
  6
DASHED
 62
     7
100
AcDbLine
 10
-312.8881225585938
 20
378.1767272949219
 30
0.0
 11
-311.3881225585938
 21
378.1767272949219
 31
0.0
  0
LINE
  5
188
330
22
100
AcDbEntity
  8
0
  6
CENTER
 62
     7
100
AcDbLine
 10
-312.8881225585938
 20
367.3563537597656
 30
0.0
 11
-312.8881225585938
 21
379.5271911621094
 31
0.0
  0
LINE
  5
189
330
22
100
AcDbEntity
  8
0
  6
Continuous
 62
     7
100
AcDbLine
 10
-336.8881225585938
 20
353.6767272949219
 30
0.0
 11
-336.8881225585938
 21
363.6767272949219
 31
0.0
  0
LINE
  5
18A
330
22
100
AcDbEntity
  8
0
  6
Continuous
 62
     7
100
AcDbLine
 10
-351.8881225585938
 20
332.6767272949219
 30
0.0
 11
-351.8881225585938
 21
363.6767272949219
 31
0.0
  0
LINE
  5
18B
330
22
100
AcDbEntity
  8
0
  6
Continuous
 62
     7
100
AcDbLine
 10
-371.8881225585938
 20
332.6767272949219
 30
0.0
 11
-371.8881225585938
 21
363.6767272949219
 31
0.0
  0
LINE
  5
18C
330
22
100
AcDbEntity
  8
0
  6
Continuous
 62
     7
100
AcDbLine
 10
-366.8881225585938
 20
332.6767272949219
 30
0.0
 11
-366.8881225585938
 21
363.6767272949219
 31
0.0
  0
LINE
  5
18D
330
22
100
AcDbEntity
  8
0
  6
Continuous
 62
     7
100
AcDbLine
 10
-376.8881225585938
 20
353.6767272949219
 30
0.0
 11
-376.8881225585938
 21
363.6767272949219
 31
0.0
  0
LINE
  5
18E
330
22
100
AcDbEntity
  8
0
  6
Continuous
 62
     7
100
AcDbLine
 10
-386.8881225585938
 20
332.6767272949219
 30
0.0
 11
-386.8881225585938
 21
363.6767272949219
 31
0.0
  0
LINE
  5
18F
330
22
100
AcDbEntity
  8
0
  6
Continuous
 62
     7
100
AcDbLine
 10
-361.8881225585938
 20
353.6767272949219
 30
0.0
 11
-361.8881225585938
 21
363.6767272949219
 31
0.0
  0
LINE
  5
190
330
22
100
AcDbEntity
  8
0
  6
Continuous
 62
     7
100
AcDbLine
 10
-331.8881225585938
 20
332.6767272949219
 30
0.0
 11
-331.8881225585938
 21
363.6767272949219
 31
0.0
  0
LINE
  5
191
330
22
100
AcDbEntity
  8
0
  6
Continuous
 62
     7
100
AcDbLine
 10
-310.3838806152344
 20
375.6809692382813
 30
0.0
 11
-310.1119384765625
 21
375.4089965820313
 31
0.0
  0
LINE
  5
192
330
22
100
AcDbEntity
  8
0
  6
Continuous
 62
     7
100
AcDbLine
 10
-356.8881225585938
 20
353.6767272949219
 30
0.0
 11
-356.8881225585938
 21
363.6767272949219
 31
0.0
  0
LINE
  5
193
330
22
100
AcDbEntity
  8
0
  6
Continuous
 62
     7
100
AcDbLine
 10
-315.1058044433594
 20
247.9379425048828
 30
0.0
 11
-312.8881225585938
 21
246.2579803466797
 31
0.0
  0
LINE
  5
194
330
22
100
AcDbEntity
  8
0
  6
Continuous
 62
     7
100
AcDbLine
 10
-315.6493225097656
 20
247.3944091796875
 30
0.0
 11
-313.9693603515625
 21
245.1767425537109
 31
0.0
  0
LINE
  5
195
330
22
100
AcDbEntity
  8
0
  6
Continuous
 62
     7
100
AcDbLine
 10
-391.8881225585938
 20
248.6767425537109
 30
0.0
 11
-391.8881225585938
 21
279.6767272949219
 31
0.0
  0
LINE
  5
196
330
22
100
AcDbEntity
  8
0
  6
Continuous
 62
     7
100
AcDbLine
 10
-316.8881225585938
 20
392.3518676757813
 30
0.0
 11
-316.8881225585938
 21
382.6767272949219
 31
0.0
  0
LINE
  5
197
330
22
100
AcDbEntity
  8
0
  6
Continuous
 62
     7
100
AcDbLine
 10
-321.8881225585938
 20
392.3518676757813
 30
0.0
 11
-321.8881225585938
 21
382.6767272949219
 31
0.0
  0
LINE
  5
198
330
22
100
AcDbEntity
  8
0
  6
Continuous
 62
     7
100
AcDbLine
 10
-381.8881225585938
 20
392.3518676757813
 30
0.0
 11
-381.8881225585938
 21
382.6767272949219
 31
0.0
  0
LINE
  5
199
330
22
100
AcDbEntity
  8
0
  6
Continuous
 62
     7
100
AcDbLine
 10
-336.8881225585938
 20
392.3518676757813
 30
0.0
 11
-336.8881225585938
 21
382.6767272949219
 31
0.0
  0
LINE
  5
19A
330
22
100
AcDbEntity
  8
0
  6
Continuous
 62
     7
100
AcDbLine
 10
-356.8881225585938
 20
392.3518676757813
 30
0.0
 11
-356.8881225585938
 21
382.6767272949219
 31
0.0
  0
LINE
  5
19B
330
22
100
AcDbEntity
  8
0
  6
Continuous
 62
     7
100
AcDbLine
 10
-361.8881225585938
 20
392.3518676757813
 30
0.0
 11
-361.8881225585938
 21
382.6767272949219
 31
0.0
  0
LINE
  5
19C
330
22
100
AcDbEntity
  8
0
  6
Continuous
 62
     7
100
AcDbLine
 10
-341.8881225585938
 20
392.3518676757813
 30
0.0
 11
-341.8881225585938
 21
382.6767272949219
 31
0.0
  0
LINE
  5
19D
330
22
100
AcDbEntity
  8
0
  6
Continuous
 62
     7
100
AcDbLine
 10
-376.8881225585938
 20
392.3518676757813
 30
0.0
 11
-376.8881225585938
 21
382.6767272949219
 31
0.0
  0
LINE
  5
19E
330
22
100
AcDbEntity
  8
0
  6
Continuous
 62
     7
100
AcDbLine
 10
-310.3838806152344
 20
247.6809692382814
 30
0.0
 11
-310.1119384765625
 21
247.4089965820313
 31
0.0
  0
LINE
  5
19F
330
22
100
AcDbEntity
  8
0
  6
Continuous
 62
     7
100
AcDbLine
 10
-310.1119384765625
 20
247.4089965820313
 30
0.0
 11
-311.8068542480469
 21
245.1767425537109
 31
0.0
  0
LINE
  5
1A0
330
22
100
AcDbEntity
  8
0
  6
Continuous
 62
     7
100
AcDbLine
 10
-310.3838806152344
 20
247.6809692382814
 30
0.0
 11
-310.6558532714844
 21
247.9529266357422
 31
0.0
  0
LINE
  5
1A1
330
22
100
AcDbEntity
  8
0
  6
Continuous
 62
     7
100
AcDbLine
 10
-315.6493225097656
 20
247.3944091796875
 30
0.0
 11
-315.3775634765625
 21
247.6661682128906
 31
0.0
  0
LINE
  5
1A2
330
22
100
AcDbEntity
  8
0
  6
Continuous
 62
     7
100
AcDbLine
 10
-315.1058044433594
 20
247.9379425048828
 30
0.0
 11
-315.3775634765625
 21
247.6661682128906
 31
0.0
  0
LINE
  5
1A3
330
22
100
AcDbEntity
  8
0
  6
Continuous
 62
     7
100
AcDbLine
 10
-315.6493225097656
 20
247.3944091796875
 30
0.0
 11
-315.3775634765625
 21
247.6661682128906
 31
0.0
  0
LINE
  5
1A4
330
22
100
AcDbEntity
  8
0
  6
Continuous
 62
     7
100
AcDbLine
 10
-310.6704406738281
 20
242.4155426025391
 30
0.0
 11
-312.8881225585938
 21
244.0954895019531
 31
0.0
  0
LINE
  5
1A5
330
22
100
AcDbEntity
  8
0
  6
Continuous
 62
     7
100
AcDbLine
 10
-310.1269226074219
 20
242.9590606689453
 30
0.0
 11
-311.8068542480469
 21
245.1767425537109
 31
0.0
  0
LINE
  5
1A6
330
22
100
AcDbEntity
  8
0
  6
Continuous
 62
     7
100
AcDbLine
 10
-310.3838806152344
 20
247.6809692382814
 30
0.0
 11
-310.1119384765625
 21
247.4089965820313
 31
0.0
  0
LINE
  5
1A7
330
22
100
AcDbEntity
  8
0
  6
Continuous
 62
     7
100
AcDbLine
 10
-310.6558532714844
 20
247.9529266357422
 30
0.0
 11
-312.8881225585938
 21
246.2579803466797
 31
0.0
  0
LINE
  5
1A8
330
22
100
AcDbEntity
  8
0
  6
Continuous
 62
     7
100
AcDbLine
 10
-315.120361328125
 20
242.4005432128906
 30
0.0
 11
-312.8881225585938
 21
244.0954895019531
 31
0.0
  0
LINE
  5
1A9
330
22
100
AcDbEntity
  8
0
  6
Continuous
 62
     7
100
AcDbLine
 10
-315.1058044433594
 20
247.9379425048828
 30
0.0
 11
-315.3775634765625
 21
247.6661682128906
 31
0.0
  0
LINE
  5
1AA
330
22
100
AcDbEntity
  8
0
  6
CENTER
 62
     7
100
AcDbLine
 10
-307.0677490234375
 20
245.1767425537109
 30
0.0
 11
-319.2385559082031
 21
245.1767425537109
 31
0.0
  0
LINE
  5
1AB
330
22
100
AcDbEntity
  8
0
  6
DASHED
 62
     7
100
AcDbLine
 10
-312.8881225585938
 20
250.1767425537109
 30
0.0
 11
-311.3881225585938
 21
250.1767425537109
 31
0.0
  0
LINE
  5
1AC
330
22
100
AcDbEntity
  8
0
  6
DASHED
 62
     7
100
AcDbLine
 10
-317.8881225585938
 20
245.1767425537109
 30
0.0
 11
-317.8881225585938
 21
243.6767425537109
 31
0.0
  0
LINE
  5
1AD
330
22
100
AcDbEntity
  8
0
  6
Continuous
 62
     7
100
AcDbLine
 10
-315.1058044433594
 20
247.9379425048828
 30
0.0
 11
-312.8881225585938
 21
246.2579803466797
 31
0.0
  0
LINE
  5
1AE
330
22
100
AcDbEntity
  8
0
  6
Continuous
 62
     7
100
AcDbLine
 10
-310.3838806152344
 20
247.6809692382814
 30
0.0
 11
-310.6558532714844
 21
247.9529266357422
 31
0.0
  0
LINE
  5
1AF
330
22
100
AcDbEntity
  8
0
  6
Continuous
 62
     7
100
AcDbLine
 10
-310.6558532714844
 20
247.9529266357422
 30
0.0
 11
-312.8881225585938
 21
246.2579803466797
 31
0.0
  0
LINE
  5
1B0
330
22
100
AcDbEntity
  8
0
  6
Continuous
 62
     7
100
AcDbLine
 10
-321.8881225585938
 20
269.676727294922
 30
0.0
 11
-321.8881225585938
 21
300.6767272949219
 31
0.0
  0
LINE
  5
1B1
330
22
100
AcDbEntity
  8
0
  6
Continuous
 62
     7
100
AcDbLine
 10
-321.8881225585938
 20
253.6767425537109
 30
0.0
 11
-321.8881225585938
 21
258.6767272949219
 31
0.0
  0
LINE
  5
1B2
330
22
100
AcDbEntity
  8
0
  6
Continuous
 62
     7
100
AcDbLine
 10
-326.8881225585938
 20
248.6767425537109
 30
0.0
 11
-326.8881225585938
 21
279.6767272949219
 31
0.0
  0
LINE
  5
1B3
330
22
100
AcDbEntity
  8
0
  6
Continuous
 62
     7
100
AcDbLine
 10
-315.664306640625
 20
242.9444732666016
 30
0.0
 11
-313.9693603515625
 21
245.1767425537109
 31
0.0
  0
LINE
  5
1B4
330
22
100
AcDbEntity
  8
0
  6
Continuous
 62
     7
100
AcDbLine
 10
-310.1269226074219
 20
242.9590606689453
 30
0.0
 11
-310.398681640625
 21
242.6873016357422
 31
0.0
  0
LINE
  5
1B5
330
22
100
AcDbEntity
  8
0
  6
Continuous
 62
     7
100
AcDbLine
 10
-310.1269226074219
 20
242.9590606689453
 30
0.0
 11
-311.8068542480469
 21
245.1767425537109
 31
0.0
  0
LINE
  5
1B6
330
22
100
AcDbEntity
  8
0
  6
Continuous
 62
     7
100
AcDbLine
 10
-310.1269226074219
 20
242.9590606689453
 30
0.0
 11
-310.398681640625
 21
242.6873016357422
 31
0.0
  0
LINE
  5
1B7
330
22
100
AcDbEntity
  8
0
  6
Continuous
 62
     7
100
AcDbLine
 10
-310.6704406738281
 20
242.4155426025391
 30
0.0
 11
-310.398681640625
 21
242.6873016357422
 31
0.0
  0
LINE
  5
1B8
330
22
100
AcDbEntity
  8
0
  6
Continuous
 62
     7
100
AcDbLine
 10
-315.392333984375
 20
242.6725158691406
 30
0.0
 11
-315.120361328125
 21
242.4005432128906
 31
0.0
  0
LINE
  5
1B9
330
22
100
AcDbEntity
  8
0
  6
Continuous
 62
     7
100
AcDbLine
 10
-315.392333984375
 20
242.6725158691406
 30
0.0
 11
-315.664306640625
 21
242.9444732666016
 31
0.0
  0
LINE
  5
1BA
330
22
100
AcDbEntity
  8
0
  6
Continuous
 62
     7
100
AcDbLine
 10
-315.392333984375
 20
242.6725158691406
 30
0.0
 11
-315.664306640625
 21
242.9444732666016
 31
0.0
  0
LINE
  5
1BB
330
22
100
AcDbEntity
  8
0
  6
Continuous
 62
     7
100
AcDbLine
 10
-315.392333984375
 20
242.6725158691406
 30
0.0
 11
-315.120361328125
 21
242.4005432128906
 31
0.0
  0
LINE
  5
1BC
330
22
100
AcDbEntity
  8
0
  6
Continuous
 62
     7
100
AcDbLine
 10
-315.664306640625
 20
242.9444732666016
 30
0.0
 11
-313.9693603515625
 21
245.1767425537109
 31
0.0
  0
LINE
  5
1BD
330
22
100
AcDbEntity
  8
0
  6
Continuous
 62
     7
100
AcDbLine
 10
-316.8881225585938
 20
269.676727294922
 30
0.0
 11
-316.8881225585938
 21
300.6767272949219
 31
0.0
  0
LINE
  5
1BE
330
22
100
AcDbEntity
  8
0
  6
Continuous
 62
     7
100
AcDbLine
 10
-316.8881225585938
 20
253.6767425537109
 30
0.0
 11
-316.8881225585938
 21
258.6767272949219
 31
0.0
  0
LINE
  5
1BF
330
22
100
AcDbEntity
  8
0
  6
Continuous
 62
     7
100
AcDbLine
 10
-315.6493225097656
 20
247.3944091796875
 30
0.0
 11
-313.9693603515625
 21
245.1767425537109
 31
0.0
  0
LINE
  5
1C0
330
22
100
AcDbEntity
  8
0
  6
Continuous
 62
     7
100
AcDbLine
 10
-310.6704406738281
 20
242.4155426025391
 30
0.0
 11
-312.8881225585938
 21
244.0954895019531
 31
0.0
  0
LINE
  5
1C1
330
22
100
AcDbEntity
  8
0
  6
Continuous
 62
     7
100
AcDbLine
 10
-315.120361328125
 20
242.4005432128906
 30
0.0
 11
-312.8881225585938
 21
244.0954895019531
 31
0.0
  0
LINE
  5
1C2
330
22
100
AcDbEntity
  8
0
  6
Continuous
 62
     7
100
AcDbLine
 10
-310.6704406738281
 20
242.4155426025391
 30
0.0
 11
-310.398681640625
 21
242.6873016357422
 31
0.0
  0
LINE
  5
1C3
330
22
100
AcDbEntity
  8
0
  6
Continuous
 62
     7
100
AcDbLine
 10
-310.1119384765625
 20
247.4089965820313
 30
0.0
 11
-311.8068542480469
 21
245.1767425537109
 31
0.0
  0
LINE
  5
1C4
330
22
100
AcDbEntity
  8
0
  6
Continuous
 62
     7
100
AcDbLine
 10
-341.8881225585938
 20
248.6767425537109
 30
0.0
 11
-341.8881225585938
 21
258.6767272949219
 31
0.0
  0
LINE
  5
1C5
330
22
100
AcDbEntity
  8
0
  6
Continuous
 62
     7
100
AcDbLine
 10
-351.8881225585938
 20
248.6767425537109
 30
0.0
 11
-351.8881225585938
 21
279.6767272949219
 31
0.0
  0
LINE
  5
1C6
330
22
100
AcDbEntity
  8
0
  6
Continuous
 62
     7
100
AcDbLine
 10
-371.8881225585938
 20
248.6767425537109
 30
0.0
 11
-371.8881225585938
 21
279.6767272949219
 31
0.0
  0
LINE
  5
1C7
330
22
100
AcDbEntity
  8
0
  6
Continuous
 62
     7
100
AcDbLine
 10
-366.8881225585938
 20
248.6767425537109
 30
0.0
 11
-366.8881225585938
 21
279.6767272949219
 31
0.0
  0
LINE
  5
1C8
330
22
100
AcDbEntity
  8
0
  6
Continuous
 62
     7
100
AcDbLine
 10
-356.8881225585938
 20
248.6767425537109
 30
0.0
 11
-356.8881225585938
 21
258.6767272949219
 31
0.0
  0
LINE
  5
1C9
330
22
100
AcDbEntity
  8
0
  6
Continuous
 62
     7
100
AcDbLine
 10
-361.8881225585938
 20
248.6767425537109
 30
0.0
 11
-361.8881225585938
 21
258.6767272949219
 31
0.0
  0
LINE
  5
1CA
330
22
100
AcDbEntity
  8
0
  6
Continuous
 62
     7
100
AcDbLine
 10
-381.8881225585938
 20
248.6767425537109
 30
0.0
 11
-381.8881225585938
 21
258.6767272949219
 31
0.0
  0
LINE
  5
1CB
330
22
100
AcDbEntity
  8
0
  6
Continuous
 62
     7
100
AcDbLine
 10
-361.8881225585938
 20
269.676727294922
 30
0.0
 11
-361.8881225585938
 21
300.6767272949219
 31
0.0
  0
LINE
  5
1CC
330
22
100
AcDbEntity
  8
0
  6
Continuous
 62
     7
100
AcDbLine
 10
-356.8881225585938
 20
269.676727294922
 30
0.0
 11
-356.8881225585938
 21
300.6767272949219
 31
0.0
  0
LINE
  5
1CD
330
22
100
AcDbEntity
  8
0
  6
Continuous
 62
     7
100
AcDbLine
 10
-376.8881225585938
 20
269.676727294922
 30
0.0
 11
-376.8881225585938
 21
300.6767272949219
 31
0.0
  0
LINE
  5
1CE
330
22
100
AcDbEntity
  8
0
  6
Continuous
 62
     7
100
AcDbLine
 10
-381.8881225585938
 20
269.676727294922
 30
0.0
 11
-381.8881225585938
 21
300.6767272949219
 31
0.0
  0
LINE
  5
1CF
330
22
100
AcDbEntity
  8
0
  6
Continuous
 62
     7
100
AcDbLine
 10
-331.8881225585938
 20
248.6767425537109
 30
0.0
 11
-331.8881225585938
 21
279.6767272949219
 31
0.0
  0
LINE
  5
1D0
330
22
100
AcDbEntity
  8
0
  6
Continuous
 62
     7
100
AcDbLine
 10
-341.8881225585938
 20
269.676727294922
 30
0.0
 11
-341.8881225585938
 21
300.6767272949219
 31
0.0
  0
LINE
  5
1D1
330
22
100
AcDbEntity
  8
0
  6
Continuous
 62
     7
100
AcDbLine
 10
-438.1269226074218
 20
498.9590759277343
 30
0.0
 11
-438.398681640625
 21
498.6873168945312
 31
0.0
  0
LINE
  5
1D2
330
22
100
AcDbEntity
  8
0
  6
Continuous
 62
     7
100
AcDbLine
 10
-438.3838806152343
 20
503.6809692382813
 30
0.0
 11
-438.6558532714843
 21
503.9529418945313
 31
0.0
  0
LINE
  5
1D3
330
22
100
AcDbEntity
  8
0
  6
Continuous
 62
     7
100
AcDbLine
 10
-438.1269226074218
 20
498.9590759277343
 30
0.0
 11
-438.398681640625
 21
498.6873168945312
 31
0.0
  0
LINE
  5
1D4
330
22
100
AcDbEntity
  8
0
  6
Continuous
 62
     7
100
AcDbLine
 10
-438.3838806152343
 20
503.6809692382813
 30
0.0
 11
-438.1119384765624
 21
503.4089965820313
 31
0.0
  0
LINE
  5
1D5
330
22
100
AcDbEntity
  8
0
  6
Continuous
 62
     7
100
AcDbLine
 10
-438.3838806152343
 20
503.6809692382813
 30
0.0
 11
-438.6558532714843
 21
503.9529418945313
 31
0.0
  0
LINE
  5
1D6
330
22
100
AcDbEntity
  8
0
  6
Continuous
 62
     7
100
AcDbLine
 10
-438.3838806152343
 20
503.6809692382813
 30
0.0
 11
-438.1119384765624
 21
503.4089965820313
 31
0.0
  0
LINE
  5
1D7
330
22
100
AcDbEntity
  8
0
  6
DASHED
 62
     7
100
AcDbLine
 10
-435.8881225585938
 20
501.1767272949218
 30
0.0
 11
-435.8881225585938
 21
502.6767272949219
 31
0.0
  0
LINE
  5
1D8
330
22
100
AcDbEntity
  8
0
  6
Continuous
 62
     7
100
AcDbLine
 10
-336.8881225585938
 20
248.6767425537109
 30
0.0
 11
-336.8881225585938
 21
258.6767272949219
 31
0.0
  0
LINE
  5
1D9
330
22
100
AcDbEntity
  8
0
  6
Continuous
 62
     7
100
AcDbLine
 10
-336.8881225585938
 20
269.676727294922
 30
0.0
 11
-336.8881225585938
 21
300.6767272949219
 31
0.0
  0
LINE
  5
1DA
330
22
100
AcDbEntity
  8
0
  6
Continuous
 62
     7
100
AcDbLine
 10
-386.8881225585938
 20
248.6767425537109
 30
0.0
 11
-386.8881225585938
 21
279.6767272949219
 31
0.0
  0
LINE
  5
1DB
330
22
100
AcDbEntity
  8
0
  6
Continuous
 62
     7
100
AcDbLine
 10
-346.8881225585938
 20
248.6767425537109
 30
0.0
 11
-346.8881225585938
 21
279.6767272949219
 31
0.0
  0
LINE
  5
1DC
330
22
100
AcDbEntity
  8
0
  6
Continuous
 62
     7
100
AcDbLine
 10
-376.8881225585938
 20
248.6767425537109
 30
0.0
 11
-376.8881225585938
 21
258.6767272949219
 31
0.0
  0
LINE
  5
1DD
330
22
100
AcDbEntity
  8
0
  6
Continuous
 62
     7
100
AcDbLine
 10
-443.664306640625
 20
498.9444885253906
 30
0.0
 11
-441.9693603515624
 21
501.1767272949218
 31
0.0
  0
LINE
  5
1DE
330
22
100
AcDbEntity
  8
0
  6
Continuous
 62
     7
100
AcDbLine
 10
-443.392333984375
 20
498.6725158691406
 30
0.0
 11
-443.1203613281249
 21
498.4005432128906
 31
0.0
  0
LINE
  5
1DF
330
22
100
AcDbEntity
  8
0
  6
Continuous
 62
     7
100
AcDbLine
 10
-443.392333984375
 20
498.6725158691406
 30
0.0
 11
-443.664306640625
 21
498.9444885253906
 31
0.0
  0
LINE
  5
1E0
330
22
100
AcDbEntity
  8
0
  6
Continuous
 62
     7
100
AcDbLine
 10
-443.392333984375
 20
498.6725158691406
 30
0.0
 11
-443.664306640625
 21
498.9444885253906
 31
0.0
  0
LINE
  5
1E1
330
22
100
AcDbEntity
  8
0
  6
Continuous
 62
     7
100
AcDbLine
 10
-443.392333984375
 20
498.6725158691406
 30
0.0
 11
-443.1203613281249
 21
498.4005432128906
 31
0.0
  0
LINE
  5
1E2
330
22
100
AcDbEntity
  8
0
  6
Continuous
 62
     7
100
AcDbLine
 10
-438.6704406738281
 20
498.4155578613281
 30
0.0
 11
-438.398681640625
 21
498.6873168945312
 31
0.0
  0
LINE
  5
1E3
330
22
100
AcDbEntity
  8
0
  6
Continuous
 62
     7
100
AcDbLine
 10
-438.1269226074218
 20
498.9590759277343
 30
0.0
 11
-439.8068542480468
 21
501.1767272949218
 31
0.0
  0
LINE
  5
1E4
330
22
100
AcDbEntity
  8
0
  6
Continuous
 62
     7
100
AcDbLine
 10
-438.6558532714843
 20
503.9529418945313
 30
0.0
 11
-440.8881225585938
 21
502.2579956054688
 31
0.0
  0
LINE
  5
1E5
330
22
100
AcDbEntity
  8
0
  6
Continuous
 62
     7
100
AcDbLine
 10
-443.1058044433593
 20
503.9379272460938
 30
0.0
 11
-440.8881225585938
 21
502.2579956054688
 31
0.0
  0
LINE
  5
1E6
330
22
100
AcDbEntity
  8
0
  6
Continuous
 62
     7
100
AcDbLine
 10
-443.664306640625
 20
498.9444885253906
 30
0.0
 11
-441.9693603515624
 21
501.1767272949218
 31
0.0
  0
LINE
  5
1E7
330
22
100
AcDbEntity
  8
0
  6
Continuous
 62
     7
100
AcDbLine
 10
-443.1058044433593
 20
503.9379272460938
 30
0.0
 11
-443.3775634765624
 21
503.6661682128906
 31
0.0
  0
LINE
  5
1E8
330
22
100
AcDbEntity
  8
0
  6
Continuous
 62
     7
100
AcDbLine
 10
-443.1203613281249
 20
498.4005432128906
 30
0.0
 11
-440.8881225585938
 21
500.0954895019531
 31
0.0
  0
LINE
  5
1E9
330
22
100
AcDbEntity
  8
0
  6
Continuous
 62
     7
100
AcDbLine
 10
-438.6558532714843
 20
503.9529418945313
 30
0.0
 11
-440.8881225585938
 21
502.2579956054688
 31
0.0
  0
LINE
  5
1EA
330
22
100
AcDbEntity
  8
0
  6
CENTER
 62
     7
100
AcDbLine
 10
-446.70849609375
 20
501.1767272949218
 30
0.0
 11
-434.5376586914063
 21
501.1767272949218
 31
0.0
  0
LINE
  5
1EB
330
22
100
AcDbEntity
  8
0
  6
DASHED
 62
     7
100
AcDbLine
 10
-445.8881225585938
 20
501.1767272949218
 30
0.0
 11
-445.8881225585938
 21
502.6767272949219
 31
0.0
  0
LINE
  5
1EC
330
22
100
AcDbEntity
  8
0
  6
Continuous
 62
     7
100
AcDbLine
 10
-438.1269226074218
 20
498.9590759277343
 30
0.0
 11
-439.8068542480468
 21
501.1767272949218
 31
0.0
  0
LINE
  5
1ED
330
22
100
AcDbEntity
  8
0
  6
Continuous
 62
     7
100
AcDbLine
 10
-438.6704406738281
 20
498.4155578613281
 30
0.0
 11
-440.8881225585938
 21
500.0954895019531
 31
0.0
  0
LINE
  5
1EE
330
22
100
AcDbEntity
  8
0
  6
Continuous
 62
     7
100
AcDbLine
 10
-443.6493225097656
 20
503.3944091796874
 30
0.0
 11
-443.3775634765624
 21
503.6661682128906
 31
0.0
  0
LINE
  5
1EF
330
22
100
AcDbEntity
  8
0
  6
Continuous
 62
     7
100
AcDbLine
 10
-443.1058044433593
 20
503.9379272460938
 30
0.0
 11
-443.3775634765624
 21
503.6661682128906
 31
0.0
  0
LINE
  5
1F0
330
22
100
AcDbEntity
  8
0
  6
Continuous
 62
     7
100
AcDbLine
 10
-443.6493225097656
 20
503.3944091796874
 30
0.0
 11
-443.3775634765624
 21
503.6661682128906
 31
0.0
  0
LINE
  5
1F1
330
22
100
AcDbEntity
  8
0
  6
Continuous
 62
     7
100
AcDbLine
 10
-459.8881225585937
 20
476.6767272949218
 30
0.0
 11
-459.8881225585937
 21
445.6767272949218
 31
0.0
  0
LINE
  5
1F2
330
22
100
AcDbEntity
  8
0
  6
Continuous
 62
     7
100
AcDbLine
 10
-449.8881225585938
 20
455.6767272949218
 30
0.0
 11
-449.8881225585938
 21
424.6767272949218
 31
0.0
  0
LINE
  5
1F3
330
22
100
AcDbEntity
  8
0
  6
Continuous
 62
     7
100
AcDbLine
 10
-431.8881225585938
 20
455.6767272949218
 30
0.0
 11
-431.8881225585938
 21
424.6767272949218
 31
0.0
  0
LINE
  5
1F4
330
22
100
AcDbEntity
  8
0
  6
Continuous
 62
     7
100
AcDbLine
 10
-426.8881225585937
 20
455.6767272949218
 30
0.0
 11
-426.8881225585937
 21
424.6767272949218
 31
0.0
  0
LINE
  5
1F5
330
22
100
AcDbEntity
  8
0
  6
Continuous
 62
     7
100
AcDbLine
 10
-421.8881225585938
 20
476.6767272949218
 30
0.0
 11
-421.8881225585938
 21
445.6767272949218
 31
0.0
  0
LINE
  5
1F6
330
22
100
AcDbEntity
  8
0
  6
Continuous
 62
     7
100
AcDbLine
 10
-443.6493225097656
 20
503.3944091796874
 30
0.0
 11
-441.9693603515624
 21
501.1767272949218
 31
0.0
  0
LINE
  5
1F7
330
22
100
AcDbEntity
  8
0
  6
Continuous
 62
     7
100
AcDbLine
 10
-443.1058044433593
 20
503.9379272460938
 30
0.0
 11
-440.8881225585938
 21
502.2579956054688
 31
0.0
  0
LINE
  5
1F8
330
22
100
AcDbEntity
  8
0
  6
Continuous
 62
     7
100
AcDbLine
 10
-438.1119384765624
 20
503.4089965820313
 30
0.0
 11
-439.8068542480468
 21
501.1767272949218
 31
0.0
  0
LINE
  5
1F9
330
22
100
AcDbEntity
  8
0
  6
Continuous
 62
     7
100
AcDbLine
 10
-438.1119384765624
 20
503.4089965820313
 30
0.0
 11
-439.8068542480468
 21
501.1767272949218
 31
0.0
  0
LINE
  5
1FA
330
22
100
AcDbEntity
  8
0
  6
Continuous
 62
     7
100
AcDbLine
 10
-438.6704406738281
 20
498.4155578613281
 30
0.0
 11
-438.398681640625
 21
498.6873168945312
 31
0.0
  0
LINE
  5
1FB
330
22
100
AcDbEntity
  8
0
  6
Continuous
 62
     7
100
AcDbLine
 10
-443.1203613281249
 20
498.4005432128906
 30
0.0
 11
-440.8881225585938
 21
500.0954895019531
 31
0.0
  0
LINE
  5
1FC
330
22
100
AcDbEntity
  8
0
  6
Continuous
 62
     7
100
AcDbLine
 10
-438.6704406738281
 20
498.4155578613281
 30
0.0
 11
-440.8881225585938
 21
500.0954895019531
 31
0.0
  0
LINE
  5
1FD
330
22
100
AcDbEntity
  8
0
  6
Continuous
 62
     7
100
AcDbLine
 10
-443.6493225097656
 20
503.3944091796874
 30
0.0
 11
-441.9693603515624
 21
501.1767272949218
 31
0.0
  0
LINE
  5
1FE
330
22
100
AcDbEntity
  8
0
  6
Continuous
 62
     7
100
AcDbLine
 10
-494.8881225585938
 20
455.6767272949218
 30
0.0
 11
-494.8881225585938
 21
424.6767272949218
 31
0.0
  0
LINE
  5
1FF
330
22
100
AcDbEntity
  8
0
  6
Continuous
 62
     7
100
AcDbLine
 10
-474.8881225585938
 20
455.6767272949218
 30
0.0
 11
-474.8881225585938
 21
424.6767272949218
 31
0.0
  0
LINE
  5
200
330
22
100
AcDbEntity
  8
0
  6
Continuous
 62
     7
100
AcDbLine
 10
-469.8881225585938
 20
455.6767272949218
 30
0.0
 11
-469.8881225585938
 21
424.6767272949218
 31
0.0
  0
LINE
  5
201
330
22
100
AcDbEntity
  8
0
  6
Continuous
 62
     7
100
AcDbLine
 10
-514.8881225585938
 20
455.6767272949218
 30
0.0
 11
-514.8881225585938
 21
424.6767272949218
 31
0.0
  0
LINE
  5
202
330
22
100
AcDbEntity
  8
0
  6
Continuous
 62
     7
100
AcDbLine
 10
-509.8881225585937
 20
455.6767272949218
 30
0.0
 11
-509.8881225585937
 21
424.6767272949218
 31
0.0
  0
LINE
  5
203
330
22
100
AcDbEntity
  8
0
  6
Continuous
 62
     7
100
AcDbLine
 10
-499.8881225585938
 20
476.6767272949218
 30
0.0
 11
-499.8881225585938
 21
445.6767272949218
 31
0.0
  0
LINE
  5
204
330
22
100
AcDbEntity
  8
0
  6
Continuous
 62
     7
100
AcDbLine
 10
-504.8881225585938
 20
476.6767272949218
 30
0.0
 11
-504.8881225585938
 21
445.6767272949218
 31
0.0
  0
LINE
  5
205
330
22
100
AcDbEntity
  8
0
  6
Continuous
 62
     7
100
AcDbLine
 10
-519.8881225585938
 20
476.6767272949218
 30
0.0
 11
-519.8881225585938
 21
445.6767272949218
 31
0.0
  0
LINE
  5
206
330
22
100
AcDbEntity
  8
0
  6
Continuous
 62
     7
100
AcDbLine
 10
-479.8881225585938
 20
476.6767272949218
 30
0.0
 11
-479.8881225585938
 21
445.6767272949218
 31
0.0
  0
LINE
  5
207
330
22
100
AcDbEntity
  8
0
  6
Continuous
 62
     7
100
AcDbLine
 10
-484.8881225585937
 20
476.6767272949218
 30
0.0
 11
-484.8881225585937
 21
445.6767272949218
 31
0.0
  0
LINE
  5
208
330
22
100
AcDbEntity
  8
0
  6
Continuous
 62
     7
100
AcDbLine
 10
-489.8881225585937
 20
455.6767272949218
 30
0.0
 11
-489.8881225585937
 21
424.6767272949218
 31
0.0
  0
LINE
  5
209
330
22
100
AcDbEntity
  8
0
  6
Continuous
 62
     7
100
AcDbLine
 10
-454.8881225585938
 20
455.6767272949218
 30
0.0
 11
-454.8881225585938
 21
424.6767272949218
 31
0.0
  0
LINE
  5
20A
330
22
100
AcDbEntity
  8
0
  6
CENTER
 62
     7
100
AcDbLine
 10
-574.70849609375
 20
501.1767272949218
 30
0.0
 11
-562.5376586914064
 21
501.1767272949218
 31
0.0
  0
LINE
  5
20B
330
22
100
AcDbEntity
  8
0
  6
DASHED
 62
     7
100
AcDbLine
 10
-563.8881225585937
 20
501.1767272949218
 30
0.0
 11
-563.8881225585937
 21
502.6767272949219
 31
0.0
  0
LINE
  5
20C
330
22
100
AcDbEntity
  8
0
  6
Continuous
 62
     7
100
AcDbLine
 10
-406.8881225585938
 20
455.6767272949218
 30
0.0
 11
-406.8881225585938
 21
424.6767272949218
 31
0.0
  0
LINE
  5
20D
330
22
100
AcDbEntity
  8
0
  6
Continuous
 62
     7
100
AcDbLine
 10
-411.8881225585938
 20
455.6767272949218
 30
0.0
 11
-411.8881225585938
 21
424.6767272949218
 31
0.0
  0
LINE
  5
20E
330
22
100
AcDbEntity
  8
0
  6
Continuous
 62
     7
100
AcDbLine
 10
-416.8881225585938
 20
476.6767272949218
 30
0.0
 11
-416.8881225585938
 21
445.6767272949218
 31
0.0
  0
LINE
  5
20F
330
22
100
AcDbEntity
  8
0
  6
Continuous
 62
     7
100
AcDbLine
 10
-464.8881225585937
 20
476.6767272949218
 30
0.0
 11
-464.8881225585937
 21
445.6767272949218
 31
0.0
  0
LINE
  5
210
330
22
100
AcDbEntity
  8
0
  6
Continuous
 62
     7
100
AcDbLine
 10
-566.6558837890625
 20
503.9784545898438
 30
0.0
 11
-568.8881225585937
 21
502.2835083007812
 31
0.0
  0
LINE
  5
211
330
22
100
AcDbEntity
  8
0
  6
Continuous
 62
     7
100
AcDbLine
 10
-566.1268920898437
 20
498.9845886230468
 30
0.0
 11
-567.8068847656249
 21
501.2022705078124
 31
0.0
  0
LINE
  5
212
330
22
100
AcDbEntity
  8
0
  6
Continuous
 62
     7
100
AcDbLine
 10
-566.1268920898437
 20
498.9845886230468
 30
0.0
 11
-566.3986816406249
 21
498.7128295898438
 31
0.0
  0
LINE
  5
213
330
22
100
AcDbEntity
  8
0
  6
Continuous
 62
     7
100
AcDbLine
 10
-566.6704101562499
 20
498.4410705566406
 30
0.0
 11
-566.3986816406249
 21
498.7128295898438
 31
0.0
  0
LINE
  5
214
330
22
100
AcDbEntity
  8
0
  6
Continuous
 62
     7
100
AcDbLine
 10
-571.3923339843749
 20
498.6980285644531
 30
0.0
 11
-571.120361328125
 21
498.4260864257812
 31
0.0
  0
LINE
  5
215
330
22
100
AcDbEntity
  8
0
  6
Continuous
 62
     7
100
AcDbLine
 10
-571.3923339843749
 20
498.6980285644531
 30
0.0
 11
-571.6643066406249
 21
498.970001220703
 31
0.0
  0
LINE
  5
216
330
22
100
AcDbEntity
  8
0
  6
Continuous
 62
     7
100
AcDbLine
 10
-571.3923339843749
 20
498.6980285644531
 30
0.0
 11
-571.6643066406249
 21
498.970001220703
 31
0.0
  0
LINE
  5
217
330
22
100
AcDbEntity
  8
0
  6
Continuous
 62
     7
100
AcDbLine
 10
-571.6492919921875
 20
503.4199523925781
 30
0.0
 11
-569.9693603515624
 21
501.2022705078124
 31
0.0
  0
LINE
  5
218
330
22
100
AcDbEntity
  8
0
  6
Continuous
 62
     7
100
AcDbLine
 10
-566.6704101562499
 20
498.4410705566406
 30
0.0
 11
-568.8881225585937
 21
500.1210021972656
 31
0.0
  0
LINE
  5
219
330
22
100
AcDbEntity
  8
0
  6
Continuous
 62
     7
100
AcDbLine
 10
-571.120361328125
 20
498.4260864257812
 30
0.0
 11
-568.8881225585937
 21
500.1210021972656
 31
0.0
  0
LINE
  5
21A
330
22
100
AcDbEntity
  8
0
  6
Continuous
 62
     7
100
AcDbLine
 10
-566.6704101562499
 20
498.4410705566406
 30
0.0
 11
-566.3986816406249
 21
498.7128295898438
 31
0.0
  0
LINE
  5
21B
330
22
100
AcDbEntity
  8
0
  6
Continuous
 62
     7
100
AcDbLine
 10
-566.1119384765624
 20
503.4345397949218
 30
0.0
 11
-567.8068847656249
 21
501.2022705078124
 31
0.0
  0
LINE
  5
21C
330
22
100
AcDbEntity
  8
0
  6
Continuous
 62
     7
100
AcDbLine
 10
-566.3839111328124
 20
503.7064819335937
 30
0.0
 11
-566.1119384765624
 21
503.4345397949218
 31
0.0
  0
LINE
  5
21D
330
22
100
AcDbEntity
  8
0
  6
Continuous
 62
     7
100
AcDbLine
 10
-566.1119384765624
 20
503.4345397949218
 30
0.0
 11
-567.8068847656249
 21
501.2022705078124
 31
0.0
  0
LINE
  5
21E
330
22
100
AcDbEntity
  8
0
  6
DASHED
 62
     7
100
AcDbLine
 10
-568.8881225585937
 20
496.1767272949218
 30
0.0
 11
-570.3881225585937
 21
496.1767272949218
 31
0.0
  0
LINE
  5
21F
330
22
100
AcDbEntity
  8
0
  6
CENTER
 62
     7
100
AcDbLine
 10
-568.8881225585937
 20
506.8908081054687
 30
0.0
 11
-568.8881225585937
 21
495.5137329101563
 31
0.0
  0
LINE
  5
220
330
22
100
AcDbEntity
  8
0
  6
Continuous
 62
     7
100
AcDbLine
 10
-571.1057739257812
 20
503.9634704589843
 30
0.0
 11
-571.3775634765625
 21
503.6917114257812
 31
0.0
  0
LINE
  5
221
330
22
100
AcDbEntity
  8
0
  6
Continuous
 62
     7
100
AcDbLine
 10
-544.8881225585938
 20
476.6767272949218
 30
0.0
 11
-544.8881225585938
 21
445.6767272949218
 31
0.0
  0
LINE
  5
222
330
22
100
AcDbEntity
  8
0
  6
Continuous
 62
     7
100
AcDbLine
 10
-539.8881225585938
 20
476.6767272949218
 30
0.0
 11
-539.8881225585938
 21
445.6767272949218
 31
0.0
  0
LINE
  5
223
330
22
100
AcDbEntity
  8
0
  6
Continuous
 62
     7
100
AcDbLine
 10
-559.8881225585938
 20
476.6767272949218
 30
0.0
 11
-559.8881225585938
 21
445.6767272949218
 31
0.0
  0
LINE
  5
224
330
22
100
AcDbEntity
  8
0
  6
Continuous
 62
     7
100
AcDbLine
 10
-571.3923339843749
 20
498.6980285644531
 30
0.0
 11
-571.120361328125
 21
498.4260864257812
 31
0.0
  0
LINE
  5
225
330
22
100
AcDbEntity
  8
0
  6
Continuous
 62
     7
100
AcDbLine
 10
-571.6643066406249
 20
498.970001220703
 30
0.0
 11
-569.9693603515624
 21
501.2022705078124
 31
0.0
  0
LINE
  5
226
330
22
100
AcDbEntity
  8
0
  6
Continuous
 62
     7
100
AcDbLine
 10
-566.3839111328124
 20
503.7064819335937
 30
0.0
 11
-566.6558837890625
 21
503.9784545898438
 31
0.0
  0
LINE
  5
227
330
22
100
AcDbEntity
  8
0
  6
Continuous
 62
     7
100
AcDbLine
 10
-571.1057739257812
 20
503.9634704589843
 30
0.0
 11
-568.8881225585937
 21
502.2835083007812
 31
0.0
  0
LINE
  5
228
330
22
100
AcDbEntity
  8
0
  6
Continuous
 62
     7
100
AcDbLine
 10
-571.6492919921875
 20
503.4199523925781
 30
0.0
 11
-569.9693603515624
 21
501.2022705078124
 31
0.0
  0
LINE
  5
229
330
22
100
AcDbEntity
  8
0
  6
Continuous
 62
     7
100
AcDbLine
 10
-571.6492919921875
 20
503.4199523925781
 30
0.0
 11
-571.3775634765625
 21
503.6917114257812
 31
0.0
  0
LINE
  5
22A
330
22
100
AcDbEntity
  8
0
  6
Continuous
 62
     7
100
AcDbLine
 10
-571.1057739257812
 20
503.9634704589843
 30
0.0
 11
-571.3775634765625
 21
503.6917114257812
 31
0.0
  0
LINE
  5
22B
330
22
100
AcDbEntity
  8
0
  6
Continuous
 62
     7
100
AcDbLine
 10
-571.6492919921875
 20
503.4199523925781
 30
0.0
 11
-571.3775634765625
 21
503.6917114257812
 31
0.0
  0
LINE
  5
22C
330
22
100
AcDbEntity
  8
0
  6
Continuous
 62
     7
100
AcDbLine
 10
-566.6704101562499
 20
498.4410705566406
 30
0.0
 11
-568.8881225585937
 21
500.1210021972656
 31
0.0
  0
LINE
  5
22D
330
22
100
AcDbEntity
  8
0
  6
Continuous
 62
     7
100
AcDbLine
 10
-566.1268920898437
 20
498.9845886230468
 30
0.0
 11
-567.8068847656249
 21
501.2022705078124
 31
0.0
  0
LINE
  5
22E
330
22
100
AcDbEntity
  8
0
  6
Continuous
 62
     7
100
AcDbLine
 10
-566.3839111328124
 20
503.7064819335937
 30
0.0
 11
-566.1119384765624
 21
503.4345397949218
 31
0.0
  0
LINE
  5
22F
330
22
100
AcDbEntity
  8
0
  6
Continuous
 62
     7
100
AcDbLine
 10
-566.6558837890625
 20
503.9784545898438
 30
0.0
 11
-568.8881225585937
 21
502.2835083007812
 31
0.0
  0
LINE
  5
230
330
22
100
AcDbEntity
  8
0
  6
Continuous
 62
     7
100
AcDbLine
 10
-571.120361328125
 20
498.4260864257812
 30
0.0
 11
-568.8881225585937
 21
500.1210021972656
 31
0.0
  0
LINE
  5
231
330
22
100
AcDbEntity
  8
0
  6
Continuous
 62
     7
100
AcDbLine
 10
-571.6643066406249
 20
498.970001220703
 30
0.0
 11
-569.9693603515624
 21
501.2022705078124
 31
0.0
  0
LINE
  5
232
330
22
100
AcDbEntity
  8
0
  6
Continuous
 62
     7
100
AcDbLine
 10
-566.1268920898437
 20
498.9845886230468
 30
0.0
 11
-566.3986816406249
 21
498.7128295898438
 31
0.0
  0
LINE
  5
233
330
22
100
AcDbEntity
  8
0
  6
Continuous
 62
     7
100
AcDbLine
 10
-571.1057739257812
 20
503.9634704589843
 30
0.0
 11
-568.8881225585937
 21
502.2835083007812
 31
0.0
  0
LINE
  5
234
330
22
100
AcDbEntity
  8
0
  6
Continuous
 62
     7
100
AcDbLine
 10
-566.3839111328124
 20
503.7064819335937
 30
0.0
 11
-566.6558837890625
 21
503.9784545898438
 31
0.0
  0
LINE
  5
235
330
22
100
AcDbEntity
  8
0
  6
Continuous
 62
     7
100
AcDbLine
 10
-426.8881225585937
 20
332.6767272949219
 30
0.0
 11
-426.8881225585937
 21
363.6767272949219
 31
0.0
  0
LINE
  5
236
330
22
100
AcDbEntity
  8
0
  6
Continuous
 62
     7
100
AcDbLine
 10
-431.8881225585938
 20
332.6767272949219
 30
0.0
 11
-431.8881225585938
 21
363.6767272949219
 31
0.0
  0
LINE
  5
237
330
22
100
AcDbEntity
  8
0
  6
Continuous
 62
     7
100
AcDbLine
 10
-421.8881225585938
 20
353.6767272949219
 30
0.0
 11
-421.8881225585938
 21
363.6767272949219
 31
0.0
  0
LINE
  5
238
330
22
100
AcDbEntity
  8
0
  6
Continuous
 62
     7
100
AcDbLine
 10
-529.8881225585938
 20
455.6767272949218
 30
0.0
 11
-529.8881225585938
 21
424.6767272949218
 31
0.0
  0
LINE
  5
239
330
22
100
AcDbEntity
  8
0
  6
Continuous
 62
     7
100
AcDbLine
 10
-534.8881225585938
 20
455.6767272949218
 30
0.0
 11
-534.8881225585938
 21
424.6767272949218
 31
0.0
  0
LINE
  5
23A
330
22
100
AcDbEntity
  8
0
  6
Continuous
 62
     7
100
AcDbLine
 10
-549.8881225585939
 20
455.6767272949218
 30
0.0
 11
-549.8881225585939
 21
424.6767272949218
 31
0.0
  0
LINE
  5
23B
330
22
100
AcDbEntity
  8
0
  6
Continuous
 62
     7
100
AcDbLine
 10
-564.8881225585937
 20
476.6767272949218
 30
0.0
 11
-564.8881225585937
 21
445.6767272949218
 31
0.0
  0
LINE
  5
23C
330
22
100
AcDbEntity
  8
0
  6
Continuous
 62
     7
100
AcDbLine
 10
-554.8881225585938
 20
455.6767272949218
 30
0.0
 11
-554.8881225585938
 21
424.6767272949218
 31
0.0
  0
LINE
  5
23D
330
22
100
AcDbEntity
  8
0
  6
Continuous
 62
     7
100
AcDbLine
 10
-514.8881225585938
 20
332.6767272949219
 30
0.0
 11
-514.8881225585938
 21
363.6767272949219
 31
0.0
  0
LINE
  5
23E
330
22
100
AcDbEntity
  8
0
  6
Continuous
 62
     7
100
AcDbLine
 10
-509.8881225585937
 20
332.6767272949219
 30
0.0
 11
-509.8881225585937
 21
363.6767272949219
 31
0.0
  0
LINE
  5
23F
330
22
100
AcDbEntity
  8
0
  6
Continuous
 62
     7
100
AcDbLine
 10
-494.8881225585938
 20
332.6767272949219
 30
0.0
 11
-494.8881225585938
 21
363.6767272949219
 31
0.0
  0
LINE
  5
240
330
22
100
AcDbEntity
  8
0
  6
Continuous
 62
     7
100
AcDbLine
 10
-499.8881225585938
 20
354.0015869140625
 30
0.0
 11
-499.8881225585938
 21
363.6767272949219
 31
0.0
  0
LINE
  5
241
330
22
100
AcDbEntity
  8
0
  6
Continuous
 62
     7
100
AcDbLine
 10
-504.8881225585938
 20
354.0015869140625
 30
0.0
 11
-504.8881225585938
 21
363.6767272949219
 31
0.0
  0
LINE
  5
242
330
22
100
AcDbEntity
  8
0
  6
Continuous
 62
     7
100
AcDbLine
 10
-469.8881225585938
 20
332.6767272949219
 30
0.0
 11
-469.8881225585938
 21
363.6767272949219
 31
0.0
  0
LINE
  5
243
330
22
100
AcDbEntity
  8
0
  6
Continuous
 62
     7
100
AcDbLine
 10
-474.8881225585938
 20
332.6767272949219
 30
0.0
 11
-474.8881225585938
 21
363.6767272949219
 31
0.0
  0
LINE
  5
244
330
22
100
AcDbEntity
  8
0
  6
Continuous
 62
     7
100
AcDbLine
 10
-484.8881225585937
 20
354.0015869140625
 30
0.0
 11
-484.8881225585937
 21
363.6767272949219
 31
0.0
  0
LINE
  5
245
330
22
100
AcDbEntity
  8
0
  6
Continuous
 62
     7
100
AcDbLine
 10
-519.8881225585938
 20
354.0015869140625
 30
0.0
 11
-519.8881225585938
 21
363.6767272949219
 31
0.0
  0
LINE
  5
246
330
22
100
AcDbEntity
  8
0
  6
Continuous
 62
     7
100
AcDbLine
 10
-459.8881225585937
 20
354.0015869140625
 30
0.0
 11
-459.8881225585937
 21
363.6767272949219
 31
0.0
  0
LINE
  5
247
330
22
100
AcDbEntity
  8
0
  6
Continuous
 62
     7
100
AcDbLine
 10
-454.8881225585938
 20
332.6767272949219
 30
0.0
 11
-454.8881225585938
 21
363.6767272949219
 31
0.0
  0
LINE
  5
248
330
22
100
AcDbEntity
  8
0
  6
Continuous
 62
     7
100
AcDbLine
 10
-449.8881225585938
 20
332.6767272949219
 30
0.0
 11
-449.8881225585938
 21
363.6767272949219
 31
0.0
  0
LINE
  5
249
330
22
100
AcDbEntity
  8
0
  6
Continuous
 62
     7
100
AcDbLine
 10
-484.8881225585937
 20
392.3518676757813
 30
0.0
 11
-484.8881225585937
 21
382.6767272949219
 31
0.0
  0
LINE
  5
24A
330
22
100
AcDbEntity
  8
0
  6
Continuous
 62
     7
100
AcDbLine
 10
-499.8881225585938
 20
392.3518676757813
 30
0.0
 11
-499.8881225585938
 21
382.6767272949219
 31
0.0
  0
LINE
  5
24B
330
22
100
AcDbEntity
  8
0
  6
Continuous
 62
     7
100
AcDbLine
 10
-519.8881225585938
 20
392.3518676757813
 30
0.0
 11
-519.8881225585938
 21
382.6767272949219
 31
0.0
  0
LINE
  5
24C
330
22
100
AcDbEntity
  8
0
  6
Continuous
 62
     7
100
AcDbLine
 10
-504.8881225585938
 20
392.3518676757813
 30
0.0
 11
-504.8881225585938
 21
382.6767272949219
 31
0.0
  0
LINE
  5
24D
330
22
100
AcDbEntity
  8
0
  6
Continuous
 62
     7
100
AcDbLine
 10
-479.8881225585938
 20
392.3518676757813
 30
0.0
 11
-479.8881225585938
 21
382.6767272949219
 31
0.0
  0
LINE
  5
24E
330
22
100
AcDbEntity
  8
0
  6
Continuous
 62
     7
100
AcDbLine
 10
-421.8881225585938
 20
392.3518676757813
 30
0.0
 11
-421.8881225585938
 21
382.6767272949219
 31
0.0
  0
LINE
  5
24F
330
22
100
AcDbEntity
  8
0
  6
Continuous
 62
     7
100
AcDbLine
 10
-459.8881225585937
 20
392.3518676757813
 30
0.0
 11
-459.8881225585937
 21
382.6767272949219
 31
0.0
  0
LINE
  5
250
330
22
100
AcDbEntity
  8
0
  6
Continuous
 62
     7
100
AcDbLine
 10
-464.8881225585937
 20
354.0015869140625
 30
0.0
 11
-464.8881225585937
 21
363.6767272949219
 31
0.0
  0
LINE
  5
251
330
22
100
AcDbEntity
  8
0
  6
Continuous
 62
     7
100
AcDbLine
 10
-489.8881225585937
 20
332.6767272949219
 30
0.0
 11
-489.8881225585937
 21
363.6767272949219
 31
0.0
  0
LINE
  5
252
330
22
100
AcDbEntity
  8
0
  6
Continuous
 62
     7
100
AcDbLine
 10
-479.8881225585938
 20
354.0015869140625
 30
0.0
 11
-479.8881225585938
 21
363.6767272949219
 31
0.0
  0
LINE
  5
253
330
22
100
AcDbEntity
  8
0
  6
Continuous
 62
     7
100
AcDbLine
 10
-426.8881225585937
 20
248.6767425537109
 30
0.0
 11
-426.8881225585937
 21
279.6767272949219
 31
0.0
  0
LINE
  5
254
330
22
100
AcDbEntity
  8
0
  6
Continuous
 62
     7
100
AcDbLine
 10
-431.8881225585938
 20
248.6767425537109
 30
0.0
 11
-431.8881225585938
 21
279.6767272949219
 31
0.0
  0
LINE
  5
255
330
22
100
AcDbEntity
  8
0
  6
Continuous
 62
     7
100
AcDbLine
 10
-438.3838806152343
 20
247.6809692382814
 30
0.0
 11
-438.1119384765624
 21
247.4089965820313
 31
0.0
  0
LINE
  5
256
330
22
100
AcDbEntity
  8
0
  6
Continuous
 62
     7
100
AcDbLine
 10
-438.1269226074218
 20
242.9590606689453
 30
0.0
 11
-438.398681640625
 21
242.6873016357422
 31
0.0
  0
LINE
  5
257
330
22
100
AcDbEntity
  8
0
  6
Continuous
 62
     7
100
AcDbLine
 10
-438.1269226074218
 20
242.9590606689453
 30
0.0
 11
-438.398681640625
 21
242.6873016357422
 31
0.0
  0
LINE
  5
258
330
22
100
AcDbEntity
  8
0
  6
DASHED
 62
     7
100
AcDbLine
 10
-435.8881225585938
 20
245.1767425537109
 30
0.0
 11
-435.8881225585938
 21
243.6767425537109
 31
0.0
  0
LINE
  5
259
330
22
100
AcDbEntity
  8
0
  6
Continuous
 62
     7
100
AcDbLine
 10
-416.8881225585938
 20
392.3518676757813
 30
0.0
 11
-416.8881225585938
 21
382.6767272949219
 31
0.0
  0
LINE
  5
25A
330
22
100
AcDbEntity
  8
0
  6
Continuous
 62
     7
100
AcDbLine
 10
-416.8881225585938
 20
353.6767272949219
 30
0.0
 11
-416.8881225585938
 21
363.6767272949219
 31
0.0
  0
LINE
  5
25B
330
22
100
AcDbEntity
  8
0
  6
Continuous
 62
     7
100
AcDbLine
 10
-411.8881225585938
 20
332.6767272949219
 30
0.0
 11
-411.8881225585938
 21
363.6767272949219
 31
0.0
  0
LINE
  5
25C
330
22
100
AcDbEntity
  8
0
  6
Continuous
 62
     7
100
AcDbLine
 10
-406.8881225585938
 20
332.6767272949219
 30
0.0
 11
-406.8881225585938
 21
363.6767272949219
 31
0.0
  0
LINE
  5
25D
330
22
100
AcDbEntity
  8
0
  6
Continuous
 62
     7
100
AcDbLine
 10
-464.8881225585937
 20
392.3518676757813
 30
0.0
 11
-464.8881225585937
 21
382.6767272949219
 31
0.0
  0
LINE
  5
25E
330
22
100
AcDbEntity
  8
0
  6
Continuous
 62
     7
100
AcDbLine
 10
-443.664306640625
 20
242.9444732666016
 30
0.0
 11
-441.9693603515624
 21
245.1767425537109
 31
0.0
  0
LINE
  5
25F
330
22
100
AcDbEntity
  8
0
  6
Continuous
 62
     7
100
AcDbLine
 10
-443.6493225097656
 20
247.3944091796875
 30
0.0
 11
-441.9693603515624
 21
245.1767425537109
 31
0.0
  0
LINE
  5
260
330
22
100
AcDbEntity
  8
0
  6
Continuous
 62
     7
100
AcDbLine
 10
-438.6704406738281
 20
242.4155426025391
 30
0.0
 11
-440.8881225585938
 21
244.0954895019531
 31
0.0
  0
LINE
  5
261
330
22
100
AcDbEntity
  8
0
  6
Continuous
 62
     7
100
AcDbLine
 10
-443.1203613281249
 20
242.4005432128906
 30
0.0
 11
-440.8881225585938
 21
244.0954895019531
 31
0.0
  0
LINE
  5
262
330
22
100
AcDbEntity
  8
0
  6
Continuous
 62
     7
100
AcDbLine
 10
-438.6704406738281
 20
242.4155426025391
 30
0.0
 11
-438.398681640625
 21
242.6873016357422
 31
0.0
  0
LINE
  5
263
330
22
100
AcDbEntity
  8
0
  6
Continuous
 62
     7
100
AcDbLine
 10
-438.1119384765624
 20
247.4089965820313
 30
0.0
 11
-439.8068542480468
 21
245.1767425537109
 31
0.0
  0
LINE
  5
264
330
22
100
AcDbEntity
  8
0
  6
Continuous
 62
     7
100
AcDbLine
 10
-459.8881225585937
 20
248.6767425537109
 30
0.0
 11
-459.8881225585937
 21
258.6767272949219
 31
0.0
  0
LINE
  5
265
330
22
100
AcDbEntity
  8
0
  6
Continuous
 62
     7
100
AcDbLine
 10
-459.8881225585937
 20
269.676727294922
 30
0.0
 11
-459.8881225585937
 21
300.6767272949219
 31
0.0
  0
LINE
  5
266
330
22
100
AcDbEntity
  8
0
  6
Continuous
 62
     7
100
AcDbLine
 10
-454.8881225585938
 20
248.6767425537109
 30
0.0
 11
-454.8881225585938
 21
279.6767272949219
 31
0.0
  0
LINE
  5
267
330
22
100
AcDbEntity
  8
0
  6
CENTER
 62
     7
100
AcDbLine
 10
-446.70849609375
 20
245.1767425537109
 30
0.0
 11
-434.5376586914063
 21
245.1767425537109
 31
0.0
  0
LINE
  5
268
330
22
100
AcDbEntity
  8
0
  6
Continuous
 62
     7
100
AcDbLine
 10
-449.8881225585938
 20
248.6767425537109
 30
0.0
 11
-449.8881225585938
 21
279.6767272949219
 31
0.0
  0
LINE
  5
269
330
22
100
AcDbEntity
  8
0
  6
DASHED
 62
     7
100
AcDbLine
 10
-445.8881225585938
 20
245.1767425537109
 30
0.0
 11
-445.8881225585938
 21
243.6767425537109
 31
0.0
  0
LINE
  5
26A
330
22
100
AcDbEntity
  8
0
  6
Continuous
 62
     7
100
AcDbLine
 10
-443.1058044433593
 20
247.9379425048828
 30
0.0
 11
-440.8881225585938
 21
246.2579803466797
 31
0.0
  0
LINE
  5
26B
330
22
100
AcDbEntity
  8
0
  6
Continuous
 62
     7
100
AcDbLine
 10
-443.6493225097656
 20
247.3944091796875
 30
0.0
 11
-441.9693603515624
 21
245.1767425537109
 31
0.0
  0
LINE
  5
26C
330
22
100
AcDbEntity
  8
0
  6
Continuous
 62
     7
100
AcDbLine
 10
-438.3838806152343
 20
247.6809692382814
 30
0.0
 11
-438.6558532714843
 21
247.9529266357422
 31
0.0
  0
LINE
  5
26D
330
22
100
AcDbEntity
  8
0
  6
Continuous
 62
     7
100
AcDbLine
 10
-438.3838806152343
 20
247.6809692382814
 30
0.0
 11
-438.1119384765624
 21
247.4089965820313
 31
0.0
  0
LINE
  5
26E
330
22
100
AcDbEntity
  8
0
  6
Continuous
 62
     7
100
AcDbLine
 10
-438.3838806152343
 20
247.6809692382814
 30
0.0
 11
-438.6558532714843
 21
247.9529266357422
 31
0.0
  0
LINE
  5
26F
330
22
100
AcDbEntity
  8
0
  6
Continuous
 62
     7
100
AcDbLine
 10
-421.8881225585938
 20
269.676727294922
 30
0.0
 11
-421.8881225585938
 21
300.6767272949219
 31
0.0
  0
LINE
  5
270
330
22
100
AcDbEntity
  8
0
  6
Continuous
 62
     7
100
AcDbLine
 10
-421.8881225585938
 20
248.6767425537109
 30
0.0
 11
-421.8881225585938
 21
258.6767272949219
 31
0.0
  0
LINE
  5
271
330
22
100
AcDbEntity
  8
0
  6
Continuous
 62
     7
100
AcDbLine
 10
-494.8881225585938
 20
248.6767425537109
 30
0.0
 11
-494.8881225585938
 21
279.6767272949219
 31
0.0
  0
LINE
  5
272
330
22
100
AcDbEntity
  8
0
  6
Continuous
 62
     7
100
AcDbLine
 10
-519.8881225585938
 20
269.676727294922
 30
0.0
 11
-519.8881225585938
 21
300.6767272949219
 31
0.0
  0
LINE
  5
273
330
22
100
AcDbEntity
  8
0
  6
Continuous
 62
     7
100
AcDbLine
 10
-519.8881225585938
 20
248.6767425537109
 30
0.0
 11
-519.8881225585938
 21
258.6767272949219
 31
0.0
  0
LINE
  5
274
330
22
100
AcDbEntity
  8
0
  6
Continuous
 62
     7
100
AcDbLine
 10
-469.8881225585938
 20
248.6767425537109
 30
0.0
 11
-469.8881225585938
 21
279.6767272949219
 31
0.0
  0
LINE
  5
275
330
22
100
AcDbEntity
  8
0
  6
Continuous
 62
     7
100
AcDbLine
 10
-438.1119384765624
 20
247.4089965820313
 30
0.0
 11
-439.8068542480468
 21
245.1767425537109
 31
0.0
  0
LINE
  5
276
330
22
100
AcDbEntity
  8
0
  6
Continuous
 62
     7
100
AcDbLine
 10
-443.6493225097656
 20
247.3944091796875
 30
0.0
 11
-443.3775634765624
 21
247.6661682128906
 31
0.0
  0
LINE
  5
277
330
22
100
AcDbEntity
  8
0
  6
Continuous
 62
     7
100
AcDbLine
 10
-443.1058044433593
 20
247.9379425048828
 30
0.0
 11
-443.3775634765624
 21
247.6661682128906
 31
0.0
  0
LINE
  5
278
330
22
100
AcDbEntity
  8
0
  6
Continuous
 62
     7
100
AcDbLine
 10
-443.6493225097656
 20
247.3944091796875
 30
0.0
 11
-443.3775634765624
 21
247.6661682128906
 31
0.0
  0
LINE
  5
279
330
22
100
AcDbEntity
  8
0
  6
Continuous
 62
     7
100
AcDbLine
 10
-438.6704406738281
 20
242.4155426025391
 30
0.0
 11
-440.8881225585938
 21
244.0954895019531
 31
0.0
  0
LINE
  5
27A
330
22
100
AcDbEntity
  8
0
  6
Continuous
 62
     7
100
AcDbLine
 10
-438.1269226074218
 20
242.9590606689453
 30
0.0
 11
-439.8068542480468
 21
245.1767425537109
 31
0.0
  0
LINE
  5
27B
330
22
100
AcDbEntity
  8
0
  6
Continuous
 62
     7
100
AcDbLine
 10
-438.6558532714843
 20
247.9529266357422
 30
0.0
 11
-440.8881225585938
 21
246.2579803466797
 31
0.0
  0
LINE
  5
27C
330
22
100
AcDbEntity
  8
0
  6
Continuous
 62
     7
100
AcDbLine
 10
-443.1203613281249
 20
242.4005432128906
 30
0.0
 11
-440.8881225585938
 21
244.0954895019531
 31
0.0
  0
LINE
  5
27D
330
22
100
AcDbEntity
  8
0
  6
Continuous
 62
     7
100
AcDbLine
 10
-443.1058044433593
 20
247.9379425048828
 30
0.0
 11
-443.3775634765624
 21
247.6661682128906
 31
0.0
  0
LINE
  5
27E
330
22
100
AcDbEntity
  8
0
  6
Continuous
 62
     7
100
AcDbLine
 10
-443.664306640625
 20
242.9444732666016
 30
0.0
 11
-441.9693603515624
 21
245.1767425537109
 31
0.0
  0
LINE
  5
27F
330
22
100
AcDbEntity
  8
0
  6
Continuous
 62
     7
100
AcDbLine
 10
-438.6558532714843
 20
247.9529266357422
 30
0.0
 11
-440.8881225585938
 21
246.2579803466797
 31
0.0
  0
LINE
  5
280
330
22
100
AcDbEntity
  8
0
  6
Continuous
 62
     7
100
AcDbLine
 10
-438.1269226074218
 20
242.9590606689453
 30
0.0
 11
-439.8068542480468
 21
245.1767425537109
 31
0.0
  0
LINE
  5
281
330
22
100
AcDbEntity
  8
0
  6
Continuous
 62
     7
100
AcDbLine
 10
-438.6704406738281
 20
242.4155426025391
 30
0.0
 11
-438.398681640625
 21
242.6873016357422
 31
0.0
  0
LINE
  5
282
330
22
100
AcDbEntity
  8
0
  6
Continuous
 62
     7
100
AcDbLine
 10
-443.392333984375
 20
242.6725158691406
 30
0.0
 11
-443.1203613281249
 21
242.4005432128906
 31
0.0
  0
LINE
  5
283
330
22
100
AcDbEntity
  8
0
  6
Continuous
 62
     7
100
AcDbLine
 10
-443.392333984375
 20
242.6725158691406
 30
0.0
 11
-443.664306640625
 21
242.9444732666016
 31
0.0
  0
LINE
  5
284
330
22
100
AcDbEntity
  8
0
  6
Continuous
 62
     7
100
AcDbLine
 10
-443.392333984375
 20
242.6725158691406
 30
0.0
 11
-443.664306640625
 21
242.9444732666016
 31
0.0
  0
LINE
  5
285
330
22
100
AcDbEntity
  8
0
  6
Continuous
 62
     7
100
AcDbLine
 10
-443.1058044433593
 20
247.9379425048828
 30
0.0
 11
-440.8881225585938
 21
246.2579803466797
 31
0.0
  0
LINE
  5
286
330
22
100
AcDbEntity
  8
0
  6
Continuous
 62
     7
100
AcDbLine
 10
-443.392333984375
 20
242.6725158691406
 30
0.0
 11
-443.1203613281249
 21
242.4005432128906
 31
0.0
  0
LINE
  5
287
330
22
100
AcDbEntity
  8
0
  6
Continuous
 62
     7
100
AcDbLine
 10
-479.8881225585938
 20
269.676727294922
 30
0.0
 11
-479.8881225585938
 21
300.6767272949219
 31
0.0
  0
LINE
  5
288
330
22
100
AcDbEntity
  8
0
  6
Continuous
 62
     7
100
AcDbLine
 10
-499.8881225585938
 20
248.6767425537109
 30
0.0
 11
-499.8881225585938
 21
258.6767272949219
 31
0.0
  0
LINE
  5
289
330
22
100
AcDbEntity
  8
0
  6
Continuous
 62
     7
100
AcDbLine
 10
-474.8881225585938
 20
248.6767425537109
 30
0.0
 11
-474.8881225585938
 21
279.6767272949219
 31
0.0
  0
LINE
  5
28A
330
22
100
AcDbEntity
  8
0
  6
Continuous
 62
     7
100
AcDbLine
 10
-499.8881225585938
 20
269.676727294922
 30
0.0
 11
-499.8881225585938
 21
300.6767272949219
 31
0.0
  0
LINE
  5
28B
330
22
100
AcDbEntity
  8
0
  6
Continuous
 62
     7
100
AcDbLine
 10
-489.8881225585937
 20
248.6767425537109
 30
0.0
 11
-489.8881225585937
 21
279.6767272949219
 31
0.0
  0
LINE
  5
28C
330
22
100
AcDbEntity
  8
0
  6
Continuous
 62
     7
100
AcDbLine
 10
-504.8881225585938
 20
248.6767425537109
 30
0.0
 11
-504.8881225585938
 21
258.6767272949219
 31
0.0
  0
LINE
  5
28D
330
22
100
AcDbEntity
  8
0
  6
Continuous
 62
     7
100
AcDbLine
 10
-514.8881225585938
 20
248.6767425537109
 30
0.0
 11
-514.8881225585938
 21
279.6767272949219
 31
0.0
  0
LINE
  5
28E
330
22
100
AcDbEntity
  8
0
  6
Continuous
 62
     7
100
AcDbLine
 10
-509.8881225585937
 20
248.6767425537109
 30
0.0
 11
-509.8881225585937
 21
279.6767272949219
 31
0.0
  0
LINE
  5
28F
330
22
100
AcDbEntity
  8
0
  6
Continuous
 62
     7
100
AcDbLine
 10
-484.8881225585937
 20
248.6767425537109
 30
0.0
 11
-484.8881225585937
 21
258.6767272949219
 31
0.0
  0
LINE
  5
290
330
22
100
AcDbEntity
  8
0
  6
Continuous
 62
     7
100
AcDbLine
 10
-504.8881225585938
 20
269.676727294922
 30
0.0
 11
-504.8881225585938
 21
300.6767272949219
 31
0.0
  0
LINE
  5
291
330
22
100
AcDbEntity
  8
0
  6
Continuous
 62
     7
100
AcDbLine
 10
-416.8881225585938
 20
269.676727294922
 30
0.0
 11
-416.8881225585938
 21
300.6767272949219
 31
0.0
  0
LINE
  5
292
330
22
100
AcDbEntity
  8
0
  6
Continuous
 62
     7
100
AcDbLine
 10
-416.8881225585938
 20
248.6767425537109
 30
0.0
 11
-416.8881225585938
 21
258.6767272949219
 31
0.0
  0
LINE
  5
293
330
22
100
AcDbEntity
  8
0
  6
Continuous
 62
     7
100
AcDbLine
 10
-411.8881225585938
 20
248.6767425537109
 30
0.0
 11
-411.8881225585938
 21
279.6767272949219
 31
0.0
  0
LINE
  5
294
330
22
100
AcDbEntity
  8
0
  6
Continuous
 62
     7
100
AcDbLine
 10
-406.8881225585938
 20
248.6767425537109
 30
0.0
 11
-406.8881225585938
 21
279.6767272949219
 31
0.0
  0
LINE
  5
295
330
22
100
AcDbEntity
  8
0
  6
Continuous
 62
     7
100
AcDbLine
 10
-464.8881225585937
 20
269.676727294922
 30
0.0
 11
-464.8881225585937
 21
300.6767272949219
 31
0.0
  0
LINE
  5
296
330
22
100
AcDbEntity
  8
0
  6
Continuous
 62
     7
100
AcDbLine
 10
-464.8881225585937
 20
248.6767425537109
 30
0.0
 11
-464.8881225585937
 21
258.6767272949219
 31
0.0
  0
LINE
  5
297
330
22
100
AcDbEntity
  8
0
  6
Continuous
 62
     7
100
AcDbLine
 10
-484.8881225585937
 20
269.676727294922
 30
0.0
 11
-484.8881225585937
 21
300.6767272949219
 31
0.0
  0
LINE
  5
298
330
22
100
AcDbEntity
  8
0
  6
Continuous
 62
     7
100
AcDbLine
 10
-479.8881225585938
 20
248.6767425537109
 30
0.0
 11
-479.8881225585938
 21
258.6767272949219
 31
0.0
  0
LINE
  5
299
330
22
100
AcDbEntity
  8
0
  6
Continuous
 62
     7
100
AcDbLine
 10
-565.8466186523437
 20
370.9845886230469
 30
0.0
 11
-566.1183471679687
 21
370.7128295898438
 31
0.0
  0
LINE
  5
29A
330
22
100
AcDbEntity
  8
0
  6
Continuous
 62
     7
100
AcDbLine
 10
-571.3839721679687
 20
370.9700012207031
 30
0.0
 11
-569.6890258789062
 21
373.2022705078125
 31
0.0
  0
LINE
  5
29B
330
22
100
AcDbEntity
  8
0
  6
Continuous
 62
     7
100
AcDbLine
 10
-570.8400268554687
 20
370.4260864257813
 30
0.0
 11
-568.6077880859374
 21
372.1210021972656
 31
0.0
  0
LINE
  5
29C
330
22
100
AcDbEntity
  8
0
  6
Continuous
 62
     7
100
AcDbLine
 10
-570.8400268554687
 20
370.4260864257813
 30
0.0
 11
-568.6077880859374
 21
372.1210021972656
 31
0.0
  0
LINE
  5
29D
330
22
100
AcDbEntity
  8
0
  6
Continuous
 62
     7
100
AcDbLine
 10
-566.39013671875
 20
370.4410705566406
 30
0.0
 11
-568.6077880859374
 21
372.1210021972656
 31
0.0
  0
LINE
  5
29E
330
22
100
AcDbEntity
  8
0
  6
Continuous
 62
     7
100
AcDbLine
 10
-571.3839721679687
 20
370.9700012207031
 30
0.0
 11
-569.6890258789062
 21
373.2022705078125
 31
0.0
  0
LINE
  5
29F
330
22
100
AcDbEntity
  8
0
  6
Continuous
 62
     7
100
AcDbLine
 10
-571.1119995117187
 20
370.6980285644531
 30
0.0
 11
-570.8400268554687
 21
370.4260864257813
 31
0.0
  0
LINE
  5
2A0
330
22
100
AcDbEntity
  8
0
  6
Continuous
 62
     7
100
AcDbLine
 10
-571.1119995117187
 20
370.6980285644531
 30
0.0
 11
-571.3839721679687
 21
370.9700012207031
 31
0.0
  0
LINE
  5
2A1
330
22
100
AcDbEntity
  8
0
  6
Continuous
 62
     7
100
AcDbLine
 10
-571.1119995117187
 20
370.6980285644531
 30
0.0
 11
-571.3839721679687
 21
370.9700012207031
 31
0.0
  0
LINE
  5
2A2
330
22
100
AcDbEntity
  8
0
  6
Continuous
 62
     7
100
AcDbLine
 10
-571.1119995117187
 20
370.6980285644531
 30
0.0
 11
-570.8400268554687
 21
370.4260864257813
 31
0.0
  0
LINE
  5
2A3
330
22
100
AcDbEntity
  8
0
  6
Continuous
 62
     7
100
AcDbLine
 10
-544.8881225585938
 20
354.0015869140625
 30
0.0
 11
-544.8881225585938
 21
363.6767272949219
 31
0.0
  0
LINE
  5
2A4
330
22
100
AcDbEntity
  8
0
  6
Continuous
 62
     7
100
AcDbLine
 10
-539.8881225585938
 20
354.0015869140625
 30
0.0
 11
-539.8881225585938
 21
363.6767272949219
 31
0.0
  0
LINE
  5
2A5
330
22
100
AcDbEntity
  8
0
  6
Continuous
 62
     7
100
AcDbLine
 10
-554.8881225585938
 20
332.6767272949219
 30
0.0
 11
-554.8881225585938
 21
363.6767272949219
 31
0.0
  0
LINE
  5
2A6
330
22
100
AcDbEntity
  8
0
  6
Continuous
 62
     7
100
AcDbLine
 10
-549.8881225585939
 20
332.6767272949219
 30
0.0
 11
-549.8881225585939
 21
363.6767272949219
 31
0.0
  0
LINE
  5
2A7
330
22
100
AcDbEntity
  8
0
  6
Continuous
 62
     7
100
AcDbLine
 10
-564.8881225585937
 20
354.0015869140625
 30
0.0
 11
-564.8881225585937
 21
363.6767272949219
 31
0.0
  0
LINE
  5
2A8
330
22
100
AcDbEntity
  8
0
  6
Continuous
 62
     7
100
AcDbLine
 10
-534.8881225585938
 20
332.6767272949219
 30
0.0
 11
-534.8881225585938
 21
363.6767272949219
 31
0.0
  0
LINE
  5
2A9
330
22
100
AcDbEntity
  8
0
  6
Continuous
 62
     7
100
AcDbLine
 10
-559.8881225585938
 20
354.0015869140625
 30
0.0
 11
-559.8881225585938
 21
363.6767272949219
 31
0.0
  0
LINE
  5
2AA
330
22
100
AcDbEntity
  8
0
  6
Continuous
 62
     7
100
AcDbLine
 10
-566.3755493164062
 20
375.9784545898438
 30
0.0
 11
-568.6077880859374
 21
374.2835083007813
 31
0.0
  0
LINE
  5
2AB
330
22
100
AcDbEntity
  8
0
  6
Continuous
 62
     7
100
AcDbLine
 10
-566.1035766601562
 20
375.7064819335938
 30
0.0
 11
-566.3755493164062
 21
375.9784545898438
 31
0.0
  0
LINE
  5
2AC
330
22
100
AcDbEntity
  8
0
  6
Continuous
 62
     7
100
AcDbLine
 10
-570.825439453125
 20
375.9634704589844
 30
0.0
 11
-568.6077880859374
 21
374.2835083007813
 31
0.0
  0
LINE
  5
2AD
330
22
100
AcDbEntity
  8
0
  6
Continuous
 62
     7
100
AcDbLine
 10
-570.825439453125
 20
375.9634704589844
 30
0.0
 11
-571.0972290039062
 21
375.6917114257813
 31
0.0
  0
LINE
  5
2AE
330
22
100
AcDbEntity
  8
0
  6
CENTER
 62
     7
100
AcDbLine
 10
-568.6077880859374
 20
367.3563537597656
 30
0.0
 11
-568.6077880859374
 21
379.5271911621094
 31
0.0
  0
LINE
  5
2AF
330
22
100
AcDbEntity
  8
0
  6
Continuous
 62
     7
100
AcDbLine
 10
-566.3755493164062
 20
375.9784545898438
 30
0.0
 11
-568.6077880859374
 21
374.2835083007813
 31
0.0
  0
LINE
  5
2B0
330
22
100
AcDbEntity
  8
0
  6
Continuous
 62
     7
100
AcDbLine
 10
-566.1035766601562
 20
375.7064819335938
 30
0.0
 11
-565.8316040039062
 21
375.4345397949219
 31
0.0
  0
LINE
  5
2B1
330
22
100
AcDbEntity
  8
0
  6
Continuous
 62
     7
100
AcDbLine
 10
-571.3689575195312
 20
375.4199523925781
 30
0.0
 11
-571.0972290039062
 21
375.6917114257813
 31
0.0
  0
LINE
  5
2B2
330
22
100
AcDbEntity
  8
0
  6
Continuous
 62
     7
100
AcDbLine
 10
-570.825439453125
 20
375.9634704589844
 30
0.0
 11
-571.0972290039062
 21
375.6917114257813
 31
0.0
  0
LINE
  5
2B3
330
22
100
AcDbEntity
  8
0
  6
Continuous
 62
     7
100
AcDbLine
 10
-571.3689575195312
 20
375.4199523925781
 30
0.0
 11
-571.0972290039062
 21
375.6917114257813
 31
0.0
  0
LINE
  5
2B4
330
22
100
AcDbEntity
  8
0
  6
Continuous
 62
     7
100
AcDbLine
 10
-571.3689575195312
 20
375.4199523925781
 30
0.0
 11
-569.6890258789062
 21
373.2022705078125
 31
0.0
  0
LINE
  5
2B5
330
22
100
AcDbEntity
  8
0
  6
Continuous
 62
     7
100
AcDbLine
 10
-570.825439453125
 20
375.9634704589844
 30
0.0
 11
-568.6077880859374
 21
374.2835083007813
 31
0.0
  0
LINE
  5
2B6
330
22
100
AcDbEntity
  8
0
  6
Continuous
 62
     7
100
AcDbLine
 10
-566.1035766601562
 20
375.7064819335938
 30
0.0
 11
-566.3755493164062
 21
375.9784545898438
 31
0.0
  0
LINE
  5
2B7
330
22
100
AcDbEntity
  8
0
  6
Continuous
 62
     7
100
AcDbLine
 10
-565.8316040039062
 20
375.4345397949219
 30
0.0
 11
-567.5265502929687
 21
373.2022705078125
 31
0.0
  0
LINE
  5
2B8
330
22
100
AcDbEntity
  8
0
  6
Continuous
 62
     7
100
AcDbLine
 10
-566.1035766601562
 20
375.7064819335938
 30
0.0
 11
-565.8316040039062
 21
375.4345397949219
 31
0.0
  0
LINE
  5
2B9
330
22
100
AcDbEntity
  8
0
  6
Continuous
 62
     7
100
AcDbLine
 10
-565.8316040039062
 20
375.4345397949219
 30
0.0
 11
-567.5265502929687
 21
373.2022705078125
 31
0.0
  0
LINE
  5
2BA
330
22
100
AcDbEntity
  8
0
  6
Continuous
 62
     7
100
AcDbLine
 10
-571.3689575195312
 20
375.4199523925781
 30
0.0
 11
-569.6890258789062
 21
373.2022705078125
 31
0.0
  0
LINE
  5
2BB
330
22
100
AcDbEntity
  8
0
  6
DASHED
 62
     7
100
AcDbLine
 10
-568.6077880859374
 20
378.1767272949219
 30
0.0
 11
-570.1077880859375
 21
378.1767272949219
 31
0.0
  0
LINE
  5
2BC
330
22
100
AcDbEntity
  8
0
  6
Continuous
 62
     7
100
AcDbLine
 10
-566.39013671875
 20
370.4410705566406
 30
0.0
 11
-566.1183471679687
 21
370.7128295898438
 31
0.0
  0
LINE
  5
2BD
330
22
100
AcDbEntity
  8
0
  6
Continuous
 62
     7
100
AcDbLine
 10
-565.8466186523437
 20
370.9845886230469
 30
0.0
 11
-566.1183471679687
 21
370.7128295898438
 31
0.0
  0
LINE
  5
2BE
330
22
100
AcDbEntity
  8
0
  6
Continuous
 62
     7
100
AcDbLine
 10
-565.8466186523437
 20
370.9845886230469
 30
0.0
 11
-567.5265502929687
 21
373.2022705078125
 31
0.0
  0
LINE
  5
2BF
330
22
100
AcDbEntity
  8
0
  6
Continuous
 62
     7
100
AcDbLine
 10
-544.8881225585938
 20
248.6767425537109
 30
0.0
 11
-544.8881225585938
 21
258.6767272949219
 31
0.0
  0
LINE
  5
2C0
330
22
100
AcDbEntity
  8
0
  6
Continuous
 62
     7
100
AcDbLine
 10
-539.8881225585938
 20
248.6767425537109
 30
0.0
 11
-539.8881225585938
 21
258.6767272949219
 31
0.0
  0
LINE
  5
2C1
330
22
100
AcDbEntity
  8
0
  6
Continuous
 62
     7
100
AcDbLine
 10
-544.8881225585938
 20
392.3518676757813
 30
0.0
 11
-544.8881225585938
 21
382.6767272949219
 31
0.0
  0
LINE
  5
2C2
330
22
100
AcDbEntity
  8
0
  6
Continuous
 62
     7
100
AcDbLine
 10
-559.8881225585938
 20
392.3518676757813
 30
0.0
 11
-559.8881225585938
 21
382.6767272949219
 31
0.0
  0
LINE
  5
2C3
330
22
100
AcDbEntity
  8
0
  6
Continuous
 62
     7
100
AcDbLine
 10
-564.8881225585937
 20
392.3518676757813
 30
0.0
 11
-564.8881225585937
 21
382.6767272949219
 31
0.0
  0
LINE
  5
2C4
330
22
100
AcDbEntity
  8
0
  6
Continuous
 62
     7
100
AcDbLine
 10
-539.8881225585938
 20
392.3518676757813
 30
0.0
 11
-539.8881225585938
 21
382.6767272949219
 31
0.0
  0
LINE
  5
2C5
330
22
100
AcDbEntity
  8
0
  6
DASHED
 62
     7
100
AcDbLine
 10
-568.6077880859374
 20
368.1767272949219
 30
0.0
 11
-570.1077880859375
 21
368.1767272949219
 31
0.0
  0
LINE
  5
2C6
330
22
100
AcDbEntity
  8
0
  6
Continuous
 62
     7
100
AcDbLine
 10
-565.8466186523437
 20
370.9845886230469
 30
0.0
 11
-567.5265502929687
 21
373.2022705078125
 31
0.0
  0
LINE
  5
2C7
330
22
100
AcDbEntity
  8
0
  6
Continuous
 62
     7
100
AcDbLine
 10
-566.39013671875
 20
370.4410705566406
 30
0.0
 11
-568.6077880859374
 21
372.1210021972656
 31
0.0
  0
LINE
  5
2C8
330
22
100
AcDbEntity
  8
0
  6
Continuous
 62
     7
100
AcDbLine
 10
-566.39013671875
 20
370.4410705566406
 30
0.0
 11
-566.1183471679687
 21
370.7128295898438
 31
0.0
  0
LINE
  5
2C9
330
22
100
AcDbEntity
  8
0
  6
Continuous
 62
     7
100
AcDbLine
 10
-529.8881225585938
 20
332.6767272949219
 30
0.0
 11
-529.8881225585938
 21
363.6767272949219
 31
0.0
  0
LINE
  5
2CA
330
22
100
AcDbEntity
  8
0
  6
Continuous
 62
     7
100
AcDbLine
 10
-571.120361328125
 20
242.4005432128906
 30
0.0
 11
-568.8881225585937
 21
244.0954895019531
 31
0.0
  0
LINE
  5
2CB
330
22
100
AcDbEntity
  8
0
  6
Continuous
 62
     7
100
AcDbLine
 10
-566.6704101562499
 20
242.4155426025391
 30
0.0
 11
-568.8881225585937
 21
244.0954895019531
 31
0.0
  0
LINE
  5
2CC
330
22
100
AcDbEntity
  8
0
  6
Continuous
 62
     7
100
AcDbLine
 10
-571.6492919921875
 20
247.3944091796875
 30
0.0
 11
-569.9693603515624
 21
245.1767425537109
 31
0.0
  0
LINE
  5
2CD
330
22
100
AcDbEntity
  8
0
  6
Continuous
 62
     7
100
AcDbLine
 10
-571.6643066406249
 20
242.9444732666016
 30
0.0
 11
-569.9693603515624
 21
245.1767425537109
 31
0.0
  0
LINE
  5
2CE
330
22
100
AcDbEntity
  8
0
  6
Continuous
 62
     7
100
AcDbLine
 10
-571.3923339843749
 20
242.6725158691406
 30
0.0
 11
-571.120361328125
 21
242.4005432128906
 31
0.0
  0
LINE
  5
2CF
330
22
100
AcDbEntity
  8
0
  6
Continuous
 62
     7
100
AcDbLine
 10
-571.3923339843749
 20
242.6725158691406
 30
0.0
 11
-571.6643066406249
 21
242.9444732666016
 31
0.0
  0
LINE
  5
2D0
330
22
100
AcDbEntity
  8
0
  6
Continuous
 62
     7
100
AcDbLine
 10
-571.3923339843749
 20
242.6725158691406
 30
0.0
 11
-571.6643066406249
 21
242.9444732666016
 31
0.0
  0
LINE
  5
2D1
330
22
100
AcDbEntity
  8
0
  6
Continuous
 62
     7
100
AcDbLine
 10
-571.3923339843749
 20
242.6725158691406
 30
0.0
 11
-571.120361328125
 21
242.4005432128906
 31
0.0
  0
LINE
  5
2D2
330
22
100
AcDbEntity
  8
0
  6
Continuous
 62
     7
100
AcDbLine
 10
-566.6704101562499
 20
242.4155426025391
 30
0.0
 11
-566.3986816406249
 21
242.6873016357422
 31
0.0
  0
LINE
  5
2D3
330
22
100
AcDbEntity
  8
0
  6
Continuous
 62
     7
100
AcDbLine
 10
-566.1268920898437
 20
242.9590606689453
 30
0.0
 11
-566.3986816406249
 21
242.6873016357422
 31
0.0
  0
LINE
  5
2D4
330
22
100
AcDbEntity
  8
0
  6
Continuous
 62
     7
100
AcDbLine
 10
-566.1268920898437
 20
242.9590606689453
 30
0.0
 11
-567.8068847656249
 21
245.1767425537109
 31
0.0
  0
LINE
  5
2D5
330
22
100
AcDbEntity
  8
0
  6
Continuous
 62
     7
100
AcDbLine
 10
-564.8881225585937
 20
269.676727294922
 30
0.0
 11
-564.8881225585937
 21
300.6767272949219
 31
0.0
  0
LINE
  5
2D6
330
22
100
AcDbEntity
  8
0
  6
Continuous
 62
     7
100
AcDbLine
 10
-559.8881225585938
 20
269.676727294922
 30
0.0
 11
-559.8881225585938
 21
300.6767272949219
 31
0.0
  0
LINE
  5
2D7
330
22
100
AcDbEntity
  8
0
  6
Continuous
 62
     7
100
AcDbLine
 10
-554.8881225585938
 20
248.6767425537109
 30
0.0
 11
-554.8881225585938
 21
279.6767272949219
 31
0.0
  0
LINE
  5
2D8
330
22
100
AcDbEntity
  8
0
  6
Continuous
 62
     7
100
AcDbLine
 10
-549.8881225585939
 20
248.6767425537109
 30
0.0
 11
-549.8881225585939
 21
279.6767272949219
 31
0.0
  0
LINE
  5
2D9
330
22
100
AcDbEntity
  8
0
  6
Continuous
 62
     7
100
AcDbLine
 10
-564.8881225585937
 20
253.6767425537109
 30
0.0
 11
-564.8881225585937
 21
258.6767272949219
 31
0.0
  0
LINE
  5
2DA
330
22
100
AcDbEntity
  8
0
  6
Continuous
 62
     7
100
AcDbLine
 10
-559.8881225585938
 20
253.6767425537109
 30
0.0
 11
-559.8881225585938
 21
258.6767272949219
 31
0.0
  0
LINE
  5
2DB
330
22
100
AcDbEntity
  8
0
  6
Continuous
 62
     7
100
AcDbLine
 10
-544.8881225585938
 20
269.676727294922
 30
0.0
 11
-544.8881225585938
 21
300.6767272949219
 31
0.0
  0
LINE
  5
2DC
330
22
100
AcDbEntity
  8
0
  6
Continuous
 62
     7
100
AcDbLine
 10
-566.6558837890625
 20
247.9529266357422
 30
0.0
 11
-568.8881225585937
 21
246.2579803466797
 31
0.0
  0
LINE
  5
2DD
330
22
100
AcDbEntity
  8
0
  6
Continuous
 62
     7
100
AcDbLine
 10
-566.3839111328124
 20
247.6809692382814
 30
0.0
 11
-566.6558837890625
 21
247.9529266357422
 31
0.0
  0
LINE
  5
2DE
330
22
100
AcDbEntity
  8
0
  6
Continuous
 62
     7
100
AcDbLine
 10
-571.1057739257812
 20
247.9379425048828
 30
0.0
 11
-568.8881225585937
 21
246.2579803466797
 31
0.0
  0
LINE
  5
2DF
330
22
100
AcDbEntity
  8
0
  6
Continuous
 62
     7
100
AcDbLine
 10
-566.1268920898437
 20
242.9590606689453
 30
0.0
 11
-566.3986816406249
 21
242.6873016357422
 31
0.0
  0
LINE
  5
2E0
330
22
100
AcDbEntity
  8
0
  6
Continuous
 62
     7
100
AcDbLine
 10
-571.6643066406249
 20
242.9444732666016
 30
0.0
 11
-569.9693603515624
 21
245.1767425537109
 31
0.0
  0
LINE
  5
2E1
330
22
100
AcDbEntity
  8
0
  6
Continuous
 62
     7
100
AcDbLine
 10
-571.1057739257812
 20
247.9379425048828
 30
0.0
 11
-571.3775634765625
 21
247.6661682128906
 31
0.0
  0
LINE
  5
2E2
330
22
100
AcDbEntity
  8
0
  6
Continuous
 62
     7
100
AcDbLine
 10
-571.120361328125
 20
242.4005432128906
 30
0.0
 11
-568.8881225585937
 21
244.0954895019531
 31
0.0
  0
LINE
  5
2E3
330
22
100
AcDbEntity
  8
0
  6
Continuous
 62
     7
100
AcDbLine
 10
-566.6558837890625
 20
247.9529266357422
 30
0.0
 11
-568.8881225585937
 21
246.2579803466797
 31
0.0
  0
LINE
  5
2E4
330
22
100
AcDbEntity
  8
0
  6
Continuous
 62
     7
100
AcDbLine
 10
-566.3839111328124
 20
247.6809692382814
 30
0.0
 11
-566.1119384765624
 21
247.4089965820313
 31
0.0
  0
LINE
  5
2E5
330
22
100
AcDbEntity
  8
0
  6
Continuous
 62
     7
100
AcDbLine
 10
-566.1268920898437
 20
242.9590606689453
 30
0.0
 11
-567.8068847656249
 21
245.1767425537109
 31
0.0
  0
LINE
  5
2E6
330
22
100
AcDbEntity
  8
0
  6
Continuous
 62
     7
100
AcDbLine
 10
-566.6704101562499
 20
242.4155426025391
 30
0.0
 11
-568.8881225585937
 21
244.0954895019531
 31
0.0
  0
LINE
  5
2E7
330
22
100
AcDbEntity
  8
0
  6
Continuous
 62
     7
100
AcDbLine
 10
-571.6492919921875
 20
247.3944091796875
 30
0.0
 11
-571.3775634765625
 21
247.6661682128906
 31
0.0
  0
LINE
  5
2E8
330
22
100
AcDbEntity
  8
0
  6
Continuous
 62
     7
100
AcDbLine
 10
-534.8881225585938
 20
248.6767425537109
 30
0.0
 11
-534.8881225585938
 21
279.6767272949219
 31
0.0
  0
LINE
  5
2E9
330
22
100
AcDbEntity
  8
0
  6
CENTER
 62
     7
100
AcDbLine
 10
-574.70849609375
 20
245.1767425537109
 30
0.0
 11
-555.2646484374999
 21
245.1767425537109
 31
0.0
  0
LINE
  5
2EA
330
22
100
AcDbEntity
  8
0
  6
DASHED
 62
     7
100
AcDbLine
 10
-563.8881225585937
 20
245.1767425537109
 30
0.0
 11
-563.8881225585937
 21
243.6767425537109
 31
0.0
  0
LINE
  5
2EB
330
22
100
AcDbEntity
  8
0
  6
Continuous
 62
     7
100
AcDbLine
 10
-571.1057739257812
 20
247.9379425048828
 30
0.0
 11
-568.8881225585937
 21
246.2579803466797
 31
0.0
  0
LINE
  5
2EC
330
22
100
AcDbEntity
  8
0
  6
Continuous
 62
     7
100
AcDbLine
 10
-566.3839111328124
 20
247.6809692382814
 30
0.0
 11
-566.6558837890625
 21
247.9529266357422
 31
0.0
  0
LINE
  5
2ED
330
22
100
AcDbEntity
  8
0
  6
Continuous
 62
     7
100
AcDbLine
 10
-566.1119384765624
 20
247.4089965820313
 30
0.0
 11
-567.8068847656249
 21
245.1767425537109
 31
0.0
  0
LINE
  5
2EE
330
22
100
AcDbEntity
  8
0
  6
Continuous
 62
     7
100
AcDbLine
 10
-566.3839111328124
 20
247.6809692382814
 30
0.0
 11
-566.1119384765624
 21
247.4089965820313
 31
0.0
  0
LINE
  5
2EF
330
22
100
AcDbEntity
  8
0
  6
Continuous
 62
     7
100
AcDbLine
 10
-566.1119384765624
 20
247.4089965820313
 30
0.0
 11
-567.8068847656249
 21
245.1767425537109
 31
0.0
  0
LINE
  5
2F0
330
22
100
AcDbEntity
  8
0
  6
Continuous
 62
     7
100
AcDbLine
 10
-566.6704101562499
 20
242.4155426025391
 30
0.0
 11
-566.3986816406249
 21
242.6873016357422
 31
0.0
  0
LINE
  5
2F1
330
22
100
AcDbEntity
  8
0
  6
DASHED
 62
     7
100
AcDbLine
 10
-568.8881225585937
 20
250.1767425537109
 30
0.0
 11
-570.3881225585937
 21
250.1767425537109
 31
0.0
  0
LINE
  5
2F2
330
22
100
AcDbEntity
  8
0
  6
Continuous
 62
     7
100
AcDbLine
 10
-529.8881225585938
 20
248.6767425537109
 30
0.0
 11
-529.8881225585938
 21
279.6767272949219
 31
0.0
  0
LINE
  5
2F3
330
22
100
AcDbEntity
  8
0
  6
Continuous
 62
     7
100
AcDbLine
 10
-571.1057739257812
 20
247.9379425048828
 30
0.0
 11
-571.3775634765625
 21
247.6661682128906
 31
0.0
  0
LINE
  5
2F4
330
22
100
AcDbEntity
  8
0
  6
Continuous
 62
     7
100
AcDbLine
 10
-571.6492919921875
 20
247.3944091796875
 30
0.0
 11
-571.3775634765625
 21
247.6661682128906
 31
0.0
  0
LINE
  5
2F5
330
22
100
AcDbEntity
  8
0
  6
Continuous
 62
     7
100
AcDbLine
 10
-571.6492919921875
 20
247.3944091796875
 30
0.0
 11
-569.9693603515624
 21
245.1767425537109
 31
0.0
  0
LINE
  5
2F6
330
22
100
AcDbEntity
  8
0
  6
Continuous
 62
     7
100
AcDbLine
 10
-539.8881225585938
 20
269.676727294922
 30
0.0
 11
-539.8881225585938
 21
300.6767272949219
 31
0.0
  0
LINE
  5
2F7
330
22
100
AcDbEntity
  8
0
  6
Continuous
 62
     7
100
AcDbLine
 10
-326.8881225585938
 20
497.6767272949218
 30
0.0
 11
-326.8881225585938
 21
466.6767272949218
 31
0.0
  0
LINE
  5
2F8
330
22
100
AcDbEntity
  8
0
  6
Continuous
 62
     7
100
AcDbLine
 10
-321.8881225585938
 20
492.6767272949218
 30
0.0
 11
-321.8881225585938
 21
487.6767272949218
 31
0.0
  0
LINE
  5
2F9
330
22
100
AcDbEntity
  8
0
  6
Continuous
 62
     7
100
AcDbLine
 10
-376.8881225585938
 20
497.6767272949218
 30
0.0
 11
-376.8881225585938
 21
487.6767272949218
 31
0.0
  0
LINE
  5
2FA
330
22
100
AcDbEntity
  8
0
  6
Continuous
 62
     7
100
AcDbLine
 10
-341.8881225585938
 20
497.6767272949218
 30
0.0
 11
-341.8881225585938
 21
487.6767272949218
 31
0.0
  0
LINE
  5
2FB
330
22
100
AcDbEntity
  8
0
  6
Continuous
 62
     7
100
AcDbLine
 10
-316.8881225585938
 20
492.6767272949218
 30
0.0
 11
-316.8881225585938
 21
487.6767272949218
 31
0.0
  0
LINE
  5
2FC
330
22
100
AcDbEntity
  8
0
  6
Continuous
 62
     7
100
AcDbLine
 10
-331.8881225585938
 20
497.6767272949218
 30
0.0
 11
-331.8881225585938
 21
466.6767272949218
 31
0.0
  0
LINE
  5
2FD
330
22
100
AcDbEntity
  8
0
  6
Continuous
 62
     7
100
AcDbLine
 10
-376.8881225585938
 20
311.6767272949219
 30
0.0
 11
-376.8881225585938
 21
342.6767272949219
 31
0.0
  0
LINE
  5
2FE
330
22
100
AcDbEntity
  8
0
  6
Continuous
 62
     7
100
AcDbLine
 10
-331.8881225585938
 20
290.6767272949219
 30
0.0
 11
-331.8881225585938
 21
321.6767272949219
 31
0.0
  0
LINE
  5
2FF
330
22
100
AcDbEntity
  8
0
  6
Continuous
 62
     7
100
AcDbLine
 10
-321.8881225585938
 20
311.6767272949219
 30
0.0
 11
-321.8881225585938
 21
342.6767272949219
 31
0.0
  0
LINE
  5
300
330
22
100
AcDbEntity
  8
0
  6
DASHED
 62
     7
100
AcDbLine
 10
-309.3881225585938
 20
252.1767425537109
 30
0.0
 11
-309.3881225585938
 21
366.1767272949219
 31
0.0
  0
LINE
  5
301
330
22
100
AcDbEntity
  8
0
  6
Continuous
 62
     7
100
AcDbLine
 10
-326.8881225585938
 20
290.6767272949219
 30
0.0
 11
-326.8881225585938
 21
321.6767272949219
 31
0.0
  0
LINE
  5
302
330
22
100
AcDbEntity
  8
0
  6
Continuous
 62
     7
100
AcDbLine
 10
-316.8881225585938
 20
311.6767272949219
 30
0.0
 11
-316.8881225585938
 21
342.6767272949219
 31
0.0
  0
LINE
  5
303
330
22
100
AcDbEntity
  8
0
  6
Continuous
 62
     7
100
AcDbLine
 10
-391.8881225585938
 20
290.6767272949219
 30
0.0
 11
-391.8881225585938
 21
321.6767272949219
 31
0.0
  0
LINE
  5
304
330
22
100
AcDbEntity
  8
0
  6
Continuous
 62
     7
100
AcDbLine
 10
-336.8881225585938
 20
497.6767272949218
 30
0.0
 11
-336.8881225585938
 21
487.6767272949218
 31
0.0
  0
LINE
  5
305
330
22
100
AcDbEntity
  8
0
  6
Continuous
 62
     7
100
AcDbLine
 10
-351.8881225585938
 20
497.6767272949218
 30
0.0
 11
-351.8881225585938
 21
466.6767272949218
 31
0.0
  0
LINE
  5
306
330
22
100
AcDbEntity
  8
0
  6
Continuous
 62
     7
100
AcDbLine
 10
-366.8881225585938
 20
497.6767272949218
 30
0.0
 11
-366.8881225585938
 21
466.6767272949218
 31
0.0
  0
LINE
  5
307
330
22
100
AcDbEntity
  8
0
  6
Continuous
 62
     7
100
AcDbLine
 10
-371.8881225585938
 20
497.6767272949218
 30
0.0
 11
-371.8881225585938
 21
466.6767272949218
 31
0.0
  0
LINE
  5
308
330
22
100
AcDbEntity
  8
0
  6
Continuous
 62
     7
100
AcDbLine
 10
-346.8881225585938
 20
497.6767272949218
 30
0.0
 11
-346.8881225585938
 21
466.6767272949218
 31
0.0
  0
LINE
  5
309
330
22
100
AcDbEntity
  8
0
  6
Continuous
 62
     7
100
AcDbLine
 10
-391.8881225585938
 20
497.6767272949218
 30
0.0
 11
-391.8881225585938
 21
466.6767272949218
 31
0.0
  0
LINE
  5
30A
330
22
100
AcDbEntity
  8
0
  6
Continuous
 62
     7
100
AcDbLine
 10
-386.8881225585938
 20
497.6767272949218
 30
0.0
 11
-386.8881225585938
 21
466.6767272949218
 31
0.0
  0
LINE
  5
30B
330
22
100
AcDbEntity
  8
0
  6
Continuous
 62
     7
100
AcDbLine
 10
-361.8881225585938
 20
497.6767272949218
 30
0.0
 11
-361.8881225585938
 21
487.6767272949218
 31
0.0
  0
LINE
  5
30C
330
22
100
AcDbEntity
  8
0
  6
Continuous
 62
     7
100
AcDbLine
 10
-356.8881225585938
 20
497.6767272949218
 30
0.0
 11
-356.8881225585938
 21
487.6767272949218
 31
0.0
  0
LINE
  5
30D
330
22
100
AcDbEntity
  8
0
  6
Continuous
 62
     7
100
AcDbLine
 10
-381.8881225585938
 20
497.6767272949218
 30
0.0
 11
-381.8881225585938
 21
487.6767272949218
 31
0.0
  0
LINE
  5
30E
330
22
100
AcDbEntity
  8
0
  6
Continuous
 62
     7
100
AcDbLine
 10
-509.8881225585937
 20
497.6767272949218
 30
0.0
 11
-509.8881225585937
 21
466.6767272949218
 31
0.0
  0
LINE
  5
30F
330
22
100
AcDbEntity
  8
0
  6
Continuous
 62
     7
100
AcDbLine
 10
-514.8881225585938
 20
497.6767272949218
 30
0.0
 11
-514.8881225585938
 21
466.6767272949218
 31
0.0
  0
LINE
  5
310
330
22
100
AcDbEntity
  8
0
  6
Continuous
 62
     7
100
AcDbLine
 10
-469.8881225585938
 20
497.6767272949218
 30
0.0
 11
-469.8881225585938
 21
466.6767272949218
 31
0.0
  0
LINE
  5
311
330
22
100
AcDbEntity
  8
0
  6
Continuous
 62
     7
100
AcDbLine
 10
-479.8881225585938
 20
497.6767272949218
 30
0.0
 11
-479.8881225585938
 21
487.6767272949218
 31
0.0
  0
LINE
  5
312
330
22
100
AcDbEntity
  8
0
  6
Continuous
 62
     7
100
AcDbLine
 10
-519.8881225585938
 20
497.6767272949218
 30
0.0
 11
-519.8881225585938
 21
487.6767272949218
 31
0.0
  0
LINE
  5
313
330
22
100
AcDbEntity
  8
0
  6
Continuous
 62
     7
100
AcDbLine
 10
-504.8881225585938
 20
497.6767272949218
 30
0.0
 11
-504.8881225585938
 21
487.6767272949218
 31
0.0
  0
LINE
  5
314
330
22
100
AcDbEntity
  8
0
  6
Continuous
 62
     7
100
AcDbLine
 10
-499.8881225585938
 20
497.6767272949218
 30
0.0
 11
-499.8881225585938
 21
487.6767272949218
 31
0.0
  0
LINE
  5
315
330
22
100
AcDbEntity
  8
0
  6
Continuous
 62
     7
100
AcDbLine
 10
-484.8881225585937
 20
497.6767272949218
 30
0.0
 11
-484.8881225585937
 21
487.6767272949218
 31
0.0
  0
LINE
  5
316
330
22
100
AcDbEntity
  8
0
  6
Continuous
 62
     7
100
AcDbLine
 10
-459.8881225585937
 20
497.6767272949218
 30
0.0
 11
-459.8881225585937
 21
487.6767272949218
 31
0.0
  0
LINE
  5
317
330
22
100
AcDbEntity
  8
0
  6
Continuous
 62
     7
100
AcDbLine
 10
-454.8881225585938
 20
497.6767272949218
 30
0.0
 11
-454.8881225585938
 21
466.6767272949218
 31
0.0
  0
LINE
  5
318
330
22
100
AcDbEntity
  8
0
  6
Continuous
 62
     7
100
AcDbLine
 10
-449.8881225585938
 20
497.6767272949218
 30
0.0
 11
-449.8881225585938
 21
466.6767272949218
 31
0.0
  0
LINE
  5
319
330
22
100
AcDbEntity
  8
0
  6
Continuous
 62
     7
100
AcDbLine
 10
-431.8881225585938
 20
497.6767272949218
 30
0.0
 11
-431.8881225585938
 21
466.6767272949218
 31
0.0
  0
LINE
  5
31A
330
22
100
AcDbEntity
  8
0
  6
Continuous
 62
     7
100
AcDbLine
 10
-426.8881225585937
 20
497.6767272949218
 30
0.0
 11
-426.8881225585937
 21
466.6767272949218
 31
0.0
  0
LINE
  5
31B
330
22
100
AcDbEntity
  8
0
  6
Continuous
 62
     7
100
AcDbLine
 10
-421.8881225585938
 20
497.6767272949218
 30
0.0
 11
-421.8881225585938
 21
487.6767272949218
 31
0.0
  0
LINE
  5
31C
330
22
100
AcDbEntity
  8
0
  6
Continuous
 62
     7
100
AcDbLine
 10
-336.8881225585938
 20
311.6767272949219
 30
0.0
 11
-336.8881225585938
 21
342.6767272949219
 31
0.0
  0
LINE
  5
31D
330
22
100
AcDbEntity
  8
0
  6
Continuous
 62
     7
100
AcDbLine
 10
-371.8881225585938
 20
290.6767272949219
 30
0.0
 11
-371.8881225585938
 21
321.6767272949219
 31
0.0
  0
LINE
  5
31E
330
22
100
AcDbEntity
  8
0
  6
Continuous
 62
     7
100
AcDbLine
 10
-386.8881225585938
 20
290.6767272949219
 30
0.0
 11
-386.8881225585938
 21
321.6767272949219
 31
0.0
  0
LINE
  5
31F
330
22
100
AcDbEntity
  8
0
  6
Continuous
 62
     7
100
AcDbLine
 10
-351.8881225585938
 20
290.6767272949219
 30
0.0
 11
-351.8881225585938
 21
321.6767272949219
 31
0.0
  0
LINE
  5
320
330
22
100
AcDbEntity
  8
0
  6
Continuous
 62
     7
100
AcDbLine
 10
-366.8881225585938
 20
290.6767272949219
 30
0.0
 11
-366.8881225585938
 21
321.6767272949219
 31
0.0
  0
LINE
  5
321
330
22
100
AcDbEntity
  8
0
  6
Continuous
 62
     7
100
AcDbLine
 10
-346.8881225585938
 20
290.6767272949219
 30
0.0
 11
-346.8881225585938
 21
321.6767272949219
 31
0.0
  0
LINE
  5
322
330
22
100
AcDbEntity
  8
0
  6
Continuous
 62
     7
100
AcDbLine
 10
-341.8881225585938
 20
311.6767272949219
 30
0.0
 11
-341.8881225585938
 21
342.6767272949219
 31
0.0
  0
LINE
  5
323
330
22
100
AcDbEntity
  8
0
  6
Continuous
 62
     7
100
AcDbLine
 10
-361.8881225585938
 20
311.6767272949219
 30
0.0
 11
-361.8881225585938
 21
342.6767272949219
 31
0.0
  0
LINE
  5
324
330
22
100
AcDbEntity
  8
0
  6
Continuous
 62
     7
100
AcDbLine
 10
-356.8881225585938
 20
311.6767272949219
 30
0.0
 11
-356.8881225585938
 21
342.6767272949219
 31
0.0
  0
LINE
  5
325
330
22
100
AcDbEntity
  8
0
  6
Continuous
 62
     7
100
AcDbLine
 10
-381.8881225585938
 20
311.6767272949219
 30
0.0
 11
-381.8881225585938
 21
342.6767272949219
 31
0.0
  0
LINE
  5
326
330
22
100
AcDbEntity
  8
0
  6
DASHED
 62
     7
100
AcDbLine
 10
-438.3881225585938
 20
368.6767272949219
 30
0.0
 11
-438.3881225585938
 21
249.5068664550781
 31
0.0
  0
LINE
  5
327
330
22
100
AcDbEntity
  8
0
  6
Continuous
 62
     7
100
AcDbLine
 10
-431.8881225585938
 20
290.6767272949219
 30
0.0
 11
-431.8881225585938
 21
321.6767272949219
 31
0.0
  0
LINE
  5
328
330
22
100
AcDbEntity
  8
0
  6
Continuous
 62
     7
100
AcDbLine
 10
-426.8881225585937
 20
290.6767272949219
 30
0.0
 11
-426.8881225585937
 21
321.6767272949219
 31
0.0
  0
LINE
  5
329
330
22
100
AcDbEntity
  8
0
  6
Continuous
 62
     7
100
AcDbLine
 10
-421.8881225585938
 20
311.6767272949219
 30
0.0
 11
-421.8881225585938
 21
342.6767272949219
 31
0.0
  0
LINE
  5
32A
330
22
100
AcDbEntity
  8
0
  6
Continuous
 62
     7
100
AcDbLine
 10
-549.8881225585939
 20
497.6767272949218
 30
0.0
 11
-549.8881225585939
 21
466.6767272949218
 31
0.0
  0
LINE
  5
32B
330
22
100
AcDbEntity
  8
0
  6
Continuous
 62
     7
100
AcDbLine
 10
-554.8881225585938
 20
497.6767272949218
 30
0.0
 11
-554.8881225585938
 21
466.6767272949218
 31
0.0
  0
LINE
  5
32C
330
22
100
AcDbEntity
  8
0
  6
Continuous
 62
     7
100
AcDbLine
 10
-529.8881225585938
 20
497.6767272949218
 30
0.0
 11
-529.8881225585938
 21
466.6767272949218
 31
0.0
  0
LINE
  5
32D
330
22
100
AcDbEntity
  8
0
  6
Continuous
 62
     7
100
AcDbLine
 10
-534.8881225585938
 20
497.6767272949218
 30
0.0
 11
-534.8881225585938
 21
466.6767272949218
 31
0.0
  0
LINE
  5
32E
330
22
100
AcDbEntity
  8
0
  6
Continuous
 62
     7
100
AcDbLine
 10
-559.8881225585938
 20
492.6767272949218
 30
0.0
 11
-559.8881225585938
 21
487.6767272949218
 31
0.0
  0
LINE
  5
32F
330
22
100
AcDbEntity
  8
0
  6
Continuous
 62
     7
100
AcDbLine
 10
-539.8881225585938
 20
497.6767272949218
 30
0.0
 11
-539.8881225585938
 21
487.6767272949218
 31
0.0
  0
LINE
  5
330
330
22
100
AcDbEntity
  8
0
  6
Continuous
 62
     7
100
AcDbLine
 10
-544.8881225585938
 20
497.6767272949218
 30
0.0
 11
-544.8881225585938
 21
487.6767272949218
 31
0.0
  0
LINE
  5
331
330
22
100
AcDbEntity
  8
0
  6
Continuous
 62
     7
100
AcDbLine
 10
-564.8881225585937
 20
492.6767272949218
 30
0.0
 11
-564.8881225585937
 21
487.6767272949218
 31
0.0
  0
LINE
  5
332
330
22
100
AcDbEntity
  8
0
  6
Continuous
 62
     7
100
AcDbLine
 10
-406.8881225585938
 20
497.6767272949218
 30
0.0
 11
-406.8881225585938
 21
466.6767272949218
 31
0.0
  0
LINE
  5
333
330
22
100
AcDbEntity
  8
0
  6
Continuous
 62
     7
100
AcDbLine
 10
-411.8881225585938
 20
497.6767272949218
 30
0.0
 11
-411.8881225585938
 21
466.6767272949218
 31
0.0
  0
LINE
  5
334
330
22
100
AcDbEntity
  8
0
  6
Continuous
 62
     7
100
AcDbLine
 10
-416.8881225585938
 20
497.6767272949218
 30
0.0
 11
-416.8881225585938
 21
487.6767272949218
 31
0.0
  0
LINE
  5
335
330
22
100
AcDbEntity
  8
0
  6
Continuous
 62
     7
100
AcDbLine
 10
-464.8881225585937
 20
497.6767272949218
 30
0.0
 11
-464.8881225585937
 21
487.6767272949218
 31
0.0
  0
LINE
  5
336
330
22
100
AcDbEntity
  8
0
  6
Continuous
 62
     7
100
AcDbLine
 10
-474.8881225585938
 20
497.6767272949218
 30
0.0
 11
-474.8881225585938
 21
466.6767272949218
 31
0.0
  0
LINE
  5
337
330
22
100
AcDbEntity
  8
0
  6
Continuous
 62
     7
100
AcDbLine
 10
-494.8881225585938
 20
497.6767272949218
 30
0.0
 11
-494.8881225585938
 21
466.6767272949218
 31
0.0
  0
LINE
  5
338
330
22
100
AcDbEntity
  8
0
  6
Continuous
 62
     7
100
AcDbLine
 10
-489.8881225585937
 20
497.6767272949218
 30
0.0
 11
-489.8881225585937
 21
466.6767272949218
 31
0.0
  0
LINE
  5
339
330
22
100
AcDbEntity
  8
0
  6
Continuous
 62
     7
100
AcDbLine
 10
-411.8881225585938
 20
290.6767272949219
 30
0.0
 11
-411.8881225585938
 21
321.6767272949219
 31
0.0
  0
LINE
  5
33A
330
22
100
AcDbEntity
  8
0
  6
Continuous
 62
     7
100
AcDbLine
 10
-416.8881225585938
 20
311.6767272949219
 30
0.0
 11
-416.8881225585938
 21
342.6767272949219
 31
0.0
  0
LINE
  5
33B
330
22
100
AcDbEntity
  8
0
  6
Continuous
 62
     7
100
AcDbLine
 10
-406.8881225585938
 20
290.6767272949219
 30
0.0
 11
-406.8881225585938
 21
321.6767272949219
 31
0.0
  0
LINE
  5
33C
330
22
100
AcDbEntity
  8
0
  6
Continuous
 62
     7
100
AcDbLine
 10
-464.8881225585937
 20
311.6767272949219
 30
0.0
 11
-464.8881225585937
 21
343.0015869140625
 31
0.0
  0
LINE
  5
33D
330
22
100
AcDbEntity
  8
0
  6
Continuous
 62
     7
100
AcDbLine
 10
-469.8881225585938
 20
290.6767272949219
 30
0.0
 11
-469.8881225585938
 21
321.6767272949219
 31
0.0
  0
LINE
  5
33E
330
22
100
AcDbEntity
  8
0
  6
Continuous
 62
     7
100
AcDbLine
 10
-489.8881225585937
 20
290.6767272949219
 30
0.0
 11
-489.8881225585937
 21
321.6767272949219
 31
0.0
  0
LINE
  5
33F
330
22
100
AcDbEntity
  8
0
  6
Continuous
 62
     7
100
AcDbLine
 10
-494.8881225585938
 20
290.6767272949219
 30
0.0
 11
-494.8881225585938
 21
321.6767272949219
 31
0.0
  0
LINE
  5
340
330
22
100
AcDbEntity
  8
0
  6
Continuous
 62
     7
100
AcDbLine
 10
-474.8881225585938
 20
290.6767272949219
 30
0.0
 11
-474.8881225585938
 21
321.6767272949219
 31
0.0
  0
LINE
  5
341
330
22
100
AcDbEntity
  8
0
  6
Continuous
 62
     7
100
AcDbLine
 10
-514.8881225585938
 20
290.6767272949219
 30
0.0
 11
-514.8881225585938
 21
321.6767272949219
 31
0.0
  0
LINE
  5
342
330
22
100
AcDbEntity
  8
0
  6
Continuous
 62
     7
100
AcDbLine
 10
-509.8881225585937
 20
290.6767272949219
 30
0.0
 11
-509.8881225585937
 21
321.6767272949219
 31
0.0
  0
LINE
  5
343
330
22
100
AcDbEntity
  8
0
  6
Continuous
 62
     7
100
AcDbLine
 10
-519.8881225585938
 20
311.6767272949219
 30
0.0
 11
-519.8881225585938
 21
343.0015869140625
 31
0.0
  0
LINE
  5
344
330
22
100
AcDbEntity
  8
0
  6
Continuous
 62
     7
100
AcDbLine
 10
-479.8881225585938
 20
311.6767272949219
 30
0.0
 11
-479.8881225585938
 21
343.0015869140625
 31
0.0
  0
LINE
  5
345
330
22
100
AcDbEntity
  8
0
  6
Continuous
 62
     7
100
AcDbLine
 10
-484.8881225585937
 20
311.6767272949219
 30
0.0
 11
-484.8881225585937
 21
343.0015869140625
 31
0.0
  0
LINE
  5
346
330
22
100
AcDbEntity
  8
0
  6
Continuous
 62
     7
100
AcDbLine
 10
-504.8881225585938
 20
311.6767272949219
 30
0.0
 11
-504.8881225585938
 21
343.0015869140625
 31
0.0
  0
LINE
  5
347
330
22
100
AcDbEntity
  8
0
  6
Continuous
 62
     7
100
AcDbLine
 10
-499.8881225585938
 20
311.6767272949219
 30
0.0
 11
-499.8881225585938
 21
343.0015869140625
 31
0.0
  0
LINE
  5
348
330
22
100
AcDbEntity
  8
0
  6
Continuous
 62
     7
100
AcDbLine
 10
-459.8881225585937
 20
311.6767272949219
 30
0.0
 11
-459.8881225585937
 21
343.0015869140625
 31
0.0
  0
LINE
  5
349
330
22
100
AcDbEntity
  8
0
  6
Continuous
 62
     7
100
AcDbLine
 10
-454.8881225585938
 20
290.6767272949219
 30
0.0
 11
-454.8881225585938
 21
321.6767272949219
 31
0.0
  0
LINE
  5
34A
330
22
100
AcDbEntity
  8
0
  6
DASHED
 62
     7
100
AcDbLine
 10
-443.3881225585937
 20
249.5068664550781
 30
0.0
 11
-443.3881225585937
 21
368.6767272949219
 31
0.0
  0
LINE
  5
34B
330
22
100
AcDbEntity
  8
0
  6
Continuous
 62
     7
100
AcDbLine
 10
-449.8881225585938
 20
290.6767272949219
 30
0.0
 11
-449.8881225585938
 21
321.6767272949219
 31
0.0
  0
LINE
  5
34C
330
22
100
AcDbEntity
  8
0
  6
DASHED
 62
     7
100
AcDbLine
 10
-572.3881225585937
 20
366.1767272949219
 30
0.0
 11
-572.3881225585937
 21
252.1767425537109
 31
0.0
  0
LINE
  5
34D
330
22
100
AcDbEntity
  8
0
  6
Continuous
 62
     7
100
AcDbLine
 10
-529.8881225585938
 20
290.6767272949219
 30
0.0
 11
-529.8881225585938
 21
321.6767272949219
 31
0.0
  0
LINE
  5
34E
330
22
100
AcDbEntity
  8
0
  6
Continuous
 62
     7
100
AcDbLine
 10
-534.8881225585938
 20
290.6767272949219
 30
0.0
 11
-534.8881225585938
 21
321.6767272949219
 31
0.0
  0
LINE
  5
34F
330
22
100
AcDbEntity
  8
0
  6
Continuous
 62
     7
100
AcDbLine
 10
-549.8881225585939
 20
290.6767272949219
 30
0.0
 11
-549.8881225585939
 21
321.6767272949219
 31
0.0
  0
LINE
  5
350
330
22
100
AcDbEntity
  8
0
  6
Continuous
 62
     7
100
AcDbLine
 10
-554.8881225585938
 20
290.6767272949219
 30
0.0
 11
-554.8881225585938
 21
321.6767272949219
 31
0.0
  0
LINE
  5
351
330
22
100
AcDbEntity
  8
0
  6
Continuous
 62
     7
100
AcDbLine
 10
-544.8881225585938
 20
311.6767272949219
 30
0.0
 11
-544.8881225585938
 21
343.0015869140625
 31
0.0
  0
LINE
  5
352
330
22
100
AcDbEntity
  8
0
  6
Continuous
 62
     7
100
AcDbLine
 10
-539.8881225585938
 20
311.6767272949219
 30
0.0
 11
-539.8881225585938
 21
343.0015869140625
 31
0.0
  0
LINE
  5
353
330
22
100
AcDbEntity
  8
0
  6
Continuous
 62
     7
100
AcDbLine
 10
-559.8881225585938
 20
311.6767272949219
 30
0.0
 11
-559.8881225585938
 21
343.0015869140625
 31
0.0
  0
LINE
  5
354
330
22
100
AcDbEntity
  8
0
  6
Continuous
 62
     7
100
AcDbLine
 10
-564.8881225585937
 20
311.6767272949219
 30
0.0
 11
-564.8881225585937
 21
343.0015869140625
 31
0.0
  0
LINE
  5
355
330
22
100
AcDbEntity
  8
0
  6
Continuous
 62
     7
100
AcDbLine
 10
-524.8881225585939
 20
248.6767425537109
 30
0.0
 11
-524.8881225585939
 21
258.6767272949219
 31
0.0
  0
LINE
  5
356
330
22
100
AcDbEntity
  8
0
  6
Continuous
 62
     7
100
AcDbLine
 10
-524.8881225585939
 20
311.6767272949219
 30
0.0
 11
-524.8881225585939
 21
343.0015869140625
 31
0.0
  0
LINE
  5
357
330
22
100
AcDbEntity
  8
0
  6
Continuous
 62
     7
100
AcDbLine
 10
-524.8881225585939
 20
354.0015869140625
 30
0.0
 11
-524.8881225585939
 21
363.6767272949219
 31
0.0
  0
LINE
  5
358
330
22
100
AcDbEntity
  8
0
  6
Continuous
 62
     7
100
AcDbLine
 10
-524.8881225585939
 20
269.676727294922
 30
0.0
 11
-524.8881225585939
 21
300.6767272949219
 31
0.0
  0
LINE
  5
359
330
22
100
AcDbEntity
  8
0
  6
DASHED
 62
     7
100
AcDbLine
 10
-447.8881225585937
 20
504.6767272949218
 30
0.0
 11
-561.8881225585938
 21
504.6767272949218
 31
0.0
  0
LINE
  5
35A
330
22
100
AcDbEntity
  8
0
  6
Continuous
 62
     7
100
AcDbLine
 10
-524.8881225585939
 20
476.6767272949218
 30
0.0
 11
-524.8881225585939
 21
445.6767272949218
 31
0.0
  0
LINE
  5
35B
330
22
100
AcDbEntity
  8
0
  6
Continuous
 62
     7
100
AcDbLine
 10
-524.8881225585939
 20
497.6767272949218
 30
0.0
 11
-524.8881225585939
 21
487.6767272949218
 31
0.0
  0
LINE
  5
35C
330
22
100
AcDbEntity
  8
0
  6
Continuous
 62
     7
100
AcDbLine
 10
-336.8881225585938
 20
434.6767272949218
 30
0.0
 11
-336.8881225585938
 21
403.3518676757813
 31
0.0
  0
LINE
  5
35D
330
22
100
AcDbEntity
  8
0
  6
Continuous
 62
     7
100
AcDbLine
 10
-341.8881225585938
 20
434.6767272949218
 30
0.0
 11
-341.8881225585938
 21
403.3518676757813
 31
0.0
  0
LINE
  5
35E
330
22
100
AcDbEntity
  8
0
  6
Continuous
 62
     7
100
AcDbLine
 10
-356.8881225585938
 20
434.6767272949218
 30
0.0
 11
-356.8881225585938
 21
403.3518676757813
 31
0.0
  0
LINE
  5
35F
330
22
100
AcDbEntity
  8
0
  6
Continuous
 62
     7
100
AcDbLine
 10
-376.8881225585938
 20
434.6767272949218
 30
0.0
 11
-376.8881225585938
 21
403.3518676757813
 31
0.0
  0
LINE
  5
360
330
22
100
AcDbEntity
  8
0
  6
Continuous
 62
     7
100
AcDbLine
 10
-321.8881225585938
 20
434.6767272949218
 30
0.0
 11
-321.8881225585938
 21
403.3518676757813
 31
0.0
  0
LINE
  5
361
330
22
100
AcDbEntity
  8
0
  6
Continuous
 62
     7
100
AcDbLine
 10
-381.8881225585938
 20
434.6767272949218
 30
0.0
 11
-381.8881225585938
 21
403.3518676757813
 31
0.0
  0
LINE
  5
362
330
22
100
AcDbEntity
  8
0
  6
Continuous
 62
     7
100
AcDbLine
 10
-361.8881225585938
 20
434.6767272949218
 30
0.0
 11
-361.8881225585938
 21
403.3518676757813
 31
0.0
  0
LINE
  5
363
330
22
100
AcDbEntity
  8
0
  6
Continuous
 62
     7
100
AcDbLine
 10
-316.8881225585938
 20
434.6767272949218
 30
0.0
 11
-316.8881225585938
 21
403.3518676757813
 31
0.0
  0
LINE
  5
364
330
22
100
AcDbEntity
  8
0
  6
DASHED
 62
     7
100
AcDbLine
 10
-309.3881225585938
 20
380.1767272949219
 30
0.0
 11
-309.3881225585938
 21
494.1767272949219
 31
0.0
  0
LINE
  5
365
330
22
100
AcDbEntity
  8
0
  6
Continuous
 62
     7
100
AcDbLine
 10
-306.3881225585938
 20
240.6767425537109
 30
0.0
 11
-306.3881225585938
 21
505.6767272949218
 31
0.0
  0
LINE
  5
366
330
22
100
AcDbEntity
  8
0
  6
Continuous
 62
     7
100
AcDbLine
 10
-524.8881225585939
 20
392.3518676757813
 30
0.0
 11
-524.8881225585939
 21
382.6767272949219
 31
0.0
  0
LINE
  5
367
330
22
100
AcDbEntity
  8
0
  6
DASHED
 62
     7
100
AcDbLine
 10
-447.8881225585937
 20
241.6767425537109
 30
0.0
 11
-561.8881225585938
 21
241.6767425537109
 31
0.0
  0
LINE
  5
368
330
22
100
AcDbEntity
  8
0
  6
DASHED
 62
     7
100
AcDbLine
 10
-564.3775024414062
 20
375.6767272949219
 30
0.0
 11
-445.3881225585938
 21
375.6767272949219
 31
0.0
  0
LINE
  5
369
330
22
100
AcDbEntity
  8
0
  6
DASHED
 62
     7
100
AcDbLine
 10
-564.2776489257812
 20
370.6767272949219
 30
0.0
 11
-445.3881225585938
 21
370.6767272949219
 31
0.0
  0
LINE
  5
36A
330
22
100
AcDbEntity
  8
0
  6
Continuous
 62
     7
100
AcDbLine
 10
-559.8881225585938
 20
434.6767272949218
 30
0.0
 11
-559.8881225585938
 21
403.3518676757813
 31
0.0
  0
LINE
  5
36B
330
22
100
AcDbEntity
  8
0
  6
Continuous
 62
     7
100
AcDbLine
 10
-524.8881225585939
 20
434.6767272949218
 30
0.0
 11
-524.8881225585939
 21
403.3518676757813
 31
0.0
  0
LINE
  5
36C
330
22
100
AcDbEntity
  8
0
  6
Continuous
 62
     7
100
AcDbLine
 10
-479.8881225585938
 20
434.6767272949218
 30
0.0
 11
-479.8881225585938
 21
403.3518676757813
 31
0.0
  0
LINE
  5
36D
330
22
100
AcDbEntity
  8
0
  6
Continuous
 62
     7
100
AcDbLine
 10
-499.8881225585938
 20
434.6767272949218
 30
0.0
 11
-499.8881225585938
 21
403.3518676757813
 31
0.0
  0
LINE
  5
36E
330
22
100
AcDbEntity
  8
0
  6
Continuous
 62
     7
100
AcDbLine
 10
-519.8881225585938
 20
434.6767272949218
 30
0.0
 11
-519.8881225585938
 21
403.3518676757813
 31
0.0
  0
LINE
  5
36F
330
22
100
AcDbEntity
  8
0
  6
Continuous
 62
     7
100
AcDbLine
 10
-504.8881225585938
 20
434.6767272949218
 30
0.0
 11
-504.8881225585938
 21
403.3518676757813
 31
0.0
  0
LINE
  5
370
330
22
100
AcDbEntity
  8
0
  6
Continuous
 62
     7
100
AcDbLine
 10
-484.8881225585937
 20
434.6767272949218
 30
0.0
 11
-484.8881225585937
 21
403.3518676757813
 31
0.0
  0
LINE
  5
371
330
22
100
AcDbEntity
  8
0
  6
Continuous
 62
     7
100
AcDbLine
 10
-459.8881225585937
 20
434.6767272949218
 30
0.0
 11
-459.8881225585937
 21
403.3518676757813
 31
0.0
  0
LINE
  5
372
330
22
100
AcDbEntity
  8
0
  6
Continuous
 62
     7
100
AcDbLine
 10
-421.8881225585938
 20
434.6767272949218
 30
0.0
 11
-421.8881225585938
 21
403.3518676757813
 31
0.0
  0
LINE
  5
373
330
22
100
AcDbEntity
  8
0
  6
DASHED
 62
     7
100
AcDbLine
 10
-572.3881225585937
 20
494.1767272949219
 30
0.0
 11
-572.3881225585937
 21
380.1767272949219
 31
0.0
  0
LINE
  5
374
330
22
100
AcDbEntity
  8
0
  6
Continuous
 62
     7
100
AcDbLine
 10
-575.3881225585937
 20
505.6767272949218
 30
0.0
 11
-575.3881225585937
 21
240.6767425537109
 31
0.0
  0
LINE
  5
375
330
22
100
AcDbEntity
  8
0
  6
DASHED
 62
     7
100
AcDbLine
 10
-438.3881225585938
 20
496.8466186523437
 30
0.0
 11
-438.3881225585938
 21
377.6767272949219
 31
0.0
  0
LINE
  5
376
330
22
100
AcDbEntity
  8
0
  6
DASHED
 62
     7
100
AcDbLine
 10
-443.3881225585937
 20
377.6767272949219
 30
0.0
 11
-443.3881225585937
 21
496.8466186523437
 31
0.0
  0
LINE
  5
377
330
22
100
AcDbEntity
  8
0
  6
Continuous
 62
     7
100
AcDbLine
 10
-351.8881225585938
 20
413.6767272949218
 30
0.0
 11
-351.8881225585938
 21
382.6767272949219
 31
0.0
  0
LINE
  5
378
330
22
100
AcDbEntity
  8
0
  6
Continuous
 62
     7
100
AcDbLine
 10
-346.8881225585938
 20
413.6767272949218
 30
0.0
 11
-346.8881225585938
 21
382.6767272949219
 31
0.0
  0
LINE
  5
379
330
22
100
AcDbEntity
  8
0
  6
Continuous
 62
     7
100
AcDbLine
 10
-366.8881225585938
 20
413.6767272949218
 30
0.0
 11
-366.8881225585938
 21
382.6767272949219
 31
0.0
  0
LINE
  5
37A
330
22
100
AcDbEntity
  8
0
  6
Continuous
 62
     7
100
AcDbLine
 10
-371.8881225585938
 20
413.6767272949218
 30
0.0
 11
-371.8881225585938
 21
382.6767272949219
 31
0.0
  0
LINE
  5
37B
330
22
100
AcDbEntity
  8
0
  6
Continuous
 62
     7
100
AcDbLine
 10
-386.8881225585938
 20
413.6767272949218
 30
0.0
 11
-386.8881225585938
 21
382.6767272949219
 31
0.0
  0
LINE
  5
37C
330
22
100
AcDbEntity
  8
0
  6
Continuous
 62
     7
100
AcDbLine
 10
-331.8881225585938
 20
413.6767272949218
 30
0.0
 11
-331.8881225585938
 21
382.6767272949219
 31
0.0
  0
LINE
  5
37D
330
22
100
AcDbEntity
  8
0
  6
Continuous
 62
     7
100
AcDbLine
 10
-326.8881225585938
 20
413.6767272949218
 30
0.0
 11
-326.8881225585938
 21
382.6767272949219
 31
0.0
  0
LINE
  5
37E
330
22
100
AcDbEntity
  8
0
  6
Continuous
 62
     7
100
AcDbLine
 10
-391.8881225585938
 20
413.6767272949218
 30
0.0
 11
-391.8881225585938
 21
382.6767272949219
 31
0.0
  0
LINE
  5
37F
330
22
100
AcDbEntity
  8
0
  6
Continuous
 62
     7
100
AcDbLine
 10
-416.8881225585938
 20
434.6767272949218
 30
0.0
 11
-416.8881225585938
 21
403.3518676757813
 31
0.0
  0
LINE
  5
380
330
22
100
AcDbEntity
  8
0
  6
Continuous
 62
     7
100
AcDbLine
 10
-549.8881225585939
 20
413.6767272949218
 30
0.0
 11
-549.8881225585939
 21
382.6767272949219
 31
0.0
  0
LINE
  5
381
330
22
100
AcDbEntity
  8
0
  6
Continuous
 62
     7
100
AcDbLine
 10
-554.8881225585938
 20
413.6767272949218
 30
0.0
 11
-554.8881225585938
 21
382.6767272949219
 31
0.0
  0
LINE
  5
382
330
22
100
AcDbEntity
  8
0
  6
Continuous
 62
     7
100
AcDbLine
 10
-509.8881225585937
 20
413.6767272949218
 30
0.0
 11
-509.8881225585937
 21
382.6767272949219
 31
0.0
  0
LINE
  5
383
330
22
100
AcDbEntity
  8
0
  6
Continuous
 62
     7
100
AcDbLine
 10
-514.8881225585938
 20
413.6767272949218
 30
0.0
 11
-514.8881225585938
 21
382.6767272949219
 31
0.0
  0
LINE
  5
384
330
22
100
AcDbEntity
  8
0
  6
Continuous
 62
     7
100
AcDbLine
 10
-489.8881225585937
 20
413.6767272949218
 30
0.0
 11
-489.8881225585937
 21
382.6767272949219
 31
0.0
  0
LINE
  5
385
330
22
100
AcDbEntity
  8
0
  6
Continuous
 62
     7
100
AcDbLine
 10
-494.8881225585938
 20
413.6767272949218
 30
0.0
 11
-494.8881225585938
 21
382.6767272949219
 31
0.0
  0
LINE
  5
386
330
22
100
AcDbEntity
  8
0
  6
Continuous
 62
     7
100
AcDbLine
 10
-474.8881225585938
 20
413.6767272949218
 30
0.0
 11
-474.8881225585938
 21
382.6767272949219
 31
0.0
  0
LINE
  5
387
330
22
100
AcDbEntity
  8
0
  6
Continuous
 62
     7
100
AcDbLine
 10
-469.8881225585938
 20
413.6767272949218
 30
0.0
 11
-469.8881225585938
 21
382.6767272949219
 31
0.0
  0
LINE
  5
388
330
22
100
AcDbEntity
  8
0
  6
Continuous
 62
     7
100
AcDbLine
 10
-529.8881225585938
 20
413.6767272949218
 30
0.0
 11
-529.8881225585938
 21
382.6767272949219
 31
0.0
  0
LINE
  5
389
330
22
100
AcDbEntity
  8
0
  6
Continuous
 62
     7
100
AcDbLine
 10
-534.8881225585938
 20
413.6767272949218
 30
0.0
 11
-534.8881225585938
 21
382.6767272949219
 31
0.0
  0
LINE
  5
38A
330
22
100
AcDbEntity
  8
0
  6
Continuous
 62
     7
100
AcDbLine
 10
-431.8881225585938
 20
413.6767272949218
 30
0.0
 11
-431.8881225585938
 21
382.6767272949219
 31
0.0
  0
LINE
  5
38B
330
22
100
AcDbEntity
  8
0
  6
Continuous
 62
     7
100
AcDbLine
 10
-426.8881225585937
 20
413.6767272949218
 30
0.0
 11
-426.8881225585937
 21
382.6767272949219
 31
0.0
  0
LINE
  5
38C
330
22
100
AcDbEntity
  8
0
  6
Continuous
 62
     7
100
AcDbLine
 10
-454.8881225585938
 20
413.6767272949218
 30
0.0
 11
-454.8881225585938
 21
382.6767272949219
 31
0.0
  0
LINE
  5
38D
330
22
100
AcDbEntity
  8
0
  6
Continuous
 62
     7
100
AcDbLine
 10
-449.8881225585938
 20
413.6767272949218
 30
0.0
 11
-449.8881225585938
 21
382.6767272949219
 31
0.0
  0
LINE
  5
38E
330
22
100
AcDbEntity
  8
0
  6
Continuous
 62
     7
100
AcDbLine
 10
-464.8881225585937
 20
434.6767272949218
 30
0.0
 11
-464.8881225585937
 21
403.3518676757813
 31
0.0
  0
LINE
  5
38F
330
22
100
AcDbEntity
  8
0
  6
Continuous
 62
     7
100
AcDbLine
 10
-539.8881225585938
 20
434.6767272949218
 30
0.0
 11
-539.8881225585938
 21
403.3518676757813
 31
0.0
  0
LINE
  5
390
330
22
100
AcDbEntity
  8
0
  6
Continuous
 62
     7
100
AcDbLine
 10
-544.8881225585938
 20
434.6767272949218
 30
0.0
 11
-544.8881225585938
 21
403.3518676757813
 31
0.0
  0
LINE
  5
391
330
22
100
AcDbEntity
  8
0
  6
Continuous
 62
     7
100
AcDbLine
 10
-564.8881225585937
 20
434.6767272949218
 30
0.0
 11
-564.8881225585937
 21
403.3518676757813
 31
0.0
  0
LINE
  5
392
330
22
100
AcDbEntity
  8
0
  6
Continuous
 62
     7
100
AcDbLine
 10
-396.8881225585938
 20
311.6767272949219
 30
0.0
 11
-396.8881225585938
 21
342.6767272949219
 31
0.0
  0
LINE
  5
393
330
22
100
AcDbEntity
  8
0
  6
Continuous
 62
     7
100
AcDbLine
 10
-396.8881225585938
 20
353.6767272949219
 30
0.0
 11
-396.8881225585938
 21
363.6767272949219
 31
0.0
  0
LINE
  5
394
330
22
100
AcDbEntity
  8
0
  6
Continuous
 62
     7
100
AcDbLine
 10
-401.8881225585937
 20
476.6767272949218
 30
0.0
 11
-401.8881225585937
 21
445.6767272949218
 31
0.0
  0
LINE
  5
395
330
22
100
AcDbEntity
  8
0
  6
Continuous
 62
     7
100
AcDbLine
 10
-401.8881225585937
 20
434.6767272949218
 30
0.0
 11
-401.8881225585937
 21
403.3518676757813
 31
0.0
  0
LINE
  5
396
330
22
100
AcDbEntity
  8
0
  6
Continuous
 62
     7
100
AcDbLine
 10
-401.8881225585937
 20
497.6767272949218
 30
0.0
 11
-401.8881225585937
 21
487.6767272949218
 31
0.0
  0
LINE
  5
397
330
22
100
AcDbEntity
  8
0
  6
Continuous
 62
     7
100
AcDbLine
 10
-396.8881225585938
 20
476.6767272949218
 30
0.0
 11
-396.8881225585938
 21
445.6767272949218
 31
0.0
  0
LINE
  5
398
330
22
100
AcDbEntity
  8
0
  6
Continuous
 62
     7
100
AcDbLine
 10
-396.8881225585938
 20
497.6767272949218
 30
0.0
 11
-396.8881225585938
 21
487.6767272949218
 31
0.0
  0
LINE
  5
399
330
22
100
AcDbEntity
  8
0
  6
Continuous
 62
     7
100
AcDbLine
 10
-396.8881225585938
 20
434.6767272949218
 30
0.0
 11
-396.8881225585938
 21
403.3518676757813
 31
0.0
  0
LINE
  5
39A
330
22
100
AcDbEntity
  8
0
  6
Continuous
 62
     7
100
AcDbLine
 10
-411.8881225585938
 20
413.6767272949218
 30
0.0
 11
-411.8881225585938
 21
382.6767272949219
 31
0.0
  0
LINE
  5
39B
330
22
100
AcDbEntity
  8
0
  6
Continuous
 62
     7
100
AcDbLine
 10
-406.8881225585938
 20
413.6767272949218
 30
0.0
 11
-406.8881225585938
 21
382.6767272949219
 31
0.0
  0
LINE
  5
39C
330
22
100
AcDbEntity
  8
0
  6
CENTER
 62
     7
100
AcDbLine
 10
-602.2779541015625
 20
373.1767272949219
 30
0.0
 11
-280.7572021484375
 21
373.1767272949219
 31
0.0
  0
LINE
  5
39D
330
22
100
AcDbEntity
  8
0
  6
Continuous
 62
     7
100
AcDbLine
 10
-295.8881225585938
 20
523.1767578124999
 30
0.0
 11
-585.8881225585937
 21
523.1767578124999
 31
0.0
  0
LINE
  5
39E
330
22
100
AcDbEntity
  8
0
  6
Continuous
 62
     7
100
AcDbLine
 10
-306.3881225585938
 20
508.6767272949218
 30
0.0
 11
-575.3881225585937
 21
508.6767272949218
 31
0.0
  0
LINE
  5
39F
330
22
100
AcDbEntity
  8
0
  6
DASHED
 62
     7
100
AcDbLine
 10
-436.3881225585938
 20
375.6767272949219
 30
0.0
 11
-317.118408203125
 21
375.6767272949219
 31
0.0
  0
LINE
  5
3A0
330
22
100
AcDbEntity
  8
0
  6
DASHED
 62
     7
100
AcDbLine
 10
-319.8881225585938
 20
241.6767425537109
 30
0.0
 11
-433.8881225585938
 21
241.6767425537109
 31
0.0
  0
LINE
  5
3A1
330
22
100
AcDbEntity
  8
0
  6
DASHED
 62
     7
100
AcDbLine
 10
-436.3881225585938
 20
370.6767272949219
 30
0.0
 11
-317.2182312011719
 21
370.6767272949219
 31
0.0
  0
LINE
  5
3A2
330
22
100
AcDbEntity
  8
0
  6
DASHED
 62
     7
100
AcDbLine
 10
-319.8881225585938
 20
504.6767272949218
 30
0.0
 11
-433.8881225585938
 21
504.6767272949218
 31
0.0
  0
LINE
  5
3A3
330
22
100
AcDbEntity
  8
0
  6
Continuous
 62
     7
100
AcDbLine
 10
-396.8881225585938
 20
392.3518676757813
 30
0.0
 11
-396.8881225585938
 21
382.6767272949219
 31
0.0
  0
LINE
  5
3A4
330
22
100
AcDbEntity
  8
0
  6
Continuous
 62
     7
100
AcDbLine
 10
-401.8881225585937
 20
392.3518676757813
 30
0.0
 11
-401.8881225585937
 21
382.6767272949219
 31
0.0
  0
LINE
  5
3A5
330
22
100
AcDbEntity
  8
0
  6
Continuous
 62
     7
100
AcDbLine
 10
-401.8881225585937
 20
353.6767272949219
 30
0.0
 11
-401.8881225585937
 21
363.6767272949219
 31
0.0
  0
LINE
  5
3A6
330
22
100
AcDbEntity
  8
0
  6
Continuous
 62
     7
100
AcDbLine
 10
-401.8881225585937
 20
311.6767272949219
 30
0.0
 11
-401.8881225585937
 21
342.6767272949219
 31
0.0
  0
LINE
  5
3A7
330
22
100
AcDbEntity
  8
0
  6
Continuous
 62
     7
100
AcDbLine
 10
-401.8881225585937
 20
248.6767425537109
 30
0.0
 11
-401.8881225585937
 21
258.6767272949219
 31
0.0
  0
LINE
  5
3A8
330
22
100
AcDbEntity
  8
0
  6
Continuous
 62
     7
100
AcDbLine
 10
-401.8881225585937
 20
269.676727294922
 30
0.0
 11
-401.8881225585937
 21
300.6767272949219
 31
0.0
  0
LINE
  5
3A9
330
22
100
AcDbEntity
  8
0
  6
Continuous
 62
     7
100
AcDbLine
 10
-396.8881225585938
 20
269.676727294922
 30
0.0
 11
-396.8881225585938
 21
300.6767272949219
 31
0.0
  0
LINE
  5
3AA
330
22
100
AcDbEntity
  8
0
  6
Continuous
 62
     7
100
AcDbLine
 10
-396.8881225585938
 20
248.6767425537109
 30
0.0
 11
-396.8881225585938
 21
258.6767272949219
 31
0.0
  0
LINE
  5
3AB
330
22
100
AcDbEntity
  8
0
  6
Continuous
 62
     7
100
AcDbLine
 10
-308.3881225585938
 20
507.6767272949219
 30
0.0
 11
-573.3881225585937
 21
507.6767272949219
 31
0.0
  0
LINE
  5
3AC
330
22
100
AcDbEntity
  8
0
  6
Continuous
 62
     7
100
AcDbLine
 10
-585.8881225585937
 20
223.1767425537109
 30
0.0
 11
-295.8881225585938
 21
223.1767425537109
 31
0.0
  0
LINE
  5
3AD
330
22
100
AcDbEntity
  8
0
  6
CENTER
 62
     7
100
AcDbLine
 10
-312.8881225585938
 20
239.4626770019531
 30
0.0
 11
-312.8881225585938
 21
250.8397521972656
 31
0.0
  0
LINE
  5
3AE
330
22
100
AcDbEntity
  8
0
  6
CENTER
 62
     7
100
AcDbLine
 10
-568.8881225585937
 20
239.4626770019531
 30
0.0
 11
-568.8881225585937
 21
250.8397521972656
 31
0.0
  0
LINE
  5
3AF
330
22
100
AcDbEntity
  8
0
  6
Continuous
 62
     7
100
AcDbLine
 10
-575.3881225585937
 20
237.6767425537109
 30
0.0
 11
-306.3881225585938
 21
237.6767425537109
 31
0.0
  0
LINE
  5
3B0
330
22
100
AcDbEntity
  8
0
  6
Continuous
 62
     7
100
AcDbLine
 10
-308.3881225585938
 20
238.6767425537109
 30
0.0
 11
-573.3881225585937
 21
238.6767425537109
 31
0.0
  0
LINE
  5
3B1
330
22
100
AcDbEntity
  8
0
  6
CENTER
 62
     7
100
AcDbLine
 10
-440.8881225585938
 20
531.2326049804688
 30
0.0
 11
-440.8881225585938
 21
213.4418792724609
 31
0.0
  0
LINE
  5
3B2
330
22
100
AcDbEntity
  8
0
  6
Continuous
 62
     7
100
AcDbLine
 10
-590.8881225585937
 20
518.1767578125
 30
0.0
 11
-590.8881225585937
 21
228.1767425537109
 31
0.0
  0
LINE
  5
3B3
330
22
100
AcDbEntity
  8
0
  6
Continuous
 62
     7
100
AcDbLine
 10
-576.3881225585937
 20
507.6767272949219
 30
0.0
 11
-576.3881225585937
 21
238.6767425537109
 31
0.0
  0
LINE
  5
3B4
330
22
100
AcDbEntity
  8
0
  6
Continuous
 62
     7
100
AcDbLine
 10
-290.8881225585938
 20
228.1767425537109
 30
0.0
 11
-290.8881225585938
 21
518.1767578125
 31
0.0
  0
LINE
  5
3B5
330
22
100
AcDbEntity
  8
0
  6
Continuous
 62
     7
100
AcDbLine
 10
-305.3881225585938
 20
238.6767425537109
 30
0.0
 11
-305.3881225585938
 21
507.6767272949219
 31
0.0
  0
ARC
  5
3B6
330
22
100
AcDbEntity
  8
0
  6
Continuous
 62
     7
100
AcDbCircle
 10
-291.8881225585938
 20
148.5848388671875
 30
0.0
 40
1.0
100
AcDbArc
 50
270.0000000000005
 51
0.0
  0
ARC
  5
3B7
330
22
100
AcDbEntity
  8
0
  6
Continuous
 62
     7
100
AcDbCircle
 10
-291.8881225585938
 20
150.5848388671875
 30
0.0
 40
1.0
100
AcDbArc
 50
0.0
 51
90.00000000000019
  0
ARC
  5
3B8
330
22
100
AcDbEntity
  8
0
  6
Continuous
 62
     7
100
AcDbCircle
 10
-299.8881225585938
 20
146.5848388671875
 30
0.0
 40
1.0
100
AcDbArc
 50
90.00000000000019
 51
180.0000000000004
  0
ARC
  5
3B9
330
22
100
AcDbEntity
  8
0
  6
Continuous
 62
     7
100
AcDbCircle
 10
-385.3883972167969
 20
72.01734924316406
 30
0.0
 40
5.0
100
AcDbArc
 50
120.004051807873
 51
180.0000000000004
  0
ARC
  5
3BA
330
22
100
AcDbEntity
  8
0
  6
Continuous
 62
     7
100
AcDbCircle
 10
-305.8881225585938
 20
129.4715881347656
 30
0.0
 40
5.0
100
AcDbArc
 50
300.0000178622848
 51
0.0
  0
ARC
  5
3BB
330
22
100
AcDbEntity
  8
0
  6
Continuous
 62
     7
100
AcDbCircle
 10
-306.8881225585938
 20
145.0848388671875
 30
0.0
 40
1.0
100
AcDbArc
 50
270.0000000000005
 51
0.0
  0
ARC
  5
3BC
330
22
100
AcDbEntity
  8
0
  6
Continuous
 62
     7
100
AcDbCircle
 10
-589.8881225585937
 20
148.5848388671875
 30
0.0
 40
1.0
100
AcDbArc
 50
180.0000000000004
 51
270.0000000000005
  0
ARC
  5
3BD
330
22
100
AcDbEntity
  8
0
  6
Continuous
 62
     7
100
AcDbCircle
 10
-589.8881225585937
 20
150.5848388671875
 30
0.0
 40
1.0
100
AcDbArc
 50
90.00000000000019
 51
180.0000000000004
  0
ARC
  5
3BE
330
22
100
AcDbEntity
  8
0
  6
Continuous
 62
     7
100
AcDbCircle
 10
-575.8881225585937
 20
129.4715881347656
 30
0.0
 40
5.0
100
AcDbArc
 50
180.0000000000004
 51
239.9999821377166
  0
ARC
  5
3BF
330
22
100
AcDbEntity
  8
0
  6
Continuous
 62
     7
100
AcDbCircle
 10
-466.7156372070313
 20
38.07515335083008
 30
0.0
 40
9.522980690002439
100
AcDbArc
 50
63.32864237986896
 51
93.0278771188046
  0
ARC
  5
3C0
330
22
100
AcDbEntity
  8
0
  6
Continuous
 62
     7
100
AcDbCircle
 10
-466.5432434082031
 20
46.01583862304688
 30
0.0
 40
1.708203315734863
100
AcDbArc
 50
113.2906589445077
 51
160.5431017157958
  0
ARC
  5
3C1
330
22
100
AcDbEntity
  8
0
  6
Continuous
 62
     7
100
AcDbCircle
 10
-493.3883972167969
 20
70.29335021972656
 30
0.0
 40
5.0
100
AcDbArc
 50
0.0
 51
59.99998213771593
  0
ARC
  5
3C2
330
22
100
AcDbEntity
  8
0
  6
Continuous
 62
     7
100
AcDbCircle
 10
-320.8881225585938
 20
123.120735168457
 30
0.0
 40
3.0
100
AcDbArc
 50
300.0000032912053
 51
0.0
  0
ARC
  5
3C3
330
22
100
AcDbEntity
  8
0
  6
Continuous
 62
     7
100
AcDbCircle
 10
-399.3200073242188
 20
72.83997344970703
 30
0.0
 40
0.5
100
AcDbArc
 50
180.0000000000004
 51
270.0000000000005
  0
ARC
  5
3C4
330
22
100
AcDbEntity
  8
0
  6
Continuous
 62
     7
100
AcDbCircle
 10
-398.8200073242188
 20
73.54425811767578
 30
0.0
 40
1.0
100
AcDbArc
 50
119.9999304359993
 51
180.0000000000004
  0
ARC
  5
3C5
330
22
100
AcDbEntity
  8
0
  6
DASHED
 62
     7
100
AcDbCircle
 10
-312.8881225585938
 20
501.1767272949218
 30
0.0
 40
5.0
100
AcDbArc
 50
180.0000000000004
 51
270.0000000000005
  0
ARC
  5
3C6
330
22
100
AcDbEntity
  8
0
  6
DASHED
 62
     7
100
AcDbCircle
 10
-311.3881225585938
 20
494.1767272949219
 30
0.0
 40
2.0
100
AcDbArc
 50
0.0
 51
90.00000000000019
  0
ARC
  5
3C7
330
22
100
AcDbEntity
  8
0
  6
Continuous
 62
     7
100
AcDbCircle
 10
-308.3881225585938
 20
505.6767272949218
 30
0.0
 40
2.0
100
AcDbArc
 50
0.0
 51
90.00000000000019
  0
ARC
  5
3C8
330
22
100
AcDbEntity
  8
0
  6
Continuous
 62
     7
100
AcDbCircle
 10
-295.8881225585938
 20
518.1767578125
 30
0.0
 40
5.0
100
AcDbArc
 50
0.0
 51
90.00000000000019
  0
ARC
  5
3C9
330
22
100
AcDbEntity
  8
0
  6
Continuous
 62
     7
100
AcDbCircle
 10
-349.3881225585938
 20
497.6767272949218
 30
0.0
 40
2.5
100
AcDbArc
 50
0.0
 51
180.0000000000004
  0
ARC
  5
3CA
330
22
100
AcDbEntity
  8
0
  6
Continuous
 62
     7
100
AcDbCircle
 10
-389.3881225585938
 20
497.6767272949218
 30
0.0
 40
2.5
100
AcDbArc
 50
0.0
 51
180.0000000000004
  0
ARC
  5
3CB
330
22
100
AcDbEntity
  8
0
  6
Continuous
 62
     7
100
AcDbCircle
 10
-329.3881225585938
 20
497.6767272949218
 30
0.0
 40
2.5
100
AcDbArc
 50
0.0
 51
180.0000000000004
  0
ARC
  5
3CC
330
22
100
AcDbEntity
  8
0
  6
Continuous
 62
     7
100
AcDbCircle
 10
-319.3881225585938
 20
492.6767272949218
 30
0.0
 40
2.5
100
AcDbArc
 50
0.0
 51
180.0000000000004
  0
CIRCLE
  5
3CD
330
22
100
AcDbEntity
  8
0
  6
Continuous
 62
     7
100
AcDbCircle
 10
-312.8881225585938
 20
501.1767272949218
 30
0.0
 40
4.75
  0
CIRCLE
  5
3CE
330
22
100
AcDbEntity
  8
0
  6
Continuous
 62
     7
100
AcDbCircle
 10
-312.8881225585938
 20
501.1767272949218
 30
0.0
 40
4.5
  0
ARC
  5
3CF
330
22
100
AcDbEntity
  8
0
  6
Continuous
 62
     7
100
AcDbCircle
 10
-379.3881225585938
 20
497.6767272949218
 30
0.0
 40
2.5
100
AcDbArc
 50
0.0
 51
180.0000000000004
  0
ARC
  5
3D0
330
22
100
AcDbEntity
  8
0
  6
Continuous
 62
     7
100
AcDbCircle
 10
-306.3881225585938
 20
507.6767272949219
 30
0.0
 40
1.0
100
AcDbArc
 50
0.0
 51
90.00000000000019
  0
ARC
  5
3D1
330
22
100
AcDbEntity
  8
0
  6
DASHED
 62
     7
100
AcDbCircle
 10
-319.8881225585938
 20
502.6767272949219
 30
0.0
 40
2.0
100
AcDbArc
 50
0.0
 51
90.00000000000019
  0
ARC
  5
3D2
330
22
100
AcDbEntity
  8
0
  6
Continuous
 62
     7
100
AcDbCircle
 10
-359.3881225585938
 20
445.6767272949218
 30
0.0
 40
2.5
100
AcDbArc
 50
180.0000000000004
 51
0.0
  0
ARC
  5
3D3
330
22
100
AcDbEntity
  8
0
  6
Continuous
 62
     7
100
AcDbCircle
 10
-359.3881225585938
 20
434.6767272949218
 30
0.0
 40
2.5
100
AcDbArc
 50
0.0
 51
180.0000000000004
  0
ARC
  5
3D4
330
22
100
AcDbEntity
  8
0
  6
Continuous
 62
     7
100
AcDbCircle
 10
-369.3881225585938
 20
455.6767272949218
 30
0.0
 40
2.5
100
AcDbArc
 50
0.0
 51
180.0000000000004
  0
ARC
  5
3D5
330
22
100
AcDbEntity
  8
0
  6
Continuous
 62
     7
100
AcDbCircle
 10
-349.3881225585938
 20
455.6767272949218
 30
0.0
 40
2.5
100
AcDbArc
 50
0.0
 51
180.0000000000004
  0
ARC
  5
3D6
330
22
100
AcDbEntity
  8
0
  6
Continuous
 62
     7
100
AcDbCircle
 10
-319.3881225585938
 20
434.6767272949218
 30
0.0
 40
2.5
100
AcDbArc
 50
0.0
 51
180.0000000000004
  0
ARC
  5
3D7
330
22
100
AcDbEntity
  8
0
  6
Continuous
 62
     7
100
AcDbCircle
 10
-319.3881225585938
 20
445.6767272949218
 30
0.0
 40
2.5
100
AcDbArc
 50
180.0000000000004
 51
0.0
  0
ARC
  5
3D8
330
22
100
AcDbEntity
  8
0
  6
Continuous
 62
     7
100
AcDbCircle
 10
-319.3881225585938
 20
476.6767272949218
 30
0.0
 40
2.5
100
AcDbArc
 50
0.0
 51
180.0000000000004
  0
ARC
  5
3D9
330
22
100
AcDbEntity
  8
0
  6
Continuous
 62
     7
100
AcDbCircle
 10
-369.3881225585938
 20
466.6767272949218
 30
0.0
 40
2.5
100
AcDbArc
 50
180.0000000000004
 51
0.0
  0
ARC
  5
3DA
330
22
100
AcDbEntity
  8
0
  6
Continuous
 62
     7
100
AcDbCircle
 10
-349.3881225585938
 20
466.6767272949218
 30
0.0
 40
2.5
100
AcDbArc
 50
180.0000000000004
 51
0.0
  0
ARC
  5
3DB
330
22
100
AcDbEntity
  8
0
  6
Continuous
 62
     7
100
AcDbCircle
 10
-329.3881225585938
 20
466.6767272949218
 30
0.0
 40
2.5
100
AcDbArc
 50
180.0000000000004
 51
0.0
  0
ARC
  5
3DC
330
22
100
AcDbEntity
  8
0
  6
Continuous
 62
     7
100
AcDbCircle
 10
-329.3881225585938
 20
455.6767272949218
 30
0.0
 40
2.5
100
AcDbArc
 50
0.0
 51
180.0000000000004
  0
ARC
  5
3DD
330
22
100
AcDbEntity
  8
0
  6
Continuous
 62
     7
100
AcDbCircle
 10
-339.3881225585938
 20
497.6767272949218
 30
0.0
 40
2.5
100
AcDbArc
 50
0.0
 51
180.0000000000004
  0
ARC
  5
3DE
330
22
100
AcDbEntity
  8
0
  6
Continuous
 62
     7
100
AcDbCircle
 10
-359.3881225585938
 20
497.6767272949218
 30
0.0
 40
2.5
100
AcDbArc
 50
0.0
 51
180.0000000000004
  0
ARC
  5
3DF
330
22
100
AcDbEntity
  8
0
  6
Continuous
 62
     7
100
AcDbCircle
 10
-369.3881225585938
 20
497.6767272949218
 30
0.0
 40
2.5
100
AcDbArc
 50
0.0
 51
180.0000000000004
  0
ARC
  5
3E0
330
22
100
AcDbEntity
  8
0
  6
Continuous
 62
     7
100
AcDbCircle
 10
-389.3881225585938
 20
332.6767272949219
 30
0.0
 40
2.5
100
AcDbArc
 50
180.0000000000004
 51
0.0
  0
ARC
  5
3E1
330
22
100
AcDbEntity
  8
0
  6
Continuous
 62
     7
100
AcDbCircle
 10
-389.3881225585938
 20
363.6767272949219
 30
0.0
 40
2.5
100
AcDbArc
 50
0.0
 51
180.0000000000004
  0
ARC
  5
3E2
330
22
100
AcDbEntity
  8
0
  6
Continuous
 62
     7
100
AcDbCircle
 10
-369.3881225585938
 20
413.6767272949218
 30
0.0
 40
2.5
100
AcDbArc
 50
0.0
 51
180.0000000000004
  0
ARC
  5
3E3
330
22
100
AcDbEntity
  8
0
  6
Continuous
 62
     7
100
AcDbCircle
 10
-369.3881225585938
 20
424.6767272949218
 30
0.0
 40
2.5
100
AcDbArc
 50
180.0000000000004
 51
0.0
  0
ARC
  5
3E4
330
22
100
AcDbEntity
  8
0
  6
Continuous
 62
     7
100
AcDbCircle
 10
-349.3881225585938
 20
424.6767272949218
 30
0.0
 40
2.5
100
AcDbArc
 50
180.0000000000004
 51
0.0
  0
ARC
  5
3E5
330
22
100
AcDbEntity
  8
0
  6
Continuous
 62
     7
100
AcDbCircle
 10
-349.3881225585938
 20
413.6767272949218
 30
0.0
 40
2.5
100
AcDbArc
 50
0.0
 51
180.0000000000004
  0
ARC
  5
3E6
330
22
100
AcDbEntity
  8
0
  6
Continuous
 62
     7
100
AcDbCircle
 10
-329.3881225585938
 20
413.6767272949218
 30
0.0
 40
2.5
100
AcDbArc
 50
0.0
 51
180.0000000000004
  0
ARC
  5
3E7
330
22
100
AcDbEntity
  8
0
  6
Continuous
 62
     7
100
AcDbCircle
 10
-329.3881225585938
 20
424.6767272949218
 30
0.0
 40
2.5
100
AcDbArc
 50
180.0000000000004
 51
0.0
  0
ARC
  5
3E8
330
22
100
AcDbEntity
  8
0
  6
Continuous
 62
     7
100
AcDbCircle
 10
-389.3881225585938
 20
413.6767272949218
 30
0.0
 40
2.5
100
AcDbArc
 50
0.0
 51
180.0000000000004
  0
ARC
  5
3E9
330
22
100
AcDbEntity
  8
0
  6
Continuous
 62
     7
100
AcDbCircle
 10
-389.3881225585938
 20
424.6767272949218
 30
0.0
 40
2.5
100
AcDbArc
 50
180.0000000000004
 51
0.0
  0
ARC
  5
3EA
330
22
100
AcDbEntity
  8
0
  6
Continuous
 62
     7
100
AcDbCircle
 10
-339.3881225585938
 20
434.6767272949218
 30
0.0
 40
2.5
100
AcDbArc
 50
0.0
 51
180.0000000000004
  0
ARC
  5
3EB
330
22
100
AcDbEntity
  8
0
  6
Continuous
 62
     7
100
AcDbCircle
 10
-339.3881225585938
 20
445.6767272949218
 30
0.0
 40
2.5
100
AcDbArc
 50
180.0000000000004
 51
0.0
  0
ARC
  5
3EC
330
22
100
AcDbEntity
  8
0
  6
Continuous
 62
     7
100
AcDbCircle
 10
-339.3881225585938
 20
476.6767272949218
 30
0.0
 40
2.5
100
AcDbArc
 50
0.0
 51
180.0000000000004
  0
ARC
  5
3ED
330
22
100
AcDbEntity
  8
0
  6
Continuous
 62
     7
100
AcDbCircle
 10
-359.3881225585938
 20
476.6767272949218
 30
0.0
 40
2.5
100
AcDbArc
 50
0.0
 51
180.0000000000004
  0
ARC
  5
3EE
330
22
100
AcDbEntity
  8
0
  6
Continuous
 62
     7
100
AcDbCircle
 10
-379.3881225585938
 20
476.6767272949218
 30
0.0
 40
2.5
100
AcDbArc
 50
0.0
 51
180.0000000000004
  0
ARC
  5
3EF
330
22
100
AcDbEntity
  8
0
  6
Continuous
 62
     7
100
AcDbCircle
 10
-379.3881225585938
 20
434.6767272949218
 30
0.0
 40
2.5
100
AcDbArc
 50
0.0
 51
180.0000000000004
  0
ARC
  5
3F0
330
22
100
AcDbEntity
  8
0
  6
Continuous
 62
     7
100
AcDbCircle
 10
-389.3881225585938
 20
466.6767272949218
 30
0.0
 40
2.5
100
AcDbArc
 50
180.0000000000004
 51
0.0
  0
ARC
  5
3F1
330
22
100
AcDbEntity
  8
0
  6
Continuous
 62
     7
100
AcDbCircle
 10
-389.3881225585938
 20
455.6767272949218
 30
0.0
 40
2.5
100
AcDbArc
 50
0.0
 51
180.0000000000004
  0
ARC
  5
3F2
330
22
100
AcDbEntity
  8
0
  6
Continuous
 62
     7
100
AcDbCircle
 10
-379.3881225585938
 20
445.6767272949218
 30
0.0
 40
2.5
100
AcDbArc
 50
180.0000000000004
 51
0.0
  0
ARC
  5
3F3
330
22
100
AcDbEntity
  8
0
  6
DASHED
 62
     7
100
AcDbCircle
 10
-311.3881225585938
 20
366.1767272949219
 30
0.0
 40
2.0
100
AcDbArc
 50
0.0
 51
90.00000000000019
  0
ARC
  5
3F4
330
22
100
AcDbEntity
  8
0
  6
DASHED
 62
     7
100
AcDbCircle
 10
-312.8881225585938
 20
373.1767272949219
 30
0.0
 40
5.0
100
AcDbArc
 50
210.0001052890316
 51
270.0000000000005
  0
ARC
  5
3F5
330
22
100
AcDbEntity
  8
0
  6
Continuous
 62
     7
100
AcDbCircle
 10
-349.3881225585938
 20
363.6767272949219
 30
0.0
 40
2.5
100
AcDbArc
 50
0.0
 51
180.0000000000004
  0
ARC
  5
3F6
330
22
100
AcDbEntity
  8
0
  6
Continuous
 62
     7
100
AcDbCircle
 10
-369.3881225585938
 20
363.6767272949219
 30
0.0
 40
2.5
100
AcDbArc
 50
0.0
 51
180.0000000000004
  0
ARC
  5
3F7
330
22
100
AcDbEntity
  8
0
  6
Continuous
 62
     7
100
AcDbCircle
 10
-359.3881225585938
 20
363.6767272949219
 30
0.0
 40
2.5
100
AcDbArc
 50
0.0
 51
180.0000000000004
  0
CIRCLE
  5
3F8
330
22
100
AcDbEntity
  8
0
  6
Continuous
 62
     7
100
AcDbCircle
 10
-312.8881225585938
 20
373.1767272949219
 30
0.0
 40
4.5
  0
CIRCLE
  5
3F9
330
22
100
AcDbEntity
  8
0
  6
Continuous
 62
     7
100
AcDbCircle
 10
-312.8881225585938
 20
373.1767272949219
 30
0.0
 40
4.75
  0
ARC
  5
3FA
330
22
100
AcDbEntity
  8
0
  6
DASHED
 62
     7
100
AcDbCircle
 10
-312.8881225585938
 20
373.1767272949219
 30
0.0
 40
5.0
100
AcDbArc
 50
90.00000000000019
 51
149.9998947109691
  0
ARC
  5
3FB
330
22
100
AcDbEntity
  8
0
  6
Continuous
 62
     7
100
AcDbCircle
 10
-319.3881225585938
 20
363.6767272949219
 30
0.0
 40
2.5
100
AcDbArc
 50
0.0
 51
180.0000000000004
  0
ARC
  5
3FC
330
22
100
AcDbEntity
  8
0
  6
Continuous
 62
     7
100
AcDbCircle
 10
-319.3881225585938
 20
342.6767272949219
 30
0.0
 40
2.5
100
AcDbArc
 50
0.0
 51
180.0000000000004
  0
ARC
  5
3FD
330
22
100
AcDbEntity
  8
0
  6
Continuous
 62
     7
100
AcDbCircle
 10
-319.3881225585938
 20
353.6767272949219
 30
0.0
 40
2.5
100
AcDbArc
 50
180.0000000000004
 51
0.0
  0
ARC
  5
3FE
330
22
100
AcDbEntity
  8
0
  6
Continuous
 62
     7
100
AcDbCircle
 10
-389.3881225585938
 20
382.6767272949219
 30
0.0
 40
2.5
100
AcDbArc
 50
180.0000000000004
 51
0.0
  0
ARC
  5
3FF
330
22
100
AcDbEntity
  8
0
  6
Continuous
 62
     7
100
AcDbCircle
 10
-339.3881225585938
 20
353.6767272949219
 30
0.0
 40
2.5
100
AcDbArc
 50
180.0000000000004
 51
0.0
  0
ARC
  5
400
330
22
100
AcDbEntity
  8
0
  6
DASHED
 62
     7
100
AcDbCircle
 10
-311.3881225585938
 20
380.1767272949219
 30
0.0
 40
2.0
100
AcDbArc
 50
270.0000000000005
 51
0.0
  0
ARC
  5
401
330
22
100
AcDbEntity
  8
0
  6
Continuous
 62
     7
100
AcDbCircle
 10
-339.3881225585938
 20
342.6767272949219
 30
0.0
 40
2.5
100
AcDbArc
 50
0.0
 51
180.0000000000004
  0
ARC
  5
402
330
22
100
AcDbEntity
  8
0
  6
Continuous
 62
     7
100
AcDbCircle
 10
-339.3881225585938
 20
363.6767272949219
 30
0.0
 40
2.5
100
AcDbArc
 50
0.0
 51
180.0000000000004
  0
ARC
  5
403
330
22
100
AcDbEntity
  8
0
  6
Continuous
 62
     7
100
AcDbCircle
 10
-379.3881225585938
 20
353.6767272949219
 30
0.0
 40
2.5
100
AcDbArc
 50
180.0000000000004
 51
0.0
  0
ARC
  5
404
330
22
100
AcDbEntity
  8
0
  6
Continuous
 62
     7
100
AcDbCircle
 10
-349.3881225585938
 20
332.6767272949219
 30
0.0
 40
2.5
100
AcDbArc
 50
180.0000000000004
 51
0.0
  0
ARC
  5
405
330
22
100
AcDbEntity
  8
0
  6
Continuous
 62
     7
100
AcDbCircle
 10
-329.3881225585938
 20
363.6767272949219
 30
0.0
 40
2.5
100
AcDbArc
 50
0.0
 51
180.0000000000004
  0
ARC
  5
406
330
22
100
AcDbEntity
  8
0
  6
Continuous
 62
     7
100
AcDbCircle
 10
-329.3881225585938
 20
332.6767272949219
 30
0.0
 40
2.5
100
AcDbArc
 50
180.0000000000004
 51
0.0
  0
ARC
  5
407
330
22
100
AcDbEntity
  8
0
  6
Continuous
 62
     7
100
AcDbCircle
 10
-359.3881225585938
 20
353.6767272949219
 30
0.0
 40
2.5
100
AcDbArc
 50
180.0000000000004
 51
0.0
  0
ARC
  5
408
330
22
100
AcDbEntity
  8
0
  6
Continuous
 62
     7
100
AcDbCircle
 10
-379.3881225585938
 20
342.6767272949219
 30
0.0
 40
2.5
100
AcDbArc
 50
0.0
 51
180.0000000000004
  0
ARC
  5
409
330
22
100
AcDbEntity
  8
0
  6
Continuous
 62
     7
100
AcDbCircle
 10
-379.3881225585938
 20
363.6767272949219
 30
0.0
 40
2.5
100
AcDbArc
 50
0.0
 51
180.0000000000004
  0
ARC
  5
40A
330
22
100
AcDbEntity
  8
0
  6
Continuous
 62
     7
100
AcDbCircle
 10
-369.3881225585938
 20
332.6767272949219
 30
0.0
 40
2.5
100
AcDbArc
 50
180.0000000000004
 51
0.0
  0
ARC
  5
40B
330
22
100
AcDbEntity
  8
0
  6
Continuous
 62
     7
100
AcDbCircle
 10
-359.3881225585938
 20
342.6767272949219
 30
0.0
 40
2.5
100
AcDbArc
 50
0.0
 51
180.0000000000004
  0
ARC
  5
40C
330
22
100
AcDbEntity
  8
0
  6
Continuous
 62
     7
100
AcDbCircle
 10
-389.3881225585938
 20
290.6767272949219
 30
0.0
 40
2.5
100
AcDbArc
 50
180.0000000000004
 51
0.0
  0
ARC
  5
40D
330
22
100
AcDbEntity
  8
0
  6
Continuous
 62
     7
100
AcDbCircle
 10
-389.3881225585938
 20
279.6767272949219
 30
0.0
 40
2.5
100
AcDbArc
 50
0.0
 51
180.0000000000004
  0
ARC
  5
40E
330
22
100
AcDbEntity
  8
0
  6
Continuous
 62
     7
100
AcDbCircle
 10
-389.3881225585938
 20
248.6767425537109
 30
0.0
 40
2.5
100
AcDbArc
 50
180.0000000000004
 51
0.0
  0
ARC
  5
40F
330
22
100
AcDbEntity
  8
0
  6
Continuous
 62
     7
100
AcDbCircle
 10
-319.3881225585938
 20
392.3518676757813
 30
0.0
 40
2.5
100
AcDbArc
 50
0.0
 51
180.0000000000004
  0
ARC
  5
410
330
22
100
AcDbEntity
  8
0
  6
Continuous
 62
     7
100
AcDbCircle
 10
-359.3881225585938
 20
392.3518676757813
 30
0.0
 40
2.5
100
AcDbArc
 50
0.0
 51
180.0000000000004
  0
ARC
  5
411
330
22
100
AcDbEntity
  8
0
  6
Continuous
 62
     7
100
AcDbCircle
 10
-379.3881225585938
 20
392.3518676757813
 30
0.0
 40
2.5
100
AcDbArc
 50
0.0
 51
180.0000000000004
  0
ARC
  5
412
330
22
100
AcDbEntity
  8
0
  6
Continuous
 62
     7
100
AcDbCircle
 10
-339.3881225585938
 20
392.3518676757813
 30
0.0
 40
2.5
100
AcDbArc
 50
0.0
 51
180.0000000000004
  0
ARC
  5
413
330
22
100
AcDbEntity
  8
0
  6
Continuous
 62
     7
100
AcDbCircle
 10
-359.3881225585938
 20
382.6767272949219
 30
0.0
 40
2.5
100
AcDbArc
 50
180.0000000000004
 51
0.0
  0
ARC
  5
414
330
22
100
AcDbEntity
  8
0
  6
Continuous
 62
     7
100
AcDbCircle
 10
-379.3881225585938
 20
382.6767272949219
 30
0.0
 40
2.5
100
AcDbArc
 50
180.0000000000004
 51
0.0
  0
ARC
  5
415
330
22
100
AcDbEntity
  8
0
  6
Continuous
 62
     7
100
AcDbCircle
 10
-349.3881225585938
 20
382.6767272949219
 30
0.0
 40
2.5
100
AcDbArc
 50
180.0000000000004
 51
0.0
  0
ARC
  5
416
330
22
100
AcDbEntity
  8
0
  6
Continuous
 62
     7
100
AcDbCircle
 10
-329.3881225585938
 20
382.6767272949219
 30
0.0
 40
2.5
100
AcDbArc
 50
180.0000000000004
 51
0.0
  0
ARC
  5
417
330
22
100
AcDbEntity
  8
0
  6
Continuous
 62
     7
100
AcDbCircle
 10
-319.3881225585938
 20
382.6767272949219
 30
0.0
 40
2.5
100
AcDbArc
 50
180.0000000000004
 51
0.0
  0
ARC
  5
418
330
22
100
AcDbEntity
  8
0
  6
Continuous
 62
     7
100
AcDbCircle
 10
-369.3881225585938
 20
382.6767272949219
 30
0.0
 40
2.5
100
AcDbArc
 50
180.0000000000004
 51
0.0
  0
ARC
  5
419
330
22
100
AcDbEntity
  8
0
  6
Continuous
 62
     7
100
AcDbCircle
 10
-339.3881225585938
 20
382.6767272949219
 30
0.0
 40
2.5
100
AcDbArc
 50
180.0000000000004
 51
0.0
  0
ARC
  5
41A
330
22
100
AcDbEntity
  8
0
  6
Continuous
 62
     7
100
AcDbCircle
 10
-319.3881225585938
 20
253.6767425537109
 30
0.0
 40
2.5
100
AcDbArc
 50
180.0000000000004
 51
0.0
  0
ARC
  5
41B
330
22
100
AcDbEntity
  8
0
  6
Continuous
 62
     7
100
AcDbCircle
 10
-319.3881225585938
 20
311.6767272949219
 30
0.0
 40
2.5
100
AcDbArc
 50
180.0000000000004
 51
0.0
  0
CIRCLE
  5
41C
330
22
100
AcDbEntity
  8
0
  6
Continuous
 62
     7
100
AcDbCircle
 10
-312.8881225585938
 20
245.1767425537109
 30
0.0
 40
4.75
  0
CIRCLE
  5
41D
330
22
100
AcDbEntity
  8
0
  6
Continuous
 62
     7
100
AcDbCircle
 10
-312.8881225585938
 20
245.1767425537109
 30
0.0
 40
4.5
  0
ARC
  5
41E
330
22
100
AcDbEntity
  8
0
  6
DASHED
 62
     7
100
AcDbCircle
 10
-311.3881225585938
 20
252.1767425537109
 30
0.0
 40
2.0
100
AcDbArc
 50
270.0000000000005
 51
0.0
  0
ARC
  5
41F
330
22
100
AcDbEntity
  8
0
  6
DASHED
 62
     7
100
AcDbCircle
 10
-319.8881225585938
 20
243.6767425537109
 30
0.0
 40
2.0
100
AcDbArc
 50
270.0000000000005
 51
0.0
  0
ARC
  5
420
330
22
100
AcDbEntity
  8
0
  6
DASHED
 62
     7
100
AcDbCircle
 10
-312.8881225585938
 20
245.1767425537109
 30
0.0
 40
5.0
100
AcDbArc
 50
90.00000000000019
 51
180.0000000000004
  0
ARC
  5
421
330
22
100
AcDbEntity
  8
0
  6
Continuous
 62
     7
100
AcDbCircle
 10
-319.3881225585938
 20
300.6767272949219
 30
0.0
 40
2.5
100
AcDbArc
 50
0.0
 51
180.0000000000004
  0
ARC
  5
422
330
22
100
AcDbEntity
  8
0
  6
Continuous
 62
     7
100
AcDbCircle
 10
-319.3881225585938
 20
258.6767272949219
 30
0.0
 40
2.5
100
AcDbArc
 50
0.0
 51
180.0000000000004
  0
ARC
  5
423
330
22
100
AcDbEntity
  8
0
  6
Continuous
 62
     7
100
AcDbCircle
 10
-319.3881225585938
 20
269.676727294922
 30
0.0
 40
2.5
100
AcDbArc
 50
180.0000000000004
 51
0.0
  0
ARC
  5
424
330
22
100
AcDbEntity
  8
0
  6
Continuous
 62
     7
100
AcDbCircle
 10
-329.3881225585938
 20
290.6767272949219
 30
0.0
 40
2.5
100
AcDbArc
 50
180.0000000000004
 51
0.0
  0
ARC
  5
425
330
22
100
AcDbEntity
  8
0
  6
Continuous
 62
     7
100
AcDbCircle
 10
-329.3881225585938
 20
279.6767272949219
 30
0.0
 40
2.5
100
AcDbArc
 50
0.0
 51
180.0000000000004
  0
ARC
  5
426
330
22
100
AcDbEntity
  8
0
  6
Continuous
 62
     7
100
AcDbCircle
 10
-379.3881225585938
 20
311.6767272949219
 30
0.0
 40
2.5
100
AcDbArc
 50
180.0000000000004
 51
0.0
  0
ARC
  5
427
330
22
100
AcDbEntity
  8
0
  6
Continuous
 62
     7
100
AcDbCircle
 10
-359.3881225585938
 20
269.676727294922
 30
0.0
 40
2.5
100
AcDbArc
 50
180.0000000000004
 51
0.0
  0
ARC
  5
428
330
22
100
AcDbEntity
  8
0
  6
Continuous
 62
     7
100
AcDbCircle
 10
-359.3881225585938
 20
258.6767272949219
 30
0.0
 40
2.5
100
AcDbArc
 50
0.0
 51
180.0000000000004
  0
ARC
  5
429
330
22
100
AcDbEntity
  8
0
  6
Continuous
 62
     7
100
AcDbCircle
 10
-349.3881225585938
 20
248.6767425537109
 30
0.0
 40
2.5
100
AcDbArc
 50
180.0000000000004
 51
0.0
  0
ARC
  5
42A
330
22
100
AcDbEntity
  8
0
  6
Continuous
 62
     7
100
AcDbCircle
 10
-359.3881225585938
 20
248.6767425537109
 30
0.0
 40
2.5
100
AcDbArc
 50
180.0000000000004
 51
0.0
  0
ARC
  5
42B
330
22
100
AcDbEntity
  8
0
  6
Continuous
 62
     7
100
AcDbCircle
 10
-369.3881225585938
 20
248.6767425537109
 30
0.0
 40
2.5
100
AcDbArc
 50
180.0000000000004
 51
0.0
  0
ARC
  5
42C
330
22
100
AcDbEntity
  8
0
  6
Continuous
 62
     7
100
AcDbCircle
 10
-369.3881225585938
 20
279.6767272949219
 30
0.0
 40
2.5
100
AcDbArc
 50
0.0
 51
180.0000000000004
  0
ARC
  5
42D
330
22
100
AcDbEntity
  8
0
  6
Continuous
 62
     7
100
AcDbCircle
 10
-349.3881225585938
 20
279.6767272949219
 30
0.0
 40
2.5
100
AcDbArc
 50
0.0
 51
180.0000000000004
  0
ARC
  5
42E
330
22
100
AcDbEntity
  8
0
  6
Continuous
 62
     7
100
AcDbCircle
 10
-349.3881225585938
 20
290.6767272949219
 30
0.0
 40
2.5
100
AcDbArc
 50
180.0000000000004
 51
0.0
  0
ARC
  5
42F
330
22
100
AcDbEntity
  8
0
  6
Continuous
 62
     7
100
AcDbCircle
 10
-329.3881225585938
 20
248.6767425537109
 30
0.0
 40
2.5
100
AcDbArc
 50
180.0000000000004
 51
0.0
  0
ARC
  5
430
330
22
100
AcDbEntity
  8
0
  6
Continuous
 62
     7
100
AcDbCircle
 10
-369.3881225585938
 20
290.6767272949219
 30
0.0
 40
2.5
100
AcDbArc
 50
180.0000000000004
 51
0.0
  0
ARC
  5
431
330
22
100
AcDbEntity
  8
0
  6
Continuous
 62
     7
100
AcDbCircle
 10
-359.3881225585938
 20
300.6767272949219
 30
0.0
 40
2.5
100
AcDbArc
 50
0.0
 51
180.0000000000004
  0
ARC
  5
432
330
22
100
AcDbEntity
  8
0
  6
Continuous
 62
     7
100
AcDbCircle
 10
-429.3881225585938
 20
497.6767272949218
 30
0.0
 40
2.5
100
AcDbArc
 50
0.0
 51
180.0000000000004
  0
ARC
  5
433
330
22
100
AcDbEntity
  8
0
  6
DASHED
 62
     7
100
AcDbCircle
 10
-440.8881225585938
 20
501.1767272949218
 30
0.0
 40
5.0
100
AcDbArc
 50
300.0001052890317
 51
0.0
  0
ARC
  5
434
330
22
100
AcDbEntity
  8
0
  6
DASHED
 62
     7
100
AcDbCircle
 10
-433.8881225585938
 20
502.6767272949219
 30
0.0
 40
2.0
100
AcDbArc
 50
90.00000000000019
 51
180.0000000000004
  0
ARC
  5
435
330
22
100
AcDbEntity
  8
0
  6
Continuous
 62
     7
100
AcDbCircle
 10
-339.3881225585938
 20
311.6767272949219
 30
0.0
 40
2.5
100
AcDbArc
 50
180.0000000000004
 51
0.0
  0
ARC
  5
436
330
22
100
AcDbEntity
  8
0
  6
Continuous
 62
     7
100
AcDbCircle
 10
-339.3881225585938
 20
269.676727294922
 30
0.0
 40
2.5
100
AcDbArc
 50
180.0000000000004
 51
0.0
  0
ARC
  5
437
330
22
100
AcDbEntity
  8
0
  6
Continuous
 62
     7
100
AcDbCircle
 10
-339.3881225585938
 20
300.6767272949219
 30
0.0
 40
2.5
100
AcDbArc
 50
0.0
 51
180.0000000000004
  0
ARC
  5
438
330
22
100
AcDbEntity
  8
0
  6
Continuous
 62
     7
100
AcDbCircle
 10
-339.3881225585938
 20
248.6767425537109
 30
0.0
 40
2.5
100
AcDbArc
 50
180.0000000000004
 51
0.0
  0
ARC
  5
439
330
22
100
AcDbEntity
  8
0
  6
Continuous
 62
     7
100
AcDbCircle
 10
-339.3881225585938
 20
258.6767272949219
 30
0.0
 40
2.5
100
AcDbArc
 50
0.0
 51
180.0000000000004
  0
ARC
  5
43A
330
22
100
AcDbEntity
  8
0
  6
Continuous
 62
     7
100
AcDbCircle
 10
-379.3881225585938
 20
258.6767272949219
 30
0.0
 40
2.5
100
AcDbArc
 50
0.0
 51
180.0000000000004
  0
ARC
  5
43B
330
22
100
AcDbEntity
  8
0
  6
Continuous
 62
     7
100
AcDbCircle
 10
-379.3881225585938
 20
269.676727294922
 30
0.0
 40
2.5
100
AcDbArc
 50
180.0000000000004
 51
0.0
  0
ARC
  5
43C
330
22
100
AcDbEntity
  8
0
  6
Continuous
 62
     7
100
AcDbCircle
 10
-379.3881225585938
 20
300.6767272949219
 30
0.0
 40
2.5
100
AcDbArc
 50
0.0
 51
180.0000000000004
  0
ARC
  5
43D
330
22
100
AcDbEntity
  8
0
  6
Continuous
 62
     7
100
AcDbCircle
 10
-379.3881225585938
 20
248.6767425537109
 30
0.0
 40
2.5
100
AcDbArc
 50
180.0000000000004
 51
0.0
  0
ARC
  5
43E
330
22
100
AcDbEntity
  8
0
  6
Continuous
 62
     7
100
AcDbCircle
 10
-359.3881225585938
 20
311.6767272949219
 30
0.0
 40
2.5
100
AcDbArc
 50
180.0000000000004
 51
0.0
  0
ARC
  5
43F
330
22
100
AcDbEntity
  8
0
  6
Continuous
 62
     7
100
AcDbCircle
 10
-452.3881225585937
 20
497.6767272949218
 30
0.0
 40
2.5
100
AcDbArc
 50
0.0
 51
180.0000000000004
  0
ARC
  5
440
330
22
100
AcDbEntity
  8
0
  6
DASHED
 62
     7
100
AcDbCircle
 10
-440.8881225585938
 20
501.1767272949218
 30
0.0
 40
5.0
100
AcDbArc
 50
180.0000000000004
 51
239.9998947109698
  0
ARC
  5
441
330
22
100
AcDbEntity
  8
0
  6
DASHED
 62
     7
100
AcDbCircle
 10
-447.8881225585937
 20
502.6767272949219
 30
0.0
 40
2.0
100
AcDbArc
 50
0.0
 51
90.00000000000019
  0
CIRCLE
  5
442
330
22
100
AcDbEntity
  8
0
  6
Continuous
 62
     7
100
AcDbCircle
 10
-440.8881225585938
 20
501.1767272949218
 30
0.0
 40
4.5
  0
CIRCLE
  5
443
330
22
100
AcDbEntity
  8
0
  6
Continuous
 62
     7
100
AcDbCircle
 10
-440.8881225585938
 20
501.1767272949218
 30
0.0
 40
4.75
  0
ARC
  5
444
330
22
100
AcDbEntity
  8
0
  6
Continuous
 62
     7
100
AcDbCircle
 10
-452.3881225585937
 20
466.6767272949218
 30
0.0
 40
2.5
100
AcDbArc
 50
180.0000000000004
 51
0.0
  0
ARC
  5
445
330
22
100
AcDbEntity
  8
0
  6
Continuous
 62
     7
100
AcDbCircle
 10
-452.3881225585937
 20
455.6767272949218
 30
0.0
 40
2.5
100
AcDbArc
 50
0.0
 51
180.0000000000004
  0
ARC
  5
446
330
22
100
AcDbEntity
  8
0
  6
Continuous
 62
     7
100
AcDbCircle
 10
-429.3881225585938
 20
455.6767272949218
 30
0.0
 40
2.5
100
AcDbArc
 50
0.0
 51
180.0000000000004
  0
ARC
  5
447
330
22
100
AcDbEntity
  8
0
  6
Continuous
 62
     7
100
AcDbCircle
 10
-429.3881225585938
 20
466.6767272949218
 30
0.0
 40
2.5
100
AcDbArc
 50
180.0000000000004
 51
0.0
  0
ARC
  5
448
330
22
100
AcDbEntity
  8
0
  6
Continuous
 62
     7
100
AcDbCircle
 10
-409.3881225585938
 20
497.6767272949218
 30
0.0
 40
2.5
100
AcDbArc
 50
0.0
 51
180.0000000000004
  0
ARC
  5
449
330
22
100
AcDbEntity
  8
0
  6
Continuous
 62
     7
100
AcDbCircle
 10
-419.3881225585938
 20
497.6767272949218
 30
0.0
 40
2.5
100
AcDbArc
 50
0.0
 51
180.0000000000004
  0
ARC
  5
44A
330
22
100
AcDbEntity
  8
0
  6
Continuous
 62
     7
100
AcDbCircle
 10
-462.3881225585938
 20
497.6767272949218
 30
0.0
 40
2.5
100
AcDbArc
 50
0.0
 51
180.0000000000004
  0
ARC
  5
44B
330
22
100
AcDbEntity
  8
0
  6
Continuous
 62
     7
100
AcDbCircle
 10
-482.3881225585938
 20
497.6767272949218
 30
0.0
 40
2.5
100
AcDbArc
 50
0.0
 51
180.0000000000004
  0
ARC
  5
44C
330
22
100
AcDbEntity
  8
0
  6
Continuous
 62
     7
100
AcDbCircle
 10
-492.3881225585938
 20
497.6767272949218
 30
0.0
 40
2.5
100
AcDbArc
 50
0.0
 51
180.0000000000004
  0
ARC
  5
44D
330
22
100
AcDbEntity
  8
0
  6
Continuous
 62
     7
100
AcDbCircle
 10
-472.3881225585937
 20
497.6767272949218
 30
0.0
 40
2.5
100
AcDbArc
 50
0.0
 51
180.0000000000004
  0
ARC
  5
44E
330
22
100
AcDbEntity
  8
0
  6
Continuous
 62
     7
100
AcDbCircle
 10
-502.3881225585937
 20
497.6767272949218
 30
0.0
 40
2.5
100
AcDbArc
 50
0.0
 51
180.0000000000004
  0
ARC
  5
44F
330
22
100
AcDbEntity
  8
0
  6
Continuous
 62
     7
100
AcDbCircle
 10
-512.3881225585939
 20
497.6767272949218
 30
0.0
 40
2.5
100
AcDbArc
 50
0.0
 51
180.0000000000004
  0
ARC
  5
450
330
22
100
AcDbEntity
  8
0
  6
Continuous
 62
     7
100
AcDbCircle
 10
-462.3881225585938
 20
445.6767272949218
 30
0.0
 40
2.5
100
AcDbArc
 50
180.0000000000004
 51
0.0
  0
ARC
  5
451
330
22
100
AcDbEntity
  8
0
  6
Continuous
 62
     7
100
AcDbCircle
 10
-492.3881225585938
 20
455.6767272949218
 30
0.0
 40
2.5
100
AcDbArc
 50
0.0
 51
180.0000000000004
  0
ARC
  5
452
330
22
100
AcDbEntity
  8
0
  6
Continuous
 62
     7
100
AcDbCircle
 10
-512.3881225585939
 20
466.6767272949218
 30
0.0
 40
2.5
100
AcDbArc
 50
180.0000000000004
 51
0.0
  0
ARC
  5
453
330
22
100
AcDbEntity
  8
0
  6
Continuous
 62
     7
100
AcDbCircle
 10
-472.3881225585937
 20
455.6767272949218
 30
0.0
 40
2.5
100
AcDbArc
 50
0.0
 51
180.0000000000004
  0
ARC
  5
454
330
22
100
AcDbEntity
  8
0
  6
Continuous
 62
     7
100
AcDbCircle
 10
-502.3881225585937
 20
434.6767272949218
 30
0.0
 40
2.5
100
AcDbArc
 50
0.0
 51
180.0000000000004
  0
ARC
  5
455
330
22
100
AcDbEntity
  8
0
  6
Continuous
 62
     7
100
AcDbCircle
 10
-482.3881225585938
 20
445.6767272949218
 30
0.0
 40
2.5
100
AcDbArc
 50
180.0000000000004
 51
0.0
  0
ARC
  5
456
330
22
100
AcDbEntity
  8
0
  6
Continuous
 62
     7
100
AcDbCircle
 10
-502.3881225585937
 20
445.6767272949218
 30
0.0
 40
2.5
100
AcDbArc
 50
180.0000000000004
 51
0.0
  0
ARC
  5
457
330
22
100
AcDbEntity
  8
0
  6
Continuous
 62
     7
100
AcDbCircle
 10
-472.3881225585937
 20
466.6767272949218
 30
0.0
 40
2.5
100
AcDbArc
 50
180.0000000000004
 51
0.0
  0
ARC
  5
458
330
22
100
AcDbEntity
  8
0
  6
Continuous
 62
     7
100
AcDbCircle
 10
-482.3881225585938
 20
476.6767272949218
 30
0.0
 40
2.5
100
AcDbArc
 50
0.0
 51
180.0000000000004
  0
ARC
  5
459
330
22
100
AcDbEntity
  8
0
  6
Continuous
 62
     7
100
AcDbCircle
 10
-482.3881225585938
 20
434.6767272949218
 30
0.0
 40
2.5
100
AcDbArc
 50
0.0
 51
180.0000000000004
  0
ARC
  5
45A
330
22
100
AcDbEntity
  8
0
  6
Continuous
 62
     7
100
AcDbCircle
 10
-512.3881225585939
 20
455.6767272949218
 30
0.0
 40
2.5
100
AcDbArc
 50
0.0
 51
180.0000000000004
  0
ARC
  5
45B
330
22
100
AcDbEntity
  8
0
  6
Continuous
 62
     7
100
AcDbCircle
 10
-502.3881225585937
 20
476.6767272949218
 30
0.0
 40
2.5
100
AcDbArc
 50
0.0
 51
180.0000000000004
  0
ARC
  5
45C
330
22
100
AcDbEntity
  8
0
  6
Continuous
 62
     7
100
AcDbCircle
 10
-492.3881225585938
 20
466.6767272949218
 30
0.0
 40
2.5
100
AcDbArc
 50
180.0000000000004
 51
0.0
  0
ARC
  5
45D
330
22
100
AcDbEntity
  8
0
  6
Continuous
 62
     7
100
AcDbCircle
 10
-409.3881225585938
 20
424.6767272949218
 30
0.0
 40
2.5
100
AcDbArc
 50
180.0000000000004
 51
0.0
  0
ARC
  5
45E
330
22
100
AcDbEntity
  8
0
  6
Continuous
 62
     7
100
AcDbCircle
 10
-409.3881225585938
 20
413.6767272949218
 30
0.0
 40
2.5
100
AcDbArc
 50
0.0
 51
180.0000000000004
  0
ARC
  5
45F
330
22
100
AcDbEntity
  8
0
  6
Continuous
 62
     7
100
AcDbCircle
 10
-492.3881225585938
 20
413.6767272949218
 30
0.0
 40
2.5
100
AcDbArc
 50
0.0
 51
180.0000000000004
  0
ARC
  5
460
330
22
100
AcDbEntity
  8
0
  6
Continuous
 62
     7
100
AcDbCircle
 10
-512.3881225585939
 20
424.6767272949218
 30
0.0
 40
2.5
100
AcDbArc
 50
180.0000000000004
 51
0.0
  0
ARC
  5
461
330
22
100
AcDbEntity
  8
0
  6
Continuous
 62
     7
100
AcDbCircle
 10
-512.3881225585939
 20
413.6767272949218
 30
0.0
 40
2.5
100
AcDbArc
 50
0.0
 51
180.0000000000004
  0
ARC
  5
462
330
22
100
AcDbEntity
  8
0
  6
Continuous
 62
     7
100
AcDbCircle
 10
-472.3881225585937
 20
413.6767272949218
 30
0.0
 40
2.5
100
AcDbArc
 50
0.0
 51
180.0000000000004
  0
ARC
  5
463
330
22
100
AcDbEntity
  8
0
  6
Continuous
 62
     7
100
AcDbCircle
 10
-492.3881225585938
 20
424.6767272949218
 30
0.0
 40
2.5
100
AcDbArc
 50
180.0000000000004
 51
0.0
  0
ARC
  5
464
330
22
100
AcDbEntity
  8
0
  6
Continuous
 62
     7
100
AcDbCircle
 10
-472.3881225585937
 20
424.6767272949218
 30
0.0
 40
2.5
100
AcDbArc
 50
180.0000000000004
 51
0.0
  0
ARC
  5
465
330
22
100
AcDbEntity
  8
0
  6
Continuous
 62
     7
100
AcDbCircle
 10
-452.3881225585937
 20
413.6767272949218
 30
0.0
 40
2.5
100
AcDbArc
 50
0.0
 51
180.0000000000004
  0
ARC
  5
466
330
22
100
AcDbEntity
  8
0
  6
Continuous
 62
     7
100
AcDbCircle
 10
-452.3881225585937
 20
424.6767272949218
 30
0.0
 40
2.5
100
AcDbArc
 50
180.0000000000004
 51
0.0
  0
ARC
  5
467
330
22
100
AcDbEntity
  8
0
  6
Continuous
 62
     7
100
AcDbCircle
 10
-429.3881225585938
 20
424.6767272949218
 30
0.0
 40
2.5
100
AcDbArc
 50
180.0000000000004
 51
0.0
  0
ARC
  5
468
330
22
100
AcDbEntity
  8
0
  6
Continuous
 62
     7
100
AcDbCircle
 10
-429.3881225585938
 20
413.6767272949218
 30
0.0
 40
2.5
100
AcDbArc
 50
0.0
 51
180.0000000000004
  0
ARC
  5
469
330
22
100
AcDbEntity
  8
0
  6
Continuous
 62
     7
100
AcDbCircle
 10
-409.3881225585938
 20
466.6767272949218
 30
0.0
 40
2.5
100
AcDbArc
 50
180.0000000000004
 51
0.0
  0
ARC
  5
46A
330
22
100
AcDbEntity
  8
0
  6
Continuous
 62
     7
100
AcDbCircle
 10
-409.3881225585938
 20
455.6767272949218
 30
0.0
 40
2.5
100
AcDbArc
 50
0.0
 51
180.0000000000004
  0
ARC
  5
46B
330
22
100
AcDbEntity
  8
0
  6
Continuous
 62
     7
100
AcDbCircle
 10
-419.3881225585938
 20
434.6767272949218
 30
0.0
 40
2.5
100
AcDbArc
 50
0.0
 51
180.0000000000004
  0
ARC
  5
46C
330
22
100
AcDbEntity
  8
0
  6
Continuous
 62
     7
100
AcDbCircle
 10
-419.3881225585938
 20
445.6767272949218
 30
0.0
 40
2.5
100
AcDbArc
 50
180.0000000000004
 51
0.0
  0
ARC
  5
46D
330
22
100
AcDbEntity
  8
0
  6
Continuous
 62
     7
100
AcDbCircle
 10
-419.3881225585938
 20
476.6767272949218
 30
0.0
 40
2.5
100
AcDbArc
 50
0.0
 51
180.0000000000004
  0
ARC
  5
46E
330
22
100
AcDbEntity
  8
0
  6
Continuous
 62
     7
100
AcDbCircle
 10
-462.3881225585938
 20
434.6767272949218
 30
0.0
 40
2.5
100
AcDbArc
 50
0.0
 51
180.0000000000004
  0
ARC
  5
46F
330
22
100
AcDbEntity
  8
0
  6
Continuous
 62
     7
100
AcDbCircle
 10
-462.3881225585938
 20
476.6767272949218
 30
0.0
 40
2.5
100
AcDbArc
 50
0.0
 51
180.0000000000004
  0
ARC
  5
470
330
22
100
AcDbEntity
  8
0
  6
DASHED
 62
     7
100
AcDbCircle
 10
-561.8881225585938
 20
502.6767272949219
 30
0.0
 40
2.0
100
AcDbArc
 50
90.00000000000019
 51
180.0000000000004
  0
ARC
  5
471
330
22
100
AcDbEntity
  8
0
  6
Continuous
 62
     7
100
AcDbCircle
 10
-573.3881225585937
 20
505.6767272949218
 30
0.0
 40
2.0
100
AcDbArc
 50
90.00000000000019
 51
180.0000000000004
  0
ARC
  5
472
330
22
100
AcDbEntity
  8
0
  6
Continuous
 62
     7
100
AcDbCircle
 10
-552.3881225585938
 20
497.6767272949218
 30
0.0
 40
2.5
100
AcDbArc
 50
0.0
 51
180.0000000000004
  0
ARC
  5
473
330
22
100
AcDbEntity
  8
0
  6
Continuous
 62
     7
100
AcDbCircle
 10
-542.3881225585938
 20
497.6767272949218
 30
0.0
 40
2.5
100
AcDbArc
 50
0.0
 51
180.0000000000004
  0
ARC
  5
474
330
22
100
AcDbEntity
  8
0
  6
Continuous
 62
     7
100
AcDbCircle
 10
-562.3881225585939
 20
492.6767272949218
 30
0.0
 40
2.5
100
AcDbArc
 50
0.0
 51
180.0000000000004
  0
ARC
  5
475
330
22
100
AcDbEntity
  8
0
  6
Continuous
 62
     7
100
AcDbCircle
 10
-585.8881225585937
 20
518.1767578125
 30
0.0
 40
5.0
100
AcDbArc
 50
90.00000000000019
 51
180.0000000000004
  0
ARC
  5
476
330
22
100
AcDbEntity
  8
0
  6
Continuous
 62
     7
100
AcDbCircle
 10
-575.3881225585937
 20
507.6767272949219
 30
0.0
 40
1.0
100
AcDbArc
 50
90.00000000000019
 51
180.0000000000004
  0
ARC
  5
477
330
22
100
AcDbEntity
  8
0
  6
DASHED
 62
     7
100
AcDbCircle
 10
-568.8881225585937
 20
501.1767272949218
 30
0.0
 40
5.0
100
AcDbArc
 50
270.0000000000005
 51
0.0
  0
ARC
  5
478
330
22
100
AcDbEntity
  8
0
  6
Continuous
 62
     7
100
AcDbCircle
 10
-562.3881225585939
 20
476.6767272949218
 30
0.0
 40
2.5
100
AcDbArc
 50
0.0
 51
180.0000000000004
  0
ARC
  5
479
330
22
100
AcDbEntity
  8
0
  6
Continuous
 62
     7
100
AcDbCircle
 10
-532.3881225585938
 20
497.6767272949218
 30
0.0
 40
2.5
100
AcDbArc
 50
0.0
 51
180.0000000000004
  0
CIRCLE
  5
47A
330
22
100
AcDbEntity
  8
0
  6
Continuous
 62
     7
100
AcDbCircle
 10
-568.8881225585937
 20
501.2022705078124
 30
0.0
 40
4.75
  0
CIRCLE
  5
47B
330
22
100
AcDbEntity
  8
0
  6
Continuous
 62
     7
100
AcDbCircle
 10
-568.8881225585937
 20
501.2022705078124
 30
0.0
 40
4.5
  0
ARC
  5
47C
330
22
100
AcDbEntity
  8
0
  6
DASHED
 62
     7
100
AcDbCircle
 10
-570.3881225585937
 20
494.1767272949219
 30
0.0
 40
2.0
100
AcDbArc
 50
90.00000000000019
 51
180.0000000000004
  0
ARC
  5
47D
330
22
100
AcDbEntity
  8
0
  6
DASHED
 62
     7
100
AcDbCircle
 10
-436.3881225585938
 20
377.6767272949219
 30
0.0
 40
2.0
100
AcDbArc
 50
180.0000000000004
 51
270.0000000000005
  0
ARC
  5
47E
330
22
100
AcDbEntity
  8
0
  6
Continuous
 62
     7
100
AcDbCircle
 10
-429.3881225585938
 20
332.6767272949219
 30
0.0
 40
2.5
100
AcDbArc
 50
180.0000000000004
 51
0.0
  0
ARC
  5
47F
330
22
100
AcDbEntity
  8
0
  6
Continuous
 62
     7
100
AcDbCircle
 10
-429.3881225585938
 20
363.6767272949219
 30
0.0
 40
2.5
100
AcDbArc
 50
0.0
 51
180.0000000000004
  0
ARC
  5
480
330
22
100
AcDbEntity
  8
0
  6
DASHED
 62
     7
100
AcDbCircle
 10
-436.3881225585938
 20
368.6767272949219
 30
0.0
 40
2.0
100
AcDbArc
 50
90.00000000000019
 51
180.0000000000004
  0
ARC
  5
481
330
22
100
AcDbEntity
  8
0
  6
Continuous
 62
     7
100
AcDbCircle
 10
-532.3881225585938
 20
413.6767272949218
 30
0.0
 40
2.5
100
AcDbArc
 50
0.0
 51
180.0000000000004
  0
ARC
  5
482
330
22
100
AcDbEntity
  8
0
  6
Continuous
 62
     7
100
AcDbCircle
 10
-532.3881225585938
 20
424.6767272949218
 30
0.0
 40
2.5
100
AcDbArc
 50
180.0000000000004
 51
0.0
  0
ARC
  5
483
330
22
100
AcDbEntity
  8
0
  6
Continuous
 62
     7
100
AcDbCircle
 10
-552.3881225585938
 20
424.6767272949218
 30
0.0
 40
2.5
100
AcDbArc
 50
180.0000000000004
 51
0.0
  0
ARC
  5
484
330
22
100
AcDbEntity
  8
0
  6
Continuous
 62
     7
100
AcDbCircle
 10
-552.3881225585938
 20
413.6767272949218
 30
0.0
 40
2.5
100
AcDbArc
 50
0.0
 51
180.0000000000004
  0
ARC
  5
485
330
22
100
AcDbEntity
  8
0
  6
Continuous
 62
     7
100
AcDbCircle
 10
-532.3881225585938
 20
466.6767272949218
 30
0.0
 40
2.5
100
AcDbArc
 50
180.0000000000004
 51
0.0
  0
ARC
  5
486
330
22
100
AcDbEntity
  8
0
  6
Continuous
 62
     7
100
AcDbCircle
 10
-532.3881225585938
 20
455.6767272949218
 30
0.0
 40
2.5
100
AcDbArc
 50
0.0
 51
180.0000000000004
  0
ARC
  5
487
330
22
100
AcDbEntity
  8
0
  6
Continuous
 62
     7
100
AcDbCircle
 10
-542.3881225585938
 20
445.6767272949218
 30
0.0
 40
2.5
100
AcDbArc
 50
180.0000000000004
 51
0.0
  0
ARC
  5
488
330
22
100
AcDbEntity
  8
0
  6
Continuous
 62
     7
100
AcDbCircle
 10
-542.3881225585938
 20
434.6767272949218
 30
0.0
 40
2.5
100
AcDbArc
 50
0.0
 51
180.0000000000004
  0
ARC
  5
489
330
22
100
AcDbEntity
  8
0
  6
Continuous
 62
     7
100
AcDbCircle
 10
-552.3881225585938
 20
455.6767272949218
 30
0.0
 40
2.5
100
AcDbArc
 50
0.0
 51
180.0000000000004
  0
ARC
  5
48A
330
22
100
AcDbEntity
  8
0
  6
Continuous
 62
     7
100
AcDbCircle
 10
-552.3881225585938
 20
466.6767272949218
 30
0.0
 40
2.5
100
AcDbArc
 50
180.0000000000004
 51
0.0
  0
ARC
  5
48B
330
22
100
AcDbEntity
  8
0
  6
Continuous
 62
     7
100
AcDbCircle
 10
-542.3881225585938
 20
476.6767272949218
 30
0.0
 40
2.5
100
AcDbArc
 50
0.0
 51
180.0000000000004
  0
ARC
  5
48C
330
22
100
AcDbEntity
  8
0
  6
Continuous
 62
     7
100
AcDbCircle
 10
-562.3881225585939
 20
445.6767272949218
 30
0.0
 40
2.5
100
AcDbArc
 50
180.0000000000004
 51
0.0
  0
ARC
  5
48D
330
22
100
AcDbEntity
  8
0
  6
Continuous
 62
     7
100
AcDbCircle
 10
-562.3881225585939
 20
434.6767272949218
 30
0.0
 40
2.5
100
AcDbArc
 50
0.0
 51
180.0000000000004
  0
ARC
  5
48E
330
22
100
AcDbEntity
  8
0
  6
Continuous
 62
     7
100
AcDbCircle
 10
-472.3881225585937
 20
332.6767272949219
 30
0.0
 40
2.5
100
AcDbArc
 50
180.0000000000004
 51
0.0
  0
ARC
  5
48F
330
22
100
AcDbEntity
  8
0
  6
Continuous
 62
     7
100
AcDbCircle
 10
-502.3881225585937
 20
354.0015869140625
 30
0.0
 40
2.5
100
AcDbArc
 50
180.0000000000004
 51
0.0
  0
ARC
  5
490
330
22
100
AcDbEntity
  8
0
  6
Continuous
 62
     7
100
AcDbCircle
 10
-502.3881225585937
 20
343.0015869140625
 30
0.0
 40
2.5
100
AcDbArc
 50
0.0
 51
180.0000000000004
  0
ARC
  5
491
330
22
100
AcDbEntity
  8
0
  6
Continuous
 62
     7
100
AcDbCircle
 10
-502.3881225585937
 20
363.6767272949219
 30
0.0
 40
2.5
100
AcDbArc
 50
0.0
 51
180.0000000000004
  0
ARC
  5
492
330
22
100
AcDbEntity
  8
0
  6
Continuous
 62
     7
100
AcDbCircle
 10
-492.3881225585938
 20
363.6767272949219
 30
0.0
 40
2.5
100
AcDbArc
 50
0.0
 51
180.0000000000004
  0
ARC
  5
493
330
22
100
AcDbEntity
  8
0
  6
Continuous
 62
     7
100
AcDbCircle
 10
-512.3881225585939
 20
332.6767272949219
 30
0.0
 40
2.5
100
AcDbArc
 50
180.0000000000004
 51
0.0
  0
ARC
  5
494
330
22
100
AcDbEntity
  8
0
  6
Continuous
 62
     7
100
AcDbCircle
 10
-512.3881225585939
 20
363.6767272949219
 30
0.0
 40
2.5
100
AcDbArc
 50
0.0
 51
180.0000000000004
  0
ARC
  5
495
330
22
100
AcDbEntity
  8
0
  6
Continuous
 62
     7
100
AcDbCircle
 10
-482.3881225585938
 20
363.6767272949219
 30
0.0
 40
2.5
100
AcDbArc
 50
0.0
 51
180.0000000000004
  0
ARC
  5
496
330
22
100
AcDbEntity
  8
0
  6
Continuous
 62
     7
100
AcDbCircle
 10
-492.3881225585938
 20
332.6767272949219
 30
0.0
 40
2.5
100
AcDbArc
 50
180.0000000000004
 51
0.0
  0
ARC
  5
497
330
22
100
AcDbEntity
  8
0
  6
DASHED
 62
     7
100
AcDbCircle
 10
-445.3881225585938
 20
377.6767272949219
 30
0.0
 40
2.0
100
AcDbArc
 50
270.0000000000005
 51
0.0
  0
ARC
  5
498
330
22
100
AcDbEntity
  8
0
  6
DASHED
 62
     7
100
AcDbCircle
 10
-445.3881225585938
 20
368.6767272949219
 30
0.0
 40
2.0
100
AcDbArc
 50
0.0
 51
90.00000000000019
  0
ARC
  5
499
330
22
100
AcDbEntity
  8
0
  6
Continuous
 62
     7
100
AcDbCircle
 10
-452.3881225585937
 20
363.6767272949219
 30
0.0
 40
2.5
100
AcDbArc
 50
0.0
 51
180.0000000000004
  0
ARC
  5
49A
330
22
100
AcDbEntity
  8
0
  6
Continuous
 62
     7
100
AcDbCircle
 10
-452.3881225585937
 20
332.6767272949219
 30
0.0
 40
2.5
100
AcDbArc
 50
180.0000000000004
 51
0.0
  0
ARC
  5
49B
330
22
100
AcDbEntity
  8
0
  6
Continuous
 62
     7
100
AcDbCircle
 10
-482.3881225585938
 20
392.3518676757813
 30
0.0
 40
2.5
100
AcDbArc
 50
0.0
 51
180.0000000000004
  0
ARC
  5
49C
330
22
100
AcDbEntity
  8
0
  6
Continuous
 62
     7
100
AcDbCircle
 10
-502.3881225585937
 20
392.3518676757813
 30
0.0
 40
2.5
100
AcDbArc
 50
0.0
 51
180.0000000000004
  0
ARC
  5
49D
330
22
100
AcDbEntity
  8
0
  6
Continuous
 62
     7
100
AcDbCircle
 10
-512.3881225585939
 20
382.6767272949219
 30
0.0
 40
2.5
100
AcDbArc
 50
180.0000000000004
 51
0.0
  0
ARC
  5
49E
330
22
100
AcDbEntity
  8
0
  6
Continuous
 62
     7
100
AcDbCircle
 10
-482.3881225585938
 20
382.6767272949219
 30
0.0
 40
2.5
100
AcDbArc
 50
180.0000000000004
 51
0.0
  0
ARC
  5
49F
330
22
100
AcDbEntity
  8
0
  6
Continuous
 62
     7
100
AcDbCircle
 10
-502.3881225585937
 20
382.6767272949219
 30
0.0
 40
2.5
100
AcDbArc
 50
180.0000000000004
 51
0.0
  0
ARC
  5
4A0
330
22
100
AcDbEntity
  8
0
  6
Continuous
 62
     7
100
AcDbCircle
 10
-492.3881225585938
 20
382.6767272949219
 30
0.0
 40
2.5
100
AcDbArc
 50
180.0000000000004
 51
0.0
  0
ARC
  5
4A1
330
22
100
AcDbEntity
  8
0
  6
Continuous
 62
     7
100
AcDbCircle
 10
-472.3881225585937
 20
382.6767272949219
 30
0.0
 40
2.5
100
AcDbArc
 50
180.0000000000004
 51
0.0
  0
ARC
  5
4A2
330
22
100
AcDbEntity
  8
0
  6
Continuous
 62
     7
100
AcDbCircle
 10
-452.3881225585937
 20
382.6767272949219
 30
0.0
 40
2.5
100
AcDbArc
 50
180.0000000000004
 51
0.0
  0
ARC
  5
4A3
330
22
100
AcDbEntity
  8
0
  6
Continuous
 62
     7
100
AcDbCircle
 10
-429.3881225585938
 20
382.6767272949219
 30
0.0
 40
2.5
100
AcDbArc
 50
180.0000000000004
 51
0.0
  0
ARC
  5
4A4
330
22
100
AcDbEntity
  8
0
  6
Continuous
 62
     7
100
AcDbCircle
 10
-462.3881225585938
 20
363.6767272949219
 30
0.0
 40
2.5
100
AcDbArc
 50
0.0
 51
180.0000000000004
  0
ARC
  5
4A5
330
22
100
AcDbEntity
  8
0
  6
Continuous
 62
     7
100
AcDbCircle
 10
-462.3881225585938
 20
343.0015869140625
 30
0.0
 40
2.5
100
AcDbArc
 50
0.0
 51
180.0000000000004
  0
ARC
  5
4A6
330
22
100
AcDbEntity
  8
0
  6
Continuous
 62
     7
100
AcDbCircle
 10
-462.3881225585938
 20
354.0015869140625
 30
0.0
 40
2.5
100
AcDbArc
 50
180.0000000000004
 51
0.0
  0
ARC
  5
4A7
330
22
100
AcDbEntity
  8
0
  6
Continuous
 62
     7
100
AcDbCircle
 10
-482.3881225585938
 20
343.0015869140625
 30
0.0
 40
2.5
100
AcDbArc
 50
0.0
 51
180.0000000000004
  0
ARC
  5
4A8
330
22
100
AcDbEntity
  8
0
  6
Continuous
 62
     7
100
AcDbCircle
 10
-472.3881225585937
 20
363.6767272949219
 30
0.0
 40
2.5
100
AcDbArc
 50
0.0
 51
180.0000000000004
  0
ARC
  5
4A9
330
22
100
AcDbEntity
  8
0
  6
Continuous
 62
     7
100
AcDbCircle
 10
-482.3881225585938
 20
354.0015869140625
 30
0.0
 40
2.5
100
AcDbArc
 50
180.0000000000004
 51
0.0
  0
ARC
  5
4AA
330
22
100
AcDbEntity
  8
0
  6
Continuous
 62
     7
100
AcDbCircle
 10
-429.3881225585938
 20
248.6767425537109
 30
0.0
 40
2.5
100
AcDbArc
 50
180.0000000000004
 51
0.0
  0
ARC
  5
4AB
330
22
100
AcDbEntity
  8
0
  6
Continuous
 62
     7
100
AcDbCircle
 10
-429.3881225585938
 20
279.6767272949219
 30
0.0
 40
2.5
100
AcDbArc
 50
0.0
 51
180.0000000000004
  0
ARC
  5
4AC
330
22
100
AcDbEntity
  8
0
  6
DASHED
 62
     7
100
AcDbCircle
 10
-433.8881225585938
 20
243.6767425537109
 30
0.0
 40
2.0
100
AcDbArc
 50
180.0000000000004
 51
270.0000000000005
  0
ARC
  5
4AD
330
22
100
AcDbEntity
  8
0
  6
DASHED
 62
     7
100
AcDbCircle
 10
-440.8881225585938
 20
245.1767425537109
 30
0.0
 40
5.0
100
AcDbArc
 50
0.0
 51
59.99998213771593
  0
ARC
  5
4AE
330
22
100
AcDbEntity
  8
0
  6
Continuous
 62
     7
100
AcDbCircle
 10
-419.3881225585938
 20
392.3518676757813
 30
0.0
 40
2.5
100
AcDbArc
 50
0.0
 51
180.0000000000004
  0
ARC
  5
4AF
330
22
100
AcDbEntity
  8
0
  6
Continuous
 62
     7
100
AcDbCircle
 10
-419.3881225585938
 20
382.6767272949219
 30
0.0
 40
2.5
100
AcDbArc
 50
180.0000000000004
 51
0.0
  0
ARC
  5
4B0
330
22
100
AcDbEntity
  8
0
  6
Continuous
 62
     7
100
AcDbCircle
 10
-419.3881225585938
 20
363.6767272949219
 30
0.0
 40
2.5
100
AcDbArc
 50
0.0
 51
180.0000000000004
  0
ARC
  5
4B1
330
22
100
AcDbEntity
  8
0
  6
Continuous
 62
     7
100
AcDbCircle
 10
-419.3881225585938
 20
353.6767272949219
 30
0.0
 40
2.5
100
AcDbArc
 50
180.0000000000004
 51
0.0
  0
ARC
  5
4B2
330
22
100
AcDbEntity
  8
0
  6
Continuous
 62
     7
100
AcDbCircle
 10
-419.3881225585938
 20
342.6767272949219
 30
0.0
 40
2.5
100
AcDbArc
 50
0.0
 51
180.0000000000004
  0
ARC
  5
4B3
330
22
100
AcDbEntity
  8
0
  6
Continuous
 62
     7
100
AcDbCircle
 10
-409.3881225585938
 20
382.6767272949219
 30
0.0
 40
2.5
100
AcDbArc
 50
180.0000000000004
 51
0.0
  0
ARC
  5
4B4
330
22
100
AcDbEntity
  8
0
  6
Continuous
 62
     7
100
AcDbCircle
 10
-409.3881225585938
 20
332.6767272949219
 30
0.0
 40
2.5
100
AcDbArc
 50
180.0000000000004
 51
0.0
  0
ARC
  5
4B5
330
22
100
AcDbEntity
  8
0
  6
Continuous
 62
     7
100
AcDbCircle
 10
-409.3881225585938
 20
363.6767272949219
 30
0.0
 40
2.5
100
AcDbArc
 50
0.0
 51
180.0000000000004
  0
ARC
  5
4B6
330
22
100
AcDbEntity
  8
0
  6
Continuous
 62
     7
100
AcDbCircle
 10
-462.3881225585938
 20
382.6767272949219
 30
0.0
 40
2.5
100
AcDbArc
 50
180.0000000000004
 51
0.0
  0
ARC
  5
4B7
330
22
100
AcDbEntity
  8
0
  6
Continuous
 62
     7
100
AcDbCircle
 10
-462.3881225585938
 20
392.3518676757813
 30
0.0
 40
2.5
100
AcDbArc
 50
0.0
 51
180.0000000000004
  0
ARC
  5
4B8
330
22
100
AcDbEntity
  8
0
  6
Continuous
 62
     7
100
AcDbCircle
 10
-452.3881225585937
 20
248.6767425537109
 30
0.0
 40
2.5
100
AcDbArc
 50
180.0000000000004
 51
0.0
  0
ARC
  5
4B9
330
22
100
AcDbEntity
  8
0
  6
DASHED
 62
     7
100
AcDbCircle
 10
-440.8881225585938
 20
245.1767425537109
 30
0.0
 40
5.0
100
AcDbArc
 50
120.0000178622841
 51
180.0000000000004
  0
ARC
  5
4BA
330
22
100
AcDbEntity
  8
0
  6
Continuous
 62
     7
100
AcDbCircle
 10
-452.3881225585937
 20
279.6767272949219
 30
0.0
 40
2.5
100
AcDbArc
 50
0.0
 51
180.0000000000004
  0
ARC
  5
4BB
330
22
100
AcDbEntity
  8
0
  6
Continuous
 62
     7
100
AcDbCircle
 10
-452.3881225585937
 20
290.6767272949219
 30
0.0
 40
2.5
100
AcDbArc
 50
180.0000000000004
 51
0.0
  0
ARC
  5
4BC
330
22
100
AcDbEntity
  8
0
  6
DASHED
 62
     7
100
AcDbCircle
 10
-447.8881225585937
 20
243.6767425537109
 30
0.0
 40
2.0
100
AcDbArc
 50
270.0000000000005
 51
0.0
  0
ARC
  5
4BD
330
22
100
AcDbEntity
  8
0
  6
Continuous
 62
     7
100
AcDbCircle
 10
-429.3881225585938
 20
290.6767272949219
 30
0.0
 40
2.5
100
AcDbArc
 50
180.0000000000004
 51
0.0
  0
ARC
  5
4BE
330
22
100
AcDbEntity
  8
0
  6
Continuous
 62
     7
100
AcDbCircle
 10
-512.3881225585939
 20
290.6767272949219
 30
0.0
 40
2.5
100
AcDbArc
 50
180.0000000000004
 51
0.0
  0
CIRCLE
  5
4BF
330
22
100
AcDbEntity
  8
0
  6
Continuous
 62
     7
100
AcDbCircle
 10
-440.8881225585938
 20
245.1767425537109
 30
0.0
 40
4.75
  0
CIRCLE
  5
4C0
330
22
100
AcDbEntity
  8
0
  6
Continuous
 62
     7
100
AcDbCircle
 10
-440.8881225585938
 20
245.1767425537109
 30
0.0
 40
4.5
  0
ARC
  5
4C1
330
22
100
AcDbEntity
  8
0
  6
Continuous
 62
     7
100
AcDbCircle
 10
-502.3881225585937
 20
258.6767272949219
 30
0.0
 40
2.5
100
AcDbArc
 50
0.0
 51
180.0000000000004
  0
ARC
  5
4C2
330
22
100
AcDbEntity
  8
0
  6
Continuous
 62
     7
100
AcDbCircle
 10
-502.3881225585937
 20
300.6767272949219
 30
0.0
 40
2.5
100
AcDbArc
 50
0.0
 51
180.0000000000004
  0
ARC
  5
4C3
330
22
100
AcDbEntity
  8
0
  6
Continuous
 62
     7
100
AcDbCircle
 10
-482.3881225585938
 20
311.6767272949219
 30
0.0
 40
2.5
100
AcDbArc
 50
180.0000000000004
 51
0.0
  0
ARC
  5
4C4
330
22
100
AcDbEntity
  8
0
  6
Continuous
 62
     7
100
AcDbCircle
 10
-502.3881225585937
 20
311.6767272949219
 30
0.0
 40
2.5
100
AcDbArc
 50
180.0000000000004
 51
0.0
  0
ARC
  5
4C5
330
22
100
AcDbEntity
  8
0
  6
Continuous
 62
     7
100
AcDbCircle
 10
-472.3881225585937
 20
248.6767425537109
 30
0.0
 40
2.5
100
AcDbArc
 50
180.0000000000004
 51
0.0
  0
ARC
  5
4C6
330
22
100
AcDbEntity
  8
0
  6
Continuous
 62
     7
100
AcDbCircle
 10
-472.3881225585937
 20
290.6767272949219
 30
0.0
 40
2.5
100
AcDbArc
 50
180.0000000000004
 51
0.0
  0
ARC
  5
4C7
330
22
100
AcDbEntity
  8
0
  6
Continuous
 62
     7
100
AcDbCircle
 10
-512.3881225585939
 20
248.6767425537109
 30
0.0
 40
2.5
100
AcDbArc
 50
180.0000000000004
 51
0.0
  0
ARC
  5
4C8
330
22
100
AcDbEntity
  8
0
  6
Continuous
 62
     7
100
AcDbCircle
 10
-492.3881225585938
 20
248.6767425537109
 30
0.0
 40
2.5
100
AcDbArc
 50
180.0000000000004
 51
0.0
  0
ARC
  5
4C9
330
22
100
AcDbEntity
  8
0
  6
Continuous
 62
     7
100
AcDbCircle
 10
-502.3881225585937
 20
269.676727294922
 30
0.0
 40
2.5
100
AcDbArc
 50
180.0000000000004
 51
0.0
  0
ARC
  5
4CA
330
22
100
AcDbEntity
  8
0
  6
Continuous
 62
     7
100
AcDbCircle
 10
-512.3881225585939
 20
279.6767272949219
 30
0.0
 40
2.5
100
AcDbArc
 50
0.0
 51
180.0000000000004
  0
ARC
  5
4CB
330
22
100
AcDbEntity
  8
0
  6
Continuous
 62
     7
100
AcDbCircle
 10
-492.3881225585938
 20
279.6767272949219
 30
0.0
 40
2.5
100
AcDbArc
 50
0.0
 51
180.0000000000004
  0
ARC
  5
4CC
330
22
100
AcDbEntity
  8
0
  6
Continuous
 62
     7
100
AcDbCircle
 10
-492.3881225585938
 20
290.6767272949219
 30
0.0
 40
2.5
100
AcDbArc
 50
180.0000000000004
 51
0.0
  0
ARC
  5
4CD
330
22
100
AcDbEntity
  8
0
  6
Continuous
 62
     7
100
AcDbCircle
 10
-482.3881225585938
 20
258.6767272949219
 30
0.0
 40
2.5
100
AcDbArc
 50
0.0
 51
180.0000000000004
  0
ARC
  5
4CE
330
22
100
AcDbEntity
  8
0
  6
Continuous
 62
     7
100
AcDbCircle
 10
-482.3881225585938
 20
269.676727294922
 30
0.0
 40
2.5
100
AcDbArc
 50
180.0000000000004
 51
0.0
  0
ARC
  5
4CF
330
22
100
AcDbEntity
  8
0
  6
Continuous
 62
     7
100
AcDbCircle
 10
-472.3881225585937
 20
279.6767272949219
 30
0.0
 40
2.5
100
AcDbArc
 50
0.0
 51
180.0000000000004
  0
ARC
  5
4D0
330
22
100
AcDbEntity
  8
0
  6
Continuous
 62
     7
100
AcDbCircle
 10
-562.3881225585939
 20
363.6767272949219
 30
0.0
 40
2.5
100
AcDbArc
 50
0.0
 51
180.0000000000004
  0
ARC
  5
4D1
330
22
100
AcDbEntity
  8
0
  6
Continuous
 62
     7
100
AcDbCircle
 10
-419.3881225585938
 20
300.6767272949219
 30
0.0
 40
2.5
100
AcDbArc
 50
0.0
 51
180.0000000000004
  0
ARC
  5
4D2
330
22
100
AcDbEntity
  8
0
  6
Continuous
 62
     7
100
AcDbCircle
 10
-419.3881225585938
 20
258.6767272949219
 30
0.0
 40
2.5
100
AcDbArc
 50
0.0
 51
180.0000000000004
  0
ARC
  5
4D3
330
22
100
AcDbEntity
  8
0
  6
Continuous
 62
     7
100
AcDbCircle
 10
-419.3881225585938
 20
269.676727294922
 30
0.0
 40
2.5
100
AcDbArc
 50
180.0000000000004
 51
0.0
  0
ARC
  5
4D4
330
22
100
AcDbEntity
  8
0
  6
Continuous
 62
     7
100
AcDbCircle
 10
-419.3881225585938
 20
311.6767272949219
 30
0.0
 40
2.5
100
AcDbArc
 50
180.0000000000004
 51
0.0
  0
ARC
  5
4D5
330
22
100
AcDbEntity
  8
0
  6
Continuous
 62
     7
100
AcDbCircle
 10
-419.3881225585938
 20
248.6767425537109
 30
0.0
 40
2.5
100
AcDbArc
 50
180.0000000000004
 51
0.0
  0
ARC
  5
4D6
330
22
100
AcDbEntity
  8
0
  6
Continuous
 62
     7
100
AcDbCircle
 10
-409.3881225585938
 20
248.6767425537109
 30
0.0
 40
2.5
100
AcDbArc
 50
180.0000000000004
 51
0.0
  0
ARC
  5
4D7
330
22
100
AcDbEntity
  8
0
  6
Continuous
 62
     7
100
AcDbCircle
 10
-409.3881225585938
 20
290.6767272949219
 30
0.0
 40
2.5
100
AcDbArc
 50
180.0000000000004
 51
0.0
  0
ARC
  5
4D8
330
22
100
AcDbEntity
  8
0
  6
Continuous
 62
     7
100
AcDbCircle
 10
-409.3881225585938
 20
279.6767272949219
 30
0.0
 40
2.5
100
AcDbArc
 50
0.0
 51
180.0000000000004
  0
ARC
  5
4D9
330
22
100
AcDbEntity
  8
0
  6
Continuous
 62
     7
100
AcDbCircle
 10
-462.3881225585938
 20
300.6767272949219
 30
0.0
 40
2.5
100
AcDbArc
 50
0.0
 51
180.0000000000004
  0
ARC
  5
4DA
330
22
100
AcDbEntity
  8
0
  6
Continuous
 62
     7
100
AcDbCircle
 10
-462.3881225585938
 20
248.6767425537109
 30
0.0
 40
2.5
100
AcDbArc
 50
180.0000000000004
 51
0.0
  0
ARC
  5
4DB
330
22
100
AcDbEntity
  8
0
  6
Continuous
 62
     7
100
AcDbCircle
 10
-462.3881225585938
 20
269.676727294922
 30
0.0
 40
2.5
100
AcDbArc
 50
180.0000000000004
 51
0.0
  0
ARC
  5
4DC
330
22
100
AcDbEntity
  8
0
  6
Continuous
 62
     7
100
AcDbCircle
 10
-462.3881225585938
 20
258.6767272949219
 30
0.0
 40
2.5
100
AcDbArc
 50
0.0
 51
180.0000000000004
  0
ARC
  5
4DD
330
22
100
AcDbEntity
  8
0
  6
Continuous
 62
     7
100
AcDbCircle
 10
-462.3881225585938
 20
311.6767272949219
 30
0.0
 40
2.5
100
AcDbArc
 50
180.0000000000004
 51
0.0
  0
ARC
  5
4DE
330
22
100
AcDbEntity
  8
0
  6
Continuous
 62
     7
100
AcDbCircle
 10
-502.3881225585937
 20
248.6767425537109
 30
0.0
 40
2.5
100
AcDbArc
 50
180.0000000000004
 51
0.0
  0
ARC
  5
4DF
330
22
100
AcDbEntity
  8
0
  6
Continuous
 62
     7
100
AcDbCircle
 10
-482.3881225585938
 20
300.6767272949219
 30
0.0
 40
2.5
100
AcDbArc
 50
0.0
 51
180.0000000000004
  0
ARC
  5
4E0
330
22
100
AcDbEntity
  8
0
  6
Continuous
 62
     7
100
AcDbCircle
 10
-482.3881225585938
 20
248.6767425537109
 30
0.0
 40
2.5
100
AcDbArc
 50
180.0000000000004
 51
0.0
  0
ARC
  5
4E1
330
22
100
AcDbEntity
  8
0
  6
Continuous
 62
     7
100
AcDbCircle
 10
-542.3881225585938
 20
343.0015869140625
 30
0.0
 40
2.5
100
AcDbArc
 50
0.0
 51
180.0000000000004
  0
ARC
  5
4E2
330
22
100
AcDbEntity
  8
0
  6
Continuous
 62
     7
100
AcDbCircle
 10
-562.3881225585939
 20
343.0015869140625
 30
0.0
 40
2.5
100
AcDbArc
 50
0.0
 51
180.0000000000004
  0
ARC
  5
4E3
330
22
100
AcDbEntity
  8
0
  6
Continuous
 62
     7
100
AcDbCircle
 10
-552.3881225585938
 20
332.6767272949219
 30
0.0
 40
2.5
100
AcDbArc
 50
180.0000000000004
 51
0.0
  0
ARC
  5
4E4
330
22
100
AcDbEntity
  8
0
  6
DASHED
 62
     7
100
AcDbCircle
 10
-568.6077880859374
 20
373.1767272949219
 30
0.0
 40
5.0
100
AcDbArc
 50
270.0000000000005
 51
330.0000695640014
  0
ARC
  5
4E5
330
22
100
AcDbEntity
  8
0
  6
Continuous
 62
     7
100
AcDbCircle
 10
-542.3881225585938
 20
354.0015869140625
 30
0.0
 40
2.5
100
AcDbArc
 50
180.0000000000004
 51
0.0
  0
ARC
  5
4E6
330
22
100
AcDbEntity
  8
0
  6
Continuous
 62
     7
100
AcDbCircle
 10
-562.3881225585939
 20
354.0015869140625
 30
0.0
 40
2.5
100
AcDbArc
 50
180.0000000000004
 51
0.0
  0
ARC
  5
4E7
330
22
100
AcDbEntity
  8
0
  6
Continuous
 62
     7
100
AcDbCircle
 10
-542.3881225585938
 20
363.6767272949219
 30
0.0
 40
2.5
100
AcDbArc
 50
0.0
 51
180.0000000000004
  0
ARC
  5
4E8
330
22
100
AcDbEntity
  8
0
  6
Continuous
 62
     7
100
AcDbCircle
 10
-552.3881225585938
 20
363.6767272949219
 30
0.0
 40
2.5
100
AcDbArc
 50
0.0
 51
180.0000000000004
  0
ARC
  5
4E9
330
22
100
AcDbEntity
  8
0
  6
Continuous
 62
     7
100
AcDbCircle
 10
-532.3881225585938
 20
332.6767272949219
 30
0.0
 40
2.5
100
AcDbArc
 50
180.0000000000004
 51
0.0
  0
CIRCLE
  5
4EA
330
22
100
AcDbEntity
  8
0
  6
Continuous
 62
     7
100
AcDbCircle
 10
-568.6077880859374
 20
373.2022705078125
 30
0.0
 40
4.5
  0
CIRCLE
  5
4EB
330
22
100
AcDbEntity
  8
0
  6
Continuous
 62
     7
100
AcDbCircle
 10
-568.6077880859374
 20
373.2022705078125
 30
0.0
 40
4.75
  0
ARC
  5
4EC
330
22
100
AcDbEntity
  8
0
  6
DASHED
 62
     7
100
AcDbCircle
 10
-568.6077880859374
 20
373.1767272949219
 30
0.0
 40
5.0
100
AcDbArc
 50
29.99993043599933
 51
90.00000000000019
  0
ARC
  5
4ED
330
22
100
AcDbEntity
  8
0
  6
Continuous
 62
     7
100
AcDbCircle
 10
-542.3881225585938
 20
248.6767425537109
 30
0.0
 40
2.5
100
AcDbArc
 50
180.0000000000004
 51
0.0
  0
ARC
  5
4EE
330
22
100
AcDbEntity
  8
0
  6
Continuous
 62
     7
100
AcDbCircle
 10
-552.3881225585938
 20
290.6767272949219
 30
0.0
 40
2.5
100
AcDbArc
 50
180.0000000000004
 51
0.0
  0
ARC
  5
4EF
330
22
100
AcDbEntity
  8
0
  6
Continuous
 62
     7
100
AcDbCircle
 10
-552.3881225585938
 20
248.6767425537109
 30
0.0
 40
2.5
100
AcDbArc
 50
180.0000000000004
 51
0.0
  0
ARC
  5
4F0
330
22
100
AcDbEntity
  8
0
  6
DASHED
 62
     7
100
AcDbCircle
 10
-568.8881225585937
 20
245.1767425537109
 30
0.0
 40
5.0
100
AcDbArc
 50
0.0
 51
90.00000000000019
  0
ARC
  5
4F1
330
22
100
AcDbEntity
  8
0
  6
DASHED
 62
     7
100
AcDbCircle
 10
-561.8881225585938
 20
243.6767425537109
 30
0.0
 40
2.0
100
AcDbArc
 50
180.0000000000004
 51
270.0000000000005
  0
ARC
  5
4F2
330
22
100
AcDbEntity
  8
0
  6
Continuous
 62
     7
100
AcDbCircle
 10
-562.3881225585939
 20
392.3518676757813
 30
0.0
 40
2.5
100
AcDbArc
 50
0.0
 51
180.0000000000004
  0
ARC
  5
4F3
330
22
100
AcDbEntity
  8
0
  6
Continuous
 62
     7
100
AcDbCircle
 10
-542.3881225585938
 20
392.3518676757813
 30
0.0
 40
2.5
100
AcDbArc
 50
0.0
 51
180.0000000000004
  0
ARC
  5
4F4
330
22
100
AcDbEntity
  8
0
  6
Continuous
 62
     7
100
AcDbCircle
 10
-542.3881225585938
 20
382.6767272949219
 30
0.0
 40
2.5
100
AcDbArc
 50
180.0000000000004
 51
0.0
  0
ARC
  5
4F5
330
22
100
AcDbEntity
  8
0
  6
Continuous
 62
     7
100
AcDbCircle
 10
-562.3881225585939
 20
382.6767272949219
 30
0.0
 40
2.5
100
AcDbArc
 50
180.0000000000004
 51
0.0
  0
ARC
  5
4F6
330
22
100
AcDbEntity
  8
0
  6
Continuous
 62
     7
100
AcDbCircle
 10
-532.3881225585938
 20
382.6767272949219
 30
0.0
 40
2.5
100
AcDbArc
 50
180.0000000000004
 51
0.0
  0
ARC
  5
4F7
330
22
100
AcDbEntity
  8
0
  6
Continuous
 62
     7
100
AcDbCircle
 10
-552.3881225585938
 20
382.6767272949219
 30
0.0
 40
2.5
100
AcDbArc
 50
180.0000000000004
 51
0.0
  0
ARC
  5
4F8
330
22
100
AcDbEntity
  8
0
  6
DASHED
 62
     7
100
AcDbCircle
 10
-570.3881225585937
 20
380.1767272949219
 30
0.0
 40
2.0
100
AcDbArc
 50
180.0000000000004
 51
270.0000000000005
  0
ARC
  5
4F9
330
22
100
AcDbEntity
  8
0
  6
DASHED
 62
     7
100
AcDbCircle
 10
-570.3881225585937
 20
366.1767272949219
 30
0.0
 40
2.0
100
AcDbArc
 50
90.00000000000019
 51
180.0000000000004
  0
ARC
  5
4FA
330
22
100
AcDbEntity
  8
0
  6
Continuous
 62
     7
100
AcDbCircle
 10
-532.3881225585938
 20
363.6767272949219
 30
0.0
 40
2.5
100
AcDbArc
 50
0.0
 51
180.0000000000004
  0
ARC
  5
4FB
330
22
100
AcDbEntity
  8
0
  6
Continuous
 62
     7
100
AcDbCircle
 10
-562.3881225585939
 20
269.676727294922
 30
0.0
 40
2.5
100
AcDbArc
 50
180.0000000000004
 51
0.0
  0
ARC
  5
4FC
330
22
100
AcDbEntity
  8
0
  6
Continuous
 62
     7
100
AcDbCircle
 10
-562.3881225585939
 20
300.6767272949219
 30
0.0
 40
2.5
100
AcDbArc
 50
0.0
 51
180.0000000000004
  0
ARC
  5
4FD
330
22
100
AcDbEntity
  8
0
  6
Continuous
 62
     7
100
AcDbCircle
 10
-542.3881225585938
 20
300.6767272949219
 30
0.0
 40
2.5
100
AcDbArc
 50
0.0
 51
180.0000000000004
  0
ARC
  5
4FE
330
22
100
AcDbEntity
  8
0
  6
Continuous
 62
     7
100
AcDbCircle
 10
-562.3881225585939
 20
258.6767272949219
 30
0.0
 40
2.5
100
AcDbArc
 50
0.0
 51
180.0000000000004
  0
ARC
  5
4FF
330
22
100
AcDbEntity
  8
0
  6
Continuous
 62
     7
100
AcDbCircle
 10
-542.3881225585938
 20
269.676727294922
 30
0.0
 40
2.5
100
AcDbArc
 50
180.0000000000004
 51
0.0
  0
ARC
  5
500
330
22
100
AcDbEntity
  8
0
  6
Continuous
 62
     7
100
AcDbCircle
 10
-542.3881225585938
 20
258.6767272949219
 30
0.0
 40
2.5
100
AcDbArc
 50
0.0
 51
180.0000000000004
  0
ARC
  5
501
330
22
100
AcDbEntity
  8
0
  6
Continuous
 62
     7
100
AcDbCircle
 10
-552.3881225585938
 20
279.6767272949219
 30
0.0
 40
2.5
100
AcDbArc
 50
0.0
 51
180.0000000000004
  0
CIRCLE
  5
502
330
22
100
AcDbEntity
  8
0
  6
Continuous
 62
     7
100
AcDbCircle
 10
-568.8881225585937
 20
245.1767425537109
 30
0.0
 40
4.5
  0
CIRCLE
  5
503
330
22
100
AcDbEntity
  8
0
  6
Continuous
 62
     7
100
AcDbCircle
 10
-568.8881225585937
 20
245.1767425537109
 30
0.0
 40
4.5
  0
CIRCLE
  5
504
330
22
100
AcDbEntity
  8
0
  6
Continuous
 62
     7
100
AcDbCircle
 10
-568.8881225585937
 20
245.1767425537109
 30
0.0
 40
4.75
  0
ARC
  5
505
330
22
100
AcDbEntity
  8
0
  6
Continuous
 62
     7
100
AcDbCircle
 10
-562.3881225585939
 20
253.6767425537109
 30
0.0
 40
2.5
100
AcDbArc
 50
180.0000000000004
 51
0.0
  0
ARC
  5
506
330
22
100
AcDbEntity
  8
0
  6
Continuous
 62
     7
100
AcDbCircle
 10
-295.8881225585938
 20
228.1767425537109
 30
0.0
 40
5.0
100
AcDbArc
 50
270.0000000000005
 51
0.0
  0
ARC
  5
507
330
22
100
AcDbEntity
  8
0
  6
DASHED
 62
     7
100
AcDbCircle
 10
-570.3881225585937
 20
252.1767425537109
 30
0.0
 40
2.0
100
AcDbArc
 50
180.0000000000004
 51
270.0000000000005
  0
ARC
  5
508
330
22
100
AcDbEntity
  8
0
  6
Continuous
 62
     7
100
AcDbCircle
 10
-532.3881225585938
 20
248.6767425537109
 30
0.0
 40
2.5
100
AcDbArc
 50
180.0000000000004
 51
0.0
  0
ARC
  5
509
330
22
100
AcDbEntity
  8
0
  6
Continuous
 62
     7
100
AcDbCircle
 10
-532.3881225585938
 20
290.6767272949219
 30
0.0
 40
2.5
100
AcDbArc
 50
180.0000000000004
 51
0.0
  0
ARC
  5
50A
330
22
100
AcDbEntity
  8
0
  6
Continuous
 62
     7
100
AcDbCircle
 10
-532.3881225585938
 20
279.6767272949219
 30
0.0
 40
2.5
100
AcDbArc
 50
0.0
 51
180.0000000000004
  0
ARC
  5
50B
330
22
100
AcDbEntity
  8
0
  6
Continuous
 62
     7
100
AcDbCircle
 10
-542.3881225585938
 20
311.6767272949219
 30
0.0
 40
2.5
100
AcDbArc
 50
180.0000000000004
 51
0.0
  0
ARC
  5
50C
330
22
100
AcDbEntity
  8
0
  6
Continuous
 62
     7
100
AcDbCircle
 10
-562.3881225585939
 20
311.6767272949219
 30
0.0
 40
2.5
100
AcDbArc
 50
180.0000000000004
 51
0.0
  0
ARC
  5
50D
330
22
100
AcDbEntity
  8
0
  6
Continuous
 62
     7
100
AcDbCircle
 10
-585.8881225585937
 20
228.1767425537109
 30
0.0
 40
5.0
100
AcDbArc
 50
180.0000000000004
 51
270.0000000000005
  0
ARC
  5
50E
330
22
100
AcDbEntity
  8
0
  6
Continuous
 62
     7
100
AcDbCircle
 10
-349.3881225585938
 20
321.6767272949219
 30
0.0
 40
2.5
100
AcDbArc
 50
0.0
 51
180.0000000000004
  0
ARC
  5
50F
330
22
100
AcDbEntity
  8
0
  6
Continuous
 62
     7
100
AcDbCircle
 10
-369.3881225585938
 20
321.6767272949219
 30
0.0
 40
2.5
100
AcDbArc
 50
0.0
 51
180.0000000000004
  0
ARC
  5
510
330
22
100
AcDbEntity
  8
0
  6
Continuous
 62
     7
100
AcDbCircle
 10
-329.3881225585938
 20
321.6767272949219
 30
0.0
 40
2.5
100
AcDbArc
 50
0.0
 51
180.0000000000004
  0
ARC
  5
511
330
22
100
AcDbEntity
  8
0
  6
Continuous
 62
     7
100
AcDbCircle
 10
-389.3881225585938
 20
321.6767272949219
 30
0.0
 40
2.5
100
AcDbArc
 50
0.0
 51
180.0000000000004
  0
ARC
  5
512
330
22
100
AcDbEntity
  8
0
  6
Continuous
 62
     7
100
AcDbCircle
 10
-339.3881225585938
 20
487.6767272949218
 30
0.0
 40
2.5
100
AcDbArc
 50
180.0000000000004
 51
0.0
  0
ARC
  5
513
330
22
100
AcDbEntity
  8
0
  6
Continuous
 62
     7
100
AcDbCircle
 10
-379.3881225585938
 20
487.6767272949218
 30
0.0
 40
2.5
100
AcDbArc
 50
180.0000000000004
 51
0.0
  0
ARC
  5
514
330
22
100
AcDbEntity
  8
0
  6
Continuous
 62
     7
100
AcDbCircle
 10
-359.3881225585938
 20
487.6767272949218
 30
0.0
 40
2.5
100
AcDbArc
 50
180.0000000000004
 51
0.0
  0
ARC
  5
515
330
22
100
AcDbEntity
  8
0
  6
Continuous
 62
     7
100
AcDbCircle
 10
-319.3881225585938
 20
487.6767272949218
 30
0.0
 40
2.5
100
AcDbArc
 50
180.0000000000004
 51
0.0
  0
ARC
  5
516
330
22
100
AcDbEntity
  8
0
  6
Continuous
 62
     7
100
AcDbCircle
 10
-502.3881225585937
 20
487.6767272949218
 30
0.0
 40
2.5
100
AcDbArc
 50
180.0000000000004
 51
0.0
  0
ARC
  5
517
330
22
100
AcDbEntity
  8
0
  6
Continuous
 62
     7
100
AcDbCircle
 10
-429.3881225585938
 20
321.6767272949219
 30
0.0
 40
2.5
100
AcDbArc
 50
0.0
 51
180.0000000000004
  0
ARC
  5
518
330
22
100
AcDbEntity
  8
0
  6
Continuous
 62
     7
100
AcDbCircle
 10
-542.3881225585938
 20
487.6767272949218
 30
0.0
 40
2.5
100
AcDbArc
 50
180.0000000000004
 51
0.0
  0
ARC
  5
519
330
22
100
AcDbEntity
  8
0
  6
Continuous
 62
     7
100
AcDbCircle
 10
-562.3881225585939
 20
487.6767272949218
 30
0.0
 40
2.5
100
AcDbArc
 50
180.0000000000004
 51
0.0
  0
ARC
  5
51A
330
22
100
AcDbEntity
  8
0
  6
Continuous
 62
     7
100
AcDbCircle
 10
-419.3881225585938
 20
487.6767272949218
 30
0.0
 40
2.5
100
AcDbArc
 50
180.0000000000004
 51
0.0
  0
ARC
  5
51B
330
22
100
AcDbEntity
  8
0
  6
Continuous
 62
     7
100
AcDbCircle
 10
-462.3881225585938
 20
487.6767272949218
 30
0.0
 40
2.5
100
AcDbArc
 50
180.0000000000004
 51
0.0
  0
ARC
  5
51C
330
22
100
AcDbEntity
  8
0
  6
Continuous
 62
     7
100
AcDbCircle
 10
-482.3881225585938
 20
487.6767272949218
 30
0.0
 40
2.5
100
AcDbArc
 50
180.0000000000004
 51
0.0
  0
ARC
  5
51D
330
22
100
AcDbEntity
  8
0
  6
Continuous
 62
     7
100
AcDbCircle
 10
-552.3881225585938
 20
321.6767272949219
 30
0.0
 40
2.5
100
AcDbArc
 50
0.0
 51
180.0000000000004
  0
ARC
  5
51E
330
22
100
AcDbEntity
  8
0
  6
Continuous
 62
     7
100
AcDbCircle
 10
-409.3881225585938
 20
321.6767272949219
 30
0.0
 40
2.5
100
AcDbArc
 50
0.0
 51
180.0000000000004
  0
ARC
  5
51F
330
22
100
AcDbEntity
  8
0
  6
Continuous
 62
     7
100
AcDbCircle
 10
-492.3881225585938
 20
321.6767272949219
 30
0.0
 40
2.5
100
AcDbArc
 50
0.0
 51
180.0000000000004
  0
ARC
  5
520
330
22
100
AcDbEntity
  8
0
  6
Continuous
 62
     7
100
AcDbCircle
 10
-512.3881225585939
 20
321.6767272949219
 30
0.0
 40
2.5
100
AcDbArc
 50
0.0
 51
180.0000000000004
  0
ARC
  5
521
330
22
100
AcDbEntity
  8
0
  6
Continuous
 62
     7
100
AcDbCircle
 10
-472.3881225585937
 20
321.6767272949219
 30
0.0
 40
2.5
100
AcDbArc
 50
0.0
 51
180.0000000000004
  0
ARC
  5
522
330
22
100
AcDbEntity
  8
0
  6
Continuous
 62
     7
100
AcDbCircle
 10
-452.3881225585937
 20
321.6767272949219
 30
0.0
 40
2.5
100
AcDbArc
 50
0.0
 51
180.0000000000004
  0
ARC
  5
523
330
22
100
AcDbEntity
  8
0
  6
Continuous
 62
     7
100
AcDbCircle
 10
-532.3881225585938
 20
321.6767272949219
 30
0.0
 40
2.5
100
AcDbArc
 50
0.0
 51
180.0000000000004
  0
ARC
  5
524
330
22
100
AcDbEntity
  8
0
  6
Continuous
 62
     7
100
AcDbCircle
 10
-522.3881225585938
 20
363.6767272949219
 30
0.0
 40
2.5
100
AcDbArc
 50
0.0
 51
180.0000000000004
  0
ARC
  5
525
330
22
100
AcDbEntity
  8
0
  6
Continuous
 62
     7
100
AcDbCircle
 10
-522.3881225585938
 20
354.0015869140625
 30
0.0
 40
2.5
100
AcDbArc
 50
180.0000000000004
 51
0.0
  0
ARC
  5
526
330
22
100
AcDbEntity
  8
0
  6
Continuous
 62
     7
100
AcDbCircle
 10
-522.3881225585938
 20
343.0015869140625
 30
0.0
 40
2.5
100
AcDbArc
 50
0.0
 51
180.0000000000004
  0
ARC
  5
527
330
22
100
AcDbEntity
  8
0
  6
Continuous
 62
     7
100
AcDbCircle
 10
-522.3881225585938
 20
311.6767272949219
 30
0.0
 40
2.5
100
AcDbArc
 50
180.0000000000004
 51
0.0
  0
ARC
  5
528
330
22
100
AcDbEntity
  8
0
  6
Continuous
 62
     7
100
AcDbCircle
 10
-522.3881225585938
 20
258.6767272949219
 30
0.0
 40
2.5
100
AcDbArc
 50
0.0
 51
180.0000000000004
  0
ARC
  5
529
330
22
100
AcDbEntity
  8
0
  6
Continuous
 62
     7
100
AcDbCircle
 10
-522.3881225585938
 20
269.676727294922
 30
0.0
 40
2.5
100
AcDbArc
 50
180.0000000000004
 51
0.0
  0
ARC
  5
52A
330
22
100
AcDbEntity
  8
0
  6
Continuous
 62
     7
100
AcDbCircle
 10
-522.3881225585938
 20
300.6767272949219
 30
0.0
 40
2.5
100
AcDbArc
 50
0.0
 51
180.0000000000004
  0
ARC
  5
52B
330
22
100
AcDbEntity
  8
0
  6
Continuous
 62
     7
100
AcDbCircle
 10
-522.3881225585938
 20
248.6767425537109
 30
0.0
 40
2.5
100
AcDbArc
 50
180.0000000000004
 51
0.0
  0
ARC
  5
52C
330
22
100
AcDbEntity
  8
0
  6
Continuous
 62
     7
100
AcDbCircle
 10
-522.3881225585938
 20
487.6767272949218
 30
0.0
 40
2.5
100
AcDbArc
 50
180.0000000000004
 51
0.0
  0
ARC
  5
52D
330
22
100
AcDbEntity
  8
0
  6
Continuous
 62
     7
100
AcDbCircle
 10
-522.3881225585938
 20
434.6767272949218
 30
0.0
 40
2.5
100
AcDbArc
 50
0.0
 51
180.0000000000004
  0
ARC
  5
52E
330
22
100
AcDbEntity
  8
0
  6
Continuous
 62
     7
100
AcDbCircle
 10
-522.3881225585938
 20
445.6767272949218
 30
0.0
 40
2.5
100
AcDbArc
 50
180.0000000000004
 51
0.0
  0
ARC
  5
52F
330
22
100
AcDbEntity
  8
0
  6
Continuous
 62
     7
100
AcDbCircle
 10
-522.3881225585938
 20
476.6767272949218
 30
0.0
 40
2.5
100
AcDbArc
 50
0.0
 51
180.0000000000004
  0
ARC
  5
530
330
22
100
AcDbEntity
  8
0
  6
Continuous
 62
     7
100
AcDbCircle
 10
-522.3881225585938
 20
497.6767272949218
 30
0.0
 40
2.5
100
AcDbArc
 50
0.0
 51
180.0000000000004
  0
ARC
  5
531
330
22
100
AcDbEntity
  8
0
  6
Continuous
 62
     7
100
AcDbCircle
 10
-339.3881225585938
 20
403.3518676757813
 30
0.0
 40
2.5
100
AcDbArc
 50
180.0000000000004
 51
0.0
  0
ARC
  5
532
330
22
100
AcDbEntity
  8
0
  6
Continuous
 62
     7
100
AcDbCircle
 10
-522.3881225585938
 20
392.3518676757813
 30
0.0
 40
2.5
100
AcDbArc
 50
0.0
 51
180.0000000000004
  0
ARC
  5
533
330
22
100
AcDbEntity
  8
0
  6
Continuous
 62
     7
100
AcDbCircle
 10
-522.3881225585938
 20
382.6767272949219
 30
0.0
 40
2.5
100
AcDbArc
 50
180.0000000000004
 51
0.0
  0
ARC
  5
534
330
22
100
AcDbEntity
  8
0
  6
Continuous
 62
     7
100
AcDbCircle
 10
-319.3881225585938
 20
403.3518676757813
 30
0.0
 40
2.5
100
AcDbArc
 50
180.0000000000004
 51
0.0
  0
ARC
  5
535
330
22
100
AcDbEntity
  8
0
  6
Continuous
 62
     7
100
AcDbCircle
 10
-379.3881225585938
 20
403.3518676757813
 30
0.0
 40
2.5
100
AcDbArc
 50
180.0000000000004
 51
0.0
  0
ARC
  5
536
330
22
100
AcDbEntity
  8
0
  6
Continuous
 62
     7
100
AcDbCircle
 10
-359.3881225585938
 20
403.3518676757813
 30
0.0
 40
2.5
100
AcDbArc
 50
180.0000000000004
 51
0.0
  0
ARC
  5
537
330
22
100
AcDbEntity
  8
0
  6
Continuous
 62
     7
100
AcDbCircle
 10
-462.3881225585938
 20
403.3518676757813
 30
0.0
 40
2.5
100
AcDbArc
 50
180.0000000000004
 51
0.0
  0
ARC
  5
538
330
22
100
AcDbEntity
  8
0
  6
Continuous
 62
     7
100
AcDbCircle
 10
-522.3881225585938
 20
403.3518676757813
 30
0.0
 40
2.5
100
AcDbArc
 50
180.0000000000004
 51
0.0
  0
ARC
  5
539
330
22
100
AcDbEntity
  8
0
  6
Continuous
 62
     7
100
AcDbCircle
 10
-562.3881225585939
 20
403.3518676757813
 30
0.0
 40
2.5
100
AcDbArc
 50
180.0000000000004
 51
0.0
  0
ARC
  5
53A
330
22
100
AcDbEntity
  8
0
  6
Continuous
 62
     7
100
AcDbCircle
 10
-542.3881225585938
 20
403.3518676757813
 30
0.0
 40
2.5
100
AcDbArc
 50
180.0000000000004
 51
0.0
  0
ARC
  5
53B
330
22
100
AcDbEntity
  8
0
  6
Continuous
 62
     7
100
AcDbCircle
 10
-502.3881225585937
 20
403.3518676757813
 30
0.0
 40
2.5
100
AcDbArc
 50
180.0000000000004
 51
0.0
  0
ARC
  5
53C
330
22
100
AcDbEntity
  8
0
  6
Continuous
 62
     7
100
AcDbCircle
 10
-482.3881225585938
 20
403.3518676757813
 30
0.0
 40
2.5
100
AcDbArc
 50
180.0000000000004
 51
0.0
  0
ARC
  5
53D
330
22
100
AcDbEntity
  8
0
  6
Continuous
 62
     7
100
AcDbCircle
 10
-399.3881225585938
 20
403.3518676757813
 30
0.0
 40
2.5
100
AcDbArc
 50
180.0000000000004
 51
0.0
  0
ARC
  5
53E
330
22
100
AcDbEntity
  8
0
  6
Continuous
 62
     7
100
AcDbCircle
 10
-399.3881225585938
 20
487.6767272949218
 30
0.0
 40
2.5
100
AcDbArc
 50
180.0000000000004
 51
0.0
  0
ARC
  5
53F
330
22
100
AcDbEntity
  8
0
  6
Continuous
 62
     7
100
AcDbCircle
 10
-399.3881225585938
 20
497.6767272949218
 30
0.0
 40
2.5
100
AcDbArc
 50
0.0
 51
180.0000000000004
  0
ARC
  5
540
330
22
100
AcDbEntity
  8
0
  6
Continuous
 62
     7
100
AcDbCircle
 10
-399.3881225585938
 20
445.6767272949218
 30
0.0
 40
2.5
100
AcDbArc
 50
180.0000000000004
 51
0.0
  0
ARC
  5
541
330
22
100
AcDbEntity
  8
0
  6
Continuous
 62
     7
100
AcDbCircle
 10
-399.3881225585938
 20
434.6767272949218
 30
0.0
 40
2.5
100
AcDbArc
 50
0.0
 51
180.0000000000004
  0
ARC
  5
542
330
22
100
AcDbEntity
  8
0
  6
Continuous
 62
     7
100
AcDbCircle
 10
-399.3881225585938
 20
476.6767272949218
 30
0.0
 40
2.5
100
AcDbArc
 50
0.0
 51
180.0000000000004
  0
ARC
  5
543
330
22
100
AcDbEntity
  8
0
  6
Continuous
 62
     7
100
AcDbCircle
 10
-419.3881225585938
 20
403.3518676757813
 30
0.0
 40
2.5
100
AcDbArc
 50
180.0000000000004
 51
0.0
  0
ARC
  5
544
330
22
100
AcDbEntity
  8
0
  6
Continuous
 62
     7
100
AcDbCircle
 10
-399.3881225585938
 20
392.3518676757813
 30
0.0
 40
2.5
100
AcDbArc
 50
0.0
 51
180.0000000000004
  0
ARC
  5
545
330
22
100
AcDbEntity
  8
0
  6
Continuous
 62
     7
100
AcDbCircle
 10
-399.3881225585938
 20
382.6767272949219
 30
0.0
 40
2.5
100
AcDbArc
 50
180.0000000000004
 51
0.0
  0
ARC
  5
546
330
22
100
AcDbEntity
  8
0
  6
Continuous
 62
     7
100
AcDbCircle
 10
-399.3881225585938
 20
311.6767272949219
 30
0.0
 40
2.5
100
AcDbArc
 50
180.0000000000004
 51
0.0
  0
ARC
  5
547
330
22
100
AcDbEntity
  8
0
  6
Continuous
 62
     7
100
AcDbCircle
 10
-399.3881225585938
 20
353.6767272949219
 30
0.0
 40
2.5
100
AcDbArc
 50
180.0000000000004
 51
0.0
  0
ARC
  5
548
330
22
100
AcDbEntity
  8
0
  6
Continuous
 62
     7
100
AcDbCircle
 10
-399.3881225585938
 20
342.6767272949219
 30
0.0
 40
2.5
100
AcDbArc
 50
0.0
 51
180.0000000000004
  0
ARC
  5
549
330
22
100
AcDbEntity
  8
0
  6
Continuous
 62
     7
100
AcDbCircle
 10
-399.3881225585938
 20
363.6767272949219
 30
0.0
 40
2.5
100
AcDbArc
 50
0.0
 51
180.0000000000004
  0
ARC
  5
54A
330
22
100
AcDbEntity
  8
0
  6
Continuous
 62
     7
100
AcDbCircle
 10
-399.3881225585938
 20
269.676727294922
 30
0.0
 40
2.5
100
AcDbArc
 50
180.0000000000004
 51
0.0
  0
ARC
  5
54B
330
22
100
AcDbEntity
  8
0
  6
Continuous
 62
     7
100
AcDbCircle
 10
-399.3881225585938
 20
300.6767272949219
 30
0.0
 40
2.5
100
AcDbArc
 50
0.0
 51
180.0000000000004
  0
ARC
  5
54C
330
22
100
AcDbEntity
  8
0
  6
Continuous
 62
     7
100
AcDbCircle
 10
-399.3881225585938
 20
258.6767272949219
 30
0.0
 40
2.5
100
AcDbArc
 50
0.0
 51
180.0000000000004
  0
ARC
  5
54D
330
22
100
AcDbEntity
  8
0
  6
Continuous
 62
     7
100
AcDbCircle
 10
-399.3881225585938
 20
248.6767425537109
 30
0.0
 40
2.5
100
AcDbArc
 50
180.0000000000004
 51
0.0
  0
ARC
  5
54E
330
22
100
AcDbEntity
  8
0
  6
Continuous
 62
     7
100
AcDbCircle
 10
-308.3881225585938
 20
240.6767425537109
 30
0.0
 40
2.0
100
AcDbArc
 50
270.0000000000005
 51
0.0
  0
ARC
  5
54F
330
22
100
AcDbEntity
  8
0
  6
Continuous
 62
     7
100
AcDbCircle
 10
-306.3881225585938
 20
238.6767425537109
 30
0.0
 40
1.0
100
AcDbArc
 50
270.0000000000005
 51
0.0
  0
ARC
  5
550
330
22
100
AcDbEntity
  8
0
  6
Continuous
 62
     7
100
AcDbCircle
 10
-573.3881225585937
 20
240.6767425537109
 30
0.0
 40
2.0
100
AcDbArc
 50
180.0000000000004
 51
270.0000000000005
  0
ARC
  5
551
330
22
100
AcDbEntity
  8
0
  6
Continuous
 62
     7
100
AcDbCircle
 10
-575.3881225585937
 20
238.6767425537109
 30
0.0
 40
1.0
100
AcDbArc
 50
180.0000000000004
 51
270.0000000000005
  0
LWPOLYLINE
  5
552
330
22
100
AcDbEntity
  8
0
  6
Continuous
 62
     7
100
AcDbPolyline
 90
       17
 70
     0
 43
0.0
 10
-462.4410228471113
 20
71.14263916012999
 42
0.0401679067373621
 10
-462.6121669851818
 20
71.55187143366671
 42
0.0401679067373621
 10
-462.8524096717382
 20
71.95057323237718
 42
0.0401679067373621
 10
-463.1555689174143
 20
72.32848505444231
 42
0.0401679067373621
 10
-463.513843747039
 20
72.67588237130856
 42
0.0401679067373621
 10
-463.9180149364248
 20
72.98382586186962
 42
0.0401679067373621
 10
-464.3576822439221
 20
73.2443914414793
 42
0.0401679067373621
 10
-464.8215320322321
 20
73.4508741666268
 42
0.0401679067373621
 10
-465.2976283939613
 20
73.59796076834493
 42
0.0401679067373621
 10
-465.7737202895985
 20
73.68186637467484
 42
0.0401679067373621
 10
-466.2375567945552
 20
73.70043190400827
 42
0.0401679067373621
 10
-466.6772023432489
 20
73.65317962315569
 42
0.0401679067373621
 10
-467.0813438582841
 20
73.54132544050512
 42
0.0401679067373621
 10
-467.4395818615993
 20
73.36774761794071
 42
0.0401679067373621
 10
-467.7426980766318
 20
73.13691270663454
 42
0.0401679067373621
 10
-467.9828926354865
 20
72.85476061255171
 42
0.0401679067373621
 10
-468.1539847872322
 20
72.52855174919388
 42
-1.0
  0
TEXT
  5
565
330
22
100
AcDbEntity
  8
0
  6
Continuous
 62
     7
100
AcDbText
 10
-213.7038354873657
 20
173.4703369140625
 30
0.0
 40
7.0
  1
DL-SK4-80GB
 41
1.020317531767346
100
AcDbText
  0
INSERT
  5
566
330
22
100
AcDbEntity
  8
0
  6
Continuous
 62
     7
100
AcDbBlockReference
  2
KOZU0001
 10
-398.8153991699219
 20
60.2769889831543
 30
0.0
  0
DIMENSION
  5
567
330
22
100
AcDbEntity
  8
0
  6
Continuous
 62
     7
100
AcDbDimension
  2
*D1
 10
-250.7546997070313
 20
523.1767578124999
 30
0.0
 11
-250.7546997070313
 21
373.1767272949219
 31
0.0
 71
     5
 42
-1.0
  3
DIMSTYLE1
100
AcDbAlignedDimension
 13
-295.8881225585938
 23
223.1767425537109
 33
0.0
 14
-295.8881225585938
 24
523.1767578124999
 34
0.0
 50
90.0
100
AcDbRotatedDimension
  0
DIMENSION
  5
568
330
22
100
AcDbEntity
  8
0
  6
Continuous
 62
     7
100
AcDbDimension
  2
*D2
 10
-290.8881225585938
 20
557.2726440429688
 30
0.0
 11
-440.8881225585938
 21
557.2726440429688
 31
0.0
 71
     5
 42
-1.0
  3
DIMSTYLE2
100
AcDbAlignedDimension
 13
-590.8881225585937
 23
518.1767578125
 33
0.0
 14
-290.8881225585938
 24
518.1767578125
 34
0.0
100
AcDbRotatedDimension
  0
DIMENSION
  5
569
330
22
100
AcDbEntity
  8
0
  6
Continuous
 62
     7
100
AcDbDimension
  2
*D3
 10
-264.8357543945313
 20
151.5848388671875
 30
0.0
 11
-264.8357543945313
 21
99.0848388671875
 31
0.0
 71
     5
 42
-1.0
  3
DIMSTYLE3
100
AcDbAlignedDimension
 13
-391.3883972167969
 23
46.5848388671875
 33
0.0
 14
-291.8881225585938
 24
151.5848388671875
 34
0.0
 50
90.0
100
AcDbRotatedDimension
  0
DIMENSION
  5
56A
330
22
100
AcDbEntity
  8
0
  6
Continuous
 62
     7
100
AcDbDimension
  2
*D4
 10
-305.3881225585938
 20
544.1240234374999
 30
0.0
 11
-440.8881225585938
 21
544.1240234374999
 31
0.0
 71
     5
 42
-1.0
  3
DIMSTYLE4
100
AcDbAlignedDimension
 13
-576.3881225585937
 23
507.6767272949219
 33
0.0
 14
-305.3881225585938
 24
507.6767272949219
 34
0.0
100
AcDbRotatedDimension
  0
DIMENSION
  5
56B
330
22
100
AcDbEntity
  8
0
  6
Continuous
 62
     7
100
AcDbDimension
  2
*D5
 10
-264.8357543945313
 20
508.6767272949218
 30
0.0
 11
-264.8357543945313
 21
373.1767272949219
 31
0.0
 71
     5
 42
-1.0
  3
DIMSTYLE5
100
AcDbAlignedDimension
 13
-306.3881225585938
 23
237.6767425537109
 33
0.0
 14
-306.3881225585938
 24
508.6767272949218
 34
0.0
 50
90.0
100
AcDbRotatedDimension
  0
ENDSEC
  0
SECTION
  2
OBJECTS
  0
DICTIONARY
  5
C
330
0
100
AcDbDictionary
281
     1
  3
ACAD_COLOR
350
1B
  3
ACAD_GROUP
350
D
  3
ACAD_LAYOUT
350
19
  3
ACAD_MATERIAL
350
1A
  3
ACAD_MLINESTYLE
350
16
  3
ACAD_PLOTSETTINGS
350
18
  3
ACAD_PLOTSTYLENAME
350
E
  3
ACAD_TABLESTYLE
350
1C
  3
AcDbVariableDictionary
350
577
  0
DICTIONARY
  5
1B
102
{ACAD_REACTORS
330
C
102
}
330
C
100
AcDbDictionary
281
     1
  0
DICTIONARY
  5
D
102
{ACAD_REACTORS
330
C
102
}
330
C
100
AcDbDictionary
281
     1
  0
DICTIONARY
  5
19
102
{ACAD_REACTORS
330
C
102
}
330
C
100
AcDbDictionary
281
     1
  3
Model
350
25
  3
レイアウト1
350
21
  0
DICTIONARY
  5
1A
102
{ACAD_REACTORS
330
C
102
}
330
C
100
AcDbDictionary
281
     1
  0
DICTIONARY
  5
16
102
{ACAD_REACTORS
330
C
102
}
330
C
100
AcDbDictionary
281
     1
  3
Standard
350
17
  0
DICTIONARY
  5
18
102
{ACAD_REACTORS
330
C
102
}
330
C
100
AcDbDictionary
281
     1
  0
ACDBDICTIONARYWDFLT
  5
E
102
{ACAD_REACTORS
330
C
102
}
330
C
100
AcDbDictionary
281
     1
  3
Normal
350
F
100
AcDbDictionaryWithDefault
340
F
  0
DICTIONARY
  5
1C
102
{ACAD_REACTORS
330
C
102
}
330
C
100
AcDbDictionary
281
     1
  3
Standard
350
1D
  0
DICTIONARY
  5
577
102
{ACAD_REACTORS
330
C
102
}
330
C
100
AcDbDictionary
281
     1
  3
CTABLESTYLE
350
578
  0
LAYOUT
  5
25
102
{ACAD_REACTORS
330
19
102
}
330
19
100
AcDbPlotSettings
  1

  2
PDF reDirect v2
  4
User120
  6

 40
3.174999952316284
 41
3.174999952316284
 42
3.17498779296875
 43
3.17498779296875
 44
594.0
 45
841.0
 46
0.0
 47
0.0
 48
0.0
 49
0.0
140
0.0
141
0.0
142
1.0
143
1.0
 70
 11952
 72
     1
 73
     1
 74
     2
  7
C:\Users\ck\AppData\Roaming\Autodesk\AutoCAD 2005\R16.1\jpn\Plot Styles\black.ctb
 75
    16
147
1.0
 76
     0
 77
     2
 78
   300
148
839.0
149
0.0
100
AcDbLayout
  1
Model
 70
     1
 71
     0
 10
0.0
 20
0.0
 11
12.0
 21
9.0
 12
0.0
 22
0.0
 32
0.0
 14
0.0
 24
0.0
 34
0.0
 15
0.0
 25
0.0
 35
0.0
146
0.0
 13
0.0
 23
0.0
 33
0.0
 16
1.0
 26
0.0
 36
0.0
 17
0.0
 27
1.0
 37
0.0
 76
     0
330
22
1001
ACAD_PSEXT
1000
PDF reDirect v2
1000
PDF reDirect Pro
1000
PDF_REDIRECT_PORT:
1000
PDF reDirect provided by EXP Systems
1070
     0
  0
LAYOUT
  5
21
102
{ACAD_REACTORS
330
19
102
}
330
19
100
AcDbPlotSettings
  1

  2
PDF reDirect v2
  4

  6

 40
0.0
 41
0.0
 42
0.0
 43
0.0
 44
0.0
 45
0.0
 46
0.0
 47
0.0
 48
0.0
 49
0.0
140
0.0
141
0.0
142
1.0
143
1.0
 70
   688
 72
     0
 73
     0
 74
     5
  7
C:\Users\ck\AppData\Roaming\Autodesk\AutoCAD 2005\R16.1\jpn\Plot Styles\black.ctb
 75
    16
147
1.0
 76
     0
 77
     2
 78
   300
148
0.0
149
0.0
100
AcDbLayout
  1
レイアウト1
 70
     1
 71
     1
 10
-839.0
 20
0.0
 11
0.0
 21
591.0
 12
0.0
 22
0.0
 32
0.0
 14
1.000000000000000E+20
 24
1.000000000000000E+20
 34
1.000000000000000E+20
 15
-1.000000000000000E+20
 25
-1.000000000000000E+20
 35
-1.000000000000000E+20
146
0.0
 13
0.0
 23
0.0
 33
0.0
 16
1.0
 26
0.0
 36
0.0
 17
0.0
 27
1.0
 37
0.0
 76
     0
330
1E
  0
MLINESTYLE
  5
17
102
{ACAD_REACTORS
330
16
102
}
330
16
100
AcDbMlineStyle
  2
STANDARD
 70
     0
  3

 62
   256
 51
90.0
 52
90.0
 71
     2
 49
0.5
 62
   256
  6
BYLAYER
 49
-0.5
 62
   256
  6
BYLAYER
  0
ACDBPLACEHOLDER
  5
F
102
{ACAD_REACTORS
330
E
102
}
330
E
  0
TABLESTYLE
  5
1D
102
{ACAD_REACTORS
330
1C
102
}
330
1C
100
AcDbTableStyle
  3
Standard
 70
     0
 71
     0
 40
0.06
 41
0.06
280
     0
281
     0
  7
STANDARD
140
0.18
170
     2
 62
     0
 63
     7
283
     0
274
    -2
284
     1
 64
     0
275
    -2
285
     1
 65
     0
276
    -2
286
     1
 66
     0
277
    -2
287
     1
 67
     0
278
    -2
288
     1
 68
     0
279
    -2
289
     1
 69
     0
  7
STANDARD
140
0.25
170
     5
 62
     0
 63
     7
283
     0
274
    -2
284
     1
 64
     0
275
    -2
285
     1
 65
     0
276
    -2
286
     1
 66
     0
277
    -2
287
     1
 67
     0
278
    -2
288
     1
 68
     0
279
    -2
289
     1
 69
     0
  7
STANDARD
140
0.18
170
     5
 62
     0
 63
     7
283
     0
274
    -2
284
     1
 64
     0
275
    -2
285
     1
 65
     0
276
    -2
286
     1
 66
     0
277
    -2
287
     1
 67
     0
278
    -2
288
     1
 68
     0
279
    -2
289
     1
 69
     0
  0
DICTIONARYVAR
  5
578
102
{ACAD_REACTORS
330
577
102
}
330
577
100
DictionaryVariables
280
     0
  1
STANDARD
  0
ENDSEC
  0
EOF
