  0
SECTION
  2
HEADER
  9
$ACADVER
  1
AC1018
  9
$ACADMAINTVER
 70
    39
  9
$DWGCODEPAGE
  3
ANSI_932
  9
$INSBASE
 10
0.0
 20
0.0
 30
0.0
  9
$EXTMIN
 10
-754.5173001996213
 20
91.70161644008658
 30
-0.0015258207003583
  9
$EXTMAX
 10
-400.6052528296195
 20
797.9947986586426
 30
0.0000000349246037
  9
$LIMMIN
 10
-1187.0
 20
0.0
  9
$LIMMAX
 10
0.0
 20
839.0
  9
$ORTHOMODE
 70
     0
  9
$REGENMODE
 70
     1
  9
$FILLMODE
 70
     1
  9
$QTEXTMODE
 70
     0
  9
$MIRRTEXT
 70
     0
  9
$LTSCALE
 40
1.0
  9
$ATTMODE
 70
     1
  9
$TEXTSIZE
 40
0.2
  9
$TRACEWID
 40
0.05
  9
$TEXTSTYLE
  7
STANDARD
  9
$CLAYER
  8
0
  9
$CELTYPE
  6
CONTINUOUS
  9
$CECOLOR
 62
   256
  9
$CELTSCALE
 40
1.0
  9
$DISPSILH
 70
     0
  9
$DIMSCALE
 40
1.0
  9
$DIMASZ
 40
1.0
  9
$DIMEXO
 40
2.54
  9
$DIMDLI
 40
0.38
  9
$DIMRND
 40
0.0
  9
$DIMDLE
 40
0.0
  9
$DIMEXE
 40
2.54
  9
$DIMTP
 40
0.0
  9
$DIMTM
 40
0.0
  9
$DIMTXT
 40
3.0
  9
$DIMCEN
 40
0.09
  9
$DIMTSZ
 40
0.0
  9
$DIMTOL
 70
     0
  9
$DIMLIM
 70
     0
  9
$DIMTIH
 70
     0
  9
$DIMTOH
 70
     0
  9
$DIMSE1
 70
     0
  9
$DIMSE2
 70
     0
  9
$DIMTAD
 70
     1
  9
$DIMZIN
 70
     0
  9
$DIMBLK
  1

  9
$DIMASO
 70
     1
  9
$DIMSHO
 70
     0
  9
$DIMPOST
  1

  9
$DIMAPOST
  1

  9
$DIMALT
 70
     0
  9
$DIMALTD
 70
     2
  9
$DIMALTF
 40
25.4
  9
$DIMLFAC
 40
1.0
  9
$DIMTOFL
 70
     0
  9
$DIMTVP
 40
1.0
  9
$DIMTIX
 70
     0
  9
$DIMSOXD
 70
     0
  9
$DIMSAH
 70
     1
  9
$DIMBLK1
  1

  9
$DIMBLK2
  1

  9
$DIMSTYLE
  2
DIMSTYLE1
  9
$DIMCLRD
 70
     0
  9
$DIMCLRE
 70
     0
  9
$DIMCLRT
 70
     0
  9
$DIMTFAC
 40
1.0
  9
$DIMGAP
 40
1.5
  9
$DIMJUST
 70
     0
  9
$DIMSD1
 70
     0
  9
$DIMSD2
 70
     0
  9
$DIMTOLJ
 70
     1
  9
$DIMTZIN
 70
     0
  9
$DIMALTZ
 70
     0
  9
$DIMALTTZ
 70
     0
  9
$DIMUPT
 70
     0
  9
$DIMDEC
 70
     4
  9
$DIMTDEC
 70
     4
  9
$DIMALTU
 70
     2
  9
$DIMALTTD
 70
     2
  9
$DIMTXSTY
  7
STANDARD
  9
$DIMAUNIT
 70
     0
  9
$DIMADEC
 70
     0
  9
$DIMALTRND
 40
0.0
  9
$DIMAZIN
 70
     0
  9
$DIMDSEP
 70
    46
  9
$DIMATFIT
 70
     3
  9
$DIMFRAC
 70
     0
  9
$DIMLDRBLK
  1

  9
$DIMLUNIT
 70
     2
  9
$DIMLWD
 70
    -2
  9
$DIMLWE
 70
    -2
  9
$DIMTMOVE
 70
     0
  9
$LUNITS
 70
     2
  9
$LUPREC
 70
     4
  9
$SKETCHINC
 40
0.1
  9
$FILLETRAD
 40
0.0
  9
$AUNITS
 70
     0
  9
$AUPREC
 70
     0
  9
$MENU
  1
.
  9
$ELEVATION
 40
0.0
  9
$PELEVATION
 40
0.0
  9
$THICKNESS
 40
0.0
  9
$LIMCHECK
 70
     0
  9
$CHAMFERA
 40
0.0
  9
$CHAMFERB
 40
0.0
  9
$CHAMFERC
 40
0.0
  9
$CHAMFERD
 40
0.0
  9
$SKPOLY
 70
     0
  9
$TDCREATE
 40
2457706.821190359
  9
$TDUCREATE
 40
2457706.446190359
  9
$TDUPDATE
 40
2457706.822003692
  9
$TDUUPDATE
 40
2457706.447003692
  9
$TDINDWG
 40
0.0008144907
  9
$TDUSRTIMER
 40
0.0008144907
  9
$USRTIMER
 70
     1
  9
$ANGBASE
 50
0.0
  9
$ANGDIR
 70
     0
  9
$PDMODE
 70
     0
  9
$PDSIZE
 40
0.0
  9
$PLINEWID
 40
0.0
  9
$SPLFRAME
 70
     0
  9
$SPLINETYPE
 70
     6
  9
$SPLINESEGS
 70
     8
  9
$HANDSEED
  5
6C6
  9
$SURFTAB1
 70
     6
  9
$SURFTAB2
 70
     6
  9
$SURFTYPE
 70
     6
  9
$SURFU
 70
     6
  9
$SURFV
 70
     6
  9
$UCSBASE
  2

  9
$UCSNAME
  2

  9
$UCSORG
 10
0.0
 20
0.0
 30
0.0
  9
$UCSXDIR
 10
1.0
 20
0.0
 30
0.0
  9
$UCSYDIR
 10
0.0
 20
1.0
 30
0.0
  9
$UCSORTHOREF
  2

  9
$UCSORTHOVIEW
 70
     0
  9
$UCSORGTOP
 10
0.0
 20
0.0
 30
0.0
  9
$UCSORGBOTTOM
 10
0.0
 20
0.0
 30
0.0
  9
$UCSORGLEFT
 10
0.0
 20
0.0
 30
0.0
  9
$UCSORGRIGHT
 10
0.0
 20
0.0
 30
0.0
  9
$UCSORGFRONT
 10
0.0
 20
0.0
 30
0.0
  9
$UCSORGBACK
 10
0.0
 20
0.0
 30
0.0
  9
$PUCSBASE
  2

  9
$PUCSNAME
  2

  9
$PUCSORG
 10
0.0
 20
0.0
 30
0.0
  9
$PUCSXDIR
 10
1.0
 20
0.0
 30
0.0
  9
$PUCSYDIR
 10
0.0
 20
1.0
 30
0.0
  9
$PUCSORTHOREF
  2

  9
$PUCSORTHOVIEW
 70
     0
  9
$PUCSORGTOP
 10
0.0
 20
0.0
 30
0.0
  9
$PUCSORGBOTTOM
 10
0.0
 20
0.0
 30
0.0
  9
$PUCSORGLEFT
 10
0.0
 20
0.0
 30
0.0
  9
$PUCSORGRIGHT
 10
0.0
 20
0.0
 30
0.0
  9
$PUCSORGFRONT
 10
0.0
 20
0.0
 30
0.0
  9
$PUCSORGBACK
 10
0.0
 20
0.0
 30
0.0
  9
$USERI1
 70
     0
  9
$USERI2
 70
     0
  9
$USERI3
 70
     0
  9
$USERI4
 70
     0
  9
$USERI5
 70
     0
  9
$USERR1
 40
0.0
  9
$USERR2
 40
0.0
  9
$USERR3
 40
0.0
  9
$USERR4
 40
0.0
  9
$USERR5
 40
0.0
  9
$WORLDVIEW
 70
     1
  9
$SHADEDGE
 70
     3
  9
$SHADEDIF
 70
    70
  9
$TILEMODE
 70
     1
  9
$MAXACTVP
 70
    64
  9
$PINSBASE
 10
0.0
 20
0.0
 30
0.0
  9
$PLIMCHECK
 70
     0
  9
$PEXTMIN
 10
1.000000000000000E+20
 20
1.000000000000000E+20
 30
1.000000000000000E+20
  9
$PEXTMAX
 10
-1.000000000000000E+20
 20
-1.000000000000000E+20
 30
-1.000000000000000E+20
  9
$PLIMMIN
 10
-1187.0
 20
0.0
  9
$PLIMMAX
 10
0.0
 20
839.0
  9
$UNITMODE
 70
     0
  9
$VISRETAIN
 70
     1
  9
$PLINEGEN
 70
     0
  9
$PSLTSCALE
 70
     1
  9
$TREEDEPTH
 70
  3020
  9
$CMLSTYLE
  2
Standard
  9
$CMLJUST
 70
     0
  9
$CMLSCALE
 40
1.0
  9
$PROXYGRAPHICS
 70
     1
  9
$MEASUREMENT
 70
     0
  9
$CELWEIGHT
370
    -1
  9
$ENDCAPS
280
     0
  9
$JOINSTYLE
280
     0
  9
$LWDISPLAY
290
     0
  9
$INSUNITS
 70
     0
  9
$HYPERLINKBASE
  1

  9
$STYLESHEET
  1

  9
$XEDIT
290
     1
  9
$CEPSNTYPE
380
     0
  9
$PSTYLEMODE
290
     1
  9
$FINGERPRINTGUID
  2
{97D534D4-2762-41C3-93B9-F37A3AB483A7}
  9
$VERSIONGUID
  2
{2F9803FF-C9AF-4C3D-AA23-7CCB321EED30}
  9
$EXTNAMES
290
     1
  9
$PSVPSCALE
 40
0.0
  9
$OLESTARTUP
290
     0
  9
$SORTENTS
280
   127
  9
$INDEXCTL
280
     0
  9
$HIDETEXT
280
     0
  9
$XCLIPFRAME
290
     0
  9
$HALOGAP
280
     0
  9
$OBSCOLOR
 70
   257
  9
$OBSLTYPE
280
     0
  9
$INTERSECTIONDISPLAY
280
     0
  9
$INTERSECTIONCOLOR
 70
   257
  9
$DIMASSOC
280
     1
  9
$PROJECTNAME
  1

  0
ENDSEC
  0
SECTION
  2
CLASSES
  0
CLASS
  1
ACDBDICTIONARYWDFLT
  2
AcDbDictionaryWithDefault
  3
ObjectDBX Classes
 90
        0
 91
        1
280
     0
281
     0
  0
CLASS
  1
TABLESTYLE
  2
AcDbTableStyle
  3
ObjectDBX Classes
 90
     2047
 91
        1
280
     0
281
     0
  0
CLASS
  1
DICTIONARYVAR
  2
AcDbDictionaryVar
  3
ObjectDBX Classes
 90
        0
 91
        1
280
     0
281
     0
  0
ENDSEC
  0
SECTION
  2
TABLES
  0
TABLE
  2
VPORT
  5
8
330
0
100
AcDbSymbolTable
 70
     2
  0
VPORT
  5
6C5
330
8
100
AcDbSymbolTableRecord
100
AcDbViewportTableRecord
  2
*Active
 70
     0
 10
0.0
 20
0.0
 11
1.0
 21
1.0
 12
-593.5000000000001
 22
419.5
 13
0.0
 23
0.0
 14
1.0
 24
1.0
 15
0.0
 25
0.0
 16
0.0
 26
0.0
 36
1.0
 17
0.0
 27
0.0
 37
0.0
 40
845.6236842105264
 41
1.56258234519104
 42
50.0
 43
0.0
 44
0.0
 50
0.0
 51
0.0
 71
     0
 72
   100
 73
     1
 74
     1
 75
     0
 76
     0
 77
     0
 78
     0
281
     0
 65
     1
110
0.0
120
0.0
130
0.0
111
1.0
121
0.0
131
0.0
112
0.0
122
1.0
132
0.0
 79
     0
146
0.0
  0
ENDTAB
  0
TABLE
  2
LTYPE
  5
5
330
0
100
AcDbSymbolTable
 70
     6
  0
LTYPE
  5
13
330
5
100
AcDbSymbolTableRecord
100
AcDbLinetypeTableRecord
  2
ByBlock
 70
     0
  3

 72
    65
 73
     0
 40
0.0
  0
LTYPE
  5
14
330
5
100
AcDbSymbolTableRecord
100
AcDbLinetypeTableRecord
  2
ByLayer
 70
     0
  3

 72
    65
 73
     0
 40
0.0
  0
LTYPE
  5
15
330
5
100
AcDbSymbolTableRecord
100
AcDbLinetypeTableRecord
  2
CONTINUOUS
 70
     0
  3
Solid line
 72
    65
 73
     0
 40
0.0
  0
LTYPE
  5
26
330
5
100
AcDbSymbolTableRecord
100
AcDbLinetypeTableRecord
  2
DASHED
 70
     0
  3
__ __ __ __ __ __ __ __ __ __ __ __ __ __ __
 72
    65
 73
     2
 40
3.5
 49
2.0
 74
     0
 49
-1.5
 74
     0
  0
LTYPE
  5
27
330
5
100
AcDbSymbolTableRecord
100
AcDbLinetypeTableRecord
  2
CENTER
 70
     0
  3
____ _ ____ _ ____ _ ____ _ ____ _ ____ _ ____
 72
    65
 73
     4
 40
17.5
 49
13.0
 74
     0
 49
-1.5
 74
     0
 49
1.5
 74
     0
 49
-1.5
 74
     0
  0
LTYPE
  5
28
330
5
100
AcDbSymbolTableRecord
100
AcDbLinetypeTableRecord
  2
PHANTOM
 70
     0
  3
_____ _ _ _____ _ _ _____ _ _ _____ _ _ ____  
 72
    65
 73
     6
 40
15.5
 49
8.0
 74
     0
 49
-1.5
 74
     0
 49
1.5
 74
     0
 49
-1.5
 74
     0
 49
1.5
 74
     0
 49
-1.5
 74
     0
  0
LTYPE
  5
29
330
5
100
AcDbSymbolTableRecord
100
AcDbLinetypeTableRecord
  2
DOT
 70
     0
  3
. . . . . . . . . . . . . . . . . . . . . . . .
 72
    65
 73
     2
 40
0.25
 49
0.0
 74
     0
 49
-0.25
 74
     0
  0
LTYPE
  5
2A
330
5
100
AcDbSymbolTableRecord
100
AcDbLinetypeTableRecord
  2
HIDDEN
 70
     0
  3
__ __ __ __ __ __ __ __ __ __ __ __ __ __ __
 72
    65
 73
     2
 40
3.5
 49
2.0
 74
     0
 49
-1.5
 74
     0
  0
ENDTAB
  0
TABLE
  2
LAYER
  5
2
330
0
100
AcDbSymbolTable
 70
     2
  0
LAYER
  5
10
330
2
100
AcDbSymbolTableRecord
100
AcDbLayerTableRecord
  2
0
 70
     0
 62
     7
  6
CONTINUOUS
370
    -3
390
F
  0
LAYER
  5
2B
330
2
100
AcDbSymbolTableRecord
100
AcDbLayerTableRecord
  2
DEFPOINTS
 70
     0
 62
     7
  6
CONTINUOUS
290
     0
370
    -3
390
F
  0
ENDTAB
  0
TABLE
  2
STYLE
  5
3
330
0
100
AcDbSymbolTable
 70
     2
  0
STYLE
  5
11
330
3
100
AcDbSymbolTableRecord
100
AcDbTextStyleTableRecord
  2
STANDARD
 70
     0
 40
0.0
 41
1.0
 50
0.0
 71
     0
 42
0.2
  3

  4

1001
ACAD
1000
MS Gothic
1071
    32817
  0
ENDTAB
  0
TABLE
  2
VIEW
  5
6
330
0
100
AcDbSymbolTable
 70
     0
  0
ENDTAB
  0
TABLE
  2
UCS
  5
7
330
0
100
AcDbSymbolTable
 70
     0
  0
ENDTAB
  0
TABLE
  2
APPID
  5
9
330
0
100
AcDbSymbolTable
 70
     2
  0
APPID
  5
12
330
9
100
AcDbSymbolTableRecord
100
AcDbRegAppTableRecord
  2
ACAD
 70
     0
  0
APPID
  5
6BA
330
9
100
AcDbSymbolTableRecord
100
AcDbRegAppTableRecord
  2
ACAD_PSEXT
 70
     0
  0
ENDTAB
  0
TABLE
  2
DIMSTYLE
  5
A
330
0
100
AcDbSymbolTable
 70
    16
100
AcDbDimStyleTable
 71
     1
340
2C
  0
DIMSTYLE
105
2C
102
{ACAD_REACTORS
330
6A7
102
}
330
A
100
AcDbSymbolTableRecord
100
AcDbDimStyleTableRecord
  2
DIMSTYLE1
 70
     0
 41
1.0
 42
2.54
 44
2.54
 73
     0
 74
     0
 77
     1
140
3.0
145
1.0
147
1.5
172
     1
173
     1
279
     2
340
11
  0
DIMSTYLE
105
2D
102
{ACAD_REACTORS
330
6A8
102
}
330
A
100
AcDbSymbolTableRecord
100
AcDbDimStyleTableRecord
  2
DIMSTYLE2
 70
     0
 41
1.0
 42
2.54
 44
2.54
 73
     0
 74
     0
 77
     1
140
3.0
145
1.0
147
1.5
172
     1
173
     1
279
     2
340
11
  0
DIMSTYLE
105
2E
102
{ACAD_REACTORS
330
6A9
102
}
330
A
100
AcDbSymbolTableRecord
100
AcDbDimStyleTableRecord
  2
DIMSTYLE3
 70
     0
 41
1.0
 42
2.54
 44
2.54
 73
     0
 74
     0
 77
     1
140
3.0
145
1.0
147
1.5
172
     1
173
     1
279
     2
340
11
  0
DIMSTYLE
105
2F
102
{ACAD_REACTORS
330
6AA
102
}
330
A
100
AcDbSymbolTableRecord
100
AcDbDimStyleTableRecord
  2
DIMSTYLE4
 70
     0
 41
1.0
 42
2.54
 44
2.54
 73
     0
 74
     0
 77
     1
140
3.0
145
1.0
147
1.5
172
     1
173
     1
279
     2
340
11
  0
DIMSTYLE
105
30
102
{ACAD_REACTORS
330
6AB
102
}
330
A
100
AcDbSymbolTableRecord
100
AcDbDimStyleTableRecord
  2
DIMSTYLE5
 70
     0
 41
1.0
 42
2.54
 44
2.54
 73
     0
 74
     0
 77
     1
140
3.0
145
1.0
147
1.5
172
     1
173
     1
279
     2
340
11
  0
DIMSTYLE
105
31
102
{ACAD_REACTORS
330
6AC
102
}
330
A
100
AcDbSymbolTableRecord
100
AcDbDimStyleTableRecord
  2
DIMSTYLE6
 70
     0
 41
1.0
 42
2.54
 44
2.54
 73
     0
 74
     0
 77
     1
140
3.0
145
1.0
147
1.5
172
     1
173
     1
279
     2
340
11
  0
DIMSTYLE
105
32
102
{ACAD_REACTORS
330
6AF
102
}
330
A
100
AcDbSymbolTableRecord
100
AcDbDimStyleTableRecord
  2
DIMSTYLE7
 70
     0
 41
1.0
 42
2.54
 44
2.54
 73
     0
 74
     0
 77
     1
140
3.0
145
1.0
147
1.5
172
     1
173
     1
279
     2
340
11
  0
DIMSTYLE
105
33
102
{ACAD_REACTORS
330
6B0
102
}
330
A
100
AcDbSymbolTableRecord
100
AcDbDimStyleTableRecord
  2
DIMSTYLE8
 70
     0
 41
1.0
 42
2.54
 44
2.54
 73
     0
 74
     0
 77
     1
140
3.0
145
1.0
147
1.5
172
     1
173
     1
279
     2
340
11
  0
DIMSTYLE
105
34
102
{ACAD_REACTORS
330
6B1
102
}
330
A
100
AcDbSymbolTableRecord
100
AcDbDimStyleTableRecord
  2
DIMSTYLE9
 70
     0
 41
1.0
 42
2.54
 44
2.54
 73
     0
 74
     0
 77
     1
140
3.0
145
1.0
147
1.5
172
     1
173
     1
279
     2
340
11
  0
DIMSTYLE
105
35
102
{ACAD_REACTORS
330
6B2
102
}
330
A
100
AcDbSymbolTableRecord
100
AcDbDimStyleTableRecord
  2
DIMSTYLE10
 70
     0
 41
1.0
 42
2.54
 44
2.54
 73
     0
 74
     0
 77
     1
140
3.0
145
1.0
147
1.5
172
     1
173
     1
279
     2
340
11
  0
DIMSTYLE
105
36
102
{ACAD_REACTORS
330
6B3
102
}
330
A
100
AcDbSymbolTableRecord
100
AcDbDimStyleTableRecord
  2
DIMSTYLE11
 70
     0
 41
1.0
 42
2.54
 44
2.54
 73
     0
 74
     0
 77
     1
140
3.0
145
1.0
147
1.5
172
     1
173
     1
279
     2
340
11
  0
DIMSTYLE
105
37
102
{ACAD_REACTORS
330
6B4
102
}
330
A
100
AcDbSymbolTableRecord
100
AcDbDimStyleTableRecord
  2
DIMSTYLE12
 70
     0
 41
1.0
 42
2.54
 44
2.54
 73
     0
 74
     0
 77
     1
140
3.0
145
1.0
147
1.5
172
     1
173
     1
279
     2
340
11
  0
DIMSTYLE
105
38
102
{ACAD_REACTORS
330
6B5
102
}
330
A
100
AcDbSymbolTableRecord
100
AcDbDimStyleTableRecord
  2
DIMSTYLE13
 70
     0
 41
1.0
 42
2.54
 44
2.54
 73
     0
 74
     0
 77
     1
140
3.0
145
1.0
147
1.5
172
     1
173
     1
279
     2
340
11
  0
DIMSTYLE
105
39
102
{ACAD_REACTORS
330
6B6
102
}
330
A
100
AcDbSymbolTableRecord
100
AcDbDimStyleTableRecord
  2
DIMSTYLE14
 70
     0
 41
1.0
 42
2.54
 44
2.54
 73
     0
 74
     0
 77
     1
140
3.0
145
1.0
147
1.5
172
     1
173
     1
279
     2
340
11
  0
DIMSTYLE
105
3A
102
{ACAD_REACTORS
330
6B7
102
}
330
A
100
AcDbSymbolTableRecord
100
AcDbDimStyleTableRecord
  2
DIMSTYLE15
 70
     0
 41
1.0
 42
2.54
 44
2.54
 73
     0
 74
     0
 77
     1
140
3.0
145
1.0
147
1.5
172
     1
173
     1
279
     2
340
11
  0
ENDTAB
  0
TABLE
  2
BLOCK_RECORD
  5
1
330
0
100
AcDbSymbolTable
 70
    19
  0
BLOCK_RECORD
  5
22
330
1
100
AcDbSymbolTableRecord
100
AcDbBlockTableRecord
  2
*Model_Space
340
25
  0
BLOCK_RECORD
  5
1E
330
1
100
AcDbSymbolTableRecord
100
AcDbBlockTableRecord
  2
*Paper_Space
340
21
  0
BLOCK_RECORD
  5
3E
330
1
100
AcDbSymbolTableRecord
100
AcDbBlockTableRecord
  2
_OPEN30
340
0
102
{BLKREFS
331
48
331
4A
331
55
331
56
331
61
331
62
331
6D
331
6E
331
79
331
7A
331
84
331
85
331
8F
331
90
331
9B
331
9C
331
A6
331
A7
331
B1
331
B2
331
BB
331
BC
331
C6
331
C7
331
D2
331
D3
331
DE
331
DF
331
EA
331
EB
102
}
  0
BLOCK_RECORD
  5
44
330
1
100
AcDbSymbolTableRecord
100
AcDbBlockTableRecord
  2
*D1
340
0
  0
BLOCK_RECORD
  5
52
330
1
100
AcDbSymbolTableRecord
100
AcDbBlockTableRecord
  2
*D2
340
0
  0
BLOCK_RECORD
  5
5E
330
1
100
AcDbSymbolTableRecord
100
AcDbBlockTableRecord
  2
*D3
340
0
  0
BLOCK_RECORD
  5
6A
330
1
100
AcDbSymbolTableRecord
100
AcDbBlockTableRecord
  2
*D4
340
0
  0
BLOCK_RECORD
  5
76
330
1
100
AcDbSymbolTableRecord
100
AcDbBlockTableRecord
  2
*D5
340
0
  0
BLOCK_RECORD
  5
81
330
1
100
AcDbSymbolTableRecord
100
AcDbBlockTableRecord
  2
*D6
340
0
  0
BLOCK_RECORD
  5
8C
330
1
100
AcDbSymbolTableRecord
100
AcDbBlockTableRecord
  2
*D7
340
0
  0
BLOCK_RECORD
  5
98
330
1
100
AcDbSymbolTableRecord
100
AcDbBlockTableRecord
  2
*D8
340
0
  0
BLOCK_RECORD
  5
A3
330
1
100
AcDbSymbolTableRecord
100
AcDbBlockTableRecord
  2
*D9
340
0
  0
BLOCK_RECORD
  5
AE
330
1
100
AcDbSymbolTableRecord
100
AcDbBlockTableRecord
  2
*D10
340
0
  0
BLOCK_RECORD
  5
B8
330
1
100
AcDbSymbolTableRecord
100
AcDbBlockTableRecord
  2
*D11
340
0
  0
BLOCK_RECORD
  5
C3
330
1
100
AcDbSymbolTableRecord
100
AcDbBlockTableRecord
  2
*D12
340
0
  0
BLOCK_RECORD
  5
CF
330
1
100
AcDbSymbolTableRecord
100
AcDbBlockTableRecord
  2
*D13
340
0
  0
BLOCK_RECORD
  5
DB
330
1
100
AcDbSymbolTableRecord
100
AcDbBlockTableRecord
  2
*D14
340
0
  0
BLOCK_RECORD
  5
E7
330
1
100
AcDbSymbolTableRecord
100
AcDbBlockTableRecord
  2
*D15
340
0
  0
BLOCK_RECORD
  5
F3
330
1
100
AcDbSymbolTableRecord
100
AcDbBlockTableRecord
  2
KOZU0001
340
0
102
{BLKREFS
331
6AD
102
}
  0
BLOCK_RECORD
  5
FC
330
1
100
AcDbSymbolTableRecord
100
AcDbBlockTableRecord
  2
KOZU0002
340
0
102
{BLKREFS
331
6AE
102
}
  0
ENDTAB
  0
ENDSEC
  0
SECTION
  2
BLOCKS
  0
BLOCK
  5
23
330
22
100
AcDbEntity
  8
0
100
AcDbBlockBegin
  2
*Model_Space
 70
     0
 10
0.0
 20
0.0
 30
0.0
  3
*Model_Space
  1

  0
ENDBLK
  5
24
330
22
100
AcDbEntity
  8
0
100
AcDbBlockEnd
  0
BLOCK
  5
1F
330
1E
100
AcDbEntity
 67
     1
  8
0
100
AcDbBlockBegin
  2
*Paper_Space
 70
     0
 10
0.0
 20
0.0
 30
0.0
  3
*Paper_Space
  1

  0
ENDBLK
  5
20
330
1E
100
AcDbEntity
 67
     1
  8
0
100
AcDbBlockEnd
  0
BLOCK
  5
3F
330
3E
100
AcDbEntity
  8
0
100
AcDbBlockBegin
  2
_OPEN30
 70
     0
 10
0.0
 20
0.0
 30
0.0
  3
_OPEN30
  1

  0
LINE
  5
40
330
3E
100
AcDbEntity
  8
0
  6
ByBlock
 62
     0
100
AcDbLine
 10
0.0
 20
0.0
 30
0.0
 11
-2.999999999999993
 21
-1.000000000000017
 31
0.0
  0
LINE
  5
41
330
3E
100
AcDbEntity
  8
0
  6
ByBlock
 62
     0
100
AcDbLine
 10
0.0
 20
0.0
 30
0.0
 11
-3.000000000000006
 21
0.9999999999999815
 31
0.0
  0
LINE
  5
42
330
3E
100
AcDbEntity
  8
0
  6
ByBlock
 62
     0
100
AcDbLine
 10
0.0
 20
0.0
 30
0.0
 11
-3.0
 21
0.0
 31
0.0
  0
ENDBLK
  5
43
330
3E
100
AcDbEntity
  8
0
100
AcDbBlockEnd
  0
BLOCK
  5
45
330
44
100
AcDbEntity
  8
0
100
AcDbBlockBegin
  2
*D1
 70
     1
 10
0.0
 20
0.0
 30
0.0
  3
*D1
  1

  0
LINE
  5
46
330
44
100
AcDbEntity
  8
0
  6
Continuous
 62
     7
100
AcDbLine
 10
-402.9657897949219
 20
184.6504669189453
 30
0.0
 11
-402.9657897949219
 21
166.5021057128906
 31
0.0
  0
LINE
  5
47
330
44
100
AcDbEntity
  8
0
  6
Continuous
 62
     7
100
AcDbLine
 10
-402.9657897949219
 20
188.1504669189453
 30
0.0
 11
-402.9657897949219
 21
184.6504669189453
 31
0.0
  0
INSERT
  5
48
330
44
100
AcDbEntity
  8
0
  6
Continuous
 62
     7
100
AcDbBlockReference
  2
_OPEN30
 10
-402.9657897949219
 20
188.1504669189453
 30
0.0
 50
270.0000000000002
  0
LINE
  5
49
330
44
100
AcDbEntity
  8
0
  6
Continuous
 62
     7
100
AcDbLine
 10
-402.9657897949219
 20
191.1504669189453
 30
0.0
 11
-402.9657897949219
 21
194.5004669189453
 31
0.0
  0
INSERT
  5
4A
330
44
100
AcDbEntity
  8
0
  6
Continuous
 62
     7
100
AcDbBlockReference
  2
_OPEN30
 10
-402.9657897949219
 20
184.6504669189453
 30
0.0
 50
90.00000000000049
  0
LINE
  5
4B
330
44
100
AcDbEntity
  8
0
  6
Continuous
 62
     7
100
AcDbLine
 10
-402.9657897949219
 20
181.6504669189453
 30
0.0
 11
-402.9657897949218
 21
178.3004669189453
 31
0.0
  0
LINE
  5
4C
330
44
100
AcDbEntity
  8
0
  6
Continuous
 62
     7
100
AcDbLine
 10
-500.0592126464844
 20
184.6504669189453
 30
0.0
 11
-400.6797790527343
 21
184.6504669189453
 31
0.0
  0
TEXT
  5
4D
330
44
100
AcDbEntity
  8
0
  6
Continuous
 62
     7
100
AcDbText
 10
-403.7157896170165
 20
166.5021128326645
 30
0.0
 40
3.0
  1
3.5
 50
90.00000250447815
 41
1.356666684150696
100
AcDbText
  0
POINT
  5
4E
330
44
100
AcDbEntity
  8
DEFPOINTS
  6
Continuous
 62
     7
100
AcDbPoint
 10
-452.3861999511718
 20
188.1504669189453
 30
0.0
  0
POINT
  5
4F
330
44
100
AcDbEntity
  8
DEFPOINTS
  6
Continuous
 62
     7
100
AcDbPoint
 10
-502.5992126464843
 20
184.6504669189453
 30
0.0
  0
POINT
  5
50
330
44
100
AcDbEntity
  8
DEFPOINTS
  6
Continuous
 62
     7
100
AcDbPoint
 10
-402.9657897949219
 20
184.6504669189453
 30
0.0
  0
ENDBLK
  5
51
330
44
100
AcDbEntity
  8
0
100
AcDbBlockEnd
  0
BLOCK
  5
53
330
52
100
AcDbEntity
  8
0
100
AcDbBlockBegin
  2
*D2
 70
     1
 10
0.0
 20
0.0
 30
0.0
  3
*D2
  1

  0
LINE
  5
54
330
52
100
AcDbEntity
  8
0
  6
Continuous
 62
     7
100
AcDbLine
 10
-681.0991821289062
 20
94.0341567993164
 30
0.0
 11
-505.0992126464843
 21
94.0341567993164
 31
0.0
  0
INSERT
  5
55
330
52
100
AcDbEntity
  8
0
  6
Continuous
 62
     7
100
AcDbBlockReference
  2
_OPEN30
 10
-684.0991821289062
 20
94.0341567993164
 30
0.0
 50
180.0000000000004
  0
INSERT
  5
56
330
52
100
AcDbEntity
  8
0
  6
Continuous
 62
     7
100
AcDbBlockReference
  2
_OPEN30
 10
-502.0992126464843
 20
94.0341567993164
 30
0.0
  0
LINE
  5
57
330
52
100
AcDbEntity
  8
0
  6
Continuous
 62
     7
100
AcDbLine
 10
-684.0991821289062
 20
182.6104669189453
 30
0.0
 11
-684.0991821289062
 21
91.74815368652344
 31
0.0
  0
LINE
  5
58
330
52
100
AcDbEntity
  8
0
  6
Continuous
 62
     7
100
AcDbLine
 10
-502.0992126464843
 20
182.6104669189453
 30
0.0
 11
-502.0992126464843
 21
91.74815368652344
 31
0.0
  0
TEXT
  5
59
330
52
100
AcDbEntity
  8
0
  6
Continuous
 62
     7
100
AcDbText
 10
-598.6691823601723
 20
94.78415679931641
 30
0.0
 40
3.0
  1
%%C182
 41
1.053926216168795
100
AcDbText
  0
POINT
  5
5A
330
52
100
AcDbEntity
  8
DEFPOINTS
  6
Continuous
 62
     7
100
AcDbPoint
 10
-684.0991821289062
 20
185.1504669189453
 30
0.0
  0
POINT
  5
5B
330
52
100
AcDbEntity
  8
DEFPOINTS
  6
Continuous
 62
     7
100
AcDbPoint
 10
-502.0992126464843
 20
185.1504669189453
 30
0.0
  0
POINT
  5
5C
330
52
100
AcDbEntity
  8
DEFPOINTS
  6
Continuous
 62
     7
100
AcDbPoint
 10
-502.0992126464843
 20
94.0341567993164
 30
0.0
  0
ENDBLK
  5
5D
330
52
100
AcDbEntity
  8
0
100
AcDbBlockEnd
  0
BLOCK
  5
5F
330
5E
100
AcDbEntity
  8
0
100
AcDbBlockBegin
  2
*D3
 70
     1
 10
0.0
 20
0.0
 30
0.0
  3
*D3
  1

  0
LINE
  5
60
330
5E
100
AcDbEntity
  8
0
  6
Continuous
 62
     7
100
AcDbLine
 10
-631.5991821289062
 20
107.6389770507813
 30
0.0
 11
-554.5991821289063
 21
107.6389770507812
 31
0.0
  0
INSERT
  5
61
330
5E
100
AcDbEntity
  8
0
  6
Continuous
 62
     7
100
AcDbBlockReference
  2
_OPEN30
 10
-634.5991821289062
 20
107.6389770507813
 30
0.0
 50
180.0000000000004
  0
INSERT
  5
62
330
5E
100
AcDbEntity
  8
0
  6
Continuous
 62
     7
100
AcDbBlockReference
  2
_OPEN30
 10
-551.5991821289063
 20
107.6389770507813
 30
0.0
  0
LINE
  5
63
330
5E
100
AcDbEntity
  8
0
  6
Continuous
 62
     7
100
AcDbLine
 10
-634.5991821289062
 20
150.6104669189453
 30
0.0
 11
-634.5991821289062
 21
105.3529815673828
 31
0.0
  0
LINE
  5
64
330
5E
100
AcDbEntity
  8
0
  6
Continuous
 62
     7
100
AcDbLine
 10
-551.5991821289063
 20
150.6104669189453
 30
0.0
 11
-551.5991821289063
 21
105.3529815673828
 31
0.0
  0
TEXT
  5
65
330
5E
100
AcDbEntity
  8
0
  6
Continuous
 62
     7
100
AcDbText
 10
-597.1691823005676
 20
108.3889770507813
 30
0.0
 40
3.0
  1
%%C83
 41
0.9498249830693319
100
AcDbText
  0
POINT
  5
66
330
5E
100
AcDbEntity
  8
DEFPOINTS
  6
Continuous
 62
     7
100
AcDbPoint
 10
-634.5991821289062
 20
153.1504669189453
 30
0.0
  0
POINT
  5
67
330
5E
100
AcDbEntity
  8
DEFPOINTS
  6
Continuous
 62
     7
100
AcDbPoint
 10
-551.5991821289063
 20
153.1504669189453
 30
0.0
  0
POINT
  5
68
330
5E
100
AcDbEntity
  8
DEFPOINTS
  6
Continuous
 62
     7
100
AcDbPoint
 10
-551.5991821289063
 20
107.6389770507813
 30
0.0
  0
ENDBLK
  5
69
330
5E
100
AcDbEntity
  8
0
100
AcDbBlockEnd
  0
BLOCK
  5
6B
330
6A
100
AcDbEntity
  8
0
100
AcDbBlockBegin
  2
*D4
 70
     1
 10
0.0
 20
0.0
 30
0.0
  3
*D4
  1

  0
LINE
  5
6C
330
6A
100
AcDbEntity
  8
0
  6
Continuous
 62
     7
100
AcDbLine
 10
-716.5599365234375
 20
155.1504669189453
 30
0.0
 11
-716.5599365234375
 21
217.1504669189453
 31
0.0
  0
INSERT
  5
6D
330
6A
100
AcDbEntity
  8
0
  6
Continuous
 62
     7
100
AcDbBlockReference
  2
_OPEN30
 10
-716.5599365234375
 20
152.1504669189453
 30
0.0
 50
270.0000000000005
  0
INSERT
  5
6E
330
6A
100
AcDbEntity
  8
0
  6
Continuous
 62
     7
100
AcDbBlockReference
  2
_OPEN30
 10
-716.5599365234375
 20
220.1504669189453
 30
0.0
 50
90.00000000000019
  0
LINE
  5
6F
330
6A
100
AcDbEntity
  8
0
  6
Continuous
 62
     7
100
AcDbLine
 10
-636.1391821289061
 20
152.1504669189453
 30
0.0
 11
-718.845947265625
 21
152.1504669189453
 31
0.0
  0
LINE
  5
70
330
6A
100
AcDbEntity
  8
0
  6
Continuous
 62
     7
100
AcDbLine
 10
-635.6391821289061
 20
220.1504669189453
 30
0.0
 11
-718.845947265625
 21
220.1504669189453
 31
0.0
  0
TEXT
  5
71
330
6A
100
AcDbEntity
  8
0
  6
Continuous
 62
     7
100
AcDbText
 10
-717.3099364110992
 20
183.5804667741051
 30
0.0
 40
3.0
  1
68
 50
90.00000250447815
 41
1.028000020980834
100
AcDbText
  0
POINT
  5
72
330
6A
100
AcDbEntity
  8
DEFPOINTS
  6
Continuous
 62
     7
100
AcDbPoint
 10
-633.5991821289062
 20
152.1504669189453
 30
0.0
  0
POINT
  5
73
330
6A
100
AcDbEntity
  8
DEFPOINTS
  6
Continuous
 62
     7
100
AcDbPoint
 10
-633.0991821289062
 20
220.1504669189453
 30
0.0
  0
POINT
  5
74
330
6A
100
AcDbEntity
  8
DEFPOINTS
  6
Continuous
 62
     7
100
AcDbPoint
 10
-716.5599365234375
 20
220.1504669189453
 30
0.0
  0
ENDBLK
  5
75
330
6A
100
AcDbEntity
  8
0
100
AcDbBlockEnd
  0
BLOCK
  5
77
330
76
100
AcDbEntity
  8
0
100
AcDbBlockBegin
  2
*D5
 70
     1
 10
0.0
 20
0.0
 30
0.0
  3
*D5
  1

  0
LINE
  5
78
330
76
100
AcDbEntity
  8
0
  6
Continuous
 62
     7
100
AcDbLine
 10
-637.5991821289062
 20
158.9384307861328
 30
0.0
 11
-647.5991821289063
 21
158.9384307861328
 31
0.0
  0
INSERT
  5
79
330
76
100
AcDbEntity
  8
0
  6
Continuous
 62
     7
100
AcDbBlockReference
  2
_OPEN30
 10
-634.5991821289062
 20
158.9384307861328
 30
0.0
  0
INSERT
  5
7A
330
76
100
AcDbEntity
  8
0
  6
Continuous
 62
     7
100
AcDbBlockReference
  2
_OPEN30
 10
-650.5991821289062
 20
158.9384307861328
 30
0.0
 50
180.0000000000004
  0
LINE
  5
7B
330
76
100
AcDbEntity
  8
0
  6
Continuous
 62
     7
100
AcDbLine
 10
-650.5991821289062
 20
180.6094903564453
 30
0.0
 11
-650.5991821289062
 21
156.6524353027344
 31
0.0
  0
TEXT
  5
7C
330
76
100
AcDbEntity
  8
0
  6
Continuous
 62
     7
100
AcDbText
 10
-645.1691822409629
 20
159.6884307861328
 30
0.0
 40
3.0
  1
16
 41
1.285000026226043
100
AcDbText
  0
POINT
  5
7D
330
76
100
AcDbEntity
  8
DEFPOINTS
  6
Continuous
 62
     7
100
AcDbPoint
 10
-634.5991821289062
 20
153.1504669189453
 30
0.0
  0
POINT
  5
7E
330
76
100
AcDbEntity
  8
DEFPOINTS
  6
Continuous
 62
     7
100
AcDbPoint
 10
-650.5991821289062
 20
183.1494903564453
 30
0.0
  0
POINT
  5
7F
330
76
100
AcDbEntity
  8
DEFPOINTS
  6
Continuous
 62
     7
100
AcDbPoint
 10
-650.5991821289062
 20
158.9384307861328
 30
0.0
  0
ENDBLK
  5
80
330
76
100
AcDbEntity
  8
0
100
AcDbBlockEnd
  0
BLOCK
  5
82
330
81
100
AcDbEntity
  8
0
100
AcDbBlockBegin
  2
*D6
 70
     1
 10
0.0
 20
0.0
 30
0.0
  3
*D6
  1

  0
LINE
  5
83
330
81
100
AcDbEntity
  8
0
  6
Continuous
 62
     7
100
AcDbLine
 10
-662.0955810546875
 20
181.6504669189453
 30
0.0
 11
-662.0955810546875
 21
169.6504669189453
 31
0.0
  0
INSERT
  5
84
330
81
100
AcDbEntity
  8
0
  6
Continuous
 62
     7
100
AcDbBlockReference
  2
_OPEN30
 10
-662.0955810546875
 20
184.6504669189453
 30
0.0
 50
90.00000000000019
  0
INSERT
  5
85
330
81
100
AcDbEntity
  8
0
  6
Continuous
 62
     7
100
AcDbBlockReference
  2
_OPEN30
 10
-662.0955810546875
 20
166.6504669189453
 30
0.0
 50
270.0000000000005
  0
LINE
  5
86
330
81
100
AcDbEntity
  8
0
  6
Continuous
 62
     7
100
AcDbLine
 10
-639.1391821289062
 20
166.6504669189453
 30
0.0
 11
-664.3815917968749
 21
166.6504669189453
 31
0.0
  0
TEXT
  5
87
330
81
100
AcDbEntity
  8
0
  6
Continuous
 62
     7
100
AcDbText
 10
-662.8455809423492
 20
173.0804667741051
 30
0.0
 40
3.0
  1
18
 50
90.00000250447815
 41
1.285000026226043
100
AcDbText
  0
POINT
  5
88
330
81
100
AcDbEntity
  8
DEFPOINTS
  6
Continuous
 62
     7
100
AcDbPoint
 10
-683.5991821289062
 20
184.6504669189453
 30
0.0
  0
POINT
  5
89
330
81
100
AcDbEntity
  8
DEFPOINTS
  6
Continuous
 62
     7
100
AcDbPoint
 10
-636.5991821289062
 20
166.6504669189453
 30
0.0
  0
POINT
  5
8A
330
81
100
AcDbEntity
  8
DEFPOINTS
  6
Continuous
 62
     7
100
AcDbPoint
 10
-662.0955810546875
 20
166.6504669189453
 30
0.0
  0
ENDBLK
  5
8B
330
81
100
AcDbEntity
  8
0
100
AcDbBlockEnd
  0
BLOCK
  5
8D
330
8C
100
AcDbEntity
  8
0
100
AcDbBlockBegin
  2
*D7
 70
     1
 10
0.0
 20
0.0
 30
0.0
  3
*D7
  1

  0
LINE
  5
8E
330
8C
100
AcDbEntity
  8
0
  6
Continuous
 62
     7
100
AcDbLine
 10
-402.9657897949219
 20
191.1504669189453
 30
0.0
 11
-402.9657897949219
 21
384.1504516601563
 31
0.0
  0
INSERT
  5
8F
330
8C
100
AcDbEntity
  8
0
  6
Continuous
 62
     7
100
AcDbBlockReference
  2
_OPEN30
 10
-402.9657897949219
 20
188.1504669189453
 30
0.0
 50
270.0000000000005
  0
INSERT
  5
90
330
8C
100
AcDbEntity
  8
0
  6
Continuous
 62
     7
100
AcDbBlockReference
  2
_OPEN30
 10
-402.9657897949219
 20
387.1504516601563
 30
0.0
 50
90.00000000000019
  0
LINE
  5
91
330
8C
100
AcDbEntity
  8
0
  6
Continuous
 62
     7
100
AcDbLine
 10
-501.5592126464843
 20
188.1504669189453
 30
0.0
 11
-400.6797790527343
 21
188.1504669189453
 31
0.0
  0
LINE
  5
92
330
8C
100
AcDbEntity
  8
0
  6
Continuous
 62
     7
100
AcDbLine
 10
-441.5592126464843
 20
387.1504516601563
 30
0.0
 11
-400.6797790527343
 21
387.1504516601563
 31
0.0
  0
TEXT
  5
93
330
8C
100
AcDbEntity
  8
0
  6
Continuous
 62
     7
100
AcDbText
 10
-403.7157889613456
 20
268.5804508596649
 30
0.0
 40
3.0
  1
１９９　（１８９～２０８）
 50
90.00000250447815
 41
0.8434321120058422
100
AcDbText
  0
POINT
  5
94
330
8C
100
AcDbEntity
  8
DEFPOINTS
  6
Continuous
 62
     7
100
AcDbPoint
 10
-504.0992126464844
 20
188.1504669189453
 30
0.0
  0
POINT
  5
95
330
8C
100
AcDbEntity
  8
DEFPOINTS
  6
Continuous
 62
     7
100
AcDbPoint
 10
-444.0992126464843
 20
387.1504516601563
 30
0.0
  0
POINT
  5
96
330
8C
100
AcDbEntity
  8
DEFPOINTS
  6
Continuous
 62
     7
100
AcDbPoint
 10
-402.9657897949219
 20
387.1504516601563
 30
0.0
  0
ENDBLK
  5
97
330
8C
100
AcDbEntity
  8
0
100
AcDbBlockEnd
  0
BLOCK
  5
99
330
98
100
AcDbEntity
  8
0
100
AcDbBlockBegin
  2
*D8
 70
     1
 10
0.0
 20
0.0
 30
0.0
  3
*D8
  1

  0
LINE
  5
9A
330
98
100
AcDbEntity
  8
0
  6
Continuous
 62
     7
100
AcDbLine
 10
-417.0468444824218
 20
384.1504516601563
 30
0.0
 11
-417.0468444824218
 21
285.1504516601563
 31
0.0
  0
INSERT
  5
9B
330
98
100
AcDbEntity
  8
0
  6
Continuous
 62
     7
100
AcDbBlockReference
  2
_OPEN30
 10
-417.0468444824218
 20
387.1504516601563
 30
0.0
 50
90.00000000000019
  0
INSERT
  5
9C
330
98
100
AcDbEntity
  8
0
  6
Continuous
 62
     7
100
AcDbBlockReference
  2
_OPEN30
 10
-417.0468444824218
 20
282.1504516601563
 30
0.0
 50
270.0000000000005
  0
LINE
  5
9D
330
98
100
AcDbEntity
  8
0
  6
Continuous
 62
     7
100
AcDbLine
 10
-546.0401391601562
 20
282.1504516601563
 30
0.0
 11
-414.7608337402344
 21
282.1504516601563
 31
0.0
  0
TEXT
  5
9E
330
98
100
AcDbEntity
  8
0
  6
Continuous
 62
     7
100
AcDbText
 10
-417.7968443045164
 20
330.5804514557113
 30
0.0
 40
3.0
  1
105
 50
90.00000250447815
 41
1.252307708446795
100
AcDbText
  0
POINT
  5
9F
330
98
100
AcDbEntity
  8
DEFPOINTS
  6
Continuous
 62
     7
100
AcDbPoint
 10
-400.6797790527343
 20
387.1504516601563
 30
0.0
  0
POINT
  5
A0
330
98
100
AcDbEntity
  8
DEFPOINTS
  6
Continuous
 62
     7
100
AcDbPoint
 10
-548.5801391601563
 20
282.1504516601563
 30
0.0
  0
POINT
  5
A1
330
98
100
AcDbEntity
  8
DEFPOINTS
  6
Continuous
 62
     7
100
AcDbPoint
 10
-417.0468444824218
 20
282.1504516601563
 30
0.0
  0
ENDBLK
  5
A2
330
98
100
AcDbEntity
  8
0
100
AcDbBlockEnd
  0
BLOCK
  5
A4
330
A3
100
AcDbEntity
  8
0
100
AcDbBlockBegin
  2
*D9
 70
     1
 10
0.0
 20
0.0
 30
0.0
  3
*D9
  1

  0
LINE
  5
A5
330
A3
100
AcDbEntity
  8
0
  6
Continuous
 62
     7
100
AcDbLine
 10
-417.0468444824218
 20
191.1504669189453
 30
0.0
 11
-417.0468444824218
 21
217.1504669189453
 31
0.0
  0
INSERT
  5
A6
330
A3
100
AcDbEntity
  8
0
  6
Continuous
 62
     7
100
AcDbBlockReference
  2
_OPEN30
 10
-417.0468444824218
 20
188.1504669189453
 30
0.0
 50
270.0000000000005
  0
INSERT
  5
A7
330
A3
100
AcDbEntity
  8
0
  6
Continuous
 62
     7
100
AcDbBlockReference
  2
_OPEN30
 10
-417.0468444824218
 20
220.1504669189453
 30
0.0
 50
90.00000000000019
  0
LINE
  5
A8
330
A3
100
AcDbEntity
  8
0
  6
Continuous
 62
     7
100
AcDbLine
 10
-550.5591821289063
 20
220.1504669189453
 30
0.0
 11
-414.7608337402344
 21
220.1504669189453
 31
0.0
  0
TEXT
  5
A9
330
A3
100
AcDbEntity
  8
0
  6
Continuous
 62
     7
100
AcDbText
 10
-417.7968443700835
 20
201.5804667741051
 30
0.0
 40
3.0
  1
32
 50
90.00000250447815
 41
1.028000020980834
100
AcDbText
  0
POINT
  5
AA
330
A3
100
AcDbEntity
  8
DEFPOINTS
  6
Continuous
 62
     7
100
AcDbPoint
 10
-400.6797790527343
 20
188.1504669189453
 30
0.0
  0
POINT
  5
AB
330
A3
100
AcDbEntity
  8
DEFPOINTS
  6
Continuous
 62
     7
100
AcDbPoint
 10
-553.0991821289063
 20
220.1504669189453
 30
0.0
  0
POINT
  5
AC
330
A3
100
AcDbEntity
  8
DEFPOINTS
  6
Continuous
 62
     7
100
AcDbPoint
 10
-417.0468444824218
 20
220.1504669189453
 30
0.0
  0
ENDBLK
  5
AD
330
A3
100
AcDbEntity
  8
0
100
AcDbBlockEnd
  0
BLOCK
  5
AF
330
AE
100
AcDbEntity
  8
0
100
AcDbBlockBegin
  2
*D10
 70
     1
 10
0.0
 20
0.0
 30
0.0
  3
*D10
  1

  0
LINE
  5
B0
330
AE
100
AcDbEntity
  8
0
  6
Continuous
 62
     7
100
AcDbLine
 10
-582.9057617187499
 20
203.1504669189453
 30
0.0
 11
-582.9057617187499
 21
297.1504516601563
 31
0.0
  0
INSERT
  5
B1
330
AE
100
AcDbEntity
  8
0
  6
Continuous
 62
     7
100
AcDbBlockReference
  2
_OPEN30
 10
-582.9057617187499
 20
200.1504669189453
 30
0.0
 50
270.0000000000005
  0
INSERT
  5
B2
330
AE
100
AcDbEntity
  8
0
  6
Continuous
 62
     7
100
AcDbBlockReference
  2
_OPEN30
 10
-582.9057617187499
 20
300.1504516601563
 30
0.0
 50
90.00000000000019
  0
TEXT
  5
B3
330
AE
100
AcDbEntity
  8
0
  6
Continuous
 62
     7
100
AcDbText
 10
-583.6557615408447
 20
246.0804667145004
 30
0.0
 40
3.0
  1
100
 50
90.00000250447815
 41
1.320000017011488
100
AcDbText
  0
POINT
  5
B4
330
AE
100
AcDbEntity
  8
DEFPOINTS
  6
Continuous
 62
     7
100
AcDbPoint
 10
-576.1435546875
 20
200.1504669189453
 30
0.0
  0
POINT
  5
B5
330
AE
100
AcDbEntity
  8
DEFPOINTS
  6
Continuous
 62
     7
100
AcDbPoint
 10
-572.76806640625
 20
300.1504516601563
 30
0.0
  0
POINT
  5
B6
330
AE
100
AcDbEntity
  8
DEFPOINTS
  6
Continuous
 62
     7
100
AcDbPoint
 10
-582.9057617187499
 20
300.1504516601563
 30
0.0
  0
ENDBLK
  5
B7
330
AE
100
AcDbEntity
  8
0
100
AcDbBlockEnd
  0
BLOCK
  5
B9
330
B8
100
AcDbEntity
  8
0
100
AcDbBlockBegin
  2
*D11
 70
     1
 10
0.0
 20
0.0
 30
0.0
  3
*D11
  1

  0
LINE
  5
BA
330
B8
100
AcDbEntity
  8
0
  6
Continuous
 62
     7
100
AcDbLine
 10
-574.6799316406249
 20
203.1504669189453
 30
0.0
 11
-574.6799316406249
 21
247.1504669189453
 31
0.0
  0
INSERT
  5
BB
330
B8
100
AcDbEntity
  8
0
  6
Continuous
 62
     7
100
AcDbBlockReference
  2
_OPEN30
 10
-574.6799316406249
 20
200.1504669189453
 30
0.0
 50
270.0000000000005
  0
INSERT
  5
BC
330
B8
100
AcDbEntity
  8
0
  6
Continuous
 62
     7
100
AcDbBlockReference
  2
_OPEN30
 10
-574.6799316406249
 20
250.1504669189453
 30
0.0
 50
90.00000000000019
  0
LINE
  5
BD
330
B8
100
AcDbEntity
  8
0
  6
Continuous
 62
     7
100
AcDbLine
 10
-559.5241918945312
 20
250.1504669189453
 30
0.0
 11
-576.9659423828125
 21
250.1504669189453
 31
0.0
  0
TEXT
  5
BE
330
B8
100
AcDbEntity
  8
0
  6
Continuous
 62
     7
100
AcDbText
 10
-575.4299315282866
 20
222.5804667741051
 30
0.0
 40
3.0
  1
50
 50
90.00000250447815
 41
1.101428593908038
100
AcDbText
  0
POINT
  5
BF
330
B8
100
AcDbEntity
  8
DEFPOINTS
  6
Continuous
 62
     7
100
AcDbPoint
 10
-556.9841918945313
 20
200.1504669189453
 30
0.0
  0
POINT
  5
C0
330
B8
100
AcDbEntity
  8
DEFPOINTS
  6
Continuous
 62
     7
100
AcDbPoint
 10
-556.9841918945313
 20
250.1504669189453
 30
0.0
  0
POINT
  5
C1
330
B8
100
AcDbEntity
  8
DEFPOINTS
  6
Continuous
 62
     7
100
AcDbPoint
 10
-574.6799316406249
 20
250.1504669189453
 30
0.0
  0
ENDBLK
  5
C2
330
B8
100
AcDbEntity
  8
0
100
AcDbBlockEnd
  0
BLOCK
  5
C4
330
C3
100
AcDbEntity
  8
0
100
AcDbBlockBegin
  2
*D12
 70
     1
 10
0.0
 20
0.0
 30
0.0
  3
*D12
  1

  0
LINE
  5
C5
330
C3
100
AcDbEntity
  8
0
  6
Continuous
 62
     7
100
AcDbLine
 10
-402.9657897949219
 20
462.7423706054687
 30
0.0
 11
-402.9657897949219
 21
756.7423706054687
 31
0.0
  0
INSERT
  5
C6
330
C3
100
AcDbEntity
  8
0
  6
Continuous
 62
     7
100
AcDbBlockReference
  2
_OPEN30
 10
-402.9657897949219
 20
459.7423706054688
 30
0.0
 50
270.0000000000005
  0
INSERT
  5
C7
330
C3
100
AcDbEntity
  8
0
  6
Continuous
 62
     7
100
AcDbBlockReference
  2
_OPEN30
 10
-402.9657897949219
 20
759.7423706054687
 30
0.0
 50
90.00000000000019
  0
LINE
  5
C8
330
C3
100
AcDbEntity
  8
0
  6
Continuous
 62
     7
100
AcDbLine
 10
-445.5592126464843
 20
459.7423706054688
 30
0.0
 11
-400.6797790527343
 21
459.7423706054688
 31
0.0
  0
LINE
  5
C9
330
C3
100
AcDbEntity
  8
0
  6
Continuous
 62
     7
100
AcDbLine
 10
-445.5592126464843
 20
759.7423706054687
 30
0.0
 11
-400.6797790527343
 21
759.7423706054687
 31
0.0
  0
TEXT
  5
CA
330
C3
100
AcDbEntity
  8
0
  6
Continuous
 62
     7
100
AcDbText
 10
-403.7157896170165
 20
605.6723704010237
 30
0.0
 40
3.0
  1
300
 50
90.00000250447815
 41
1.135813968126164
100
AcDbText
  0
POINT
  5
CB
330
C3
100
AcDbEntity
  8
DEFPOINTS
  6
Continuous
 62
     7
100
AcDbPoint
 10
-448.0992126464843
 20
459.7423706054688
 30
0.0
  0
POINT
  5
CC
330
C3
100
AcDbEntity
  8
DEFPOINTS
  6
Continuous
 62
     7
100
AcDbPoint
 10
-448.0992126464843
 20
759.7423706054687
 30
0.0
  0
POINT
  5
CD
330
C3
100
AcDbEntity
  8
DEFPOINTS
  6
Continuous
 62
     7
100
AcDbPoint
 10
-402.9657897949219
 20
759.7423706054687
 30
0.0
  0
ENDBLK
  5
CE
330
C3
100
AcDbEntity
  8
0
100
AcDbBlockEnd
  0
BLOCK
  5
D0
330
CF
100
AcDbEntity
  8
0
100
AcDbBlockBegin
  2
*D13
 70
     1
 10
0.0
 20
0.0
 30
0.0
  3
*D13
  1

  0
LINE
  5
D1
330
CF
100
AcDbEntity
  8
0
  6
Continuous
 62
     7
100
AcDbLine
 10
-417.0468444824218
 20
477.2423706054688
 30
0.0
 11
-417.0468444824218
 21
742.2423706054687
 31
0.0
  0
INSERT
  5
D2
330
CF
100
AcDbEntity
  8
0
  6
Continuous
 62
     7
100
AcDbBlockReference
  2
_OPEN30
 10
-417.0468444824218
 20
474.2423706054688
 30
0.0
 50
270.0000000000005
  0
INSERT
  5
D3
330
CF
100
AcDbEntity
  8
0
  6
Continuous
 62
     7
100
AcDbBlockReference
  2
_OPEN30
 10
-417.0468444824218
 20
745.2423706054688
 30
0.0
 50
90.00000000000019
  0
LINE
  5
D4
330
CF
100
AcDbEntity
  8
0
  6
Continuous
 62
     7
100
AcDbLine
 10
-456.0592126464843
 20
474.2423706054688
 30
0.0
 11
-414.7608337402344
 21
474.2423706054688
 31
0.0
  0
LINE
  5
D5
330
CF
100
AcDbEntity
  8
0
  6
Continuous
 62
     7
100
AcDbLine
 10
-456.0592126464843
 20
745.2423706054688
 30
0.0
 11
-414.7608337402344
 21
745.2423706054688
 31
0.0
  0
TEXT
  5
D6
330
CF
100
AcDbEntity
  8
0
  6
Continuous
 62
     7
100
AcDbText
 10
-417.7968443045164
 20
605.6723704010237
 30
0.0
 40
3.0
  1
271
 50
90.00000250447815
 41
1.110000014305114
100
AcDbText
  0
POINT
  5
D7
330
CF
100
AcDbEntity
  8
DEFPOINTS
  6
Continuous
 62
     7
100
AcDbPoint
 10
-458.5992126464843
 20
474.2423706054688
 30
0.0
  0
POINT
  5
D8
330
CF
100
AcDbEntity
  8
DEFPOINTS
  6
Continuous
 62
     7
100
AcDbPoint
 10
-458.5992126464843
 20
745.2423706054688
 30
0.0
  0
POINT
  5
D9
330
CF
100
AcDbEntity
  8
DEFPOINTS
  6
Continuous
 62
     7
100
AcDbPoint
 10
-417.0468444824218
 20
745.2423706054688
 30
0.0
  0
ENDBLK
  5
DA
330
CF
100
AcDbEntity
  8
0
100
AcDbBlockEnd
  0
BLOCK
  5
DC
330
DB
100
AcDbEntity
  8
0
100
AcDbBlockBegin
  2
*D14
 70
     1
 10
0.0
 20
0.0
 30
0.0
  3
*D14
  1

  0
LINE
  5
DD
330
DB
100
AcDbEntity
  8
0
  6
Continuous
 62
     7
100
AcDbLine
 10
-740.0991821289062
 20
793.8382568359375
 30
0.0
 11
-446.0992126464843
 21
793.8382568359375
 31
0.0
  0
INSERT
  5
DE
330
DB
100
AcDbEntity
  8
0
  6
Continuous
 62
     7
100
AcDbBlockReference
  2
_OPEN30
 10
-743.0991821289062
 20
793.8382568359375
 30
0.0
 50
180.0000000000004
  0
INSERT
  5
DF
330
DB
100
AcDbEntity
  8
0
  6
Continuous
 62
     7
100
AcDbBlockReference
  2
_OPEN30
 10
-443.0992126464843
 20
793.8382568359375
 30
0.0
  0
LINE
  5
E0
330
DB
100
AcDbEntity
  8
0
  6
Continuous
 62
     7
100
AcDbLine
 10
-743.0991821289062
 20
757.2823706054687
 30
0.0
 11
-743.0991821289062
 21
796.124267578125
 31
0.0
  0
LINE
  5
E1
330
DB
100
AcDbEntity
  8
0
  6
Continuous
 62
     7
100
AcDbLine
 10
-443.0992126464843
 20
757.2823706054687
 30
0.0
 11
-443.0992126464843
 21
796.124267578125
 31
0.0
  0
TEXT
  5
E2
330
DB
100
AcDbEntity
  8
0
  6
Continuous
 62
     7
100
AcDbText
 10
-597.1691823005676
 20
794.5882568359374
 30
0.0
 40
3.0
  1
300
 41
1.135813968126164
100
AcDbText
  0
POINT
  5
E3
330
DB
100
AcDbEntity
  8
DEFPOINTS
  6
Continuous
 62
     7
100
AcDbPoint
 10
-743.0991821289062
 20
754.7423706054687
 30
0.0
  0
POINT
  5
E4
330
DB
100
AcDbEntity
  8
DEFPOINTS
  6
Continuous
 62
     7
100
AcDbPoint
 10
-443.0992126464843
 20
754.7423706054687
 30
0.0
  0
POINT
  5
E5
330
DB
100
AcDbEntity
  8
DEFPOINTS
  6
Continuous
 62
     7
100
AcDbPoint
 10
-443.0992126464843
 20
793.8382568359375
 30
0.0
  0
ENDBLK
  5
E6
330
DB
100
AcDbEntity
  8
0
100
AcDbBlockEnd
  0
BLOCK
  5
E8
330
E7
100
AcDbEntity
  8
0
100
AcDbBlockBegin
  2
*D15
 70
     1
 10
0.0
 20
0.0
 30
0.0
  3
*D15
  1

  0
LINE
  5
E9
330
E7
100
AcDbEntity
  8
0
  6
Continuous
 62
     7
100
AcDbLine
 10
-725.5991821289062
 20
780.6896972656249
 30
0.0
 11
-460.5992126464843
 21
780.6896972656249
 31
0.0
  0
INSERT
  5
EA
330
E7
100
AcDbEntity
  8
0
  6
Continuous
 62
     7
100
AcDbBlockReference
  2
_OPEN30
 10
-728.5991821289062
 20
780.6896972656249
 30
0.0
 50
180.0000000000004
  0
INSERT
  5
EB
330
E7
100
AcDbEntity
  8
0
  6
Continuous
 62
     7
100
AcDbBlockReference
  2
_OPEN30
 10
-457.5992126464844
 20
780.6896972656249
 30
0.0
  0
LINE
  5
EC
330
E7
100
AcDbEntity
  8
0
  6
Continuous
 62
     7
100
AcDbLine
 10
-728.5991821289062
 20
746.7823706054687
 30
0.0
 11
-728.5991821289062
 21
782.9756469726562
 31
0.0
  0
LINE
  5
ED
330
E7
100
AcDbEntity
  8
0
  6
Continuous
 62
     7
100
AcDbLine
 10
-457.5992126464844
 20
746.7823706054687
 30
0.0
 11
-457.5992126464844
 21
782.9756469726562
 31
0.0
  0
TEXT
  5
EE
330
E7
100
AcDbEntity
  8
0
  6
Continuous
 62
     7
100
AcDbText
 10
-597.1691823005676
 20
781.439697265625
 30
0.0
 40
3.0
  1
271
 41
1.110000014305114
100
AcDbText
  0
POINT
  5
EF
330
E7
100
AcDbEntity
  8
DEFPOINTS
  6
Continuous
 62
     7
100
AcDbPoint
 10
-728.5991821289062
 20
744.2423706054687
 30
0.0
  0
POINT
  5
F0
330
E7
100
AcDbEntity
  8
DEFPOINTS
  6
Continuous
 62
     7
100
AcDbPoint
 10
-457.5992126464844
 20
744.2423706054687
 30
0.0
  0
POINT
  5
F1
330
E7
100
AcDbEntity
  8
DEFPOINTS
  6
Continuous
 62
     7
100
AcDbPoint
 10
-457.5992126464844
 20
780.6896972656249
 30
0.0
  0
ENDBLK
  5
F2
330
E7
100
AcDbEntity
  8
0
100
AcDbBlockEnd
  0
BLOCK
  5
F4
330
F3
100
AcDbEntity
  8
0
100
AcDbBlockBegin
  2
KOZU0001
 70
     0
 10
0.0
 20
0.0
 30
0.0
  3
KOZU0001
  1

  0
LINE
  5
F5
330
F3
100
AcDbEntity
  8
0
  6
Continuous
 62
     7
100
AcDbLine
 10
0.0
 20
0.0
 30
0.0
 11
-56.41912841796875
 21
-48.35922241210938
 31
0.0
  0
LINE
  5
F6
330
F3
100
AcDbEntity
  8
0
  6
Continuous
 62
     7
100
AcDbLine
 10
-56.41912841796875
 20
-48.35922241210938
 30
0.0
 11
-90.198974609375
 21
-48.35922241210938
 31
0.0
  0
LINE
  5
F7
330
F3
100
AcDbEntity
  8
0
  6
Continuous
 62
     7
100
AcDbLine
 10
0.0
 20
0.0
 30
0.0
 11
-1.62697927917465
 21
-2.711630215412185
 31
0.0
  0
LINE
  5
F8
330
F3
100
AcDbEntity
  8
0
  6
Continuous
 62
     7
100
AcDbLine
 10
0.0
 20
0.0
 30
0.0
 11
-2.928561552587031
 21
-1.193116604824957
 31
0.0
  0
TEXT
  5
F9
330
F3
100
AcDbEntity
  8
0
  6
Continuous
 62
     7
100
AcDbText
 10
-88.47900474071503
 20
-47.60922241210938
 30
0.0
 40
3.0
  1
共廻り防止用羽根
 41
0.8454512278006642
100
AcDbText
  0
TEXT
  5
FA
330
F3
100
AcDbEntity
  8
0
  6
Continuous
 62
     7
100
AcDbText
 10
-88.47900474071503
 20
-52.87422241210938
 30
0.0
 40
3.0
  1
３ヶ所
 41
0.8550420278260688
100
AcDbText
  0
ENDBLK
  5
FB
330
F3
100
AcDbEntity
  8
0
100
AcDbBlockEnd
  0
BLOCK
  5
FD
330
FC
100
AcDbEntity
  8
0
100
AcDbBlockBegin
  2
KOZU0002
 70
     0
 10
0.0
 20
0.0
 30
0.0
  3
KOZU0002
  1

  0
LINE
  5
FE
330
FC
100
AcDbEntity
  8
0
  6
Continuous
 62
     7
100
AcDbLine
 10
0.0
 20
0.0
 30
0.0
 11
12.6898193359375
 21
-13.30075073242188
 31
0.0
  0
LINE
  5
FF
330
FC
100
AcDbEntity
  8
0
  6
Continuous
 62
     7
100
AcDbLine
 10
12.6898193359375
 20
-13.30075073242188
 30
0.0
 11
50.41091918945313
 21
-13.30075073242188
 31
0.0
  0
LINE
  5
100
330
FC
100
AcDbEntity
  8
0
  6
Continuous
 62
     7
100
AcDbLine
 10
0.0
 20
0.0
 30
0.0
 11
2.794412893638487
 21
-1.480289356803921
 31
0.0
  0
LINE
  5
101
330
FC
100
AcDbEntity
  8
0
  6
Continuous
 62
     7
100
AcDbLine
 10
0.0
 20
0.0
 30
0.0
 11
1.347356700828438
 21
-2.860879221626231
 31
0.0
  0
TEXT
  5
102
330
FC
100
AcDbEntity
  8
0
  6
Continuous
 62
     7
100
AcDbText
 10
14.27979969978333
 20
-12.55075073242188
 30
0.0
 40
3.0
  1
配管接続口
 41
0.8487395020950888
100
AcDbText
  0
TEXT
  5
103
330
FC
100
AcDbEntity
  8
0
  6
Continuous
 62
     7
100
AcDbText
 10
14.27979969978333
 20
-17.81575073242188
 30
0.0
 40
3.0
  1
Ｒｃ２　１／２（６５Ａ）
 41
0.8436974815103043
100
AcDbText
  0
ENDBLK
  5
104
330
FC
100
AcDbEntity
  8
0
100
AcDbBlockEnd
  0
ENDSEC
  0
SECTION
  2
ENTITIES
  0
POINT
  5
105
330
22
100
AcDbEntity
  8
0
  6
Continuous
 62
     7
100
AcDbPoint
 10
-593.0991821289062
 20
609.7423706054687
 30
0.0
  0
POINT
  5
106
330
22
100
AcDbEntity
  8
0
  6
Continuous
 62
     7
100
AcDbPoint
 10
-593.0991821289062
 20
184.6504669189453
 30
0.0
  0
POINT
  5
107
330
22
100
AcDbEntity
  8
0
  6
Continuous
 62
     7
100
AcDbPoint
 10
-593.0991821289062
 20
184.6504669189453
 30
0.0
  0
POINT
  5
108
330
22
100
AcDbEntity
  8
0
  6
Continuous
 62
     7
100
AcDbPoint
 10
-593.0991821289062
 20
609.7423706054687
 30
0.0
  0
LINE
  5
109
330
22
100
AcDbEntity
  8
0
  6
Continuous
 62
     7
100
AcDbLine
 10
-467.142822265625
 20
379.6504516601563
 30
0.0
 11
-467.142822265625
 21
369.6504516601563
 31
0.0
  0
LINE
  5
10A
330
22
100
AcDbEntity
  8
0
  6
Continuous
 62
     7
100
AcDbLine
 10
-463.142822265625
 20
379.6504516601563
 30
0.0
 11
-463.142822265625
 21
369.6504516601563
 31
0.0
  0
LINE
  5
10B
330
22
100
AcDbEntity
  8
0
  6
Continuous
 62
     7
100
AcDbLine
 10
-467.142822265625
 20
369.6504516601563
 30
0.0
 11
-463.142822265625
 21
369.6504516601563
 31
0.0
  0
LINE
  5
10C
330
22
100
AcDbEntity
  8
0
  6
Continuous
 62
     7
100
AcDbLine
 10
-466.892822265625
 20
367.6504516601563
 30
0.0
 11
-465.142822265625
 21
365.9004516601563
 31
0.0
  0
LINE
  5
10D
330
22
100
AcDbEntity
  8
0
  6
Continuous
 62
     7
100
AcDbLine
 10
-466.892822265625
 20
379.6504516601563
 30
0.0
 11
-466.892822265625
 21
367.6504516601563
 31
0.0
  0
LINE
  5
10E
330
22
100
AcDbEntity
  8
0
  6
Continuous
 62
     7
100
AcDbLine
 10
-453.0992126464844
 20
365.0372009277344
 30
0.0
 11
-453.0992126464844
 21
382.1504516601563
 31
0.0
  0
LINE
  5
10F
330
22
100
AcDbEntity
  8
0
  6
Continuous
 62
     7
100
AcDbLine
 10
-465.142822265625
 20
365.9004516601563
 30
0.0
 11
-463.3928222656249
 21
367.6504516601563
 31
0.0
  0
LINE
  5
110
330
22
100
AcDbEntity
  8
0
  6
Continuous
 62
     7
100
AcDbLine
 10
-463.3928222656249
 20
379.6504516601563
 30
0.0
 11
-463.3928222656249
 21
367.6504516601563
 31
0.0
  0
LINE
  5
111
330
22
100
AcDbEntity
  8
0
  6
Continuous
 62
     7
100
AcDbLine
 10
-559.0991821289064
 20
305.1504516601563
 30
0.0
 11
-557.7037353515625
 21
305.1504516601563
 31
0.0
  0
LINE
  5
112
330
22
100
AcDbEntity
  8
0
  6
Continuous
 62
     7
100
AcDbLine
 10
-557.7037353515625
 20
305.1504516601563
 30
0.0
 11
-556.1783447265624
 21
303.6250610351563
 31
0.0
  0
LINE
  5
113
330
22
100
AcDbEntity
  8
0
  6
Continuous
 62
     7
100
AcDbLine
 10
-588.0991821289062
 20
379.6504516601563
 30
0.0
 11
-588.0991821289062
 21
380.1504516601563
 31
0.0
  0
LINE
  5
114
330
22
100
AcDbEntity
  8
0
  6
Continuous
 62
     7
100
AcDbLine
 10
-547.5801391601563
 20
283.1504516601563
 30
0.0
 11
-547.5801391601563
 21
305.2318725585938
 31
0.0
  0
LINE
  5
115
330
22
100
AcDbEntity
  8
0
  6
Continuous
 62
     7
100
AcDbLine
 10
-460.642822265625
 20
386.6504516601563
 30
0.0
 11
-462.892822265625
 21
384.4004516601563
 31
0.0
  0
LINE
  5
116
330
22
100
AcDbEntity
  8
0
  6
Continuous
 62
     7
100
AcDbLine
 10
-469.6428222656249
 20
386.6504516601563
 30
0.0
 11
-467.3928222656249
 21
384.4004516601563
 31
0.0
  0
LINE
  5
117
330
22
100
AcDbEntity
  8
0
  6
Continuous
 62
     7
100
AcDbLine
 10
-468.5992126464843
 20
380.1504516601563
 30
0.0
 11
-468.5992126464843
 21
379.6504516601563
 31
0.0
  0
LINE
  5
118
330
22
100
AcDbEntity
  8
0
  6
Continuous
 62
     7
100
AcDbLine
 10
-467.3928222656249
 20
379.6504516601563
 30
0.0
 11
-467.3928222656249
 21
384.4004516601563
 31
0.0
  0
LINE
  5
119
330
22
100
AcDbEntity
  8
0
  6
Continuous
 62
     7
100
AcDbLine
 10
-462.892822265625
 20
379.6504516601563
 30
0.0
 11
-462.892822265625
 21
384.4004516601563
 31
0.0
  0
LINE
  5
11A
330
22
100
AcDbEntity
  8
0
  6
Continuous
 62
     7
100
AcDbLine
 10
-467.3928222656249
 20
384.4004516601563
 30
0.0
 11
-467.142822265625
 21
384.1504516601563
 31
0.0
  0
LINE
  5
11B
330
22
100
AcDbEntity
  8
0
  6
Continuous
 62
     7
100
AcDbLine
 10
-462.892822265625
 20
384.4004516601563
 30
0.0
 11
-463.142822265625
 21
384.1504516601563
 31
0.0
  0
LINE
  5
11C
330
22
100
AcDbEntity
  8
0
  6
Continuous
 62
     7
100
AcDbLine
 10
-467.142822265625
 20
384.1504516601563
 30
0.0
 11
-463.142822265625
 21
384.1504516601563
 31
0.0
  0
LINE
  5
11D
330
22
100
AcDbEntity
  8
0
  6
Continuous
 62
     7
100
AcDbLine
 10
-458.0992126464844
 20
387.1504516601563
 30
0.0
 11
-458.0992126464844
 21
380.6504516601563
 31
0.0
  0
LINE
  5
11E
330
22
100
AcDbEntity
  8
0
  6
Continuous
 62
     7
100
AcDbLine
 10
-443.0992126464843
 20
386.1504516601563
 30
0.0
 11
-443.0992126464843
 21
384.1504516601563
 31
0.0
  0
LINE
  5
11F
330
22
100
AcDbEntity
  8
0
  6
Continuous
 62
     7
100
AcDbLine
 10
-452.0992126464843
 20
383.1504516601563
 30
0.0
 11
-444.0992126464843
 21
383.1504516601563
 31
0.0
  0
LINE
  5
120
330
22
100
AcDbEntity
  8
0
  6
Continuous
 62
     7
100
AcDbLine
 10
-467.142822265625
 20
384.1504516601563
 30
0.0
 11
-467.142822265625
 21
372.2609252929688
 31
0.0
  0
LINE
  5
121
330
22
100
AcDbEntity
  8
0
  6
Continuous
 62
     7
100
AcDbLine
 10
-463.142822265625
 20
384.1504516601563
 30
0.0
 11
-463.142822265625
 21
372.2609252929688
 31
0.0
  0
LINE
  5
122
330
22
100
AcDbEntity
  8
0
  6
Continuous
 62
     7
100
AcDbLine
 10
-743.0991821289062
 20
386.1504516601563
 30
0.0
 11
-743.0991821289062
 21
384.1504516601563
 31
0.0
  0
LINE
  5
123
330
22
100
AcDbEntity
  8
0
  6
Continuous
 62
     7
100
AcDbLine
 10
-733.0991821289062
 20
365.0372009277344
 30
0.0
 11
-733.0991821289062
 21
383.1504516601563
 31
0.0
  0
LINE
  5
124
330
22
100
AcDbEntity
  8
0
  6
Continuous
 62
     7
100
AcDbLine
 10
-614.6477661132812
 20
301.6730651855469
 30
0.0
 11
-630.8441772460938
 21
301.6817016601563
 31
0.0
  0
LINE
  5
125
330
22
100
AcDbEntity
  8
0
  6
Continuous
 62
     7
100
AcDbLine
 10
-630.5784301757812
 20
283.1504516601563
 30
0.0
 11
-614.0487060546875
 21
283.1371765136719
 31
0.0
  0
LINE
  5
126
330
22
100
AcDbEntity
  8
0
  6
Continuous
 62
     7
100
AcDbLine
 10
-633.0345458984375
 20
304.3778076171875
 30
0.0
 11
-593.0994873046874
 21
304.3778076171875
 31
0.0
  0
LINE
  5
127
330
22
100
AcDbEntity
  8
0
  6
Continuous
 62
     7
100
AcDbLine
 10
-632.5778808593749
 20
282.1504516601563
 30
0.0
 11
-593.0991821289062
 21
282.1504516601563
 31
0.0
  0
LINE
  5
128
330
22
100
AcDbEntity
  8
0
  6
Continuous
 62
     7
100
AcDbLine
 10
-633.577880859375
 20
283.1504516601563
 30
0.0
 11
-633.577880859375
 21
304.6917724609375
 31
0.0
  0
LINE
  5
129
330
22
100
AcDbEntity
  8
0
  6
Continuous
 62
     7
100
AcDbLine
 10
-630.5784301757812
 20
283.1504516601563
 30
0.0
 11
-629.5784301757812
 21
282.1504516601563
 31
0.0
  0
LINE
  5
12A
330
22
100
AcDbEntity
  8
0
  6
Continuous
 62
     7
100
AcDbLine
 10
-632.5778808593749
 20
282.1504516601563
 30
0.0
 11
-633.577880859375
 21
283.1504516601563
 31
0.0
  0
LINE
  5
12B
330
22
100
AcDbEntity
  8
0
  6
Continuous
 62
     7
100
AcDbLine
 10
-630.5784301757812
 20
283.1504516601563
 30
0.0
 11
-630.5784301757812
 21
300.0733032226563
 31
0.0
  0
LINE
  5
12C
330
22
100
AcDbEntity
  8
0
  6
Continuous
 62
     7
100
AcDbLine
 10
-613.5532836914062
 20
282.1371765136719
 30
0.0
 11
-613.5532836914062
 21
303.0592041015625
 31
0.0
  0
LINE
  5
12D
330
22
100
AcDbEntity
  8
0
  6
Continuous
 62
     7
100
AcDbLine
 10
-607.8403930664062
 20
282.1371765136719
 30
0.0
 11
-607.8403930664062
 21
301.6730651855469
 31
0.0
  0
LINE
  5
12E
330
22
100
AcDbEntity
  8
0
  6
Continuous
 62
     7
100
AcDbLine
 10
-606.974853515625
 20
301.6730651855469
 30
0.0
 11
-593.0994873046874
 21
301.6863403320313
 31
0.0
  0
LINE
  5
12F
330
22
100
AcDbEntity
  8
0
  6
Continuous
 62
     7
100
AcDbLine
 10
-607.4439697265624
 20
283.1371765136719
 30
0.0
 11
-593.0994873046874
 21
283.1504516601563
 31
0.0
  0
LINE
  5
130
330
22
100
AcDbEntity
  8
0
  6
Continuous
 62
     7
100
AcDbLine
 10
-559.5991821289064
 20
305.6504516601563
 30
0.0
 11
-559.5991821289064
 21
307.784423828125
 31
0.0
  0
LINE
  5
131
330
22
100
AcDbEntity
  8
0
  6
Continuous
 62
     7
100
AcDbLine
 10
-593.0991821289062
 20
300.1504516601563
 30
0.0
 11
-557.5298461914063
 21
300.1504516601563
 31
0.0
  0
LINE
  5
132
330
22
100
AcDbEntity
  8
0
  6
Continuous
 62
     7
100
AcDbLine
 10
-559.0991821289064
 20
308.6504516601563
 30
0.0
 11
-593.0991821289062
 21
308.6504516601563
 31
0.0
  0
LINE
  5
133
330
22
100
AcDbEntity
  8
0
  6
Continuous
 62
     7
100
AcDbLine
 10
-558.5991821289063
 20
305.1504516601563
 30
0.0
 11
-593.0991821289062
 21
305.1504516601563
 31
0.0
  0
LINE
  5
134
330
22
100
AcDbEntity
  8
0
  6
Continuous
 62
     7
100
AcDbLine
 10
-557.0325927734375
 20
283.6758422851563
 30
0.0
 11
-557.7037353515625
 21
305.1504516601563
 31
0.0
  0
LINE
  5
135
330
22
100
AcDbEntity
  8
0
  6
Continuous
 62
     7
100
AcDbLine
 10
-557.5298461914063
 20
300.1504516601563
 30
0.0
 11
-556.0065307617188
 21
298.6271362304688
 31
0.0
  0
LINE
  5
136
330
22
100
AcDbEntity
  8
0
  6
Continuous
 62
     7
100
AcDbLine
 10
-634.5991821289062
 20
166.6504669189453
 30
0.0
 11
-636.5991821289062
 21
166.6504669189453
 31
0.0
  0
LINE
  5
137
330
22
100
AcDbEntity
  8
0
  6
Continuous
 62
     7
100
AcDbLine
 10
-557.0325317382813
 20
153.6737823486328
 30
0.0
 11
-593.0991821289062
 21
153.6737823486328
 31
0.0
  0
LINE
  5
138
330
22
100
AcDbEntity
  8
0
  6
Continuous
 62
     7
100
AcDbLine
 10
-629.2142333984375
 20
248.0331115722656
 30
0.0
 11
-593.0991821289062
 21
248.0331115722656
 31
0.0
  0
LINE
  5
139
330
22
100
AcDbEntity
  8
0
  6
Continuous
 62
     7
100
AcDbLine
 10
-633.0991821289062
 20
220.1504669189453
 30
0.0
 11
-593.0991821289062
 21
220.1504669189453
 31
0.0
  0
LINE
  5
13A
330
22
100
AcDbEntity
  8
0
  6
Continuous
 62
     7
100
AcDbLine
 10
-629.2142333984375
 20
248.0331115722656
 30
0.0
 11
-631.2492065429687
 21
250.2656555175781
 31
0.0
  0
LINE
  5
13B
330
22
100
AcDbEntity
  8
0
  6
Continuous
 62
     7
100
AcDbLine
 10
-634.0991821289062
 20
193.1504669189453
 30
0.0
 11
-634.0991821289062
 21
219.1504669189453
 31
0.0
  0
LINE
  5
13C
330
22
100
AcDbEntity
  8
0
  6
Continuous
 62
     7
100
AcDbLine
 10
-629.2142333984375
 20
220.1504669189453
 30
0.0
 11
-629.2142333984375
 21
248.0331115722656
 31
0.0
  0
LINE
  5
13D
330
22
100
AcDbEntity
  8
0
  6
Continuous
 62
     7
100
AcDbLine
 10
-630.6892089843749
 20
220.1504669189453
 30
0.0
 11
-630.6892089843749
 21
249.6512908935547
 31
0.0
  0
LINE
  5
13E
330
22
100
AcDbEntity
  8
0
  6
Continuous
 62
     7
100
AcDbLine
 10
-556.9841918945313
 20
218.6754608154297
 30
0.0
 11
-556.9841918945313
 21
189.6254577636719
 31
0.0
  0
LINE
  5
13F
330
22
100
AcDbEntity
  8
0
  6
Continuous
 62
     7
100
AcDbLine
 10
-593.0991821289062
 20
189.6254577636719
 30
0.0
 11
-556.9841918945313
 21
189.6254577636719
 31
0.0
  0
LINE
  5
140
330
22
100
AcDbEntity
  8
0
  6
Continuous
 62
     7
100
AcDbLine
 10
-593.0991821289062
 20
200.1504669189453
 30
0.0
 11
-556.9841918945313
 21
200.1504669189453
 31
0.0
  0
LINE
  5
141
330
22
100
AcDbEntity
  8
0
  6
Continuous
 62
     7
100
AcDbLine
 10
-556.9841918945313
 20
200.1504669189453
 30
0.0
 11
-556.9841918945313
 21
250.1504669189453
 31
0.0
  0
LINE
  5
142
330
22
100
AcDbEntity
  8
0
  6
Continuous
 62
     7
100
AcDbLine
 10
-518.8468017578125
 20
187.1504669189453
 30
0.0
 11
-517.8468017578125
 21
188.1504669189453
 31
0.0
  0
LINE
  5
143
330
22
100
AcDbEntity
  8
0
  6
Continuous
 62
     7
100
AcDbLine
 10
-518.8468017578125
 20
187.1504669189453
 30
0.0
 11
-519.8468017578124
 21
188.1504669189453
 31
0.0
  0
LINE
  5
144
330
22
100
AcDbEntity
  8
0
  6
Continuous
 62
     7
100
AcDbLine
 10
-534.8491821289063
 20
187.1504669189453
 30
0.0
 11
-535.8491821289063
 21
188.1504669189453
 31
0.0
  0
LINE
  5
145
330
22
100
AcDbEntity
  8
0
  6
Continuous
 62
     7
100
AcDbLine
 10
-534.8491821289063
 20
187.1504669189453
 30
0.0
 11
-533.8491821289063
 21
188.1504669189453
 31
0.0
  0
LINE
  5
146
330
22
100
AcDbEntity
  8
0
  6
Continuous
 62
     7
100
AcDbLine
 10
-455.5992126464843
 20
360.7070922851563
 30
0.0
 11
-545.0773925781249
 21
309.0386657714844
 31
0.0
  0
LINE
  5
147
330
22
100
AcDbEntity
  8
0
  6
CENTER
 62
     7
100
AcDbLine
 10
-465.142822265625
 20
388.2095031738281
 30
0.0
 11
-465.142822265625
 21
360.5727233886719
 31
0.0
  0
LINE
  5
148
330
22
100
AcDbEntity
  8
0
  6
Continuous
 62
     7
100
AcDbLine
 10
-470.0992126464844
 20
379.6504516601563
 30
0.0
 11
-470.0992126464844
 21
358.6863708496094
 31
0.0
  0
LINE
  5
149
330
22
100
AcDbEntity
  8
0
  6
Continuous
 62
     7
100
AcDbLine
 10
-684.0991821289062
 20
185.1504669189453
 30
0.0
 11
-684.0991821289062
 21
186.1504669189453
 31
0.0
  0
LINE
  5
14A
330
22
100
AcDbEntity
  8
0
  6
Continuous
 62
     7
100
AcDbLine
 10
-593.0991821289062
 20
184.6504669189453
 30
0.0
 11
-683.5991821289062
 21
184.6504669189453
 31
0.0
  0
LINE
  5
14B
330
22
100
AcDbEntity
  8
0
  6
Continuous
 62
     7
100
AcDbLine
 10
-634.5991821289062
 20
183.6504669189453
 30
0.0
 11
-634.5991821289062
 21
153.1504669189453
 31
0.0
  0
LINE
  5
14C
330
22
100
AcDbEntity
  8
0
  6
Continuous
 62
     7
100
AcDbLine
 10
-650.5991821289062
 20
184.6504669189453
 30
0.0
 11
-650.5991821289062
 21
183.1494903564453
 31
0.0
  0
LINE
  5
14D
330
22
100
AcDbEntity
  8
0
  6
Continuous
 62
     7
100
AcDbLine
 10
-557.9224853515625
 20
182.1504669189453
 30
0.0
 11
-593.0991821289062
 21
182.1504669189453
 31
0.0
  0
LINE
  5
14E
330
22
100
AcDbEntity
  8
0
  6
Continuous
 62
     7
100
AcDbLine
 10
-556.4914550781249
 20
183.5814666748047
 30
0.0
 11
-593.0991821289062
 21
183.5814666748047
 31
0.0
  0
LINE
  5
14F
330
22
100
AcDbEntity
  8
0
  6
Continuous
 62
     7
100
AcDbLine
 10
-557.9224853515625
 20
182.1504669189453
 30
0.0
 11
-557.0325317382813
 21
153.6737823486328
 31
0.0
  0
LINE
  5
150
330
22
100
AcDbEntity
  8
0
  6
Continuous
 62
     7
100
AcDbLine
 10
-556.4914550781249
 20
183.5814666748047
 30
0.0
 11
-556.4914550781249
 21
188.1504669189453
 31
0.0
  0
LINE
  5
151
330
22
100
AcDbEntity
  8
0
  6
Continuous
 62
     7
100
AcDbLine
 10
-557.9224853515625
 20
182.1504669189453
 30
0.0
 11
-556.4914550781249
 21
183.5814666748047
 31
0.0
  0
LINE
  5
152
330
22
100
AcDbEntity
  8
0
  6
Continuous
 62
     7
100
AcDbLine
 10
-588.0991821289062
 20
379.6504516601563
 30
0.0
 11
-588.0991821289062
 21
357.1863708496094
 31
0.0
  0
LINE
  5
153
330
22
100
AcDbEntity
  8
0
  6
Continuous
 62
     7
100
AcDbLine
 10
-502.0992126464843
 20
185.1504669189453
 30
0.0
 11
-502.0992126464843
 21
186.1504669189453
 31
0.0
  0
LINE
  5
154
330
22
100
AcDbEntity
  8
0
  6
Continuous
 62
     7
100
AcDbLine
 10
-742.0991821289062
 20
383.1504516601563
 30
0.0
 11
-593.0991821289062
 21
383.1504516601563
 31
0.0
  0
LINE
  5
155
330
22
100
AcDbEntity
  8
0
  6
Continuous
 62
     7
100
AcDbLine
 10
-730.5991821289062
 20
360.7070922851563
 30
0.0
 11
-633.0784301757812
 21
304.4034118652344
 31
0.0
  0
LINE
  5
156
330
22
100
AcDbEntity
  8
0
  6
Continuous
 62
     7
100
AcDbLine
 10
-730.5991821289062
 20
362.1504516601563
 30
0.0
 11
-593.0991821289062
 21
362.1504516601563
 31
0.0
  0
LINE
  5
157
330
22
100
AcDbEntity
  8
0
  6
Continuous
 62
     7
100
AcDbLine
 10
-593.0991821289062
 20
188.1504669189453
 30
0.0
 11
-682.0991821289062
 21
188.1504669189453
 31
0.0
  0
LINE
  5
158
330
22
100
AcDbEntity
  8
0
  6
Continuous
 62
     7
100
AcDbLine
 10
-629.5029907226562
 20
273.4504699707031
 30
0.0
 11
-593.0991821289062
 21
273.4504699707031
 31
0.0
  0
LINE
  5
159
330
22
100
AcDbEntity
  8
0
  6
Continuous
 62
     7
100
AcDbLine
 10
-569.2402954101562
 20
200.1504669189453
 30
0.0
 11
-576.1435546875
 21
200.1504669189453
 31
0.0
  0
LINE
  5
15A
330
22
100
AcDbEntity
  8
0
  6
Continuous
 62
     7
100
AcDbLine
 10
-572.76806640625
 20
300.1504516601563
 30
0.0
 11
-568.1435546874999
 21
300.1504516601563
 31
0.0
  0
LINE
  5
15B
330
22
100
AcDbEntity
  8
0
  6
Continuous
 62
     7
100
AcDbLine
 10
-629.5029907226562
 20
273.4504699707031
 30
0.0
 11
-631.2492065429687
 21
271.7042236328125
 31
0.0
  0
LINE
  5
15C
330
22
100
AcDbEntity
  8
0
  6
Continuous
 62
     7
100
AcDbLine
 10
-630.706787109375
 20
282.1504516601563
 30
0.0
 11
-631.0263061523437
 21
271.9271240234375
 31
0.0
  0
LINE
  5
15D
330
22
100
AcDbEntity
  8
0
  6
Continuous
 62
     7
100
AcDbLine
 10
-631.2492065429687
 20
250.2656555175781
 30
0.0
 11
-631.2492065429687
 21
271.7042236328125
 31
0.0
  0
LINE
  5
15E
330
22
100
AcDbEntity
  8
0
  6
Continuous
 62
     7
100
AcDbLine
 10
-629.2310791015625
 20
282.1504516601563
 30
0.0
 11
-629.5029907226562
 21
273.4504699707031
 31
0.0
  0
LINE
  5
15F
330
22
100
AcDbEntity
  8
0
  6
Continuous
 62
     7
100
AcDbLine
 10
-559.0991821289064
 20
200.1504669189453
 30
0.0
 11
-559.0991821289064
 21
300.1504516601563
 31
0.0
  0
LINE
  5
160
330
22
100
AcDbEntity
  8
0
  6
Continuous
 62
     7
100
AcDbLine
 10
-557.5298461914063
 20
300.1504516601563
 30
0.0
 11
-556.6954345703124
 21
273.4504699707031
 31
0.0
  0
LINE
  5
161
330
22
100
AcDbEntity
  8
0
  6
CENTER
 62
     7
100
AcDbLine
 10
-593.0991821289062
 20
148.1860504150391
 30
0.0
 11
-593.0991821289062
 21
396.1353454589844
 31
0.0
  0
LINE
  5
162
330
22
100
AcDbEntity
  8
0
  6
Continuous
 62
     7
100
AcDbLine
 10
-633.5991821289062
 20
152.1504669189453
 30
0.0
 11
-552.5991821289063
 21
152.1504669189453
 31
0.0
  0
LINE
  5
163
330
22
100
AcDbEntity
  8
0
  6
Continuous
 62
     7
100
AcDbLine
 10
-556.6954345703124
 20
273.4504699707031
 30
0.0
 11
-554.94921875
 21
271.7042236328125
 31
0.0
  0
LINE
  5
164
330
22
100
AcDbEntity
  8
0
  6
Continuous
 62
     7
100
AcDbLine
 10
-556.0065307617188
 20
298.6271362304688
 30
0.0
 11
-555.172119140625
 21
271.9271240234375
 31
0.0
  0
LINE
  5
165
330
22
100
AcDbEntity
  8
0
  6
Continuous
 62
     7
100
AcDbLine
 10
-554.94921875
 20
252.3829956054688
 30
0.0
 11
-554.94921875
 21
271.7042236328125
 31
0.0
  0
LINE
  5
166
330
22
100
AcDbEntity
  8
0
  6
Continuous
 62
     7
100
AcDbLine
 10
-559.0991821289064
 20
299.8509521484375
 30
0.0
 11
-557.4877319335938
 21
298.2394714355469
 31
0.0
  0
LINE
  5
167
330
22
100
AcDbEntity
  8
0
  6
Continuous
 62
     7
100
AcDbLine
 10
-559.0991821289064
 20
299.1438598632813
 30
0.0
 11
-557.4649047851563
 21
297.5095825195313
 31
0.0
  0
LINE
  5
168
330
22
100
AcDbEntity
  8
0
  6
Continuous
 62
     7
100
AcDbLine
 10
-559.0991821289064
 20
297.0225219726563
 30
0.0
 11
-557.3964843749999
 21
295.31982421875
 31
0.0
  0
LINE
  5
169
330
22
100
AcDbEntity
  8
0
  6
Continuous
 62
     7
100
AcDbLine
 10
-559.0991821289064
 20
296.3154296875
 30
0.0
 11
-557.3736572265625
 21
294.5899047851563
 31
0.0
  0
LINE
  5
16A
330
22
100
AcDbEntity
  8
0
  6
Continuous
 62
     7
100
AcDbLine
 10
-559.0991821289064
 20
294.194091796875
 30
0.0
 11
-557.3052368164063
 21
292.400146484375
 31
0.0
  0
LINE
  5
16B
330
22
100
AcDbEntity
  8
0
  6
Continuous
 62
     7
100
AcDbLine
 10
-559.0991821289064
 20
293.4869995117188
 30
0.0
 11
-557.2824096679688
 21
291.6702270507813
 31
0.0
  0
LINE
  5
16C
330
22
100
AcDbEntity
  8
0
  6
Continuous
 62
     7
100
AcDbLine
 10
-559.0991821289064
 20
291.3656616210938
 30
0.0
 11
-557.2139892578125
 21
289.48046875
 31
0.0
  0
LINE
  5
16D
330
22
100
AcDbEntity
  8
0
  6
Continuous
 62
     7
100
AcDbLine
 10
-559.0991821289064
 20
290.6585693359375
 30
0.0
 11
-557.1912231445313
 21
288.7505493164063
 31
0.0
  0
LINE
  5
16E
330
22
100
AcDbEntity
  8
0
  6
Continuous
 62
     7
100
AcDbLine
 10
-559.0991821289064
 20
288.5372619628906
 30
0.0
 11
-557.1227416992188
 21
286.560791015625
 31
0.0
  0
LINE
  5
16F
330
22
100
AcDbEntity
  8
0
  6
Continuous
 62
     7
100
AcDbLine
 10
-559.0991821289064
 20
287.8301391601563
 30
0.0
 11
-557.0999755859374
 21
285.8308715820313
 31
0.0
  0
LINE
  5
170
330
22
100
AcDbEntity
  8
0
  6
Continuous
 62
     7
100
AcDbLine
 10
-559.0991821289064
 20
285.7088317871094
 30
0.0
 11
-557.0234985351564
 21
283.6331481933594
 31
0.0
  0
LINE
  5
171
330
22
100
AcDbEntity
  8
0
  6
Continuous
 62
     7
100
AcDbLine
 10
-559.0991821289064
 20
285.001708984375
 30
0.0
 11
-556.9905395507813
 21
282.8930358886719
 31
0.0
  0
LINE
  5
172
330
22
100
AcDbEntity
  8
0
  6
Continuous
 62
     7
100
AcDbLine
 10
-559.0991821289064
 20
282.8804016113281
 30
0.0
 11
-556.9221191406249
 21
280.7032775878905
 31
0.0
  0
LINE
  5
173
330
22
100
AcDbEntity
  8
0
  6
Continuous
 62
     7
100
AcDbLine
 10
-559.0991821289064
 20
282.1732788085938
 30
0.0
 11
-556.8992919921875
 21
279.973388671875
 31
0.0
  0
LINE
  5
174
330
22
100
AcDbEntity
  8
0
  6
Continuous
 62
     7
100
AcDbLine
 10
-559.0991821289064
 20
280.0519714355469
 30
0.0
 11
-556.8308715820314
 21
277.7836303710938
 31
0.0
  0
LINE
  5
175
330
22
100
AcDbEntity
  8
0
  6
Continuous
 62
     7
100
AcDbLine
 10
-559.0991821289064
 20
279.3448486328125
 30
0.0
 11
-556.8080444335938
 21
277.0537109375
 31
0.0
  0
LINE
  5
176
330
22
100
AcDbEntity
  8
0
  6
Continuous
 62
     7
100
AcDbLine
 10
-559.0991821289064
 20
277.2235412597656
 30
0.0
 11
-556.7396240234375
 21
274.8639526367188
 31
0.0
  0
LINE
  5
177
330
22
100
AcDbEntity
  8
0
  6
Continuous
 62
     7
100
AcDbLine
 10
-559.0991821289064
 20
276.5164489746094
 30
0.0
 11
-556.7167968749999
 21
274.134033203125
 31
0.0
  0
LINE
  5
178
330
22
100
AcDbEntity
  8
0
  6
Continuous
 62
     7
100
AcDbLine
 10
-559.0991821289064
 20
274.3951110839844
 30
0.0
 11
-554.94921875
 21
270.2451171875
 31
0.0
  0
LINE
  5
179
330
22
100
AcDbEntity
  8
0
  6
Continuous
 62
     7
100
AcDbLine
 10
-559.0991821289064
 20
273.6880187988281
 30
0.0
 11
-554.94921875
 21
269.5379943847656
 31
0.0
  0
LINE
  5
17A
330
22
100
AcDbEntity
  8
0
  6
Continuous
 62
     7
100
AcDbLine
 10
-559.0991821289064
 20
271.5666809082031
 30
0.0
 11
-554.94921875
 21
267.4166870117188
 31
0.0
  0
LINE
  5
17B
330
22
100
AcDbEntity
  8
0
  6
Continuous
 62
     7
100
AcDbLine
 10
-559.0991821289064
 20
270.8595886230469
 30
0.0
 11
-554.94921875
 21
266.7095947265625
 31
0.0
  0
LINE
  5
17C
330
22
100
AcDbEntity
  8
0
  6
Continuous
 62
     7
100
AcDbLine
 10
-559.0991821289064
 20
268.7382507324219
 30
0.0
 11
-554.94921875
 21
264.5882568359375
 31
0.0
  0
LINE
  5
17D
330
22
100
AcDbEntity
  8
0
  6
Continuous
 62
     7
100
AcDbLine
 10
-559.0991821289064
 20
268.0311584472656
 30
0.0
 11
-554.94921875
 21
263.8811645507813
 31
0.0
  0
LINE
  5
17E
330
22
100
AcDbEntity
  8
0
  6
Continuous
 62
     7
100
AcDbLine
 10
-559.0991821289064
 20
265.9098205566406
 30
0.0
 11
-554.94921875
 21
261.7598266601563
 31
0.0
  0
LINE
  5
17F
330
22
100
AcDbEntity
  8
0
  6
Continuous
 62
     7
100
AcDbLine
 10
-559.0991821289064
 20
265.2027282714844
 30
0.0
 11
-554.94921875
 21
261.052734375
 31
0.0
  0
LINE
  5
180
330
22
100
AcDbEntity
  8
0
  6
Continuous
 62
     7
100
AcDbLine
 10
-559.0991821289064
 20
263.0813903808594
 30
0.0
 11
-554.94921875
 21
258.931396484375
 31
0.0
  0
LINE
  5
181
330
22
100
AcDbEntity
  8
0
  6
Continuous
 62
     7
100
AcDbLine
 10
-559.0991821289064
 20
262.3742980957031
 30
0.0
 11
-554.94921875
 21
258.2243041992188
 31
0.0
  0
LINE
  5
182
330
22
100
AcDbEntity
  8
0
  6
Continuous
 62
     7
100
AcDbLine
 10
-559.0991821289064
 20
260.2529907226563
 30
0.0
 11
-554.94921875
 21
256.1029663085938
 31
0.0
  0
LINE
  5
183
330
22
100
AcDbEntity
  8
0
  6
Continuous
 62
     7
100
AcDbLine
 10
-559.0991821289064
 20
259.5458679199219
 30
0.0
 11
-554.94921875
 21
255.3958740234375
 31
0.0
  0
LINE
  5
184
330
22
100
AcDbEntity
  8
0
  6
Continuous
 62
     7
100
AcDbLine
 10
-559.0991821289064
 20
257.424560546875
 30
0.0
 11
-554.94921875
 21
253.2745513916016
 31
0.0
  0
LINE
  5
185
330
22
100
AcDbEntity
  8
0
  6
Continuous
 62
     7
100
AcDbLine
 10
-559.0991821289064
 20
256.7174377441406
 30
0.0
 11
-554.94921875
 21
252.5674438476563
 31
0.0
  0
LINE
  5
186
330
22
100
AcDbEntity
  8
0
  6
Continuous
 62
     7
100
AcDbLine
 10
-559.0991821289064
 20
254.5961303710938
 30
0.0
 11
-555.8728027343749
 21
251.3697357177734
 31
0.0
  0
LINE
  5
187
330
22
100
AcDbEntity
  8
0
  6
Continuous
 62
     7
100
AcDbLine
 10
-559.0991821289064
 20
253.8890228271484
 30
0.0
 11
-556.2100219726564
 21
250.9998168945313
 31
0.0
  0
LINE
  5
188
330
22
100
AcDbEntity
  8
0
  6
Continuous
 62
     7
100
AcDbLine
 10
-559.0991821289064
 20
251.7677001953125
 30
0.0
 11
-556.9841918945313
 21
249.6526947021484
 31
0.0
  0
LINE
  5
189
330
22
100
AcDbEntity
  8
0
  6
Continuous
 62
     7
100
AcDbLine
 10
-559.0991821289064
 20
251.0605926513672
 30
0.0
 11
-556.9841918945313
 21
248.9455871582031
 31
0.0
  0
LINE
  5
18A
330
22
100
AcDbEntity
  8
0
  6
Continuous
 62
     7
100
AcDbLine
 10
-559.0991821289064
 20
248.9392700195313
 30
0.0
 11
-556.9841918945313
 21
246.8242645263672
 31
0.0
  0
LINE
  5
18B
330
22
100
AcDbEntity
  8
0
  6
Continuous
 62
     7
100
AcDbLine
 10
-559.0991821289064
 20
248.2321624755859
 30
0.0
 11
-556.9841918945313
 21
246.1171569824219
 31
0.0
  0
LINE
  5
18C
330
22
100
AcDbEntity
  8
0
  6
Continuous
 62
     7
100
AcDbLine
 10
-559.0991821289064
 20
246.11083984375
 30
0.0
 11
-556.9841918945313
 21
243.995849609375
 31
0.0
  0
LINE
  5
18D
330
22
100
AcDbEntity
  8
0
  6
Continuous
 62
     7
100
AcDbLine
 10
-559.0991821289064
 20
245.4037322998047
 30
0.0
 11
-556.9841918945313
 21
243.2887420654297
 31
0.0
  0
LINE
  5
18E
330
22
100
AcDbEntity
  8
0
  6
Continuous
 62
     7
100
AcDbLine
 10
-559.0991821289064
 20
243.2824096679688
 30
0.0
 11
-556.9841918945313
 21
241.1674194335938
 31
0.0
  0
LINE
  5
18F
330
22
100
AcDbEntity
  8
0
  6
Continuous
 62
     7
100
AcDbLine
 10
-559.0991821289064
 20
242.5753021240234
 30
0.0
 11
-556.9841918945313
 21
240.4603118896484
 31
0.0
  0
LINE
  5
190
330
22
100
AcDbEntity
  8
0
  6
Continuous
 62
     7
100
AcDbLine
 10
-559.0991821289064
 20
240.4539947509766
 30
0.0
 11
-556.9841918945313
 21
238.3389892578125
 31
0.0
  0
LINE
  5
191
330
22
100
AcDbEntity
  8
0
  6
Continuous
 62
     7
100
AcDbLine
 10
-559.0991821289064
 20
239.7468872070313
 30
0.0
 11
-556.9841918945313
 21
237.6318817138672
 31
0.0
  0
LINE
  5
192
330
22
100
AcDbEntity
  8
0
  6
Continuous
 62
     7
100
AcDbLine
 10
-559.0991821289064
 20
237.6255645751953
 30
0.0
 11
-556.9841918945313
 21
235.5105590820314
 31
0.0
  0
LINE
  5
193
330
22
100
AcDbEntity
  8
0
  6
Continuous
 62
     7
100
AcDbLine
 10
-559.0991821289064
 20
236.91845703125
 30
0.0
 11
-556.9841918945313
 21
234.8034515380859
 31
0.0
  0
LINE
  5
194
330
22
100
AcDbEntity
  8
0
  6
Continuous
 62
     7
100
AcDbLine
 10
-559.0991821289064
 20
234.7971343994141
 30
0.0
 11
-556.9841918945313
 21
232.68212890625
 31
0.0
  0
LINE
  5
195
330
22
100
AcDbEntity
  8
0
  6
Continuous
 62
     7
100
AcDbLine
 10
-559.0991821289064
 20
234.0900268554688
 30
0.0
 11
-556.9841918945313
 21
231.9750213623047
 31
0.0
  0
LINE
  5
196
330
22
100
AcDbEntity
  8
0
  6
Continuous
 62
     7
100
AcDbLine
 10
-559.0991821289064
 20
231.9687042236328
 30
0.0
 11
-556.9841918945313
 21
229.8537139892578
 31
0.0
  0
LINE
  5
197
330
22
100
AcDbEntity
  8
0
  6
Continuous
 62
     7
100
AcDbLine
 10
-559.0991821289064
 20
231.2615966796875
 30
0.0
 11
-556.9841918945313
 21
229.1466064453125
 31
0.0
  0
LINE
  5
198
330
22
100
AcDbEntity
  8
0
  6
Continuous
 62
     7
100
AcDbLine
 10
-559.0991821289064
 20
229.1402740478516
 30
0.0
 11
-556.9841918945313
 21
227.0252838134766
 31
0.0
  0
LINE
  5
199
330
22
100
AcDbEntity
  8
0
  6
Continuous
 62
     7
100
AcDbLine
 10
-559.0991821289064
 20
228.4331665039063
 30
0.0
 11
-556.9841918945313
 21
226.3181762695313
 31
0.0
  0
LINE
  5
19A
330
22
100
AcDbEntity
  8
0
  6
Continuous
 62
     7
100
AcDbLine
 10
-559.0991821289064
 20
226.3118591308594
 30
0.0
 11
-556.9841918945313
 21
224.1968536376953
 31
0.0
  0
LINE
  5
19B
330
22
100
AcDbEntity
  8
0
  6
Continuous
 62
     7
100
AcDbLine
 10
-559.0991821289064
 20
225.6047515869141
 30
0.0
 11
-556.9841918945313
 21
223.48974609375
 31
0.0
  0
LINE
  5
19C
330
22
100
AcDbEntity
  8
0
  6
Continuous
 62
     7
100
AcDbLine
 10
-559.0991821289064
 20
223.4834289550781
 30
0.0
 11
-556.9841918945313
 21
221.3684234619141
 31
0.0
  0
LINE
  5
19D
330
22
100
AcDbEntity
  8
0
  6
Continuous
 62
     7
100
AcDbLine
 10
-559.0991821289064
 20
222.7763214111328
 30
0.0
 11
-556.9841918945313
 21
220.6613159179688
 31
0.0
  0
LINE
  5
19E
330
22
100
AcDbEntity
  8
0
  6
Continuous
 62
     7
100
AcDbLine
 10
-559.0991821289064
 20
220.6549987792969
 30
0.0
 11
-556.9841918945313
 21
218.5399932861328
 31
0.0
  0
LINE
  5
19F
330
22
100
AcDbEntity
  8
0
  6
Continuous
 62
     7
100
AcDbLine
 10
-559.0991821289064
 20
219.9478912353516
 30
0.0
 11
-556.9841918945313
 21
217.8328857421875
 31
0.0
  0
LINE
  5
1A0
330
22
100
AcDbEntity
  8
0
  6
Continuous
 62
     7
100
AcDbLine
 10
-559.0991821289064
 20
217.8265686035156
 30
0.0
 11
-556.9841918945313
 21
215.7115783691406
 31
0.0
  0
LINE
  5
1A1
330
22
100
AcDbEntity
  8
0
  6
Continuous
 62
     7
100
AcDbLine
 10
-559.0991821289064
 20
217.1194610595703
 30
0.0
 11
-556.9841918945313
 21
215.0044708251953
 31
0.0
  0
LINE
  5
1A2
330
22
100
AcDbEntity
  8
0
  6
Continuous
 62
     7
100
AcDbLine
 10
-559.0991821289064
 20
214.9981384277344
 30
0.0
 11
-556.9841918945313
 21
212.8831481933594
 31
0.0
  0
LINE
  5
1A3
330
22
100
AcDbEntity
  8
0
  6
Continuous
 62
     7
100
AcDbLine
 10
-559.0991821289064
 20
214.2910308837891
 30
0.0
 11
-556.9841918945313
 21
212.1760406494141
 31
0.0
  0
LINE
  5
1A4
330
22
100
AcDbEntity
  8
0
  6
Continuous
 62
     7
100
AcDbLine
 10
-559.0991821289064
 20
212.1697235107422
 30
0.0
 11
-556.9841918945313
 21
210.0547180175781
 31
0.0
  0
LINE
  5
1A5
330
22
100
AcDbEntity
  8
0
  6
Continuous
 62
     7
100
AcDbLine
 10
-559.0991821289064
 20
211.4626159667969
 30
0.0
 11
-556.9841918945313
 21
209.3476104736328
 31
0.0
  0
LINE
  5
1A6
330
22
100
AcDbEntity
  8
0
  6
Continuous
 62
     7
100
AcDbLine
 10
-559.0991821289064
 20
209.3412933349609
 30
0.0
 11
-556.9841918945313
 21
207.2262878417969
 31
0.0
  0
LINE
  5
1A7
330
22
100
AcDbEntity
  8
0
  6
Continuous
 62
     7
100
AcDbLine
 10
-559.0991821289064
 20
208.6341857910156
 30
0.0
 11
-556.9841918945313
 21
206.5191802978516
 31
0.0
  0
LINE
  5
1A8
330
22
100
AcDbEntity
  8
0
  6
Continuous
 62
     7
100
AcDbLine
 10
-559.0991821289064
 20
206.5128631591797
 30
0.0
 11
-556.9841918945313
 21
204.3978576660156
 31
0.0
  0
LINE
  5
1A9
330
22
100
AcDbEntity
  8
0
  6
Continuous
 62
     7
100
AcDbLine
 10
-559.0991821289064
 20
205.8057556152344
 30
0.0
 11
-556.9841918945313
 21
203.6907501220703
 31
0.0
  0
LINE
  5
1AA
330
22
100
AcDbEntity
  8
0
  6
Continuous
 62
     7
100
AcDbLine
 10
-559.0991821289064
 20
203.6844329833984
 30
0.0
 11
-556.9841918945313
 21
201.5694427490234
 31
0.0
  0
LINE
  5
1AB
330
22
100
AcDbEntity
  8
0
  6
Continuous
 62
     7
100
AcDbLine
 10
-559.0991821289064
 20
202.9773254394531
 30
0.0
 11
-556.9841918945313
 21
200.8623352050781
 31
0.0
  0
LINE
  5
1AC
330
22
100
AcDbEntity
  8
0
  6
Continuous
 62
     7
100
AcDbLine
 10
-559.0991821289064
 20
200.8560028076172
 30
0.0
 11
-558.3936767578125
 21
200.1504669189453
 31
0.0
  0
LINE
  5
1AD
330
22
100
AcDbEntity
  8
0
  6
Continuous
 62
     7
100
AcDbLine
 10
-556.9841918945313
 20
250.1504669189453
 30
0.0
 11
-554.94921875
 21
252.3829956054688
 31
0.0
  0
LINE
  5
1AE
330
22
100
AcDbEntity
  8
0
  6
Continuous
 62
     7
100
AcDbLine
 10
-555.5092163085938
 20
220.1504669189453
 30
0.0
 11
-553.0991821289063
 21
220.1504669189453
 31
0.0
  0
LINE
  5
1AF
330
22
100
AcDbEntity
  8
0
  6
Continuous
 62
     7
100
AcDbLine
 10
-552.0991821289063
 20
193.1504669189453
 30
0.0
 11
-552.0991821289063
 21
219.1504669189453
 31
0.0
  0
LINE
  5
1B0
330
22
100
AcDbEntity
  8
0
  6
Continuous
 62
     7
100
AcDbLine
 10
-551.5991821289063
 20
183.6504669189453
 30
0.0
 11
-551.5991821289063
 21
153.1504669189453
 31
0.0
  0
LINE
  5
1B1
330
22
100
AcDbEntity
  8
0
  6
Continuous
 62
     7
100
AcDbLine
 10
-547.0991821289064
 20
188.1504669189453
 30
0.0
 11
-504.0992126464844
 21
188.1504669189453
 31
0.0
  0
LINE
  5
1B2
330
22
100
AcDbEntity
  8
0
  6
Continuous
 62
     7
100
AcDbLine
 10
-547.5801391601563
 20
283.1504516601563
 30
0.0
 11
-548.5801391601563
 21
282.1504516601563
 31
0.0
  0
LINE
  5
1B3
330
22
100
AcDbEntity
  8
0
  6
Continuous
 62
     7
100
AcDbLine
 10
-555.4916381835938
 20
282.1504516601563
 30
0.0
 11
-548.5801391601563
 21
282.1504516601563
 31
0.0
  0
LINE
  5
1B4
330
22
100
AcDbEntity
  8
0
  6
Continuous
 62
     7
100
AcDbLine
 10
-559.0991821289064
 20
308.6504516601563
 30
0.0
 11
-553.763916015625
 21
308.6504516601563
 31
0.0
  0
LINE
  5
1B5
330
22
100
AcDbEntity
  8
0
  6
Continuous
 62
     7
100
AcDbLine
 10
-556.9841918945313
 20
189.6254577636719
 30
0.0
 11
-555.5092163085938
 21
188.1504669189453
 31
0.0
  0
LINE
  5
1B6
330
22
100
AcDbEntity
  8
0
  6
Continuous
 62
     7
100
AcDbLine
 10
-556.9841918945313
 20
200.1504669189453
 30
0.0
 11
-555.5092163085938
 21
201.6254577636719
 31
0.0
  0
LINE
  5
1B7
330
22
100
AcDbEntity
  8
0
  6
Continuous
 62
     7
100
AcDbLine
 10
-555.5092163085938
 20
220.1504669189453
 30
0.0
 11
-556.9841918945313
 21
218.6754608154297
 31
0.0
  0
LINE
  5
1B8
330
22
100
AcDbEntity
  8
0
  6
Continuous
 62
     7
100
AcDbLine
 10
-555.5092163085938
 20
188.1504669189453
 30
0.0
 11
-593.0991821289062
 21
188.1504669189453
 31
0.0
  0
LINE
  5
1B9
330
22
100
AcDbEntity
  8
0
  6
Continuous
 62
     7
100
AcDbLine
 10
-555.5092163085938
 20
220.1504669189453
 30
0.0
 11
-555.5092163085938
 21
188.1504669189453
 31
0.0
  0
LINE
  5
1BA
330
22
100
AcDbEntity
  8
0
  6
Continuous
 62
     7
100
AcDbLine
 10
-555.5092163085938
 20
201.6254577636719
 30
0.0
 11
-555.5092163085938
 21
251.7686309814453
 31
0.0
  0
LINE
  5
1BB
330
22
100
AcDbEntity
  8
0
  6
Continuous
 62
     7
100
AcDbLine
 10
-555.5092163085938
 20
152.1504669189453
 30
0.0
 11
-556.4914550781249
 21
183.5814666748047
 31
0.0
  0
LINE
  5
1BC
330
22
100
AcDbEntity
  8
0
  6
Continuous
 62
     7
100
AcDbLine
 10
-555.5092163085938
 20
152.1504669189453
 30
0.0
 11
-557.0325317382813
 21
153.6737823486328
 31
0.0
  0
LINE
  5
1BD
330
22
100
AcDbEntity
  8
0
  6
Continuous
 62
     7
100
AcDbLine
 10
-555.5072021484375
 20
282.1504516601563
 30
0.0
 11
-556.1783447265624
 21
303.6250610351563
 31
0.0
  0
LINE
  5
1BE
330
22
100
AcDbEntity
  8
0
  6
Continuous
 62
     7
100
AcDbLine
 10
-555.5072021484375
 20
282.1504516601563
 30
0.0
 11
-557.0325927734375
 21
283.6758422851563
 31
0.0
  0
LINE
  5
1BF
330
22
100
AcDbEntity
  8
0
  6
Continuous
 62
     7
100
AcDbLine
 10
-742.0991821289062
 20
387.1504516601563
 30
0.0
 11
-444.0992126464843
 21
387.1504516601563
 31
0.0
  0
LINE
  5
1C0
330
22
100
AcDbEntity
  8
0
  6
Continuous
 62
     7
100
AcDbLine
 10
-555.5092163085938
 20
216.3745574951172
 30
0.0
 11
-552.2455444335938
 21
219.6382141113281
 31
0.0
  0
LINE
  5
1C1
330
22
100
AcDbEntity
  8
0
  6
Continuous
 62
     7
100
AcDbLine
 10
-555.5092163085938
 20
213.5461273193359
 30
0.0
 11
-552.0991821289063
 21
216.9561309814453
 31
0.0
  0
LINE
  5
1C2
330
22
100
AcDbEntity
  8
0
  6
Continuous
 62
     7
100
AcDbLine
 10
-555.5092163085938
 20
210.7176971435547
 30
0.0
 11
-552.0991821289063
 21
214.1277008056641
 31
0.0
  0
LINE
  5
1C3
330
22
100
AcDbEntity
  8
0
  6
Continuous
 62
     7
100
AcDbLine
 10
-555.5092163085938
 20
207.8892669677734
 30
0.0
 11
-552.0991821289063
 21
211.2992706298828
 31
0.0
  0
LINE
  5
1C4
330
22
100
AcDbEntity
  8
0
  6
Continuous
 62
     7
100
AcDbLine
 10
-555.5092163085938
 20
205.0608367919922
 30
0.0
 11
-552.0991821289063
 21
208.4708404541016
 31
0.0
  0
LINE
  5
1C5
330
22
100
AcDbEntity
  8
0
  6
Continuous
 62
     7
100
AcDbLine
 10
-555.5092163085938
 20
202.232421875
 30
0.0
 11
-552.0991821289063
 21
205.6424102783203
 31
0.0
  0
LINE
  5
1C6
330
22
100
AcDbEntity
  8
0
  6
Continuous
 62
     7
100
AcDbLine
 10
-555.5092163085938
 20
199.4039916992188
 30
0.0
 11
-552.0991821289063
 21
202.8139953613281
 31
0.0
  0
LINE
  5
1C7
330
22
100
AcDbEntity
  8
0
  6
Continuous
 62
     7
100
AcDbLine
 10
-555.5092163085938
 20
196.5755615234375
 30
0.0
 11
-552.0991821289063
 21
199.9855651855469
 31
0.0
  0
LINE
  5
1C8
330
22
100
AcDbEntity
  8
0
  6
Continuous
 62
     7
100
AcDbLine
 10
-555.5092163085938
 20
193.7471313476563
 30
0.0
 11
-552.0991821289063
 21
197.1571350097656
 31
0.0
  0
LINE
  5
1C9
330
22
100
AcDbEntity
  8
0
  6
Continuous
 62
     7
100
AcDbLine
 10
-555.5092163085938
 20
190.918701171875
 30
0.0
 11
-552.0991821289063
 21
194.3287048339844
 31
0.0
  0
LINE
  5
1CA
330
22
100
AcDbEntity
  8
0
  6
Continuous
 62
     7
100
AcDbLine
 10
-555.5092163085938
 20
188.0902862548828
 30
0.0
 11
-551.8684692382813
 21
191.7310333251953
 31
0.0
  0
LINE
  5
1CB
330
22
100
AcDbEntity
  8
0
  6
Continuous
 62
     7
100
AcDbLine
 10
-555.5092163085938
 20
185.2618560791016
 30
0.0
 11
-550.8697509765625
 21
189.9013061523438
 31
0.0
  0
LINE
  5
1CC
330
22
100
AcDbEntity
  8
0
  6
Continuous
 62
     7
100
AcDbLine
 10
-556.4269409179688
 20
181.5157165527344
 30
0.0
 11
-549.2725830078125
 21
188.6700286865234
 31
0.0
  0
LINE
  5
1CD
330
22
100
AcDbEntity
  8
0
  6
Continuous
 62
     7
100
AcDbLine
 10
-550.4637451171874
 20
184.6504669189453
 30
0.0
 11
-546.9637451171875
 21
188.1504669189453
 31
0.0
  0
LINE
  5
1CE
330
22
100
AcDbEntity
  8
0
  6
Continuous
 62
     7
100
AcDbLine
 10
-556.3411865234375
 20
178.7730102539063
 30
0.0
 11
-551.5991821289063
 21
183.5149993896484
 31
0.0
  0
LINE
  5
1CF
330
22
100
AcDbEntity
  8
0
  6
Continuous
 62
     7
100
AcDbLine
 10
-547.6353149414063
 20
184.6504669189453
 30
0.0
 11
-544.1353149414063
 21
188.1504669189453
 31
0.0
  0
LINE
  5
1D0
330
22
100
AcDbEntity
  8
0
  6
Continuous
 62
     7
100
AcDbLine
 10
-556.2554931640625
 20
176.0302886962891
 30
0.0
 11
-551.5991821289063
 21
180.6865692138672
 31
0.0
  0
LINE
  5
1D1
330
22
100
AcDbEntity
  8
0
  6
Continuous
 62
     7
100
AcDbLine
 10
-544.806884765625
 20
184.6504669189453
 30
0.0
 11
-541.306884765625
 21
188.1504669189453
 31
0.0
  0
LINE
  5
1D2
330
22
100
AcDbEntity
  8
0
  6
Continuous
 62
     7
100
AcDbLine
 10
-556.1697998046875
 20
173.2875823974609
 30
0.0
 11
-551.5991821289063
 21
177.8581390380859
 31
0.0
  0
LINE
  5
1D3
330
22
100
AcDbEntity
  8
0
  6
Continuous
 62
     7
100
AcDbLine
 10
-541.9784545898438
 20
184.6504669189453
 30
0.0
 11
-538.4784545898439
 21
188.1504669189453
 31
0.0
  0
LINE
  5
1D4
330
22
100
AcDbEntity
  8
0
  6
Continuous
 62
     7
100
AcDbLine
 10
-556.0840454101564
 20
170.5448608398438
 30
0.0
 11
-551.5991821289063
 21
175.0297241210938
 31
0.0
  0
LINE
  5
1D5
330
22
100
AcDbEntity
  8
0
  6
Continuous
 62
     7
100
AcDbLine
 10
-539.1500244140624
 20
184.6504669189453
 30
0.0
 11
-535.7496337890625
 21
188.0508728027344
 31
0.0
  0
LINE
  5
1D6
330
22
100
AcDbEntity
  8
0
  6
Continuous
 62
     7
100
AcDbLine
 10
-555.9983520507813
 20
167.8021545410156
 30
0.0
 11
-551.5991821289063
 21
172.2012939453125
 31
0.0
  0
LINE
  5
1D7
330
22
100
AcDbEntity
  8
0
  6
Continuous
 62
     7
100
AcDbLine
 10
-536.3215942382813
 20
184.6504669189453
 30
0.0
 11
-532.8215942382813
 21
188.1504669189453
 31
0.0
  0
LINE
  5
1D8
330
22
100
AcDbEntity
  8
0
  6
Continuous
 62
     7
100
AcDbLine
 10
-555.9126586914064
 20
165.0594329833984
 30
0.0
 11
-551.5991821289063
 21
169.3728637695313
 31
0.0
  0
LINE
  5
1D9
330
22
100
AcDbEntity
  8
0
  6
Continuous
 62
     7
100
AcDbLine
 10
-533.4931640625
 20
184.6504669189453
 30
0.0
 11
-529.9931640625
 21
188.1504669189453
 31
0.0
  0
LINE
  5
1DA
330
22
100
AcDbEntity
  8
0
  6
Continuous
 62
     7
100
AcDbLine
 10
-555.826904296875
 20
162.3167266845703
 30
0.0
 11
-551.5991821289063
 21
166.54443359375
 31
0.0
  0
LINE
  5
1DB
330
22
100
AcDbEntity
  8
0
  6
Continuous
 62
     7
100
AcDbLine
 10
-530.6647338867188
 20
184.6504669189453
 30
0.0
 11
-527.1647338867189
 21
188.1504669189453
 31
0.0
  0
LINE
  5
1DC
330
22
100
AcDbEntity
  8
0
  6
Continuous
 62
     7
100
AcDbLine
 10
-555.7412109374999
 20
159.5740051269531
 30
0.0
 11
-551.5991821289063
 21
163.7160034179688
 31
0.0
  0
LINE
  5
1DD
330
22
100
AcDbEntity
  8
0
  6
Continuous
 62
     7
100
AcDbLine
 10
-527.8363647460938
 20
184.6504669189453
 30
0.0
 11
-524.3363647460938
 21
188.1504669189453
 31
0.0
  0
LINE
  5
1DE
330
22
100
AcDbEntity
  8
0
  6
Continuous
 62
     7
100
AcDbLine
 10
-555.655517578125
 20
156.831298828125
 30
0.0
 11
-551.5991821289063
 21
160.8875885009766
 31
0.0
  0
LINE
  5
1DF
330
22
100
AcDbEntity
  8
0
  6
Continuous
 62
     7
100
AcDbLine
 10
-525.0079345703125
 20
184.6504669189453
 30
0.0
 11
-521.5079345703125
 21
188.1504669189453
 31
0.0
  0
LINE
  5
1E0
330
22
100
AcDbEntity
  8
0
  6
Continuous
 62
     7
100
AcDbLine
 10
-555.5697631835938
 20
154.0885925292969
 30
0.0
 11
-551.5991821289063
 21
158.0591583251953
 31
0.0
  0
LINE
  5
1E1
330
22
100
AcDbEntity
  8
0
  6
Continuous
 62
     7
100
AcDbLine
 10
-522.1795043945313
 20
184.6504669189453
 30
0.0
 11
-519.2631225585938
 21
187.5668029785156
 31
0.0
  0
LINE
  5
1E2
330
22
100
AcDbEntity
  8
0
  6
Continuous
 62
     7
100
AcDbLine
 10
-554.6795043945313
 20
152.1504669189453
 30
0.0
 11
-551.5991821289063
 21
155.2307281494141
 31
0.0
  0
LINE
  5
1E3
330
22
100
AcDbEntity
  8
0
  6
Continuous
 62
     7
100
AcDbLine
 10
-519.3510742187499
 20
184.6504669189453
 30
0.0
 11
-515.85107421875
 21
188.1504669189453
 31
0.0
  0
LINE
  5
1E4
330
22
100
AcDbEntity
  8
0
  6
Continuous
 62
     7
100
AcDbLine
 10
-516.5226440429688
 20
184.6504669189453
 30
0.0
 11
-513.0226440429688
 21
188.1504669189453
 31
0.0
  0
LINE
  5
1E5
330
22
100
AcDbEntity
  8
0
  6
Continuous
 62
     7
100
AcDbLine
 10
-513.6942138671875
 20
184.6504669189453
 30
0.0
 11
-510.1942138671875
 21
188.1504669189453
 31
0.0
  0
LINE
  5
1E6
330
22
100
AcDbEntity
  8
0
  6
Continuous
 62
     7
100
AcDbLine
 10
-510.8657836914063
 20
184.6504669189453
 30
0.0
 11
-507.3657836914063
 21
188.1504669189453
 31
0.0
  0
LINE
  5
1E7
330
22
100
AcDbEntity
  8
0
  6
Continuous
 62
     7
100
AcDbLine
 10
-508.0373535156249
 20
184.6504669189453
 30
0.0
 11
-504.537353515625
 21
188.1504669189453
 31
0.0
  0
LINE
  5
1E8
330
22
100
AcDbEntity
  8
0
  6
Continuous
 62
     7
100
AcDbLine
 10
-505.2089233398437
 20
184.6504669189453
 30
0.0
 11
-502.5286560058593
 21
187.3307037353516
 31
0.0
  0
LINE
  5
1E9
330
22
100
AcDbEntity
  8
0
  6
Continuous
 62
     7
100
AcDbLine
 10
-458.0992126464844
 20
386.6504516601563
 30
0.0
 11
-593.0991821289062
 21
386.6504516601563
 31
0.0
  0
LINE
  5
1EA
330
22
100
AcDbEntity
  8
0
  6
Continuous
 62
     7
100
AcDbLine
 10
-593.0991821289062
 20
380.1504516601563
 30
0.0
 11
-468.5992126464843
 21
380.1504516601563
 31
0.0
  0
LINE
  5
1EB
330
22
100
AcDbEntity
  8
0
  6
Continuous
 62
     7
100
AcDbLine
 10
-461.4726257324218
 20
385.8206787109375
 30
0.0
 11
-458.0992126464844
 21
382.447265625
 31
0.0
  0
LINE
  5
1EC
330
22
100
AcDbEntity
  8
0
  6
Continuous
 62
     7
100
AcDbLine
 10
-462.892822265625
 20
382.9982604980468
 30
0.0
 11
-459.5450439453125
 21
379.6504516601563
 31
0.0
  0
LINE
  5
1ED
330
22
100
AcDbEntity
  8
0
  6
Continuous
 62
     7
100
AcDbLine
 10
-470.7876892089843
 20
386.6504516601563
 30
0.0
 11
-467.3928222656249
 21
383.255615234375
 31
0.0
  0
LINE
  5
1EE
330
22
100
AcDbEntity
  8
0
  6
Continuous
 62
     7
100
AcDbLine
 10
-475.0303039550781
 20
386.6504516601563
 30
0.0
 11
-468.0303039550781
 21
379.6504516601563
 31
0.0
  0
LINE
  5
1EF
330
22
100
AcDbEntity
  8
0
  6
Continuous
 62
     7
100
AcDbLine
 10
-479.27294921875
 20
386.6504516601563
 30
0.0
 11
-472.7729492187499
 21
380.1504516601563
 31
0.0
  0
LINE
  5
1F0
330
22
100
AcDbEntity
  8
0
  6
Continuous
 62
     7
100
AcDbLine
 10
-483.5155944824219
 20
386.6504516601563
 30
0.0
 11
-477.0155944824218
 21
380.1504516601563
 31
0.0
  0
LINE
  5
1F1
330
22
100
AcDbEntity
  8
0
  6
Continuous
 62
     7
100
AcDbLine
 10
-487.7582397460938
 20
386.6504516601563
 30
0.0
 11
-481.2582397460937
 21
380.1504516601563
 31
0.0
  0
LINE
  5
1F2
330
22
100
AcDbEntity
  8
0
  6
Continuous
 62
     7
100
AcDbLine
 10
-492.0008850097656
 20
386.6504516601563
 30
0.0
 11
-485.5008850097656
 21
380.1504516601563
 31
0.0
  0
LINE
  5
1F3
330
22
100
AcDbEntity
  8
0
  6
Continuous
 62
     7
100
AcDbLine
 10
-496.2435302734375
 20
386.6504516601563
 30
0.0
 11
-489.7435302734375
 21
380.1504516601563
 31
0.0
  0
LINE
  5
1F4
330
22
100
AcDbEntity
  8
0
  6
Continuous
 62
     7
100
AcDbLine
 10
-500.4861755371093
 20
386.6504516601563
 30
0.0
 11
-493.9861755371094
 21
380.1504516601563
 31
0.0
  0
LINE
  5
1F5
330
22
100
AcDbEntity
  8
0
  6
Continuous
 62
     7
100
AcDbLine
 10
-504.7287902832031
 20
386.6504516601563
 30
0.0
 11
-498.2287902832031
 21
380.1504516601563
 31
0.0
  0
LINE
  5
1F6
330
22
100
AcDbEntity
  8
0
  6
Continuous
 62
     7
100
AcDbLine
 10
-508.971435546875
 20
386.6504516601563
 30
0.0
 11
-502.4714355468749
 21
380.1504516601563
 31
0.0
  0
LINE
  5
1F7
330
22
100
AcDbEntity
  8
0
  6
Continuous
 62
     7
100
AcDbLine
 10
-513.214111328125
 20
386.6504516601563
 30
0.0
 11
-506.7140808105468
 21
380.1504516601563
 31
0.0
  0
LINE
  5
1F8
330
22
100
AcDbEntity
  8
0
  6
Continuous
 62
     7
100
AcDbLine
 10
-517.4567260742188
 20
386.6504516601563
 30
0.0
 11
-510.9567260742188
 21
380.1504516601563
 31
0.0
  0
LINE
  5
1F9
330
22
100
AcDbEntity
  8
0
  6
Continuous
 62
     7
100
AcDbLine
 10
-521.6993408203125
 20
386.6504516601563
 30
0.0
 11
-515.1993408203124
 21
380.1504516601563
 31
0.0
  0
LINE
  5
1FA
330
22
100
AcDbEntity
  8
0
  6
Continuous
 62
     7
100
AcDbLine
 10
-525.9420166015624
 20
386.6504516601563
 30
0.0
 11
-519.4420166015625
 21
380.1504516601563
 31
0.0
  0
LINE
  5
1FB
330
22
100
AcDbEntity
  8
0
  6
Continuous
 62
     7
100
AcDbLine
 10
-530.1846313476564
 20
386.6504516601563
 30
0.0
 11
-523.6846313476563
 21
380.1504516601563
 31
0.0
  0
LINE
  5
1FC
330
22
100
AcDbEntity
  8
0
  6
Continuous
 62
     7
100
AcDbLine
 10
-534.4273071289063
 20
386.6504516601563
 30
0.0
 11
-527.9273071289063
 21
380.1504516601563
 31
0.0
  0
LINE
  5
1FD
330
22
100
AcDbEntity
  8
0
  6
Continuous
 62
     7
100
AcDbLine
 10
-538.669921875
 20
386.6504516601563
 30
0.0
 11
-532.169921875
 21
380.1504516601563
 31
0.0
  0
LINE
  5
1FE
330
22
100
AcDbEntity
  8
0
  6
Continuous
 62
     7
100
AcDbLine
 10
-542.91259765625
 20
386.6504516601563
 30
0.0
 11
-536.4125976562499
 21
380.1504516601563
 31
0.0
  0
LINE
  5
1FF
330
22
100
AcDbEntity
  8
0
  6
Continuous
 62
     7
100
AcDbLine
 10
-547.1552124023438
 20
386.6504516601563
 30
0.0
 11
-540.6552124023439
 21
380.1504516601563
 31
0.0
  0
LINE
  5
200
330
22
100
AcDbEntity
  8
0
  6
Continuous
 62
     7
100
AcDbLine
 10
-551.3978271484375
 20
386.6504516601563
 30
0.0
 11
-544.8978271484374
 21
380.1504516601563
 31
0.0
  0
LINE
  5
201
330
22
100
AcDbEntity
  8
0
  6
Continuous
 62
     7
100
AcDbLine
 10
-555.6405029296874
 20
386.6504516601563
 30
0.0
 11
-549.1405029296875
 21
380.1504516601563
 31
0.0
  0
LINE
  5
202
330
22
100
AcDbEntity
  8
0
  6
Continuous
 62
     7
100
AcDbLine
 10
-559.8831176757813
 20
386.6504516601563
 30
0.0
 11
-553.3831176757813
 21
380.1504516601563
 31
0.0
  0
LINE
  5
203
330
22
100
AcDbEntity
  8
0
  6
Continuous
 62
     7
100
AcDbLine
 10
-564.1257934570312
 20
386.6504516601563
 30
0.0
 11
-557.6257934570313
 21
380.1504516601563
 31
0.0
  0
LINE
  5
204
330
22
100
AcDbEntity
  8
0
  6
Continuous
 62
     7
100
AcDbLine
 10
-568.3684082031249
 20
386.6504516601563
 30
0.0
 11
-561.868408203125
 21
380.1504516601563
 31
0.0
  0
LINE
  5
205
330
22
100
AcDbEntity
  8
0
  6
Continuous
 62
     7
100
AcDbLine
 10
-572.611083984375
 20
386.6504516601563
 30
0.0
 11
-566.1110839843749
 21
380.1504516601563
 31
0.0
  0
LINE
  5
206
330
22
100
AcDbEntity
  8
0
  6
Continuous
 62
     7
100
AcDbLine
 10
-576.8536987304687
 20
386.6504516601563
 30
0.0
 11
-570.3536987304687
 21
380.1504516601563
 31
0.0
  0
LINE
  5
207
330
22
100
AcDbEntity
  8
0
  6
Continuous
 62
     7
100
AcDbLine
 10
-581.0963134765625
 20
386.6504516601563
 30
0.0
 11
-574.5963134765625
 21
380.1504516601563
 31
0.0
  0
LINE
  5
208
330
22
100
AcDbEntity
  8
0
  6
Continuous
 62
     7
100
AcDbLine
 10
-585.3389892578125
 20
386.6504516601563
 30
0.0
 11
-578.8389892578124
 21
380.1504516601563
 31
0.0
  0
LINE
  5
209
330
22
100
AcDbEntity
  8
0
  6
Continuous
 62
     7
100
AcDbLine
 10
-589.5816040039062
 20
386.6504516601563
 30
0.0
 11
-583.0816040039062
 21
380.1504516601563
 31
0.0
  0
LINE
  5
20A
330
22
100
AcDbEntity
  8
0
  6
Continuous
 62
     7
100
AcDbLine
 10
-593.0991821289062
 20
385.9254150390625
 30
0.0
 11
-587.3242797851562
 21
380.1504516601563
 31
0.0
  0
LINE
  5
20B
330
22
100
AcDbEntity
  8
0
  6
Continuous
 62
     7
100
AcDbLine
 10
-593.0991821289062
 20
381.6827697753906
 30
0.0
 11
-591.56689453125
 21
380.1504516601563
 31
0.0
  0
LINE
  5
20C
330
22
100
AcDbEntity
  8
0
  6
Continuous
 62
     7
100
AcDbLine
 10
-460.1810607910156
 20
386.6504516601563
 30
0.0
 11
-458.0992126464844
 21
384.568603515625
 31
0.0
  0
LINE
  5
20D
330
22
100
AcDbEntity
  8
0
  6
Continuous
 62
     7
100
AcDbLine
 10
-462.5332641601563
 20
384.760009765625
 30
0.0
 11
-458.1942443847656
 21
380.4209899902344
 31
0.0
  0
LINE
  5
20E
330
22
100
AcDbEntity
  8
0
  6
Continuous
 62
     7
100
AcDbLine
 10
-462.892822265625
 20
380.876953125
 30
0.0
 11
-461.6663513183594
 21
379.6504516601563
 31
0.0
  0
LINE
  5
20F
330
22
100
AcDbEntity
  8
0
  6
Continuous
 62
     7
100
AcDbLine
 10
-472.9089965820313
 20
386.6504516601563
 30
0.0
 11
-467.3928222656249
 21
381.1343078613281
 31
0.0
  0
LINE
  5
210
330
22
100
AcDbEntity
  8
0
  6
Continuous
 62
     7
100
AcDbLine
 10
-477.1516418457031
 20
386.6504516601563
 30
0.0
 11
-470.6516418457031
 21
380.1504516601563
 31
0.0
  0
LINE
  5
211
330
22
100
AcDbEntity
  8
0
  6
Continuous
 62
     7
100
AcDbLine
 10
-481.3942871093749
 20
386.6504516601563
 30
0.0
 11
-474.894287109375
 21
380.1504516601563
 31
0.0
  0
LINE
  5
212
330
22
100
AcDbEntity
  8
0
  6
Continuous
 62
     7
100
AcDbLine
 10
-485.6369323730469
 20
386.6504516601563
 30
0.0
 11
-479.1369323730468
 21
380.1504516601563
 31
0.0
  0
LINE
  5
213
330
22
100
AcDbEntity
  8
0
  6
Continuous
 62
     7
100
AcDbLine
 10
-489.8795471191406
 20
386.6504516601563
 30
0.0
 11
-483.3795471191406
 21
380.1504516601563
 31
0.0
  0
LINE
  5
214
330
22
100
AcDbEntity
  8
0
  6
Continuous
 62
     7
100
AcDbLine
 10
-494.1221923828124
 20
386.6504516601563
 30
0.0
 11
-487.6221923828125
 21
380.1504516601563
 31
0.0
  0
LINE
  5
215
330
22
100
AcDbEntity
  8
0
  6
Continuous
 62
     7
100
AcDbLine
 10
-498.3648376464843
 20
386.6504516601563
 30
0.0
 11
-491.8648376464843
 21
380.1504516601563
 31
0.0
  0
LINE
  5
216
330
22
100
AcDbEntity
  8
0
  6
Continuous
 62
     7
100
AcDbLine
 10
-502.6074829101562
 20
386.6504516601563
 30
0.0
 11
-496.1074829101563
 21
380.1504516601563
 31
0.0
  0
LINE
  5
217
330
22
100
AcDbEntity
  8
0
  6
Continuous
 62
     7
100
AcDbLine
 10
-506.8501281738281
 20
386.6504516601563
 30
0.0
 11
-500.3501281738281
 21
380.1504516601563
 31
0.0
  0
LINE
  5
218
330
22
100
AcDbEntity
  8
0
  6
Continuous
 62
     7
100
AcDbLine
 10
-511.0927734375
 20
386.6504516601563
 30
0.0
 11
-504.5927734374999
 21
380.1504516601563
 31
0.0
  0
LINE
  5
219
330
22
100
AcDbEntity
  8
0
  6
Continuous
 62
     7
100
AcDbLine
 10
-515.3353881835938
 20
386.6504516601563
 30
0.0
 11
-508.8354187011718
 21
380.1504516601563
 31
0.0
  0
LINE
  5
21A
330
22
100
AcDbEntity
  8
0
  6
Continuous
 62
     7
100
AcDbLine
 10
-519.5780639648439
 20
386.6504516601563
 30
0.0
 11
-513.0780639648438
 21
380.1504516601563
 31
0.0
  0
LINE
  5
21B
330
22
100
AcDbEntity
  8
0
  6
Continuous
 62
     7
100
AcDbLine
 10
-523.8206787109374
 20
386.6504516601563
 30
0.0
 11
-517.3206787109375
 21
380.1504516601563
 31
0.0
  0
LINE
  5
21C
330
22
100
AcDbEntity
  8
0
  6
Continuous
 62
     7
100
AcDbLine
 10
-528.0633544921875
 20
386.6504516601563
 30
0.0
 11
-521.5633544921875
 21
380.1504516601563
 31
0.0
  0
LINE
  5
21D
330
22
100
AcDbEntity
  8
0
  6
Continuous
 62
     7
100
AcDbLine
 10
-532.3059692382813
 20
386.6504516601563
 30
0.0
 11
-525.8059692382813
 21
380.1504516601563
 31
0.0
  0
LINE
  5
21E
330
22
100
AcDbEntity
  8
0
  6
Continuous
 62
     7
100
AcDbLine
 10
-536.5485839843749
 20
386.6504516601563
 30
0.0
 11
-530.048583984375
 21
380.1504516601563
 31
0.0
  0
LINE
  5
21F
330
22
100
AcDbEntity
  8
0
  6
Continuous
 62
     7
100
AcDbLine
 10
-540.791259765625
 20
386.6504516601563
 30
0.0
 11
-534.2912597656249
 21
380.1504516601563
 31
0.0
  0
LINE
  5
220
330
22
100
AcDbEntity
  8
0
  6
Continuous
 62
     7
100
AcDbLine
 10
-545.0338745117188
 20
386.6504516601563
 30
0.0
 11
-538.5338745117188
 21
380.1504516601563
 31
0.0
  0
LINE
  5
221
330
22
100
AcDbEntity
  8
0
  6
Continuous
 62
     7
100
AcDbLine
 10
-549.2765502929688
 20
386.6504516601563
 30
0.0
 11
-542.7765502929688
 21
380.1504516601563
 31
0.0
  0
LINE
  5
222
330
22
100
AcDbEntity
  8
0
  6
Continuous
 62
     7
100
AcDbLine
 10
-553.5191650390625
 20
386.6504516601563
 30
0.0
 11
-547.0191650390624
 21
380.1504516601563
 31
0.0
  0
LINE
  5
223
330
22
100
AcDbEntity
  8
0
  6
Continuous
 62
     7
100
AcDbLine
 10
-557.7618408203124
 20
386.6504516601563
 30
0.0
 11
-551.2618408203125
 21
380.1504516601563
 31
0.0
  0
LINE
  5
224
330
22
100
AcDbEntity
  8
0
  6
Continuous
 62
     7
100
AcDbLine
 10
-562.0044555664064
 20
386.6504516601563
 30
0.0
 11
-555.5044555664063
 21
380.1504516601563
 31
0.0
  0
LINE
  5
225
330
22
100
AcDbEntity
  8
0
  6
Continuous
 62
     7
100
AcDbLine
 10
-566.2470703124999
 20
386.6504516601563
 30
0.0
 11
-559.7470703125
 21
380.1504516601563
 31
0.0
  0
LINE
  5
226
330
22
100
AcDbEntity
  8
0
  6
Continuous
 62
     7
100
AcDbLine
 10
-570.48974609375
 20
386.6504516601563
 30
0.0
 11
-563.98974609375
 21
380.1504516601563
 31
0.0
  0
LINE
  5
227
330
22
100
AcDbEntity
  8
0
  6
Continuous
 62
     7
100
AcDbLine
 10
-574.7323608398438
 20
386.6504516601563
 30
0.0
 11
-568.2323608398437
 21
380.1504516601563
 31
0.0
  0
LINE
  5
228
330
22
100
AcDbEntity
  8
0
  6
Continuous
 62
     7
100
AcDbLine
 10
-578.9750366210937
 20
386.6504516601563
 30
0.0
 11
-572.4750366210937
 21
380.1504516601563
 31
0.0
  0
LINE
  5
229
330
22
100
AcDbEntity
  8
0
  6
Continuous
 62
     7
100
AcDbLine
 10
-583.2176513671875
 20
386.6504516601563
 30
0.0
 11
-576.7176513671874
 21
380.1504516601563
 31
0.0
  0
LINE
  5
22A
330
22
100
AcDbEntity
  8
0
  6
Continuous
 62
     7
100
AcDbLine
 10
-587.4602661132812
 20
386.6504516601563
 30
0.0
 11
-580.9602661132812
 21
380.1504516601563
 31
0.0
  0
LINE
  5
22B
330
22
100
AcDbEntity
  8
0
  6
Continuous
 62
     7
100
AcDbLine
 10
-591.7029418945312
 20
386.6504516601563
 30
0.0
 11
-585.2029418945313
 21
380.1504516601563
 31
0.0
  0
LINE
  5
22C
330
22
100
AcDbEntity
  8
0
  6
Continuous
 62
     7
100
AcDbLine
 10
-593.0991821289062
 20
383.8041076660156
 30
0.0
 11
-589.4455566406249
 21
380.1504516601563
 31
0.0
  0
LINE
  5
22D
330
22
100
AcDbEntity
  8
0
  6
Continuous
 62
     7
100
AcDbLine
 10
-475.5045166015625
 20
357.1863708496094
 30
0.0
 11
-593.0991821289062
 21
357.1863708496094
 31
0.0
  0
LINE
  5
22E
330
22
100
AcDbEntity
  8
0
  6
Continuous
 62
     7
100
AcDbLine
 10
-593.0991821289062
 20
379.6504516601563
 30
0.0
 11
-459.0992126464843
 21
379.6504516601563
 31
0.0
  0
LINE
  5
22F
330
22
100
AcDbEntity
  8
0
  6
Continuous
 62
     7
100
AcDbLine
 10
-550.5991821289064
 20
184.6504669189453
 30
0.0
 11
-502.5992126464843
 21
184.6504669189453
 31
0.0
  0
LINE
  5
230
330
22
100
AcDbEntity
  8
0
  6
Continuous
 62
     7
100
AcDbLine
 10
-471.5992126464843
 20
356.0882873535156
 30
0.0
 11
-553.763916015625
 21
308.6504516601563
 31
0.0
  0
LINE
  5
231
330
22
100
AcDbEntity
  8
0
  6
Continuous
 62
     7
100
AcDbLine
 10
-559.5991821289064
 20
307.3864440917969
 30
0.0
 11
-558.3352050781249
 21
308.6504516601563
 31
0.0
  0
LINE
  5
232
330
22
100
AcDbEntity
  8
0
  6
Continuous
 62
     7
100
AcDbLine
 10
-559.0067749023439
 20
305.1504516601563
 30
0.0
 11
-555.5067749023439
 21
308.6504516601563
 31
0.0
  0
LINE
  5
233
330
22
100
AcDbEntity
  8
0
  6
Continuous
 62
     7
100
AcDbLine
 10
-556.9410400390625
 20
304.3877868652344
 30
0.0
 11
-551.1953735351563
 21
310.1333923339844
 31
0.0
  0
LINE
  5
234
330
22
100
AcDbEntity
  8
0
  6
Continuous
 62
     7
100
AcDbLine
 10
-556.1388549804688
 20
302.3615417480469
 30
0.0
 11
-544.5032958984374
 21
313.9971008300781
 31
0.0
  0
LINE
  5
235
330
22
100
AcDbEntity
  8
0
  6
Continuous
 62
     7
100
AcDbLine
 10
-556.0531005859375
 20
299.6188354492188
 30
0.0
 11
-537.8111572265624
 21
317.8608093261719
 31
0.0
  0
LINE
  5
236
330
22
100
AcDbEntity
  8
0
  6
Continuous
 62
     7
100
AcDbLine
 10
-542.06591796875
 20
310.777587890625
 30
0.0
 11
-531.1190185546875
 21
321.7245178222656
 31
0.0
  0
LINE
  5
237
330
22
100
AcDbEntity
  8
0
  6
Continuous
 62
     7
100
AcDbLine
 10
-555.9522705078125
 20
296.8912353515625
 30
0.0
 11
-547.5581054687499
 21
305.285400390625
 31
0.0
  0
LINE
  5
238
330
22
100
AcDbEntity
  8
0
  6
Continuous
 62
     7
100
AcDbLine
 10
-535.3723754882813
 20
314.6427307128906
 30
0.0
 11
-524.4268798828125
 21
325.5882263183594
 31
0.0
  0
LINE
  5
239
330
22
100
AcDbEntity
  8
0
  6
Continuous
 62
     7
100
AcDbLine
 10
-555.8665771484375
 20
294.1485290527344
 30
0.0
 11
-547.5801391601563
 21
302.4349670410156
 31
0.0
  0
LINE
  5
23A
330
22
100
AcDbEntity
  8
0
  6
Continuous
 62
     7
100
AcDbLine
 10
-470.0992126464844
 20
377.0874633789063
 30
0.0
 11
-467.5361938476562
 21
379.6504516601563
 31
0.0
  0
LINE
  5
23B
330
22
100
AcDbEntity
  8
0
  6
Continuous
 62
     7
100
AcDbLine
 10
-528.6787719726564
 20
318.5079040527344
 30
0.0
 11
-517.7347412109375
 21
329.451904296875
 31
0.0
  0
LINE
  5
23C
330
22
100
AcDbEntity
  8
0
  6
Continuous
 62
     7
100
AcDbLine
 10
-555.7808837890624
 20
291.4057922363281
 30
0.0
 11
-547.5801391601563
 21
299.6065368652344
 31
0.0
  0
LINE
  5
23D
330
22
100
AcDbEntity
  8
0
  6
Continuous
 62
     7
100
AcDbLine
 10
-458.0992126464844
 20
386.259033203125
 30
0.0
 11
-457.2077941894531
 21
387.1504516601563
 31
0.0
  0
LINE
  5
23E
330
22
100
AcDbEntity
  8
0
  6
Continuous
 62
     7
100
AcDbLine
 10
-470.0992126464844
 20
374.259033203125
 30
0.0
 11
-467.142822265625
 21
377.2153930664063
 31
0.0
  0
LINE
  5
23F
330
22
100
AcDbEntity
  8
0
  6
Continuous
 62
     7
100
AcDbLine
 10
-521.9851684570313
 20
322.373046875
 30
0.0
 11
-511.0426330566406
 21
333.3156127929688
 31
0.0
  0
LINE
  5
240
330
22
100
AcDbEntity
  8
0
  6
Continuous
 62
     7
100
AcDbLine
 10
-555.6951293945314
 20
288.6630859375
 30
0.0
 11
-547.5801391601563
 21
296.7781066894531
 31
0.0
  0
LINE
  5
241
330
22
100
AcDbEntity
  8
0
  6
Continuous
 62
     7
100
AcDbLine
 10
-458.0992126464844
 20
383.4306030273438
 30
0.0
 11
-454.3793640136718
 21
387.1504516601563
 31
0.0
  0
LINE
  5
242
330
22
100
AcDbEntity
  8
0
  6
Continuous
 62
     7
100
AcDbLine
 10
-463.142822265625
 20
378.386962890625
 30
0.0
 11
-461.8793640136718
 21
379.6504516601563
 31
0.0
  0
LINE
  5
243
330
22
100
AcDbEntity
  8
0
  6
Continuous
 62
     7
100
AcDbLine
 10
-470.0992126464844
 20
371.4306030273438
 30
0.0
 11
-467.142822265625
 21
374.386962890625
 31
0.0
  0
LINE
  5
244
330
22
100
AcDbEntity
  8
0
  6
Continuous
 62
     7
100
AcDbLine
 10
-515.2916259765625
 20
326.2381896972656
 30
0.0
 11
-504.3504943847656
 21
337.1793212890625
 31
0.0
  0
LINE
  5
245
330
22
100
AcDbEntity
  8
0
  6
Continuous
 62
     7
100
AcDbLine
 10
-555.6094360351563
 20
285.9203796386719
 30
0.0
 11
-547.5801391601563
 21
293.9496765136719
 31
0.0
  0
LINE
  5
246
330
22
100
AcDbEntity
  8
0
  6
Continuous
 62
     7
100
AcDbLine
 10
-458.1333618164062
 20
380.5680236816406
 30
0.0
 11
-451.5509338378906
 21
387.1504516601563
 31
0.0
  0
LINE
  5
247
330
22
100
AcDbEntity
  8
0
  6
Continuous
 62
     7
100
AcDbLine
 10
-463.142822265625
 20
375.5585632324219
 30
0.0
 11
-459.0167846679688
 21
379.6846008300781
 31
0.0
  0
LINE
  5
248
330
22
100
AcDbEntity
  8
0
  6
Continuous
 62
     7
100
AcDbLine
 10
-470.0992126464844
 20
368.6021728515625
 30
0.0
 11
-467.142822265625
 21
371.5585632324219
 31
0.0
  0
LINE
  5
249
330
22
100
AcDbEntity
  8
0
  6
Continuous
 62
     7
100
AcDbLine
 10
-508.5980224609374
 20
330.1033630371094
 30
0.0
 11
-497.6583557128906
 21
341.0430297851563
 31
0.0
  0
LINE
  5
24A
330
22
100
AcDbEntity
  8
0
  6
Continuous
 62
     7
100
AcDbLine
 10
-555.5237426757813
 20
283.1776733398438
 30
0.0
 11
-547.5801391601563
 21
291.1212463378906
 31
0.0
  0
LINE
  5
24B
330
22
100
AcDbEntity
  8
0
  6
Continuous
 62
     7
100
AcDbLine
 10
-463.142822265625
 20
372.7301330566406
 30
0.0
 11
-448.7225036621094
 21
387.1504516601563
 31
0.0
  0
LINE
  5
24C
330
22
100
AcDbEntity
  8
0
  6
Continuous
 62
     7
100
AcDbLine
 10
-470.0992126464844
 20
365.7737426757813
 30
0.0
 11
-466.892822265625
 21
368.9801330566406
 31
0.0
  0
LINE
  5
24D
330
22
100
AcDbEntity
  8
0
  6
Continuous
 62
     7
100
AcDbLine
 10
-501.9044494628906
 20
333.968505859375
 30
0.0
 11
-490.9662170410156
 21
344.90673828125
 31
0.0
  0
LINE
  5
24E
330
22
100
AcDbEntity
  8
0
  6
Continuous
 62
     7
100
AcDbLine
 10
-553.7224731445313
 20
282.1504516601563
 30
0.0
 11
-547.5801391601563
 21
288.2928161621094
 31
0.0
  0
LINE
  5
24F
330
22
100
AcDbEntity
  8
0
  6
Continuous
 62
     7
100
AcDbLine
 10
-449.8940734863281
 20
383.1504516601563
 30
0.0
 11
-445.8940734863281
 21
387.1504516601563
 31
0.0
  0
LINE
  5
250
330
22
100
AcDbEntity
  8
0
  6
Continuous
 62
     7
100
AcDbLine
 10
-463.142822265625
 20
369.9017028808594
 30
0.0
 11
-453.0992126464844
 21
379.9453125
 31
0.0
  0
LINE
  5
251
330
22
100
AcDbEntity
  8
0
  6
Continuous
 62
     7
100
AcDbLine
 10
-470.0992126464844
 20
362.9453125
 30
0.0
 11
-466.1434631347656
 21
366.9010925292969
 31
0.0
  0
LINE
  5
252
330
22
100
AcDbEntity
  8
0
  6
Continuous
 62
     7
100
AcDbLine
 10
-495.2108764648437
 20
337.8336486816406
 30
0.0
 11
-484.2741088867188
 21
348.7704467773438
 31
0.0
  0
LINE
  5
253
330
22
100
AcDbEntity
  8
0
  6
Continuous
 62
     7
100
AcDbLine
 10
-550.8940429687499
 20
282.1504516601563
 30
0.0
 11
-547.5801391601563
 21
285.4644165039063
 31
0.0
  0
LINE
  5
254
330
22
100
AcDbEntity
  8
0
  6
Continuous
 62
     7
100
AcDbLine
 10
-447.0656433105468
 20
383.1504516601563
 30
0.0
 11
-443.3822631835938
 21
386.8338317871094
 31
0.0
  0
LINE
  5
255
330
22
100
AcDbEntity
  8
0
  6
Continuous
 62
     7
100
AcDbLine
 10
-465.142822265625
 20
365.0732727050781
 30
0.0
 11
-453.0992126464844
 21
377.1168823242188
 31
0.0
  0
LINE
  5
256
330
22
100
AcDbEntity
  8
0
  6
Continuous
 62
     7
100
AcDbLine
 10
-470.0992126464844
 20
360.1168823242188
 30
0.0
 11
-465.142822265625
 21
365.0732727050781
 31
0.0
  0
LINE
  5
257
330
22
100
AcDbEntity
  8
0
  6
Continuous
 62
     7
100
AcDbLine
 10
-488.5173034667968
 20
341.6987915039063
 30
0.0
 11
-477.5819702148438
 21
352.6341247558594
 31
0.0
  0
LINE
  5
258
330
22
100
AcDbEntity
  8
0
  6
Continuous
 62
     7
100
AcDbLine
 10
-444.2372131347656
 20
383.1504516601563
 30
0.0
 11
-443.0992126464843
 21
384.2884521484375
 31
0.0
  0
LINE
  5
259
330
22
100
AcDbEntity
  8
0
  6
Continuous
 62
     7
100
AcDbLine
 10
-465.142822265625
 20
362.2448425292969
 30
0.0
 11
-453.0992126464844
 21
374.2884521484375
 31
0.0
  0
LINE
  5
25A
330
22
100
AcDbEntity
  8
0
  6
Continuous
 62
     7
100
AcDbLine
 10
-481.82373046875
 20
345.56396484375
 30
0.0
 11
-465.142822265625
 21
362.2448425292969
 31
0.0
  0
LINE
  5
25B
330
22
100
AcDbEntity
  8
0
  6
Continuous
 62
     7
100
AcDbLine
 10
-475.130126953125
 20
349.4291076660156
 30
0.0
 11
-453.0992126464844
 21
371.4600524902344
 31
0.0
  0
LINE
  5
25C
330
22
100
AcDbEntity
  8
0
  6
Continuous
 62
     7
100
AcDbLine
 10
-468.4365539550781
 20
353.2942504882813
 30
0.0
 11
-453.0992126464844
 21
368.6316223144531
 31
0.0
  0
LINE
  5
25D
330
22
100
AcDbEntity
  8
0
  6
Continuous
 62
     7
100
AcDbLine
 10
-461.7429809570313
 20
357.159423828125
 30
0.0
 11
-453.0992126464844
 21
365.8031921386719
 31
0.0
  0
LINE
  5
25E
330
22
100
AcDbEntity
  8
0
  6
DASHED
 62
     7
100
AcDbLine
 10
-465.0992126464843
 20
732.7423706054688
 30
0.0
 11
-463.5992126464843
 21
732.7423706054688
 31
0.0
  0
LINE
  5
25F
330
22
100
AcDbEntity
  8
0
  6
CENTER
 62
     7
100
AcDbLine
 10
-465.0992126464843
 20
743.4564208984375
 30
0.0
 11
-465.0992126464843
 21
732.079345703125
 31
0.0
  0
LINE
  5
260
330
22
100
AcDbEntity
  8
0
  6
Continuous
 62
     7
100
AcDbLine
 10
-467.8604125976563
 20
739.9600219726562
 30
0.0
 11
-466.1804504394531
 21
737.7423706054687
 31
0.0
  0
LINE
  5
261
330
22
100
AcDbEntity
  8
0
  6
Continuous
 62
     7
100
AcDbLine
 10
-462.8815307617188
 20
734.9811401367187
 30
0.0
 11
-465.0992126464843
 21
736.6611328124999
 31
0.0
  0
LINE
  5
262
330
22
100
AcDbEntity
  8
0
  6
Continuous
 62
     7
100
AcDbLine
 10
-467.3314819335938
 20
734.9661865234375
 30
0.0
 11
-465.0992126464843
 21
736.6611328124999
 31
0.0
  0
LINE
  5
263
330
22
100
AcDbEntity
  8
0
  6
Continuous
 62
     7
100
AcDbLine
 10
-462.8815307617188
 20
734.9811401367187
 30
0.0
 11
-462.6097717285156
 21
735.2529296874999
 31
0.0
  0
LINE
  5
264
330
22
100
AcDbEntity
  8
0
  6
Continuous
 62
     7
100
AcDbLine
 10
-462.3230285644531
 20
739.974609375
 30
0.0
 11
-464.0179748535156
 21
737.7423706054687
 31
0.0
  0
LINE
  5
265
330
22
100
AcDbEntity
  8
0
  6
Continuous
 62
     7
100
AcDbLine
 10
-462.5949707031249
 20
740.24658203125
 30
0.0
 11
-462.3230285644531
 21
739.974609375
 31
0.0
  0
LINE
  5
266
330
22
100
AcDbEntity
  8
0
  6
Continuous
 62
     7
100
AcDbLine
 10
-462.3230285644531
 20
739.974609375
 30
0.0
 11
-464.0179748535156
 21
737.7423706054687
 31
0.0
  0
LINE
  5
267
330
22
100
AcDbEntity
  8
0
  6
Continuous
 62
     7
100
AcDbLine
 10
-462.5949707031249
 20
740.24658203125
 30
0.0
 11
-462.8669433593749
 21
740.5185546874999
 31
0.0
  0
LINE
  5
268
330
22
100
AcDbEntity
  8
0
  6
Continuous
 62
     7
100
AcDbLine
 10
-467.3168945312499
 20
740.5035400390625
 30
0.0
 11
-465.0992126464843
 21
738.8236083984375
 31
0.0
  0
LINE
  5
269
330
22
100
AcDbEntity
  8
0
  6
Continuous
 62
     7
100
AcDbLine
 10
-467.8604125976563
 20
739.9600219726562
 30
0.0
 11
-466.1804504394531
 21
737.7423706054687
 31
0.0
  0
LINE
  5
26A
330
22
100
AcDbEntity
  8
0
  6
Continuous
 62
     7
100
AcDbLine
 10
-467.8604125976563
 20
739.9600219726562
 30
0.0
 11
-467.5886535644531
 21
740.2318115234375
 31
0.0
  0
LINE
  5
26B
330
22
100
AcDbEntity
  8
0
  6
Continuous
 62
     7
100
AcDbLine
 10
-467.3168945312499
 20
740.5035400390625
 30
0.0
 11
-467.5886535644531
 21
740.2318115234375
 31
0.0
  0
LINE
  5
26C
330
22
100
AcDbEntity
  8
0
  6
Continuous
 62
     7
100
AcDbLine
 10
-467.8604125976563
 20
739.9600219726562
 30
0.0
 11
-467.5886535644531
 21
740.2318115234375
 31
0.0
  0
LINE
  5
26D
330
22
100
AcDbEntity
  8
0
  6
Continuous
 62
     7
100
AcDbLine
 10
-462.5949707031249
 20
740.24658203125
 30
0.0
 11
-462.3230285644531
 21
739.974609375
 31
0.0
  0
LINE
  5
26E
330
22
100
AcDbEntity
  8
0
  6
Continuous
 62
     7
100
AcDbLine
 10
-462.8669433593749
 20
740.5185546874999
 30
0.0
 11
-465.0992126464843
 21
738.8236083984375
 31
0.0
  0
LINE
  5
26F
330
22
100
AcDbEntity
  8
0
  6
Continuous
 62
     7
100
AcDbLine
 10
-467.3314819335938
 20
734.9661865234375
 30
0.0
 11
-465.0992126464843
 21
736.6611328124999
 31
0.0
  0
LINE
  5
270
330
22
100
AcDbEntity
  8
0
  6
Continuous
 62
     7
100
AcDbLine
 10
-467.3168945312499
 20
740.5035400390625
 30
0.0
 11
-467.5886535644531
 21
740.2318115234375
 31
0.0
  0
LINE
  5
271
330
22
100
AcDbEntity
  8
0
  6
Continuous
 62
     7
100
AcDbLine
 10
-462.8815307617188
 20
734.9811401367187
 30
0.0
 11
-465.0992126464843
 21
736.6611328124999
 31
0.0
  0
LINE
  5
272
330
22
100
AcDbEntity
  8
0
  6
Continuous
 62
     7
100
AcDbLine
 10
-462.3380126953125
 20
735.524658203125
 30
0.0
 11
-464.0179748535156
 21
737.7423706054687
 31
0.0
  0
LINE
  5
273
330
22
100
AcDbEntity
  8
0
  6
Continuous
 62
     7
100
AcDbLine
 10
-467.8753967285156
 20
735.5100708007812
 30
0.0
 11
-466.1804504394531
 21
737.7423706054687
 31
0.0
  0
LINE
  5
274
330
22
100
AcDbEntity
  8
0
  6
Continuous
 62
     7
100
AcDbLine
 10
-462.3380126953125
 20
735.524658203125
 30
0.0
 11
-462.6097717285156
 21
735.2529296874999
 31
0.0
  0
LINE
  5
275
330
22
100
AcDbEntity
  8
0
  6
Continuous
 62
     7
100
AcDbLine
 10
-467.3168945312499
 20
740.5035400390625
 30
0.0
 11
-465.0992126464843
 21
738.8236083984375
 31
0.0
  0
LINE
  5
276
330
22
100
AcDbEntity
  8
0
  6
Continuous
 62
     7
100
AcDbLine
 10
-462.5949707031249
 20
740.24658203125
 30
0.0
 11
-462.8669433593749
 21
740.5185546874999
 31
0.0
  0
LINE
  5
277
330
22
100
AcDbEntity
  8
0
  6
Continuous
 62
     7
100
AcDbLine
 10
-462.8669433593749
 20
740.5185546874999
 30
0.0
 11
-465.0992126464843
 21
738.8236083984375
 31
0.0
  0
LINE
  5
278
330
22
100
AcDbEntity
  8
0
  6
Continuous
 62
     7
100
AcDbLine
 10
-462.3380126953125
 20
735.524658203125
 30
0.0
 11
-464.0179748535156
 21
737.7423706054687
 31
0.0
  0
LINE
  5
279
330
22
100
AcDbEntity
  8
0
  6
Continuous
 62
     7
100
AcDbLine
 10
-462.3380126953125
 20
735.524658203125
 30
0.0
 11
-462.6097717285156
 21
735.2529296874999
 31
0.0
  0
LINE
  5
27A
330
22
100
AcDbEntity
  8
0
  6
Continuous
 62
     7
100
AcDbLine
 10
-462.8815307617188
 20
734.9811401367187
 30
0.0
 11
-462.6097717285156
 21
735.2529296874999
 31
0.0
  0
LINE
  5
27B
330
22
100
AcDbEntity
  8
0
  6
Continuous
 62
     7
100
AcDbLine
 10
-467.6034240722656
 20
735.2381591796874
 30
0.0
 11
-467.3314819335938
 21
734.9661865234375
 31
0.0
  0
LINE
  5
27C
330
22
100
AcDbEntity
  8
0
  6
Continuous
 62
     7
100
AcDbLine
 10
-467.6034240722656
 20
735.2381591796874
 30
0.0
 11
-467.8753967285156
 21
735.5100708007812
 31
0.0
  0
LINE
  5
27D
330
22
100
AcDbEntity
  8
0
  6
Continuous
 62
     7
100
AcDbLine
 10
-467.6034240722656
 20
735.2381591796874
 30
0.0
 11
-467.8753967285156
 21
735.5100708007812
 31
0.0
  0
LINE
  5
27E
330
22
100
AcDbEntity
  8
0
  6
Continuous
 62
     7
100
AcDbLine
 10
-467.6034240722656
 20
735.2381591796874
 30
0.0
 11
-467.3314819335938
 21
734.9661865234375
 31
0.0
  0
LINE
  5
27F
330
22
100
AcDbEntity
  8
0
  6
Continuous
 62
     7
100
AcDbLine
 10
-467.8753967285156
 20
735.5100708007812
 30
0.0
 11
-466.1804504394531
 21
737.7423706054687
 31
0.0
  0
LINE
  5
280
330
22
100
AcDbEntity
  8
0
  6
CENTER
 62
     7
100
AcDbLine
 10
-459.278839111328
 20
737.7423706054687
 30
0.0
 11
-471.4496765136718
 21
737.7423706054687
 31
0.0
  0
LINE
  5
281
330
22
100
AcDbEntity
  8
0
  6
DASHED
 62
     7
100
AcDbLine
 10
-470.0992126464844
 20
737.7423706054687
 30
0.0
 11
-470.0992126464844
 21
739.2423706054687
 31
0.0
  0
LINE
  5
282
330
22
100
AcDbEntity
  8
0
  6
Continuous
 62
     7
100
AcDbLine
 10
-534.0991821289064
 20
713.2423706054687
 30
0.0
 11
-534.0991821289064
 21
682.2423706054687
 31
0.0
  0
LINE
  5
283
330
22
100
AcDbEntity
  8
0
  6
Continuous
 62
     7
100
AcDbLine
 10
-519.0991821289063
 20
692.2423706054687
 30
0.0
 11
-519.0991821289063
 21
661.2423706054687
 31
0.0
  0
LINE
  5
284
330
22
100
AcDbEntity
  8
0
  6
Continuous
 62
     7
100
AcDbLine
 10
-514.0991821289063
 20
713.2423706054687
 30
0.0
 11
-514.0991821289063
 21
682.2423706054687
 31
0.0
  0
LINE
  5
285
330
22
100
AcDbEntity
  8
0
  6
Continuous
 62
     7
100
AcDbLine
 10
-489.0992126464843
 20
713.2423706054687
 30
0.0
 11
-489.0992126464843
 21
682.2423706054687
 31
0.0
  0
LINE
  5
286
330
22
100
AcDbEntity
  8
0
  6
Continuous
 62
     7
100
AcDbLine
 10
-494.0992126464843
 20
713.2423706054687
 30
0.0
 11
-494.0992126464843
 21
682.2423706054687
 31
0.0
  0
LINE
  5
287
330
22
100
AcDbEntity
  8
0
  6
Continuous
 62
     7
100
AcDbLine
 10
-484.0992126464843
 20
692.2423706054687
 30
0.0
 11
-484.0992126464843
 21
661.2423706054687
 31
0.0
  0
LINE
  5
288
330
22
100
AcDbEntity
  8
0
  6
Continuous
 62
     7
100
AcDbLine
 10
-479.0992126464844
 20
692.2423706054687
 30
0.0
 11
-479.0992126464844
 21
661.2423706054687
 31
0.0
  0
LINE
  5
289
330
22
100
AcDbEntity
  8
0
  6
Continuous
 62
     7
100
AcDbLine
 10
-474.0992126464844
 20
713.2423706054687
 30
0.0
 11
-474.0992126464844
 21
682.2423706054687
 31
0.0
  0
LINE
  5
28A
330
22
100
AcDbEntity
  8
0
  6
Continuous
 62
     7
100
AcDbLine
 10
-469.0992126464843
 20
713.2423706054687
 30
0.0
 11
-469.0992126464843
 21
682.2423706054687
 31
0.0
  0
LINE
  5
28B
330
22
100
AcDbEntity
  8
0
  6
Continuous
 62
     7
100
AcDbLine
 10
-529.0991821289063
 20
671.2423706054687
 30
0.0
 11
-529.0991821289063
 21
639.91748046875
 31
0.0
  0
LINE
  5
28C
330
22
100
AcDbEntity
  8
0
  6
Continuous
 62
     7
100
AcDbLine
 10
-534.0991821289064
 20
671.2423706054687
 30
0.0
 11
-534.0991821289064
 21
639.91748046875
 31
0.0
  0
LINE
  5
28D
330
22
100
AcDbEntity
  8
0
  6
Continuous
 62
     7
100
AcDbLine
 10
-514.0991821289063
 20
671.2423706054687
 30
0.0
 11
-514.0991821289063
 21
639.91748046875
 31
0.0
  0
LINE
  5
28E
330
22
100
AcDbEntity
  8
0
  6
Continuous
 62
     7
100
AcDbLine
 10
-489.0992126464843
 20
671.2423706054687
 30
0.0
 11
-489.0992126464843
 21
639.91748046875
 31
0.0
  0
LINE
  5
28F
330
22
100
AcDbEntity
  8
0
  6
Continuous
 62
     7
100
AcDbLine
 10
-494.0992126464843
 20
671.2423706054687
 30
0.0
 11
-494.0992126464843
 21
639.91748046875
 31
0.0
  0
LINE
  5
290
330
22
100
AcDbEntity
  8
0
  6
Continuous
 62
     7
100
AcDbLine
 10
-474.0992126464844
 20
671.2423706054687
 30
0.0
 11
-474.0992126464844
 21
639.91748046875
 31
0.0
  0
LINE
  5
291
330
22
100
AcDbEntity
  8
0
  6
Continuous
 62
     7
100
AcDbLine
 10
-469.0992126464843
 20
671.2423706054687
 30
0.0
 11
-469.0992126464843
 21
639.91748046875
 31
0.0
  0
LINE
  5
292
330
22
100
AcDbEntity
  8
0
  6
Continuous
 62
     7
100
AcDbLine
 10
-509.0992126464843
 20
713.2423706054687
 30
0.0
 11
-509.0992126464843
 21
682.2423706054687
 31
0.0
  0
LINE
  5
293
330
22
100
AcDbEntity
  8
0
  6
Continuous
 62
     7
100
AcDbLine
 10
-504.0992126464844
 20
692.2423706054687
 30
0.0
 11
-504.0992126464844
 21
661.2423706054687
 31
0.0
  0
LINE
  5
294
330
22
100
AcDbEntity
  8
0
  6
Continuous
 62
     7
100
AcDbLine
 10
-499.0992126464844
 20
692.2423706054687
 30
0.0
 11
-499.0992126464844
 21
661.2423706054687
 31
0.0
  0
LINE
  5
295
330
22
100
AcDbEntity
  8
0
  6
Continuous
 62
     7
100
AcDbLine
 10
-529.0991821289063
 20
713.2423706054687
 30
0.0
 11
-529.0991821289063
 21
682.2423706054687
 31
0.0
  0
LINE
  5
296
330
22
100
AcDbEntity
  8
0
  6
Continuous
 62
     7
100
AcDbLine
 10
-524.0991821289063
 20
692.2423706054687
 30
0.0
 11
-524.0991821289063
 21
661.2423706054687
 31
0.0
  0
LINE
  5
297
330
22
100
AcDbEntity
  8
0
  6
Continuous
 62
     7
100
AcDbLine
 10
-544.0991821289063
 20
692.2423706054687
 30
0.0
 11
-544.0991821289063
 21
661.2423706054687
 31
0.0
  0
LINE
  5
298
330
22
100
AcDbEntity
  8
0
  6
Continuous
 62
     7
100
AcDbLine
 10
-539.0991821289063
 20
692.2423706054687
 30
0.0
 11
-539.0991821289063
 21
661.2423706054687
 31
0.0
  0
LINE
  5
299
330
22
100
AcDbEntity
  8
0
  6
Continuous
 62
     7
100
AcDbLine
 10
-467.6034240722656
 20
607.2381591796875
 30
0.0
 11
-467.3314819335938
 21
606.9661865234374
 31
0.0
  0
LINE
  5
29A
330
22
100
AcDbEntity
  8
0
  6
Continuous
 62
     7
100
AcDbLine
 10
-467.6034240722656
 20
607.2381591796875
 30
0.0
 11
-467.8753967285156
 21
607.5100708007812
 31
0.0
  0
LINE
  5
29B
330
22
100
AcDbEntity
  8
0
  6
Continuous
 62
     7
100
AcDbLine
 10
-467.6034240722656
 20
607.2381591796875
 30
0.0
 11
-467.8753967285156
 21
607.5100708007812
 31
0.0
  0
LINE
  5
29C
330
22
100
AcDbEntity
  8
0
  6
Continuous
 62
     7
100
AcDbLine
 10
-467.6034240722656
 20
607.2381591796875
 30
0.0
 11
-467.3314819335938
 21
606.9661865234374
 31
0.0
  0
LINE
  5
29D
330
22
100
AcDbEntity
  8
0
  6
Continuous
 62
     7
100
AcDbLine
 10
-462.8815307617188
 20
606.9811401367187
 30
0.0
 11
-462.6097717285156
 21
607.2529296875
 31
0.0
  0
LINE
  5
29E
330
22
100
AcDbEntity
  8
0
  6
Continuous
 62
     7
100
AcDbLine
 10
-462.3380126953125
 20
607.5246582031249
 30
0.0
 11
-462.6097717285156
 21
607.2529296875
 31
0.0
  0
LINE
  5
29F
330
22
100
AcDbEntity
  8
0
  6
Continuous
 62
     7
100
AcDbLine
 10
-462.3380126953125
 20
607.5246582031249
 30
0.0
 11
-464.0179748535156
 21
609.7423706054687
 31
0.0
  0
LINE
  5
2A0
330
22
100
AcDbEntity
  8
0
  6
Continuous
 62
     7
100
AcDbLine
 10
-462.3380126953125
 20
607.5246582031249
 30
0.0
 11
-462.6097717285156
 21
607.2529296875
 31
0.0
  0
LINE
  5
2A1
330
22
100
AcDbEntity
  8
0
  6
Continuous
 62
     7
100
AcDbLine
 10
-467.8753967285156
 20
607.5100708007812
 30
0.0
 11
-466.1804504394531
 21
609.7423706054687
 31
0.0
  0
LINE
  5
2A2
330
22
100
AcDbEntity
  8
0
  6
Continuous
 62
     7
100
AcDbLine
 10
-467.3314819335938
 20
606.9661865234374
 30
0.0
 11
-465.0992126464843
 21
608.6611328125
 31
0.0
  0
LINE
  5
2A3
330
22
100
AcDbEntity
  8
0
  6
Continuous
 62
     7
100
AcDbLine
 10
-462.3230285644531
 20
611.9746093749999
 30
0.0
 11
-464.0179748535156
 21
609.7423706054687
 31
0.0
  0
LINE
  5
2A4
330
22
100
AcDbEntity
  8
0
  6
Continuous
 62
     7
100
AcDbLine
 10
-467.8604125976563
 20
611.9600219726562
 30
0.0
 11
-466.1804504394531
 21
609.7423706054687
 31
0.0
  0
LINE
  5
2A5
330
22
100
AcDbEntity
  8
0
  6
Continuous
 62
     7
100
AcDbLine
 10
-462.8669433593749
 20
612.5185546875
 30
0.0
 11
-465.0992126464843
 21
610.8236083984374
 31
0.0
  0
LINE
  5
2A6
330
22
100
AcDbEntity
  8
0
  6
Continuous
 62
     7
100
AcDbLine
 10
-462.3380126953125
 20
607.5246582031249
 30
0.0
 11
-464.0179748535156
 21
609.7423706054687
 31
0.0
  0
LINE
  5
2A7
330
22
100
AcDbEntity
  8
0
  6
Continuous
 62
     7
100
AcDbLine
 10
-462.8815307617188
 20
606.9811401367187
 30
0.0
 11
-465.0992126464843
 21
608.6611328125
 31
0.0
  0
LINE
  5
2A8
330
22
100
AcDbEntity
  8
0
  6
DASHED
 62
     7
100
AcDbLine
 10
-465.0992126464843
 20
604.7423706054687
 30
0.0
 11
-463.5992126464843
 21
604.7423706054687
 31
0.0
  0
LINE
  5
2A9
330
22
100
AcDbEntity
  8
0
  6
Continuous
 62
     7
100
AcDbLine
 10
-469.0992126464843
 20
590.2423706054687
 30
0.0
 11
-469.0992126464843
 21
600.2423706054687
 31
0.0
  0
LINE
  5
2AA
330
22
100
AcDbEntity
  8
0
  6
Continuous
 62
     7
100
AcDbLine
 10
-509.0992126464843
 20
671.2423706054687
 30
0.0
 11
-509.0992126464843
 21
639.91748046875
 31
0.0
  0
LINE
  5
2AB
330
22
100
AcDbEntity
  8
0
  6
Continuous
 62
     7
100
AcDbLine
 10
-462.5949707031249
 20
612.2465820312499
 30
0.0
 11
-462.8669433593749
 21
612.5185546875
 31
0.0
  0
LINE
  5
2AC
330
22
100
AcDbEntity
  8
0
  6
Continuous
 62
     7
100
AcDbLine
 10
-467.3168945312499
 20
612.5035400390625
 30
0.0
 11
-465.0992126464843
 21
610.8236083984374
 31
0.0
  0
LINE
  5
2AD
330
22
100
AcDbEntity
  8
0
  6
Continuous
 62
     7
100
AcDbLine
 10
-467.3168945312499
 20
612.5035400390625
 30
0.0
 11
-467.5886535644531
 21
612.2318115234374
 31
0.0
  0
LINE
  5
2AE
330
22
100
AcDbEntity
  8
0
  6
Continuous
 62
     7
100
AcDbLine
 10
-462.8669433593749
 20
612.5185546875
 30
0.0
 11
-465.0992126464843
 21
610.8236083984374
 31
0.0
  0
LINE
  5
2AF
330
22
100
AcDbEntity
  8
0
  6
Continuous
 62
     7
100
AcDbLine
 10
-462.5949707031249
 20
612.2465820312499
 30
0.0
 11
-462.3230285644531
 21
611.9746093749999
 31
0.0
  0
LINE
  5
2B0
330
22
100
AcDbEntity
  8
0
  6
Continuous
 62
     7
100
AcDbLine
 10
-467.8604125976563
 20
611.9600219726562
 30
0.0
 11
-467.5886535644531
 21
612.2318115234374
 31
0.0
  0
LINE
  5
2B1
330
22
100
AcDbEntity
  8
0
  6
Continuous
 62
     7
100
AcDbLine
 10
-467.3168945312499
 20
612.5035400390625
 30
0.0
 11
-467.5886535644531
 21
612.2318115234374
 31
0.0
  0
LINE
  5
2B2
330
22
100
AcDbEntity
  8
0
  6
Continuous
 62
     7
100
AcDbLine
 10
-467.8604125976563
 20
611.9600219726562
 30
0.0
 11
-467.5886535644531
 21
612.2318115234374
 31
0.0
  0
LINE
  5
2B3
330
22
100
AcDbEntity
  8
0
  6
Continuous
 62
     7
100
AcDbLine
 10
-467.8604125976563
 20
611.9600219726562
 30
0.0
 11
-466.1804504394531
 21
609.7423706054687
 31
0.0
  0
LINE
  5
2B4
330
22
100
AcDbEntity
  8
0
  6
Continuous
 62
     7
100
AcDbLine
 10
-467.3168945312499
 20
612.5035400390625
 30
0.0
 11
-465.0992126464843
 21
610.8236083984374
 31
0.0
  0
LINE
  5
2B5
330
22
100
AcDbEntity
  8
0
  6
Continuous
 62
     7
100
AcDbLine
 10
-462.5949707031249
 20
612.2465820312499
 30
0.0
 11
-462.8669433593749
 21
612.5185546875
 31
0.0
  0
LINE
  5
2B6
330
22
100
AcDbEntity
  8
0
  6
Continuous
 62
     7
100
AcDbLine
 10
-462.3230285644531
 20
611.9746093749999
 30
0.0
 11
-464.0179748535156
 21
609.7423706054687
 31
0.0
  0
LINE
  5
2B7
330
22
100
AcDbEntity
  8
0
  6
DASHED
 62
     7
100
AcDbLine
 10
-465.0992126464843
 20
614.7423706054687
 30
0.0
 11
-463.5992126464843
 21
614.7423706054687
 31
0.0
  0
LINE
  5
2B8
330
22
100
AcDbEntity
  8
0
  6
Continuous
 62
     7
100
AcDbLine
 10
-474.0992126464844
 20
590.2423706054687
 30
0.0
 11
-474.0992126464844
 21
600.2423706054687
 31
0.0
  0
LINE
  5
2B9
330
22
100
AcDbEntity
  8
0
  6
Continuous
 62
     7
100
AcDbLine
 10
-479.0992126464844
 20
569.2423706054687
 30
0.0
 11
-479.0992126464844
 21
600.2423706054687
 31
0.0
  0
LINE
  5
2BA
330
22
100
AcDbEntity
  8
0
  6
Continuous
 62
     7
100
AcDbLine
 10
-462.8815307617188
 20
606.9811401367187
 30
0.0
 11
-462.6097717285156
 21
607.2529296875
 31
0.0
  0
LINE
  5
2BB
330
22
100
AcDbEntity
  8
0
  6
Continuous
 62
     7
100
AcDbLine
 10
-467.3314819335938
 20
606.9661865234374
 30
0.0
 11
-465.0992126464843
 21
608.6611328125
 31
0.0
  0
LINE
  5
2BC
330
22
100
AcDbEntity
  8
0
  6
Continuous
 62
     7
100
AcDbLine
 10
-462.8815307617188
 20
606.9811401367187
 30
0.0
 11
-465.0992126464843
 21
608.6611328125
 31
0.0
  0
LINE
  5
2BD
330
22
100
AcDbEntity
  8
0
  6
Continuous
 62
     7
100
AcDbLine
 10
-467.8753967285156
 20
607.5100708007812
 30
0.0
 11
-466.1804504394531
 21
609.7423706054687
 31
0.0
  0
LINE
  5
2BE
330
22
100
AcDbEntity
  8
0
  6
Continuous
 62
     7
100
AcDbLine
 10
-544.0991821289063
 20
569.2423706054687
 30
0.0
 11
-544.0991821289063
 21
600.2423706054687
 31
0.0
  0
LINE
  5
2BF
330
22
100
AcDbEntity
  8
0
  6
Continuous
 62
     7
100
AcDbLine
 10
-469.0992126464843
 20
628.9174804687499
 30
0.0
 11
-469.0992126464843
 21
619.2423706054687
 31
0.0
  0
LINE
  5
2C0
330
22
100
AcDbEntity
  8
0
  6
Continuous
 62
     7
100
AcDbLine
 10
-474.0992126464844
 20
628.9174804687499
 30
0.0
 11
-474.0992126464844
 21
619.2423706054687
 31
0.0
  0
LINE
  5
2C1
330
22
100
AcDbEntity
  8
0
  6
Continuous
 62
     7
100
AcDbLine
 10
-489.0992126464843
 20
628.9174804687499
 30
0.0
 11
-489.0992126464843
 21
619.2423706054687
 31
0.0
  0
LINE
  5
2C2
330
22
100
AcDbEntity
  8
0
  6
Continuous
 62
     7
100
AcDbLine
 10
-494.0992126464843
 20
628.9174804687499
 30
0.0
 11
-494.0992126464843
 21
619.2423706054687
 31
0.0
  0
LINE
  5
2C3
330
22
100
AcDbEntity
  8
0
  6
CENTER
 62
     7
100
AcDbLine
 10
-465.0992126464843
 20
603.9219970703125
 30
0.0
 11
-465.0992126464843
 21
616.0928344726563
 31
0.0
  0
LINE
  5
2C4
330
22
100
AcDbEntity
  8
0
  6
Continuous
 62
     7
100
AcDbLine
 10
-489.0992126464843
 20
590.2423706054687
 30
0.0
 11
-489.0992126464843
 21
600.2423706054687
 31
0.0
  0
LINE
  5
2C5
330
22
100
AcDbEntity
  8
0
  6
Continuous
 62
     7
100
AcDbLine
 10
-484.0992126464843
 20
569.2423706054687
 30
0.0
 11
-484.0992126464843
 21
600.2423706054687
 31
0.0
  0
LINE
  5
2C6
330
22
100
AcDbEntity
  8
0
  6
Continuous
 62
     7
100
AcDbLine
 10
-462.5949707031249
 20
612.2465820312499
 30
0.0
 11
-462.3230285644531
 21
611.9746093749999
 31
0.0
  0
LINE
  5
2C7
330
22
100
AcDbEntity
  8
0
  6
Continuous
 62
     7
100
AcDbLine
 10
-494.0992126464843
 20
590.2423706054687
 30
0.0
 11
-494.0992126464843
 21
600.2423706054687
 31
0.0
  0
LINE
  5
2C8
330
22
100
AcDbEntity
  8
0
  6
Continuous
 62
     7
100
AcDbLine
 10
-509.0992126464843
 20
590.2423706054687
 30
0.0
 11
-509.0992126464843
 21
600.2423706054687
 31
0.0
  0
LINE
  5
2C9
330
22
100
AcDbEntity
  8
0
  6
Continuous
 62
     7
100
AcDbLine
 10
-499.0992126464844
 20
569.2423706054687
 30
0.0
 11
-499.0992126464844
 21
600.2423706054687
 31
0.0
  0
LINE
  5
2CA
330
22
100
AcDbEntity
  8
0
  6
Continuous
 62
     7
100
AcDbLine
 10
-534.0991821289064
 20
628.9174804687499
 30
0.0
 11
-534.0991821289064
 21
619.2423706054687
 31
0.0
  0
LINE
  5
2CB
330
22
100
AcDbEntity
  8
0
  6
Continuous
 62
     7
100
AcDbLine
 10
-514.0991821289063
 20
628.9174804687499
 30
0.0
 11
-514.0991821289063
 21
619.2423706054687
 31
0.0
  0
LINE
  5
2CC
330
22
100
AcDbEntity
  8
0
  6
Continuous
 62
     7
100
AcDbLine
 10
-529.0991821289063
 20
628.9174804687499
 30
0.0
 11
-529.0991821289063
 21
619.2423706054687
 31
0.0
  0
LINE
  5
2CD
330
22
100
AcDbEntity
  8
0
  6
Continuous
 62
     7
100
AcDbLine
 10
-524.0991821289063
 20
569.2423706054687
 30
0.0
 11
-524.0991821289063
 21
600.2423706054687
 31
0.0
  0
LINE
  5
2CE
330
22
100
AcDbEntity
  8
0
  6
Continuous
 62
     7
100
AcDbLine
 10
-519.0991821289063
 20
569.2423706054687
 30
0.0
 11
-519.0991821289063
 21
600.2423706054687
 31
0.0
  0
LINE
  5
2CF
330
22
100
AcDbEntity
  8
0
  6
Continuous
 62
     7
100
AcDbLine
 10
-529.0991821289063
 20
590.2423706054687
 30
0.0
 11
-529.0991821289063
 21
600.2423706054687
 31
0.0
  0
LINE
  5
2D0
330
22
100
AcDbEntity
  8
0
  6
Continuous
 62
     7
100
AcDbLine
 10
-539.0991821289063
 20
569.2423706054687
 30
0.0
 11
-539.0991821289063
 21
600.2423706054687
 31
0.0
  0
LINE
  5
2D1
330
22
100
AcDbEntity
  8
0
  6
Continuous
 62
     7
100
AcDbLine
 10
-514.0991821289063
 20
590.2423706054687
 30
0.0
 11
-514.0991821289063
 21
600.2423706054687
 31
0.0
  0
LINE
  5
2D2
330
22
100
AcDbEntity
  8
0
  6
Continuous
 62
     7
100
AcDbLine
 10
-534.0991821289064
 20
590.2423706054687
 30
0.0
 11
-534.0991821289064
 21
600.2423706054687
 31
0.0
  0
LINE
  5
2D3
330
22
100
AcDbEntity
  8
0
  6
Continuous
 62
     7
100
AcDbLine
 10
-462.5949707031249
 20
484.24658203125
 30
0.0
 11
-462.3230285644531
 21
483.974609375
 31
0.0
  0
LINE
  5
2D4
330
22
100
AcDbEntity
  8
0
  6
Continuous
 62
     7
100
AcDbLine
 10
-462.8669433593749
 20
484.5185546875
 30
0.0
 11
-465.0992126464843
 21
482.8236083984375
 31
0.0
  0
LINE
  5
2D5
330
22
100
AcDbEntity
  8
0
  6
Continuous
 62
     7
100
AcDbLine
 10
-467.3314819335938
 20
478.9661560058593
 30
0.0
 11
-465.0992126464843
 21
480.6611022949218
 31
0.0
  0
LINE
  5
2D6
330
22
100
AcDbEntity
  8
0
  6
Continuous
 62
     7
100
AcDbLine
 10
-467.3168945312499
 20
484.5035705566406
 30
0.0
 11
-467.5886535644531
 21
484.2317810058593
 31
0.0
  0
LINE
  5
2D7
330
22
100
AcDbEntity
  8
0
  6
CENTER
 62
     7
100
AcDbLine
 10
-459.278839111328
 20
481.7423706054688
 30
0.0
 11
-471.4496765136718
 21
481.7423706054688
 31
0.0
  0
LINE
  5
2D8
330
22
100
AcDbEntity
  8
0
  6
CENTER
 62
     7
100
AcDbLine
 10
-465.0992126464843
 20
476.0282897949219
 30
0.0
 11
-465.0992126464843
 21
487.4053649902343
 31
0.0
  0
LINE
  5
2D9
330
22
100
AcDbEntity
  8
0
  6
DASHED
 62
     7
100
AcDbLine
 10
-465.0992126464843
 20
486.7423706054688
 30
0.0
 11
-463.5992126464843
 21
486.7423706054688
 31
0.0
  0
LINE
  5
2DA
330
22
100
AcDbEntity
  8
0
  6
DASHED
 62
     7
100
AcDbLine
 10
-470.0992126464844
 20
481.7423706054688
 30
0.0
 11
-470.0992126464844
 21
480.2423706054688
 31
0.0
  0
LINE
  5
2DB
330
22
100
AcDbEntity
  8
0
  6
Continuous
 62
     7
100
AcDbLine
 10
-467.3168945312499
 20
484.5035705566406
 30
0.0
 11
-465.0992126464843
 21
482.8236083984375
 31
0.0
  0
LINE
  5
2DC
330
22
100
AcDbEntity
  8
0
  6
Continuous
 62
     7
100
AcDbLine
 10
-462.5949707031249
 20
484.24658203125
 30
0.0
 11
-462.8669433593749
 21
484.5185546875
 31
0.0
  0
LINE
  5
2DD
330
22
100
AcDbEntity
  8
0
  6
Continuous
 62
     7
100
AcDbLine
 10
-462.8669433593749
 20
484.5185546875
 30
0.0
 11
-465.0992126464843
 21
482.8236083984375
 31
0.0
  0
LINE
  5
2DE
330
22
100
AcDbEntity
  8
0
  6
Continuous
 62
     7
100
AcDbLine
 10
-467.3168945312499
 20
484.5035705566406
 30
0.0
 11
-465.0992126464843
 21
482.8236083984375
 31
0.0
  0
LINE
  5
2DF
330
22
100
AcDbEntity
  8
0
  6
Continuous
 62
     7
100
AcDbLine
 10
-467.8604125976563
 20
483.9600219726563
 30
0.0
 11
-466.1804504394531
 21
481.7423706054688
 31
0.0
  0
LINE
  5
2E0
330
22
100
AcDbEntity
  8
0
  6
Continuous
 62
     7
100
AcDbLine
 10
-509.0992126464843
 20
628.9174804687499
 30
0.0
 11
-509.0992126464843
 21
619.2423706054687
 31
0.0
  0
LINE
  5
2E1
330
22
100
AcDbEntity
  8
0
  6
Continuous
 62
     7
100
AcDbLine
 10
-504.0992126464844
 20
569.2423706054687
 30
0.0
 11
-504.0992126464844
 21
600.2423706054687
 31
0.0
  0
LINE
  5
2E2
330
22
100
AcDbEntity
  8
0
  6
Continuous
 62
     7
100
AcDbLine
 10
-462.3380126953125
 20
479.5246887207031
 30
0.0
 11
-462.6097717285156
 21
479.2529296875
 31
0.0
  0
LINE
  5
2E3
330
22
100
AcDbEntity
  8
0
  6
Continuous
 62
     7
100
AcDbLine
 10
-462.8815307617188
 20
478.9811706542969
 30
0.0
 11
-462.6097717285156
 21
479.2529296875
 31
0.0
  0
LINE
  5
2E4
330
22
100
AcDbEntity
  8
0
  6
Continuous
 62
     7
100
AcDbLine
 10
-467.6034240722656
 20
479.2381286621093
 30
0.0
 11
-467.3314819335938
 21
478.9661560058593
 31
0.0
  0
LINE
  5
2E5
330
22
100
AcDbEntity
  8
0
  6
Continuous
 62
     7
100
AcDbLine
 10
-467.6034240722656
 20
479.2381286621093
 30
0.0
 11
-467.8753967285156
 21
479.5101013183593
 31
0.0
  0
LINE
  5
2E6
330
22
100
AcDbEntity
  8
0
  6
Continuous
 62
     7
100
AcDbLine
 10
-467.6034240722656
 20
479.2381286621093
 30
0.0
 11
-467.8753967285156
 21
479.5101013183593
 31
0.0
  0
LINE
  5
2E7
330
22
100
AcDbEntity
  8
0
  6
Continuous
 62
     7
100
AcDbLine
 10
-467.6034240722656
 20
479.2381286621093
 30
0.0
 11
-467.3314819335938
 21
478.9661560058593
 31
0.0
  0
LINE
  5
2E8
330
22
100
AcDbEntity
  8
0
  6
Continuous
 62
     7
100
AcDbLine
 10
-467.8753967285156
 20
479.5101013183593
 30
0.0
 11
-466.1804504394531
 21
481.7423706054688
 31
0.0
  0
LINE
  5
2E9
330
22
100
AcDbEntity
  8
0
  6
Continuous
 62
     7
100
AcDbLine
 10
-469.0992126464843
 20
506.2423706054688
 30
0.0
 11
-469.0992126464843
 21
537.2423706054688
 31
0.0
  0
LINE
  5
2EA
330
22
100
AcDbEntity
  8
0
  6
Continuous
 62
     7
100
AcDbLine
 10
-469.0992126464843
 20
490.2423706054688
 30
0.0
 11
-469.0992126464843
 21
495.2423706054688
 31
0.0
  0
LINE
  5
2EB
330
22
100
AcDbEntity
  8
0
  6
Continuous
 62
     7
100
AcDbLine
 10
-467.8604125976563
 20
483.9600219726563
 30
0.0
 11
-466.1804504394531
 21
481.7423706054688
 31
0.0
  0
LINE
  5
2EC
330
22
100
AcDbEntity
  8
0
  6
Continuous
 62
     7
100
AcDbLine
 10
-462.8815307617188
 20
478.9811706542969
 30
0.0
 11
-465.0992126464843
 21
480.6611022949218
 31
0.0
  0
LINE
  5
2ED
330
22
100
AcDbEntity
  8
0
  6
Continuous
 62
     7
100
AcDbLine
 10
-467.3314819335938
 20
478.9661560058593
 30
0.0
 11
-465.0992126464843
 21
480.6611022949218
 31
0.0
  0
LINE
  5
2EE
330
22
100
AcDbEntity
  8
0
  6
Continuous
 62
     7
100
AcDbLine
 10
-462.8815307617188
 20
478.9811706542969
 30
0.0
 11
-462.6097717285156
 21
479.2529296875
 31
0.0
  0
LINE
  5
2EF
330
22
100
AcDbEntity
  8
0
  6
Continuous
 62
     7
100
AcDbLine
 10
-462.3230285644531
 20
483.974609375
 30
0.0
 11
-464.0179748535156
 21
481.7423706054688
 31
0.0
  0
LINE
  5
2F0
330
22
100
AcDbEntity
  8
0
  6
Continuous
 62
     7
100
AcDbLine
 10
-462.5949707031249
 20
484.24658203125
 30
0.0
 11
-462.3230285644531
 21
483.974609375
 31
0.0
  0
LINE
  5
2F1
330
22
100
AcDbEntity
  8
0
  6
Continuous
 62
     7
100
AcDbLine
 10
-462.3230285644531
 20
483.974609375
 30
0.0
 11
-464.0179748535156
 21
481.7423706054688
 31
0.0
  0
LINE
  5
2F2
330
22
100
AcDbEntity
  8
0
  6
Continuous
 62
     7
100
AcDbLine
 10
-462.5949707031249
 20
484.24658203125
 30
0.0
 11
-462.8669433593749
 21
484.5185546875
 31
0.0
  0
LINE
  5
2F3
330
22
100
AcDbEntity
  8
0
  6
Continuous
 62
     7
100
AcDbLine
 10
-467.8604125976563
 20
483.9600219726563
 30
0.0
 11
-467.5886535644531
 21
484.2317810058593
 31
0.0
  0
LINE
  5
2F4
330
22
100
AcDbEntity
  8
0
  6
Continuous
 62
     7
100
AcDbLine
 10
-467.3168945312499
 20
484.5035705566406
 30
0.0
 11
-467.5886535644531
 21
484.2317810058593
 31
0.0
  0
LINE
  5
2F5
330
22
100
AcDbEntity
  8
0
  6
Continuous
 62
     7
100
AcDbLine
 10
-467.8604125976563
 20
483.9600219726563
 30
0.0
 11
-467.5886535644531
 21
484.2317810058593
 31
0.0
  0
LINE
  5
2F6
330
22
100
AcDbEntity
  8
0
  6
Continuous
 62
     7
100
AcDbLine
 10
-462.8815307617188
 20
478.9811706542969
 30
0.0
 11
-465.0992126464843
 21
480.6611022949218
 31
0.0
  0
LINE
  5
2F7
330
22
100
AcDbEntity
  8
0
  6
Continuous
 62
     7
100
AcDbLine
 10
-462.3380126953125
 20
479.5246887207031
 30
0.0
 11
-464.0179748535156
 21
481.7423706054688
 31
0.0
  0
LINE
  5
2F8
330
22
100
AcDbEntity
  8
0
  6
Continuous
 62
     7
100
AcDbLine
 10
-544.0991821289063
 20
485.2423706054688
 30
0.0
 11
-544.0991821289063
 21
516.2423706054688
 31
0.0
  0
LINE
  5
2F9
330
22
100
AcDbEntity
  8
0
  6
Continuous
 62
     7
100
AcDbLine
 10
-489.0992126464843
 20
485.2423706054688
 30
0.0
 11
-489.0992126464843
 21
495.2423706054688
 31
0.0
  0
LINE
  5
2FA
330
22
100
AcDbEntity
  8
0
  6
Continuous
 62
     7
100
AcDbLine
 10
-489.0992126464843
 20
506.2423706054688
 30
0.0
 11
-489.0992126464843
 21
537.2423706054688
 31
0.0
  0
LINE
  5
2FB
330
22
100
AcDbEntity
  8
0
  6
Continuous
 62
     7
100
AcDbLine
 10
-494.0992126464843
 20
485.2423706054688
 30
0.0
 11
-494.0992126464843
 21
495.2423706054688
 31
0.0
  0
LINE
  5
2FC
330
22
100
AcDbEntity
  8
0
  6
Continuous
 62
     7
100
AcDbLine
 10
-484.0992126464843
 20
485.2423706054688
 30
0.0
 11
-484.0992126464843
 21
516.2423706054688
 31
0.0
  0
LINE
  5
2FD
330
22
100
AcDbEntity
  8
0
  6
Continuous
 62
     7
100
AcDbLine
 10
-494.0992126464843
 20
506.2423706054688
 30
0.0
 11
-494.0992126464843
 21
537.2423706054688
 31
0.0
  0
LINE
  5
2FE
330
22
100
AcDbEntity
  8
0
  6
Continuous
 62
     7
100
AcDbLine
 10
-474.0992126464844
 20
506.2423706054688
 30
0.0
 11
-474.0992126464844
 21
537.2423706054688
 31
0.0
  0
LINE
  5
2FF
330
22
100
AcDbEntity
  8
0
  6
Continuous
 62
     7
100
AcDbLine
 10
-474.0992126464844
 20
490.2423706054688
 30
0.0
 11
-474.0992126464844
 21
495.2423706054688
 31
0.0
  0
LINE
  5
300
330
22
100
AcDbEntity
  8
0
  6
Continuous
 62
     7
100
AcDbLine
 10
-479.0992126464844
 20
485.2423706054688
 30
0.0
 11
-479.0992126464844
 21
516.2423706054688
 31
0.0
  0
LINE
  5
301
330
22
100
AcDbEntity
  8
0
  6
Continuous
 62
     7
100
AcDbLine
 10
-467.8753967285156
 20
479.5101013183593
 30
0.0
 11
-466.1804504394531
 21
481.7423706054688
 31
0.0
  0
LINE
  5
302
330
22
100
AcDbEntity
  8
0
  6
Continuous
 62
     7
100
AcDbLine
 10
-462.3380126953125
 20
479.5246887207031
 30
0.0
 11
-462.6097717285156
 21
479.2529296875
 31
0.0
  0
LINE
  5
303
330
22
100
AcDbEntity
  8
0
  6
Continuous
 62
     7
100
AcDbLine
 10
-462.3380126953125
 20
479.5246887207031
 30
0.0
 11
-464.0179748535156
 21
481.7423706054688
 31
0.0
  0
LINE
  5
304
330
22
100
AcDbEntity
  8
0
  6
Continuous
 62
     7
100
AcDbLine
 10
-504.0992126464844
 20
485.2423706054688
 30
0.0
 11
-504.0992126464844
 21
516.2423706054688
 31
0.0
  0
LINE
  5
305
330
22
100
AcDbEntity
  8
0
  6
Continuous
 62
     7
100
AcDbLine
 10
-509.0992126464843
 20
485.2423706054688
 30
0.0
 11
-509.0992126464843
 21
495.2423706054688
 31
0.0
  0
LINE
  5
306
330
22
100
AcDbEntity
  8
0
  6
Continuous
 62
     7
100
AcDbLine
 10
-509.0992126464843
 20
506.2423706054688
 30
0.0
 11
-509.0992126464843
 21
537.2423706054688
 31
0.0
  0
LINE
  5
307
330
22
100
AcDbEntity
  8
0
  6
Continuous
 62
     7
100
AcDbLine
 10
-539.0991821289063
 20
485.2423706054688
 30
0.0
 11
-539.0991821289063
 21
516.2423706054688
 31
0.0
  0
LINE
  5
308
330
22
100
AcDbEntity
  8
0
  6
Continuous
 62
     7
100
AcDbLine
 10
-529.0991821289063
 20
485.2423706054688
 30
0.0
 11
-529.0991821289063
 21
495.2423706054688
 31
0.0
  0
LINE
  5
309
330
22
100
AcDbEntity
  8
0
  6
Continuous
 62
     7
100
AcDbLine
 10
-524.0991821289063
 20
485.2423706054688
 30
0.0
 11
-524.0991821289063
 21
516.2423706054688
 31
0.0
  0
LINE
  5
30A
330
22
100
AcDbEntity
  8
0
  6
Continuous
 62
     7
100
AcDbLine
 10
-519.0991821289063
 20
485.2423706054688
 30
0.0
 11
-519.0991821289063
 21
516.2423706054688
 31
0.0
  0
LINE
  5
30B
330
22
100
AcDbEntity
  8
0
  6
Continuous
 62
     7
100
AcDbLine
 10
-514.0991821289063
 20
485.2423706054688
 30
0.0
 11
-514.0991821289063
 21
495.2423706054688
 31
0.0
  0
LINE
  5
30C
330
22
100
AcDbEntity
  8
0
  6
Continuous
 62
     7
100
AcDbLine
 10
-534.0991821289064
 20
485.2423706054688
 30
0.0
 11
-534.0991821289064
 21
495.2423706054688
 31
0.0
  0
LINE
  5
30D
330
22
100
AcDbEntity
  8
0
  6
Continuous
 62
     7
100
AcDbLine
 10
-514.0991821289063
 20
506.2423706054688
 30
0.0
 11
-514.0991821289063
 21
537.2423706054688
 31
0.0
  0
LINE
  5
30E
330
22
100
AcDbEntity
  8
0
  6
Continuous
 62
     7
100
AcDbLine
 10
-529.0991821289063
 20
506.2423706054688
 30
0.0
 11
-529.0991821289063
 21
537.2423706054688
 31
0.0
  0
LINE
  5
30F
330
22
100
AcDbEntity
  8
0
  6
Continuous
 62
     7
100
AcDbLine
 10
-534.0991821289064
 20
506.2423706054688
 30
0.0
 11
-534.0991821289064
 21
537.2423706054688
 31
0.0
  0
LINE
  5
310
330
22
100
AcDbEntity
  8
0
  6
CENTER
 62
     7
100
AcDbLine
 10
-598.9196166992187
 20
737.7423706054687
 30
0.0
 11
-586.7487792968749
 21
737.7423706054687
 31
0.0
  0
LINE
  5
311
330
22
100
AcDbEntity
  8
0
  6
DASHED
 62
     7
100
AcDbLine
 10
-598.0991821289062
 20
737.7423706054687
 30
0.0
 11
-598.0991821289062
 21
739.2423706054687
 31
0.0
  0
LINE
  5
312
330
22
100
AcDbEntity
  8
0
  6
Continuous
 62
     7
100
AcDbLine
 10
-590.3380126953124
 20
735.524658203125
 30
0.0
 11
-592.0179443359375
 21
737.7423706054687
 31
0.0
  0
LINE
  5
313
330
22
100
AcDbEntity
  8
0
  6
Continuous
 62
     7
100
AcDbLine
 10
-590.8815307617187
 20
734.9811401367187
 30
0.0
 11
-593.0991821289062
 21
736.6611328124999
 31
0.0
  0
LINE
  5
314
330
22
100
AcDbEntity
  8
0
  6
Continuous
 62
     7
100
AcDbLine
 10
-595.8604125976562
 20
739.9600219726562
 30
0.0
 11
-595.588623046875
 21
740.2318115234375
 31
0.0
  0
LINE
  5
315
330
22
100
AcDbEntity
  8
0
  6
Continuous
 62
     7
100
AcDbLine
 10
-595.31689453125
 20
740.5035400390625
 30
0.0
 11
-595.588623046875
 21
740.2318115234375
 31
0.0
  0
LINE
  5
316
330
22
100
AcDbEntity
  8
0
  6
Continuous
 62
     7
100
AcDbLine
 10
-595.8604125976562
 20
739.9600219726562
 30
0.0
 11
-595.588623046875
 21
740.2318115234375
 31
0.0
  0
LINE
  5
317
330
22
100
AcDbEntity
  8
0
  6
Continuous
 62
     7
100
AcDbLine
 10
-590.3380126953124
 20
735.524658203125
 30
0.0
 11
-590.6098022460937
 21
735.2529296874999
 31
0.0
  0
LINE
  5
318
330
22
100
AcDbEntity
  8
0
  6
Continuous
 62
     7
100
AcDbLine
 10
-590.594970703125
 20
740.24658203125
 30
0.0
 11
-590.8669433593749
 21
740.5185546874999
 31
0.0
  0
LINE
  5
319
330
22
100
AcDbEntity
  8
0
  6
Continuous
 62
     7
100
AcDbLine
 10
-590.3380126953124
 20
735.524658203125
 30
0.0
 11
-590.6098022460937
 21
735.2529296874999
 31
0.0
  0
LINE
  5
31A
330
22
100
AcDbEntity
  8
0
  6
Continuous
 62
     7
100
AcDbLine
 10
-590.594970703125
 20
740.24658203125
 30
0.0
 11
-590.322998046875
 21
739.974609375
 31
0.0
  0
LINE
  5
31B
330
22
100
AcDbEntity
  8
0
  6
Continuous
 62
     7
100
AcDbLine
 10
-590.594970703125
 20
740.24658203125
 30
0.0
 11
-590.8669433593749
 21
740.5185546874999
 31
0.0
  0
LINE
  5
31C
330
22
100
AcDbEntity
  8
0
  6
Continuous
 62
     7
100
AcDbLine
 10
-590.594970703125
 20
740.24658203125
 30
0.0
 11
-590.322998046875
 21
739.974609375
 31
0.0
  0
LINE
  5
31D
330
22
100
AcDbEntity
  8
0
  6
DASHED
 62
     7
100
AcDbLine
 10
-588.0991821289062
 20
737.7423706054687
 30
0.0
 11
-588.0991821289062
 21
739.2423706054687
 31
0.0
  0
LINE
  5
31E
330
22
100
AcDbEntity
  8
0
  6
Continuous
 62
     7
100
AcDbLine
 10
-499.0992126464844
 20
485.2423706054688
 30
0.0
 11
-499.0992126464844
 21
516.2423706054688
 31
0.0
  0
LINE
  5
31F
330
22
100
AcDbEntity
  8
0
  6
Continuous
 62
     7
100
AcDbLine
 10
-595.8604125976562
 20
739.9600219726562
 30
0.0
 11
-594.1804809570312
 21
737.7423706054687
 31
0.0
  0
LINE
  5
320
330
22
100
AcDbEntity
  8
0
  6
Continuous
 62
     7
100
AcDbLine
 10
-595.31689453125
 20
740.5035400390625
 30
0.0
 11
-593.0991821289062
 21
738.8236083984375
 31
0.0
  0
LINE
  5
321
330
22
100
AcDbEntity
  8
0
  6
Continuous
 62
     7
100
AcDbLine
 10
-590.322998046875
 20
739.974609375
 30
0.0
 11
-592.0179443359375
 21
737.7423706054687
 31
0.0
  0
LINE
  5
322
330
22
100
AcDbEntity
  8
0
  6
Continuous
 62
     7
100
AcDbLine
 10
-590.322998046875
 20
739.974609375
 30
0.0
 11
-592.0179443359375
 21
737.7423706054687
 31
0.0
  0
LINE
  5
323
330
22
100
AcDbEntity
  8
0
  6
Continuous
 62
     7
100
AcDbLine
 10
-590.8815307617187
 20
734.9811401367187
 30
0.0
 11
-590.6098022460937
 21
735.2529296874999
 31
0.0
  0
LINE
  5
324
330
22
100
AcDbEntity
  8
0
  6
Continuous
 62
     7
100
AcDbLine
 10
-595.3314819335937
 20
734.9661865234375
 30
0.0
 11
-593.0991821289062
 21
736.6611328124999
 31
0.0
  0
LINE
  5
325
330
22
100
AcDbEntity
  8
0
  6
Continuous
 62
     7
100
AcDbLine
 10
-590.8815307617187
 20
734.9811401367187
 30
0.0
 11
-593.0991821289062
 21
736.6611328124999
 31
0.0
  0
LINE
  5
326
330
22
100
AcDbEntity
  8
0
  6
Continuous
 62
     7
100
AcDbLine
 10
-595.8604125976562
 20
739.9600219726562
 30
0.0
 11
-594.1804809570312
 21
737.7423706054687
 31
0.0
  0
LINE
  5
327
330
22
100
AcDbEntity
  8
0
  6
Continuous
 62
     7
100
AcDbLine
 10
-595.8754272460937
 20
735.5100708007812
 30
0.0
 11
-594.1804809570312
 21
737.7423706054687
 31
0.0
  0
LINE
  5
328
330
22
100
AcDbEntity
  8
0
  6
Continuous
 62
     7
100
AcDbLine
 10
-595.6034545898437
 20
735.2381591796874
 30
0.0
 11
-595.3314819335937
 21
734.9661865234375
 31
0.0
  0
LINE
  5
329
330
22
100
AcDbEntity
  8
0
  6
Continuous
 62
     7
100
AcDbLine
 10
-595.6034545898437
 20
735.2381591796874
 30
0.0
 11
-595.8754272460937
 21
735.5100708007812
 31
0.0
  0
LINE
  5
32A
330
22
100
AcDbEntity
  8
0
  6
Continuous
 62
     7
100
AcDbLine
 10
-595.6034545898437
 20
735.2381591796874
 30
0.0
 11
-595.8754272460937
 21
735.5100708007812
 31
0.0
  0
LINE
  5
32B
330
22
100
AcDbEntity
  8
0
  6
Continuous
 62
     7
100
AcDbLine
 10
-595.6034545898437
 20
735.2381591796874
 30
0.0
 11
-595.3314819335937
 21
734.9661865234375
 31
0.0
  0
LINE
  5
32C
330
22
100
AcDbEntity
  8
0
  6
Continuous
 62
     7
100
AcDbLine
 10
-590.8815307617187
 20
734.9811401367187
 30
0.0
 11
-590.6098022460937
 21
735.2529296874999
 31
0.0
  0
LINE
  5
32D
330
22
100
AcDbEntity
  8
0
  6
Continuous
 62
     7
100
AcDbLine
 10
-590.3380126953124
 20
735.524658203125
 30
0.0
 11
-592.0179443359375
 21
737.7423706054687
 31
0.0
  0
LINE
  5
32E
330
22
100
AcDbEntity
  8
0
  6
Continuous
 62
     7
100
AcDbLine
 10
-590.8669433593749
 20
740.5185546874999
 30
0.0
 11
-593.0991821289062
 21
738.8236083984375
 31
0.0
  0
LINE
  5
32F
330
22
100
AcDbEntity
  8
0
  6
Continuous
 62
     7
100
AcDbLine
 10
-595.31689453125
 20
740.5035400390625
 30
0.0
 11
-593.0991821289062
 21
738.8236083984375
 31
0.0
  0
LINE
  5
330
330
22
100
AcDbEntity
  8
0
  6
Continuous
 62
     7
100
AcDbLine
 10
-595.8754272460937
 20
735.5100708007812
 30
0.0
 11
-594.1804809570312
 21
737.7423706054687
 31
0.0
  0
LINE
  5
331
330
22
100
AcDbEntity
  8
0
  6
Continuous
 62
     7
100
AcDbLine
 10
-595.31689453125
 20
740.5035400390625
 30
0.0
 11
-595.588623046875
 21
740.2318115234375
 31
0.0
  0
LINE
  5
332
330
22
100
AcDbEntity
  8
0
  6
Continuous
 62
     7
100
AcDbLine
 10
-595.3314819335937
 20
734.9661865234375
 30
0.0
 11
-593.0991821289062
 21
736.6611328124999
 31
0.0
  0
LINE
  5
333
330
22
100
AcDbEntity
  8
0
  6
Continuous
 62
     7
100
AcDbLine
 10
-590.8669433593749
 20
740.5185546874999
 30
0.0
 11
-593.0991821289062
 21
738.8236083984375
 31
0.0
  0
LINE
  5
334
330
22
100
AcDbEntity
  8
0
  6
Continuous
 62
     7
100
AcDbLine
 10
-637.0991821289062
 20
713.2423706054687
 30
0.0
 11
-637.0991821289062
 21
682.2423706054687
 31
0.0
  0
LINE
  5
335
330
22
100
AcDbEntity
  8
0
  6
Continuous
 62
     7
100
AcDbLine
 10
-642.0991821289062
 20
692.2423706054687
 30
0.0
 11
-642.0991821289062
 21
661.2423706054687
 31
0.0
  0
LINE
  5
336
330
22
100
AcDbEntity
  8
0
  6
Continuous
 62
     7
100
AcDbLine
 10
-607.0991821289062
 20
692.2423706054687
 30
0.0
 11
-607.0991821289062
 21
661.2423706054687
 31
0.0
  0
LINE
  5
337
330
22
100
AcDbEntity
  8
0
  6
Continuous
 62
     7
100
AcDbLine
 10
-612.0991821289062
 20
713.2423706054687
 30
0.0
 11
-612.0991821289062
 21
682.2423706054687
 31
0.0
  0
LINE
  5
338
330
22
100
AcDbEntity
  8
0
  6
Continuous
 62
     7
100
AcDbLine
 10
-602.0991821289062
 20
692.2423706054687
 30
0.0
 11
-602.0991821289062
 21
661.2423706054687
 31
0.0
  0
LINE
  5
339
330
22
100
AcDbEntity
  8
0
  6
Continuous
 62
     7
100
AcDbLine
 10
-559.0991821289064
 20
692.2423706054687
 30
0.0
 11
-559.0991821289064
 21
661.2423706054687
 31
0.0
  0
LINE
  5
33A
330
22
100
AcDbEntity
  8
0
  6
Continuous
 62
     7
100
AcDbLine
 10
-564.0991821289062
 20
692.2423706054687
 30
0.0
 11
-564.0991821289062
 21
661.2423706054687
 31
0.0
  0
LINE
  5
33B
330
22
100
AcDbEntity
  8
0
  6
Continuous
 62
     7
100
AcDbLine
 10
-584.0991821289062
 20
692.2423706054687
 30
0.0
 11
-584.0991821289062
 21
661.2423706054687
 31
0.0
  0
LINE
  5
33C
330
22
100
AcDbEntity
  8
0
  6
Continuous
 62
     7
100
AcDbLine
 10
-579.0991821289062
 20
692.2423706054687
 30
0.0
 11
-579.0991821289062
 21
661.2423706054687
 31
0.0
  0
LINE
  5
33D
330
22
100
AcDbEntity
  8
0
  6
Continuous
 62
     7
100
AcDbLine
 10
-569.0991821289062
 20
713.2423706054687
 30
0.0
 11
-569.0991821289062
 21
682.2423706054687
 31
0.0
  0
LINE
  5
33E
330
22
100
AcDbEntity
  8
0
  6
Continuous
 62
     7
100
AcDbLine
 10
-574.0991821289062
 20
713.2423706054687
 30
0.0
 11
-574.0991821289062
 21
682.2423706054687
 31
0.0
  0
LINE
  5
33F
330
22
100
AcDbEntity
  8
0
  6
Continuous
 62
     7
100
AcDbLine
 10
-569.0991821289062
 20
671.2423706054687
 30
0.0
 11
-569.0991821289062
 21
639.91748046875
 31
0.0
  0
LINE
  5
340
330
22
100
AcDbEntity
  8
0
  6
Continuous
 62
     7
100
AcDbLine
 10
-574.0991821289062
 20
671.2423706054687
 30
0.0
 11
-574.0991821289062
 21
639.91748046875
 31
0.0
  0
LINE
  5
341
330
22
100
AcDbEntity
  8
0
  6
Continuous
 62
     7
100
AcDbLine
 10
-617.0991821289062
 20
713.2423706054687
 30
0.0
 11
-617.0991821289062
 21
682.2423706054687
 31
0.0
  0
LINE
  5
342
330
22
100
AcDbEntity
  8
0
  6
Continuous
 62
     7
100
AcDbLine
 10
-647.0991821289062
 20
692.2423706054687
 30
0.0
 11
-647.0991821289062
 21
661.2423706054687
 31
0.0
  0
LINE
  5
343
330
22
100
AcDbEntity
  8
0
  6
Continuous
 62
     7
100
AcDbLine
 10
-627.0991821289062
 20
692.2423706054687
 30
0.0
 11
-627.0991821289062
 21
661.2423706054687
 31
0.0
  0
LINE
  5
344
330
22
100
AcDbEntity
  8
0
  6
Continuous
 62
     7
100
AcDbLine
 10
-622.0991821289062
 20
692.2423706054687
 30
0.0
 11
-622.0991821289062
 21
661.2423706054687
 31
0.0
  0
LINE
  5
345
330
22
100
AcDbEntity
  8
0
  6
Continuous
 62
     7
100
AcDbLine
 10
-667.0991821289062
 20
692.2423706054687
 30
0.0
 11
-667.0991821289062
 21
661.2423706054687
 31
0.0
  0
LINE
  5
346
330
22
100
AcDbEntity
  8
0
  6
Continuous
 62
     7
100
AcDbLine
 10
-662.0991821289062
 20
692.2423706054687
 30
0.0
 11
-662.0991821289062
 21
661.2423706054687
 31
0.0
  0
LINE
  5
347
330
22
100
AcDbEntity
  8
0
  6
Continuous
 62
     7
100
AcDbLine
 10
-652.0991821289062
 20
713.2423706054687
 30
0.0
 11
-652.0991821289062
 21
682.2423706054687
 31
0.0
  0
LINE
  5
348
330
22
100
AcDbEntity
  8
0
  6
Continuous
 62
     7
100
AcDbLine
 10
-657.0991821289062
 20
713.2423706054687
 30
0.0
 11
-657.0991821289062
 21
682.2423706054687
 31
0.0
  0
LINE
  5
349
330
22
100
AcDbEntity
  8
0
  6
Continuous
 62
     7
100
AcDbLine
 10
-672.0991821289062
 20
713.2423706054687
 30
0.0
 11
-672.0991821289062
 21
682.2423706054687
 31
0.0
  0
LINE
  5
34A
330
22
100
AcDbEntity
  8
0
  6
Continuous
 62
     7
100
AcDbLine
 10
-632.0991821289062
 20
713.2423706054687
 30
0.0
 11
-632.0991821289062
 21
682.2423706054687
 31
0.0
  0
LINE
  5
34B
330
22
100
AcDbEntity
  8
0
  6
CENTER
 62
     7
100
AcDbLine
 10
-726.9196166992188
 20
737.7423706054687
 30
0.0
 11
-714.748779296875
 21
737.7423706054687
 31
0.0
  0
LINE
  5
34C
330
22
100
AcDbEntity
  8
0
  6
DASHED
 62
     7
100
AcDbLine
 10
-716.0991821289062
 20
737.7423706054687
 30
0.0
 11
-716.0991821289062
 21
739.2423706054687
 31
0.0
  0
LINE
  5
34D
330
22
100
AcDbEntity
  8
0
  6
Continuous
 62
     7
100
AcDbLine
 10
-617.0991821289062
 20
671.2423706054687
 30
0.0
 11
-617.0991821289062
 21
639.91748046875
 31
0.0
  0
LINE
  5
34E
330
22
100
AcDbEntity
  8
0
  6
Continuous
 62
     7
100
AcDbLine
 10
-632.0991821289062
 20
671.2423706054687
 30
0.0
 11
-632.0991821289062
 21
639.91748046875
 31
0.0
  0
LINE
  5
34F
330
22
100
AcDbEntity
  8
0
  6
Continuous
 62
     7
100
AcDbLine
 10
-652.0991821289062
 20
671.2423706054687
 30
0.0
 11
-652.0991821289062
 21
639.91748046875
 31
0.0
  0
LINE
  5
350
330
22
100
AcDbEntity
  8
0
  6
Continuous
 62
     7
100
AcDbLine
 10
-672.0991821289062
 20
671.2423706054687
 30
0.0
 11
-672.0991821289062
 21
639.91748046875
 31
0.0
  0
LINE
  5
351
330
22
100
AcDbEntity
  8
0
  6
Continuous
 62
     7
100
AcDbLine
 10
-657.0991821289062
 20
671.2423706054687
 30
0.0
 11
-657.0991821289062
 21
639.91748046875
 31
0.0
  0
LINE
  5
352
330
22
100
AcDbEntity
  8
0
  6
Continuous
 62
     7
100
AcDbLine
 10
-637.0991821289062
 20
671.2423706054687
 30
0.0
 11
-637.0991821289062
 21
639.91748046875
 31
0.0
  0
LINE
  5
353
330
22
100
AcDbEntity
  8
0
  6
Continuous
 62
     7
100
AcDbLine
 10
-612.0991821289062
 20
671.2423706054687
 30
0.0
 11
-612.0991821289062
 21
639.91748046875
 31
0.0
  0
LINE
  5
354
330
22
100
AcDbEntity
  8
0
  6
Continuous
 62
     7
100
AcDbLine
 10
-723.8754272460937
 20
735.53564453125
 30
0.0
 11
-722.1804809570312
 21
737.7678833007812
 31
0.0
  0
LINE
  5
355
330
22
100
AcDbEntity
  8
0
  6
Continuous
 62
     7
100
AcDbLine
 10
-718.3380126953125
 20
735.5502319335937
 30
0.0
 11
-718.6098022460937
 21
735.2784423828125
 31
0.0
  0
LINE
  5
356
330
22
100
AcDbEntity
  8
0
  6
Continuous
 62
     7
100
AcDbLine
 10
-723.31689453125
 20
740.5290527343749
 30
0.0
 11
-721.0991821289062
 21
738.84912109375
 31
0.0
  0
LINE
  5
357
330
22
100
AcDbEntity
  8
0
  6
Continuous
 62
     7
100
AcDbLine
 10
-718.594970703125
 20
740.2720947265625
 30
0.0
 11
-718.866943359375
 21
740.5440673828125
 31
0.0
  0
LINE
  5
358
330
22
100
AcDbEntity
  8
0
  6
Continuous
 62
     7
100
AcDbLine
 10
-718.866943359375
 20
740.5440673828125
 30
0.0
 11
-721.0991821289062
 21
738.84912109375
 31
0.0
  0
LINE
  5
359
330
22
100
AcDbEntity
  8
0
  6
Continuous
 62
     7
100
AcDbLine
 10
-718.3380126953125
 20
735.5502319335937
 30
0.0
 11
-720.0179443359375
 21
737.7678833007812
 31
0.0
  0
LINE
  5
35A
330
22
100
AcDbEntity
  8
0
  6
Continuous
 62
     7
100
AcDbLine
 10
-718.3380126953125
 20
735.5502319335937
 30
0.0
 11
-718.6098022460937
 21
735.2784423828125
 31
0.0
  0
LINE
  5
35B
330
22
100
AcDbEntity
  8
0
  6
Continuous
 62
     7
100
AcDbLine
 10
-718.8815307617187
 20
735.0067138671875
 30
0.0
 11
-718.6098022460937
 21
735.2784423828125
 31
0.0
  0
LINE
  5
35C
330
22
100
AcDbEntity
  8
0
  6
Continuous
 62
     7
100
AcDbLine
 10
-723.6034545898437
 20
735.263671875
 30
0.0
 11
-723.3314819335937
 21
734.99169921875
 31
0.0
  0
LINE
  5
35D
330
22
100
AcDbEntity
  8
0
  6
Continuous
 62
     7
100
AcDbLine
 10
-723.6034545898437
 20
735.263671875
 30
0.0
 11
-723.8754272460937
 21
735.53564453125
 31
0.0
  0
LINE
  5
35E
330
22
100
AcDbEntity
  8
0
  6
Continuous
 62
     7
100
AcDbLine
 10
-723.6034545898437
 20
735.263671875
 30
0.0
 11
-723.8754272460937
 21
735.53564453125
 31
0.0
  0
LINE
  5
35F
330
22
100
AcDbEntity
  8
0
  6
Continuous
 62
     7
100
AcDbLine
 10
-723.8604125976562
 20
739.9855346679687
 30
0.0
 11
-722.1804809570312
 21
737.7678833007812
 31
0.0
  0
LINE
  5
360
330
22
100
AcDbEntity
  8
0
  6
Continuous
 62
     7
100
AcDbLine
 10
-718.8815307617187
 20
735.0067138671875
 30
0.0
 11
-721.0991821289062
 21
736.6866455078125
 31
0.0
  0
LINE
  5
361
330
22
100
AcDbEntity
  8
0
  6
Continuous
 62
     7
100
AcDbLine
 10
-723.3314819335937
 20
734.99169921875
 30
0.0
 11
-721.0991821289062
 21
736.6866455078125
 31
0.0
  0
LINE
  5
362
330
22
100
AcDbEntity
  8
0
  6
Continuous
 62
     7
100
AcDbLine
 10
-718.8815307617187
 20
735.0067138671875
 30
0.0
 11
-718.6098022460937
 21
735.2784423828125
 31
0.0
  0
LINE
  5
363
330
22
100
AcDbEntity
  8
0
  6
Continuous
 62
     7
100
AcDbLine
 10
-718.322998046875
 20
740.0001220703124
 30
0.0
 11
-720.0179443359375
 21
737.7678833007812
 31
0.0
  0
LINE
  5
364
330
22
100
AcDbEntity
  8
0
  6
Continuous
 62
     7
100
AcDbLine
 10
-718.594970703125
 20
740.2720947265625
 30
0.0
 11
-718.322998046875
 21
740.0001220703124
 31
0.0
  0
LINE
  5
365
330
22
100
AcDbEntity
  8
0
  6
Continuous
 62
     7
100
AcDbLine
 10
-718.322998046875
 20
740.0001220703124
 30
0.0
 11
-720.0179443359375
 21
737.7678833007812
 31
0.0
  0
LINE
  5
366
330
22
100
AcDbEntity
  8
0
  6
DASHED
 62
     7
100
AcDbLine
 10
-721.0991821289062
 20
732.7423706054688
 30
0.0
 11
-722.5991821289063
 21
732.7423706054688
 31
0.0
  0
LINE
  5
367
330
22
100
AcDbEntity
  8
0
  6
CENTER
 62
     7
100
AcDbLine
 10
-721.0991821289062
 20
743.4564208984375
 30
0.0
 11
-721.0991821289062
 21
732.079345703125
 31
0.0
  0
LINE
  5
368
330
22
100
AcDbEntity
  8
0
  6
Continuous
 62
     7
100
AcDbLine
 10
-723.31689453125
 20
740.5290527343749
 30
0.0
 11
-723.588623046875
 21
740.25732421875
 31
0.0
  0
LINE
  5
369
330
22
100
AcDbEntity
  8
0
  6
Continuous
 62
     7
100
AcDbLine
 10
-712.0991821289062
 20
713.2423706054687
 30
0.0
 11
-712.0991821289062
 21
682.2423706054687
 31
0.0
  0
LINE
  5
36A
330
22
100
AcDbEntity
  8
0
  6
Continuous
 62
     7
100
AcDbLine
 10
-682.0991821289062
 20
692.2423706054687
 30
0.0
 11
-682.0991821289062
 21
661.2423706054687
 31
0.0
  0
LINE
  5
36B
330
22
100
AcDbEntity
  8
0
  6
Continuous
 62
     7
100
AcDbLine
 10
-687.0991821289062
 20
692.2423706054687
 30
0.0
 11
-687.0991821289062
 21
661.2423706054687
 31
0.0
  0
LINE
  5
36C
330
22
100
AcDbEntity
  8
0
  6
Continuous
 62
     7
100
AcDbLine
 10
-692.0991821289062
 20
713.2423706054687
 30
0.0
 11
-692.0991821289062
 21
682.2423706054687
 31
0.0
  0
LINE
  5
36D
330
22
100
AcDbEntity
  8
0
  6
Continuous
 62
     7
100
AcDbLine
 10
-723.6034545898437
 20
735.263671875
 30
0.0
 11
-723.3314819335937
 21
734.99169921875
 31
0.0
  0
LINE
  5
36E
330
22
100
AcDbEntity
  8
0
  6
Continuous
 62
     7
100
AcDbLine
 10
-723.8754272460937
 20
735.53564453125
 30
0.0
 11
-722.1804809570312
 21
737.7678833007812
 31
0.0
  0
LINE
  5
36F
330
22
100
AcDbEntity
  8
0
  6
Continuous
 62
     7
100
AcDbLine
 10
-718.594970703125
 20
740.2720947265625
 30
0.0
 11
-718.866943359375
 21
740.5440673828125
 31
0.0
  0
LINE
  5
370
330
22
100
AcDbEntity
  8
0
  6
Continuous
 62
     7
100
AcDbLine
 10
-723.31689453125
 20
740.5290527343749
 30
0.0
 11
-721.0991821289062
 21
738.84912109375
 31
0.0
  0
LINE
  5
371
330
22
100
AcDbEntity
  8
0
  6
Continuous
 62
     7
100
AcDbLine
 10
-723.8604125976562
 20
739.9855346679687
 30
0.0
 11
-722.1804809570312
 21
737.7678833007812
 31
0.0
  0
LINE
  5
372
330
22
100
AcDbEntity
  8
0
  6
Continuous
 62
     7
100
AcDbLine
 10
-723.8604125976562
 20
739.9855346679687
 30
0.0
 11
-723.588623046875
 21
740.25732421875
 31
0.0
  0
LINE
  5
373
330
22
100
AcDbEntity
  8
0
  6
Continuous
 62
     7
100
AcDbLine
 10
-723.31689453125
 20
740.5290527343749
 30
0.0
 11
-723.588623046875
 21
740.25732421875
 31
0.0
  0
LINE
  5
374
330
22
100
AcDbEntity
  8
0
  6
Continuous
 62
     7
100
AcDbLine
 10
-723.8604125976562
 20
739.9855346679687
 30
0.0
 11
-723.588623046875
 21
740.25732421875
 31
0.0
  0
LINE
  5
375
330
22
100
AcDbEntity
  8
0
  6
Continuous
 62
     7
100
AcDbLine
 10
-718.8815307617187
 20
735.0067138671875
 30
0.0
 11
-721.0991821289062
 21
736.6866455078125
 31
0.0
  0
LINE
  5
376
330
22
100
AcDbEntity
  8
0
  6
Continuous
 62
     7
100
AcDbLine
 10
-718.3380126953125
 20
735.5502319335937
 30
0.0
 11
-720.0179443359375
 21
737.7678833007812
 31
0.0
  0
LINE
  5
377
330
22
100
AcDbEntity
  8
0
  6
Continuous
 62
     7
100
AcDbLine
 10
-718.594970703125
 20
740.2720947265625
 30
0.0
 11
-718.322998046875
 21
740.0001220703124
 31
0.0
  0
LINE
  5
378
330
22
100
AcDbEntity
  8
0
  6
Continuous
 62
     7
100
AcDbLine
 10
-718.866943359375
 20
740.5440673828125
 30
0.0
 11
-721.0991821289062
 21
738.84912109375
 31
0.0
  0
LINE
  5
379
330
22
100
AcDbEntity
  8
0
  6
Continuous
 62
     7
100
AcDbLine
 10
-723.3314819335937
 20
734.99169921875
 30
0.0
 11
-721.0991821289062
 21
736.6866455078125
 31
0.0
  0
LINE
  5
37A
330
22
100
AcDbEntity
  8
0
  6
Continuous
 62
     7
100
AcDbLine
 10
-559.0991821289064
 20
569.2423706054687
 30
0.0
 11
-559.0991821289064
 21
600.2423706054687
 31
0.0
  0
LINE
  5
37B
330
22
100
AcDbEntity
  8
0
  6
Continuous
 62
     7
100
AcDbLine
 10
-697.0991821289062
 20
671.2423706054687
 30
0.0
 11
-697.0991821289062
 21
639.91748046875
 31
0.0
  0
LINE
  5
37C
330
22
100
AcDbEntity
  8
0
  6
Continuous
 62
     7
100
AcDbLine
 10
-717.0991821289062
 20
671.2423706054687
 30
0.0
 11
-717.0991821289062
 21
639.91748046875
 31
0.0
  0
LINE
  5
37D
330
22
100
AcDbEntity
  8
0
  6
Continuous
 62
     7
100
AcDbLine
 10
-712.0991821289062
 20
671.2423706054687
 30
0.0
 11
-712.0991821289062
 21
639.91748046875
 31
0.0
  0
LINE
  5
37E
330
22
100
AcDbEntity
  8
0
  6
Continuous
 62
     7
100
AcDbLine
 10
-692.0991821289062
 20
671.2423706054687
 30
0.0
 11
-692.0991821289062
 21
639.91748046875
 31
0.0
  0
LINE
  5
37F
330
22
100
AcDbEntity
  8
0
  6
Continuous
 62
     7
100
AcDbLine
 10
-702.0991821289062
 20
692.2423706054687
 30
0.0
 11
-702.0991821289062
 21
661.2423706054687
 31
0.0
  0
LINE
  5
380
330
22
100
AcDbEntity
  8
0
  6
Continuous
 62
     7
100
AcDbLine
 10
-707.0991821289062
 20
692.2423706054687
 30
0.0
 11
-707.0991821289062
 21
661.2423706054687
 31
0.0
  0
LINE
  5
381
330
22
100
AcDbEntity
  8
0
  6
Continuous
 62
     7
100
AcDbLine
 10
-697.0991821289062
 20
713.2423706054687
 30
0.0
 11
-697.0991821289062
 21
682.2423706054687
 31
0.0
  0
LINE
  5
382
330
22
100
AcDbEntity
  8
0
  6
Continuous
 62
     7
100
AcDbLine
 10
-717.0991821289062
 20
713.2423706054687
 30
0.0
 11
-717.0991821289062
 21
682.2423706054687
 31
0.0
  0
LINE
  5
383
330
22
100
AcDbEntity
  8
0
  6
Continuous
 62
     7
100
AcDbLine
 10
-612.0991821289062
 20
590.5671997070312
 30
0.0
 11
-612.0991821289062
 21
600.2423706054687
 31
0.0
  0
LINE
  5
384
330
22
100
AcDbEntity
  8
0
  6
Continuous
 62
     7
100
AcDbLine
 10
-607.0991821289062
 20
569.2423706054687
 30
0.0
 11
-607.0991821289062
 21
600.2423706054687
 31
0.0
  0
LINE
  5
385
330
22
100
AcDbEntity
  8
0
  6
Continuous
 62
     7
100
AcDbLine
 10
-602.0991821289062
 20
569.2423706054687
 30
0.0
 11
-602.0991821289062
 21
600.2423706054687
 31
0.0
  0
LINE
  5
386
330
22
100
AcDbEntity
  8
0
  6
Continuous
 62
     7
100
AcDbLine
 10
-569.0991821289062
 20
590.2423706054687
 30
0.0
 11
-569.0991821289062
 21
600.2423706054687
 31
0.0
  0
LINE
  5
387
330
22
100
AcDbEntity
  8
0
  6
Continuous
 62
     7
100
AcDbLine
 10
-579.0991821289062
 20
569.2423706054687
 30
0.0
 11
-579.0991821289062
 21
600.2423706054687
 31
0.0
  0
LINE
  5
388
330
22
100
AcDbEntity
  8
0
  6
Continuous
 62
     7
100
AcDbLine
 10
-584.0991821289062
 20
569.2423706054687
 30
0.0
 11
-584.0991821289062
 21
600.2423706054687
 31
0.0
  0
LINE
  5
389
330
22
100
AcDbEntity
  8
0
  6
Continuous
 62
     7
100
AcDbLine
 10
-564.0991821289062
 20
569.2423706054687
 30
0.0
 11
-564.0991821289062
 21
600.2423706054687
 31
0.0
  0
LINE
  5
38A
330
22
100
AcDbEntity
  8
0
  6
Continuous
 62
     7
100
AcDbLine
 10
-574.0991821289062
 20
590.2423706054687
 30
0.0
 11
-574.0991821289062
 21
600.2423706054687
 31
0.0
  0
LINE
  5
38B
330
22
100
AcDbEntity
  8
0
  6
Continuous
 62
     7
100
AcDbLine
 10
-642.0991821289062
 20
569.2423706054687
 30
0.0
 11
-642.0991821289062
 21
600.2423706054687
 31
0.0
  0
LINE
  5
38C
330
22
100
AcDbEntity
  8
0
  6
Continuous
 62
     7
100
AcDbLine
 10
-632.0991821289062
 20
590.5671997070312
 30
0.0
 11
-632.0991821289062
 21
600.2423706054687
 31
0.0
  0
LINE
  5
38D
330
22
100
AcDbEntity
  8
0
  6
Continuous
 62
     7
100
AcDbLine
 10
-667.0991821289062
 20
569.2423706054687
 30
0.0
 11
-667.0991821289062
 21
600.2423706054687
 31
0.0
  0
LINE
  5
38E
330
22
100
AcDbEntity
  8
0
  6
Continuous
 62
     7
100
AcDbLine
 10
-662.0991821289062
 20
569.2423706054687
 30
0.0
 11
-662.0991821289062
 21
600.2423706054687
 31
0.0
  0
LINE
  5
38F
330
22
100
AcDbEntity
  8
0
  6
Continuous
 62
     7
100
AcDbLine
 10
-647.0991821289062
 20
569.2423706054687
 30
0.0
 11
-647.0991821289062
 21
600.2423706054687
 31
0.0
  0
LINE
  5
390
330
22
100
AcDbEntity
  8
0
  6
Continuous
 62
     7
100
AcDbLine
 10
-652.0991821289062
 20
590.5671997070312
 30
0.0
 11
-652.0991821289062
 21
600.2423706054687
 31
0.0
  0
LINE
  5
391
330
22
100
AcDbEntity
  8
0
  6
Continuous
 62
     7
100
AcDbLine
 10
-657.0991821289062
 20
590.5671997070312
 30
0.0
 11
-657.0991821289062
 21
600.2423706054687
 31
0.0
  0
LINE
  5
392
330
22
100
AcDbEntity
  8
0
  6
Continuous
 62
     7
100
AcDbLine
 10
-622.0991821289062
 20
569.2423706054687
 30
0.0
 11
-622.0991821289062
 21
600.2423706054687
 31
0.0
  0
LINE
  5
393
330
22
100
AcDbEntity
  8
0
  6
Continuous
 62
     7
100
AcDbLine
 10
-627.0991821289062
 20
569.2423706054687
 30
0.0
 11
-627.0991821289062
 21
600.2423706054687
 31
0.0
  0
LINE
  5
394
330
22
100
AcDbEntity
  8
0
  6
Continuous
 62
     7
100
AcDbLine
 10
-637.0991821289062
 20
590.5671997070312
 30
0.0
 11
-637.0991821289062
 21
600.2423706054687
 31
0.0
  0
LINE
  5
395
330
22
100
AcDbEntity
  8
0
  6
Continuous
 62
     7
100
AcDbLine
 10
-672.0991821289062
 20
590.5671997070312
 30
0.0
 11
-672.0991821289062
 21
600.2423706054687
 31
0.0
  0
LINE
  5
396
330
22
100
AcDbEntity
  8
0
  6
Continuous
 62
     7
100
AcDbLine
 10
-559.0991821289064
 20
485.2423706054688
 30
0.0
 11
-559.0991821289064
 21
516.2423706054688
 31
0.0
  0
LINE
  5
397
330
22
100
AcDbEntity
  8
0
  6
Continuous
 62
     7
100
AcDbLine
 10
-617.0991821289062
 20
590.5671997070312
 30
0.0
 11
-617.0991821289062
 21
600.2423706054687
 31
0.0
  0
LINE
  5
398
330
22
100
AcDbEntity
  8
0
  6
Continuous
 62
     7
100
AcDbLine
 10
-617.0991821289062
 20
628.9174804687499
 30
0.0
 11
-617.0991821289062
 21
619.2423706054687
 31
0.0
  0
LINE
  5
399
330
22
100
AcDbEntity
  8
0
  6
Continuous
 62
     7
100
AcDbLine
 10
-637.0991821289062
 20
628.9174804687499
 30
0.0
 11
-637.0991821289062
 21
619.2423706054687
 31
0.0
  0
LINE
  5
39A
330
22
100
AcDbEntity
  8
0
  6
Continuous
 62
     7
100
AcDbLine
 10
-652.0991821289062
 20
628.9174804687499
 30
0.0
 11
-652.0991821289062
 21
619.2423706054687
 31
0.0
  0
LINE
  5
39B
330
22
100
AcDbEntity
  8
0
  6
Continuous
 62
     7
100
AcDbLine
 10
-672.0991821289062
 20
628.9174804687499
 30
0.0
 11
-672.0991821289062
 21
619.2423706054687
 31
0.0
  0
LINE
  5
39C
330
22
100
AcDbEntity
  8
0
  6
Continuous
 62
     7
100
AcDbLine
 10
-657.0991821289062
 20
628.9174804687499
 30
0.0
 11
-657.0991821289062
 21
619.2423706054687
 31
0.0
  0
LINE
  5
39D
330
22
100
AcDbEntity
  8
0
  6
Continuous
 62
     7
100
AcDbLine
 10
-632.0991821289062
 20
628.9174804687499
 30
0.0
 11
-632.0991821289062
 21
619.2423706054687
 31
0.0
  0
LINE
  5
39E
330
22
100
AcDbEntity
  8
0
  6
Continuous
 62
     7
100
AcDbLine
 10
-574.0991821289062
 20
628.9174804687499
 30
0.0
 11
-574.0991821289062
 21
619.2423706054687
 31
0.0
  0
LINE
  5
39F
330
22
100
AcDbEntity
  8
0
  6
Continuous
 62
     7
100
AcDbLine
 10
-569.0991821289062
 20
628.9174804687499
 30
0.0
 11
-569.0991821289062
 21
619.2423706054687
 31
0.0
  0
LINE
  5
3A0
330
22
100
AcDbEntity
  8
0
  6
Continuous
 62
     7
100
AcDbLine
 10
-612.0991821289062
 20
628.9174804687499
 30
0.0
 11
-612.0991821289062
 21
619.2423706054687
 31
0.0
  0
LINE
  5
3A1
330
22
100
AcDbEntity
  8
0
  6
Continuous
 62
     7
100
AcDbLine
 10
-595.31689453125
 20
484.5035705566406
 30
0.0
 11
-593.0991821289062
 21
482.8236083984375
 31
0.0
  0
LINE
  5
3A2
330
22
100
AcDbEntity
  8
0
  6
Continuous
 62
     7
100
AcDbLine
 10
-595.8604125976562
 20
483.9600219726563
 30
0.0
 11
-594.1804809570312
 21
481.7423706054688
 31
0.0
  0
LINE
  5
3A3
330
22
100
AcDbEntity
  8
0
  6
Continuous
 62
     7
100
AcDbLine
 10
-590.594970703125
 20
484.24658203125
 30
0.0
 11
-590.8669433593749
 21
484.5185546875
 31
0.0
  0
LINE
  5
3A4
330
22
100
AcDbEntity
  8
0
  6
Continuous
 62
     7
100
AcDbLine
 10
-590.594970703125
 20
484.24658203125
 30
0.0
 11
-590.322998046875
 21
483.974609375
 31
0.0
  0
LINE
  5
3A5
330
22
100
AcDbEntity
  8
0
  6
Continuous
 62
     7
100
AcDbLine
 10
-590.594970703125
 20
484.24658203125
 30
0.0
 11
-590.8669433593749
 21
484.5185546875
 31
0.0
  0
LINE
  5
3A6
330
22
100
AcDbEntity
  8
0
  6
Continuous
 62
     7
100
AcDbLine
 10
-574.0991821289062
 20
506.2423706054688
 30
0.0
 11
-574.0991821289062
 21
537.2423706054688
 31
0.0
  0
LINE
  5
3A7
330
22
100
AcDbEntity
  8
0
  6
Continuous
 62
     7
100
AcDbLine
 10
-574.0991821289062
 20
485.2423706054688
 30
0.0
 11
-574.0991821289062
 21
495.2423706054688
 31
0.0
  0
LINE
  5
3A8
330
22
100
AcDbEntity
  8
0
  6
Continuous
 62
     7
100
AcDbLine
 10
-569.0991821289062
 20
506.2423706054688
 30
0.0
 11
-569.0991821289062
 21
537.2423706054688
 31
0.0
  0
LINE
  5
3A9
330
22
100
AcDbEntity
  8
0
  6
Continuous
 62
     7
100
AcDbLine
 10
-569.0991821289062
 20
485.2423706054688
 30
0.0
 11
-569.0991821289062
 21
495.2423706054688
 31
0.0
  0
LINE
  5
3AA
330
22
100
AcDbEntity
  8
0
  6
Continuous
 62
     7
100
AcDbLine
 10
-579.0991821289062
 20
485.2423706054688
 30
0.0
 11
-579.0991821289062
 21
516.2423706054688
 31
0.0
  0
LINE
  5
3AB
330
22
100
AcDbEntity
  8
0
  6
Continuous
 62
     7
100
AcDbLine
 10
-584.0991821289062
 20
485.2423706054688
 30
0.0
 11
-584.0991821289062
 21
516.2423706054688
 31
0.0
  0
LINE
  5
3AC
330
22
100
AcDbEntity
  8
0
  6
Continuous
 62
     7
100
AcDbLine
 10
-564.0991821289062
 20
485.2423706054688
 30
0.0
 11
-564.0991821289062
 21
516.2423706054688
 31
0.0
  0
LINE
  5
3AD
330
22
100
AcDbEntity
  8
0
  6
Continuous
 62
     7
100
AcDbLine
 10
-590.594970703125
 20
484.24658203125
 30
0.0
 11
-590.322998046875
 21
483.974609375
 31
0.0
  0
LINE
  5
3AE
330
22
100
AcDbEntity
  8
0
  6
Continuous
 62
     7
100
AcDbLine
 10
-590.3380126953124
 20
479.5246887207031
 30
0.0
 11
-590.6098022460937
 21
479.2529296875
 31
0.0
  0
LINE
  5
3AF
330
22
100
AcDbEntity
  8
0
  6
Continuous
 62
     7
100
AcDbLine
 10
-590.3380126953124
 20
479.5246887207031
 30
0.0
 11
-590.6098022460937
 21
479.2529296875
 31
0.0
  0
LINE
  5
3B0
330
22
100
AcDbEntity
  8
0
  6
DASHED
 62
     7
100
AcDbLine
 10
-588.0991821289062
 20
481.7423706054688
 30
0.0
 11
-588.0991821289062
 21
480.2423706054688
 31
0.0
  0
LINE
  5
3B1
330
22
100
AcDbEntity
  8
0
  6
Continuous
 62
     7
100
AcDbLine
 10
-590.8669433593749
 20
484.5185546875
 30
0.0
 11
-593.0991821289062
 21
482.8236083984375
 31
0.0
  0
LINE
  5
3B2
330
22
100
AcDbEntity
  8
0
  6
Continuous
 62
     7
100
AcDbLine
 10
-590.3380126953124
 20
479.5246887207031
 30
0.0
 11
-592.0179443359375
 21
481.7423706054688
 31
0.0
  0
LINE
  5
3B3
330
22
100
AcDbEntity
  8
0
  6
Continuous
 62
     7
100
AcDbLine
 10
-590.8815307617187
 20
478.9811706542969
 30
0.0
 11
-590.6098022460937
 21
479.2529296875
 31
0.0
  0
LINE
  5
3B4
330
22
100
AcDbEntity
  8
0
  6
Continuous
 62
     7
100
AcDbLine
 10
-595.6034545898437
 20
479.2381286621093
 30
0.0
 11
-595.3314819335937
 21
478.9661560058593
 31
0.0
  0
LINE
  5
3B5
330
22
100
AcDbEntity
  8
0
  6
Continuous
 62
     7
100
AcDbLine
 10
-595.6034545898437
 20
479.2381286621093
 30
0.0
 11
-595.8754272460937
 21
479.5101013183593
 31
0.0
  0
LINE
  5
3B6
330
22
100
AcDbEntity
  8
0
  6
Continuous
 62
     7
100
AcDbLine
 10
-595.6034545898437
 20
479.2381286621093
 30
0.0
 11
-595.8754272460937
 21
479.5101013183593
 31
0.0
  0
LINE
  5
3B7
330
22
100
AcDbEntity
  8
0
  6
Continuous
 62
     7
100
AcDbLine
 10
-595.31689453125
 20
484.5035705566406
 30
0.0
 11
-593.0991821289062
 21
482.8236083984375
 31
0.0
  0
LINE
  5
3B8
330
22
100
AcDbEntity
  8
0
  6
Continuous
 62
     7
100
AcDbLine
 10
-595.6034545898437
 20
479.2381286621093
 30
0.0
 11
-595.3314819335937
 21
478.9661560058593
 31
0.0
  0
LINE
  5
3B9
330
22
100
AcDbEntity
  8
0
  6
Continuous
 62
     7
100
AcDbLine
 10
-595.8754272460937
 20
479.5101013183593
 30
0.0
 11
-594.1804809570312
 21
481.7423706054688
 31
0.0
  0
LINE
  5
3BA
330
22
100
AcDbEntity
  8
0
  6
Continuous
 62
     7
100
AcDbLine
 10
-595.8604125976562
 20
483.9600219726563
 30
0.0
 11
-594.1804809570312
 21
481.7423706054688
 31
0.0
  0
LINE
  5
3BB
330
22
100
AcDbEntity
  8
0
  6
Continuous
 62
     7
100
AcDbLine
 10
-590.8815307617187
 20
478.9811706542969
 30
0.0
 11
-593.0991821289062
 21
480.6611022949218
 31
0.0
  0
LINE
  5
3BC
330
22
100
AcDbEntity
  8
0
  6
Continuous
 62
     7
100
AcDbLine
 10
-595.3314819335937
 20
478.9661560058593
 30
0.0
 11
-593.0991821289062
 21
480.6611022949218
 31
0.0
  0
LINE
  5
3BD
330
22
100
AcDbEntity
  8
0
  6
Continuous
 62
     7
100
AcDbLine
 10
-590.8815307617187
 20
478.9811706542969
 30
0.0
 11
-590.6098022460937
 21
479.2529296875
 31
0.0
  0
LINE
  5
3BE
330
22
100
AcDbEntity
  8
0
  6
Continuous
 62
     7
100
AcDbLine
 10
-590.322998046875
 20
483.974609375
 30
0.0
 11
-592.0179443359375
 21
481.7423706054688
 31
0.0
  0
LINE
  5
3BF
330
22
100
AcDbEntity
  8
0
  6
Continuous
 62
     7
100
AcDbLine
 10
-612.0991821289062
 20
485.2423706054688
 30
0.0
 11
-612.0991821289062
 21
495.2423706054688
 31
0.0
  0
LINE
  5
3C0
330
22
100
AcDbEntity
  8
0
  6
Continuous
 62
     7
100
AcDbLine
 10
-612.0991821289062
 20
506.2423706054688
 30
0.0
 11
-612.0991821289062
 21
537.2423706054688
 31
0.0
  0
LINE
  5
3C1
330
22
100
AcDbEntity
  8
0
  6
Continuous
 62
     7
100
AcDbLine
 10
-607.0991821289062
 20
485.2423706054688
 30
0.0
 11
-607.0991821289062
 21
516.2423706054688
 31
0.0
  0
LINE
  5
3C2
330
22
100
AcDbEntity
  8
0
  6
CENTER
 62
     7
100
AcDbLine
 10
-598.9196166992187
 20
481.7423706054688
 30
0.0
 11
-586.7487792968749
 21
481.7423706054688
 31
0.0
  0
LINE
  5
3C3
330
22
100
AcDbEntity
  8
0
  6
Continuous
 62
     7
100
AcDbLine
 10
-602.0991821289062
 20
485.2423706054688
 30
0.0
 11
-602.0991821289062
 21
516.2423706054688
 31
0.0
  0
LINE
  5
3C4
330
22
100
AcDbEntity
  8
0
  6
DASHED
 62
     7
100
AcDbLine
 10
-598.0991821289062
 20
481.7423706054688
 30
0.0
 11
-598.0991821289062
 21
480.2423706054688
 31
0.0
  0
LINE
  5
3C5
330
22
100
AcDbEntity
  8
0
  6
Continuous
 62
     7
100
AcDbLine
 10
-662.0991821289062
 20
485.2423706054688
 30
0.0
 11
-662.0991821289062
 21
516.2423706054688
 31
0.0
  0
LINE
  5
3C6
330
22
100
AcDbEntity
  8
0
  6
Continuous
 62
     7
100
AcDbLine
 10
-637.0991821289062
 20
485.2423706054688
 30
0.0
 11
-637.0991821289062
 21
495.2423706054688
 31
0.0
  0
LINE
  5
3C7
330
22
100
AcDbEntity
  8
0
  6
Continuous
 62
     7
100
AcDbLine
 10
-657.0991821289062
 20
506.2423706054688
 30
0.0
 11
-657.0991821289062
 21
537.2423706054688
 31
0.0
  0
LINE
  5
3C8
330
22
100
AcDbEntity
  8
0
  6
Continuous
 62
     7
100
AcDbLine
 10
-647.0991821289062
 20
485.2423706054688
 30
0.0
 11
-647.0991821289062
 21
516.2423706054688
 31
0.0
  0
LINE
  5
3C9
330
22
100
AcDbEntity
  8
0
  6
Continuous
 62
     7
100
AcDbLine
 10
-672.0991821289062
 20
506.2423706054688
 30
0.0
 11
-672.0991821289062
 21
537.2423706054688
 31
0.0
  0
LINE
  5
3CA
330
22
100
AcDbEntity
  8
0
  6
Continuous
 62
     7
100
AcDbLine
 10
-672.0991821289062
 20
485.2423706054688
 30
0.0
 11
-672.0991821289062
 21
495.2423706054688
 31
0.0
  0
LINE
  5
3CB
330
22
100
AcDbEntity
  8
0
  6
Continuous
 62
     7
100
AcDbLine
 10
-622.0991821289062
 20
485.2423706054688
 30
0.0
 11
-622.0991821289062
 21
516.2423706054688
 31
0.0
  0
LINE
  5
3CC
330
22
100
AcDbEntity
  8
0
  6
Continuous
 62
     7
100
AcDbLine
 10
-590.322998046875
 20
483.974609375
 30
0.0
 11
-592.0179443359375
 21
481.7423706054688
 31
0.0
  0
LINE
  5
3CD
330
22
100
AcDbEntity
  8
0
  6
Continuous
 62
     7
100
AcDbLine
 10
-595.8604125976562
 20
483.9600219726563
 30
0.0
 11
-595.588623046875
 21
484.2317810058593
 31
0.0
  0
LINE
  5
3CE
330
22
100
AcDbEntity
  8
0
  6
Continuous
 62
     7
100
AcDbLine
 10
-595.31689453125
 20
484.5035705566406
 30
0.0
 11
-595.588623046875
 21
484.2317810058593
 31
0.0
  0
LINE
  5
3CF
330
22
100
AcDbEntity
  8
0
  6
Continuous
 62
     7
100
AcDbLine
 10
-595.8604125976562
 20
483.9600219726563
 30
0.0
 11
-595.588623046875
 21
484.2317810058593
 31
0.0
  0
LINE
  5
3D0
330
22
100
AcDbEntity
  8
0
  6
Continuous
 62
     7
100
AcDbLine
 10
-590.8815307617187
 20
478.9811706542969
 30
0.0
 11
-593.0991821289062
 21
480.6611022949218
 31
0.0
  0
LINE
  5
3D1
330
22
100
AcDbEntity
  8
0
  6
Continuous
 62
     7
100
AcDbLine
 10
-590.3380126953124
 20
479.5246887207031
 30
0.0
 11
-592.0179443359375
 21
481.7423706054688
 31
0.0
  0
LINE
  5
3D2
330
22
100
AcDbEntity
  8
0
  6
Continuous
 62
     7
100
AcDbLine
 10
-590.8669433593749
 20
484.5185546875
 30
0.0
 11
-593.0991821289062
 21
482.8236083984375
 31
0.0
  0
LINE
  5
3D3
330
22
100
AcDbEntity
  8
0
  6
Continuous
 62
     7
100
AcDbLine
 10
-595.3314819335937
 20
478.9661560058593
 30
0.0
 11
-593.0991821289062
 21
480.6611022949218
 31
0.0
  0
LINE
  5
3D4
330
22
100
AcDbEntity
  8
0
  6
Continuous
 62
     7
100
AcDbLine
 10
-595.31689453125
 20
484.5035705566406
 30
0.0
 11
-595.588623046875
 21
484.2317810058593
 31
0.0
  0
LINE
  5
3D5
330
22
100
AcDbEntity
  8
0
  6
Continuous
 62
     7
100
AcDbLine
 10
-595.8754272460937
 20
479.5101013183593
 30
0.0
 11
-594.1804809570312
 21
481.7423706054688
 31
0.0
  0
LINE
  5
3D6
330
22
100
AcDbEntity
  8
0
  6
Continuous
 62
     7
100
AcDbLine
 10
-617.0991821289062
 20
506.2423706054688
 30
0.0
 11
-617.0991821289062
 21
537.2423706054688
 31
0.0
  0
LINE
  5
3D7
330
22
100
AcDbEntity
  8
0
  6
Continuous
 62
     7
100
AcDbLine
 10
-617.0991821289062
 20
485.2423706054688
 30
0.0
 11
-617.0991821289062
 21
495.2423706054688
 31
0.0
  0
LINE
  5
3D8
330
22
100
AcDbEntity
  8
0
  6
Continuous
 62
     7
100
AcDbLine
 10
-637.0991821289062
 20
506.2423706054688
 30
0.0
 11
-637.0991821289062
 21
537.2423706054688
 31
0.0
  0
LINE
  5
3D9
330
22
100
AcDbEntity
  8
0
  6
Continuous
 62
     7
100
AcDbLine
 10
-632.0991821289062
 20
485.2423706054688
 30
0.0
 11
-632.0991821289062
 21
495.2423706054688
 31
0.0
  0
LINE
  5
3DA
330
22
100
AcDbEntity
  8
0
  6
Continuous
 62
     7
100
AcDbLine
 10
-632.0991821289062
 20
506.2423706054688
 30
0.0
 11
-632.0991821289062
 21
537.2423706054688
 31
0.0
  0
LINE
  5
3DB
330
22
100
AcDbEntity
  8
0
  6
Continuous
 62
     7
100
AcDbLine
 10
-652.0991821289062
 20
485.2423706054688
 30
0.0
 11
-652.0991821289062
 21
495.2423706054688
 31
0.0
  0
LINE
  5
3DC
330
22
100
AcDbEntity
  8
0
  6
Continuous
 62
     7
100
AcDbLine
 10
-627.0991821289062
 20
485.2423706054688
 30
0.0
 11
-627.0991821289062
 21
516.2423706054688
 31
0.0
  0
LINE
  5
3DD
330
22
100
AcDbEntity
  8
0
  6
Continuous
 62
     7
100
AcDbLine
 10
-652.0991821289062
 20
506.2423706054688
 30
0.0
 11
-652.0991821289062
 21
537.2423706054688
 31
0.0
  0
LINE
  5
3DE
330
22
100
AcDbEntity
  8
0
  6
Continuous
 62
     7
100
AcDbLine
 10
-642.0991821289062
 20
485.2423706054688
 30
0.0
 11
-642.0991821289062
 21
516.2423706054688
 31
0.0
  0
LINE
  5
3DF
330
22
100
AcDbEntity
  8
0
  6
Continuous
 62
     7
100
AcDbLine
 10
-657.0991821289062
 20
485.2423706054688
 30
0.0
 11
-657.0991821289062
 21
495.2423706054688
 31
0.0
  0
LINE
  5
3E0
330
22
100
AcDbEntity
  8
0
  6
Continuous
 62
     7
100
AcDbLine
 10
-667.0991821289062
 20
485.2423706054688
 30
0.0
 11
-667.0991821289062
 21
516.2423706054688
 31
0.0
  0
LINE
  5
3E1
330
22
100
AcDbEntity
  8
0
  6
Continuous
 62
     7
100
AcDbLine
 10
-718.0576782226562
 20
607.5502319335937
 30
0.0
 11
-718.3294677734375
 21
607.2784423828125
 31
0.0
  0
LINE
  5
3E2
330
22
100
AcDbEntity
  8
0
  6
Continuous
 62
     7
100
AcDbLine
 10
-723.5950927734375
 20
607.5356445312499
 30
0.0
 11
-721.9001464843749
 21
609.7678833007812
 31
0.0
  0
LINE
  5
3E3
330
22
100
AcDbEntity
  8
0
  6
Continuous
 62
     7
100
AcDbLine
 10
-723.0511474609374
 20
606.99169921875
 30
0.0
 11
-720.8189086914062
 21
608.6866455078125
 31
0.0
  0
LINE
  5
3E4
330
22
100
AcDbEntity
  8
0
  6
Continuous
 62
     7
100
AcDbLine
 10
-723.0511474609374
 20
606.99169921875
 30
0.0
 11
-720.8189086914062
 21
608.6866455078125
 31
0.0
  0
LINE
  5
3E5
330
22
100
AcDbEntity
  8
0
  6
Continuous
 62
     7
100
AcDbLine
 10
-718.6011962890624
 20
607.0067138671874
 30
0.0
 11
-720.8189086914062
 21
608.6866455078125
 31
0.0
  0
LINE
  5
3E6
330
22
100
AcDbEntity
  8
0
  6
Continuous
 62
     7
100
AcDbLine
 10
-723.5950927734375
 20
607.5356445312499
 30
0.0
 11
-721.9001464843749
 21
609.7678833007812
 31
0.0
  0
LINE
  5
3E7
330
22
100
AcDbEntity
  8
0
  6
Continuous
 62
     7
100
AcDbLine
 10
-723.3231201171875
 20
607.263671875
 30
0.0
 11
-723.0511474609374
 21
606.99169921875
 31
0.0
  0
LINE
  5
3E8
330
22
100
AcDbEntity
  8
0
  6
Continuous
 62
     7
100
AcDbLine
 10
-723.3231201171875
 20
607.263671875
 30
0.0
 11
-723.5950927734375
 21
607.5356445312499
 31
0.0
  0
LINE
  5
3E9
330
22
100
AcDbEntity
  8
0
  6
Continuous
 62
     7
100
AcDbLine
 10
-723.3231201171875
 20
607.263671875
 30
0.0
 11
-723.5950927734375
 21
607.5356445312499
 31
0.0
  0
LINE
  5
3EA
330
22
100
AcDbEntity
  8
0
  6
Continuous
 62
     7
100
AcDbLine
 10
-723.3231201171875
 20
607.263671875
 30
0.0
 11
-723.0511474609374
 21
606.99169921875
 31
0.0
  0
LINE
  5
3EB
330
22
100
AcDbEntity
  8
0
  6
Continuous
 62
     7
100
AcDbLine
 10
-717.0991821289062
 20
590.5671997070312
 30
0.0
 11
-717.0991821289062
 21
600.2423706054687
 31
0.0
  0
LINE
  5
3EC
330
22
100
AcDbEntity
  8
0
  6
Continuous
 62
     7
100
AcDbLine
 10
-712.0991821289062
 20
590.5671997070312
 30
0.0
 11
-712.0991821289062
 21
600.2423706054687
 31
0.0
  0
LINE
  5
3ED
330
22
100
AcDbEntity
  8
0
  6
Continuous
 62
     7
100
AcDbLine
 10
-692.0991821289062
 20
628.9174804687499
 30
0.0
 11
-692.0991821289062
 21
619.2423706054687
 31
0.0
  0
LINE
  5
3EE
330
22
100
AcDbEntity
  8
0
  6
Continuous
 62
     7
100
AcDbLine
 10
-682.0991821289062
 20
569.2423706054687
 30
0.0
 11
-682.0991821289062
 21
600.2423706054687
 31
0.0
  0
LINE
  5
3EF
330
22
100
AcDbEntity
  8
0
  6
Continuous
 62
     7
100
AcDbLine
 10
-692.0991821289062
 20
590.5671997070312
 30
0.0
 11
-692.0991821289062
 21
600.2423706054687
 31
0.0
  0
LINE
  5
3F0
330
22
100
AcDbEntity
  8
0
  6
Continuous
 62
     7
100
AcDbLine
 10
-687.0991821289062
 20
569.2423706054687
 30
0.0
 11
-687.0991821289062
 21
600.2423706054687
 31
0.0
  0
LINE
  5
3F1
330
22
100
AcDbEntity
  8
0
  6
Continuous
 62
     7
100
AcDbLine
 10
-718.6011962890624
 20
607.0067138671874
 30
0.0
 11
-718.3294677734375
 21
607.2784423828125
 31
0.0
  0
LINE
  5
3F2
330
22
100
AcDbEntity
  8
0
  6
Continuous
 62
     7
100
AcDbLine
 10
-718.5866088867187
 20
612.5440673828125
 30
0.0
 11
-720.8189086914062
 21
610.84912109375
 31
0.0
  0
LINE
  5
3F3
330
22
100
AcDbEntity
  8
0
  6
Continuous
 62
     7
100
AcDbLine
 10
-718.3146362304687
 20
612.2720947265625
 30
0.0
 11
-718.5866088867187
 21
612.5440673828125
 31
0.0
  0
LINE
  5
3F4
330
22
100
AcDbEntity
  8
0
  6
Continuous
 62
     7
100
AcDbLine
 10
-723.0365600585937
 20
612.529052734375
 30
0.0
 11
-720.8189086914062
 21
610.84912109375
 31
0.0
  0
LINE
  5
3F5
330
22
100
AcDbEntity
  8
0
  6
Continuous
 62
     7
100
AcDbLine
 10
-723.0365600585937
 20
612.529052734375
 30
0.0
 11
-723.3083496093749
 21
612.25732421875
 31
0.0
  0
LINE
  5
3F6
330
22
100
AcDbEntity
  8
0
  6
CENTER
 62
     7
100
AcDbLine
 10
-720.8189086914062
 20
603.9219970703125
 30
0.0
 11
-720.8189086914062
 21
616.0928344726563
 31
0.0
  0
LINE
  5
3F7
330
22
100
AcDbEntity
  8
0
  6
Continuous
 62
     7
100
AcDbLine
 10
-718.5866088867187
 20
612.5440673828125
 30
0.0
 11
-720.8189086914062
 21
610.84912109375
 31
0.0
  0
LINE
  5
3F8
330
22
100
AcDbEntity
  8
0
  6
Continuous
 62
     7
100
AcDbLine
 10
-718.3146362304687
 20
612.2720947265625
 30
0.0
 11
-718.0426635742187
 21
612.0001220703125
 31
0.0
  0
LINE
  5
3F9
330
22
100
AcDbEntity
  8
0
  6
Continuous
 62
     7
100
AcDbLine
 10
-723.580078125
 20
611.9855346679687
 30
0.0
 11
-723.3083496093749
 21
612.25732421875
 31
0.0
  0
LINE
  5
3FA
330
22
100
AcDbEntity
  8
0
  6
Continuous
 62
     7
100
AcDbLine
 10
-723.0365600585937
 20
612.529052734375
 30
0.0
 11
-723.3083496093749
 21
612.25732421875
 31
0.0
  0
LINE
  5
3FB
330
22
100
AcDbEntity
  8
0
  6
Continuous
 62
     7
100
AcDbLine
 10
-723.580078125
 20
611.9855346679687
 30
0.0
 11
-723.3083496093749
 21
612.25732421875
 31
0.0
  0
LINE
  5
3FC
330
22
100
AcDbEntity
  8
0
  6
Continuous
 62
     7
100
AcDbLine
 10
-723.580078125
 20
611.9855346679687
 30
0.0
 11
-721.9001464843749
 21
609.7678833007812
 31
0.0
  0
LINE
  5
3FD
330
22
100
AcDbEntity
  8
0
  6
Continuous
 62
     7
100
AcDbLine
 10
-723.0365600585937
 20
612.529052734375
 30
0.0
 11
-720.8189086914062
 21
610.84912109375
 31
0.0
  0
LINE
  5
3FE
330
22
100
AcDbEntity
  8
0
  6
Continuous
 62
     7
100
AcDbLine
 10
-718.3146362304687
 20
612.2720947265625
 30
0.0
 11
-718.5866088867187
 21
612.5440673828125
 31
0.0
  0
LINE
  5
3FF
330
22
100
AcDbEntity
  8
0
  6
Continuous
 62
     7
100
AcDbLine
 10
-718.0426635742187
 20
612.0001220703125
 30
0.0
 11
-719.7376098632812
 21
609.7678833007812
 31
0.0
  0
LINE
  5
400
330
22
100
AcDbEntity
  8
0
  6
Continuous
 62
     7
100
AcDbLine
 10
-718.3146362304687
 20
612.2720947265625
 30
0.0
 11
-718.0426635742187
 21
612.0001220703125
 31
0.0
  0
LINE
  5
401
330
22
100
AcDbEntity
  8
0
  6
Continuous
 62
     7
100
AcDbLine
 10
-718.0426635742187
 20
612.0001220703125
 30
0.0
 11
-719.7376098632812
 21
609.7678833007812
 31
0.0
  0
LINE
  5
402
330
22
100
AcDbEntity
  8
0
  6
Continuous
 62
     7
100
AcDbLine
 10
-723.580078125
 20
611.9855346679687
 30
0.0
 11
-721.9001464843749
 21
609.7678833007812
 31
0.0
  0
LINE
  5
403
330
22
100
AcDbEntity
  8
0
  6
DASHED
 62
     7
100
AcDbLine
 10
-720.8189086914062
 20
614.7423706054687
 30
0.0
 11
-722.3189086914062
 21
614.7423706054687
 31
0.0
  0
LINE
  5
404
330
22
100
AcDbEntity
  8
0
  6
Continuous
 62
     7
100
AcDbLine
 10
-718.6011962890624
 20
607.0067138671874
 30
0.0
 11
-718.3294677734375
 21
607.2784423828125
 31
0.0
  0
LINE
  5
405
330
22
100
AcDbEntity
  8
0
  6
Continuous
 62
     7
100
AcDbLine
 10
-718.0576782226562
 20
607.5502319335937
 30
0.0
 11
-718.3294677734375
 21
607.2784423828125
 31
0.0
  0
LINE
  5
406
330
22
100
AcDbEntity
  8
0
  6
Continuous
 62
     7
100
AcDbLine
 10
-718.0576782226562
 20
607.5502319335937
 30
0.0
 11
-719.7376098632812
 21
609.7678833007812
 31
0.0
  0
LINE
  5
407
330
22
100
AcDbEntity
  8
0
  6
Continuous
 62
     7
100
AcDbLine
 10
-692.0991821289062
 20
506.2423706054688
 30
0.0
 11
-692.0991821289062
 21
537.2423706054688
 31
0.0
  0
LINE
  5
408
330
22
100
AcDbEntity
  8
0
  6
Continuous
 62
     7
100
AcDbLine
 10
-687.0991821289062
 20
485.2423706054688
 30
0.0
 11
-687.0991821289062
 21
516.2423706054688
 31
0.0
  0
LINE
  5
409
330
22
100
AcDbEntity
  8
0
  6
Continuous
 62
     7
100
AcDbLine
 10
-692.0991821289062
 20
485.2423706054688
 30
0.0
 11
-692.0991821289062
 21
495.2423706054688
 31
0.0
  0
LINE
  5
40A
330
22
100
AcDbEntity
  8
0
  6
Continuous
 62
     7
100
AcDbLine
 10
-697.0991821289062
 20
628.9174804687499
 30
0.0
 11
-697.0991821289062
 21
619.2423706054687
 31
0.0
  0
LINE
  5
40B
330
22
100
AcDbEntity
  8
0
  6
Continuous
 62
     7
100
AcDbLine
 10
-697.0991821289062
 20
590.5671997070312
 30
0.0
 11
-697.0991821289062
 21
600.2423706054687
 31
0.0
  0
LINE
  5
40C
330
22
100
AcDbEntity
  8
0
  6
Continuous
 62
     7
100
AcDbLine
 10
-707.0991821289062
 20
569.2423706054687
 30
0.0
 11
-707.0991821289062
 21
600.2423706054687
 31
0.0
  0
LINE
  5
40D
330
22
100
AcDbEntity
  8
0
  6
Continuous
 62
     7
100
AcDbLine
 10
-702.0991821289062
 20
569.2423706054687
 30
0.0
 11
-702.0991821289062
 21
600.2423706054687
 31
0.0
  0
LINE
  5
40E
330
22
100
AcDbEntity
  8
0
  6
Continuous
 62
     7
100
AcDbLine
 10
-712.0991821289062
 20
628.9174804687499
 30
0.0
 11
-712.0991821289062
 21
619.2423706054687
 31
0.0
  0
LINE
  5
40F
330
22
100
AcDbEntity
  8
0
  6
Continuous
 62
     7
100
AcDbLine
 10
-717.0991821289062
 20
628.9174804687499
 30
0.0
 11
-717.0991821289062
 21
619.2423706054687
 31
0.0
  0
LINE
  5
410
330
22
100
AcDbEntity
  8
0
  6
DASHED
 62
     7
100
AcDbLine
 10
-720.8189086914062
 20
604.7423706054687
 30
0.0
 11
-722.3189086914062
 21
604.7423706054687
 31
0.0
  0
LINE
  5
411
330
22
100
AcDbEntity
  8
0
  6
Continuous
 62
     7
100
AcDbLine
 10
-718.0576782226562
 20
607.5502319335937
 30
0.0
 11
-719.7376098632812
 21
609.7678833007812
 31
0.0
  0
LINE
  5
412
330
22
100
AcDbEntity
  8
0
  6
Continuous
 62
     7
100
AcDbLine
 10
-718.6011962890624
 20
607.0067138671874
 30
0.0
 11
-720.8189086914062
 21
608.6866455078125
 31
0.0
  0
LINE
  5
413
330
22
100
AcDbEntity
  8
0
  6
Continuous
 62
     7
100
AcDbLine
 10
-723.8604125976562
 20
483.9600219726563
 30
0.0
 11
-722.1804809570312
 21
481.7423706054688
 31
0.0
  0
LINE
  5
414
330
22
100
AcDbEntity
  8
0
  6
Continuous
 62
     7
100
AcDbLine
 10
-723.8754272460937
 20
479.5101013183593
 30
0.0
 11
-722.1804809570312
 21
481.7423706054688
 31
0.0
  0
LINE
  5
415
330
22
100
AcDbEntity
  8
0
  6
Continuous
 62
     7
100
AcDbLine
 10
-723.6034545898437
 20
479.2381286621093
 30
0.0
 11
-723.3314819335937
 21
478.9661560058593
 31
0.0
  0
LINE
  5
416
330
22
100
AcDbEntity
  8
0
  6
Continuous
 62
     7
100
AcDbLine
 10
-723.6034545898437
 20
479.2381286621093
 30
0.0
 11
-723.8754272460937
 21
479.5101013183593
 31
0.0
  0
LINE
  5
417
330
22
100
AcDbEntity
  8
0
  6
Continuous
 62
     7
100
AcDbLine
 10
-723.6034545898437
 20
479.2381286621093
 30
0.0
 11
-723.8754272460937
 21
479.5101013183593
 31
0.0
  0
LINE
  5
418
330
22
100
AcDbEntity
  8
0
  6
Continuous
 62
     7
100
AcDbLine
 10
-723.6034545898437
 20
479.2381286621093
 30
0.0
 11
-723.3314819335937
 21
478.9661560058593
 31
0.0
  0
LINE
  5
419
330
22
100
AcDbEntity
  8
0
  6
Continuous
 62
     7
100
AcDbLine
 10
-718.8815307617187
 20
478.9811706542969
 30
0.0
 11
-718.6098022460937
 21
479.2529296875
 31
0.0
  0
LINE
  5
41A
330
22
100
AcDbEntity
  8
0
  6
Continuous
 62
     7
100
AcDbLine
 10
-718.3380126953125
 20
479.5246887207031
 30
0.0
 11
-718.6098022460937
 21
479.2529296875
 31
0.0
  0
LINE
  5
41B
330
22
100
AcDbEntity
  8
0
  6
Continuous
 62
     7
100
AcDbLine
 10
-718.3380126953125
 20
479.5246887207031
 30
0.0
 11
-720.0179443359375
 21
481.7423706054688
 31
0.0
  0
LINE
  5
41C
330
22
100
AcDbEntity
  8
0
  6
Continuous
 62
     7
100
AcDbLine
 10
-717.0991821289062
 20
506.2423706054688
 30
0.0
 11
-717.0991821289062
 21
537.2423706054688
 31
0.0
  0
LINE
  5
41D
330
22
100
AcDbEntity
  8
0
  6
Continuous
 62
     7
100
AcDbLine
 10
-712.0991821289062
 20
506.2423706054688
 30
0.0
 11
-712.0991821289062
 21
537.2423706054688
 31
0.0
  0
LINE
  5
41E
330
22
100
AcDbEntity
  8
0
  6
Continuous
 62
     7
100
AcDbLine
 10
-717.0991821289062
 20
490.2423706054688
 30
0.0
 11
-717.0991821289062
 21
495.2423706054688
 31
0.0
  0
LINE
  5
41F
330
22
100
AcDbEntity
  8
0
  6
Continuous
 62
     7
100
AcDbLine
 10
-712.0991821289062
 20
490.2423706054688
 30
0.0
 11
-712.0991821289062
 21
495.2423706054688
 31
0.0
  0
LINE
  5
420
330
22
100
AcDbEntity
  8
0
  6
CENTER
 62
     7
100
AcDbLine
 10
-721.0991821289062
 20
476.0282897949219
 30
0.0
 11
-721.0991821289062
 21
487.4053649902343
 31
0.0
  0
LINE
  5
421
330
22
100
AcDbEntity
  8
0
  6
Continuous
 62
     7
100
AcDbLine
 10
-682.0991821289062
 20
485.2423706054688
 30
0.0
 11
-682.0991821289062
 21
516.2423706054688
 31
0.0
  0
LINE
  5
422
330
22
100
AcDbEntity
  8
0
  6
Continuous
 62
     7
100
AcDbLine
 10
-718.866943359375
 20
484.5185546875
 30
0.0
 11
-721.0991821289062
 21
482.8236083984375
 31
0.0
  0
LINE
  5
423
330
22
100
AcDbEntity
  8
0
  6
Continuous
 62
     7
100
AcDbLine
 10
-718.594970703125
 20
484.24658203125
 30
0.0
 11
-718.866943359375
 21
484.5185546875
 31
0.0
  0
LINE
  5
424
330
22
100
AcDbEntity
  8
0
  6
Continuous
 62
     7
100
AcDbLine
 10
-723.31689453125
 20
484.5035705566406
 30
0.0
 11
-721.0991821289062
 21
482.8236083984375
 31
0.0
  0
LINE
  5
425
330
22
100
AcDbEntity
  8
0
  6
Continuous
 62
     7
100
AcDbLine
 10
-718.3380126953125
 20
479.5246887207031
 30
0.0
 11
-718.6098022460937
 21
479.2529296875
 31
0.0
  0
LINE
  5
426
330
22
100
AcDbEntity
  8
0
  6
Continuous
 62
     7
100
AcDbLine
 10
-723.8754272460937
 20
479.5101013183593
 30
0.0
 11
-722.1804809570312
 21
481.7423706054688
 31
0.0
  0
LINE
  5
427
330
22
100
AcDbEntity
  8
0
  6
Continuous
 62
     7
100
AcDbLine
 10
-723.31689453125
 20
484.5035705566406
 30
0.0
 11
-723.588623046875
 21
484.2317810058593
 31
0.0
  0
LINE
  5
428
330
22
100
AcDbEntity
  8
0
  6
Continuous
 62
     7
100
AcDbLine
 10
-723.3314819335937
 20
478.9661560058593
 30
0.0
 11
-721.0991821289062
 21
480.6611022949218
 31
0.0
  0
LINE
  5
429
330
22
100
AcDbEntity
  8
0
  6
Continuous
 62
     7
100
AcDbLine
 10
-718.866943359375
 20
484.5185546875
 30
0.0
 11
-721.0991821289062
 21
482.8236083984375
 31
0.0
  0
LINE
  5
42A
330
22
100
AcDbEntity
  8
0
  6
Continuous
 62
     7
100
AcDbLine
 10
-718.594970703125
 20
484.24658203125
 30
0.0
 11
-718.322998046875
 21
483.974609375
 31
0.0
  0
LINE
  5
42B
330
22
100
AcDbEntity
  8
0
  6
Continuous
 62
     7
100
AcDbLine
 10
-718.3380126953125
 20
479.5246887207031
 30
0.0
 11
-720.0179443359375
 21
481.7423706054688
 31
0.0
  0
LINE
  5
42C
330
22
100
AcDbEntity
  8
0
  6
Continuous
 62
     7
100
AcDbLine
 10
-718.8815307617187
 20
478.9811706542969
 30
0.0
 11
-721.0991821289062
 21
480.6611022949218
 31
0.0
  0
LINE
  5
42D
330
22
100
AcDbEntity
  8
0
  6
Continuous
 62
     7
100
AcDbLine
 10
-723.8604125976562
 20
483.9600219726563
 30
0.0
 11
-723.588623046875
 21
484.2317810058593
 31
0.0
  0
LINE
  5
42E
330
22
100
AcDbEntity
  8
0
  6
DASHED
 62
     7
100
AcDbLine
 10
-716.0991821289062
 20
481.7423706054688
 30
0.0
 11
-716.0991821289062
 21
480.2423706054688
 31
0.0
  0
LINE
  5
42F
330
22
100
AcDbEntity
  8
0
  6
Continuous
 62
     7
100
AcDbLine
 10
-723.31689453125
 20
484.5035705566406
 30
0.0
 11
-721.0991821289062
 21
482.8236083984375
 31
0.0
  0
LINE
  5
430
330
22
100
AcDbEntity
  8
0
  6
Continuous
 62
     7
100
AcDbLine
 10
-718.594970703125
 20
484.24658203125
 30
0.0
 11
-718.866943359375
 21
484.5185546875
 31
0.0
  0
LINE
  5
431
330
22
100
AcDbEntity
  8
0
  6
Continuous
 62
     7
100
AcDbLine
 10
-718.322998046875
 20
483.974609375
 30
0.0
 11
-720.0179443359375
 21
481.7423706054688
 31
0.0
  0
LINE
  5
432
330
22
100
AcDbEntity
  8
0
  6
Continuous
 62
     7
100
AcDbLine
 10
-718.594970703125
 20
484.24658203125
 30
0.0
 11
-718.322998046875
 21
483.974609375
 31
0.0
  0
LINE
  5
433
330
22
100
AcDbEntity
  8
0
  6
Continuous
 62
     7
100
AcDbLine
 10
-718.322998046875
 20
483.974609375
 30
0.0
 11
-720.0179443359375
 21
481.7423706054688
 31
0.0
  0
LINE
  5
434
330
22
100
AcDbEntity
  8
0
  6
Continuous
 62
     7
100
AcDbLine
 10
-718.8815307617187
 20
478.9811706542969
 30
0.0
 11
-718.6098022460937
 21
479.2529296875
 31
0.0
  0
LINE
  5
435
330
22
100
AcDbEntity
  8
0
  6
Continuous
 62
     7
100
AcDbLine
 10
-723.3314819335937
 20
478.9661560058593
 30
0.0
 11
-721.0991821289062
 21
480.6611022949218
 31
0.0
  0
LINE
  5
436
330
22
100
AcDbEntity
  8
0
  6
Continuous
 62
     7
100
AcDbLine
 10
-718.8815307617187
 20
478.9811706542969
 30
0.0
 11
-721.0991821289062
 21
480.6611022949218
 31
0.0
  0
LINE
  5
437
330
22
100
AcDbEntity
  8
0
  6
CENTER
 62
     7
100
AcDbLine
 10
-726.9196166992188
 20
481.7423706054688
 30
0.0
 11
-707.4757690429687
 21
481.7423706054688
 31
0.0
  0
LINE
  5
438
330
22
100
AcDbEntity
  8
0
  6
Continuous
 62
     7
100
AcDbLine
 10
-707.0991821289062
 20
485.2423706054688
 30
0.0
 11
-707.0991821289062
 21
516.2423706054688
 31
0.0
  0
LINE
  5
439
330
22
100
AcDbEntity
  8
0
  6
Continuous
 62
     7
100
AcDbLine
 10
-702.0991821289062
 20
485.2423706054688
 30
0.0
 11
-702.0991821289062
 21
516.2423706054688
 31
0.0
  0
LINE
  5
43A
330
22
100
AcDbEntity
  8
0
  6
Continuous
 62
     7
100
AcDbLine
 10
-697.0991821289062
 20
506.2423706054688
 30
0.0
 11
-697.0991821289062
 21
537.2423706054688
 31
0.0
  0
LINE
  5
43B
330
22
100
AcDbEntity
  8
0
  6
Continuous
 62
     7
100
AcDbLine
 10
-697.0991821289062
 20
485.2423706054688
 30
0.0
 11
-697.0991821289062
 21
495.2423706054688
 31
0.0
  0
LINE
  5
43C
330
22
100
AcDbEntity
  8
0
  6
DASHED
 62
     7
100
AcDbLine
 10
-721.0991821289062
 20
486.7423706054688
 30
0.0
 11
-722.5991821289063
 21
486.7423706054688
 31
0.0
  0
LINE
  5
43D
330
22
100
AcDbEntity
  8
0
  6
Continuous
 62
     7
100
AcDbLine
 10
-723.31689453125
 20
484.5035705566406
 30
0.0
 11
-723.588623046875
 21
484.2317810058593
 31
0.0
  0
LINE
  5
43E
330
22
100
AcDbEntity
  8
0
  6
Continuous
 62
     7
100
AcDbLine
 10
-723.8604125976562
 20
483.9600219726563
 30
0.0
 11
-723.588623046875
 21
484.2317810058593
 31
0.0
  0
LINE
  5
43F
330
22
100
AcDbEntity
  8
0
  6
Continuous
 62
     7
100
AcDbLine
 10
-723.8604125976562
 20
483.9600219726563
 30
0.0
 11
-722.1804809570312
 21
481.7423706054688
 31
0.0
  0
LINE
  5
440
330
22
100
AcDbEntity
  8
0
  6
Continuous
 62
     7
100
AcDbLine
 10
-494.0992126464843
 20
734.2423706054687
 30
0.0
 11
-494.0992126464843
 21
724.2423706054687
 31
0.0
  0
LINE
  5
441
330
22
100
AcDbEntity
  8
0
  6
Continuous
 62
     7
100
AcDbLine
 10
-469.0992126464843
 20
729.2423706054687
 30
0.0
 11
-469.0992126464843
 21
724.2423706054687
 31
0.0
  0
LINE
  5
442
330
22
100
AcDbEntity
  8
0
  6
Continuous
 62
     7
100
AcDbLine
 10
-484.0992126464843
 20
734.2423706054687
 30
0.0
 11
-484.0992126464843
 21
703.2423706054687
 31
0.0
  0
LINE
  5
443
330
22
100
AcDbEntity
  8
0
  6
Continuous
 62
     7
100
AcDbLine
 10
-489.0992126464843
 20
548.2423706054688
 30
0.0
 11
-489.0992126464843
 21
579.2423706054687
 31
0.0
  0
LINE
  5
444
330
22
100
AcDbEntity
  8
0
  6
Continuous
 62
     7
100
AcDbLine
 10
-494.0992126464843
 20
548.2423706054688
 30
0.0
 11
-494.0992126464843
 21
579.2423706054687
 31
0.0
  0
LINE
  5
445
330
22
100
AcDbEntity
  8
0
  6
Continuous
 62
     7
100
AcDbLine
 10
-484.0992126464843
 20
527.2423706054688
 30
0.0
 11
-484.0992126464843
 21
558.2423706054688
 31
0.0
  0
LINE
  5
446
330
22
100
AcDbEntity
  8
0
  6
Continuous
 62
     7
100
AcDbLine
 10
-474.0992126464844
 20
548.2423706054688
 30
0.0
 11
-474.0992126464844
 21
579.2423706054687
 31
0.0
  0
LINE
  5
447
330
22
100
AcDbEntity
  8
0
  6
DASHED
 62
     7
100
AcDbLine
 10
-461.5992126464844
 20
488.7423706054688
 30
0.0
 11
-461.5992126464844
 21
602.7423706054687
 31
0.0
  0
LINE
  5
448
330
22
100
AcDbEntity
  8
0
  6
Continuous
 62
     7
100
AcDbLine
 10
-479.0992126464844
 20
527.2423706054688
 30
0.0
 11
-479.0992126464844
 21
558.2423706054688
 31
0.0
  0
LINE
  5
449
330
22
100
AcDbEntity
  8
0
  6
Continuous
 62
     7
100
AcDbLine
 10
-469.0992126464843
 20
548.2423706054688
 30
0.0
 11
-469.0992126464843
 21
579.2423706054687
 31
0.0
  0
LINE
  5
44A
330
22
100
AcDbEntity
  8
0
  6
Continuous
 62
     7
100
AcDbLine
 10
-504.0992126464844
 20
734.2423706054687
 30
0.0
 11
-504.0992126464844
 21
703.2423706054687
 31
0.0
  0
LINE
  5
44B
330
22
100
AcDbEntity
  8
0
  6
Continuous
 62
     7
100
AcDbLine
 10
-499.0992126464844
 20
734.2423706054687
 30
0.0
 11
-499.0992126464844
 21
703.2423706054687
 31
0.0
  0
LINE
  5
44C
330
22
100
AcDbEntity
  8
0
  6
Continuous
 62
     7
100
AcDbLine
 10
-509.0992126464843
 20
734.2423706054687
 30
0.0
 11
-509.0992126464843
 21
724.2423706054687
 31
0.0
  0
LINE
  5
44D
330
22
100
AcDbEntity
  8
0
  6
Continuous
 62
     7
100
AcDbLine
 10
-519.0991821289063
 20
734.2423706054687
 30
0.0
 11
-519.0991821289063
 21
703.2423706054687
 31
0.0
  0
LINE
  5
44E
330
22
100
AcDbEntity
  8
0
  6
Continuous
 62
     7
100
AcDbLine
 10
-524.0991821289063
 20
734.2423706054687
 30
0.0
 11
-524.0991821289063
 21
703.2423706054687
 31
0.0
  0
LINE
  5
44F
330
22
100
AcDbEntity
  8
0
  6
Continuous
 62
     7
100
AcDbLine
 10
-544.0991821289063
 20
734.2423706054687
 30
0.0
 11
-544.0991821289063
 21
703.2423706054687
 31
0.0
  0
LINE
  5
450
330
22
100
AcDbEntity
  8
0
  6
Continuous
 62
     7
100
AcDbLine
 10
-539.0991821289063
 20
734.2423706054687
 30
0.0
 11
-539.0991821289063
 21
703.2423706054687
 31
0.0
  0
LINE
  5
451
330
22
100
AcDbEntity
  8
0
  6
Continuous
 62
     7
100
AcDbLine
 10
-514.0991821289063
 20
734.2423706054687
 30
0.0
 11
-514.0991821289063
 21
724.2423706054687
 31
0.0
  0
LINE
  5
452
330
22
100
AcDbEntity
  8
0
  6
Continuous
 62
     7
100
AcDbLine
 10
-534.0991821289064
 20
734.2423706054687
 30
0.0
 11
-534.0991821289064
 21
724.2423706054687
 31
0.0
  0
LINE
  5
453
330
22
100
AcDbEntity
  8
0
  6
Continuous
 62
     7
100
AcDbLine
 10
-529.0991821289063
 20
734.2423706054687
 30
0.0
 11
-529.0991821289063
 21
724.2423706054687
 31
0.0
  0
LINE
  5
454
330
22
100
AcDbEntity
  8
0
  6
Continuous
 62
     7
100
AcDbLine
 10
-489.0992126464843
 20
734.2423706054687
 30
0.0
 11
-489.0992126464843
 21
724.2423706054687
 31
0.0
  0
LINE
  5
455
330
22
100
AcDbEntity
  8
0
  6
Continuous
 62
     7
100
AcDbLine
 10
-479.0992126464844
 20
734.2423706054687
 30
0.0
 11
-479.0992126464844
 21
703.2423706054687
 31
0.0
  0
LINE
  5
456
330
22
100
AcDbEntity
  8
0
  6
Continuous
 62
     7
100
AcDbLine
 10
-474.0992126464844
 20
729.2423706054687
 30
0.0
 11
-474.0992126464844
 21
724.2423706054687
 31
0.0
  0
LINE
  5
457
330
22
100
AcDbEntity
  8
0
  6
Continuous
 62
     7
100
AcDbLine
 10
-652.0991821289062
 20
734.2423706054687
 30
0.0
 11
-652.0991821289062
 21
724.2423706054687
 31
0.0
  0
LINE
  5
458
330
22
100
AcDbEntity
  8
0
  6
Continuous
 62
     7
100
AcDbLine
 10
-637.0991821289062
 20
734.2423706054687
 30
0.0
 11
-637.0991821289062
 21
724.2423706054687
 31
0.0
  0
LINE
  5
459
330
22
100
AcDbEntity
  8
0
  6
Continuous
 62
     7
100
AcDbLine
 10
-612.0991821289062
 20
734.2423706054687
 30
0.0
 11
-612.0991821289062
 21
724.2423706054687
 31
0.0
  0
LINE
  5
45A
330
22
100
AcDbEntity
  8
0
  6
Continuous
 62
     7
100
AcDbLine
 10
-607.0991821289062
 20
734.2423706054687
 30
0.0
 11
-607.0991821289062
 21
703.2423706054687
 31
0.0
  0
LINE
  5
45B
330
22
100
AcDbEntity
  8
0
  6
Continuous
 62
     7
100
AcDbLine
 10
-602.0991821289062
 20
734.2423706054687
 30
0.0
 11
-602.0991821289062
 21
703.2423706054687
 31
0.0
  0
LINE
  5
45C
330
22
100
AcDbEntity
  8
0
  6
Continuous
 62
     7
100
AcDbLine
 10
-559.0991821289064
 20
734.2423706054687
 30
0.0
 11
-559.0991821289064
 21
703.2423706054687
 31
0.0
  0
LINE
  5
45D
330
22
100
AcDbEntity
  8
0
  6
Continuous
 62
     7
100
AcDbLine
 10
-584.0991821289062
 20
734.2423706054687
 30
0.0
 11
-584.0991821289062
 21
703.2423706054687
 31
0.0
  0
LINE
  5
45E
330
22
100
AcDbEntity
  8
0
  6
Continuous
 62
     7
100
AcDbLine
 10
-579.0991821289062
 20
734.2423706054687
 30
0.0
 11
-579.0991821289062
 21
703.2423706054687
 31
0.0
  0
LINE
  5
45F
330
22
100
AcDbEntity
  8
0
  6
Continuous
 62
     7
100
AcDbLine
 10
-564.0991821289062
 20
734.2423706054687
 30
0.0
 11
-564.0991821289062
 21
703.2423706054687
 31
0.0
  0
LINE
  5
460
330
22
100
AcDbEntity
  8
0
  6
Continuous
 62
     7
100
AcDbLine
 10
-574.0991821289062
 20
734.2423706054687
 30
0.0
 11
-574.0991821289062
 21
724.2423706054687
 31
0.0
  0
LINE
  5
461
330
22
100
AcDbEntity
  8
0
  6
Continuous
 62
     7
100
AcDbLine
 10
-569.0991821289062
 20
734.2423706054687
 30
0.0
 11
-569.0991821289062
 21
724.2423706054687
 31
0.0
  0
LINE
  5
462
330
22
100
AcDbEntity
  8
0
  6
Continuous
 62
     7
100
AcDbLine
 10
-504.0992126464844
 20
527.2423706054688
 30
0.0
 11
-504.0992126464844
 21
558.2423706054688
 31
0.0
  0
LINE
  5
463
330
22
100
AcDbEntity
  8
0
  6
Continuous
 62
     7
100
AcDbLine
 10
-499.0992126464844
 20
527.2423706054688
 30
0.0
 11
-499.0992126464844
 21
558.2423706054688
 31
0.0
  0
LINE
  5
464
330
22
100
AcDbEntity
  8
0
  6
Continuous
 62
     7
100
AcDbLine
 10
-509.0992126464843
 20
548.2423706054688
 30
0.0
 11
-509.0992126464843
 21
579.2423706054687
 31
0.0
  0
LINE
  5
465
330
22
100
AcDbEntity
  8
0
  6
Continuous
 62
     7
100
AcDbLine
 10
-524.0991821289063
 20
527.2423706054688
 30
0.0
 11
-524.0991821289063
 21
558.2423706054688
 31
0.0
  0
LINE
  5
466
330
22
100
AcDbEntity
  8
0
  6
Continuous
 62
     7
100
AcDbLine
 10
-539.0991821289063
 20
527.2423706054688
 30
0.0
 11
-539.0991821289063
 21
558.2423706054688
 31
0.0
  0
LINE
  5
467
330
22
100
AcDbEntity
  8
0
  6
Continuous
 62
     7
100
AcDbLine
 10
-519.0991821289063
 20
527.2423706054688
 30
0.0
 11
-519.0991821289063
 21
558.2423706054688
 31
0.0
  0
LINE
  5
468
330
22
100
AcDbEntity
  8
0
  6
Continuous
 62
     7
100
AcDbLine
 10
-514.0991821289063
 20
548.2423706054688
 30
0.0
 11
-514.0991821289063
 21
579.2423706054687
 31
0.0
  0
LINE
  5
469
330
22
100
AcDbEntity
  8
0
  6
Continuous
 62
     7
100
AcDbLine
 10
-534.0991821289064
 20
548.2423706054688
 30
0.0
 11
-534.0991821289064
 21
579.2423706054687
 31
0.0
  0
LINE
  5
46A
330
22
100
AcDbEntity
  8
0
  6
Continuous
 62
     7
100
AcDbLine
 10
-529.0991821289063
 20
548.2423706054688
 30
0.0
 11
-529.0991821289063
 21
579.2423706054687
 31
0.0
  0
LINE
  5
46B
330
22
100
AcDbEntity
  8
0
  6
Continuous
 62
     7
100
AcDbLine
 10
-544.0991821289063
 20
527.2423706054688
 30
0.0
 11
-544.0991821289063
 21
558.2423706054688
 31
0.0
  0
LINE
  5
46C
330
22
100
AcDbEntity
  8
0
  6
Continuous
 62
     7
100
AcDbLine
 10
-574.0991821289062
 20
548.2423706054688
 30
0.0
 11
-574.0991821289062
 21
579.2423706054687
 31
0.0
  0
LINE
  5
46D
330
22
100
AcDbEntity
  8
0
  6
Continuous
 62
     7
100
AcDbLine
 10
-559.0991821289064
 20
527.2423706054688
 30
0.0
 11
-559.0991821289064
 21
558.2423706054688
 31
0.0
  0
LINE
  5
46E
330
22
100
AcDbEntity
  8
0
  6
Continuous
 62
     7
100
AcDbLine
 10
-702.0991821289062
 20
734.2423706054687
 30
0.0
 11
-702.0991821289062
 21
703.2423706054687
 31
0.0
  0
LINE
  5
46F
330
22
100
AcDbEntity
  8
0
  6
Continuous
 62
     7
100
AcDbLine
 10
-707.0991821289062
 20
734.2423706054687
 30
0.0
 11
-707.0991821289062
 21
703.2423706054687
 31
0.0
  0
LINE
  5
470
330
22
100
AcDbEntity
  8
0
  6
Continuous
 62
     7
100
AcDbLine
 10
-697.0991821289062
 20
734.2423706054687
 30
0.0
 11
-697.0991821289062
 21
724.2423706054687
 31
0.0
  0
LINE
  5
471
330
22
100
AcDbEntity
  8
0
  6
Continuous
 62
     7
100
AcDbLine
 10
-712.0991821289062
 20
729.2423706054687
 30
0.0
 11
-712.0991821289062
 21
724.2423706054687
 31
0.0
  0
LINE
  5
472
330
22
100
AcDbEntity
  8
0
  6
Continuous
 62
     7
100
AcDbLine
 10
-717.0991821289062
 20
729.2423706054687
 30
0.0
 11
-717.0991821289062
 21
724.2423706054687
 31
0.0
  0
LINE
  5
473
330
22
100
AcDbEntity
  8
0
  6
Continuous
 62
     7
100
AcDbLine
 10
-682.0991821289062
 20
734.2423706054687
 30
0.0
 11
-682.0991821289062
 21
703.2423706054687
 31
0.0
  0
LINE
  5
474
330
22
100
AcDbEntity
  8
0
  6
Continuous
 62
     7
100
AcDbLine
 10
-687.0991821289062
 20
734.2423706054687
 30
0.0
 11
-687.0991821289062
 21
703.2423706054687
 31
0.0
  0
LINE
  5
475
330
22
100
AcDbEntity
  8
0
  6
Continuous
 62
     7
100
AcDbLine
 10
-692.0991821289062
 20
734.2423706054687
 30
0.0
 11
-692.0991821289062
 21
724.2423706054687
 31
0.0
  0
LINE
  5
476
330
22
100
AcDbEntity
  8
0
  6
Continuous
 62
     7
100
AcDbLine
 10
-617.0991821289062
 20
734.2423706054687
 30
0.0
 11
-617.0991821289062
 21
724.2423706054687
 31
0.0
  0
LINE
  5
477
330
22
100
AcDbEntity
  8
0
  6
Continuous
 62
     7
100
AcDbLine
 10
-627.0991821289062
 20
734.2423706054687
 30
0.0
 11
-627.0991821289062
 21
703.2423706054687
 31
0.0
  0
LINE
  5
478
330
22
100
AcDbEntity
  8
0
  6
Continuous
 62
     7
100
AcDbLine
 10
-647.0991821289062
 20
734.2423706054687
 30
0.0
 11
-647.0991821289062
 21
703.2423706054687
 31
0.0
  0
LINE
  5
479
330
22
100
AcDbEntity
  8
0
  6
Continuous
 62
     7
100
AcDbLine
 10
-642.0991821289062
 20
734.2423706054687
 30
0.0
 11
-642.0991821289062
 21
703.2423706054687
 31
0.0
  0
LINE
  5
47A
330
22
100
AcDbEntity
  8
0
  6
Continuous
 62
     7
100
AcDbLine
 10
-662.0991821289062
 20
734.2423706054687
 30
0.0
 11
-662.0991821289062
 21
703.2423706054687
 31
0.0
  0
LINE
  5
47B
330
22
100
AcDbEntity
  8
0
  6
Continuous
 62
     7
100
AcDbLine
 10
-667.0991821289062
 20
734.2423706054687
 30
0.0
 11
-667.0991821289062
 21
703.2423706054687
 31
0.0
  0
LINE
  5
47C
330
22
100
AcDbEntity
  8
0
  6
Continuous
 62
     7
100
AcDbLine
 10
-622.0991821289062
 20
734.2423706054687
 30
0.0
 11
-622.0991821289062
 21
703.2423706054687
 31
0.0
  0
LINE
  5
47D
330
22
100
AcDbEntity
  8
0
  6
Continuous
 62
     7
100
AcDbLine
 10
-632.0991821289062
 20
734.2423706054687
 30
0.0
 11
-632.0991821289062
 21
724.2423706054687
 31
0.0
  0
LINE
  5
47E
330
22
100
AcDbEntity
  8
0
  6
Continuous
 62
     7
100
AcDbLine
 10
-672.0991821289062
 20
734.2423706054687
 30
0.0
 11
-672.0991821289062
 21
724.2423706054687
 31
0.0
  0
LINE
  5
47F
330
22
100
AcDbEntity
  8
0
  6
Continuous
 62
     7
100
AcDbLine
 10
-657.0991821289062
 20
734.2423706054687
 30
0.0
 11
-657.0991821289062
 21
724.2423706054687
 31
0.0
  0
LINE
  5
480
330
22
100
AcDbEntity
  8
0
  6
Continuous
 62
     7
100
AcDbLine
 10
-617.0991821289062
 20
548.2423706054688
 30
0.0
 11
-617.0991821289062
 21
579.5671997070312
 31
0.0
  0
LINE
  5
481
330
22
100
AcDbEntity
  8
0
  6
Continuous
 62
     7
100
AcDbLine
 10
-622.0991821289062
 20
527.2423706054688
 30
0.0
 11
-622.0991821289062
 21
558.2423706054688
 31
0.0
  0
LINE
  5
482
330
22
100
AcDbEntity
  8
0
  6
Continuous
 62
     7
100
AcDbLine
 10
-642.0991821289062
 20
527.2423706054688
 30
0.0
 11
-642.0991821289062
 21
558.2423706054688
 31
0.0
  0
LINE
  5
483
330
22
100
AcDbEntity
  8
0
  6
Continuous
 62
     7
100
AcDbLine
 10
-647.0991821289062
 20
527.2423706054688
 30
0.0
 11
-647.0991821289062
 21
558.2423706054688
 31
0.0
  0
LINE
  5
484
330
22
100
AcDbEntity
  8
0
  6
Continuous
 62
     7
100
AcDbLine
 10
-627.0991821289062
 20
527.2423706054688
 30
0.0
 11
-627.0991821289062
 21
558.2423706054688
 31
0.0
  0
LINE
  5
485
330
22
100
AcDbEntity
  8
0
  6
Continuous
 62
     7
100
AcDbLine
 10
-667.0991821289062
 20
527.2423706054688
 30
0.0
 11
-667.0991821289062
 21
558.2423706054688
 31
0.0
  0
LINE
  5
486
330
22
100
AcDbEntity
  8
0
  6
Continuous
 62
     7
100
AcDbLine
 10
-662.0991821289062
 20
527.2423706054688
 30
0.0
 11
-662.0991821289062
 21
558.2423706054688
 31
0.0
  0
LINE
  5
487
330
22
100
AcDbEntity
  8
0
  6
Continuous
 62
     7
100
AcDbLine
 10
-672.0991821289062
 20
548.2423706054688
 30
0.0
 11
-672.0991821289062
 21
579.5671997070312
 31
0.0
  0
LINE
  5
488
330
22
100
AcDbEntity
  8
0
  6
Continuous
 62
     7
100
AcDbLine
 10
-632.0991821289062
 20
548.2423706054688
 30
0.0
 11
-632.0991821289062
 21
579.5671997070312
 31
0.0
  0
LINE
  5
489
330
22
100
AcDbEntity
  8
0
  6
Continuous
 62
     7
100
AcDbLine
 10
-637.0991821289062
 20
548.2423706054688
 30
0.0
 11
-637.0991821289062
 21
579.5671997070312
 31
0.0
  0
LINE
  5
48A
330
22
100
AcDbEntity
  8
0
  6
Continuous
 62
     7
100
AcDbLine
 10
-657.0991821289062
 20
548.2423706054688
 30
0.0
 11
-657.0991821289062
 21
579.5671997070312
 31
0.0
  0
LINE
  5
48B
330
22
100
AcDbEntity
  8
0
  6
Continuous
 62
     7
100
AcDbLine
 10
-652.0991821289062
 20
548.2423706054688
 30
0.0
 11
-652.0991821289062
 21
579.5671997070312
 31
0.0
  0
LINE
  5
48C
330
22
100
AcDbEntity
  8
0
  6
Continuous
 62
     7
100
AcDbLine
 10
-612.0991821289062
 20
548.2423706054688
 30
0.0
 11
-612.0991821289062
 21
579.5671997070312
 31
0.0
  0
LINE
  5
48D
330
22
100
AcDbEntity
  8
0
  6
Continuous
 62
     7
100
AcDbLine
 10
-607.0991821289062
 20
527.2423706054688
 30
0.0
 11
-607.0991821289062
 21
558.2423706054688
 31
0.0
  0
LINE
  5
48E
330
22
100
AcDbEntity
  8
0
  6
DASHED
 62
     7
100
AcDbLine
 10
-595.5991821289062
 20
486.0724792480469
 30
0.0
 11
-595.5991821289062
 21
605.2423706054687
 31
0.0
  0
LINE
  5
48F
330
22
100
AcDbEntity
  8
0
  6
Continuous
 62
     7
100
AcDbLine
 10
-602.0991821289062
 20
527.2423706054688
 30
0.0
 11
-602.0991821289062
 21
558.2423706054688
 31
0.0
  0
LINE
  5
490
330
22
100
AcDbEntity
  8
0
  6
DASHED
 62
     7
100
AcDbLine
 10
-590.5991821289062
 20
605.2423706054687
 30
0.0
 11
-590.5991821289062
 21
486.0724792480469
 31
0.0
  0
LINE
  5
491
330
22
100
AcDbEntity
  8
0
  6
Continuous
 62
     7
100
AcDbLine
 10
-564.0991821289062
 20
527.2423706054688
 30
0.0
 11
-564.0991821289062
 21
558.2423706054688
 31
0.0
  0
LINE
  5
492
330
22
100
AcDbEntity
  8
0
  6
Continuous
 62
     7
100
AcDbLine
 10
-584.0991821289062
 20
527.2423706054688
 30
0.0
 11
-584.0991821289062
 21
558.2423706054688
 31
0.0
  0
LINE
  5
493
330
22
100
AcDbEntity
  8
0
  6
Continuous
 62
     7
100
AcDbLine
 10
-579.0991821289062
 20
527.2423706054688
 30
0.0
 11
-579.0991821289062
 21
558.2423706054688
 31
0.0
  0
LINE
  5
494
330
22
100
AcDbEntity
  8
0
  6
Continuous
 62
     7
100
AcDbLine
 10
-569.0991821289062
 20
548.2423706054688
 30
0.0
 11
-569.0991821289062
 21
579.2423706054687
 31
0.0
  0
LINE
  5
495
330
22
100
AcDbEntity
  8
0
  6
Continuous
 62
     7
100
AcDbLine
 10
-702.0991821289062
 20
527.2423706054688
 30
0.0
 11
-702.0991821289062
 21
558.2423706054688
 31
0.0
  0
LINE
  5
496
330
22
100
AcDbEntity
  8
0
  6
Continuous
 62
     7
100
AcDbLine
 10
-707.0991821289062
 20
527.2423706054688
 30
0.0
 11
-707.0991821289062
 21
558.2423706054688
 31
0.0
  0
LINE
  5
497
330
22
100
AcDbEntity
  8
0
  6
Continuous
 62
     7
100
AcDbLine
 10
-697.0991821289062
 20
548.2423706054688
 30
0.0
 11
-697.0991821289062
 21
579.5671997070312
 31
0.0
  0
LINE
  5
498
330
22
100
AcDbEntity
  8
0
  6
DASHED
 62
     7
100
AcDbLine
 10
-724.5991821289062
 20
602.7423706054687
 30
0.0
 11
-724.5991821289062
 21
488.7423706054688
 31
0.0
  0
LINE
  5
499
330
22
100
AcDbEntity
  8
0
  6
Continuous
 62
     7
100
AcDbLine
 10
-712.0991821289062
 20
548.2423706054688
 30
0.0
 11
-712.0991821289062
 21
579.5671997070312
 31
0.0
  0
LINE
  5
49A
330
22
100
AcDbEntity
  8
0
  6
Continuous
 62
     7
100
AcDbLine
 10
-717.0991821289062
 20
548.2423706054688
 30
0.0
 11
-717.0991821289062
 21
579.5671997070312
 31
0.0
  0
LINE
  5
49B
330
22
100
AcDbEntity
  8
0
  6
Continuous
 62
     7
100
AcDbLine
 10
-682.0991821289062
 20
527.2423706054688
 30
0.0
 11
-682.0991821289062
 21
558.2423706054688
 31
0.0
  0
LINE
  5
49C
330
22
100
AcDbEntity
  8
0
  6
Continuous
 62
     7
100
AcDbLine
 10
-687.0991821289062
 20
527.2423706054688
 30
0.0
 11
-687.0991821289062
 21
558.2423706054688
 31
0.0
  0
LINE
  5
49D
330
22
100
AcDbEntity
  8
0
  6
Continuous
 62
     7
100
AcDbLine
 10
-692.0991821289062
 20
548.2423706054688
 30
0.0
 11
-692.0991821289062
 21
579.5671997070312
 31
0.0
  0
LINE
  5
49E
330
22
100
AcDbEntity
  8
0
  6
Continuous
 62
     7
100
AcDbLine
 10
-677.0991821289062
 20
713.2423706054687
 30
0.0
 11
-677.0991821289062
 21
682.2423706054687
 31
0.0
  0
LINE
  5
49F
330
22
100
AcDbEntity
  8
0
  6
Continuous
 62
     7
100
AcDbLine
 10
-677.0991821289062
 20
734.2423706054687
 30
0.0
 11
-677.0991821289062
 21
724.2423706054687
 31
0.0
  0
LINE
  5
4A0
330
22
100
AcDbEntity
  8
0
  6
DASHED
 62
     7
100
AcDbLine
 10
-600.0991821289062
 20
478.2423706054688
 30
0.0
 11
-714.0991821289063
 21
478.2423706054688
 31
0.0
  0
LINE
  5
4A1
330
22
100
AcDbEntity
  8
0
  6
DASHED
 62
     7
100
AcDbLine
 10
-716.588623046875
 20
612.2423706054687
 30
0.0
 11
-597.5991821289063
 21
612.2423706054687
 31
0.0
  0
LINE
  5
4A2
330
22
100
AcDbEntity
  8
0
  6
DASHED
 62
     7
100
AcDbLine
 10
-716.48876953125
 20
607.2423706054687
 30
0.0
 11
-597.5991821289063
 21
607.2423706054687
 31
0.0
  0
LINE
  5
4A3
330
22
100
AcDbEntity
  8
0
  6
Continuous
 62
     7
100
AcDbLine
 10
-677.0991821289062
 20
628.9174804687499
 30
0.0
 11
-677.0991821289062
 21
619.2423706054687
 31
0.0
  0
LINE
  5
4A4
330
22
100
AcDbEntity
  8
0
  6
Continuous
 62
     7
100
AcDbLine
 10
-677.0991821289062
 20
485.2423706054688
 30
0.0
 11
-677.0991821289062
 21
495.2423706054688
 31
0.0
  0
LINE
  5
4A5
330
22
100
AcDbEntity
  8
0
  6
Continuous
 62
     7
100
AcDbLine
 10
-677.0991821289062
 20
548.2423706054688
 30
0.0
 11
-677.0991821289062
 21
579.5671997070312
 31
0.0
  0
LINE
  5
4A6
330
22
100
AcDbEntity
  8
0
  6
Continuous
 62
     7
100
AcDbLine
 10
-677.0991821289062
 20
590.5671997070312
 30
0.0
 11
-677.0991821289062
 21
600.2423706054687
 31
0.0
  0
LINE
  5
4A7
330
22
100
AcDbEntity
  8
0
  6
Continuous
 62
     7
100
AcDbLine
 10
-677.0991821289062
 20
506.2423706054688
 30
0.0
 11
-677.0991821289062
 21
537.2423706054688
 31
0.0
  0
LINE
  5
4A8
330
22
100
AcDbEntity
  8
0
  6
Continuous
 62
     7
100
AcDbLine
 10
-677.0991821289062
 20
671.2423706054687
 30
0.0
 11
-677.0991821289062
 21
639.91748046875
 31
0.0
  0
LINE
  5
4A9
330
22
100
AcDbEntity
  8
0
  6
DASHED
 62
     7
100
AcDbLine
 10
-600.0991821289062
 20
741.2423706054688
 30
0.0
 11
-714.0991821289063
 21
741.2423706054688
 31
0.0
  0
LINE
  5
4AA
330
22
100
AcDbEntity
  8
0
  6
Continuous
 62
     7
100
AcDbLine
 10
-743.0991821289062
 20
754.7423706054687
 30
0.0
 11
-743.0991821289062
 21
464.7423706054688
 31
0.0
  0
LINE
  5
4AB
330
22
100
AcDbEntity
  8
0
  6
Continuous
 62
     7
100
AcDbLine
 10
-728.5991821289062
 20
744.2423706054687
 30
0.0
 11
-728.5991821289062
 21
475.2423706054687
 31
0.0
  0
LINE
  5
4AC
330
22
100
AcDbEntity
  8
0
  6
Continuous
 62
     7
100
AcDbLine
 10
-727.5991821289062
 20
742.2423706054687
 30
0.0
 11
-727.5991821289062
 21
477.2423706054688
 31
0.0
  0
LINE
  5
4AD
330
22
100
AcDbEntity
  8
0
  6
DASHED
 62
     7
100
AcDbLine
 10
-590.5991821289062
 20
733.4122314453125
 30
0.0
 11
-590.5991821289062
 21
614.2423706054687
 31
0.0
  0
LINE
  5
4AE
330
22
100
AcDbEntity
  8
0
  6
DASHED
 62
     7
100
AcDbLine
 10
-595.5991821289062
 20
614.2423706054687
 30
0.0
 11
-595.5991821289062
 21
733.4122314453125
 31
0.0
  0
LINE
  5
4AF
330
22
100
AcDbEntity
  8
0
  6
Continuous
 62
     7
100
AcDbLine
 10
-504.0992126464844
 20
650.2423706054687
 30
0.0
 11
-504.0992126464844
 21
619.2423706054687
 31
0.0
  0
LINE
  5
4B0
330
22
100
AcDbEntity
  8
0
  6
Continuous
 62
     7
100
AcDbLine
 10
-499.0992126464844
 20
650.2423706054687
 30
0.0
 11
-499.0992126464844
 21
619.2423706054687
 31
0.0
  0
LINE
  5
4B1
330
22
100
AcDbEntity
  8
0
  6
Continuous
 62
     7
100
AcDbLine
 10
-519.0991821289063
 20
650.2423706054687
 30
0.0
 11
-519.0991821289063
 21
619.2423706054687
 31
0.0
  0
LINE
  5
4B2
330
22
100
AcDbEntity
  8
0
  6
Continuous
 62
     7
100
AcDbLine
 10
-524.0991821289063
 20
650.2423706054687
 30
0.0
 11
-524.0991821289063
 21
619.2423706054687
 31
0.0
  0
LINE
  5
4B3
330
22
100
AcDbEntity
  8
0
  6
Continuous
 62
     7
100
AcDbLine
 10
-539.0991821289063
 20
650.2423706054687
 30
0.0
 11
-539.0991821289063
 21
619.2423706054687
 31
0.0
  0
LINE
  5
4B4
330
22
100
AcDbEntity
  8
0
  6
Continuous
 62
     7
100
AcDbLine
 10
-544.0991821289063
 20
650.2423706054687
 30
0.0
 11
-544.0991821289063
 21
619.2423706054687
 31
0.0
  0
LINE
  5
4B5
330
22
100
AcDbEntity
  8
0
  6
Continuous
 62
     7
100
AcDbLine
 10
-484.0992126464843
 20
650.2423706054687
 30
0.0
 11
-484.0992126464843
 21
619.2423706054687
 31
0.0
  0
LINE
  5
4B6
330
22
100
AcDbEntity
  8
0
  6
Continuous
 62
     7
100
AcDbLine
 10
-479.0992126464844
 20
650.2423706054687
 30
0.0
 11
-479.0992126464844
 21
619.2423706054687
 31
0.0
  0
LINE
  5
4B7
330
22
100
AcDbEntity
  8
0
  6
Continuous
 62
     7
100
AcDbLine
 10
-443.0992126464843
 20
464.7423706054688
 30
0.0
 11
-443.0992126464843
 21
754.7423706054687
 31
0.0
  0
LINE
  5
4B8
330
22
100
AcDbEntity
  8
0
  6
Continuous
 62
     7
100
AcDbLine
 10
-457.5992126464844
 20
475.2423706054687
 30
0.0
 11
-457.5992126464844
 21
744.2423706054687
 31
0.0
  0
LINE
  5
4B9
330
22
100
AcDbEntity
  8
0
  6
DASHED
 62
     7
100
AcDbLine
 10
-461.5992126464844
 20
616.7423706054687
 30
0.0
 11
-461.5992126464844
 21
730.7423706054687
 31
0.0
  0
LINE
  5
4BA
330
22
100
AcDbEntity
  8
0
  6
Continuous
 62
     7
100
AcDbLine
 10
-458.5992126464843
 20
477.2423706054688
 30
0.0
 11
-458.5992126464843
 21
742.2423706054687
 31
0.0
  0
LINE
  5
4BB
330
22
100
AcDbEntity
  8
0
  6
Continuous
 62
     7
100
AcDbLine
 10
-707.0991821289062
 20
650.2423706054687
 30
0.0
 11
-707.0991821289062
 21
619.2423706054687
 31
0.0
  0
LINE
  5
4BC
330
22
100
AcDbEntity
  8
0
  6
Continuous
 62
     7
100
AcDbLine
 10
-662.0991821289062
 20
650.2423706054687
 30
0.0
 11
-662.0991821289062
 21
619.2423706054687
 31
0.0
  0
LINE
  5
4BD
330
22
100
AcDbEntity
  8
0
  6
Continuous
 62
     7
100
AcDbLine
 10
-667.0991821289062
 20
650.2423706054687
 30
0.0
 11
-667.0991821289062
 21
619.2423706054687
 31
0.0
  0
LINE
  5
4BE
330
22
100
AcDbEntity
  8
0
  6
Continuous
 62
     7
100
AcDbLine
 10
-642.0991821289062
 20
650.2423706054687
 30
0.0
 11
-642.0991821289062
 21
619.2423706054687
 31
0.0
  0
LINE
  5
4BF
330
22
100
AcDbEntity
  8
0
  6
Continuous
 62
     7
100
AcDbLine
 10
-647.0991821289062
 20
650.2423706054687
 30
0.0
 11
-647.0991821289062
 21
619.2423706054687
 31
0.0
  0
LINE
  5
4C0
330
22
100
AcDbEntity
  8
0
  6
Continuous
 62
     7
100
AcDbLine
 10
-627.0991821289062
 20
650.2423706054687
 30
0.0
 11
-627.0991821289062
 21
619.2423706054687
 31
0.0
  0
LINE
  5
4C1
330
22
100
AcDbEntity
  8
0
  6
Continuous
 62
     7
100
AcDbLine
 10
-622.0991821289062
 20
650.2423706054687
 30
0.0
 11
-622.0991821289062
 21
619.2423706054687
 31
0.0
  0
LINE
  5
4C2
330
22
100
AcDbEntity
  8
0
  6
Continuous
 62
     7
100
AcDbLine
 10
-682.0991821289062
 20
650.2423706054687
 30
0.0
 11
-682.0991821289062
 21
619.2423706054687
 31
0.0
  0
LINE
  5
4C3
330
22
100
AcDbEntity
  8
0
  6
Continuous
 62
     7
100
AcDbLine
 10
-687.0991821289062
 20
650.2423706054687
 30
0.0
 11
-687.0991821289062
 21
619.2423706054687
 31
0.0
  0
LINE
  5
4C4
330
22
100
AcDbEntity
  8
0
  6
Continuous
 62
     7
100
AcDbLine
 10
-584.0991821289062
 20
650.2423706054687
 30
0.0
 11
-584.0991821289062
 21
619.2423706054687
 31
0.0
  0
LINE
  5
4C5
330
22
100
AcDbEntity
  8
0
  6
Continuous
 62
     7
100
AcDbLine
 10
-564.0991821289062
 20
650.2423706054687
 30
0.0
 11
-564.0991821289062
 21
619.2423706054687
 31
0.0
  0
LINE
  5
4C6
330
22
100
AcDbEntity
  8
0
  6
Continuous
 62
     7
100
AcDbLine
 10
-579.0991821289062
 20
650.2423706054687
 30
0.0
 11
-579.0991821289062
 21
619.2423706054687
 31
0.0
  0
LINE
  5
4C7
330
22
100
AcDbEntity
  8
0
  6
Continuous
 62
     7
100
AcDbLine
 10
-607.0991821289062
 20
650.2423706054687
 30
0.0
 11
-607.0991821289062
 21
619.2423706054687
 31
0.0
  0
LINE
  5
4C8
330
22
100
AcDbEntity
  8
0
  6
Continuous
 62
     7
100
AcDbLine
 10
-602.0991821289062
 20
650.2423706054687
 30
0.0
 11
-602.0991821289062
 21
619.2423706054687
 31
0.0
  0
LINE
  5
4C9
330
22
100
AcDbEntity
  8
0
  6
Continuous
 62
     7
100
AcDbLine
 10
-559.0991821289064
 20
650.2423706054687
 30
0.0
 11
-559.0991821289064
 21
619.2423706054687
 31
0.0
  0
LINE
  5
4CA
330
22
100
AcDbEntity
  8
0
  6
DASHED
 62
     7
100
AcDbLine
 10
-724.5991821289062
 20
730.7423706054687
 30
0.0
 11
-724.5991821289062
 21
616.7423706054687
 31
0.0
  0
LINE
  5
4CB
330
22
100
AcDbEntity
  8
0
  6
Continuous
 62
     7
100
AcDbLine
 10
-549.0991821289063
 20
485.2423706054688
 30
0.0
 11
-549.0991821289063
 21
495.2423706054688
 31
0.0
  0
LINE
  5
4CC
330
22
100
AcDbEntity
  8
0
  6
Continuous
 62
     7
100
AcDbLine
 10
-549.0991821289063
 20
548.2423706054688
 30
0.0
 11
-549.0991821289063
 21
579.2423706054687
 31
0.0
  0
LINE
  5
4CD
330
22
100
AcDbEntity
  8
0
  6
Continuous
 62
     7
100
AcDbLine
 10
-549.0991821289063
 20
590.2423706054687
 30
0.0
 11
-549.0991821289063
 21
600.2423706054687
 31
0.0
  0
LINE
  5
4CE
330
22
100
AcDbEntity
  8
0
  6
Continuous
 62
     7
100
AcDbLine
 10
-554.0991821289063
 20
713.2423706054687
 30
0.0
 11
-554.0991821289063
 21
682.2423706054687
 31
0.0
  0
LINE
  5
4CF
330
22
100
AcDbEntity
  8
0
  6
Continuous
 62
     7
100
AcDbLine
 10
-554.0991821289063
 20
671.2423706054687
 30
0.0
 11
-554.0991821289063
 21
639.91748046875
 31
0.0
  0
LINE
  5
4D0
330
22
100
AcDbEntity
  8
0
  6
Continuous
 62
     7
100
AcDbLine
 10
-554.0991821289063
 20
734.2423706054687
 30
0.0
 11
-554.0991821289063
 21
724.2423706054687
 31
0.0
  0
LINE
  5
4D1
330
22
100
AcDbEntity
  8
0
  6
Continuous
 62
     7
100
AcDbLine
 10
-549.0991821289063
 20
713.2423706054687
 30
0.0
 11
-549.0991821289063
 21
682.2423706054687
 31
0.0
  0
LINE
  5
4D2
330
22
100
AcDbEntity
  8
0
  6
Continuous
 62
     7
100
AcDbLine
 10
-549.0991821289063
 20
734.2423706054687
 30
0.0
 11
-549.0991821289063
 21
724.2423706054687
 31
0.0
  0
LINE
  5
4D3
330
22
100
AcDbEntity
  8
0
  6
Continuous
 62
     7
100
AcDbLine
 10
-549.0991821289063
 20
671.2423706054687
 30
0.0
 11
-549.0991821289063
 21
639.91748046875
 31
0.0
  0
LINE
  5
4D4
330
22
100
AcDbEntity
  8
0
  6
Continuous
 62
     7
100
AcDbLine
 10
-702.0991821289062
 20
650.2423706054687
 30
0.0
 11
-702.0991821289062
 21
619.2423706054687
 31
0.0
  0
LINE
  5
4D5
330
22
100
AcDbEntity
  8
0
  6
Continuous
 62
     7
100
AcDbLine
 10
-727.5991821289062
 20
474.2423706054688
 30
0.0
 11
-458.5992126464843
 21
474.2423706054688
 31
0.0
  0
LINE
  5
4D6
330
22
100
AcDbEntity
  8
0
  6
Continuous
 62
     7
100
AcDbLine
 10
-458.5992126464843
 20
745.2423706054688
 30
0.0
 11
-727.5991821289062
 21
745.2423706054688
 31
0.0
  0
LINE
  5
4D7
330
22
100
AcDbEntity
  8
0
  6
Continuous
 62
     7
100
AcDbLine
 10
-460.5992126464843
 20
475.2423706054687
 30
0.0
 11
-725.5991821289062
 21
475.2423706054687
 31
0.0
  0
LINE
  5
4D8
330
22
100
AcDbEntity
  8
0
  6
DASHED
 62
     7
100
AcDbLine
 10
-588.5991821289062
 20
612.2423706054687
 30
0.0
 11
-469.3294982910156
 21
612.2423706054687
 31
0.0
  0
LINE
  5
4D9
330
22
100
AcDbEntity
  8
0
  6
DASHED
 62
     7
100
AcDbLine
 10
-472.0992126464843
 20
478.2423706054688
 30
0.0
 11
-586.0991821289062
 21
478.2423706054688
 31
0.0
  0
LINE
  5
4DA
330
22
100
AcDbEntity
  8
0
  6
DASHED
 62
     7
100
AcDbLine
 10
-588.5991821289062
 20
607.2423706054687
 30
0.0
 11
-469.4293518066406
 21
607.2423706054687
 31
0.0
  0
LINE
  5
4DB
330
22
100
AcDbEntity
  8
0
  6
DASHED
 62
     7
100
AcDbLine
 10
-472.0992126464843
 20
741.2423706054688
 30
0.0
 11
-586.0991821289062
 21
741.2423706054688
 31
0.0
  0
LINE
  5
4DC
330
22
100
AcDbEntity
  8
0
  6
Continuous
 62
     7
100
AcDbLine
 10
-549.0991821289063
 20
628.9174804687499
 30
0.0
 11
-549.0991821289063
 21
619.2423706054687
 31
0.0
  0
LINE
  5
4DD
330
22
100
AcDbEntity
  8
0
  6
Continuous
 62
     7
100
AcDbLine
 10
-554.0991821289063
 20
628.9174804687499
 30
0.0
 11
-554.0991821289063
 21
619.2423706054687
 31
0.0
  0
LINE
  5
4DE
330
22
100
AcDbEntity
  8
0
  6
Continuous
 62
     7
100
AcDbLine
 10
-554.0991821289063
 20
590.2423706054687
 30
0.0
 11
-554.0991821289063
 21
600.2423706054687
 31
0.0
  0
LINE
  5
4DF
330
22
100
AcDbEntity
  8
0
  6
Continuous
 62
     7
100
AcDbLine
 10
-554.0991821289063
 20
548.2423706054688
 30
0.0
 11
-554.0991821289063
 21
579.2423706054687
 31
0.0
  0
LINE
  5
4E0
330
22
100
AcDbEntity
  8
0
  6
Continuous
 62
     7
100
AcDbLine
 10
-554.0991821289063
 20
485.2423706054688
 30
0.0
 11
-554.0991821289063
 21
495.2423706054688
 31
0.0
  0
LINE
  5
4E1
330
22
100
AcDbEntity
  8
0
  6
Continuous
 62
     7
100
AcDbLine
 10
-554.0991821289063
 20
506.2423706054688
 30
0.0
 11
-554.0991821289063
 21
537.2423706054688
 31
0.0
  0
LINE
  5
4E2
330
22
100
AcDbEntity
  8
0
  6
Continuous
 62
     7
100
AcDbLine
 10
-549.0991821289063
 20
506.2423706054688
 30
0.0
 11
-549.0991821289063
 21
537.2423706054688
 31
0.0
  0
LINE
  5
4E3
330
22
100
AcDbEntity
  8
0
  6
Continuous
 62
     7
100
AcDbLine
 10
-460.5992126464843
 20
744.2423706054687
 30
0.0
 11
-725.5991821289062
 21
744.2423706054687
 31
0.0
  0
LINE
  5
4E4
330
22
100
AcDbEntity
  8
0
  6
CENTER
 62
     7
100
AcDbLine
 10
-754.4890747070312
 20
609.7423706054687
 30
0.0
 11
-432.9683227539063
 21
609.7423706054687
 31
0.0
  0
LINE
  5
4E5
330
22
100
AcDbEntity
  8
0
  6
Continuous
 62
     7
100
AcDbLine
 10
-448.0992126464843
 20
759.7423706054687
 30
0.0
 11
-738.0991821289062
 21
759.7423706054687
 31
0.0
  0
LINE
  5
4E6
330
22
100
AcDbEntity
  8
0
  6
Continuous
 62
     7
100
AcDbLine
 10
-738.0991821289062
 20
459.7423706054688
 30
0.0
 11
-448.0992126464843
 21
459.7423706054688
 31
0.0
  0
LINE
  5
4E7
330
22
100
AcDbEntity
  8
0
  6
CENTER
 62
     7
100
AcDbLine
 10
-593.0991821289062
 20
767.7982177734374
 30
0.0
 11
-593.0991821289062
 21
450.0075073242188
 31
0.0
  0
ARC
  5
4E8
330
22
100
AcDbEntity
  8
0
  6
Continuous
 62
     7
100
AcDbCircle
 10
-558.5991821289063
 20
307.784423828125
 30
0.0
 40
1.0
100
AcDbArc
 50
119.9999304359993
 51
180.0000000000004
  0
ARC
  5
4E9
330
22
100
AcDbEntity
  8
0
  6
Continuous
 62
     7
100
AcDbCircle
 10
-559.0991821289064
 20
305.6504516601563
 30
0.0
 40
0.5
100
AcDbArc
 50
180.0000000000004
 51
270.0000000000005
  0
ARC
  5
4EA
330
22
100
AcDbEntity
  8
0
  6
Continuous
 62
     7
100
AcDbCircle
 10
-542.5770874023438
 20
304.7087097167969
 30
0.0
 40
5.0
100
AcDbArc
 50
120.0040080893478
 51
179.9919567692863
  0
ARC
  5
4EB
330
22
100
AcDbEntity
  8
0
  6
Continuous
 62
     7
100
AcDbCircle
 10
-452.0992126464843
 20
382.1504516601563
 30
0.0
 40
1.0
100
AcDbArc
 50
90.00000000000019
 51
180.0000000000004
  0
ARC
  5
4EC
330
22
100
AcDbEntity
  8
0
  6
Continuous
 62
     7
100
AcDbCircle
 10
-459.0992126464843
 20
380.6504516601563
 30
0.0
 40
1.0
100
AcDbArc
 50
270.0000000000005
 51
0.0
  0
ARC
  5
4ED
330
22
100
AcDbEntity
  8
0
  6
Continuous
 62
     7
100
AcDbCircle
 10
-444.0992126464843
 20
386.1504516601563
 30
0.0
 40
1.0
100
AcDbArc
 50
0.0
 51
90.00000000000019
  0
ARC
  5
4EE
330
22
100
AcDbEntity
  8
0
  6
Continuous
 62
     7
100
AcDbCircle
 10
-444.0992126464843
 20
384.1504516601563
 30
0.0
 40
1.0
100
AcDbArc
 50
270.0000000000005
 51
0.0
  0
ARC
  5
4EF
330
22
100
AcDbEntity
  8
0
  6
Continuous
 62
     7
100
AcDbCircle
 10
-742.0991821289062
 20
384.1504516601563
 30
0.0
 40
1.0
100
AcDbArc
 50
180.0000000000004
 51
270.0000000000005
  0
ARC
  5
4F0
330
22
100
AcDbEntity
  8
0
  6
Continuous
 62
     7
100
AcDbCircle
 10
-635.5784301757812
 20
300.0733032226563
 30
0.0
 40
5.0
100
AcDbArc
 50
0.0
 51
59.99989471096908
  0
ARC
  5
4F1
330
22
100
AcDbEntity
  8
0
  6
Continuous
 62
     7
100
AcDbCircle
 10
-612.1149902343749
 20
273.6274719238281
 30
0.0
 40
9.522980690002439
100
AcDbArc
 50
63.32869389116041
 51
93.02805441188223
  0
ARC
  5
4F2
330
22
100
AcDbEntity
  8
0
  6
Continuous
 62
     7
100
AcDbCircle
 10
-611.942626953125
 20
281.5681762695313
 30
0.0
 40
1.708203315734863
100
AcDbArc
 50
113.2906589445077
 51
160.5431017157958
  0
ARC
  5
4F3
330
22
100
AcDbEntity
  8
0
  6
Continuous
 62
     7
100
AcDbCircle
 10
-633.5991821289062
 20
153.1504669189453
 30
0.0
 40
1.0
100
AcDbArc
 50
180.0000000000004
 51
270.0000000000005
  0
ARC
  5
4F4
330
22
100
AcDbEntity
  8
0
  6
Continuous
 62
     7
100
AcDbCircle
 10
-654.3858032226562
 20
166.1049957275391
 30
0.0
 40
16.0
100
AcDbArc
 50
9.154203180757102
 51
71.24776920534023
  0
ARC
  5
4F5
330
22
100
AcDbEntity
  8
0
  6
Continuous
 62
     7
100
AcDbCircle
 10
-636.5991821289062
 20
168.6504669189453
 30
0.0
 40
2.0
100
AcDbArc
 50
180.0000000000004
 51
270.0000000000005
  0
ARC
  5
4F6
330
22
100
AcDbEntity
  8
0
  6
Continuous
 62
     7
100
AcDbCircle
 10
-633.0991821289062
 20
219.1504669189453
 30
0.0
 40
1.0
100
AcDbArc
 50
90.00000000000019
 51
180.0000000000004
  0
ARC
  5
4F7
330
22
100
AcDbEntity
  8
0
  6
Continuous
 62
     7
100
AcDbCircle
 10
-742.0991821289062
 20
386.1504516601563
 30
0.0
 40
1.0
100
AcDbArc
 50
90.00000000000019
 51
180.0000000000004
  0
ARC
  5
4F8
330
22
100
AcDbEntity
  8
0
  6
Continuous
 62
     7
100
AcDbCircle
 10
-502.5992126464843
 20
185.1504669189453
 30
0.0
 40
0.5
100
AcDbArc
 50
270.0000000000005
 51
0.0
  0
ARC
  5
4F9
330
22
100
AcDbEntity
  8
0
  6
Continuous
 62
     7
100
AcDbCircle
 10
-504.0992126464844
 20
186.1504669189453
 30
0.0
 40
2.0
100
AcDbArc
 50
0.0
 51
90.00000000000019
  0
ARC
  5
4FA
330
22
100
AcDbEntity
  8
0
  6
Continuous
 62
     7
100
AcDbCircle
 10
-473.0992126464843
 20
358.6863708496094
 30
0.0
 40
3.0
100
AcDbArc
 50
299.9999304360001
 51
0.0
  0
ARC
  5
4FB
330
22
100
AcDbEntity
  8
0
  6
Continuous
 62
     7
100
AcDbCircle
 10
-458.0992126464844
 20
365.0372009277344
 30
0.0
 40
5.0
100
AcDbArc
 50
300.0001052890317
 51
0.0
  0
ARC
  5
4FC
330
22
100
AcDbEntity
  8
0
  6
Continuous
 62
     7
100
AcDbCircle
 10
-682.0991821289062
 20
186.1504669189453
 30
0.0
 40
2.0
100
AcDbArc
 50
90.00000000000019
 51
180.0000000000004
  0
ARC
  5
4FD
330
22
100
AcDbEntity
  8
0
  6
Continuous
 62
     7
100
AcDbCircle
 10
-683.5991821289062
 20
185.1504669189453
 30
0.0
 40
0.5
100
AcDbArc
 50
180.0000000000004
 51
270.0000000000005
  0
ARC
  5
4FE
330
22
100
AcDbEntity
  8
0
  6
Continuous
 62
     7
100
AcDbCircle
 10
-648.5991821289062
 20
183.1494903564453
 30
0.0
 40
2.0
100
AcDbArc
 50
180.0000000000004
 51
251.246285333553
  0
ARC
  5
4FF
330
22
100
AcDbEntity
  8
0
  6
Continuous
 62
     7
100
AcDbCircle
 10
-635.5991821289062
 20
183.6504669189453
 30
0.0
 40
1.0
100
AcDbArc
 50
0.0
 51
90.00000000000019
  0
ARC
  5
500
330
22
100
AcDbEntity
  8
0
  6
Continuous
 62
     7
100
AcDbCircle
 10
-639.0991821289063
 20
193.1504669189453
 30
0.0
 40
5.0
100
AcDbArc
 50
270.0000000000005
 51
0.0
  0
ARC
  5
501
330
22
100
AcDbEntity
  8
0
  6
Continuous
 62
     7
100
AcDbCircle
 10
-728.0991821289062
 20
365.0372009277344
 30
0.0
 40
5.0
100
AcDbArc
 50
180.0000000000004
 51
239.9998947109698
  0
ARC
  5
502
330
22
100
AcDbEntity
  8
0
  6
Continuous
 62
     7
100
AcDbCircle
 10
-553.0991821289063
 20
219.1504669189453
 30
0.0
 40
1.0
100
AcDbArc
 50
0.0
 51
90.00000000000019
  0
ARC
  5
503
330
22
100
AcDbEntity
  8
0
  6
Continuous
 62
     7
100
AcDbCircle
 10
-547.0991821289064
 20
193.1504669189453
 30
0.0
 40
5.0
100
AcDbArc
 50
180.0000000000004
 51
270.0000000000005
  0
ARC
  5
504
330
22
100
AcDbEntity
  8
0
  6
Continuous
 62
     7
100
AcDbCircle
 10
-550.5991821289064
 20
183.6504669189453
 30
0.0
 40
1.0
100
AcDbArc
 50
90.00000000000019
 51
180.0000000000004
  0
ARC
  5
505
330
22
100
AcDbEntity
  8
0
  6
Continuous
 62
     7
100
AcDbCircle
 10
-552.5991821289063
 20
153.1504669189453
 30
0.0
 40
1.0
100
AcDbArc
 50
270.0000000000005
 51
0.0
  0
ARC
  5
506
330
22
100
AcDbEntity
  8
0
  6
DASHED
 62
     7
100
AcDbCircle
 10
-465.0992126464843
 20
737.7423706054687
 30
0.0
 40
5.0
100
AcDbArc
 50
180.0000000000004
 51
270.0000000000005
  0
ARC
  5
507
330
22
100
AcDbEntity
  8
0
  6
DASHED
 62
     7
100
AcDbCircle
 10
-463.5992126464843
 20
730.7423706054687
 30
0.0
 40
2.0
100
AcDbArc
 50
0.0
 51
90.00000000000019
  0
ARC
  5
508
330
22
100
AcDbEntity
  8
0
  6
Continuous
 62
     7
100
AcDbCircle
 10
-460.5992126464843
 20
742.2423706054687
 30
0.0
 40
2.0
100
AcDbArc
 50
0.0
 51
90.00000000000019
  0
ARC
  5
509
330
22
100
AcDbEntity
  8
0
  6
Continuous
 62
     7
100
AcDbCircle
 10
-448.0992126464843
 20
754.7423706054687
 30
0.0
 40
5.0
100
AcDbArc
 50
0.0
 51
90.00000000000019
  0
ARC
  5
50A
330
22
100
AcDbEntity
  8
0
  6
Continuous
 62
     7
100
AcDbCircle
 10
-531.5991821289063
 20
734.2423706054687
 30
0.0
 40
2.5
100
AcDbArc
 50
0.0
 51
180.0000000000004
  0
ARC
  5
50B
330
22
100
AcDbEntity
  8
0
  6
Continuous
 62
     7
100
AcDbCircle
 10
-491.5992126464844
 20
734.2423706054687
 30
0.0
 40
2.5
100
AcDbArc
 50
0.0
 51
180.0000000000004
  0
ARC
  5
50C
330
22
100
AcDbEntity
  8
0
  6
Continuous
 62
     7
100
AcDbCircle
 10
-481.5992126464843
 20
734.2423706054687
 30
0.0
 40
2.5
100
AcDbArc
 50
0.0
 51
180.0000000000004
  0
ARC
  5
50D
330
22
100
AcDbEntity
  8
0
  6
Continuous
 62
     7
100
AcDbCircle
 10
-471.5992126464843
 20
729.2423706054687
 30
0.0
 40
2.5
100
AcDbArc
 50
0.0
 51
180.0000000000004
  0
CIRCLE
  5
50E
330
22
100
AcDbEntity
  8
0
  6
Continuous
 62
     7
100
AcDbCircle
 10
-465.0992126464843
 20
737.7423706054687
 30
0.0
 40
4.75
  0
CIRCLE
  5
50F
330
22
100
AcDbEntity
  8
0
  6
Continuous
 62
     7
100
AcDbCircle
 10
-465.0992126464843
 20
737.7423706054687
 30
0.0
 40
4.5
  0
ARC
  5
510
330
22
100
AcDbEntity
  8
0
  6
Continuous
 62
     7
100
AcDbCircle
 10
-458.5992126464843
 20
744.2423706054687
 30
0.0
 40
1.0
100
AcDbArc
 50
0.0
 51
90.00000000000019
  0
ARC
  5
511
330
22
100
AcDbEntity
  8
0
  6
DASHED
 62
     7
100
AcDbCircle
 10
-472.0992126464843
 20
739.2423706054687
 30
0.0
 40
2.0
100
AcDbArc
 50
0.0
 51
90.00000000000019
  0
ARC
  5
512
330
22
100
AcDbEntity
  8
0
  6
Continuous
 62
     7
100
AcDbCircle
 10
-541.5991821289063
 20
692.2423706054687
 30
0.0
 40
2.5
100
AcDbArc
 50
0.0
 51
180.0000000000004
  0
ARC
  5
513
330
22
100
AcDbEntity
  8
0
  6
Continuous
 62
     7
100
AcDbCircle
 10
-531.5991821289063
 20
682.2423706054687
 30
0.0
 40
2.5
100
AcDbArc
 50
180.0000000000004
 51
0.0
  0
ARC
  5
514
330
22
100
AcDbEntity
  8
0
  6
Continuous
 62
     7
100
AcDbCircle
 10
-521.5991821289064
 20
692.2423706054687
 30
0.0
 40
2.5
100
AcDbArc
 50
0.0
 51
180.0000000000004
  0
ARC
  5
515
330
22
100
AcDbEntity
  8
0
  6
Continuous
 62
     7
100
AcDbCircle
 10
-521.5991821289064
 20
703.2423706054687
 30
0.0
 40
2.5
100
AcDbArc
 50
180.0000000000004
 51
0.0
  0
ARC
  5
516
330
22
100
AcDbEntity
  8
0
  6
Continuous
 62
     7
100
AcDbCircle
 10
-491.5992126464844
 20
671.2423706054687
 30
0.0
 40
2.5
100
AcDbArc
 50
0.0
 51
180.0000000000004
  0
ARC
  5
517
330
22
100
AcDbEntity
  8
0
  6
Continuous
 62
     7
100
AcDbCircle
 10
-491.5992126464844
 20
682.2423706054687
 30
0.0
 40
2.5
100
AcDbArc
 50
180.0000000000004
 51
0.0
  0
ARC
  5
518
330
22
100
AcDbEntity
  8
0
  6
Continuous
 62
     7
100
AcDbCircle
 10
-491.5992126464844
 20
713.2423706054687
 30
0.0
 40
2.5
100
AcDbArc
 50
0.0
 51
180.0000000000004
  0
ARC
  5
519
330
22
100
AcDbEntity
  8
0
  6
Continuous
 62
     7
100
AcDbCircle
 10
-471.5992126464843
 20
671.2423706054687
 30
0.0
 40
2.5
100
AcDbArc
 50
0.0
 51
180.0000000000004
  0
ARC
  5
51A
330
22
100
AcDbEntity
  8
0
  6
Continuous
 62
     7
100
AcDbCircle
 10
-471.5992126464843
 20
682.2423706054687
 30
0.0
 40
2.5
100
AcDbArc
 50
180.0000000000004
 51
0.0
  0
ARC
  5
51B
330
22
100
AcDbEntity
  8
0
  6
Continuous
 62
     7
100
AcDbCircle
 10
-471.5992126464843
 20
713.2423706054687
 30
0.0
 40
2.5
100
AcDbArc
 50
0.0
 51
180.0000000000004
  0
ARC
  5
51C
330
22
100
AcDbEntity
  8
0
  6
Continuous
 62
     7
100
AcDbCircle
 10
-481.5992126464843
 20
703.2423706054687
 30
0.0
 40
2.5
100
AcDbArc
 50
180.0000000000004
 51
0.0
  0
ARC
  5
51D
330
22
100
AcDbEntity
  8
0
  6
Continuous
 62
     7
100
AcDbCircle
 10
-481.5992126464843
 20
692.2423706054687
 30
0.0
 40
2.5
100
AcDbArc
 50
0.0
 51
180.0000000000004
  0
ARC
  5
51E
330
22
100
AcDbEntity
  8
0
  6
Continuous
 62
     7
100
AcDbCircle
 10
-511.5992126464844
 20
734.2423706054687
 30
0.0
 40
2.5
100
AcDbArc
 50
0.0
 51
180.0000000000004
  0
ARC
  5
51F
330
22
100
AcDbEntity
  8
0
  6
Continuous
 62
     7
100
AcDbCircle
 10
-501.5992126464843
 20
734.2423706054687
 30
0.0
 40
2.5
100
AcDbArc
 50
0.0
 51
180.0000000000004
  0
ARC
  5
520
330
22
100
AcDbEntity
  8
0
  6
Continuous
 62
     7
100
AcDbCircle
 10
-521.5991821289064
 20
734.2423706054687
 30
0.0
 40
2.5
100
AcDbArc
 50
0.0
 51
180.0000000000004
  0
ARC
  5
521
330
22
100
AcDbEntity
  8
0
  6
Continuous
 62
     7
100
AcDbCircle
 10
-541.5991821289063
 20
734.2423706054687
 30
0.0
 40
2.5
100
AcDbArc
 50
0.0
 51
180.0000000000004
  0
ARC
  5
522
330
22
100
AcDbEntity
  8
0
  6
Continuous
 62
     7
100
AcDbCircle
 10
-541.5991821289063
 20
661.2423706054687
 30
0.0
 40
2.5
100
AcDbArc
 50
180.0000000000004
 51
0.0
  0
ARC
  5
523
330
22
100
AcDbEntity
  8
0
  6
Continuous
 62
     7
100
AcDbCircle
 10
-481.5992126464843
 20
650.2423706054687
 30
0.0
 40
2.5
100
AcDbArc
 50
0.0
 51
180.0000000000004
  0
ARC
  5
524
330
22
100
AcDbEntity
  8
0
  6
Continuous
 62
     7
100
AcDbCircle
 10
-481.5992126464843
 20
661.2423706054687
 30
0.0
 40
2.5
100
AcDbArc
 50
180.0000000000004
 51
0.0
  0
ARC
  5
525
330
22
100
AcDbEntity
  8
0
  6
Continuous
 62
     7
100
AcDbCircle
 10
-511.5992126464844
 20
713.2423706054687
 30
0.0
 40
2.5
100
AcDbArc
 50
0.0
 51
180.0000000000004
  0
ARC
  5
526
330
22
100
AcDbEntity
  8
0
  6
Continuous
 62
     7
100
AcDbCircle
 10
-511.5992126464844
 20
682.2423706054687
 30
0.0
 40
2.5
100
AcDbArc
 50
180.0000000000004
 51
0.0
  0
ARC
  5
527
330
22
100
AcDbEntity
  8
0
  6
Continuous
 62
     7
100
AcDbCircle
 10
-511.5992126464844
 20
671.2423706054687
 30
0.0
 40
2.5
100
AcDbArc
 50
0.0
 51
180.0000000000004
  0
ARC
  5
528
330
22
100
AcDbEntity
  8
0
  6
Continuous
 62
     7
100
AcDbCircle
 10
-501.5992126464843
 20
692.2423706054687
 30
0.0
 40
2.5
100
AcDbArc
 50
0.0
 51
180.0000000000004
  0
ARC
  5
529
330
22
100
AcDbEntity
  8
0
  6
Continuous
 62
     7
100
AcDbCircle
 10
-501.5992126464843
 20
703.2423706054687
 30
0.0
 40
2.5
100
AcDbArc
 50
180.0000000000004
 51
0.0
  0
ARC
  5
52A
330
22
100
AcDbEntity
  8
0
  6
Continuous
 62
     7
100
AcDbCircle
 10
-531.5991821289063
 20
713.2423706054687
 30
0.0
 40
2.5
100
AcDbArc
 50
0.0
 51
180.0000000000004
  0
ARC
  5
52B
330
22
100
AcDbEntity
  8
0
  6
Continuous
 62
     7
100
AcDbCircle
 10
-531.5991821289063
 20
671.2423706054687
 30
0.0
 40
2.5
100
AcDbArc
 50
0.0
 51
180.0000000000004
  0
ARC
  5
52C
330
22
100
AcDbEntity
  8
0
  6
Continuous
 62
     7
100
AcDbCircle
 10
-541.5991821289063
 20
703.2423706054687
 30
0.0
 40
2.5
100
AcDbArc
 50
180.0000000000004
 51
0.0
  0
ARC
  5
52D
330
22
100
AcDbEntity
  8
0
  6
DASHED
 62
     7
100
AcDbCircle
 10
-463.5992126464843
 20
602.7423706054687
 30
0.0
 40
2.0
100
AcDbArc
 50
0.0
 51
90.00000000000019
  0
ARC
  5
52E
330
22
100
AcDbEntity
  8
0
  6
DASHED
 62
     7
100
AcDbCircle
 10
-465.0992126464843
 20
609.7423706054687
 30
0.0
 40
5.0
100
AcDbArc
 50
209.9999304360001
 51
270.0000000000005
  0
ARC
  5
52F
330
22
100
AcDbEntity
  8
0
  6
Continuous
 62
     7
100
AcDbCircle
 10
-501.5992126464843
 20
661.2423706054687
 30
0.0
 40
2.5
100
AcDbArc
 50
180.0000000000004
 51
0.0
  0
ARC
  5
530
330
22
100
AcDbEntity
  8
0
  6
Continuous
 62
     7
100
AcDbCircle
 10
-501.5992126464843
 20
650.2423706054687
 30
0.0
 40
2.5
100
AcDbArc
 50
0.0
 51
180.0000000000004
  0
ARC
  5
531
330
22
100
AcDbEntity
  8
0
  6
Continuous
 62
     7
100
AcDbCircle
 10
-521.5991821289064
 20
650.2423706054687
 30
0.0
 40
2.5
100
AcDbArc
 50
0.0
 51
180.0000000000004
  0
ARC
  5
532
330
22
100
AcDbEntity
  8
0
  6
Continuous
 62
     7
100
AcDbCircle
 10
-521.5991821289064
 20
661.2423706054687
 30
0.0
 40
2.5
100
AcDbArc
 50
180.0000000000004
 51
0.0
  0
ARC
  5
533
330
22
100
AcDbEntity
  8
0
  6
Continuous
 62
     7
100
AcDbCircle
 10
-541.5991821289063
 20
650.2423706054687
 30
0.0
 40
2.5
100
AcDbArc
 50
0.0
 51
180.0000000000004
  0
CIRCLE
  5
534
330
22
100
AcDbEntity
  8
0
  6
Continuous
 62
     7
100
AcDbCircle
 10
-465.0992126464843
 20
609.7423706054687
 30
0.0
 40
4.5
  0
CIRCLE
  5
535
330
22
100
AcDbEntity
  8
0
  6
Continuous
 62
     7
100
AcDbCircle
 10
-465.0992126464843
 20
609.7423706054687
 30
0.0
 40
4.75
  0
ARC
  5
536
330
22
100
AcDbEntity
  8
0
  6
DASHED
 62
     7
100
AcDbCircle
 10
-465.0992126464843
 20
609.7423706054687
 30
0.0
 40
5.0
100
AcDbArc
 50
90.00000000000019
 51
150.0000695640007
  0
ARC
  5
537
330
22
100
AcDbEntity
  8
0
  6
Continuous
 62
     7
100
AcDbCircle
 10
-471.5992126464843
 20
600.2423706054687
 30
0.0
 40
2.5
100
AcDbArc
 50
0.0
 51
180.0000000000004
  0
ARC
  5
538
330
22
100
AcDbEntity
  8
0
  6
Continuous
 62
     7
100
AcDbCircle
 10
-471.5992126464843
 20
579.2423706054687
 30
0.0
 40
2.5
100
AcDbArc
 50
0.0
 51
180.0000000000004
  0
ARC
  5
539
330
22
100
AcDbEntity
  8
0
  6
Continuous
 62
     7
100
AcDbCircle
 10
-471.5992126464843
 20
590.2423706054687
 30
0.0
 40
2.5
100
AcDbArc
 50
180.0000000000004
 51
0.0
  0
ARC
  5
53A
330
22
100
AcDbEntity
  8
0
  6
Continuous
 62
     7
100
AcDbCircle
 10
-541.5991821289063
 20
569.2423706054687
 30
0.0
 40
2.5
100
AcDbArc
 50
180.0000000000004
 51
0.0
  0
ARC
  5
53B
330
22
100
AcDbEntity
  8
0
  6
Continuous
 62
     7
100
AcDbCircle
 10
-541.5991821289063
 20
600.2423706054687
 30
0.0
 40
2.5
100
AcDbArc
 50
0.0
 51
180.0000000000004
  0
ARC
  5
53C
330
22
100
AcDbEntity
  8
0
  6
Continuous
 62
     7
100
AcDbCircle
 10
-541.5991821289063
 20
558.2423706054688
 30
0.0
 40
2.5
100
AcDbArc
 50
0.0
 51
180.0000000000004
  0
ARC
  5
53D
330
22
100
AcDbEntity
  8
0
  6
Continuous
 62
     7
100
AcDbCircle
 10
-471.5992126464843
 20
628.9174804687499
 30
0.0
 40
2.5
100
AcDbArc
 50
0.0
 51
180.0000000000004
  0
ARC
  5
53E
330
22
100
AcDbEntity
  8
0
  6
Continuous
 62
     7
100
AcDbCircle
 10
-491.5992126464844
 20
628.9174804687499
 30
0.0
 40
2.5
100
AcDbArc
 50
0.0
 51
180.0000000000004
  0
ARC
  5
53F
330
22
100
AcDbEntity
  8
0
  6
Continuous
 62
     7
100
AcDbCircle
 10
-491.5992126464844
 20
590.2423706054687
 30
0.0
 40
2.5
100
AcDbArc
 50
180.0000000000004
 51
0.0
  0
ARC
  5
540
330
22
100
AcDbEntity
  8
0
  6
Continuous
 62
     7
100
AcDbCircle
 10
-481.5992126464843
 20
619.2423706054687
 30
0.0
 40
2.5
100
AcDbArc
 50
180.0000000000004
 51
0.0
  0
ARC
  5
541
330
22
100
AcDbEntity
  8
0
  6
Continuous
 62
     7
100
AcDbCircle
 10
-471.5992126464843
 20
619.2423706054687
 30
0.0
 40
2.5
100
AcDbArc
 50
180.0000000000004
 51
0.0
  0
ARC
  5
542
330
22
100
AcDbEntity
  8
0
  6
DASHED
 62
     7
100
AcDbCircle
 10
-463.5992126464843
 20
616.7423706054687
 30
0.0
 40
2.0
100
AcDbArc
 50
270.0000000000005
 51
0.0
  0
ARC
  5
543
330
22
100
AcDbEntity
  8
0
  6
Continuous
 62
     7
100
AcDbCircle
 10
-491.5992126464844
 20
619.2423706054687
 30
0.0
 40
2.5
100
AcDbArc
 50
180.0000000000004
 51
0.0
  0
ARC
  5
544
330
22
100
AcDbEntity
  8
0
  6
Continuous
 62
     7
100
AcDbCircle
 10
-491.5992126464844
 20
579.2423706054687
 30
0.0
 40
2.5
100
AcDbArc
 50
0.0
 51
180.0000000000004
  0
ARC
  5
545
330
22
100
AcDbEntity
  8
0
  6
Continuous
 62
     7
100
AcDbCircle
 10
-491.5992126464844
 20
600.2423706054687
 30
0.0
 40
2.5
100
AcDbArc
 50
0.0
 51
180.0000000000004
  0
ARC
  5
546
330
22
100
AcDbEntity
  8
0
  6
Continuous
 62
     7
100
AcDbCircle
 10
-481.5992126464843
 20
558.2423706054688
 30
0.0
 40
2.5
100
AcDbArc
 50
0.0
 51
180.0000000000004
  0
ARC
  5
547
330
22
100
AcDbEntity
  8
0
  6
Continuous
 62
     7
100
AcDbCircle
 10
-481.5992126464843
 20
600.2423706054687
 30
0.0
 40
2.5
100
AcDbArc
 50
0.0
 51
180.0000000000004
  0
ARC
  5
548
330
22
100
AcDbEntity
  8
0
  6
Continuous
 62
     7
100
AcDbCircle
 10
-481.5992126464843
 20
569.2423706054687
 30
0.0
 40
2.5
100
AcDbArc
 50
180.0000000000004
 51
0.0
  0
ARC
  5
549
330
22
100
AcDbEntity
  8
0
  6
Continuous
 62
     7
100
AcDbCircle
 10
-511.5992126464844
 20
590.2423706054687
 30
0.0
 40
2.5
100
AcDbArc
 50
180.0000000000004
 51
0.0
  0
ARC
  5
54A
330
22
100
AcDbEntity
  8
0
  6
Continuous
 62
     7
100
AcDbCircle
 10
-511.5992126464844
 20
579.2423706054687
 30
0.0
 40
2.5
100
AcDbArc
 50
0.0
 51
180.0000000000004
  0
ARC
  5
54B
330
22
100
AcDbEntity
  8
0
  6
Continuous
 62
     7
100
AcDbCircle
 10
-501.5992126464843
 20
600.2423706054687
 30
0.0
 40
2.5
100
AcDbArc
 50
0.0
 51
180.0000000000004
  0
ARC
  5
54C
330
22
100
AcDbEntity
  8
0
  6
Continuous
 62
     7
100
AcDbCircle
 10
-511.5992126464844
 20
600.2423706054687
 30
0.0
 40
2.5
100
AcDbArc
 50
0.0
 51
180.0000000000004
  0
ARC
  5
54D
330
22
100
AcDbEntity
  8
0
  6
Continuous
 62
     7
100
AcDbCircle
 10
-531.5991821289063
 20
628.9174804687499
 30
0.0
 40
2.5
100
AcDbArc
 50
0.0
 51
180.0000000000004
  0
ARC
  5
54E
330
22
100
AcDbEntity
  8
0
  6
Continuous
 62
     7
100
AcDbCircle
 10
-531.5991821289063
 20
619.2423706054687
 30
0.0
 40
2.5
100
AcDbArc
 50
180.0000000000004
 51
0.0
  0
ARC
  5
54F
330
22
100
AcDbEntity
  8
0
  6
Continuous
 62
     7
100
AcDbCircle
 10
-521.5991821289064
 20
619.2423706054687
 30
0.0
 40
2.5
100
AcDbArc
 50
180.0000000000004
 51
0.0
  0
ARC
  5
550
330
22
100
AcDbEntity
  8
0
  6
Continuous
 62
     7
100
AcDbCircle
 10
-531.5991821289063
 20
590.2423706054687
 30
0.0
 40
2.5
100
AcDbArc
 50
180.0000000000004
 51
0.0
  0
ARC
  5
551
330
22
100
AcDbEntity
  8
0
  6
Continuous
 62
     7
100
AcDbCircle
 10
-521.5991821289064
 20
558.2423706054688
 30
0.0
 40
2.5
100
AcDbArc
 50
0.0
 51
180.0000000000004
  0
ARC
  5
552
330
22
100
AcDbEntity
  8
0
  6
Continuous
 62
     7
100
AcDbCircle
 10
-531.5991821289063
 20
579.2423706054687
 30
0.0
 40
2.5
100
AcDbArc
 50
0.0
 51
180.0000000000004
  0
ARC
  5
553
330
22
100
AcDbEntity
  8
0
  6
Continuous
 62
     7
100
AcDbCircle
 10
-531.5991821289063
 20
600.2423706054687
 30
0.0
 40
2.5
100
AcDbArc
 50
0.0
 51
180.0000000000004
  0
ARC
  5
554
330
22
100
AcDbEntity
  8
0
  6
Continuous
 62
     7
100
AcDbCircle
 10
-521.5991821289064
 20
569.2423706054687
 30
0.0
 40
2.5
100
AcDbArc
 50
180.0000000000004
 51
0.0
  0
ARC
  5
555
330
22
100
AcDbEntity
  8
0
  6
Continuous
 62
     7
100
AcDbCircle
 10
-521.5991821289064
 20
600.2423706054687
 30
0.0
 40
2.5
100
AcDbArc
 50
0.0
 51
180.0000000000004
  0
ARC
  5
556
330
22
100
AcDbEntity
  8
0
  6
Continuous
 62
     7
100
AcDbCircle
 10
-541.5991821289063
 20
619.2423706054687
 30
0.0
 40
2.5
100
AcDbArc
 50
180.0000000000004
 51
0.0
  0
CIRCLE
  5
557
330
22
100
AcDbEntity
  8
0
  6
Continuous
 62
     7
100
AcDbCircle
 10
-465.0992126464843
 20
481.7423706054688
 30
0.0
 40
4.5
  0
ARC
  5
558
330
22
100
AcDbEntity
  8
0
  6
Continuous
 62
     7
100
AcDbCircle
 10
-458.5992126464843
 20
475.2423706054687
 30
0.0
 40
1.0
100
AcDbArc
 50
270.0000000000005
 51
0.0
  0
ARC
  5
559
330
22
100
AcDbEntity
  8
0
  6
DASHED
 62
     7
100
AcDbCircle
 10
-463.5992126464843
 20
488.7423706054688
 30
0.0
 40
2.0
100
AcDbArc
 50
270.0000000000005
 51
0.0
  0
ARC
  5
55A
330
22
100
AcDbEntity
  8
0
  6
DASHED
 62
     7
100
AcDbCircle
 10
-472.0992126464843
 20
480.2423706054688
 30
0.0
 40
2.0
100
AcDbArc
 50
270.0000000000005
 51
0.0
  0
ARC
  5
55B
330
22
100
AcDbEntity
  8
0
  6
DASHED
 62
     7
100
AcDbCircle
 10
-465.0992126464843
 20
481.7423706054688
 30
0.0
 40
5.0
100
AcDbArc
 50
90.00000000000019
 51
180.0000000000004
  0
ARC
  5
55C
330
22
100
AcDbEntity
  8
0
  6
Continuous
 62
     7
100
AcDbCircle
 10
-511.5992126464844
 20
628.9174804687499
 30
0.0
 40
2.5
100
AcDbArc
 50
0.0
 51
180.0000000000004
  0
ARC
  5
55D
330
22
100
AcDbEntity
  8
0
  6
Continuous
 62
     7
100
AcDbCircle
 10
-511.5992126464844
 20
619.2423706054687
 30
0.0
 40
2.5
100
AcDbArc
 50
180.0000000000004
 51
0.0
  0
ARC
  5
55E
330
22
100
AcDbEntity
  8
0
  6
Continuous
 62
     7
100
AcDbCircle
 10
-501.5992126464843
 20
619.2423706054687
 30
0.0
 40
2.5
100
AcDbArc
 50
180.0000000000004
 51
0.0
  0
ARC
  5
55F
330
22
100
AcDbEntity
  8
0
  6
Continuous
 62
     7
100
AcDbCircle
 10
-501.5992126464843
 20
558.2423706054688
 30
0.0
 40
2.5
100
AcDbArc
 50
0.0
 51
180.0000000000004
  0
ARC
  5
560
330
22
100
AcDbEntity
  8
0
  6
Continuous
 62
     7
100
AcDbCircle
 10
-501.5992126464843
 20
569.2423706054687
 30
0.0
 40
2.5
100
AcDbArc
 50
180.0000000000004
 51
0.0
  0
ARC
  5
561
330
22
100
AcDbEntity
  8
0
  6
Continuous
 62
     7
100
AcDbCircle
 10
-460.5992126464843
 20
477.2423706054688
 30
0.0
 40
2.0
100
AcDbArc
 50
270.0000000000005
 51
0.0
  0
ARC
  5
562
330
22
100
AcDbEntity
  8
0
  6
Continuous
 62
     7
100
AcDbCircle
 10
-471.5992126464843
 20
490.2423706054688
 30
0.0
 40
2.5
100
AcDbArc
 50
180.0000000000004
 51
0.0
  0
CIRCLE
  5
563
330
22
100
AcDbEntity
  8
0
  6
Continuous
 62
     7
100
AcDbCircle
 10
-465.0992126464843
 20
481.7423706054688
 30
0.0
 40
4.75
  0
ARC
  5
564
330
22
100
AcDbEntity
  8
0
  6
Continuous
 62
     7
100
AcDbCircle
 10
-541.5991821289063
 20
527.2423706054688
 30
0.0
 40
2.5
100
AcDbArc
 50
180.0000000000004
 51
0.0
  0
ARC
  5
565
330
22
100
AcDbEntity
  8
0
  6
Continuous
 62
     7
100
AcDbCircle
 10
-541.5991821289063
 20
516.2423706054688
 30
0.0
 40
2.5
100
AcDbArc
 50
0.0
 51
180.0000000000004
  0
ARC
  5
566
330
22
100
AcDbEntity
  8
0
  6
Continuous
 62
     7
100
AcDbCircle
 10
-541.5991821289063
 20
485.2423706054688
 30
0.0
 40
2.5
100
AcDbArc
 50
180.0000000000004
 51
0.0
  0
ARC
  5
567
330
22
100
AcDbEntity
  8
0
  6
Continuous
 62
     7
100
AcDbCircle
 10
-491.5992126464844
 20
506.2423706054688
 30
0.0
 40
2.5
100
AcDbArc
 50
180.0000000000004
 51
0.0
  0
ARC
  5
568
330
22
100
AcDbEntity
  8
0
  6
Continuous
 62
     7
100
AcDbCircle
 10
-491.5992126464844
 20
537.2423706054688
 30
0.0
 40
2.5
100
AcDbArc
 50
0.0
 51
180.0000000000004
  0
ARC
  5
569
330
22
100
AcDbEntity
  8
0
  6
Continuous
 62
     7
100
AcDbCircle
 10
-491.5992126464844
 20
485.2423706054688
 30
0.0
 40
2.5
100
AcDbArc
 50
180.0000000000004
 51
0.0
  0
ARC
  5
56A
330
22
100
AcDbEntity
  8
0
  6
Continuous
 62
     7
100
AcDbCircle
 10
-491.5992126464844
 20
495.2423706054688
 30
0.0
 40
2.5
100
AcDbArc
 50
0.0
 51
180.0000000000004
  0
ARC
  5
56B
330
22
100
AcDbEntity
  8
0
  6
Continuous
 62
     7
100
AcDbCircle
 10
-481.5992126464843
 20
485.2423706054688
 30
0.0
 40
2.5
100
AcDbArc
 50
180.0000000000004
 51
0.0
  0
ARC
  5
56C
330
22
100
AcDbEntity
  8
0
  6
Continuous
 62
     7
100
AcDbCircle
 10
-471.5992126464843
 20
537.2423706054688
 30
0.0
 40
2.5
100
AcDbArc
 50
0.0
 51
180.0000000000004
  0
ARC
  5
56D
330
22
100
AcDbEntity
  8
0
  6
Continuous
 62
     7
100
AcDbCircle
 10
-471.5992126464843
 20
495.2423706054688
 30
0.0
 40
2.5
100
AcDbArc
 50
0.0
 51
180.0000000000004
  0
ARC
  5
56E
330
22
100
AcDbEntity
  8
0
  6
Continuous
 62
     7
100
AcDbCircle
 10
-471.5992126464843
 20
506.2423706054688
 30
0.0
 40
2.5
100
AcDbArc
 50
180.0000000000004
 51
0.0
  0
ARC
  5
56F
330
22
100
AcDbEntity
  8
0
  6
Continuous
 62
     7
100
AcDbCircle
 10
-481.5992126464843
 20
527.2423706054688
 30
0.0
 40
2.5
100
AcDbArc
 50
180.0000000000004
 51
0.0
  0
ARC
  5
570
330
22
100
AcDbEntity
  8
0
  6
Continuous
 62
     7
100
AcDbCircle
 10
-481.5992126464843
 20
516.2423706054688
 30
0.0
 40
2.5
100
AcDbArc
 50
0.0
 51
180.0000000000004
  0
ARC
  5
571
330
22
100
AcDbEntity
  8
0
  6
Continuous
 62
     7
100
AcDbCircle
 10
-511.5992126464844
 20
495.2423706054688
 30
0.0
 40
2.5
100
AcDbArc
 50
0.0
 51
180.0000000000004
  0
ARC
  5
572
330
22
100
AcDbEntity
  8
0
  6
Continuous
 62
     7
100
AcDbCircle
 10
-501.5992126464843
 20
485.2423706054688
 30
0.0
 40
2.5
100
AcDbArc
 50
180.0000000000004
 51
0.0
  0
ARC
  5
573
330
22
100
AcDbEntity
  8
0
  6
Continuous
 62
     7
100
AcDbCircle
 10
-511.5992126464844
 20
485.2423706054688
 30
0.0
 40
2.5
100
AcDbArc
 50
180.0000000000004
 51
0.0
  0
ARC
  5
574
330
22
100
AcDbEntity
  8
0
  6
Continuous
 62
     7
100
AcDbCircle
 10
-501.5992126464843
 20
516.2423706054688
 30
0.0
 40
2.5
100
AcDbArc
 50
0.0
 51
180.0000000000004
  0
ARC
  5
575
330
22
100
AcDbEntity
  8
0
  6
Continuous
 62
     7
100
AcDbCircle
 10
-501.5992126464843
 20
527.2423706054688
 30
0.0
 40
2.5
100
AcDbArc
 50
180.0000000000004
 51
0.0
  0
ARC
  5
576
330
22
100
AcDbEntity
  8
0
  6
Continuous
 62
     7
100
AcDbCircle
 10
-511.5992126464844
 20
537.2423706054688
 30
0.0
 40
2.5
100
AcDbArc
 50
0.0
 51
180.0000000000004
  0
ARC
  5
577
330
22
100
AcDbEntity
  8
0
  6
Continuous
 62
     7
100
AcDbCircle
 10
-531.5991821289063
 20
495.2423706054688
 30
0.0
 40
2.5
100
AcDbArc
 50
0.0
 51
180.0000000000004
  0
ARC
  5
578
330
22
100
AcDbEntity
  8
0
  6
Continuous
 62
     7
100
AcDbCircle
 10
-531.5991821289063
 20
506.2423706054688
 30
0.0
 40
2.5
100
AcDbArc
 50
180.0000000000004
 51
0.0
  0
ARC
  5
579
330
22
100
AcDbEntity
  8
0
  6
Continuous
 62
     7
100
AcDbCircle
 10
-531.5991821289063
 20
537.2423706054688
 30
0.0
 40
2.5
100
AcDbArc
 50
0.0
 51
180.0000000000004
  0
ARC
  5
57A
330
22
100
AcDbEntity
  8
0
  6
Continuous
 62
     7
100
AcDbCircle
 10
-531.5991821289063
 20
485.2423706054688
 30
0.0
 40
2.5
100
AcDbArc
 50
180.0000000000004
 51
0.0
  0
ARC
  5
57B
330
22
100
AcDbEntity
  8
0
  6
Continuous
 62
     7
100
AcDbCircle
 10
-521.5991821289064
 20
485.2423706054688
 30
0.0
 40
2.5
100
AcDbArc
 50
180.0000000000004
 51
0.0
  0
ARC
  5
57C
330
22
100
AcDbEntity
  8
0
  6
Continuous
 62
     7
100
AcDbCircle
 10
-521.5991821289064
 20
516.2423706054688
 30
0.0
 40
2.5
100
AcDbArc
 50
0.0
 51
180.0000000000004
  0
ARC
  5
57D
330
22
100
AcDbEntity
  8
0
  6
Continuous
 62
     7
100
AcDbCircle
 10
-521.5991821289064
 20
527.2423706054688
 30
0.0
 40
2.5
100
AcDbArc
 50
180.0000000000004
 51
0.0
  0
ARC
  5
57E
330
22
100
AcDbEntity
  8
0
  6
DASHED
 62
     7
100
AcDbCircle
 10
-593.0991821289062
 20
737.7423706054687
 30
0.0
 40
5.0
100
AcDbArc
 50
180.0000000000004
 51
240.0000695640013
  0
ARC
  5
57F
330
22
100
AcDbEntity
  8
0
  6
DASHED
 62
     7
100
AcDbCircle
 10
-600.0991821289062
 20
739.2423706054687
 30
0.0
 40
2.0
100
AcDbArc
 50
0.0
 51
90.00000000000019
  0
CIRCLE
  5
580
330
22
100
AcDbEntity
  8
0
  6
Continuous
 62
     7
100
AcDbCircle
 10
-593.0991821289062
 20
737.7423706054687
 30
0.0
 40
4.5
  0
CIRCLE
  5
581
330
22
100
AcDbEntity
  8
0
  6
Continuous
 62
     7
100
AcDbCircle
 10
-593.0991821289062
 20
737.7423706054687
 30
0.0
 40
4.75
  0
ARC
  5
582
330
22
100
AcDbEntity
  8
0
  6
Continuous
 62
     7
100
AcDbCircle
 10
-561.5991821289063
 20
734.2423706054687
 30
0.0
 40
2.5
100
AcDbArc
 50
0.0
 51
180.0000000000004
  0
ARC
  5
583
330
22
100
AcDbEntity
  8
0
  6
Continuous
 62
     7
100
AcDbCircle
 10
-571.5991821289062
 20
734.2423706054687
 30
0.0
 40
2.5
100
AcDbArc
 50
0.0
 51
180.0000000000004
  0
ARC
  5
584
330
22
100
AcDbEntity
  8
0
  6
Continuous
 62
     7
100
AcDbCircle
 10
-581.5991821289062
 20
734.2423706054687
 30
0.0
 40
2.5
100
AcDbArc
 50
0.0
 51
180.0000000000004
  0
ARC
  5
585
330
22
100
AcDbEntity
  8
0
  6
DASHED
 62
     7
100
AcDbCircle
 10
-593.0991821289062
 20
737.7423706054687
 30
0.0
 40
5.0
100
AcDbArc
 50
299.9999304360001
 51
0.0
  0
ARC
  5
586
330
22
100
AcDbEntity
  8
0
  6
DASHED
 62
     7
100
AcDbCircle
 10
-586.0991821289062
 20
739.2423706054687
 30
0.0
 40
2.0
100
AcDbArc
 50
90.00000000000019
 51
180.0000000000004
  0
ARC
  5
587
330
22
100
AcDbEntity
  8
0
  6
Continuous
 62
     7
100
AcDbCircle
 10
-511.5992126464844
 20
506.2423706054688
 30
0.0
 40
2.5
100
AcDbArc
 50
180.0000000000004
 51
0.0
  0
ARC
  5
588
330
22
100
AcDbEntity
  8
0
  6
Continuous
 62
     7
100
AcDbCircle
 10
-624.5991821289062
 20
734.2423706054687
 30
0.0
 40
2.5
100
AcDbArc
 50
0.0
 51
180.0000000000004
  0
ARC
  5
589
330
22
100
AcDbEntity
  8
0
  6
Continuous
 62
     7
100
AcDbCircle
 10
-654.5991821289062
 20
734.2423706054687
 30
0.0
 40
2.5
100
AcDbArc
 50
0.0
 51
180.0000000000004
  0
ARC
  5
58A
330
22
100
AcDbEntity
  8
0
  6
Continuous
 62
     7
100
AcDbCircle
 10
-664.5991821289062
 20
734.2423706054687
 30
0.0
 40
2.5
100
AcDbArc
 50
0.0
 51
180.0000000000004
  0
ARC
  5
58B
330
22
100
AcDbEntity
  8
0
  6
Continuous
 62
     7
100
AcDbCircle
 10
-604.5991821289062
 20
734.2423706054687
 30
0.0
 40
2.5
100
AcDbArc
 50
0.0
 51
180.0000000000004
  0
ARC
  5
58C
330
22
100
AcDbEntity
  8
0
  6
Continuous
 62
     7
100
AcDbCircle
 10
-654.5991821289062
 20
713.2423706054687
 30
0.0
 40
2.5
100
AcDbArc
 50
0.0
 51
180.0000000000004
  0
ARC
  5
58D
330
22
100
AcDbEntity
  8
0
  6
Continuous
 62
     7
100
AcDbCircle
 10
-644.5991821289062
 20
703.2423706054687
 30
0.0
 40
2.5
100
AcDbArc
 50
180.0000000000004
 51
0.0
  0
ARC
  5
58E
330
22
100
AcDbEntity
  8
0
  6
Continuous
 62
     7
100
AcDbCircle
 10
-604.5991821289062
 20
703.2423706054687
 30
0.0
 40
2.5
100
AcDbArc
 50
180.0000000000004
 51
0.0
  0
ARC
  5
58F
330
22
100
AcDbEntity
  8
0
  6
Continuous
 62
     7
100
AcDbCircle
 10
-604.5991821289062
 20
692.2423706054687
 30
0.0
 40
2.5
100
AcDbArc
 50
0.0
 51
180.0000000000004
  0
ARC
  5
590
330
22
100
AcDbEntity
  8
0
  6
Continuous
 62
     7
100
AcDbCircle
 10
-561.5991821289063
 20
703.2423706054687
 30
0.0
 40
2.5
100
AcDbArc
 50
180.0000000000004
 51
0.0
  0
ARC
  5
591
330
22
100
AcDbEntity
  8
0
  6
Continuous
 62
     7
100
AcDbCircle
 10
-561.5991821289063
 20
692.2423706054687
 30
0.0
 40
2.5
100
AcDbArc
 50
0.0
 51
180.0000000000004
  0
ARC
  5
592
330
22
100
AcDbEntity
  8
0
  6
Continuous
 62
     7
100
AcDbCircle
 10
-571.5991821289062
 20
671.2423706054687
 30
0.0
 40
2.5
100
AcDbArc
 50
0.0
 51
180.0000000000004
  0
ARC
  5
593
330
22
100
AcDbEntity
  8
0
  6
Continuous
 62
     7
100
AcDbCircle
 10
-571.5991821289062
 20
682.2423706054687
 30
0.0
 40
2.5
100
AcDbArc
 50
180.0000000000004
 51
0.0
  0
ARC
  5
594
330
22
100
AcDbEntity
  8
0
  6
Continuous
 62
     7
100
AcDbCircle
 10
-581.5991821289062
 20
692.2423706054687
 30
0.0
 40
2.5
100
AcDbArc
 50
0.0
 51
180.0000000000004
  0
ARC
  5
595
330
22
100
AcDbEntity
  8
0
  6
Continuous
 62
     7
100
AcDbCircle
 10
-581.5991821289062
 20
703.2423706054687
 30
0.0
 40
2.5
100
AcDbArc
 50
180.0000000000004
 51
0.0
  0
ARC
  5
596
330
22
100
AcDbEntity
  8
0
  6
Continuous
 62
     7
100
AcDbCircle
 10
-571.5991821289062
 20
713.2423706054687
 30
0.0
 40
2.5
100
AcDbArc
 50
0.0
 51
180.0000000000004
  0
ARC
  5
597
330
22
100
AcDbEntity
  8
0
  6
Continuous
 62
     7
100
AcDbCircle
 10
-614.5991821289062
 20
734.2423706054687
 30
0.0
 40
2.5
100
AcDbArc
 50
0.0
 51
180.0000000000004
  0
ARC
  5
598
330
22
100
AcDbEntity
  8
0
  6
Continuous
 62
     7
100
AcDbCircle
 10
-634.5991821289062
 20
734.2423706054687
 30
0.0
 40
2.5
100
AcDbArc
 50
0.0
 51
180.0000000000004
  0
ARC
  5
599
330
22
100
AcDbEntity
  8
0
  6
Continuous
 62
     7
100
AcDbCircle
 10
-644.5991821289062
 20
734.2423706054687
 30
0.0
 40
2.5
100
AcDbArc
 50
0.0
 51
180.0000000000004
  0
ARC
  5
59A
330
22
100
AcDbEntity
  8
0
  6
Continuous
 62
     7
100
AcDbCircle
 10
-614.5991821289062
 20
671.2423706054687
 30
0.0
 40
2.5
100
AcDbArc
 50
0.0
 51
180.0000000000004
  0
ARC
  5
59B
330
22
100
AcDbEntity
  8
0
  6
Continuous
 62
     7
100
AcDbCircle
 10
-614.5991821289062
 20
713.2423706054687
 30
0.0
 40
2.5
100
AcDbArc
 50
0.0
 51
180.0000000000004
  0
ARC
  5
59C
330
22
100
AcDbEntity
  8
0
  6
Continuous
 62
     7
100
AcDbCircle
 10
-614.5991821289062
 20
682.2423706054687
 30
0.0
 40
2.5
100
AcDbArc
 50
180.0000000000004
 51
0.0
  0
ARC
  5
59D
330
22
100
AcDbEntity
  8
0
  6
Continuous
 62
     7
100
AcDbCircle
 10
-644.5991821289062
 20
692.2423706054687
 30
0.0
 40
2.5
100
AcDbArc
 50
0.0
 51
180.0000000000004
  0
ARC
  5
59E
330
22
100
AcDbEntity
  8
0
  6
Continuous
 62
     7
100
AcDbCircle
 10
-664.5991821289062
 20
703.2423706054687
 30
0.0
 40
2.5
100
AcDbArc
 50
180.0000000000004
 51
0.0
  0
ARC
  5
59F
330
22
100
AcDbEntity
  8
0
  6
Continuous
 62
     7
100
AcDbCircle
 10
-624.5991821289062
 20
692.2423706054687
 30
0.0
 40
2.5
100
AcDbArc
 50
0.0
 51
180.0000000000004
  0
ARC
  5
5A0
330
22
100
AcDbEntity
  8
0
  6
Continuous
 62
     7
100
AcDbCircle
 10
-654.5991821289062
 20
671.2423706054687
 30
0.0
 40
2.5
100
AcDbArc
 50
0.0
 51
180.0000000000004
  0
ARC
  5
5A1
330
22
100
AcDbEntity
  8
0
  6
Continuous
 62
     7
100
AcDbCircle
 10
-634.5991821289062
 20
682.2423706054687
 30
0.0
 40
2.5
100
AcDbArc
 50
180.0000000000004
 51
0.0
  0
ARC
  5
5A2
330
22
100
AcDbEntity
  8
0
  6
Continuous
 62
     7
100
AcDbCircle
 10
-654.5991821289062
 20
682.2423706054687
 30
0.0
 40
2.5
100
AcDbArc
 50
180.0000000000004
 51
0.0
  0
ARC
  5
5A3
330
22
100
AcDbEntity
  8
0
  6
Continuous
 62
     7
100
AcDbCircle
 10
-624.5991821289062
 20
703.2423706054687
 30
0.0
 40
2.5
100
AcDbArc
 50
180.0000000000004
 51
0.0
  0
ARC
  5
5A4
330
22
100
AcDbEntity
  8
0
  6
Continuous
 62
     7
100
AcDbCircle
 10
-634.5991821289062
 20
713.2423706054687
 30
0.0
 40
2.5
100
AcDbArc
 50
0.0
 51
180.0000000000004
  0
ARC
  5
5A5
330
22
100
AcDbEntity
  8
0
  6
Continuous
 62
     7
100
AcDbCircle
 10
-634.5991821289062
 20
671.2423706054687
 30
0.0
 40
2.5
100
AcDbArc
 50
0.0
 51
180.0000000000004
  0
ARC
  5
5A6
330
22
100
AcDbEntity
  8
0
  6
Continuous
 62
     7
100
AcDbCircle
 10
-664.5991821289062
 20
692.2423706054687
 30
0.0
 40
2.5
100
AcDbArc
 50
0.0
 51
180.0000000000004
  0
ARC
  5
5A7
330
22
100
AcDbEntity
  8
0
  6
Continuous
 62
     7
100
AcDbCircle
 10
-738.0991821289062
 20
754.7423706054687
 30
0.0
 40
5.0
100
AcDbArc
 50
90.00000000000019
 51
180.0000000000004
  0
ARC
  5
5A8
330
22
100
AcDbEntity
  8
0
  6
Continuous
 62
     7
100
AcDbCircle
 10
-727.5991821289062
 20
744.2423706054687
 30
0.0
 40
1.0
100
AcDbArc
 50
90.00000000000019
 51
180.0000000000004
  0
ARC
  5
5A9
330
22
100
AcDbEntity
  8
0
  6
DASHED
 62
     7
100
AcDbCircle
 10
-721.0991821289062
 20
737.7423706054687
 30
0.0
 40
5.0
100
AcDbArc
 50
270.0000000000005
 51
0.0
  0
ARC
  5
5AA
330
22
100
AcDbEntity
  8
0
  6
Continuous
 62
     7
100
AcDbCircle
 10
-684.5991821289062
 20
734.2423706054687
 30
0.0
 40
2.5
100
AcDbArc
 50
0.0
 51
180.0000000000004
  0
ARC
  5
5AB
330
22
100
AcDbEntity
  8
0
  6
Continuous
 62
     7
100
AcDbCircle
 10
-644.5991821289062
 20
650.2423706054687
 30
0.0
 40
2.5
100
AcDbArc
 50
0.0
 51
180.0000000000004
  0
ARC
  5
5AC
330
22
100
AcDbEntity
  8
0
  6
Continuous
 62
     7
100
AcDbCircle
 10
-664.5991821289062
 20
661.2423706054687
 30
0.0
 40
2.5
100
AcDbArc
 50
180.0000000000004
 51
0.0
  0
ARC
  5
5AD
330
22
100
AcDbEntity
  8
0
  6
Continuous
 62
     7
100
AcDbCircle
 10
-664.5991821289062
 20
650.2423706054687
 30
0.0
 40
2.5
100
AcDbArc
 50
0.0
 51
180.0000000000004
  0
ARC
  5
5AE
330
22
100
AcDbEntity
  8
0
  6
Continuous
 62
     7
100
AcDbCircle
 10
-624.5991821289062
 20
650.2423706054687
 30
0.0
 40
2.5
100
AcDbArc
 50
0.0
 51
180.0000000000004
  0
ARC
  5
5AF
330
22
100
AcDbEntity
  8
0
  6
Continuous
 62
     7
100
AcDbCircle
 10
-644.5991821289062
 20
661.2423706054687
 30
0.0
 40
2.5
100
AcDbArc
 50
180.0000000000004
 51
0.0
  0
ARC
  5
5B0
330
22
100
AcDbEntity
  8
0
  6
Continuous
 62
     7
100
AcDbCircle
 10
-624.5991821289062
 20
661.2423706054687
 30
0.0
 40
2.5
100
AcDbArc
 50
180.0000000000004
 51
0.0
  0
ARC
  5
5B1
330
22
100
AcDbEntity
  8
0
  6
Continuous
 62
     7
100
AcDbCircle
 10
-604.5991821289062
 20
650.2423706054687
 30
0.0
 40
2.5
100
AcDbArc
 50
0.0
 51
180.0000000000004
  0
ARC
  5
5B2
330
22
100
AcDbEntity
  8
0
  6
Continuous
 62
     7
100
AcDbCircle
 10
-604.5991821289062
 20
661.2423706054687
 30
0.0
 40
2.5
100
AcDbArc
 50
180.0000000000004
 51
0.0
  0
ARC
  5
5B3
330
22
100
AcDbEntity
  8
0
  6
Continuous
 62
     7
100
AcDbCircle
 10
-581.5991821289062
 20
661.2423706054687
 30
0.0
 40
2.5
100
AcDbArc
 50
180.0000000000004
 51
0.0
  0
ARC
  5
5B4
330
22
100
AcDbEntity
  8
0
  6
Continuous
 62
     7
100
AcDbCircle
 10
-581.5991821289062
 20
650.2423706054687
 30
0.0
 40
2.5
100
AcDbArc
 50
0.0
 51
180.0000000000004
  0
ARC
  5
5B5
330
22
100
AcDbEntity
  8
0
  6
Continuous
 62
     7
100
AcDbCircle
 10
-561.5991821289063
 20
661.2423706054687
 30
0.0
 40
2.5
100
AcDbArc
 50
180.0000000000004
 51
0.0
  0
ARC
  5
5B6
330
22
100
AcDbEntity
  8
0
  6
Continuous
 62
     7
100
AcDbCircle
 10
-561.5991821289063
 20
650.2423706054687
 30
0.0
 40
2.5
100
AcDbArc
 50
0.0
 51
180.0000000000004
  0
ARC
  5
5B7
330
22
100
AcDbEntity
  8
0
  6
DASHED
 62
     7
100
AcDbCircle
 10
-722.5991821289063
 20
730.7423706054687
 30
0.0
 40
2.0
100
AcDbArc
 50
90.00000000000019
 51
180.0000000000004
  0
ARC
  5
5B8
330
22
100
AcDbEntity
  8
0
  6
DASHED
 62
     7
100
AcDbCircle
 10
-714.0991821289063
 20
739.2423706054687
 30
0.0
 40
2.0
100
AcDbArc
 50
90.00000000000019
 51
180.0000000000004
  0
ARC
  5
5B9
330
22
100
AcDbEntity
  8
0
  6
Continuous
 62
     7
100
AcDbCircle
 10
-725.5991821289062
 20
742.2423706054687
 30
0.0
 40
2.0
100
AcDbArc
 50
90.00000000000019
 51
180.0000000000004
  0
ARC
  5
5BA
330
22
100
AcDbEntity
  8
0
  6
Continuous
 62
     7
100
AcDbCircle
 10
-714.5991821289062
 20
729.2423706054687
 30
0.0
 40
2.5
100
AcDbArc
 50
0.0
 51
180.0000000000004
  0
ARC
  5
5BB
330
22
100
AcDbEntity
  8
0
  6
Continuous
 62
     7
100
AcDbCircle
 10
-714.5991821289062
 20
671.2423706054687
 30
0.0
 40
2.5
100
AcDbArc
 50
0.0
 51
180.0000000000004
  0
ARC
  5
5BC
330
22
100
AcDbEntity
  8
0
  6
Continuous
 62
     7
100
AcDbCircle
 10
-714.5991821289062
 20
713.2423706054687
 30
0.0
 40
2.5
100
AcDbArc
 50
0.0
 51
180.0000000000004
  0
ARC
  5
5BD
330
22
100
AcDbEntity
  8
0
  6
Continuous
 62
     7
100
AcDbCircle
 10
-684.5991821289062
 20
703.2423706054687
 30
0.0
 40
2.5
100
AcDbArc
 50
180.0000000000004
 51
0.0
  0
ARC
  5
5BE
330
22
100
AcDbEntity
  8
0
  6
Continuous
 62
     7
100
AcDbCircle
 10
-684.5991821289062
 20
692.2423706054687
 30
0.0
 40
2.5
100
AcDbArc
 50
0.0
 51
180.0000000000004
  0
ARC
  5
5BF
330
22
100
AcDbEntity
  8
0
  6
Continuous
 62
     7
100
AcDbCircle
 10
-704.5991821289062
 20
734.2423706054687
 30
0.0
 40
2.5
100
AcDbArc
 50
0.0
 51
180.0000000000004
  0
ARC
  5
5C0
330
22
100
AcDbEntity
  8
0
  6
Continuous
 62
     7
100
AcDbCircle
 10
-694.5991821289062
 20
734.2423706054687
 30
0.0
 40
2.5
100
AcDbArc
 50
0.0
 51
180.0000000000004
  0
CIRCLE
  5
5C1
330
22
100
AcDbEntity
  8
0
  6
Continuous
 62
     7
100
AcDbCircle
 10
-721.0991821289062
 20
737.7678833007812
 30
0.0
 40
4.75
  0
CIRCLE
  5
5C2
330
22
100
AcDbEntity
  8
0
  6
Continuous
 62
     7
100
AcDbCircle
 10
-721.0991821289062
 20
737.7678833007812
 30
0.0
 40
4.5
  0
ARC
  5
5C3
330
22
100
AcDbEntity
  8
0
  6
Continuous
 62
     7
100
AcDbCircle
 10
-571.5991821289062
 20
579.2423706054687
 30
0.0
 40
2.5
100
AcDbArc
 50
0.0
 51
180.0000000000004
  0
ARC
  5
5C4
330
22
100
AcDbEntity
  8
0
  6
DASHED
 62
     7
100
AcDbCircle
 10
-588.5991821289062
 20
605.2423706054687
 30
0.0
 40
2.0
100
AcDbArc
 50
90.00000000000019
 51
180.0000000000004
  0
ARC
  5
5C5
330
22
100
AcDbEntity
  8
0
  6
Continuous
 62
     7
100
AcDbCircle
 10
-561.5991821289063
 20
619.2423706054687
 30
0.0
 40
2.5
100
AcDbArc
 50
180.0000000000004
 51
0.0
  0
ARC
  5
5C6
330
22
100
AcDbEntity
  8
0
  6
Continuous
 62
     7
100
AcDbCircle
 10
-561.5991821289063
 20
569.2423706054687
 30
0.0
 40
2.5
100
AcDbArc
 50
180.0000000000004
 51
0.0
  0
ARC
  5
5C7
330
22
100
AcDbEntity
  8
0
  6
Continuous
 62
     7
100
AcDbCircle
 10
-561.5991821289063
 20
600.2423706054687
 30
0.0
 40
2.5
100
AcDbArc
 50
0.0
 51
180.0000000000004
  0
ARC
  5
5C8
330
22
100
AcDbEntity
  8
0
  6
Continuous
 62
     7
100
AcDbCircle
 10
-561.5991821289063
 20
558.2423706054688
 30
0.0
 40
2.5
100
AcDbArc
 50
0.0
 51
180.0000000000004
  0
ARC
  5
5C9
330
22
100
AcDbEntity
  8
0
  6
Continuous
 62
     7
100
AcDbCircle
 10
-704.5991821289062
 20
661.2423706054687
 30
0.0
 40
2.5
100
AcDbArc
 50
180.0000000000004
 51
0.0
  0
ARC
  5
5CA
330
22
100
AcDbEntity
  8
0
  6
Continuous
 62
     7
100
AcDbCircle
 10
-704.5991821289062
 20
650.2423706054687
 30
0.0
 40
2.5
100
AcDbArc
 50
0.0
 51
180.0000000000004
  0
ARC
  5
5CB
330
22
100
AcDbEntity
  8
0
  6
Continuous
 62
     7
100
AcDbCircle
 10
-684.5991821289062
 20
650.2423706054687
 30
0.0
 40
2.5
100
AcDbArc
 50
0.0
 51
180.0000000000004
  0
ARC
  5
5CC
330
22
100
AcDbEntity
  8
0
  6
Continuous
 62
     7
100
AcDbCircle
 10
-684.5991821289062
 20
661.2423706054687
 30
0.0
 40
2.5
100
AcDbArc
 50
180.0000000000004
 51
0.0
  0
ARC
  5
5CD
330
22
100
AcDbEntity
  8
0
  6
Continuous
 62
     7
100
AcDbCircle
 10
-694.5991821289062
 20
682.2423706054687
 30
0.0
 40
2.5
100
AcDbArc
 50
180.0000000000004
 51
0.0
  0
ARC
  5
5CE
330
22
100
AcDbEntity
  8
0
  6
Continuous
 62
     7
100
AcDbCircle
 10
-694.5991821289062
 20
671.2423706054687
 30
0.0
 40
2.5
100
AcDbArc
 50
0.0
 51
180.0000000000004
  0
ARC
  5
5CF
330
22
100
AcDbEntity
  8
0
  6
Continuous
 62
     7
100
AcDbCircle
 10
-704.5991821289062
 20
692.2423706054687
 30
0.0
 40
2.5
100
AcDbArc
 50
0.0
 51
180.0000000000004
  0
ARC
  5
5D0
330
22
100
AcDbEntity
  8
0
  6
Continuous
 62
     7
100
AcDbCircle
 10
-704.5991821289062
 20
703.2423706054687
 30
0.0
 40
2.5
100
AcDbArc
 50
180.0000000000004
 51
0.0
  0
ARC
  5
5D1
330
22
100
AcDbEntity
  8
0
  6
Continuous
 62
     7
100
AcDbCircle
 10
-694.5991821289062
 20
713.2423706054687
 30
0.0
 40
2.5
100
AcDbArc
 50
0.0
 51
180.0000000000004
  0
ARC
  5
5D2
330
22
100
AcDbEntity
  8
0
  6
Continuous
 62
     7
100
AcDbCircle
 10
-714.5991821289062
 20
682.2423706054687
 30
0.0
 40
2.5
100
AcDbArc
 50
180.0000000000004
 51
0.0
  0
ARC
  5
5D3
330
22
100
AcDbEntity
  8
0
  6
Continuous
 62
     7
100
AcDbCircle
 10
-664.5991821289062
 20
558.2423706054688
 30
0.0
 40
2.5
100
AcDbArc
 50
0.0
 51
180.0000000000004
  0
ARC
  5
5D4
330
22
100
AcDbEntity
  8
0
  6
Continuous
 62
     7
100
AcDbCircle
 10
-644.5991821289062
 20
569.2423706054687
 30
0.0
 40
2.5
100
AcDbArc
 50
180.0000000000004
 51
0.0
  0
ARC
  5
5D5
330
22
100
AcDbEntity
  8
0
  6
Continuous
 62
     7
100
AcDbCircle
 10
-624.5991821289062
 20
558.2423706054688
 30
0.0
 40
2.5
100
AcDbArc
 50
0.0
 51
180.0000000000004
  0
ARC
  5
5D6
330
22
100
AcDbEntity
  8
0
  6
DASHED
 62
     7
100
AcDbCircle
 10
-597.5991821289063
 20
614.2423706054687
 30
0.0
 40
2.0
100
AcDbArc
 50
270.0000000000005
 51
0.0
  0
ARC
  5
5D7
330
22
100
AcDbEntity
  8
0
  6
Continuous
 62
     7
100
AcDbCircle
 10
-604.5991821289062
 20
619.2423706054687
 30
0.0
 40
2.5
100
AcDbArc
 50
180.0000000000004
 51
0.0
  0
ARC
  5
5D8
330
22
100
AcDbEntity
  8
0
  6
DASHED
 62
     7
100
AcDbCircle
 10
-597.5991821289063
 20
605.2423706054687
 30
0.0
 40
2.0
100
AcDbArc
 50
0.0
 51
90.00000000000019
  0
ARC
  5
5D9
330
22
100
AcDbEntity
  8
0
  6
Continuous
 62
     7
100
AcDbCircle
 10
-604.5991821289062
 20
600.2423706054687
 30
0.0
 40
2.5
100
AcDbArc
 50
0.0
 51
180.0000000000004
  0
ARC
  5
5DA
330
22
100
AcDbEntity
  8
0
  6
Continuous
 62
     7
100
AcDbCircle
 10
-604.5991821289062
 20
558.2423706054688
 30
0.0
 40
2.5
100
AcDbArc
 50
0.0
 51
180.0000000000004
  0
ARC
  5
5DB
330
22
100
AcDbEntity
  8
0
  6
Continuous
 62
     7
100
AcDbCircle
 10
-604.5991821289062
 20
569.2423706054687
 30
0.0
 40
2.5
100
AcDbArc
 50
180.0000000000004
 51
0.0
  0
ARC
  5
5DC
330
22
100
AcDbEntity
  8
0
  6
Continuous
 62
     7
100
AcDbCircle
 10
-571.5991821289062
 20
619.2423706054687
 30
0.0
 40
2.5
100
AcDbArc
 50
180.0000000000004
 51
0.0
  0
ARC
  5
5DD
330
22
100
AcDbEntity
  8
0
  6
Continuous
 62
     7
100
AcDbCircle
 10
-581.5991821289062
 20
619.2423706054687
 30
0.0
 40
2.5
100
AcDbArc
 50
180.0000000000004
 51
0.0
  0
ARC
  5
5DE
330
22
100
AcDbEntity
  8
0
  6
DASHED
 62
     7
100
AcDbCircle
 10
-588.5991821289062
 20
614.2423706054687
 30
0.0
 40
2.0
100
AcDbArc
 50
180.0000000000004
 51
270.0000000000005
  0
ARC
  5
5DF
330
22
100
AcDbEntity
  8
0
  6
Continuous
 62
     7
100
AcDbCircle
 10
-571.5991821289062
 20
600.2423706054687
 30
0.0
 40
2.5
100
AcDbArc
 50
0.0
 51
180.0000000000004
  0
ARC
  5
5E0
330
22
100
AcDbEntity
  8
0
  6
Continuous
 62
     7
100
AcDbCircle
 10
-581.5991821289062
 20
558.2423706054688
 30
0.0
 40
2.5
100
AcDbArc
 50
0.0
 51
180.0000000000004
  0
ARC
  5
5E1
330
22
100
AcDbEntity
  8
0
  6
Continuous
 62
     7
100
AcDbCircle
 10
-581.5991821289062
 20
569.2423706054687
 30
0.0
 40
2.5
100
AcDbArc
 50
180.0000000000004
 51
0.0
  0
ARC
  5
5E2
330
22
100
AcDbEntity
  8
0
  6
Continuous
 62
     7
100
AcDbCircle
 10
-581.5991821289062
 20
600.2423706054687
 30
0.0
 40
2.5
100
AcDbArc
 50
0.0
 51
180.0000000000004
  0
ARC
  5
5E3
330
22
100
AcDbEntity
  8
0
  6
Continuous
 62
     7
100
AcDbCircle
 10
-571.5991821289062
 20
590.2423706054687
 30
0.0
 40
2.5
100
AcDbArc
 50
180.0000000000004
 51
0.0
  0
ARC
  5
5E4
330
22
100
AcDbEntity
  8
0
  6
Continuous
 62
     7
100
AcDbCircle
 10
-644.5991821289062
 20
619.2423706054687
 30
0.0
 40
2.5
100
AcDbArc
 50
180.0000000000004
 51
0.0
  0
ARC
  5
5E5
330
22
100
AcDbEntity
  8
0
  6
Continuous
 62
     7
100
AcDbCircle
 10
-624.5991821289062
 20
619.2423706054687
 30
0.0
 40
2.5
100
AcDbArc
 50
180.0000000000004
 51
0.0
  0
ARC
  5
5E6
330
22
100
AcDbEntity
  8
0
  6
Continuous
 62
     7
100
AcDbCircle
 10
-634.5991821289062
 20
579.5671997070312
 30
0.0
 40
2.5
100
AcDbArc
 50
0.0
 51
180.0000000000004
  0
ARC
  5
5E7
330
22
100
AcDbEntity
  8
0
  6
Continuous
 62
     7
100
AcDbCircle
 10
-624.5991821289062
 20
600.2423706054687
 30
0.0
 40
2.5
100
AcDbArc
 50
0.0
 51
180.0000000000004
  0
ARC
  5
5E8
330
22
100
AcDbEntity
  8
0
  6
Continuous
 62
     7
100
AcDbCircle
 10
-634.5991821289062
 20
590.5671997070312
 30
0.0
 40
2.5
100
AcDbArc
 50
180.0000000000004
 51
0.0
  0
ARC
  5
5E9
330
22
100
AcDbEntity
  8
0
  6
Continuous
 62
     7
100
AcDbCircle
 10
-624.5991821289062
 20
569.2423706054687
 30
0.0
 40
2.5
100
AcDbArc
 50
180.0000000000004
 51
0.0
  0
ARC
  5
5EA
330
22
100
AcDbEntity
  8
0
  6
Continuous
 62
     7
100
AcDbCircle
 10
-654.5991821289062
 20
590.5671997070312
 30
0.0
 40
2.5
100
AcDbArc
 50
180.0000000000004
 51
0.0
  0
ARC
  5
5EB
330
22
100
AcDbEntity
  8
0
  6
Continuous
 62
     7
100
AcDbCircle
 10
-654.5991821289062
 20
579.5671997070312
 30
0.0
 40
2.5
100
AcDbArc
 50
0.0
 51
180.0000000000004
  0
ARC
  5
5EC
330
22
100
AcDbEntity
  8
0
  6
Continuous
 62
     7
100
AcDbCircle
 10
-654.5991821289062
 20
600.2423706054687
 30
0.0
 40
2.5
100
AcDbArc
 50
0.0
 51
180.0000000000004
  0
ARC
  5
5ED
330
22
100
AcDbEntity
  8
0
  6
Continuous
 62
     7
100
AcDbCircle
 10
-644.5991821289062
 20
600.2423706054687
 30
0.0
 40
2.5
100
AcDbArc
 50
0.0
 51
180.0000000000004
  0
ARC
  5
5EE
330
22
100
AcDbEntity
  8
0
  6
Continuous
 62
     7
100
AcDbCircle
 10
-644.5991821289062
 20
558.2423706054688
 30
0.0
 40
2.5
100
AcDbArc
 50
0.0
 51
180.0000000000004
  0
ARC
  5
5EF
330
22
100
AcDbEntity
  8
0
  6
Continuous
 62
     7
100
AcDbCircle
 10
-664.5991821289062
 20
569.2423706054687
 30
0.0
 40
2.5
100
AcDbArc
 50
180.0000000000004
 51
0.0
  0
ARC
  5
5F0
330
22
100
AcDbEntity
  8
0
  6
Continuous
 62
     7
100
AcDbCircle
 10
-664.5991821289062
 20
600.2423706054687
 30
0.0
 40
2.5
100
AcDbArc
 50
0.0
 51
180.0000000000004
  0
ARC
  5
5F1
330
22
100
AcDbEntity
  8
0
  6
Continuous
 62
     7
100
AcDbCircle
 10
-634.5991821289062
 20
600.2423706054687
 30
0.0
 40
2.5
100
AcDbArc
 50
0.0
 51
180.0000000000004
  0
ARC
  5
5F2
330
22
100
AcDbEntity
  8
0
  6
Continuous
 62
     7
100
AcDbCircle
 10
-561.5991821289063
 20
485.2423706054688
 30
0.0
 40
2.5
100
AcDbArc
 50
180.0000000000004
 51
0.0
  0
ARC
  5
5F3
330
22
100
AcDbEntity
  8
0
  6
Continuous
 62
     7
100
AcDbCircle
 10
-561.5991821289063
 20
527.2423706054688
 30
0.0
 40
2.5
100
AcDbArc
 50
180.0000000000004
 51
0.0
  0
ARC
  5
5F4
330
22
100
AcDbEntity
  8
0
  6
Continuous
 62
     7
100
AcDbCircle
 10
-561.5991821289063
 20
516.2423706054688
 30
0.0
 40
2.5
100
AcDbArc
 50
0.0
 51
180.0000000000004
  0
ARC
  5
5F5
330
22
100
AcDbEntity
  8
0
  6
Continuous
 62
     7
100
AcDbCircle
 10
-614.5991821289062
 20
600.2423706054687
 30
0.0
 40
2.5
100
AcDbArc
 50
0.0
 51
180.0000000000004
  0
ARC
  5
5F6
330
22
100
AcDbEntity
  8
0
  6
Continuous
 62
     7
100
AcDbCircle
 10
-614.5991821289062
 20
579.5671997070312
 30
0.0
 40
2.5
100
AcDbArc
 50
0.0
 51
180.0000000000004
  0
ARC
  5
5F7
330
22
100
AcDbEntity
  8
0
  6
Continuous
 62
     7
100
AcDbCircle
 10
-614.5991821289062
 20
590.5671997070312
 30
0.0
 40
2.5
100
AcDbArc
 50
180.0000000000004
 51
0.0
  0
ARC
  5
5F8
330
22
100
AcDbEntity
  8
0
  6
Continuous
 62
     7
100
AcDbCircle
 10
-614.5991821289062
 20
619.2423706054687
 30
0.0
 40
2.5
100
AcDbArc
 50
180.0000000000004
 51
0.0
  0
ARC
  5
5F9
330
22
100
AcDbEntity
  8
0
  6
Continuous
 62
     7
100
AcDbCircle
 10
-614.5991821289062
 20
628.9174804687499
 30
0.0
 40
2.5
100
AcDbArc
 50
0.0
 51
180.0000000000004
  0
ARC
  5
5FA
330
22
100
AcDbEntity
  8
0
  6
Continuous
 62
     7
100
AcDbCircle
 10
-634.5991821289062
 20
628.9174804687499
 30
0.0
 40
2.5
100
AcDbArc
 50
0.0
 51
180.0000000000004
  0
ARC
  5
5FB
330
22
100
AcDbEntity
  8
0
  6
Continuous
 62
     7
100
AcDbCircle
 10
-654.5991821289062
 20
628.9174804687499
 30
0.0
 40
2.5
100
AcDbArc
 50
0.0
 51
180.0000000000004
  0
ARC
  5
5FC
330
22
100
AcDbEntity
  8
0
  6
Continuous
 62
     7
100
AcDbCircle
 10
-571.5991821289062
 20
628.9174804687499
 30
0.0
 40
2.5
100
AcDbArc
 50
0.0
 51
180.0000000000004
  0
ARC
  5
5FD
330
22
100
AcDbEntity
  8
0
  6
Continuous
 62
     7
100
AcDbCircle
 10
-664.5991821289062
 20
619.2423706054687
 30
0.0
 40
2.5
100
AcDbArc
 50
180.0000000000004
 51
0.0
  0
ARC
  5
5FE
330
22
100
AcDbEntity
  8
0
  6
Continuous
 62
     7
100
AcDbCircle
 10
-634.5991821289062
 20
619.2423706054687
 30
0.0
 40
2.5
100
AcDbArc
 50
180.0000000000004
 51
0.0
  0
ARC
  5
5FF
330
22
100
AcDbEntity
  8
0
  6
Continuous
 62
     7
100
AcDbCircle
 10
-654.5991821289062
 20
619.2423706054687
 30
0.0
 40
2.5
100
AcDbArc
 50
180.0000000000004
 51
0.0
  0
ARC
  5
600
330
22
100
AcDbEntity
  8
0
  6
Continuous
 62
     7
100
AcDbCircle
 10
-571.5991821289062
 20
537.2423706054688
 30
0.0
 40
2.5
100
AcDbArc
 50
0.0
 51
180.0000000000004
  0
ARC
  5
601
330
22
100
AcDbEntity
  8
0
  6
Continuous
 62
     7
100
AcDbCircle
 10
-571.5991821289062
 20
495.2423706054688
 30
0.0
 40
2.5
100
AcDbArc
 50
0.0
 51
180.0000000000004
  0
ARC
  5
602
330
22
100
AcDbEntity
  8
0
  6
Continuous
 62
     7
100
AcDbCircle
 10
-571.5991821289062
 20
506.2423706054688
 30
0.0
 40
2.5
100
AcDbArc
 50
180.0000000000004
 51
0.0
  0
ARC
  5
603
330
22
100
AcDbEntity
  8
0
  6
Continuous
 62
     7
100
AcDbCircle
 10
-581.5991821289062
 20
527.2423706054688
 30
0.0
 40
2.5
100
AcDbArc
 50
180.0000000000004
 51
0.0
  0
ARC
  5
604
330
22
100
AcDbEntity
  8
0
  6
Continuous
 62
     7
100
AcDbCircle
 10
-581.5991821289062
 20
485.2423706054688
 30
0.0
 40
2.5
100
AcDbArc
 50
180.0000000000004
 51
0.0
  0
ARC
  5
605
330
22
100
AcDbEntity
  8
0
  6
Continuous
 62
     7
100
AcDbCircle
 10
-581.5991821289062
 20
516.2423706054688
 30
0.0
 40
2.5
100
AcDbArc
 50
0.0
 51
180.0000000000004
  0
ARC
  5
606
330
22
100
AcDbEntity
  8
0
  6
Continuous
 62
     7
100
AcDbCircle
 10
-571.5991821289062
 20
485.2423706054688
 30
0.0
 40
2.5
100
AcDbArc
 50
180.0000000000004
 51
0.0
  0
ARC
  5
607
330
22
100
AcDbEntity
  8
0
  6
DASHED
 62
     7
100
AcDbCircle
 10
-586.0991821289062
 20
480.2423706054688
 30
0.0
 40
2.0
100
AcDbArc
 50
180.0000000000004
 51
270.0000000000005
  0
ARC
  5
608
330
22
100
AcDbEntity
  8
0
  6
DASHED
 62
     7
100
AcDbCircle
 10
-593.0991821289062
 20
481.7423706054688
 30
0.0
 40
5.0
100
AcDbArc
 50
0.0
 51
59.99989471096908
  0
ARC
  5
609
330
22
100
AcDbEntity
  8
0
  6
Continuous
 62
     7
100
AcDbCircle
 10
-604.5991821289062
 20
485.2423706054688
 30
0.0
 40
2.5
100
AcDbArc
 50
180.0000000000004
 51
0.0
  0
ARC
  5
60A
330
22
100
AcDbEntity
  8
0
  6
DASHED
 62
     7
100
AcDbCircle
 10
-593.0991821289062
 20
481.7423706054688
 30
0.0
 40
5.0
100
AcDbArc
 50
120.0001052890309
 51
180.0000000000004
  0
ARC
  5
60B
330
22
100
AcDbEntity
  8
0
  6
Continuous
 62
     7
100
AcDbCircle
 10
-604.5991821289062
 20
516.2423706054688
 30
0.0
 40
2.5
100
AcDbArc
 50
0.0
 51
180.0000000000004
  0
ARC
  5
60C
330
22
100
AcDbEntity
  8
0
  6
Continuous
 62
     7
100
AcDbCircle
 10
-604.5991821289062
 20
527.2423706054688
 30
0.0
 40
2.5
100
AcDbArc
 50
180.0000000000004
 51
0.0
  0
ARC
  5
60D
330
22
100
AcDbEntity
  8
0
  6
DASHED
 62
     7
100
AcDbCircle
 10
-600.0991821289062
 20
480.2423706054688
 30
0.0
 40
2.0
100
AcDbArc
 50
270.0000000000005
 51
0.0
  0
ARC
  5
60E
330
22
100
AcDbEntity
  8
0
  6
Continuous
 62
     7
100
AcDbCircle
 10
-644.5991821289062
 20
516.2423706054688
 30
0.0
 40
2.5
100
AcDbArc
 50
0.0
 51
180.0000000000004
  0
ARC
  5
60F
330
22
100
AcDbEntity
  8
0
  6
Continuous
 62
     7
100
AcDbCircle
 10
-644.5991821289062
 20
527.2423706054688
 30
0.0
 40
2.5
100
AcDbArc
 50
180.0000000000004
 51
0.0
  0
ARC
  5
610
330
22
100
AcDbEntity
  8
0
  6
Continuous
 62
     7
100
AcDbCircle
 10
-634.5991821289062
 20
495.2423706054688
 30
0.0
 40
2.5
100
AcDbArc
 50
0.0
 51
180.0000000000004
  0
ARC
  5
611
330
22
100
AcDbEntity
  8
0
  6
Continuous
 62
     7
100
AcDbCircle
 10
-634.5991821289062
 20
506.2423706054688
 30
0.0
 40
2.5
100
AcDbArc
 50
180.0000000000004
 51
0.0
  0
ARC
  5
612
330
22
100
AcDbEntity
  8
0
  6
Continuous
 62
     7
100
AcDbCircle
 10
-624.5991821289062
 20
516.2423706054688
 30
0.0
 40
2.5
100
AcDbArc
 50
0.0
 51
180.0000000000004
  0
ARC
  5
613
330
22
100
AcDbEntity
  8
0
  6
Continuous
 62
     7
100
AcDbCircle
 10
-664.5991821289062
 20
527.2423706054688
 30
0.0
 40
2.5
100
AcDbArc
 50
180.0000000000004
 51
0.0
  0
CIRCLE
  5
614
330
22
100
AcDbEntity
  8
0
  6
Continuous
 62
     7
100
AcDbCircle
 10
-593.0991821289062
 20
481.7423706054688
 30
0.0
 40
4.75
  0
CIRCLE
  5
615
330
22
100
AcDbEntity
  8
0
  6
Continuous
 62
     7
100
AcDbCircle
 10
-593.0991821289062
 20
481.7423706054688
 30
0.0
 40
4.5
  0
ARC
  5
616
330
22
100
AcDbEntity
  8
0
  6
Continuous
 62
     7
100
AcDbCircle
 10
-614.5991821289062
 20
485.2423706054688
 30
0.0
 40
2.5
100
AcDbArc
 50
180.0000000000004
 51
0.0
  0
ARC
  5
617
330
22
100
AcDbEntity
  8
0
  6
Continuous
 62
     7
100
AcDbCircle
 10
-614.5991821289062
 20
506.2423706054688
 30
0.0
 40
2.5
100
AcDbArc
 50
180.0000000000004
 51
0.0
  0
ARC
  5
618
330
22
100
AcDbEntity
  8
0
  6
Continuous
 62
     7
100
AcDbCircle
 10
-614.5991821289062
 20
495.2423706054688
 30
0.0
 40
2.5
100
AcDbArc
 50
0.0
 51
180.0000000000004
  0
ARC
  5
619
330
22
100
AcDbEntity
  8
0
  6
Continuous
 62
     7
100
AcDbCircle
 10
-654.5991821289062
 20
485.2423706054688
 30
0.0
 40
2.5
100
AcDbArc
 50
180.0000000000004
 51
0.0
  0
ARC
  5
61A
330
22
100
AcDbEntity
  8
0
  6
Continuous
 62
     7
100
AcDbCircle
 10
-634.5991821289062
 20
537.2423706054688
 30
0.0
 40
2.5
100
AcDbArc
 50
0.0
 51
180.0000000000004
  0
ARC
  5
61B
330
22
100
AcDbEntity
  8
0
  6
Continuous
 62
     7
100
AcDbCircle
 10
-634.5991821289062
 20
485.2423706054688
 30
0.0
 40
2.5
100
AcDbArc
 50
180.0000000000004
 51
0.0
  0
ARC
  5
61C
330
22
100
AcDbEntity
  8
0
  6
Continuous
 62
     7
100
AcDbCircle
 10
-654.5991821289062
 20
495.2423706054688
 30
0.0
 40
2.5
100
AcDbArc
 50
0.0
 51
180.0000000000004
  0
ARC
  5
61D
330
22
100
AcDbEntity
  8
0
  6
Continuous
 62
     7
100
AcDbCircle
 10
-654.5991821289062
 20
537.2423706054688
 30
0.0
 40
2.5
100
AcDbArc
 50
0.0
 51
180.0000000000004
  0
ARC
  5
61E
330
22
100
AcDbEntity
  8
0
  6
Continuous
 62
     7
100
AcDbCircle
 10
-624.5991821289062
 20
485.2423706054688
 30
0.0
 40
2.5
100
AcDbArc
 50
180.0000000000004
 51
0.0
  0
ARC
  5
61F
330
22
100
AcDbEntity
  8
0
  6
Continuous
 62
     7
100
AcDbCircle
 10
-624.5991821289062
 20
527.2423706054688
 30
0.0
 40
2.5
100
AcDbArc
 50
180.0000000000004
 51
0.0
  0
ARC
  5
620
330
22
100
AcDbEntity
  8
0
  6
Continuous
 62
     7
100
AcDbCircle
 10
-664.5991821289062
 20
485.2423706054688
 30
0.0
 40
2.5
100
AcDbArc
 50
180.0000000000004
 51
0.0
  0
ARC
  5
621
330
22
100
AcDbEntity
  8
0
  6
Continuous
 62
     7
100
AcDbCircle
 10
-644.5991821289062
 20
485.2423706054688
 30
0.0
 40
2.5
100
AcDbArc
 50
180.0000000000004
 51
0.0
  0
ARC
  5
622
330
22
100
AcDbEntity
  8
0
  6
Continuous
 62
     7
100
AcDbCircle
 10
-654.5991821289062
 20
506.2423706054688
 30
0.0
 40
2.5
100
AcDbArc
 50
180.0000000000004
 51
0.0
  0
ARC
  5
623
330
22
100
AcDbEntity
  8
0
  6
Continuous
 62
     7
100
AcDbCircle
 10
-664.5991821289062
 20
516.2423706054688
 30
0.0
 40
2.5
100
AcDbArc
 50
0.0
 51
180.0000000000004
  0
ARC
  5
624
330
22
100
AcDbEntity
  8
0
  6
Continuous
 62
     7
100
AcDbCircle
 10
-714.5991821289062
 20
579.5671997070312
 30
0.0
 40
2.5
100
AcDbArc
 50
0.0
 51
180.0000000000004
  0
ARC
  5
625
330
22
100
AcDbEntity
  8
0
  6
DASHED
 62
     7
100
AcDbCircle
 10
-720.8189086914062
 20
609.7423706054687
 30
0.0
 40
5.0
100
AcDbArc
 50
270.0000000000005
 51
330.0000695640014
  0
ARC
  5
626
330
22
100
AcDbEntity
  8
0
  6
Continuous
 62
     7
100
AcDbCircle
 10
-714.5991821289062
 20
590.5671997070312
 30
0.0
 40
2.5
100
AcDbArc
 50
180.0000000000004
 51
0.0
  0
ARC
  5
627
330
22
100
AcDbEntity
  8
0
  6
Continuous
 62
     7
100
AcDbCircle
 10
-714.5991821289062
 20
600.2423706054687
 30
0.0
 40
2.5
100
AcDbArc
 50
0.0
 51
180.0000000000004
  0
ARC
  5
628
330
22
100
AcDbEntity
  8
0
  6
Continuous
 62
     7
100
AcDbCircle
 10
-684.5991821289062
 20
600.2423706054687
 30
0.0
 40
2.5
100
AcDbArc
 50
0.0
 51
180.0000000000004
  0
ARC
  5
629
330
22
100
AcDbEntity
  8
0
  6
Continuous
 62
     7
100
AcDbCircle
 10
-684.5991821289062
 20
558.2423706054688
 30
0.0
 40
2.5
100
AcDbArc
 50
0.0
 51
180.0000000000004
  0
ARC
  5
62A
330
22
100
AcDbEntity
  8
0
  6
Continuous
 62
     7
100
AcDbCircle
 10
-684.5991821289062
 20
569.2423706054687
 30
0.0
 40
2.5
100
AcDbArc
 50
180.0000000000004
 51
0.0
  0
ARC
  5
62B
330
22
100
AcDbEntity
  8
0
  6
Continuous
 62
     7
100
AcDbCircle
 10
-684.5991821289062
 20
619.2423706054687
 30
0.0
 40
2.5
100
AcDbArc
 50
180.0000000000004
 51
0.0
  0
ARC
  5
62C
330
22
100
AcDbEntity
  8
0
  6
Continuous
 62
     7
100
AcDbCircle
 10
-614.5991821289062
 20
537.2423706054688
 30
0.0
 40
2.5
100
AcDbArc
 50
0.0
 51
180.0000000000004
  0
CIRCLE
  5
62D
330
22
100
AcDbEntity
  8
0
  6
Continuous
 62
     7
100
AcDbCircle
 10
-720.8189086914062
 20
609.7678833007812
 30
0.0
 40
4.5
  0
CIRCLE
  5
62E
330
22
100
AcDbEntity
  8
0
  6
Continuous
 62
     7
100
AcDbCircle
 10
-720.8189086914062
 20
609.7678833007812
 30
0.0
 40
4.75
  0
ARC
  5
62F
330
22
100
AcDbEntity
  8
0
  6
DASHED
 62
     7
100
AcDbCircle
 10
-720.8189086914062
 20
609.7423706054687
 30
0.0
 40
5.0
100
AcDbArc
 50
29.99993043599933
 51
90.00000000000019
  0
ARC
  5
630
330
22
100
AcDbEntity
  8
0
  6
Continuous
 62
     7
100
AcDbCircle
 10
-694.5991821289062
 20
628.9174804687499
 30
0.0
 40
2.5
100
AcDbArc
 50
0.0
 51
180.0000000000004
  0
ARC
  5
631
330
22
100
AcDbEntity
  8
0
  6
Continuous
 62
     7
100
AcDbCircle
 10
-694.5991821289062
 20
619.2423706054687
 30
0.0
 40
2.5
100
AcDbArc
 50
180.0000000000004
 51
0.0
  0
ARC
  5
632
330
22
100
AcDbEntity
  8
0
  6
Continuous
 62
     7
100
AcDbCircle
 10
-704.5991821289062
 20
619.2423706054687
 30
0.0
 40
2.5
100
AcDbArc
 50
180.0000000000004
 51
0.0
  0
ARC
  5
633
330
22
100
AcDbEntity
  8
0
  6
Continuous
 62
     7
100
AcDbCircle
 10
-694.5991821289062
 20
579.5671997070312
 30
0.0
 40
2.5
100
AcDbArc
 50
0.0
 51
180.0000000000004
  0
ARC
  5
634
330
22
100
AcDbEntity
  8
0
  6
Continuous
 62
     7
100
AcDbCircle
 10
-704.5991821289062
 20
569.2423706054687
 30
0.0
 40
2.5
100
AcDbArc
 50
180.0000000000004
 51
0.0
  0
ARC
  5
635
330
22
100
AcDbEntity
  8
0
  6
Continuous
 62
     7
100
AcDbCircle
 10
-694.5991821289062
 20
590.5671997070312
 30
0.0
 40
2.5
100
AcDbArc
 50
180.0000000000004
 51
0.0
  0
ARC
  5
636
330
22
100
AcDbEntity
  8
0
  6
Continuous
 62
     7
100
AcDbCircle
 10
-704.5991821289062
 20
558.2423706054688
 30
0.0
 40
2.5
100
AcDbArc
 50
0.0
 51
180.0000000000004
  0
ARC
  5
637
330
22
100
AcDbEntity
  8
0
  6
Continuous
 62
     7
100
AcDbCircle
 10
-694.5991821289062
 20
600.2423706054687
 30
0.0
 40
2.5
100
AcDbArc
 50
0.0
 51
180.0000000000004
  0
ARC
  5
638
330
22
100
AcDbEntity
  8
0
  6
Continuous
 62
     7
100
AcDbCircle
 10
-704.5991821289062
 20
600.2423706054687
 30
0.0
 40
2.5
100
AcDbArc
 50
0.0
 51
180.0000000000004
  0
ARC
  5
639
330
22
100
AcDbEntity
  8
0
  6
Continuous
 62
     7
100
AcDbCircle
 10
-714.5991821289062
 20
628.9174804687499
 30
0.0
 40
2.5
100
AcDbArc
 50
0.0
 51
180.0000000000004
  0
ARC
  5
63A
330
22
100
AcDbEntity
  8
0
  6
Continuous
 62
     7
100
AcDbCircle
 10
-714.5991821289062
 20
619.2423706054687
 30
0.0
 40
2.5
100
AcDbArc
 50
180.0000000000004
 51
0.0
  0
ARC
  5
63B
330
22
100
AcDbEntity
  8
0
  6
DASHED
 62
     7
100
AcDbCircle
 10
-722.5991821289063
 20
616.7423706054687
 30
0.0
 40
2.0
100
AcDbArc
 50
180.0000000000004
 51
270.0000000000005
  0
ARC
  5
63C
330
22
100
AcDbEntity
  8
0
  6
DASHED
 62
     7
100
AcDbCircle
 10
-722.5991821289063
 20
602.7423706054687
 30
0.0
 40
2.0
100
AcDbArc
 50
90.00000000000019
 51
180.0000000000004
  0
ARC
  5
63D
330
22
100
AcDbEntity
  8
0
  6
Continuous
 62
     7
100
AcDbCircle
 10
-725.5991821289062
 20
477.2423706054688
 30
0.0
 40
2.0
100
AcDbArc
 50
180.0000000000004
 51
270.0000000000005
  0
ARC
  5
63E
330
22
100
AcDbEntity
  8
0
  6
Continuous
 62
     7
100
AcDbCircle
 10
-727.5991821289062
 20
475.2423706054687
 30
0.0
 40
1.0
100
AcDbArc
 50
180.0000000000004
 51
270.0000000000005
  0
ARC
  5
63F
330
22
100
AcDbEntity
  8
0
  6
Continuous
 62
     7
100
AcDbCircle
 10
-714.5991821289062
 20
506.2423706054688
 30
0.0
 40
2.5
100
AcDbArc
 50
180.0000000000004
 51
0.0
  0
ARC
  5
640
330
22
100
AcDbEntity
  8
0
  6
Continuous
 62
     7
100
AcDbCircle
 10
-714.5991821289062
 20
537.2423706054688
 30
0.0
 40
2.5
100
AcDbArc
 50
0.0
 51
180.0000000000004
  0
ARC
  5
641
330
22
100
AcDbEntity
  8
0
  6
Continuous
 62
     7
100
AcDbCircle
 10
-714.5991821289062
 20
495.2423706054688
 30
0.0
 40
2.5
100
AcDbArc
 50
0.0
 51
180.0000000000004
  0
ARC
  5
642
330
22
100
AcDbEntity
  8
0
  6
DASHED
 62
     7
100
AcDbCircle
 10
-721.0991821289062
 20
481.7423706054688
 30
0.0
 40
5.0
100
AcDbArc
 50
0.0
 51
90.00000000000019
  0
ARC
  5
643
330
22
100
AcDbEntity
  8
0
  6
DASHED
 62
     7
100
AcDbCircle
 10
-714.0991821289063
 20
480.2423706054688
 30
0.0
 40
2.0
100
AcDbArc
 50
180.0000000000004
 51
270.0000000000005
  0
ARC
  5
644
330
22
100
AcDbEntity
  8
0
  6
Continuous
 62
     7
100
AcDbCircle
 10
-684.5991821289062
 20
485.2423706054688
 30
0.0
 40
2.5
100
AcDbArc
 50
180.0000000000004
 51
0.0
  0
ARC
  5
645
330
22
100
AcDbEntity
  8
0
  6
Continuous
 62
     7
100
AcDbCircle
 10
-684.5991821289062
 20
527.2423706054688
 30
0.0
 40
2.5
100
AcDbArc
 50
180.0000000000004
 51
0.0
  0
ARC
  5
646
330
22
100
AcDbEntity
  8
0
  6
Continuous
 62
     7
100
AcDbCircle
 10
-684.5991821289062
 20
516.2423706054688
 30
0.0
 40
2.5
100
AcDbArc
 50
0.0
 51
180.0000000000004
  0
CIRCLE
  5
647
330
22
100
AcDbEntity
  8
0
  6
Continuous
 62
     7
100
AcDbCircle
 10
-721.0991821289062
 20
481.7423706054688
 30
0.0
 40
4.5
  0
CIRCLE
  5
648
330
22
100
AcDbEntity
  8
0
  6
Continuous
 62
     7
100
AcDbCircle
 10
-721.0991821289062
 20
481.7423706054688
 30
0.0
 40
4.5
  0
CIRCLE
  5
649
330
22
100
AcDbEntity
  8
0
  6
Continuous
 62
     7
100
AcDbCircle
 10
-721.0991821289062
 20
481.7423706054688
 30
0.0
 40
4.75
  0
ARC
  5
64A
330
22
100
AcDbEntity
  8
0
  6
Continuous
 62
     7
100
AcDbCircle
 10
-714.5991821289062
 20
490.2423706054688
 30
0.0
 40
2.5
100
AcDbArc
 50
180.0000000000004
 51
0.0
  0
ARC
  5
64B
330
22
100
AcDbEntity
  8
0
  6
Continuous
 62
     7
100
AcDbCircle
 10
-694.5991821289062
 20
537.2423706054688
 30
0.0
 40
2.5
100
AcDbArc
 50
0.0
 51
180.0000000000004
  0
ARC
  5
64C
330
22
100
AcDbEntity
  8
0
  6
Continuous
 62
     7
100
AcDbCircle
 10
-694.5991821289062
 20
506.2423706054688
 30
0.0
 40
2.5
100
AcDbArc
 50
180.0000000000004
 51
0.0
  0
ARC
  5
64D
330
22
100
AcDbEntity
  8
0
  6
Continuous
 62
     7
100
AcDbCircle
 10
-694.5991821289062
 20
495.2423706054688
 30
0.0
 40
2.5
100
AcDbArc
 50
0.0
 51
180.0000000000004
  0
ARC
  5
64E
330
22
100
AcDbEntity
  8
0
  6
Continuous
 62
     7
100
AcDbCircle
 10
-704.5991821289062
 20
516.2423706054688
 30
0.0
 40
2.5
100
AcDbArc
 50
0.0
 51
180.0000000000004
  0
ARC
  5
64F
330
22
100
AcDbEntity
  8
0
  6
Continuous
 62
     7
100
AcDbCircle
 10
-694.5991821289062
 20
485.2423706054688
 30
0.0
 40
2.5
100
AcDbArc
 50
180.0000000000004
 51
0.0
  0
ARC
  5
650
330
22
100
AcDbEntity
  8
0
  6
Continuous
 62
     7
100
AcDbCircle
 10
-704.5991821289062
 20
527.2423706054688
 30
0.0
 40
2.5
100
AcDbArc
 50
180.0000000000004
 51
0.0
  0
ARC
  5
651
330
22
100
AcDbEntity
  8
0
  6
Continuous
 62
     7
100
AcDbCircle
 10
-704.5991821289062
 20
485.2423706054688
 30
0.0
 40
2.5
100
AcDbArc
 50
180.0000000000004
 51
0.0
  0
ARC
  5
652
330
22
100
AcDbEntity
  8
0
  6
DASHED
 62
     7
100
AcDbCircle
 10
-722.5991821289063
 20
488.7423706054688
 30
0.0
 40
2.0
100
AcDbArc
 50
180.0000000000004
 51
270.0000000000005
  0
ARC
  5
653
330
22
100
AcDbEntity
  8
0
  6
Continuous
 62
     7
100
AcDbCircle
 10
-471.5992126464843
 20
548.2423706054688
 30
0.0
 40
2.5
100
AcDbArc
 50
180.0000000000004
 51
0.0
  0
ARC
  5
654
330
22
100
AcDbEntity
  8
0
  6
Continuous
 62
     7
100
AcDbCircle
 10
-511.5992126464844
 20
724.2423706054687
 30
0.0
 40
2.5
100
AcDbArc
 50
180.0000000000004
 51
0.0
  0
ARC
  5
655
330
22
100
AcDbEntity
  8
0
  6
Continuous
 62
     7
100
AcDbCircle
 10
-531.5991821289063
 20
724.2423706054687
 30
0.0
 40
2.5
100
AcDbArc
 50
180.0000000000004
 51
0.0
  0
ARC
  5
656
330
22
100
AcDbEntity
  8
0
  6
Continuous
 62
     7
100
AcDbCircle
 10
-491.5992126464844
 20
724.2423706054687
 30
0.0
 40
2.5
100
AcDbArc
 50
180.0000000000004
 51
0.0
  0
ARC
  5
657
330
22
100
AcDbEntity
  8
0
  6
Continuous
 62
     7
100
AcDbCircle
 10
-471.5992126464843
 20
724.2423706054687
 30
0.0
 40
2.5
100
AcDbArc
 50
180.0000000000004
 51
0.0
  0
ARC
  5
658
330
22
100
AcDbEntity
  8
0
  6
Continuous
 62
     7
100
AcDbCircle
 10
-571.5991821289062
 20
724.2423706054687
 30
0.0
 40
2.5
100
AcDbArc
 50
180.0000000000004
 51
0.0
  0
ARC
  5
659
330
22
100
AcDbEntity
  8
0
  6
Continuous
 62
     7
100
AcDbCircle
 10
-511.5992126464844
 20
548.2423706054688
 30
0.0
 40
2.5
100
AcDbArc
 50
180.0000000000004
 51
0.0
  0
ARC
  5
65A
330
22
100
AcDbEntity
  8
0
  6
Continuous
 62
     7
100
AcDbCircle
 10
-531.5991821289063
 20
548.2423706054688
 30
0.0
 40
2.5
100
AcDbArc
 50
180.0000000000004
 51
0.0
  0
ARC
  5
65B
330
22
100
AcDbEntity
  8
0
  6
Continuous
 62
     7
100
AcDbCircle
 10
-491.5992126464844
 20
548.2423706054688
 30
0.0
 40
2.5
100
AcDbArc
 50
180.0000000000004
 51
0.0
  0
ARC
  5
65C
330
22
100
AcDbEntity
  8
0
  6
Continuous
 62
     7
100
AcDbCircle
 10
-694.5991821289062
 20
724.2423706054687
 30
0.0
 40
2.5
100
AcDbArc
 50
180.0000000000004
 51
0.0
  0
ARC
  5
65D
330
22
100
AcDbEntity
  8
0
  6
Continuous
 62
     7
100
AcDbCircle
 10
-714.5991821289062
 20
724.2423706054687
 30
0.0
 40
2.5
100
AcDbArc
 50
180.0000000000004
 51
0.0
  0
ARC
  5
65E
330
22
100
AcDbEntity
  8
0
  6
Continuous
 62
     7
100
AcDbCircle
 10
-614.5991821289062
 20
724.2423706054687
 30
0.0
 40
2.5
100
AcDbArc
 50
180.0000000000004
 51
0.0
  0
ARC
  5
65F
330
22
100
AcDbEntity
  8
0
  6
Continuous
 62
     7
100
AcDbCircle
 10
-634.5991821289062
 20
724.2423706054687
 30
0.0
 40
2.5
100
AcDbArc
 50
180.0000000000004
 51
0.0
  0
ARC
  5
660
330
22
100
AcDbEntity
  8
0
  6
Continuous
 62
     7
100
AcDbCircle
 10
-654.5991821289062
 20
724.2423706054687
 30
0.0
 40
2.5
100
AcDbArc
 50
180.0000000000004
 51
0.0
  0
ARC
  5
661
330
22
100
AcDbEntity
  8
0
  6
Continuous
 62
     7
100
AcDbCircle
 10
-614.5991821289062
 20
548.2423706054688
 30
0.0
 40
2.5
100
AcDbArc
 50
180.0000000000004
 51
0.0
  0
ARC
  5
662
330
22
100
AcDbEntity
  8
0
  6
Continuous
 62
     7
100
AcDbCircle
 10
-634.5991821289062
 20
548.2423706054688
 30
0.0
 40
2.5
100
AcDbArc
 50
180.0000000000004
 51
0.0
  0
ARC
  5
663
330
22
100
AcDbEntity
  8
0
  6
Continuous
 62
     7
100
AcDbCircle
 10
-654.5991821289062
 20
548.2423706054688
 30
0.0
 40
2.5
100
AcDbArc
 50
180.0000000000004
 51
0.0
  0
ARC
  5
664
330
22
100
AcDbEntity
  8
0
  6
Continuous
 62
     7
100
AcDbCircle
 10
-571.5991821289062
 20
548.2423706054688
 30
0.0
 40
2.5
100
AcDbArc
 50
180.0000000000004
 51
0.0
  0
ARC
  5
665
330
22
100
AcDbEntity
  8
0
  6
Continuous
 62
     7
100
AcDbCircle
 10
-694.5991821289062
 20
548.2423706054688
 30
0.0
 40
2.5
100
AcDbArc
 50
180.0000000000004
 51
0.0
  0
ARC
  5
666
330
22
100
AcDbEntity
  8
0
  6
Continuous
 62
     7
100
AcDbCircle
 10
-714.5991821289062
 20
548.2423706054688
 30
0.0
 40
2.5
100
AcDbArc
 50
180.0000000000004
 51
0.0
  0
ARC
  5
667
330
22
100
AcDbEntity
  8
0
  6
Continuous
 62
     7
100
AcDbCircle
 10
-674.5991821289062
 20
682.2423706054687
 30
0.0
 40
2.5
100
AcDbArc
 50
180.0000000000004
 51
0.0
  0
ARC
  5
668
330
22
100
AcDbEntity
  8
0
  6
Continuous
 62
     7
100
AcDbCircle
 10
-674.5991821289062
 20
713.2423706054687
 30
0.0
 40
2.5
100
AcDbArc
 50
0.0
 51
180.0000000000004
  0
ARC
  5
669
330
22
100
AcDbEntity
  8
0
  6
Continuous
 62
     7
100
AcDbCircle
 10
-674.5991821289062
 20
734.2423706054687
 30
0.0
 40
2.5
100
AcDbArc
 50
0.0
 51
180.0000000000004
  0
ARC
  5
66A
330
22
100
AcDbEntity
  8
0
  6
Continuous
 62
     7
100
AcDbCircle
 10
-674.5991821289062
 20
628.9174804687499
 30
0.0
 40
2.5
100
AcDbArc
 50
0.0
 51
180.0000000000004
  0
ARC
  5
66B
330
22
100
AcDbEntity
  8
0
  6
Continuous
 62
     7
100
AcDbCircle
 10
-674.5991821289062
 20
619.2423706054687
 30
0.0
 40
2.5
100
AcDbArc
 50
180.0000000000004
 51
0.0
  0
ARC
  5
66C
330
22
100
AcDbEntity
  8
0
  6
Continuous
 62
     7
100
AcDbCircle
 10
-674.5991821289062
 20
600.2423706054687
 30
0.0
 40
2.5
100
AcDbArc
 50
0.0
 51
180.0000000000004
  0
ARC
  5
66D
330
22
100
AcDbEntity
  8
0
  6
Continuous
 62
     7
100
AcDbCircle
 10
-674.5991821289062
 20
590.5671997070312
 30
0.0
 40
2.5
100
AcDbArc
 50
180.0000000000004
 51
0.0
  0
ARC
  5
66E
330
22
100
AcDbEntity
  8
0
  6
Continuous
 62
     7
100
AcDbCircle
 10
-674.5991821289062
 20
579.5671997070312
 30
0.0
 40
2.5
100
AcDbArc
 50
0.0
 51
180.0000000000004
  0
ARC
  5
66F
330
22
100
AcDbEntity
  8
0
  6
Continuous
 62
     7
100
AcDbCircle
 10
-674.5991821289062
 20
548.2423706054688
 30
0.0
 40
2.5
100
AcDbArc
 50
180.0000000000004
 51
0.0
  0
ARC
  5
670
330
22
100
AcDbEntity
  8
0
  6
Continuous
 62
     7
100
AcDbCircle
 10
-674.5991821289062
 20
495.2423706054688
 30
0.0
 40
2.5
100
AcDbArc
 50
0.0
 51
180.0000000000004
  0
ARC
  5
671
330
22
100
AcDbEntity
  8
0
  6
Continuous
 62
     7
100
AcDbCircle
 10
-674.5991821289062
 20
506.2423706054688
 30
0.0
 40
2.5
100
AcDbArc
 50
180.0000000000004
 51
0.0
  0
ARC
  5
672
330
22
100
AcDbEntity
  8
0
  6
Continuous
 62
     7
100
AcDbCircle
 10
-674.5991821289062
 20
537.2423706054688
 30
0.0
 40
2.5
100
AcDbArc
 50
0.0
 51
180.0000000000004
  0
ARC
  5
673
330
22
100
AcDbEntity
  8
0
  6
Continuous
 62
     7
100
AcDbCircle
 10
-674.5991821289062
 20
485.2423706054688
 30
0.0
 40
2.5
100
AcDbArc
 50
180.0000000000004
 51
0.0
  0
ARC
  5
674
330
22
100
AcDbEntity
  8
0
  6
Continuous
 62
     7
100
AcDbCircle
 10
-674.5991821289062
 20
724.2423706054687
 30
0.0
 40
2.5
100
AcDbArc
 50
180.0000000000004
 51
0.0
  0
ARC
  5
675
330
22
100
AcDbEntity
  8
0
  6
Continuous
 62
     7
100
AcDbCircle
 10
-674.5991821289062
 20
671.2423706054687
 30
0.0
 40
2.5
100
AcDbArc
 50
0.0
 51
180.0000000000004
  0
ARC
  5
676
330
22
100
AcDbEntity
  8
0
  6
Continuous
 62
     7
100
AcDbCircle
 10
-511.5992126464844
 20
639.91748046875
 30
0.0
 40
2.5
100
AcDbArc
 50
180.0000000000004
 51
0.0
  0
ARC
  5
677
330
22
100
AcDbEntity
  8
0
  6
Continuous
 62
     7
100
AcDbCircle
 10
-531.5991821289063
 20
639.91748046875
 30
0.0
 40
2.5
100
AcDbArc
 50
180.0000000000004
 51
0.0
  0
ARC
  5
678
330
22
100
AcDbEntity
  8
0
  6
Continuous
 62
     7
100
AcDbCircle
 10
-471.5992126464843
 20
639.91748046875
 30
0.0
 40
2.5
100
AcDbArc
 50
180.0000000000004
 51
0.0
  0
ARC
  5
679
330
22
100
AcDbEntity
  8
0
  6
Continuous
 62
     7
100
AcDbCircle
 10
-491.5992126464844
 20
639.91748046875
 30
0.0
 40
2.5
100
AcDbArc
 50
180.0000000000004
 51
0.0
  0
ARC
  5
67A
330
22
100
AcDbEntity
  8
0
  6
Continuous
 62
     7
100
AcDbCircle
 10
-694.5991821289062
 20
639.91748046875
 30
0.0
 40
2.5
100
AcDbArc
 50
180.0000000000004
 51
0.0
  0
ARC
  5
67B
330
22
100
AcDbEntity
  8
0
  6
Continuous
 62
     7
100
AcDbCircle
 10
-714.5991821289062
 20
639.91748046875
 30
0.0
 40
2.5
100
AcDbArc
 50
180.0000000000004
 51
0.0
  0
ARC
  5
67C
330
22
100
AcDbEntity
  8
0
  6
Continuous
 62
     7
100
AcDbCircle
 10
-614.5991821289062
 20
639.91748046875
 30
0.0
 40
2.5
100
AcDbArc
 50
180.0000000000004
 51
0.0
  0
ARC
  5
67D
330
22
100
AcDbEntity
  8
0
  6
Continuous
 62
     7
100
AcDbCircle
 10
-674.5991821289062
 20
639.91748046875
 30
0.0
 40
2.5
100
AcDbArc
 50
180.0000000000004
 51
0.0
  0
ARC
  5
67E
330
22
100
AcDbEntity
  8
0
  6
Continuous
 62
     7
100
AcDbCircle
 10
-654.5991821289062
 20
639.91748046875
 30
0.0
 40
2.5
100
AcDbArc
 50
180.0000000000004
 51
0.0
  0
ARC
  5
67F
330
22
100
AcDbEntity
  8
0
  6
Continuous
 62
     7
100
AcDbCircle
 10
-634.5991821289062
 20
639.91748046875
 30
0.0
 40
2.5
100
AcDbArc
 50
180.0000000000004
 51
0.0
  0
ARC
  5
680
330
22
100
AcDbEntity
  8
0
  6
Continuous
 62
     7
100
AcDbCircle
 10
-571.5991821289062
 20
639.91748046875
 30
0.0
 40
2.5
100
AcDbArc
 50
180.0000000000004
 51
0.0
  0
ARC
  5
681
330
22
100
AcDbEntity
  8
0
  6
Continuous
 62
     7
100
AcDbCircle
 10
-551.5991821289063
 20
724.2423706054687
 30
0.0
 40
2.5
100
AcDbArc
 50
180.0000000000004
 51
0.0
  0
ARC
  5
682
330
22
100
AcDbEntity
  8
0
  6
Continuous
 62
     7
100
AcDbCircle
 10
-551.5991821289063
 20
734.2423706054687
 30
0.0
 40
2.5
100
AcDbArc
 50
0.0
 51
180.0000000000004
  0
ARC
  5
683
330
22
100
AcDbEntity
  8
0
  6
Continuous
 62
     7
100
AcDbCircle
 10
-551.5991821289063
 20
682.2423706054687
 30
0.0
 40
2.5
100
AcDbArc
 50
180.0000000000004
 51
0.0
  0
ARC
  5
684
330
22
100
AcDbEntity
  8
0
  6
Continuous
 62
     7
100
AcDbCircle
 10
-551.5991821289063
 20
671.2423706054687
 30
0.0
 40
2.5
100
AcDbArc
 50
0.0
 51
180.0000000000004
  0
ARC
  5
685
330
22
100
AcDbEntity
  8
0
  6
Continuous
 62
     7
100
AcDbCircle
 10
-551.5991821289063
 20
713.2423706054687
 30
0.0
 40
2.5
100
AcDbArc
 50
0.0
 51
180.0000000000004
  0
ARC
  5
686
330
22
100
AcDbEntity
  8
0
  6
Continuous
 62
     7
100
AcDbCircle
 10
-551.5991821289063
 20
639.91748046875
 30
0.0
 40
2.5
100
AcDbArc
 50
180.0000000000004
 51
0.0
  0
ARC
  5
687
330
22
100
AcDbEntity
  8
0
  6
Continuous
 62
     7
100
AcDbCircle
 10
-551.5991821289063
 20
628.9174804687499
 30
0.0
 40
2.5
100
AcDbArc
 50
0.0
 51
180.0000000000004
  0
ARC
  5
688
330
22
100
AcDbEntity
  8
0
  6
Continuous
 62
     7
100
AcDbCircle
 10
-551.5991821289063
 20
619.2423706054687
 30
0.0
 40
2.5
100
AcDbArc
 50
180.0000000000004
 51
0.0
  0
ARC
  5
689
330
22
100
AcDbEntity
  8
0
  6
Continuous
 62
     7
100
AcDbCircle
 10
-551.5991821289063
 20
548.2423706054688
 30
0.0
 40
2.5
100
AcDbArc
 50
180.0000000000004
 51
0.0
  0
ARC
  5
68A
330
22
100
AcDbEntity
  8
0
  6
Continuous
 62
     7
100
AcDbCircle
 10
-551.5991821289063
 20
590.2423706054687
 30
0.0
 40
2.5
100
AcDbArc
 50
180.0000000000004
 51
0.0
  0
ARC
  5
68B
330
22
100
AcDbEntity
  8
0
  6
Continuous
 62
     7
100
AcDbCircle
 10
-551.5991821289063
 20
579.2423706054687
 30
0.0
 40
2.5
100
AcDbArc
 50
0.0
 51
180.0000000000004
  0
ARC
  5
68C
330
22
100
AcDbEntity
  8
0
  6
Continuous
 62
     7
100
AcDbCircle
 10
-551.5991821289063
 20
600.2423706054687
 30
0.0
 40
2.5
100
AcDbArc
 50
0.0
 51
180.0000000000004
  0
ARC
  5
68D
330
22
100
AcDbEntity
  8
0
  6
Continuous
 62
     7
100
AcDbCircle
 10
-551.5991821289063
 20
506.2423706054688
 30
0.0
 40
2.5
100
AcDbArc
 50
180.0000000000004
 51
0.0
  0
ARC
  5
68E
330
22
100
AcDbEntity
  8
0
  6
Continuous
 62
     7
100
AcDbCircle
 10
-551.5991821289063
 20
537.2423706054688
 30
0.0
 40
2.5
100
AcDbArc
 50
0.0
 51
180.0000000000004
  0
ARC
  5
68F
330
22
100
AcDbEntity
  8
0
  6
Continuous
 62
     7
100
AcDbCircle
 10
-551.5991821289063
 20
495.2423706054688
 30
0.0
 40
2.5
100
AcDbArc
 50
0.0
 51
180.0000000000004
  0
ARC
  5
690
330
22
100
AcDbEntity
  8
0
  6
Continuous
 62
     7
100
AcDbCircle
 10
-551.5991821289063
 20
485.2423706054688
 30
0.0
 40
2.5
100
AcDbArc
 50
180.0000000000004
 51
0.0
  0
ARC
  5
691
330
22
100
AcDbEntity
  8
0
  6
Continuous
 62
     7
100
AcDbCircle
 10
-448.0992126464843
 20
464.7423706054688
 30
0.0
 40
5.0
100
AcDbArc
 50
270.0000000000005
 51
0.0
  0
ARC
  5
692
330
22
100
AcDbEntity
  8
0
  6
Continuous
 62
     7
100
AcDbCircle
 10
-738.0991821289062
 20
464.7423706054688
 30
0.0
 40
5.0
100
AcDbArc
 50
180.0000000000004
 51
270.0000000000005
  0
LWPOLYLINE
  5
693
330
22
100
AcDbEntity
  8
0
  6
Continuous
 62
     7
100
AcDbPolyline
 90
       17
 70
     0
 43
0.0
 10
-607.8404063920332
 20
301.6730651855206
 42
0.0401679067373625
 10
-608.0115505301037
 20
302.0822974590573
 42
0.0401679067373625
 10
-608.2517932166601
 20
302.4809992577679
 42
0.0401679067373625
 10
-608.5549524623361
 20
302.8589110798329
 42
0.0401679067373625
 10
-608.9132272919608
 20
303.2063083966992
 42
0.0401679067373625
 10
-609.3173984813467
 20
303.5142518872604
 42
0.0401679067373625
 10
-609.7570657888439
 20
303.7748174668699
 42
0.0401679067373625
 10
-610.2209155771539
 20
303.9813001920174
 42
0.0401679067373625
 10
-610.6970119388833
 20
304.1283867937356
 42
0.0401679067373625
 10
-611.1731038345205
 20
304.2122924000655
 42
0.0401679067373625
 10
-611.6369403394771
 20
304.2308579293989
 42
0.0401679067373625
 10
-612.0765858881708
 20
304.1836056485463
 42
0.0401679067373625
 10
-612.480727403206
 20
304.0717514658958
 42
0.0401679067373625
 10
-612.8389654065212
 20
303.8981736433314
 42
0.0401679067373625
 10
-613.1420816215538
 20
303.6673387320251
 42
0.0401679067373625
 10
-613.3822761804082
 20
303.3851866379423
 42
0.0401679067373625
 10
-613.5533683321543
 20
303.0589777745845
 42
-1.0
  0
TEXT
  5
6A6
330
22
100
AcDbEntity
  8
0
  6
Continuous
 62
     7
100
AcDbText
 10
-486.2299432754516
 20
143.807861328125
 30
0.0
 40
7.0
  1
DL-SK4-65
 41
1.005384686228993
100
AcDbText
  0
DIMENSION
  5
6A7
330
22
100
AcDbEntity
  8
0
  6
Continuous
 62
     7
100
AcDbDimension
  2
*D1
 10
-402.9657897949219
 20
184.6504669189453
 30
0.0
 11
-402.9657897949219
 21
170.5721130371094
 31
0.0
 71
     5
 42
-1.0
  3
DIMSTYLE1
100
AcDbAlignedDimension
 13
-452.3861999511718
 23
188.1504669189453
 33
0.0
 14
-502.5992126464843
 24
184.6504669189453
 34
0.0
 50
90.0
100
AcDbRotatedDimension
  0
DIMENSION
  5
6A8
330
22
100
AcDbEntity
  8
0
  6
Continuous
 62
     7
100
AcDbDimension
  2
*D2
 10
-502.0992126464843
 20
94.0341567993164
 30
0.0
 11
-593.0991821289062
 21
94.0341567993164
 31
0.0
 71
     5
 42
-1.0
  3
DIMSTYLE2
100
AcDbAlignedDimension
 13
-684.0991821289062
 23
185.1504669189453
 33
0.0
 14
-502.0992126464843
 24
185.1504669189453
 34
0.0
100
AcDbRotatedDimension
  0
DIMENSION
  5
6A9
330
22
100
AcDbEntity
  8
0
  6
Continuous
 62
     7
100
AcDbDimension
  2
*D3
 10
-551.5991821289063
 20
107.6389770507813
 30
0.0
 11
-593.0991821289062
 21
107.6389770507813
 31
0.0
 71
     5
 42
-1.0
  3
DIMSTYLE3
100
AcDbAlignedDimension
 13
-634.5991821289062
 23
153.1504669189453
 33
0.0
 14
-551.5991821289063
 24
153.1504669189453
 34
0.0
100
AcDbRotatedDimension
  0
DIMENSION
  5
6AA
330
22
100
AcDbEntity
  8
0
  6
Continuous
 62
     7
100
AcDbDimension
  2
*D4
 10
-716.5599365234375
 20
220.1504669189453
 30
0.0
 11
-716.5599365234375
 21
186.1504669189453
 31
0.0
 71
     5
 42
-1.0
  3
DIMSTYLE4
100
AcDbAlignedDimension
 13
-633.5991821289062
 23
152.1504669189453
 33
0.0
 14
-633.0991821289062
 24
220.1504669189453
 34
0.0
 50
90.0
100
AcDbRotatedDimension
  0
DIMENSION
  5
6AB
330
22
100
AcDbEntity
  8
0
  6
Continuous
 62
     7
100
AcDbDimension
  2
*D5
 10
-650.5991821289062
 20
158.9384307861328
 30
0.0
 11
-642.5991821289062
 21
158.9384307861328
 31
0.0
 71
     5
 42
-1.0
  3
DIMSTYLE5
100
AcDbAlignedDimension
 13
-634.5991821289062
 23
153.1504669189453
 33
0.0
 14
-650.5991821289062
 24
183.1494903564453
 34
0.0
100
AcDbRotatedDimension
  0
DIMENSION
  5
6AC
330
22
100
AcDbEntity
  8
0
  6
Continuous
 62
     7
100
AcDbDimension
  2
*D6
 10
-662.0955810546875
 20
166.6504669189453
 30
0.0
 11
-662.0955810546875
 21
175.6504669189453
 31
0.0
 71
     5
 42
-1.0
  3
DIMSTYLE6
100
AcDbAlignedDimension
 13
-683.5991821289062
 23
184.6504669189453
 33
0.0
 14
-636.5991821289062
 24
166.6504669189453
 34
0.0
 50
90.0
100
AcDbRotatedDimension
  0
INSERT
  5
6AD
330
22
100
AcDbEntity
  8
0
  6
Continuous
 62
     7
100
AcDbBlockReference
  2
KOZU0001
 10
-640.7354125976562
 20
180.5925903320313
 30
0.0
  0
INSERT
  5
6AE
330
22
100
AcDbEntity
  8
0
  6
Continuous
 62
     7
100
AcDbBlockReference
  2
KOZU0002
 10
-555.8775634765624
 20
163.9370880126953
 30
0.0
  0
DIMENSION
  5
6AF
330
22
100
AcDbEntity
  8
0
  6
Continuous
 62
     7
100
AcDbDimension
  2
*D7
 10
-402.9657897949219
 20
387.1504516601563
 30
0.0
 11
-402.9657897949219
 21
287.6504516601563
 31
0.0
 71
     5
 42
-1.0
  3
DIMSTYLE7
100
AcDbAlignedDimension
 13
-504.0992126464844
 23
188.1504669189453
 33
0.0
 14
-444.0992126464843
 24
387.1504516601563
 34
0.0
 50
90.0
100
AcDbRotatedDimension
  0
DIMENSION
  5
6B0
330
22
100
AcDbEntity
  8
0
  6
Continuous
 62
     7
100
AcDbDimension
  2
*D8
 10
-417.0468444824218
 20
282.1504516601563
 30
0.0
 11
-417.0468444824218
 21
334.6504516601563
 31
0.0
 71
     5
 42
-1.0
  3
DIMSTYLE8
100
AcDbAlignedDimension
 13
-400.6797790527343
 23
387.1504516601563
 33
0.0
 14
-548.5801391601563
 24
282.1504516601563
 34
0.0
 50
90.0
100
AcDbRotatedDimension
  0
DIMENSION
  5
6B1
330
22
100
AcDbEntity
  8
0
  6
Continuous
 62
     7
100
AcDbDimension
  2
*D9
 10
-417.0468444824218
 20
220.1504669189453
 30
0.0
 11
-417.0468444824218
 21
204.1504669189453
 31
0.0
 71
     5
 42
-1.0
  3
DIMSTYLE9
100
AcDbAlignedDimension
 13
-400.6797790527343
 23
188.1504669189453
 33
0.0
 14
-553.0991821289063
 24
220.1504669189453
 34
0.0
 50
90.0
100
AcDbRotatedDimension
  0
DIMENSION
  5
6B2
330
22
100
AcDbEntity
  8
0
  6
Continuous
 62
     7
100
AcDbDimension
  2
*D10
 10
-582.9057617187499
 20
300.1504516601563
 30
0.0
 11
-582.9057617187499
 21
250.1504669189453
 31
0.0
 71
     5
 42
-1.0
  3
DIMSTYLE10
100
AcDbAlignedDimension
 13
-576.1435546875
 23
200.1504669189453
 33
0.0
 14
-572.76806640625
 24
300.1504516601563
 34
0.0
 50
90.0
100
AcDbRotatedDimension
  0
DIMENSION
  5
6B3
330
22
100
AcDbEntity
  8
0
  6
Continuous
 62
     7
100
AcDbDimension
  2
*D11
 10
-574.6799316406249
 20
250.1504669189453
 30
0.0
 11
-574.6799316406249
 21
225.1504669189453
 31
0.0
 71
     5
 42
-1.0
  3
DIMSTYLE11
100
AcDbAlignedDimension
 13
-556.9841918945313
 23
200.1504669189453
 33
0.0
 14
-556.9841918945313
 24
250.1504669189453
 34
0.0
 50
90.0
100
AcDbRotatedDimension
  0
DIMENSION
  5
6B4
330
22
100
AcDbEntity
  8
0
  6
Continuous
 62
     7
100
AcDbDimension
  2
*D12
 10
-402.9657897949219
 20
759.7423706054687
 30
0.0
 11
-402.9657897949219
 21
609.7423706054687
 31
0.0
 71
     5
 42
-1.0
  3
DIMSTYLE12
100
AcDbAlignedDimension
 13
-448.0992126464843
 23
459.7423706054688
 33
0.0
 14
-448.0992126464843
 24
759.7423706054687
 34
0.0
 50
90.0
100
AcDbRotatedDimension
  0
DIMENSION
  5
6B5
330
22
100
AcDbEntity
  8
0
  6
Continuous
 62
     7
100
AcDbDimension
  2
*D13
 10
-417.0468444824218
 20
745.2423706054688
 30
0.0
 11
-417.0468444824218
 21
609.7423706054687
 31
0.0
 71
     5
 42
-1.0
  3
DIMSTYLE13
100
AcDbAlignedDimension
 13
-458.5992126464843
 23
474.2423706054688
 33
0.0
 14
-458.5992126464843
 24
745.2423706054688
 34
0.0
 50
90.0
100
AcDbRotatedDimension
  0
DIMENSION
  5
6B6
330
22
100
AcDbEntity
  8
0
  6
Continuous
 62
     7
100
AcDbDimension
  2
*D14
 10
-443.0992126464843
 20
793.8382568359375
 30
0.0
 11
-593.0991821289062
 21
793.8382568359375
 31
0.0
 71
     5
 42
-1.0
  3
DIMSTYLE14
100
AcDbAlignedDimension
 13
-743.0991821289062
 23
754.7423706054687
 33
0.0
 14
-443.0992126464843
 24
754.7423706054687
 34
0.0
100
AcDbRotatedDimension
  0
DIMENSION
  5
6B7
330
22
100
AcDbEntity
  8
0
  6
Continuous
 62
     7
100
AcDbDimension
  2
*D15
 10
-457.5992126464844
 20
780.6896972656249
 30
0.0
 11
-593.0991821289062
 21
780.6896972656249
 31
0.0
 71
     5
 42
-1.0
  3
DIMSTYLE15
100
AcDbAlignedDimension
 13
-728.5991821289062
 23
744.2423706054687
 33
0.0
 14
-457.5992126464844
 24
744.2423706054687
 34
0.0
100
AcDbRotatedDimension
  0
ENDSEC
  0
SECTION
  2
OBJECTS
  0
DICTIONARY
  5
C
330
0
100
AcDbDictionary
281
     1
  3
ACAD_COLOR
350
1B
  3
ACAD_GROUP
350
D
  3
ACAD_LAYOUT
350
19
  3
ACAD_MATERIAL
350
1A
  3
ACAD_MLINESTYLE
350
16
  3
ACAD_PLOTSETTINGS
350
18
  3
ACAD_PLOTSTYLENAME
350
E
  3
ACAD_TABLESTYLE
350
1C
  3
AcDbVariableDictionary
350
6C3
  0
DICTIONARY
  5
1B
102
{ACAD_REACTORS
330
C
102
}
330
C
100
AcDbDictionary
281
     1
  0
DICTIONARY
  5
D
102
{ACAD_REACTORS
330
C
102
}
330
C
100
AcDbDictionary
281
     1
  0
DICTIONARY
  5
19
102
{ACAD_REACTORS
330
C
102
}
330
C
100
AcDbDictionary
281
     1
  3
Model
350
25
  3
レイアウト1
350
21
  0
DICTIONARY
  5
1A
102
{ACAD_REACTORS
330
C
102
}
330
C
100
AcDbDictionary
281
     1
  0
DICTIONARY
  5
16
102
{ACAD_REACTORS
330
C
102
}
330
C
100
AcDbDictionary
281
     1
  3
Standard
350
17
  0
DICTIONARY
  5
18
102
{ACAD_REACTORS
330
C
102
}
330
C
100
AcDbDictionary
281
     1
  0
ACDBDICTIONARYWDFLT
  5
E
102
{ACAD_REACTORS
330
C
102
}
330
C
100
AcDbDictionary
281
     1
  3
Normal
350
F
100
AcDbDictionaryWithDefault
340
F
  0
DICTIONARY
  5
1C
102
{ACAD_REACTORS
330
C
102
}
330
C
100
AcDbDictionary
281
     1
  3
Standard
350
1D
  0
DICTIONARY
  5
6C3
102
{ACAD_REACTORS
330
C
102
}
330
C
100
AcDbDictionary
281
     1
  3
CTABLESTYLE
350
6C4
  0
LAYOUT
  5
25
102
{ACAD_REACTORS
330
19
102
}
330
19
100
AcDbPlotSettings
  1

  2
PDF reDirect v2
  4
User119
  6

 40
3.174999952316284
 41
3.174999952316284
 42
3.17498779296875
 43
3.175048828125
 44
841.0
 45
1188.800048828125
 46
0.0
 47
0.0
 48
0.0
 49
0.0
140
0.0
141
0.0
142
1.0
143
1.0
 70
 11952
 72
     1
 73
     1
 74
     2
  7
C:\Users\ck\AppData\Roaming\Autodesk\AutoCAD 2005\R16.1\jpn\Plot Styles\black.ctb
 75
    16
147
1.0
 76
     0
 77
     2
 78
   300
148
1187.0
149
0.0
100
AcDbLayout
  1
Model
 70
     1
 71
     0
 10
0.0
 20
0.0
 11
12.0
 21
9.0
 12
0.0
 22
0.0
 32
0.0
 14
0.0
 24
0.0
 34
0.0
 15
0.0
 25
0.0
 35
0.0
146
0.0
 13
0.0
 23
0.0
 33
0.0
 16
1.0
 26
0.0
 36
0.0
 17
0.0
 27
1.0
 37
0.0
 76
     0
330
22
1001
ACAD_PSEXT
1000
PDF reDirect v2
1000
PDF reDirect Pro
1000
PDF_REDIRECT_PORT:
1000
PDF reDirect provided by EXP Systems
1070
     0
  0
LAYOUT
  5
21
102
{ACAD_REACTORS
330
19
102
}
330
19
100
AcDbPlotSettings
  1

  2
PDF reDirect v2
  4

  6

 40
0.0
 41
0.0
 42
0.0
 43
0.0
 44
0.0
 45
0.0
 46
0.0
 47
0.0
 48
0.0
 49
0.0
140
0.0
141
0.0
142
1.0
143
1.0
 70
   688
 72
     0
 73
     0
 74
     5
  7
C:\Users\ck\AppData\Roaming\Autodesk\AutoCAD 2005\R16.1\jpn\Plot Styles\black.ctb
 75
    16
147
1.0
 76
     0
 77
     2
 78
   300
148
0.0
149
0.0
100
AcDbLayout
  1
レイアウト1
 70
     1
 71
     1
 10
-1187.0
 20
0.0
 11
0.0
 21
839.0
 12
0.0
 22
0.0
 32
0.0
 14
1.000000000000000E+20
 24
1.000000000000000E+20
 34
1.000000000000000E+20
 15
-1.000000000000000E+20
 25
-1.000000000000000E+20
 35
-1.000000000000000E+20
146
0.0
 13
0.0
 23
0.0
 33
0.0
 16
1.0
 26
0.0
 36
0.0
 17
0.0
 27
1.0
 37
0.0
 76
     0
330
1E
  0
MLINESTYLE
  5
17
102
{ACAD_REACTORS
330
16
102
}
330
16
100
AcDbMlineStyle
  2
STANDARD
 70
     0
  3

 62
   256
 51
90.0
 52
90.0
 71
     2
 49
0.5
 62
   256
  6
BYLAYER
 49
-0.5
 62
   256
  6
BYLAYER
  0
ACDBPLACEHOLDER
  5
F
102
{ACAD_REACTORS
330
E
102
}
330
E
  0
TABLESTYLE
  5
1D
102
{ACAD_REACTORS
330
1C
102
}
330
1C
100
AcDbTableStyle
  3
Standard
 70
     0
 71
     0
 40
0.06
 41
0.06
280
     0
281
     0
  7
STANDARD
140
0.18
170
     2
 62
     0
 63
     7
283
     0
274
    -2
284
     1
 64
     0
275
    -2
285
     1
 65
     0
276
    -2
286
     1
 66
     0
277
    -2
287
     1
 67
     0
278
    -2
288
     1
 68
     0
279
    -2
289
     1
 69
     0
  7
STANDARD
140
0.25
170
     5
 62
     0
 63
     7
283
     0
274
    -2
284
     1
 64
     0
275
    -2
285
     1
 65
     0
276
    -2
286
     1
 66
     0
277
    -2
287
     1
 67
     0
278
    -2
288
     1
 68
     0
279
    -2
289
     1
 69
     0
  7
STANDARD
140
0.18
170
     5
 62
     0
 63
     7
283
     0
274
    -2
284
     1
 64
     0
275
    -2
285
     1
 65
     0
276
    -2
286
     1
 66
     0
277
    -2
287
     1
 67
     0
278
    -2
288
     1
 68
     0
279
    -2
289
     1
 69
     0
  0
DICTIONARYVAR
  5
6C4
102
{ACAD_REACTORS
330
6C3
102
}
330
6C3
100
DictionaryVariables
280
     0
  1
STANDARD
  0
ENDSEC
  0
EOF
