  0
SECTION
  2
HEADER
  9
$ACADVER
  1
AC1018
  9
$ACADMAINTVER
 70
    39
  9
$DWGCODEPAGE
  3
ANSI_932
  9
$INSBASE
 10
0.0
 20
0.0
 30
0.0
  9
$EXTMIN
 10
-466.9985336323716
 20
7.609162359043466
 30
-0.0015258207003583
  9
$EXTMAX
 10
-74.6413561304114
 20
406.2450265943132
 30
0.0000000349246037
  9
$LIMMIN
 10
-592.0
 20
0.0
  9
$LIMMAX
 10
0.0
 20
418.0
  9
$ORTHOMODE
 70
     0
  9
$REGENMODE
 70
     1
  9
$FILLMODE
 70
     1
  9
$QTEXTMODE
 70
     0
  9
$MIRRTEXT
 70
     0
  9
$LTSCALE
 40
1.0
  9
$ATTMODE
 70
     1
  9
$TEXTSIZE
 40
0.2
  9
$TRACEWID
 40
0.05
  9
$TEXTSTYLE
  7
STANDARD
  9
$CLAYER
  8
0
  9
$CELTYPE
  6
CONTINUOUS
  9
$CECOLOR
 62
   256
  9
$CELTSCALE
 40
1.0
  9
$DISPSILH
 70
     0
  9
$DIMSCALE
 40
1.0
  9
$DIMASZ
 40
1.0
  9
$DIMEXO
 40
2.54
  9
$DIMDLI
 40
0.38
  9
$DIMRND
 40
0.0
  9
$DIMDLE
 40
0.0
  9
$DIMEXE
 40
2.54
  9
$DIMTP
 40
0.0
  9
$DIMTM
 40
0.0
  9
$DIMTXT
 40
3.0
  9
$DIMCEN
 40
0.09
  9
$DIMTSZ
 40
0.0
  9
$DIMTOL
 70
     0
  9
$DIMLIM
 70
     0
  9
$DIMTIH
 70
     0
  9
$DIMTOH
 70
     0
  9
$DIMSE1
 70
     0
  9
$DIMSE2
 70
     0
  9
$DIMTAD
 70
     1
  9
$DIMZIN
 70
     0
  9
$DIMBLK
  1

  9
$DIMASO
 70
     1
  9
$DIMSHO
 70
     0
  9
$DIMPOST
  1

  9
$DIMAPOST
  1

  9
$DIMALT
 70
     0
  9
$DIMALTD
 70
     2
  9
$DIMALTF
 40
25.4
  9
$DIMLFAC
 40
1.0
  9
$DIMTOFL
 70
     0
  9
$DIMTVP
 40
1.0
  9
$DIMTIX
 70
     0
  9
$DIMSOXD
 70
     0
  9
$DIMSAH
 70
     1
  9
$DIMBLK1
  1

  9
$DIMBLK2
  1

  9
$DIMSTYLE
  2
DIMSTYLE1
  9
$DIMCLRD
 70
     0
  9
$DIMCLRE
 70
     0
  9
$DIMCLRT
 70
     0
  9
$DIMTFAC
 40
1.0
  9
$DIMGAP
 40
1.5
  9
$DIMJUST
 70
     0
  9
$DIMSD1
 70
     0
  9
$DIMSD2
 70
     0
  9
$DIMTOLJ
 70
     1
  9
$DIMTZIN
 70
     0
  9
$DIMALTZ
 70
     0
  9
$DIMALTTZ
 70
     0
  9
$DIMUPT
 70
     0
  9
$DIMDEC
 70
     4
  9
$DIMTDEC
 70
     4
  9
$DIMALTU
 70
     2
  9
$DIMALTTD
 70
     2
  9
$DIMTXSTY
  7
STANDARD
  9
$DIMAUNIT
 70
     0
  9
$DIMADEC
 70
     0
  9
$DIMALTRND
 40
0.0
  9
$DIMAZIN
 70
     0
  9
$DIMDSEP
 70
    46
  9
$DIMATFIT
 70
     3
  9
$DIMFRAC
 70
     0
  9
$DIMLDRBLK
  1

  9
$DIMLUNIT
 70
     2
  9
$DIMLWD
 70
    -2
  9
$DIMLWE
 70
    -2
  9
$DIMTMOVE
 70
     0
  9
$LUNITS
 70
     2
  9
$LUPREC
 70
     4
  9
$SKETCHINC
 40
0.1
  9
$FILLETRAD
 40
0.0
  9
$AUNITS
 70
     0
  9
$AUPREC
 70
     0
  9
$MENU
  1
.
  9
$ELEVATION
 40
0.0
  9
$PELEVATION
 40
0.0
  9
$THICKNESS
 40
0.0
  9
$LIMCHECK
 70
     0
  9
$CHAMFERA
 40
0.0
  9
$CHAMFERB
 40
0.0
  9
$CHAMFERC
 40
0.0
  9
$CHAMFERD
 40
0.0
  9
$SKPOLY
 70
     0
  9
$TDCREATE
 40
2457842.469127176
  9
$TDUCREATE
 40
2457842.094127176
  9
$TDUPDATE
 40
2457842.469671678
  9
$TDUUPDATE
 40
2457842.094671678
  9
$TDINDWG
 40
0.0005456597
  9
$TDUSRTIMER
 40
0.0005456597
  9
$USRTIMER
 70
     1
  9
$ANGBASE
 50
0.0
  9
$ANGDIR
 70
     0
  9
$PDMODE
 70
     0
  9
$PDSIZE
 40
0.0
  9
$PLINEWID
 40
0.0
  9
$SPLFRAME
 70
     0
  9
$SPLINETYPE
 70
     6
  9
$SPLINESEGS
 70
     8
  9
$HANDSEED
  5
444
  9
$SURFTAB1
 70
     6
  9
$SURFTAB2
 70
     6
  9
$SURFTYPE
 70
     6
  9
$SURFU
 70
     6
  9
$SURFV
 70
     6
  9
$UCSBASE
  2

  9
$UCSNAME
  2

  9
$UCSORG
 10
0.0
 20
0.0
 30
0.0
  9
$UCSXDIR
 10
1.0
 20
0.0
 30
0.0
  9
$UCSYDIR
 10
0.0
 20
1.0
 30
0.0
  9
$UCSORTHOREF
  2

  9
$UCSORTHOVIEW
 70
     0
  9
$UCSORGTOP
 10
0.0
 20
0.0
 30
0.0
  9
$UCSORGBOTTOM
 10
0.0
 20
0.0
 30
0.0
  9
$UCSORGLEFT
 10
0.0
 20
0.0
 30
0.0
  9
$UCSORGRIGHT
 10
0.0
 20
0.0
 30
0.0
  9
$UCSORGFRONT
 10
0.0
 20
0.0
 30
0.0
  9
$UCSORGBACK
 10
0.0
 20
0.0
 30
0.0
  9
$PUCSBASE
  2

  9
$PUCSNAME
  2

  9
$PUCSORG
 10
0.0
 20
0.0
 30
0.0
  9
$PUCSXDIR
 10
1.0
 20
0.0
 30
0.0
  9
$PUCSYDIR
 10
0.0
 20
1.0
 30
0.0
  9
$PUCSORTHOREF
  2

  9
$PUCSORTHOVIEW
 70
     0
  9
$PUCSORGTOP
 10
0.0
 20
0.0
 30
0.0
  9
$PUCSORGBOTTOM
 10
0.0
 20
0.0
 30
0.0
  9
$PUCSORGLEFT
 10
0.0
 20
0.0
 30
0.0
  9
$PUCSORGRIGHT
 10
0.0
 20
0.0
 30
0.0
  9
$PUCSORGFRONT
 10
0.0
 20
0.0
 30
0.0
  9
$PUCSORGBACK
 10
0.0
 20
0.0
 30
0.0
  9
$USERI1
 70
     0
  9
$USERI2
 70
     0
  9
$USERI3
 70
     0
  9
$USERI4
 70
     0
  9
$USERI5
 70
     0
  9
$USERR1
 40
0.0
  9
$USERR2
 40
0.0
  9
$USERR3
 40
0.0
  9
$USERR4
 40
0.0
  9
$USERR5
 40
0.0
  9
$WORLDVIEW
 70
     1
  9
$SHADEDGE
 70
     3
  9
$SHADEDIF
 70
    70
  9
$TILEMODE
 70
     1
  9
$MAXACTVP
 70
    64
  9
$PINSBASE
 10
0.0
 20
0.0
 30
0.0
  9
$PLIMCHECK
 70
     0
  9
$PEXTMIN
 10
1.000000000000000E+20
 20
1.000000000000000E+20
 30
1.000000000000000E+20
  9
$PEXTMAX
 10
-1.000000000000000E+20
 20
-1.000000000000000E+20
 30
-1.000000000000000E+20
  9
$PLIMMIN
 10
-592.0
 20
0.0
  9
$PLIMMAX
 10
0.0
 20
418.0
  9
$UNITMODE
 70
     0
  9
$VISRETAIN
 70
     1
  9
$PLINEGEN
 70
     0
  9
$PSLTSCALE
 70
     1
  9
$TREEDEPTH
 70
  3020
  9
$CMLSTYLE
  2
Standard
  9
$CMLJUST
 70
     0
  9
$CMLSCALE
 40
1.0
  9
$PROXYGRAPHICS
 70
     1
  9
$MEASUREMENT
 70
     0
  9
$CELWEIGHT
370
    -1
  9
$ENDCAPS
280
     0
  9
$JOINSTYLE
280
     0
  9
$LWDISPLAY
290
     0
  9
$INSUNITS
 70
     0
  9
$HYPERLINKBASE
  1

  9
$STYLESHEET
  1

  9
$XEDIT
290
     1
  9
$CEPSNTYPE
380
     0
  9
$PSTYLEMODE
290
     1
  9
$FINGERPRINTGUID
  2
{DC2C06E2-BD4B-4F5C-ACAD-F9FE58D1187B}
  9
$VERSIONGUID
  2
{DB100B50-C64A-46A1-877D-A6D8E019EDF9}
  9
$EXTNAMES
290
     1
  9
$PSVPSCALE
 40
0.0
  9
$OLESTARTUP
290
     0
  9
$SORTENTS
280
   127
  9
$INDEXCTL
280
     0
  9
$HIDETEXT
280
     0
  9
$XCLIPFRAME
290
     0
  9
$HALOGAP
280
     0
  9
$OBSCOLOR
 70
   257
  9
$OBSLTYPE
280
     0
  9
$INTERSECTIONDISPLAY
280
     0
  9
$INTERSECTIONCOLOR
 70
   257
  9
$DIMASSOC
280
     1
  9
$PROJECTNAME
  1

  0
ENDSEC
  0
SECTION
  2
CLASSES
  0
CLASS
  1
ACDBDICTIONARYWDFLT
  2
AcDbDictionaryWithDefault
  3
ObjectDBX Classes
 90
        0
 91
        1
280
     0
281
     0
  0
CLASS
  1
TABLESTYLE
  2
AcDbTableStyle
  3
ObjectDBX Classes
 90
     2047
 91
        1
280
     0
281
     0
  0
CLASS
  1
DICTIONARYVAR
  2
AcDbDictionaryVar
  3
ObjectDBX Classes
 90
        0
 91
        1
280
     0
281
     0
  0
ENDSEC
  0
SECTION
  2
TABLES
  0
TABLE
  2
VPORT
  5
8
330
0
100
AcDbSymbolTable
 70
     2
  0
VPORT
  5
443
330
8
100
AcDbSymbolTableRecord
100
AcDbViewportTableRecord
  2
*Active
 70
     0
 10
0.0
 20
0.0
 11
1.0
 21
1.0
 12
-296.0
 22
209.0
 13
0.0
 23
0.0
 14
1.0
 24
1.0
 15
0.0
 25
0.0
 16
0.0
 26
0.0
 36
1.0
 17
0.0
 27
0.0
 37
0.0
 40
421.3043478260869
 41
1.707124010554089
 42
50.0
 43
0.0
 44
0.0
 50
0.0
 51
0.0
 71
     0
 72
   100
 73
     1
 74
     1
 75
     0
 76
     0
 77
     0
 78
     0
281
     0
 65
     1
110
0.0
120
0.0
130
0.0
111
1.0
121
0.0
131
0.0
112
0.0
122
1.0
132
0.0
 79
     0
146
0.0
  0
ENDTAB
  0
TABLE
  2
LTYPE
  5
5
330
0
100
AcDbSymbolTable
 70
     6
  0
LTYPE
  5
13
330
5
100
AcDbSymbolTableRecord
100
AcDbLinetypeTableRecord
  2
ByBlock
 70
     0
  3

 72
    65
 73
     0
 40
0.0
  0
LTYPE
  5
14
330
5
100
AcDbSymbolTableRecord
100
AcDbLinetypeTableRecord
  2
ByLayer
 70
     0
  3

 72
    65
 73
     0
 40
0.0
  0
LTYPE
  5
15
330
5
100
AcDbSymbolTableRecord
100
AcDbLinetypeTableRecord
  2
CONTINUOUS
 70
     0
  3
Solid line
 72
    65
 73
     0
 40
0.0
  0
LTYPE
  5
26
330
5
100
AcDbSymbolTableRecord
100
AcDbLinetypeTableRecord
  2
DASHED
 70
     0
  3
__ __ __ __ __ __ __ __ __ __ __ __ __ __ __
 72
    65
 73
     2
 40
3.5
 49
2.0
 74
     0
 49
-1.5
 74
     0
  0
LTYPE
  5
27
330
5
100
AcDbSymbolTableRecord
100
AcDbLinetypeTableRecord
  2
CENTER
 70
     0
  3
____ _ ____ _ ____ _ ____ _ ____ _ ____ _ ____
 72
    65
 73
     4
 40
17.5
 49
13.0
 74
     0
 49
-1.5
 74
     0
 49
1.5
 74
     0
 49
-1.5
 74
     0
  0
LTYPE
  5
28
330
5
100
AcDbSymbolTableRecord
100
AcDbLinetypeTableRecord
  2
PHANTOM
 70
     0
  3
_____ _ _ _____ _ _ _____ _ _ _____ _ _ ____  
 72
    65
 73
     6
 40
15.5
 49
8.0
 74
     0
 49
-1.5
 74
     0
 49
1.5
 74
     0
 49
-1.5
 74
     0
 49
1.5
 74
     0
 49
-1.5
 74
     0
  0
LTYPE
  5
29
330
5
100
AcDbSymbolTableRecord
100
AcDbLinetypeTableRecord
  2
DOT
 70
     0
  3
. . . . . . . . . . . . . . . . . . . . . . . .
 72
    65
 73
     2
 40
0.25
 49
0.0
 74
     0
 49
-0.25
 74
     0
  0
LTYPE
  5
2A
330
5
100
AcDbSymbolTableRecord
100
AcDbLinetypeTableRecord
  2
HIDDEN
 70
     0
  3
__ __ __ __ __ __ __ __ __ __ __ __ __ __ __
 72
    65
 73
     2
 40
3.5
 49
2.0
 74
     0
 49
-1.5
 74
     0
  0
ENDTAB
  0
TABLE
  2
LAYER
  5
2
330
0
100
AcDbSymbolTable
 70
     2
  0
LAYER
  5
10
330
2
100
AcDbSymbolTableRecord
100
AcDbLayerTableRecord
  2
0
 70
     0
 62
     7
  6
CONTINUOUS
370
    -3
390
F
  0
LAYER
  5
2B
330
2
100
AcDbSymbolTableRecord
100
AcDbLayerTableRecord
  2
DEFPOINTS
 70
     0
 62
     7
  6
CONTINUOUS
290
     0
370
    -3
390
F
  0
ENDTAB
  0
TABLE
  2
STYLE
  5
3
330
0
100
AcDbSymbolTable
 70
     2
  0
STYLE
  5
11
330
3
100
AcDbSymbolTableRecord
100
AcDbTextStyleTableRecord
  2
STANDARD
 70
     0
 40
0.0
 41
1.0
 50
0.0
 71
     0
 42
0.2
  3

  4

1001
ACAD
1000
MS Gothic
1071
    32817
  0
ENDTAB
  0
TABLE
  2
VIEW
  5
6
330
0
100
AcDbSymbolTable
 70
     0
  0
ENDTAB
  0
TABLE
  2
UCS
  5
7
330
0
100
AcDbSymbolTable
 70
     0
  0
ENDTAB
  0
TABLE
  2
APPID
  5
9
330
0
100
AcDbSymbolTable
 70
     2
  0
APPID
  5
12
330
9
100
AcDbSymbolTableRecord
100
AcDbRegAppTableRecord
  2
ACAD
 70
     0
  0
APPID
  5
438
330
9
100
AcDbSymbolTableRecord
100
AcDbRegAppTableRecord
  2
ACAD_PSEXT
 70
     0
  0
ENDTAB
  0
TABLE
  2
DIMSTYLE
  5
A
330
0
100
AcDbSymbolTable
 70
     6
100
AcDbDimStyleTable
 71
     1
340
2C
  0
DIMSTYLE
105
2C
102
{ACAD_REACTORS
330
430
102
}
330
A
100
AcDbSymbolTableRecord
100
AcDbDimStyleTableRecord
  2
DIMSTYLE1
 70
     0
 41
1.0
 42
2.54
 44
2.54
 73
     0
 74
     0
 77
     1
140
3.0
145
1.0
147
1.5
172
     1
173
     1
279
     2
340
11
  0
DIMSTYLE
105
2D
102
{ACAD_REACTORS
330
431
102
}
330
A
100
AcDbSymbolTableRecord
100
AcDbDimStyleTableRecord
  2
DIMSTYLE2
 70
     0
 41
1.0
 42
2.54
 44
2.54
 73
     0
 74
     0
 77
     1
140
3.0
145
1.0
147
1.5
172
     1
173
     1
279
     2
340
11
  0
DIMSTYLE
105
2E
102
{ACAD_REACTORS
330
432
102
}
330
A
100
AcDbSymbolTableRecord
100
AcDbDimStyleTableRecord
  2
DIMSTYLE3
 70
     0
 41
1.0
 42
2.54
 44
2.54
 73
     0
 74
     0
 77
     1
140
3.0
145
1.0
147
1.5
172
     1
173
     1
279
     2
340
11
  0
DIMSTYLE
105
2F
102
{ACAD_REACTORS
330
433
102
}
330
A
100
AcDbSymbolTableRecord
100
AcDbDimStyleTableRecord
  2
DIMSTYLE4
 70
     0
 41
1.0
 42
2.54
 44
2.54
 73
     0
 74
     0
 77
     1
140
3.0
145
1.0
147
1.5
172
     1
173
     1
279
     2
340
11
  0
DIMSTYLE
105
30
102
{ACAD_REACTORS
330
434
102
}
330
A
100
AcDbSymbolTableRecord
100
AcDbDimStyleTableRecord
  2
DIMSTYLE5
 70
     0
 41
1.0
 42
2.54
 44
2.54
 73
     0
 74
     0
 77
     1
140
3.0
145
1.0
147
1.5
172
     1
173
     1
279
     2
340
11
  0
ENDTAB
  0
TABLE
  2
BLOCK_RECORD
  5
1
330
0
100
AcDbSymbolTable
 70
     8
  0
BLOCK_RECORD
  5
22
330
1
100
AcDbSymbolTableRecord
100
AcDbBlockTableRecord
  2
*Model_Space
340
25
  0
BLOCK_RECORD
  5
1E
330
1
100
AcDbSymbolTableRecord
100
AcDbBlockTableRecord
  2
*Paper_Space
340
21
  0
BLOCK_RECORD
  5
34
330
1
100
AcDbSymbolTableRecord
100
AcDbBlockTableRecord
  2
_OPEN30
340
0
102
{BLKREFS
331
3D
331
3E
331
49
331
4A
331
55
331
56
331
61
331
62
331
6D
331
6E
102
}
  0
BLOCK_RECORD
  5
3A
330
1
100
AcDbSymbolTableRecord
100
AcDbBlockTableRecord
  2
*D1
340
0
  0
BLOCK_RECORD
  5
46
330
1
100
AcDbSymbolTableRecord
100
AcDbBlockTableRecord
  2
*D2
340
0
  0
BLOCK_RECORD
  5
52
330
1
100
AcDbSymbolTableRecord
100
AcDbBlockTableRecord
  2
*D3
340
0
  0
BLOCK_RECORD
  5
5E
330
1
100
AcDbSymbolTableRecord
100
AcDbBlockTableRecord
  2
*D4
340
0
  0
BLOCK_RECORD
  5
6A
330
1
100
AcDbSymbolTableRecord
100
AcDbBlockTableRecord
  2
*D5
340
0
  0
BLOCK_RECORD
  5
76
330
1
100
AcDbSymbolTableRecord
100
AcDbBlockTableRecord
  2
KOZU0001
340
0
102
{BLKREFS
331
435
102
}
  0
ENDTAB
  0
ENDSEC
  0
SECTION
  2
BLOCKS
  0
BLOCK
  5
23
330
22
100
AcDbEntity
  8
0
100
AcDbBlockBegin
  2
*Model_Space
 70
     0
 10
0.0
 20
0.0
 30
0.0
  3
*Model_Space
  1

  0
ENDBLK
  5
24
330
22
100
AcDbEntity
  8
0
100
AcDbBlockEnd
  0
BLOCK
  5
1F
330
1E
100
AcDbEntity
 67
     1
  8
0
100
AcDbBlockBegin
  2
*Paper_Space
 70
     0
 10
0.0
 20
0.0
 30
0.0
  3
*Paper_Space
  1

  0
ENDBLK
  5
20
330
1E
100
AcDbEntity
 67
     1
  8
0
100
AcDbBlockEnd
  0
BLOCK
  5
35
330
34
100
AcDbEntity
  8
0
100
AcDbBlockBegin
  2
_OPEN30
 70
     0
 10
0.0
 20
0.0
 30
0.0
  3
_OPEN30
  1

  0
LINE
  5
36
330
34
100
AcDbEntity
  8
0
  6
ByBlock
 62
     0
100
AcDbLine
 10
0.0
 20
0.0
 30
0.0
 11
-2.999999999999993
 21
-1.000000000000017
 31
0.0
  0
LINE
  5
37
330
34
100
AcDbEntity
  8
0
  6
ByBlock
 62
     0
100
AcDbLine
 10
0.0
 20
0.0
 30
0.0
 11
-3.000000000000006
 21
0.9999999999999815
 31
0.0
  0
LINE
  5
38
330
34
100
AcDbEntity
  8
0
  6
ByBlock
 62
     0
100
AcDbLine
 10
0.0
 20
0.0
 30
0.0
 11
-3.0
 21
0.0
 31
0.0
  0
ENDBLK
  5
39
330
34
100
AcDbEntity
  8
0
100
AcDbBlockEnd
  0
BLOCK
  5
3B
330
3A
100
AcDbEntity
  8
0
100
AcDbBlockBegin
  2
*D1
 70
     1
 10
0.0
 20
0.0
 30
0.0
  3
*D1
  1

  0
LINE
  5
3C
330
3A
100
AcDbEntity
  8
0
  6
Continuous
 62
     7
100
AcDbLine
 10
-190.1522064208984
 20
154.7651062011719
 30
0.0
 11
-190.1522064208984
 21
369.7651062011719
 31
0.0
  0
INSERT
  5
3D
330
3A
100
AcDbEntity
  8
0
  6
Continuous
 62
     7
100
AcDbBlockReference
  2
_OPEN30
 10
-190.1522064208984
 20
151.7651062011719
 30
0.0
 50
270.0000000000005
  0
INSERT
  5
3E
330
3A
100
AcDbEntity
  8
0
  6
Continuous
 62
     7
100
AcDbBlockReference
  2
_OPEN30
 10
-190.1522064208984
 20
372.7651062011719
 30
0.0
 50
90.00000000000019
  0
LINE
  5
3F
330
3A
100
AcDbEntity
  8
0
  6
Continuous
 62
     7
100
AcDbLine
 10
-223.8078088378906
 20
151.7651062011719
 30
0.0
 11
-187.8661956787109
 21
151.7651062011719
 31
0.0
  0
LINE
  5
40
330
3A
100
AcDbEntity
  8
0
  6
Continuous
 62
     7
100
AcDbLine
 10
-223.8078088378906
 20
372.7651062011719
 30
0.0
 11
-187.8661956787109
 21
372.7651062011719
 31
0.0
  0
TEXT
  5
41
330
3A
100
AcDbEntity
  8
0
  6
Continuous
 62
     7
100
AcDbText
 10
-190.9022062429931
 20
258.195105996727
 30
0.0
 40
3.0
  1
221
 50
90.00000250447815
 41
1.110000014305114
100
AcDbText
  0
POINT
  5
42
330
3A
100
AcDbEntity
  8
DEFPOINTS
  6
Continuous
 62
     7
100
AcDbPoint
 10
-226.3478088378906
 20
151.7651062011719
 30
0.0
  0
POINT
  5
43
330
3A
100
AcDbEntity
  8
DEFPOINTS
  6
Continuous
 62
     7
100
AcDbPoint
 10
-226.3478088378906
 20
372.7651062011719
 30
0.0
  0
POINT
  5
44
330
3A
100
AcDbEntity
  8
DEFPOINTS
  6
Continuous
 62
     7
100
AcDbPoint
 10
-190.1522064208984
 20
372.7651062011719
 30
0.0
  0
ENDBLK
  5
45
330
3A
100
AcDbEntity
  8
0
100
AcDbBlockEnd
  0
BLOCK
  5
47
330
46
100
AcDbEntity
  8
0
100
AcDbBlockBegin
  2
*D2
 70
     1
 10
0.0
 20
0.0
 30
0.0
  3
*D2
  1

  0
LINE
  5
48
330
46
100
AcDbEntity
  8
0
  6
Continuous
 62
     7
100
AcDbLine
 10
-205.4118041992188
 20
25.67320823669434
 30
0.0
 11
-205.4118041992186
 21
114.673210144043
 31
0.0
  0
INSERT
  5
49
330
46
100
AcDbEntity
  8
0
  6
Continuous
 62
     7
100
AcDbBlockReference
  2
_OPEN30
 10
-205.4118041992188
 20
22.67320823669434
 30
0.0
 50
270.0000000000005
  0
INSERT
  5
4A
330
46
100
AcDbEntity
  8
0
  6
Continuous
 62
     7
100
AcDbBlockReference
  2
_OPEN30
 10
-205.4118041992188
 20
117.673210144043
 30
0.0
 50
90.00000000000019
  0
LINE
  5
4B
330
46
100
AcDbEntity
  8
0
  6
Continuous
 62
     7
100
AcDbLine
 10
-306.8078088378906
 20
22.67320823669434
 30
0.0
 11
-203.1257934570313
 21
22.67320823669434
 31
0.0
  0
LINE
  5
4C
330
46
100
AcDbEntity
  8
0
  6
Continuous
 62
     7
100
AcDbLine
 10
-209.3078088378906
 20
117.673210144043
 30
0.0
 11
-203.1257934570313
 21
117.673210144043
 31
0.0
  0
TEXT
  5
4D
330
46
100
AcDbEntity
  8
0
  6
Continuous
 62
     7
100
AcDbText
 10
-206.1618040868805
 20
67.60320999920269
 30
0.0
 40
3.0
  1
95
 50
90.00000250447815
 41
1.028000020980834
100
AcDbText
  0
POINT
  5
4E
330
46
100
AcDbEntity
  8
DEFPOINTS
  6
Continuous
 62
     7
100
AcDbPoint
 10
-309.3478088378906
 20
22.67320823669434
 30
0.0
  0
POINT
  5
4F
330
46
100
AcDbEntity
  8
DEFPOINTS
  6
Continuous
 62
     7
100
AcDbPoint
 10
-211.8478088378906
 20
117.673210144043
 30
0.0
  0
POINT
  5
50
330
46
100
AcDbEntity
  8
DEFPOINTS
  6
Continuous
 62
     7
100
AcDbPoint
 10
-205.4118041992188
 20
117.673210144043
 30
0.0
  0
ENDBLK
  5
51
330
46
100
AcDbEntity
  8
0
100
AcDbBlockEnd
  0
BLOCK
  5
53
330
52
100
AcDbEntity
  8
0
100
AcDbBlockBegin
  2
*D3
 70
     1
 10
0.0
 20
0.0
 30
0.0
  3
*D3
  1

  0
LINE
  5
54
330
52
100
AcDbEntity
  8
0
  6
Continuous
 62
     7
100
AcDbLine
 10
-457.8478088378906
 20
402.1207275390625
 30
0.0
 11
-213.8478088378906
 21
402.1207275390625
 31
0.0
  0
INSERT
  5
55
330
52
100
AcDbEntity
  8
0
  6
Continuous
 62
     7
100
AcDbBlockReference
  2
_OPEN30
 10
-460.8478088378906
 20
402.1207275390625
 30
0.0
 50
180.0000000000004
  0
INSERT
  5
56
330
52
100
AcDbEntity
  8
0
  6
Continuous
 62
     7
100
AcDbBlockReference
  2
_OPEN30
 10
-210.8478088378906
 20
402.1207275390625
 30
0.0
  0
LINE
  5
57
330
52
100
AcDbEntity
  8
0
  6
Continuous
 62
     7
100
AcDbLine
 10
-460.8478088378906
 20
384.8051062011719
 30
0.0
 11
-460.8478088378906
 21
404.40673828125
 31
0.0
  0
LINE
  5
58
330
52
100
AcDbEntity
  8
0
  6
Continuous
 62
     7
100
AcDbLine
 10
-210.8478088378906
 20
384.8051062011719
 30
0.0
 11
-210.8478088378906
 21
404.40673828125
 31
0.0
  0
TEXT
  5
59
330
52
100
AcDbEntity
  8
0
  6
Continuous
 62
     7
100
AcDbText
 10
-339.917809009552
 20
402.8707275390624
 30
0.0
 40
3.0
  1
250
 41
1.061739144117935
100
AcDbText
  0
POINT
  5
5A
330
52
100
AcDbEntity
  8
DEFPOINTS
  6
Continuous
 62
     7
100
AcDbPoint
 10
-460.8478088378906
 20
382.2651062011719
 30
0.0
  0
POINT
  5
5B
330
52
100
AcDbEntity
  8
DEFPOINTS
  6
Continuous
 62
     7
100
AcDbPoint
 10
-210.8478088378906
 20
382.2651062011719
 30
0.0
  0
POINT
  5
5C
330
52
100
AcDbEntity
  8
DEFPOINTS
  6
Continuous
 62
     7
100
AcDbPoint
 10
-210.8478088378906
 20
402.1207275390625
 30
0.0
  0
ENDBLK
  5
5D
330
52
100
AcDbEntity
  8
0
100
AcDbBlockEnd
  0
BLOCK
  5
5F
330
5E
100
AcDbEntity
  8
0
100
AcDbBlockBegin
  2
*D4
 70
     1
 10
0.0
 20
0.0
 30
0.0
  3
*D4
  1

  0
LINE
  5
60
330
5E
100
AcDbEntity
  8
0
  6
Continuous
 62
     7
100
AcDbLine
 10
-176.7643127441406
 20
140.2651062011719
 30
0.0
 11
-176.7643127441406
 21
384.2651062011719
 31
0.0
  0
INSERT
  5
61
330
5E
100
AcDbEntity
  8
0
  6
Continuous
 62
     7
100
AcDbBlockReference
  2
_OPEN30
 10
-176.7643127441406
 20
137.2651062011719
 30
0.0
 50
270.0000000000005
  0
INSERT
  5
62
330
5E
100
AcDbEntity
  8
0
  6
Continuous
 62
     7
100
AcDbBlockReference
  2
_OPEN30
 10
-176.7643127441406
 20
387.2651062011719
 30
0.0
 50
90.00000000000019
  0
LINE
  5
63
330
5E
100
AcDbEntity
  8
0
  6
Continuous
 62
     7
100
AcDbLine
 10
-213.3078088378906
 20
137.2651062011719
 30
0.0
 11
-174.4783020019531
 21
137.2651062011719
 31
0.0
  0
LINE
  5
64
330
5E
100
AcDbEntity
  8
0
  6
Continuous
 62
     7
100
AcDbLine
 10
-213.3078088378906
 20
387.2651062011719
 30
0.0
 11
-174.4783020019531
 21
387.2651062011719
 31
0.0
  0
TEXT
  5
65
330
5E
100
AcDbEntity
  8
0
  6
Continuous
 62
     7
100
AcDbText
 10
-177.5143125662353
 20
258.195105996727
 30
0.0
 40
3.0
  1
250
 50
90.00000250447815
 41
1.061739144117935
100
AcDbText
  0
POINT
  5
66
330
5E
100
AcDbEntity
  8
DEFPOINTS
  6
Continuous
 62
     7
100
AcDbPoint
 10
-215.8478088378906
 20
137.2651062011719
 30
0.0
  0
POINT
  5
67
330
5E
100
AcDbEntity
  8
DEFPOINTS
  6
Continuous
 62
     7
100
AcDbPoint
 10
-215.8478088378906
 20
387.2651062011719
 30
0.0
  0
POINT
  5
68
330
5E
100
AcDbEntity
  8
DEFPOINTS
  6
Continuous
 62
     7
100
AcDbPoint
 10
-176.7643127441406
 20
387.2651062011719
 30
0.0
  0
ENDBLK
  5
69
330
5E
100
AcDbEntity
  8
0
100
AcDbBlockEnd
  0
BLOCK
  5
6B
330
6A
100
AcDbEntity
  8
0
100
AcDbBlockBegin
  2
*D5
 70
     1
 10
0.0
 20
0.0
 30
0.0
  3
*D5
  1

  0
LINE
  5
6C
330
6A
100
AcDbEntity
  8
0
  6
Continuous
 62
     7
100
AcDbLine
 10
-443.3478088378906
 20
395.8909606933594
 30
0.0
 11
-228.3478088378906
 21
395.8909606933594
 31
0.0
  0
INSERT
  5
6D
330
6A
100
AcDbEntity
  8
0
  6
Continuous
 62
     7
100
AcDbBlockReference
  2
_OPEN30
 10
-446.3478088378906
 20
395.8909606933594
 30
0.0
 50
180.0000000000004
  0
INSERT
  5
6E
330
6A
100
AcDbEntity
  8
0
  6
Continuous
 62
     7
100
AcDbBlockReference
  2
_OPEN30
 10
-225.3478088378906
 20
395.8909606933594
 30
0.0
  0
LINE
  5
6F
330
6A
100
AcDbEntity
  8
0
  6
Continuous
 62
     7
100
AcDbLine
 10
-446.3478088378906
 20
374.3051062011719
 30
0.0
 11
-446.3478088378906
 21
398.1769409179688
 31
0.0
  0
LINE
  5
70
330
6A
100
AcDbEntity
  8
0
  6
Continuous
 62
     7
100
AcDbLine
 10
-225.3478088378906
 20
374.3051062011719
 30
0.0
 11
-225.3478088378906
 21
398.1769409179688
 31
0.0
  0
TEXT
  5
71
330
6A
100
AcDbEntity
  8
0
  6
Continuous
 62
     7
100
AcDbText
 10
-339.917809009552
 20
396.6409606933594
 30
0.0
 40
3.0
  1
221
 41
1.110000014305114
100
AcDbText
  0
POINT
  5
72
330
6A
100
AcDbEntity
  8
DEFPOINTS
  6
Continuous
 62
     7
100
AcDbPoint
 10
-446.3478088378906
 20
371.7651062011719
 30
0.0
  0
POINT
  5
73
330
6A
100
AcDbEntity
  8
DEFPOINTS
  6
Continuous
 62
     7
100
AcDbPoint
 10
-225.3478088378906
 20
371.7651062011719
 30
0.0
  0
POINT
  5
74
330
6A
100
AcDbEntity
  8
DEFPOINTS
  6
Continuous
 62
     7
100
AcDbPoint
 10
-225.3478088378906
 20
395.8909606933594
 30
0.0
  0
ENDBLK
  5
75
330
6A
100
AcDbEntity
  8
0
100
AcDbBlockEnd
  0
BLOCK
  5
77
330
76
100
AcDbEntity
  8
0
100
AcDbBlockBegin
  2
KOZU0001
 70
     0
 10
0.0
 20
0.0
 30
0.0
  3
KOZU0001
  1

  0
LINE
  5
78
330
76
100
AcDbEntity
  8
0
  6
Continuous
 62
     7
100
AcDbLine
 10
0.0
 20
0.0
 30
0.0
 11
-7.1197509765625
 21
-22.12109661102295
 31
0.0
  0
LINE
  5
79
330
76
100
AcDbEntity
  8
0
  6
Continuous
 62
     7
100
AcDbLine
 10
-7.1197509765625
 20
-22.12109661102295
 30
0.0
 11
-47.63601684570313
 21
-22.12109661102295
 31
0.0
  0
LINE
  5
7A
330
76
100
AcDbEntity
  8
0
  6
Continuous
 62
     7
100
AcDbLine
 10
0.0
 20
0.0
 30
0.0
 11
0.0327835070609786
 21
-3.162107721388502
 31
0.0
  0
LINE
  5
7B
330
76
100
AcDbEntity
  8
0
  6
Continuous
 62
     7
100
AcDbLine
 10
0.0
 20
0.0
 30
0.0
 11
-1.871037827184317
 21
-2.549356281347389
 31
0.0
  0
TEXT
  5
7C
330
76
100
AcDbEntity
  8
0
  6
Continuous
 62
     7
100
AcDbText
 10
-45.91601693630218
 20
-21.37109661102295
 30
0.0
 40
3.0
  1
配管接続口
 41
0.8487395020950888
100
AcDbText
  0
TEXT
  5
7D
330
76
100
AcDbEntity
  8
0
  6
Continuous
 62
     7
100
AcDbText
 10
-45.91601693630218
 20
-26.63609661102295
 30
0.0
 40
3.0
  1
Ｒｃ１　１／２（４０Ａ）
 41
0.8436974815103043
100
AcDbText
  0
ENDBLK
  5
7E
330
76
100
AcDbEntity
  8
0
100
AcDbBlockEnd
  0
ENDSEC
  0
SECTION
  2
ENTITIES
  0
LINE
  5
7F
330
22
100
AcDbEntity
  8
0
  6
Continuous
 62
     7
100
AcDbLine
 10
-333.630126953125
 20
156.4783782958984
 30
0.0
 11
-333.3583679199219
 21
156.7501373291016
 31
0.0
  0
LINE
  5
80
330
22
100
AcDbEntity
  8
0
  6
Continuous
 62
     7
100
AcDbLine
 10
-338.35205078125
 20
156.7353515625
 30
0.0
 11
-338.080078125
 21
156.4633941650391
 31
0.0
  0
LINE
  5
81
330
22
100
AcDbEntity
  8
0
  6
Continuous
 62
     7
100
AcDbLine
 10
-338.35205078125
 20
156.7353515625
 30
0.0
 11
-338.6239929199219
 21
157.00732421875
 31
0.0
  0
LINE
  5
82
330
22
100
AcDbEntity
  8
0
  6
Continuous
 62
     7
100
AcDbLine
 10
-338.35205078125
 20
156.7353515625
 30
0.0
 11
-338.6239929199219
 21
157.00732421875
 31
0.0
  0
LINE
  5
83
330
22
100
AcDbEntity
  8
0
  6
Continuous
 62
     7
100
AcDbLine
 10
-338.35205078125
 20
156.7353515625
 30
0.0
 11
-338.080078125
 21
156.4633941650391
 31
0.0
  0
LINE
  5
84
330
22
100
AcDbEntity
  8
0
  6
Continuous
 62
     7
100
AcDbLine
 10
-357.8478088378906
 20
196.7651062011719
 30
0.0
 11
-357.8478088378906
 21
219.7651062011719
 31
0.0
  0
LINE
  5
85
330
22
100
AcDbEntity
  8
0
  6
Continuous
 62
     7
100
AcDbLine
 10
-362.8478088378906
 20
162.7651062011719
 30
0.0
 11
-362.8478088378906
 21
202.7651062011719
 31
0.0
  0
LINE
  5
86
330
22
100
AcDbEntity
  8
0
  6
Continuous
 62
     7
100
AcDbLine
 10
-357.8478088378906
 20
162.7651062011719
 30
0.0
 11
-357.8478088378906
 21
185.7651062011719
 31
0.0
  0
LINE
  5
87
330
22
100
AcDbEntity
  8
0
  6
Continuous
 62
     7
100
AcDbLine
 10
-323.8478088378906
 20
168.7651062011719
 30
0.0
 11
-323.8478088378906
 21
202.7651062011719
 31
0.0
  0
LINE
  5
88
330
22
100
AcDbEntity
  8
0
  6
Continuous
 62
     7
100
AcDbLine
 10
-323.8478088378906
 20
213.7651062011719
 30
0.0
 11
-323.8478088378906
 21
253.7651062011719
 31
0.0
  0
LINE
  5
89
330
22
100
AcDbEntity
  8
0
  6
Continuous
 62
     7
100
AcDbLine
 10
-328.8478088378906
 20
168.7651062011719
 30
0.0
 11
-328.8478088378906
 21
202.7651062011719
 31
0.0
  0
LINE
  5
8A
330
22
100
AcDbEntity
  8
0
  6
Continuous
 62
     7
100
AcDbLine
 10
-328.8478088378906
 20
213.7651062011719
 30
0.0
 11
-328.8478088378906
 21
253.7651062011719
 31
0.0
  0
LINE
  5
8B
330
22
100
AcDbEntity
  8
0
  6
Continuous
 62
     7
100
AcDbLine
 10
-333.0866088867188
 20
157.0219116210938
 30
0.0
 11
-333.3583679199219
 21
156.7501373291016
 31
0.0
  0
LINE
  5
8C
330
22
100
AcDbEntity
  8
0
  6
Continuous
 62
     7
100
AcDbLine
 10
-338.0654907226563
 20
162.0007781982422
 30
0.0
 11
-335.8478088378906
 21
160.3208312988281
 31
0.0
  0
LINE
  5
8D
330
22
100
AcDbEntity
  8
0
  6
Continuous
 62
     7
100
AcDbLine
 10
-333.3435974121094
 20
161.7438049316406
 30
0.0
 11
-333.6155395507813
 21
162.0157775878906
 31
0.0
  0
LINE
  5
8E
330
22
100
AcDbEntity
  8
0
  6
Continuous
 62
     7
100
AcDbLine
 10
-338.6239929199219
 20
157.00732421875
 30
0.0
 11
-336.9290771484375
 21
159.2395782470703
 31
0.0
  0
LINE
  5
8F
330
22
100
AcDbEntity
  8
0
  6
Continuous
 62
     7
100
AcDbLine
 10
-338.6090087890625
 20
161.4572601318359
 30
0.0
 11
-336.9290771484375
 21
159.2395782470703
 31
0.0
  0
LINE
  5
90
330
22
100
AcDbEntity
  8
0
  6
Continuous
 62
     7
100
AcDbLine
 10
-333.630126953125
 20
156.4783782958984
 30
0.0
 11
-335.8478088378906
 21
158.1583251953125
 31
0.0
  0
LINE
  5
91
330
22
100
AcDbEntity
  8
0
  6
Continuous
 62
     7
100
AcDbLine
 10
-338.080078125
 20
156.4633941650391
 30
0.0
 11
-335.8478088378906
 21
158.1583251953125
 31
0.0
  0
LINE
  5
92
330
22
100
AcDbEntity
  8
0
  6
Continuous
 62
     7
100
AcDbLine
 10
-333.630126953125
 20
156.4783782958984
 30
0.0
 11
-333.3583679199219
 21
156.7501373291016
 31
0.0
  0
LINE
  5
93
330
22
100
AcDbEntity
  8
0
  6
Continuous
 62
     7
100
AcDbLine
 10
-333.0716247558594
 20
161.4718475341797
 30
0.0
 11
-334.7665710449219
 21
159.2395782470703
 31
0.0
  0
LINE
  5
94
330
22
100
AcDbEntity
  8
0
  6
Continuous
 62
     7
100
AcDbLine
 10
-333.3435974121094
 20
161.7438049316406
 30
0.0
 11
-333.0716247558594
 21
161.4718475341797
 31
0.0
  0
LINE
  5
95
330
22
100
AcDbEntity
  8
0
  6
Continuous
 62
     7
100
AcDbLine
 10
-333.0716247558594
 20
161.4718475341797
 30
0.0
 11
-334.7665710449219
 21
159.2395782470703
 31
0.0
  0
LINE
  5
96
330
22
100
AcDbEntity
  8
0
  6
Continuous
 62
     7
100
AcDbLine
 10
-333.3435974121094
 20
161.7438049316406
 30
0.0
 11
-333.6155395507813
 21
162.0157775878906
 31
0.0
  0
LINE
  5
97
330
22
100
AcDbEntity
  8
0
  6
Continuous
 62
     7
100
AcDbLine
 10
-338.0654907226563
 20
162.0007781982422
 30
0.0
 11
-335.8478088378906
 21
160.3208312988281
 31
0.0
  0
LINE
  5
98
330
22
100
AcDbEntity
  8
0
  6
Continuous
 62
     7
100
AcDbLine
 10
-436.0716247558594
 20
367.5228881835938
 30
0.0
 11
-437.7665710449218
 21
365.2906188964844
 31
0.0
  0
LINE
  5
99
330
22
100
AcDbEntity
  8
0
  6
Continuous
 62
     7
100
AcDbLine
 10
-436.3435974121093
 20
367.7948608398438
 30
0.0
 11
-436.0716247558594
 21
367.5228881835938
 31
0.0
  0
LINE
  5
9A
330
22
100
AcDbEntity
  8
0
  6
Continuous
 62
     7
100
AcDbLine
 10
-436.0716247558594
 20
367.5228881835938
 30
0.0
 11
-437.7665710449218
 21
365.2906188964844
 31
0.0
  0
LINE
  5
9B
330
22
100
AcDbEntity
  8
0
  6
Continuous
 62
     7
100
AcDbLine
 10
-436.6301269531249
 20
362.5294494628906
 30
0.0
 11
-436.3583679199218
 21
362.8012084960938
 31
0.0
  0
LINE
  5
9C
330
22
100
AcDbEntity
  8
0
  6
Continuous
 62
     7
100
AcDbLine
 10
-441.0800781249999
 20
362.5144348144531
 30
0.0
 11
-438.8478088378906
 21
364.2093811035156
 31
0.0
  0
LINE
  5
9D
330
22
100
AcDbEntity
  8
0
  6
Continuous
 62
     7
100
AcDbLine
 10
-436.6301269531249
 20
362.5294494628906
 30
0.0
 11
-438.8478088378906
 21
364.2093811035156
 31
0.0
  0
LINE
  5
9E
330
22
100
AcDbEntity
  8
0
  6
Continuous
 62
     7
100
AcDbLine
 10
-441.6090087890625
 20
367.50830078125
 30
0.0
 11
-439.9290771484374
 21
365.2906188964844
 31
0.0
  0
LINE
  5
9F
330
22
100
AcDbEntity
  8
0
  6
Continuous
 62
     7
100
AcDbLine
 10
-441.6239929199218
 20
363.0583801269531
 30
0.0
 11
-439.9290771484374
 21
365.2906188964844
 31
0.0
  0
LINE
  5
A0
330
22
100
AcDbEntity
  8
0
  6
Continuous
 62
     7
100
AcDbLine
 10
-441.3520507812499
 20
362.7864074707031
 30
0.0
 11
-441.0800781249999
 21
362.5144348144531
 31
0.0
  0
LINE
  5
A1
330
22
100
AcDbEntity
  8
0
  6
Continuous
 62
     7
100
AcDbLine
 10
-441.3520507812499
 20
362.7864074707031
 30
0.0
 11
-441.6239929199218
 21
363.0583801269531
 31
0.0
  0
LINE
  5
A2
330
22
100
AcDbEntity
  8
0
  6
Continuous
 62
     7
100
AcDbLine
 10
-441.3520507812499
 20
362.7864074707031
 30
0.0
 11
-441.6239929199218
 21
363.0583801269531
 31
0.0
  0
LINE
  5
A3
330
22
100
AcDbEntity
  8
0
  6
Continuous
 62
     7
100
AcDbLine
 10
-441.3520507812499
 20
362.7864074707031
 30
0.0
 11
-441.0800781249999
 21
362.5144348144531
 31
0.0
  0
LINE
  5
A4
330
22
100
AcDbEntity
  8
0
  6
Continuous
 62
     7
100
AcDbLine
 10
-436.6301269531249
 20
362.5294494628906
 30
0.0
 11
-436.3583679199218
 21
362.8012084960938
 31
0.0
  0
LINE
  5
A5
330
22
100
AcDbEntity
  8
0
  6
Continuous
 62
     7
100
AcDbLine
 10
-436.0866088867187
 20
363.0729675292969
 30
0.0
 11
-436.3583679199218
 21
362.8012084960938
 31
0.0
  0
LINE
  5
A6
330
22
100
AcDbEntity
  8
0
  6
Continuous
 62
     7
100
AcDbLine
 10
-436.0866088867187
 20
363.0729675292969
 30
0.0
 11
-437.7665710449218
 21
365.2906188964844
 31
0.0
  0
LINE
  5
A7
330
22
100
AcDbEntity
  8
0
  6
Continuous
 62
     7
100
AcDbLine
 10
-436.6155395507813
 20
368.0668334960938
 30
0.0
 11
-438.8478088378906
 21
366.3718872070313
 31
0.0
  0
LINE
  5
A8
330
22
100
AcDbEntity
  8
0
  6
Continuous
 62
     7
100
AcDbLine
 10
-412.8478088378906
 20
361.7651062011719
 30
0.0
 11
-412.8478088378906
 21
338.7651062011719
 31
0.0
  0
LINE
  5
A9
330
22
100
AcDbEntity
  8
0
  6
Continuous
 62
     7
100
AcDbLine
 10
-407.8478088378906
 20
361.7651062011719
 30
0.0
 11
-407.8478088378906
 21
321.7651062011719
 31
0.0
  0
LINE
  5
AA
330
22
100
AcDbEntity
  8
0
  6
Continuous
 62
     7
100
AcDbLine
 10
-412.8478088378906
 20
327.7651062011719
 30
0.0
 11
-412.8478088378906
 21
304.7651062011719
 31
0.0
  0
LINE
  5
AB
330
22
100
AcDbEntity
  8
0
  6
Continuous
 62
     7
100
AcDbLine
 10
-441.0654907226563
 20
368.0518188476563
 30
0.0
 11
-438.8478088378906
 21
366.3718872070313
 31
0.0
  0
LINE
  5
AC
330
22
100
AcDbEntity
  8
0
  6
Continuous
 62
     7
100
AcDbLine
 10
-436.0866088867187
 20
363.0729675292969
 30
0.0
 11
-436.3583679199218
 21
362.8012084960938
 31
0.0
  0
LINE
  5
AD
330
22
100
AcDbEntity
  8
0
  6
Continuous
 62
     7
100
AcDbLine
 10
-441.6239929199218
 20
363.0583801269531
 30
0.0
 11
-439.9290771484374
 21
365.2906188964844
 31
0.0
  0
LINE
  5
AE
330
22
100
AcDbEntity
  8
0
  6
Continuous
 62
     7
100
AcDbLine
 10
-441.0654907226563
 20
368.0518188476563
 30
0.0
 11
-441.3372497558594
 21
367.7800598144531
 31
0.0
  0
LINE
  5
AF
330
22
100
AcDbEntity
  8
0
  6
Continuous
 62
     7
100
AcDbLine
 10
-441.0800781249999
 20
362.5144348144531
 30
0.0
 11
-438.8478088378906
 21
364.2093811035156
 31
0.0
  0
LINE
  5
B0
330
22
100
AcDbEntity
  8
0
  6
Continuous
 62
     7
100
AcDbLine
 10
-436.6155395507813
 20
368.0668334960938
 30
0.0
 11
-438.8478088378906
 21
366.3718872070313
 31
0.0
  0
LINE
  5
B1
330
22
100
AcDbEntity
  8
0
  6
Continuous
 62
     7
100
AcDbLine
 10
-436.3435974121093
 20
367.7948608398438
 30
0.0
 11
-436.0716247558594
 21
367.5228881835938
 31
0.0
  0
LINE
  5
B2
330
22
100
AcDbEntity
  8
0
  6
Continuous
 62
     7
100
AcDbLine
 10
-436.0866088867187
 20
363.0729675292969
 30
0.0
 11
-437.7665710449218
 21
365.2906188964844
 31
0.0
  0
LINE
  5
B3
330
22
100
AcDbEntity
  8
0
  6
Continuous
 62
     7
100
AcDbLine
 10
-436.6301269531249
 20
362.5294494628906
 30
0.0
 11
-438.8478088378906
 21
364.2093811035156
 31
0.0
  0
LINE
  5
B4
330
22
100
AcDbEntity
  8
0
  6
Continuous
 62
     7
100
AcDbLine
 10
-441.6090087890625
 20
367.50830078125
 30
0.0
 11
-441.3372497558594
 21
367.7800598144531
 31
0.0
  0
LINE
  5
B5
330
22
100
AcDbEntity
  8
0
  6
Continuous
 62
     7
100
AcDbLine
 10
-441.0654907226563
 20
368.0518188476563
 30
0.0
 11
-441.3372497558594
 21
367.7800598144531
 31
0.0
  0
LINE
  5
B6
330
22
100
AcDbEntity
  8
0
  6
Continuous
 62
     7
100
AcDbLine
 10
-441.6090087890625
 20
367.50830078125
 30
0.0
 11
-441.3372497558594
 21
367.7800598144531
 31
0.0
  0
LINE
  5
B7
330
22
100
AcDbEntity
  8
0
  6
Continuous
 62
     7
100
AcDbLine
 10
-441.6090087890625
 20
367.50830078125
 30
0.0
 11
-439.9290771484374
 21
365.2906188964844
 31
0.0
  0
LINE
  5
B8
330
22
100
AcDbEntity
  8
0
  6
Continuous
 62
     7
100
AcDbLine
 10
-441.0654907226563
 20
368.0518188476563
 30
0.0
 11
-438.8478088378906
 21
366.3718872070313
 31
0.0
  0
LINE
  5
B9
330
22
100
AcDbEntity
  8
0
  6
Continuous
 62
     7
100
AcDbLine
 10
-436.3435974121093
 20
367.7948608398438
 30
0.0
 11
-436.6155395507813
 21
368.0668334960938
 31
0.0
  0
LINE
  5
BA
330
22
100
AcDbEntity
  8
0
  6
DASHED
 62
     7
100
AcDbLine
 10
-438.8478088378906
 20
360.2651062011719
 30
0.0
 11
-440.3478088378906
 21
360.2651062011719
 31
0.0
  0
LINE
  5
BB
330
22
100
AcDbEntity
  8
0
  6
DASHED
 62
     7
100
AcDbLine
 10
-433.8478088378906
 20
365.2651062011719
 30
0.0
 11
-433.8478088378906
 21
366.7651062011719
 31
0.0
  0
LINE
  5
BC
330
22
100
AcDbEntity
  8
0
  6
Continuous
 62
     7
100
AcDbLine
 10
-427.8478088378906
 20
361.7651062011719
 30
0.0
 11
-427.8478088378906
 21
321.7651062011719
 31
0.0
  0
LINE
  5
BD
330
22
100
AcDbEntity
  8
0
  6
Continuous
 62
     7
100
AcDbLine
 10
-432.8478088378906
 20
327.7651062011719
 30
0.0
 11
-432.8478088378906
 21
304.7651062011719
 31
0.0
  0
LINE
  5
BE
330
22
100
AcDbEntity
  8
0
  6
Continuous
 62
     7
100
AcDbLine
 10
-417.8478088378906
 20
361.7651062011719
 30
0.0
 11
-417.8478088378906
 21
338.7651062011719
 31
0.0
  0
LINE
  5
BF
330
22
100
AcDbEntity
  8
0
  6
Continuous
 62
     7
100
AcDbLine
 10
-318.8478088378906
 20
361.7651062011719
 30
0.0
 11
-318.8478088378906
 21
338.7651062011719
 31
0.0
  0
LINE
  5
C0
330
22
100
AcDbEntity
  8
0
  6
Continuous
 62
     7
100
AcDbLine
 10
-318.8478088378906
 20
327.7651062011719
 30
0.0
 11
-318.8478088378906
 21
304.7651062011719
 31
0.0
  0
LINE
  5
C1
330
22
100
AcDbEntity
  8
0
  6
Continuous
 62
     7
100
AcDbLine
 10
-303.8478088378906
 20
361.7651062011719
 30
0.0
 11
-303.8478088378906
 21
321.7651062011719
 31
0.0
  0
LINE
  5
C2
330
22
100
AcDbEntity
  8
0
  6
Continuous
 62
     7
100
AcDbLine
 10
-298.8478088378906
 20
361.7651062011719
 30
0.0
 11
-298.8478088378906
 21
338.7651062011719
 31
0.0
  0
LINE
  5
C3
330
22
100
AcDbEntity
  8
0
  6
Continuous
 62
     7
100
AcDbLine
 10
-298.8478088378906
 20
327.7651062011719
 30
0.0
 11
-298.8478088378906
 21
304.7651062011719
 31
0.0
  0
LINE
  5
C4
330
22
100
AcDbEntity
  8
0
  6
Continuous
 62
     7
100
AcDbLine
 10
-313.8478088378906
 20
361.7651062011719
 30
0.0
 11
-313.8478088378906
 21
338.7651062011719
 31
0.0
  0
LINE
  5
C5
330
22
100
AcDbEntity
  8
0
  6
Continuous
 62
     7
100
AcDbLine
 10
-313.8478088378906
 20
327.7651062011719
 30
0.0
 11
-313.8478088378906
 21
304.7651062011719
 31
0.0
  0
LINE
  5
C6
330
22
100
AcDbEntity
  8
0
  6
Continuous
 62
     7
100
AcDbLine
 10
-308.8478088378906
 20
361.7651062011719
 30
0.0
 11
-308.8478088378906
 21
321.7651062011719
 31
0.0
  0
LINE
  5
C7
330
22
100
AcDbEntity
  8
0
  6
Continuous
 62
     7
100
AcDbLine
 10
-422.8478088378905
 20
361.7651062011719
 30
0.0
 11
-422.8478088378905
 21
321.7651062011719
 31
0.0
  0
LINE
  5
C8
330
22
100
AcDbEntity
  8
0
  6
Continuous
 62
     7
100
AcDbLine
 10
-437.8478088378906
 20
355.7651062011719
 30
0.0
 11
-437.8478088378906
 21
338.7651062011719
 31
0.0
  0
LINE
  5
C9
330
22
100
AcDbEntity
  8
0
  6
Continuous
 62
     7
100
AcDbLine
 10
-417.8478088378906
 20
327.7651062011719
 30
0.0
 11
-417.8478088378906
 21
304.7651062011719
 31
0.0
  0
LINE
  5
CA
330
22
100
AcDbEntity
  8
0
  6
Continuous
 62
     7
100
AcDbLine
 10
-437.8478088378906
 20
327.7651062011719
 30
0.0
 11
-437.8478088378906
 21
304.7651062011719
 31
0.0
  0
LINE
  5
CB
330
22
100
AcDbEntity
  8
0
  6
Continuous
 62
     7
100
AcDbLine
 10
-432.8478088378906
 20
355.7651062011719
 30
0.0
 11
-432.8478088378906
 21
338.7651062011719
 31
0.0
  0
LINE
  5
CC
330
22
100
AcDbEntity
  8
0
  6
Continuous
 62
     7
100
AcDbLine
 10
-436.3435974121093
 20
367.7948608398438
 30
0.0
 11
-436.6155395507813
 21
368.0668334960938
 31
0.0
  0
LINE
  5
CD
330
22
100
AcDbEntity
  8
0
  6
Continuous
 62
     7
100
AcDbLine
 10
-352.8478088378906
 20
327.7651062011719
 30
0.0
 11
-352.8478088378906
 21
304.7651062011719
 31
0.0
  0
LINE
  5
CE
330
22
100
AcDbEntity
  8
0
  6
Continuous
 62
     7
100
AcDbLine
 10
-342.8478088378906
 20
355.7651062011719
 30
0.0
 11
-342.8478088378906
 21
321.7651062011719
 31
0.0
  0
LINE
  5
CF
330
22
100
AcDbEntity
  8
0
  6
Continuous
 62
     7
100
AcDbLine
 10
-347.8478088378906
 20
355.7651062011719
 30
0.0
 11
-347.8478088378906
 21
321.7651062011719
 31
0.0
  0
LINE
  5
D0
330
22
100
AcDbEntity
  8
0
  6
Continuous
 62
     7
100
AcDbLine
 10
-352.8478088378906
 20
361.7651062011719
 30
0.0
 11
-352.8478088378906
 21
338.7651062011719
 31
0.0
  0
LINE
  5
D1
330
22
100
AcDbEntity
  8
0
  6
DASHED
 62
     7
100
AcDbLine
 10
-340.8478088378906
 20
365.2651062011719
 30
0.0
 11
-340.8478088378906
 21
366.7651062011719
 31
0.0
  0
LINE
  5
D2
330
22
100
AcDbEntity
  8
0
  6
Continuous
 62
     7
100
AcDbLine
 10
-382.8478088378906
 20
361.7651062011719
 30
0.0
 11
-382.8478088378906
 21
321.7651062011719
 31
0.0
  0
LINE
  5
D3
330
22
100
AcDbEntity
  8
0
  6
Continuous
 62
     7
100
AcDbLine
 10
-372.8478088378906
 20
361.7651062011719
 30
0.0
 11
-372.8478088378906
 21
338.7651062011719
 31
0.0
  0
LINE
  5
D4
330
22
100
AcDbEntity
  8
0
  6
Continuous
 62
     7
100
AcDbLine
 10
-377.8478088378906
 20
361.7651062011719
 30
0.0
 11
-377.8478088378906
 21
338.7651062011719
 31
0.0
  0
LINE
  5
D5
330
22
100
AcDbEntity
  8
0
  6
Continuous
 62
     7
100
AcDbLine
 10
-377.8478088378906
 20
327.7651062011719
 30
0.0
 11
-377.8478088378906
 21
304.7651062011719
 31
0.0
  0
LINE
  5
D6
330
22
100
AcDbEntity
  8
0
  6
Continuous
 62
     7
100
AcDbLine
 10
-372.8478088378906
 20
327.7651062011719
 30
0.0
 11
-372.8478088378906
 21
304.7651062011719
 31
0.0
  0
LINE
  5
D7
330
22
100
AcDbEntity
  8
0
  6
Continuous
 62
     7
100
AcDbLine
 10
-387.8478088378906
 20
361.7651062011719
 30
0.0
 11
-387.8478088378906
 21
321.7651062011719
 31
0.0
  0
LINE
  5
D8
330
22
100
AcDbEntity
  8
0
  6
Continuous
 62
     7
100
AcDbLine
 10
-397.8478088378906
 20
361.7651062011719
 30
0.0
 11
-397.8478088378906
 21
338.7651062011719
 31
0.0
  0
LINE
  5
D9
330
22
100
AcDbEntity
  8
0
  6
Continuous
 62
     7
100
AcDbLine
 10
-397.8478088378906
 20
327.7651062011719
 30
0.0
 11
-397.8478088378906
 21
304.7651062011719
 31
0.0
  0
LINE
  5
DA
330
22
100
AcDbEntity
  8
0
  6
Continuous
 62
     7
100
AcDbLine
 10
-392.8478088378906
 20
361.7651062011719
 30
0.0
 11
-392.8478088378906
 21
338.7651062011719
 31
0.0
  0
LINE
  5
DB
330
22
100
AcDbEntity
  8
0
  6
Continuous
 62
     7
100
AcDbLine
 10
-392.8478088378906
 20
327.7651062011719
 30
0.0
 11
-392.8478088378906
 21
304.7651062011719
 31
0.0
  0
LINE
  5
DC
330
22
100
AcDbEntity
  8
0
  6
Continuous
 62
     7
100
AcDbLine
 10
-333.6155395507813
 20
368.0412902832031
 30
0.0
 11
-335.8478088378906
 21
366.3463439941406
 31
0.0
  0
LINE
  5
DD
330
22
100
AcDbEntity
  8
0
  6
Continuous
 62
     7
100
AcDbLine
 10
-333.0866088867188
 20
363.0474243164063
 30
0.0
 11
-334.7665710449219
 21
365.2651062011719
 31
0.0
  0
LINE
  5
DE
330
22
100
AcDbEntity
  8
0
  6
Continuous
 62
     7
100
AcDbLine
 10
-333.0866088867188
 20
363.0474243164063
 30
0.0
 11
-333.3583679199219
 21
362.7756652832031
 31
0.0
  0
LINE
  5
DF
330
22
100
AcDbEntity
  8
0
  6
Continuous
 62
     7
100
AcDbLine
 10
-333.630126953125
 20
362.50390625
 30
0.0
 11
-333.3583679199219
 21
362.7756652832031
 31
0.0
  0
LINE
  5
E0
330
22
100
AcDbEntity
  8
0
  6
Continuous
 62
     7
100
AcDbLine
 10
-338.35205078125
 20
362.7608947753906
 30
0.0
 11
-338.080078125
 21
362.4889221191406
 31
0.0
  0
LINE
  5
E1
330
22
100
AcDbEntity
  8
0
  6
Continuous
 62
     7
100
AcDbLine
 10
-338.35205078125
 20
362.7608947753906
 30
0.0
 11
-338.6239929199219
 21
363.0328369140625
 31
0.0
  0
LINE
  5
E2
330
22
100
AcDbEntity
  8
0
  6
Continuous
 62
     7
100
AcDbLine
 10
-338.35205078125
 20
362.7608947753906
 30
0.0
 11
-338.6239929199219
 21
363.0328369140625
 31
0.0
  0
LINE
  5
E3
330
22
100
AcDbEntity
  8
0
  6
Continuous
 62
     7
100
AcDbLine
 10
-338.35205078125
 20
362.7608947753906
 30
0.0
 11
-338.080078125
 21
362.4889221191406
 31
0.0
  0
LINE
  5
E4
330
22
100
AcDbEntity
  8
0
  6
Continuous
 62
     7
100
AcDbLine
 10
-338.6239929199219
 20
363.0328369140625
 30
0.0
 11
-336.9290771484375
 21
365.2651062011719
 31
0.0
  0
LINE
  5
E5
330
22
100
AcDbEntity
  8
0
  6
Continuous
 62
     7
100
AcDbLine
 10
-338.6090087890625
 20
367.4827880859375
 30
0.0
 11
-336.9290771484375
 21
365.2651062011719
 31
0.0
  0
LINE
  5
E6
330
22
100
AcDbEntity
  8
0
  6
Continuous
 62
     7
100
AcDbLine
 10
-333.630126953125
 20
362.50390625
 30
0.0
 11
-335.8478088378906
 21
364.1838684082031
 31
0.0
  0
LINE
  5
E7
330
22
100
AcDbEntity
  8
0
  6
Continuous
 62
     7
100
AcDbLine
 10
-338.080078125
 20
362.4889221191406
 30
0.0
 11
-335.8478088378906
 21
364.1838684082031
 31
0.0
  0
LINE
  5
E8
330
22
100
AcDbEntity
  8
0
  6
Continuous
 62
     7
100
AcDbLine
 10
-333.630126953125
 20
362.50390625
 30
0.0
 11
-333.3583679199219
 21
362.7756652832031
 31
0.0
  0
LINE
  5
E9
330
22
100
AcDbEntity
  8
0
  6
Continuous
 62
     7
100
AcDbLine
 10
-333.0716247558594
 20
367.4973754882813
 30
0.0
 11
-334.7665710449219
 21
365.2651062011719
 31
0.0
  0
LINE
  5
EA
330
22
100
AcDbEntity
  8
0
  6
Continuous
 62
     7
100
AcDbLine
 10
-333.3435974121094
 20
367.7693176269531
 30
0.0
 11
-333.0716247558594
 21
367.4973754882813
 31
0.0
  0
LINE
  5
EB
330
22
100
AcDbEntity
  8
0
  6
Continuous
 62
     7
100
AcDbLine
 10
-333.0716247558594
 20
367.4973754882813
 30
0.0
 11
-334.7665710449219
 21
365.2651062011719
 31
0.0
  0
LINE
  5
EC
330
22
100
AcDbEntity
  8
0
  6
Continuous
 62
     7
100
AcDbLine
 10
-333.3435974121094
 20
367.7693176269531
 30
0.0
 11
-333.6155395507813
 21
368.0412902832031
 31
0.0
  0
LINE
  5
ED
330
22
100
AcDbEntity
  8
0
  6
Continuous
 62
     7
100
AcDbLine
 10
-338.0654907226563
 20
368.0263061523438
 30
0.0
 11
-335.8478088378906
 21
366.3463439941406
 31
0.0
  0
LINE
  5
EE
330
22
100
AcDbEntity
  8
0
  6
Continuous
 62
     7
100
AcDbLine
 10
-338.6090087890625
 20
367.4827880859375
 30
0.0
 11
-336.9290771484375
 21
365.2651062011719
 31
0.0
  0
LINE
  5
EF
330
22
100
AcDbEntity
  8
0
  6
Continuous
 62
     7
100
AcDbLine
 10
-338.6090087890625
 20
367.4827880859375
 30
0.0
 11
-338.3372497558594
 21
367.7545471191406
 31
0.0
  0
LINE
  5
F0
330
22
100
AcDbEntity
  8
0
  6
Continuous
 62
     7
100
AcDbLine
 10
-357.8478088378906
 20
327.7651062011719
 30
0.0
 11
-357.8478088378906
 21
304.7651062011719
 31
0.0
  0
LINE
  5
F1
330
22
100
AcDbEntity
  8
0
  6
Continuous
 62
     7
100
AcDbLine
 10
-362.8478088378906
 20
361.7651062011719
 30
0.0
 11
-362.8478088378906
 21
321.7651062011719
 31
0.0
  0
LINE
  5
F2
330
22
100
AcDbEntity
  8
0
  6
Continuous
 62
     7
100
AcDbLine
 10
-357.8478088378906
 20
361.7651062011719
 30
0.0
 11
-357.8478088378906
 21
338.7651062011719
 31
0.0
  0
LINE
  5
F3
330
22
100
AcDbEntity
  8
0
  6
Continuous
 62
     7
100
AcDbLine
 10
-367.8478088378906
 20
361.7651062011719
 30
0.0
 11
-367.8478088378906
 21
321.7651062011719
 31
0.0
  0
LINE
  5
F4
330
22
100
AcDbEntity
  8
0
  6
Continuous
 62
     7
100
AcDbLine
 10
-235.6240081787109
 20
260.0328369140625
 30
0.0
 11
-233.9290618896484
 21
262.2651062011719
 31
0.0
  0
LINE
  5
F5
330
22
100
AcDbEntity
  8
0
  6
Continuous
 62
     7
100
AcDbLine
 10
-230.6301422119141
 20
259.50390625
 30
0.0
 11
-232.8478088378906
 21
261.1838684082031
 31
0.0
  0
LINE
  5
F6
330
22
100
AcDbEntity
  8
0
  6
Continuous
 62
     7
100
AcDbLine
 10
-235.080078125
 20
259.4889221191406
 30
0.0
 11
-232.8478088378906
 21
261.1838684082031
 31
0.0
  0
LINE
  5
F7
330
22
100
AcDbEntity
  8
0
  6
Continuous
 62
     7
100
AcDbLine
 10
-230.6301422119141
 20
259.50390625
 30
0.0
 11
-230.3583831787109
 21
259.7756652832031
 31
0.0
  0
LINE
  5
F8
330
22
100
AcDbEntity
  8
0
  6
Continuous
 62
     7
100
AcDbLine
 10
-323.8478088378906
 20
355.7651062011719
 30
0.0
 11
-323.8478088378906
 21
321.7651062011719
 31
0.0
  0
LINE
  5
F9
330
22
100
AcDbEntity
  8
0
  6
Continuous
 62
     7
100
AcDbLine
 10
-328.8478088378906
 20
355.7651062011719
 30
0.0
 11
-328.8478088378906
 21
321.7651062011719
 31
0.0
  0
LINE
  5
FA
330
22
100
AcDbEntity
  8
0
  6
Continuous
 62
     7
100
AcDbLine
 10
-338.0654907226563
 20
368.0263061523438
 30
0.0
 11
-338.3372497558594
 21
367.7545471191406
 31
0.0
  0
LINE
  5
FB
330
22
100
AcDbEntity
  8
0
  6
Continuous
 62
     7
100
AcDbLine
 10
-338.6090087890625
 20
367.4827880859375
 30
0.0
 11
-338.3372497558594
 21
367.7545471191406
 31
0.0
  0
LINE
  5
FC
330
22
100
AcDbEntity
  8
0
  6
Continuous
 62
     7
100
AcDbLine
 10
-333.630126953125
 20
362.50390625
 30
0.0
 11
-335.8478088378906
 21
364.1838684082031
 31
0.0
  0
LINE
  5
FD
330
22
100
AcDbEntity
  8
0
  6
Continuous
 62
     7
100
AcDbLine
 10
-333.0866088867188
 20
363.0474243164063
 30
0.0
 11
-334.7665710449219
 21
365.2651062011719
 31
0.0
  0
LINE
  5
FE
330
22
100
AcDbEntity
  8
0
  6
Continuous
 62
     7
100
AcDbLine
 10
-333.3435974121094
 20
367.7693176269531
 30
0.0
 11
-333.0716247558594
 21
367.4973754882813
 31
0.0
  0
LINE
  5
FF
330
22
100
AcDbEntity
  8
0
  6
Continuous
 62
     7
100
AcDbLine
 10
-333.6155395507813
 20
368.0412902832031
 30
0.0
 11
-335.8478088378906
 21
366.3463439941406
 31
0.0
  0
LINE
  5
100
330
22
100
AcDbEntity
  8
0
  6
Continuous
 62
     7
100
AcDbLine
 10
-338.080078125
 20
362.4889221191406
 30
0.0
 11
-335.8478088378906
 21
364.1838684082031
 31
0.0
  0
LINE
  5
101
330
22
100
AcDbEntity
  8
0
  6
Continuous
 62
     7
100
AcDbLine
 10
-338.0654907226563
 20
368.0263061523438
 30
0.0
 11
-338.3372497558594
 21
367.7545471191406
 31
0.0
  0
LINE
  5
102
330
22
100
AcDbEntity
  8
0
  6
Continuous
 62
     7
100
AcDbLine
 10
-338.6239929199219
 20
363.0328369140625
 30
0.0
 11
-336.9290771484375
 21
365.2651062011719
 31
0.0
  0
LINE
  5
103
330
22
100
AcDbEntity
  8
0
  6
Continuous
 62
     7
100
AcDbLine
 10
-333.0866088867188
 20
363.0474243164063
 30
0.0
 11
-333.3583679199219
 21
362.7756652832031
 31
0.0
  0
LINE
  5
104
330
22
100
AcDbEntity
  8
0
  6
Continuous
 62
     7
100
AcDbLine
 10
-338.0654907226563
 20
368.0263061523438
 30
0.0
 11
-335.8478088378906
 21
366.3463439941406
 31
0.0
  0
LINE
  5
105
330
22
100
AcDbEntity
  8
0
  6
Continuous
 62
     7
100
AcDbLine
 10
-333.3435974121094
 20
367.7693176269531
 30
0.0
 11
-333.6155395507813
 21
368.0412902832031
 31
0.0
  0
LINE
  5
106
330
22
100
AcDbEntity
  8
0
  6
DASHED
 62
     7
100
AcDbLine
 10
-330.8478088378906
 20
365.2651062011719
 30
0.0
 11
-330.8478088378906
 21
366.7651062011719
 31
0.0
  0
LINE
  5
107
330
22
100
AcDbEntity
  8
0
  6
Continuous
 62
     7
100
AcDbLine
 10
-230.0716247558594
 20
264.4973754882813
 30
0.0
 11
-231.7665710449219
 21
262.2651062011719
 31
0.0
  0
LINE
  5
108
330
22
100
AcDbEntity
  8
0
  6
Continuous
 62
     7
100
AcDbLine
 10
-235.0654907226563
 20
265.0263061523438
 30
0.0
 11
-232.8478088378906
 21
263.3463439941406
 31
0.0
  0
LINE
  5
109
330
22
100
AcDbEntity
  8
0
  6
Continuous
 62
     7
100
AcDbLine
 10
-235.6090087890625
 20
264.4827880859375
 30
0.0
 11
-233.9290618896484
 21
262.2651062011719
 31
0.0
  0
LINE
  5
10A
330
22
100
AcDbEntity
  8
0
  6
Continuous
 62
     7
100
AcDbLine
 10
-230.6155548095703
 20
265.0412902832031
 30
0.0
 11
-232.8478088378906
 21
263.3463439941406
 31
0.0
  0
LINE
  5
10B
330
22
100
AcDbEntity
  8
0
  6
Continuous
 62
     7
100
AcDbLine
 10
-235.0654907226563
 20
265.0263061523438
 30
0.0
 11
-232.8478088378906
 21
263.3463439941406
 31
0.0
  0
LINE
  5
10C
330
22
100
AcDbEntity
  8
0
  6
Continuous
 62
     7
100
AcDbLine
 10
-230.6301422119141
 20
259.50390625
 30
0.0
 11
-232.8478088378906
 21
261.1838684082031
 31
0.0
  0
LINE
  5
10D
330
22
100
AcDbEntity
  8
0
  6
Continuous
 62
     7
100
AcDbLine
 10
-230.0866241455078
 20
260.0474243164063
 30
0.0
 11
-231.7665710449219
 21
262.2651062011719
 31
0.0
  0
LINE
  5
10E
330
22
100
AcDbEntity
  8
0
  6
Continuous
 62
     7
100
AcDbLine
 10
-235.080078125
 20
259.4889221191406
 30
0.0
 11
-232.8478088378906
 21
261.1838684082031
 31
0.0
  0
LINE
  5
10F
330
22
100
AcDbEntity
  8
0
  6
Continuous
 62
     7
100
AcDbLine
 10
-235.6240081787109
 20
260.0328369140625
 30
0.0
 11
-233.9290618896484
 21
262.2651062011719
 31
0.0
  0
LINE
  5
110
330
22
100
AcDbEntity
  8
0
  6
Continuous
 62
     7
100
AcDbLine
 10
-230.0866241455078
 20
260.0474243164063
 30
0.0
 11
-230.3583831787109
 21
259.7756652832031
 31
0.0
  0
LINE
  5
111
330
22
100
AcDbEntity
  8
0
  6
DASHED
 62
     7
100
AcDbLine
 10
-232.8478088378906
 20
257.2651062011719
 30
0.0
 11
-231.3478088378906
 21
257.2651062011719
 31
0.0
  0
LINE
  5
112
330
22
100
AcDbEntity
  8
0
  6
Continuous
 62
     7
100
AcDbLine
 10
-230.0866241455078
 20
260.0474243164063
 30
0.0
 11
-231.7665710449219
 21
262.2651062011719
 31
0.0
  0
LINE
  5
113
330
22
100
AcDbEntity
  8
0
  6
Continuous
 62
     7
100
AcDbLine
 10
-230.0866241455078
 20
260.0474243164063
 30
0.0
 11
-230.3583831787109
 21
259.7756652832031
 31
0.0
  0
LINE
  5
114
330
22
100
AcDbEntity
  8
0
  6
Continuous
 62
     7
100
AcDbLine
 10
-230.6301422119141
 20
259.50390625
 30
0.0
 11
-230.3583831787109
 21
259.7756652832031
 31
0.0
  0
LINE
  5
115
330
22
100
AcDbEntity
  8
0
  6
Continuous
 62
     7
100
AcDbLine
 10
-235.3520355224609
 20
259.7608947753906
 30
0.0
 11
-235.080078125
 21
259.4889221191406
 31
0.0
  0
LINE
  5
116
330
22
100
AcDbEntity
  8
0
  6
Continuous
 62
     7
100
AcDbLine
 10
-235.3520355224609
 20
259.7608947753906
 30
0.0
 11
-235.6240081787109
 21
260.0328369140625
 31
0.0
  0
LINE
  5
117
330
22
100
AcDbEntity
  8
0
  6
Continuous
 62
     7
100
AcDbLine
 10
-235.3520355224609
 20
259.7608947753906
 30
0.0
 11
-235.6240081787109
 21
260.0328369140625
 31
0.0
  0
LINE
  5
118
330
22
100
AcDbEntity
  8
0
  6
Continuous
 62
     7
100
AcDbLine
 10
-235.3520355224609
 20
259.7608947753906
 30
0.0
 11
-235.080078125
 21
259.4889221191406
 31
0.0
  0
LINE
  5
119
330
22
100
AcDbEntity
  8
0
  6
Continuous
 62
     7
100
AcDbLine
 10
-258.8478088378906
 20
162.7651062011719
 30
0.0
 11
-258.8478088378906
 21
185.7651062011719
 31
0.0
  0
LINE
  5
11A
330
22
100
AcDbEntity
  8
0
  6
Continuous
 62
     7
100
AcDbLine
 10
-258.8478088378906
 20
230.7651062011719
 30
0.0
 11
-258.8478088378906
 21
253.7651062011719
 31
0.0
  0
LINE
  5
11B
330
22
100
AcDbEntity
  8
0
  6
DASHED
 62
     7
100
AcDbLine
 10
-232.8478088378906
 20
267.2651062011719
 30
0.0
 11
-231.3478088378906
 21
267.2651062011719
 31
0.0
  0
LINE
  5
11C
330
22
100
AcDbEntity
  8
0
  6
Continuous
 62
     7
100
AcDbLine
 10
-230.3435821533203
 20
264.7693176269531
 30
0.0
 11
-230.0716247558594
 21
264.4973754882813
 31
0.0
  0
LINE
  5
11D
330
22
100
AcDbEntity
  8
0
  6
Continuous
 62
     7
100
AcDbLine
 10
-230.3435821533203
 20
264.7693176269531
 30
0.0
 11
-230.6155548095703
 21
265.0412902832031
 31
0.0
  0
LINE
  5
11E
330
22
100
AcDbEntity
  8
0
  6
Continuous
 62
     7
100
AcDbLine
 10
-235.6090087890625
 20
264.4827880859375
 30
0.0
 11
-235.3372497558594
 21
264.7545471191406
 31
0.0
  0
LINE
  5
11F
330
22
100
AcDbEntity
  8
0
  6
Continuous
 62
     7
100
AcDbLine
 10
-235.0654907226563
 20
265.0263061523438
 30
0.0
 11
-235.3372497558594
 21
264.7545471191406
 31
0.0
  0
LINE
  5
120
330
22
100
AcDbEntity
  8
0
  6
Continuous
 62
     7
100
AcDbLine
 10
-235.6090087890625
 20
264.4827880859375
 30
0.0
 11
-235.3372497558594
 21
264.7545471191406
 31
0.0
  0
LINE
  5
121
330
22
100
AcDbEntity
  8
0
  6
Continuous
 62
     7
100
AcDbLine
 10
-230.3435821533203
 20
264.7693176269531
 30
0.0
 11
-230.0716247558594
 21
264.4973754882813
 31
0.0
  0
LINE
  5
122
330
22
100
AcDbEntity
  8
0
  6
Continuous
 62
     7
100
AcDbLine
 10
-235.0654907226563
 20
265.0263061523438
 30
0.0
 11
-235.3372497558594
 21
264.7545471191406
 31
0.0
  0
LINE
  5
123
330
22
100
AcDbEntity
  8
0
  6
Continuous
 62
     7
100
AcDbLine
 10
-230.3435821533203
 20
264.7693176269531
 30
0.0
 11
-230.6155548095703
 21
265.0412902832031
 31
0.0
  0
LINE
  5
124
330
22
100
AcDbEntity
  8
0
  6
Continuous
 62
     7
100
AcDbLine
 10
-230.6155548095703
 20
265.0412902832031
 30
0.0
 11
-232.8478088378906
 21
263.3463439941406
 31
0.0
  0
LINE
  5
125
330
22
100
AcDbEntity
  8
0
  6
Continuous
 62
     7
100
AcDbLine
 10
-235.6090087890625
 20
264.4827880859375
 30
0.0
 11
-233.9290618896484
 21
262.2651062011719
 31
0.0
  0
LINE
  5
126
330
22
100
AcDbEntity
  8
0
  6
Continuous
 62
     7
100
AcDbLine
 10
-230.0716247558594
 20
264.4973754882813
 30
0.0
 11
-231.7665710449219
 21
262.2651062011719
 31
0.0
  0
LINE
  5
127
330
22
100
AcDbEntity
  8
0
  6
DASHED
 62
     7
100
AcDbLine
 10
-229.3478088378906
 20
166.2651062011719
 30
0.0
 11
-229.3478088378906
 21
255.2651062011719
 31
0.0
  0
LINE
  5
128
330
22
100
AcDbEntity
  8
0
  6
Continuous
 62
     7
100
AcDbLine
 10
-233.8478088378906
 20
230.7651062011719
 30
0.0
 11
-233.8478088378906
 21
250.7651062011719
 31
0.0
  0
LINE
  5
129
330
22
100
AcDbEntity
  8
0
  6
Continuous
 62
     7
100
AcDbLine
 10
-248.8478088378906
 20
213.7651062011719
 30
0.0
 11
-248.8478088378906
 21
253.7651062011719
 31
0.0
  0
LINE
  5
12A
330
22
100
AcDbEntity
  8
0
  6
Continuous
 62
     7
100
AcDbLine
 10
-253.8478088378906
 20
230.7651062011719
 30
0.0
 11
-253.8478088378906
 21
253.7651062011719
 31
0.0
  0
LINE
  5
12B
330
22
100
AcDbEntity
  8
0
  6
Continuous
 62
     7
100
AcDbLine
 10
-238.8478088378906
 20
230.7651062011719
 30
0.0
 11
-238.8478088378906
 21
250.7651062011719
 31
0.0
  0
LINE
  5
12C
330
22
100
AcDbEntity
  8
0
  6
Continuous
 62
     7
100
AcDbLine
 10
-243.8478088378906
 20
213.7651062011719
 30
0.0
 11
-243.8478088378906
 21
253.7651062011719
 31
0.0
  0
LINE
  5
12D
330
22
100
AcDbEntity
  8
0
  6
Continuous
 62
     7
100
AcDbLine
 10
-278.8478088378905
 20
196.7651062011719
 30
0.0
 11
-278.8478088378905
 21
219.7651062011719
 31
0.0
  0
LINE
  5
12E
330
22
100
AcDbEntity
  8
0
  6
Continuous
 62
     7
100
AcDbLine
 10
-283.8478088378906
 20
162.7651062011719
 30
0.0
 11
-283.8478088378906
 21
202.7651062011719
 31
0.0
  0
LINE
  5
12F
330
22
100
AcDbEntity
  8
0
  6
Continuous
 62
     7
100
AcDbLine
 10
-278.8478088378905
 20
162.7651062011719
 30
0.0
 11
-278.8478088378905
 21
185.7651062011719
 31
0.0
  0
LINE
  5
130
330
22
100
AcDbEntity
  8
0
  6
Continuous
 62
     7
100
AcDbLine
 10
-273.8478088378906
 20
230.7651062011719
 30
0.0
 11
-273.8478088378906
 21
253.7651062011719
 31
0.0
  0
LINE
  5
131
330
22
100
AcDbEntity
  8
0
  6
Continuous
 62
     7
100
AcDbLine
 10
-268.8478088378906
 20
213.7651062011719
 30
0.0
 11
-268.8478088378906
 21
253.7651062011719
 31
0.0
  0
LINE
  5
132
330
22
100
AcDbEntity
  8
0
  6
Continuous
 62
     7
100
AcDbLine
 10
-278.8478088378905
 20
230.7651062011719
 30
0.0
 11
-278.8478088378905
 21
253.7651062011719
 31
0.0
  0
LINE
  5
133
330
22
100
AcDbEntity
  8
0
  6
Continuous
 62
     7
100
AcDbLine
 10
-283.8478088378906
 20
213.7651062011719
 30
0.0
 11
-283.8478088378906
 21
253.7651062011719
 31
0.0
  0
LINE
  5
134
330
22
100
AcDbEntity
  8
0
  6
Continuous
 62
     7
100
AcDbLine
 10
-263.8478088378906
 20
213.7651062011719
 30
0.0
 11
-263.8478088378906
 21
253.7651062011719
 31
0.0
  0
LINE
  5
135
330
22
100
AcDbEntity
  8
0
  6
Continuous
 62
     7
100
AcDbLine
 10
-263.8478088378906
 20
162.7651062011719
 30
0.0
 11
-263.8478088378906
 21
202.7651062011719
 31
0.0
  0
LINE
  5
136
330
22
100
AcDbEntity
  8
0
  6
Continuous
 62
     7
100
AcDbLine
 10
-258.8478088378906
 20
196.7651062011719
 30
0.0
 11
-258.8478088378906
 21
219.7651062011719
 31
0.0
  0
LINE
  5
137
330
22
100
AcDbEntity
  8
0
  6
Continuous
 62
     7
100
AcDbLine
 10
-230.0716247558594
 20
161.4718475341797
 30
0.0
 11
-231.7665710449219
 21
159.2395782470703
 31
0.0
  0
LINE
  5
138
330
22
100
AcDbEntity
  8
0
  6
Continuous
 62
     7
100
AcDbLine
 10
-230.3435821533203
 20
161.7438049316406
 30
0.0
 11
-230.0716247558594
 21
161.4718475341797
 31
0.0
  0
LINE
  5
139
330
22
100
AcDbEntity
  8
0
  6
DASHED
 62
     7
100
AcDbLine
 10
-232.8478088378906
 20
164.2651062011719
 30
0.0
 11
-231.3478088378906
 21
164.2651062011719
 31
0.0
  0
LINE
  5
13A
330
22
100
AcDbEntity
  8
0
  6
DASHED
 62
     7
100
AcDbLine
 10
-237.8478088378906
 20
159.2651062011719
 30
0.0
 11
-237.8478088378906
 21
157.7651062011719
 31
0.0
  0
LINE
  5
13B
330
22
100
AcDbEntity
  8
0
  6
Continuous
 62
     7
100
AcDbLine
 10
-230.0716247558594
 20
161.4718475341797
 30
0.0
 11
-231.7665710449219
 21
159.2395782470703
 31
0.0
  0
LINE
  5
13C
330
22
100
AcDbEntity
  8
0
  6
Continuous
 62
     7
100
AcDbLine
 10
-230.6301422119141
 20
156.4783782958984
 30
0.0
 11
-230.3583831787109
 21
156.7501373291016
 31
0.0
  0
LINE
  5
13D
330
22
100
AcDbEntity
  8
0
  6
Continuous
 62
     7
100
AcDbLine
 10
-235.080078125
 20
156.4633941650391
 30
0.0
 11
-232.8478088378906
 21
158.1583251953125
 31
0.0
  0
LINE
  5
13E
330
22
100
AcDbEntity
  8
0
  6
Continuous
 62
     7
100
AcDbLine
 10
-230.6301422119141
 20
156.4783782958984
 30
0.0
 11
-232.8478088378906
 21
158.1583251953125
 31
0.0
  0
LINE
  5
13F
330
22
100
AcDbEntity
  8
0
  6
Continuous
 62
     7
100
AcDbLine
 10
-235.6090087890625
 20
161.4572601318359
 30
0.0
 11
-233.9290618896484
 21
159.2395782470703
 31
0.0
  0
LINE
  5
140
330
22
100
AcDbEntity
  8
0
  6
Continuous
 62
     7
100
AcDbLine
 10
-235.6240081787109
 20
157.00732421875
 30
0.0
 11
-233.9290618896484
 21
159.2395782470703
 31
0.0
  0
LINE
  5
141
330
22
100
AcDbEntity
  8
0
  6
Continuous
 62
     7
100
AcDbLine
 10
-235.3520355224609
 20
156.7353515625
 30
0.0
 11
-235.080078125
 21
156.4633941650391
 31
0.0
  0
LINE
  5
142
330
22
100
AcDbEntity
  8
0
  6
Continuous
 62
     7
100
AcDbLine
 10
-235.3520355224609
 20
156.7353515625
 30
0.0
 11
-235.6240081787109
 21
157.00732421875
 31
0.0
  0
LINE
  5
143
330
22
100
AcDbEntity
  8
0
  6
Continuous
 62
     7
100
AcDbLine
 10
-235.3520355224609
 20
156.7353515625
 30
0.0
 11
-235.6240081787109
 21
157.00732421875
 31
0.0
  0
LINE
  5
144
330
22
100
AcDbEntity
  8
0
  6
Continuous
 62
     7
100
AcDbLine
 10
-235.3520355224609
 20
156.7353515625
 30
0.0
 11
-235.080078125
 21
156.4633941650391
 31
0.0
  0
LINE
  5
145
330
22
100
AcDbEntity
  8
0
  6
Continuous
 62
     7
100
AcDbLine
 10
-230.6301422119141
 20
156.4783782958984
 30
0.0
 11
-230.3583831787109
 21
156.7501373291016
 31
0.0
  0
LINE
  5
146
330
22
100
AcDbEntity
  8
0
  6
Continuous
 62
     7
100
AcDbLine
 10
-230.0866241455078
 20
157.0219116210938
 30
0.0
 11
-230.3583831787109
 21
156.7501373291016
 31
0.0
  0
LINE
  5
147
330
22
100
AcDbEntity
  8
0
  6
Continuous
 62
     7
100
AcDbLine
 10
-273.8478088378906
 20
196.7651062011719
 30
0.0
 11
-273.8478088378906
 21
219.7651062011719
 31
0.0
  0
LINE
  5
148
330
22
100
AcDbEntity
  8
0
  6
Continuous
 62
     7
100
AcDbLine
 10
-268.8478088378906
 20
162.7651062011719
 30
0.0
 11
-268.8478088378906
 21
202.7651062011719
 31
0.0
  0
LINE
  5
149
330
22
100
AcDbEntity
  8
0
  6
Continuous
 62
     7
100
AcDbLine
 10
-273.8478088378906
 20
162.7651062011719
 30
0.0
 11
-273.8478088378906
 21
185.7651062011719
 31
0.0
  0
LINE
  5
14A
330
22
100
AcDbEntity
  8
0
  6
Continuous
 62
     7
100
AcDbLine
 10
-230.0866241455078
 20
157.0219116210938
 30
0.0
 11
-231.7665710449219
 21
159.2395782470703
 31
0.0
  0
LINE
  5
14B
330
22
100
AcDbEntity
  8
0
  6
Continuous
 62
     7
100
AcDbLine
 10
-230.6155548095703
 20
162.0157775878906
 30
0.0
 11
-232.8478088378906
 21
160.3208312988281
 31
0.0
  0
LINE
  5
14C
330
22
100
AcDbEntity
  8
0
  6
Continuous
 62
     7
100
AcDbLine
 10
-230.3435821533203
 20
161.7438049316406
 30
0.0
 11
-230.6155548095703
 21
162.0157775878906
 31
0.0
  0
LINE
  5
14D
330
22
100
AcDbEntity
  8
0
  6
Continuous
 62
     7
100
AcDbLine
 10
-235.0654907226563
 20
162.0007781982422
 30
0.0
 11
-232.8478088378906
 21
160.3208312988281
 31
0.0
  0
LINE
  5
14E
330
22
100
AcDbEntity
  8
0
  6
Continuous
 62
     7
100
AcDbLine
 10
-230.0866241455078
 20
157.0219116210938
 30
0.0
 11
-230.3583831787109
 21
156.7501373291016
 31
0.0
  0
LINE
  5
14F
330
22
100
AcDbEntity
  8
0
  6
Continuous
 62
     7
100
AcDbLine
 10
-235.6240081787109
 20
157.00732421875
 30
0.0
 11
-233.9290618896484
 21
159.2395782470703
 31
0.0
  0
LINE
  5
150
330
22
100
AcDbEntity
  8
0
  6
Continuous
 62
     7
100
AcDbLine
 10
-235.0654907226563
 20
162.0007781982422
 30
0.0
 11
-235.3372497558594
 21
161.7290191650391
 31
0.0
  0
LINE
  5
151
330
22
100
AcDbEntity
  8
0
  6
Continuous
 62
     7
100
AcDbLine
 10
-235.080078125
 20
156.4633941650391
 30
0.0
 11
-232.8478088378906
 21
158.1583251953125
 31
0.0
  0
LINE
  5
152
330
22
100
AcDbEntity
  8
0
  6
Continuous
 62
     7
100
AcDbLine
 10
-230.6155548095703
 20
162.0157775878906
 30
0.0
 11
-232.8478088378906
 21
160.3208312988281
 31
0.0
  0
LINE
  5
153
330
22
100
AcDbEntity
  8
0
  6
Continuous
 62
     7
100
AcDbLine
 10
-230.3435821533203
 20
161.7438049316406
 30
0.0
 11
-230.0716247558594
 21
161.4718475341797
 31
0.0
  0
LINE
  5
154
330
22
100
AcDbEntity
  8
0
  6
Continuous
 62
     7
100
AcDbLine
 10
-230.0866241455078
 20
157.0219116210938
 30
0.0
 11
-231.7665710449219
 21
159.2395782470703
 31
0.0
  0
LINE
  5
155
330
22
100
AcDbEntity
  8
0
  6
Continuous
 62
     7
100
AcDbLine
 10
-230.6301422119141
 20
156.4783782958984
 30
0.0
 11
-232.8478088378906
 21
158.1583251953125
 31
0.0
  0
LINE
  5
156
330
22
100
AcDbEntity
  8
0
  6
Continuous
 62
     7
100
AcDbLine
 10
-235.6090087890625
 20
161.4572601318359
 30
0.0
 11
-235.3372497558594
 21
161.7290191650391
 31
0.0
  0
LINE
  5
157
330
22
100
AcDbEntity
  8
0
  6
Continuous
 62
     7
100
AcDbLine
 10
-235.0654907226563
 20
162.0007781982422
 30
0.0
 11
-235.3372497558594
 21
161.7290191650391
 31
0.0
  0
LINE
  5
158
330
22
100
AcDbEntity
  8
0
  6
Continuous
 62
     7
100
AcDbLine
 10
-235.6090087890625
 20
161.4572601318359
 30
0.0
 11
-235.3372497558594
 21
161.7290191650391
 31
0.0
  0
LINE
  5
159
330
22
100
AcDbEntity
  8
0
  6
Continuous
 62
     7
100
AcDbLine
 10
-235.6090087890625
 20
161.4572601318359
 30
0.0
 11
-233.9290618896484
 21
159.2395782470703
 31
0.0
  0
LINE
  5
15A
330
22
100
AcDbEntity
  8
0
  6
Continuous
 62
     7
100
AcDbLine
 10
-235.0654907226563
 20
162.0007781982422
 30
0.0
 11
-232.8478088378906
 21
160.3208312988281
 31
0.0
  0
LINE
  5
15B
330
22
100
AcDbEntity
  8
0
  6
Continuous
 62
     7
100
AcDbLine
 10
-230.3435821533203
 20
161.7438049316406
 30
0.0
 11
-230.6155548095703
 21
162.0157775878906
 31
0.0
  0
LINE
  5
15C
330
22
100
AcDbEntity
  8
0
  6
Continuous
 62
     7
100
AcDbLine
 10
-258.8478088378906
 20
327.7651062011719
 30
0.0
 11
-258.8478088378906
 21
304.7651062011719
 31
0.0
  0
LINE
  5
15D
330
22
100
AcDbEntity
  8
0
  6
Continuous
 62
     7
100
AcDbLine
 10
-258.8478088378906
 20
361.7651062011719
 30
0.0
 11
-258.8478088378906
 21
338.7651062011719
 31
0.0
  0
LINE
  5
15E
330
22
100
AcDbEntity
  8
0
  6
Continuous
 62
     7
100
AcDbLine
 10
-263.8478088378906
 20
361.7651062011719
 30
0.0
 11
-263.8478088378906
 21
321.7651062011719
 31
0.0
  0
LINE
  5
15F
330
22
100
AcDbEntity
  8
0
  6
Continuous
 62
     7
100
AcDbLine
 10
-253.8478088378906
 20
196.7651062011719
 30
0.0
 11
-253.8478088378906
 21
219.7651062011719
 31
0.0
  0
LINE
  5
160
330
22
100
AcDbEntity
  8
0
  6
Continuous
 62
     7
100
AcDbLine
 10
-243.8478088378906
 20
162.7651062011719
 30
0.0
 11
-243.8478088378906
 21
202.7651062011719
 31
0.0
  0
LINE
  5
161
330
22
100
AcDbEntity
  8
0
  6
Continuous
 62
     7
100
AcDbLine
 10
-238.8478088378906
 20
196.7651062011719
 30
0.0
 11
-238.8478088378906
 21
219.7651062011719
 31
0.0
  0
LINE
  5
162
330
22
100
AcDbEntity
  8
0
  6
Continuous
 62
     7
100
AcDbLine
 10
-233.8478088378906
 20
196.7651062011719
 30
0.0
 11
-233.8478088378906
 21
219.7651062011719
 31
0.0
  0
LINE
  5
163
330
22
100
AcDbEntity
  8
0
  6
Continuous
 62
     7
100
AcDbLine
 10
-248.8478088378906
 20
162.7651062011719
 30
0.0
 11
-248.8478088378906
 21
202.7651062011719
 31
0.0
  0
LINE
  5
164
330
22
100
AcDbEntity
  8
0
  6
Continuous
 62
     7
100
AcDbLine
 10
-253.8478088378906
 20
162.7651062011719
 30
0.0
 11
-253.8478088378906
 21
185.7651062011719
 31
0.0
  0
LINE
  5
165
330
22
100
AcDbEntity
  8
0
  6
Continuous
 62
     7
100
AcDbLine
 10
-238.8478088378906
 20
168.7651062011719
 30
0.0
 11
-238.8478088378906
 21
185.7651062011719
 31
0.0
  0
LINE
  5
166
330
22
100
AcDbEntity
  8
0
  6
Continuous
 62
     7
100
AcDbLine
 10
-233.8478088378906
 20
168.7651062011719
 30
0.0
 11
-233.8478088378906
 21
185.7651062011719
 31
0.0
  0
LINE
  5
167
330
22
100
AcDbEntity
  8
0
  6
Continuous
 62
     7
100
AcDbLine
 10
-235.0654907226563
 20
368.0263061523438
 30
0.0
 11
-235.3372497558594
 21
367.7545471191406
 31
0.0
  0
LINE
  5
168
330
22
100
AcDbEntity
  8
0
  6
Continuous
 62
     7
100
AcDbLine
 10
-235.080078125
 20
362.4889221191406
 30
0.0
 11
-232.8478088378906
 21
364.1838684082031
 31
0.0
  0
LINE
  5
169
330
22
100
AcDbEntity
  8
0
  6
Continuous
 62
     7
100
AcDbLine
 10
-230.6155548095703
 20
368.0412902832031
 30
0.0
 11
-232.8478088378906
 21
366.3463439941406
 31
0.0
  0
LINE
  5
16A
330
22
100
AcDbEntity
  8
0
  6
Continuous
 62
     7
100
AcDbLine
 10
-230.3435821533203
 20
367.7693176269531
 30
0.0
 11
-230.0716247558594
 21
367.4973754882813
 31
0.0
  0
LINE
  5
16B
330
22
100
AcDbEntity
  8
0
  6
DASHED
 62
     7
100
AcDbLine
 10
-232.8478088378906
 20
360.2651062011719
 30
0.0
 11
-231.3478088378906
 21
360.2651062011719
 31
0.0
  0
LINE
  5
16C
330
22
100
AcDbEntity
  8
0
  6
DASHED
 62
     7
100
AcDbLine
 10
-237.8478088378906
 20
365.2651062011719
 30
0.0
 11
-237.8478088378906
 21
366.7651062011719
 31
0.0
  0
LINE
  5
16D
330
22
100
AcDbEntity
  8
0
  6
Continuous
 62
     7
100
AcDbLine
 10
-273.8478088378906
 20
361.7651062011719
 30
0.0
 11
-273.8478088378906
 21
338.7651062011719
 31
0.0
  0
LINE
  5
16E
330
22
100
AcDbEntity
  8
0
  6
Continuous
 62
     7
100
AcDbLine
 10
-268.8478088378906
 20
361.7651062011719
 30
0.0
 11
-268.8478088378906
 21
321.7651062011719
 31
0.0
  0
LINE
  5
16F
330
22
100
AcDbEntity
  8
0
  6
Continuous
 62
     7
100
AcDbLine
 10
-273.8478088378906
 20
327.7651062011719
 30
0.0
 11
-273.8478088378906
 21
304.7651062011719
 31
0.0
  0
LINE
  5
170
330
22
100
AcDbEntity
  8
0
  6
Continuous
 62
     7
100
AcDbLine
 10
-278.8478088378905
 20
361.7651062011719
 30
0.0
 11
-278.8478088378905
 21
338.7651062011719
 31
0.0
  0
LINE
  5
171
330
22
100
AcDbEntity
  8
0
  6
Continuous
 62
     7
100
AcDbLine
 10
-283.8478088378906
 20
361.7651062011719
 30
0.0
 11
-283.8478088378906
 21
321.7651062011719
 31
0.0
  0
LINE
  5
172
330
22
100
AcDbEntity
  8
0
  6
Continuous
 62
     7
100
AcDbLine
 10
-278.8478088378905
 20
327.7651062011719
 30
0.0
 11
-278.8478088378905
 21
304.7651062011719
 31
0.0
  0
LINE
  5
173
330
22
100
AcDbEntity
  8
0
  6
Continuous
 62
     7
100
AcDbLine
 10
-238.8478088378906
 20
327.7651062011719
 30
0.0
 11
-238.8478088378906
 21
304.7651062011719
 31
0.0
  0
LINE
  5
174
330
22
100
AcDbEntity
  8
0
  6
Continuous
 62
     7
100
AcDbLine
 10
-230.0716247558594
 20
367.4973754882813
 30
0.0
 11
-231.7665710449219
 21
365.2651062011719
 31
0.0
  0
LINE
  5
175
330
22
100
AcDbEntity
  8
0
  6
Continuous
 62
     7
100
AcDbLine
 10
-230.6301422119141
 20
362.50390625
 30
0.0
 11
-230.3583831787109
 21
362.7756652832031
 31
0.0
  0
LINE
  5
176
330
22
100
AcDbEntity
  8
0
  6
Continuous
 62
     7
100
AcDbLine
 10
-235.080078125
 20
362.4889221191406
 30
0.0
 11
-232.8478088378906
 21
364.1838684082031
 31
0.0
  0
LINE
  5
177
330
22
100
AcDbEntity
  8
0
  6
Continuous
 62
     7
100
AcDbLine
 10
-230.6301422119141
 20
362.50390625
 30
0.0
 11
-232.8478088378906
 21
364.1838684082031
 31
0.0
  0
LINE
  5
178
330
22
100
AcDbEntity
  8
0
  6
Continuous
 62
     7
100
AcDbLine
 10
-235.6090087890625
 20
367.4827880859375
 30
0.0
 11
-233.9290618896484
 21
365.2651062011719
 31
0.0
  0
LINE
  5
179
330
22
100
AcDbEntity
  8
0
  6
Continuous
 62
     7
100
AcDbLine
 10
-235.6240081787109
 20
363.0328369140625
 30
0.0
 11
-233.9290618896484
 21
365.2651062011719
 31
0.0
  0
LINE
  5
17A
330
22
100
AcDbEntity
  8
0
  6
Continuous
 62
     7
100
AcDbLine
 10
-235.3520355224609
 20
362.7608947753906
 30
0.0
 11
-235.080078125
 21
362.4889221191406
 31
0.0
  0
LINE
  5
17B
330
22
100
AcDbEntity
  8
0
  6
Continuous
 62
     7
100
AcDbLine
 10
-235.3520355224609
 20
362.7608947753906
 30
0.0
 11
-235.6240081787109
 21
363.0328369140625
 31
0.0
  0
LINE
  5
17C
330
22
100
AcDbEntity
  8
0
  6
Continuous
 62
     7
100
AcDbLine
 10
-235.3520355224609
 20
362.7608947753906
 30
0.0
 11
-235.6240081787109
 21
363.0328369140625
 31
0.0
  0
LINE
  5
17D
330
22
100
AcDbEntity
  8
0
  6
Continuous
 62
     7
100
AcDbLine
 10
-235.3520355224609
 20
362.7608947753906
 30
0.0
 11
-235.080078125
 21
362.4889221191406
 31
0.0
  0
LINE
  5
17E
330
22
100
AcDbEntity
  8
0
  6
Continuous
 62
     7
100
AcDbLine
 10
-230.6301422119141
 20
362.50390625
 30
0.0
 11
-230.3583831787109
 21
362.7756652832031
 31
0.0
  0
LINE
  5
17F
330
22
100
AcDbEntity
  8
0
  6
Continuous
 62
     7
100
AcDbLine
 10
-230.0866241455078
 20
363.0474243164063
 30
0.0
 11
-230.3583831787109
 21
362.7756652832031
 31
0.0
  0
LINE
  5
180
330
22
100
AcDbEntity
  8
0
  6
Continuous
 62
     7
100
AcDbLine
 10
-230.0866241455078
 20
363.0474243164063
 30
0.0
 11
-231.7665710449219
 21
365.2651062011719
 31
0.0
  0
LINE
  5
181
330
22
100
AcDbEntity
  8
0
  6
Continuous
 62
     7
100
AcDbLine
 10
-230.6155548095703
 20
368.0412902832031
 30
0.0
 11
-232.8478088378906
 21
366.3463439941406
 31
0.0
  0
LINE
  5
182
330
22
100
AcDbEntity
  8
0
  6
Continuous
 62
     7
100
AcDbLine
 10
-230.3435821533203
 20
367.7693176269531
 30
0.0
 11
-230.6155548095703
 21
368.0412902832031
 31
0.0
  0
LINE
  5
183
330
22
100
AcDbEntity
  8
0
  6
Continuous
 62
     7
100
AcDbLine
 10
-235.0654907226563
 20
368.0263061523438
 30
0.0
 11
-232.8478088378906
 21
366.3463439941406
 31
0.0
  0
LINE
  5
184
330
22
100
AcDbEntity
  8
0
  6
Continuous
 62
     7
100
AcDbLine
 10
-230.0866241455078
 20
363.0474243164063
 30
0.0
 11
-230.3583831787109
 21
362.7756652832031
 31
0.0
  0
LINE
  5
185
330
22
100
AcDbEntity
  8
0
  6
Continuous
 62
     7
100
AcDbLine
 10
-235.6240081787109
 20
363.0328369140625
 30
0.0
 11
-233.9290618896484
 21
365.2651062011719
 31
0.0
  0
LINE
  5
186
330
22
100
AcDbEntity
  8
0
  6
Continuous
 62
     7
100
AcDbLine
 10
-233.8478088378906
 20
327.7651062011719
 30
0.0
 11
-233.8478088378906
 21
304.7651062011719
 31
0.0
  0
LINE
  5
187
330
22
100
AcDbEntity
  8
0
  6
Continuous
 62
     7
100
AcDbLine
 10
-253.8478088378906
 20
327.7651062011719
 30
0.0
 11
-253.8478088378906
 21
304.7651062011719
 31
0.0
  0
LINE
  5
188
330
22
100
AcDbEntity
  8
0
  6
Continuous
 62
     7
100
AcDbLine
 10
-230.0866241455078
 20
363.0474243164063
 30
0.0
 11
-231.7665710449219
 21
365.2651062011719
 31
0.0
  0
LINE
  5
189
330
22
100
AcDbEntity
  8
0
  6
Continuous
 62
     7
100
AcDbLine
 10
-230.6301422119141
 20
362.50390625
 30
0.0
 11
-232.8478088378906
 21
364.1838684082031
 31
0.0
  0
LINE
  5
18A
330
22
100
AcDbEntity
  8
0
  6
Continuous
 62
     7
100
AcDbLine
 10
-235.6090087890625
 20
367.4827880859375
 30
0.0
 11
-235.3372497558594
 21
367.7545471191406
 31
0.0
  0
LINE
  5
18B
330
22
100
AcDbEntity
  8
0
  6
Continuous
 62
     7
100
AcDbLine
 10
-235.0654907226563
 20
368.0263061523438
 30
0.0
 11
-235.3372497558594
 21
367.7545471191406
 31
0.0
  0
LINE
  5
18C
330
22
100
AcDbEntity
  8
0
  6
Continuous
 62
     7
100
AcDbLine
 10
-235.6090087890625
 20
367.4827880859375
 30
0.0
 11
-235.3372497558594
 21
367.7545471191406
 31
0.0
  0
LINE
  5
18D
330
22
100
AcDbEntity
  8
0
  6
Continuous
 62
     7
100
AcDbLine
 10
-235.6090087890625
 20
367.4827880859375
 30
0.0
 11
-233.9290618896484
 21
365.2651062011719
 31
0.0
  0
LINE
  5
18E
330
22
100
AcDbEntity
  8
0
  6
Continuous
 62
     7
100
AcDbLine
 10
-235.0654907226563
 20
368.0263061523438
 30
0.0
 11
-232.8478088378906
 21
366.3463439941406
 31
0.0
  0
LINE
  5
18F
330
22
100
AcDbEntity
  8
0
  6
Continuous
 62
     7
100
AcDbLine
 10
-230.3435821533203
 20
367.7693176269531
 30
0.0
 11
-230.6155548095703
 21
368.0412902832031
 31
0.0
  0
LINE
  5
190
330
22
100
AcDbEntity
  8
0
  6
Continuous
 62
     7
100
AcDbLine
 10
-230.0716247558594
 20
367.4973754882813
 30
0.0
 11
-231.7665710449219
 21
365.2651062011719
 31
0.0
  0
LINE
  5
191
330
22
100
AcDbEntity
  8
0
  6
Continuous
 62
     7
100
AcDbLine
 10
-230.3435821533203
 20
367.7693176269531
 30
0.0
 11
-230.0716247558594
 21
367.4973754882813
 31
0.0
  0
LINE
  5
192
330
22
100
AcDbEntity
  8
0
  6
Continuous
 62
     7
100
AcDbLine
 10
-233.8478088378906
 20
355.7651062011719
 30
0.0
 11
-233.8478088378906
 21
338.7651062011719
 31
0.0
  0
LINE
  5
193
330
22
100
AcDbEntity
  8
0
  6
Continuous
 62
     7
100
AcDbLine
 10
-253.8478088378906
 20
361.7651062011719
 30
0.0
 11
-253.8478088378906
 21
338.7651062011719
 31
0.0
  0
LINE
  5
194
330
22
100
AcDbEntity
  8
0
  6
Continuous
 62
     7
100
AcDbLine
 10
-243.8478088378906
 20
361.7651062011719
 30
0.0
 11
-243.8478088378906
 21
321.7651062011719
 31
0.0
  0
LINE
  5
195
330
22
100
AcDbEntity
  8
0
  6
Continuous
 62
     7
100
AcDbLine
 10
-248.8478088378906
 20
361.7651062011719
 30
0.0
 11
-248.8478088378906
 21
321.7651062011719
 31
0.0
  0
LINE
  5
196
330
22
100
AcDbEntity
  8
0
  6
Continuous
 62
     7
100
AcDbLine
 10
-238.8478088378906
 20
355.7651062011719
 30
0.0
 11
-238.8478088378906
 21
338.7651062011719
 31
0.0
  0
LINE
  5
197
330
22
100
AcDbEntity
  8
0
  6
Continuous
 62
     7
100
AcDbLine
 10
-335.8478088378906
 20
111.173210144043
 30
0.0
 11
-237.8478088378906
 21
111.173210144043
 31
0.0
  0
LINE
  5
198
330
22
100
AcDbEntity
  8
0
  6
Continuous
 62
     7
100
AcDbLine
 10
-243.2530975341797
 20
87.7091064453125
 30
0.0
 11
-335.8478088378906
 21
87.7091064453125
 31
0.0
  0
LINE
  5
199
330
22
100
AcDbEntity
  8
0
  6
Continuous
 62
     7
100
AcDbLine
 10
-459.8478088378906
 20
117.673210144043
 30
0.0
 11
-211.8478088378906
 21
117.673210144043
 31
0.0
  0
LINE
  5
19A
330
22
100
AcDbEntity
  8
0
  6
Continuous
 62
     7
100
AcDbLine
 10
-335.8478088378906
 20
110.173210144043
 30
0.0
 11
-226.8478088378906
 21
110.173210144043
 31
0.0
  0
LINE
  5
19B
330
22
100
AcDbEntity
  8
0
  6
Continuous
 62
     7
100
AcDbLine
 10
-335.8478088378906
 20
112.8640823364258
 30
0.0
 11
-334.1569519042969
 21
111.173210144043
 31
0.0
  0
LINE
  5
19C
330
22
100
AcDbEntity
  8
0
  6
Continuous
 62
     7
100
AcDbLine
 10
-335.8478088378906
 20
117.106719970703
 30
0.0
 11
-329.914306640625
 21
111.173210144043
 31
0.0
  0
LINE
  5
19D
330
22
100
AcDbEntity
  8
0
  6
Continuous
 62
     7
100
AcDbLine
 10
-332.1716613769531
 20
117.673210144043
 30
0.0
 11
-325.6716613769531
 21
111.173210144043
 31
0.0
  0
LINE
  5
19E
330
22
100
AcDbEntity
  8
0
  6
Continuous
 62
     7
100
AcDbLine
 10
-327.9290161132813
 20
117.673210144043
 30
0.0
 11
-321.4290161132813
 21
111.173210144043
 31
0.0
  0
LINE
  5
19F
330
22
100
AcDbEntity
  8
0
  6
Continuous
 62
     7
100
AcDbLine
 10
-323.6863708496094
 20
117.673210144043
 30
0.0
 11
-317.1863708496094
 21
111.173210144043
 31
0.0
  0
LINE
  5
1A0
330
22
100
AcDbEntity
  8
0
  6
Continuous
 62
     7
100
AcDbLine
 10
-319.4437255859375
 20
117.673210144043
 30
0.0
 11
-312.9437255859375
 21
111.173210144043
 31
0.0
  0
LINE
  5
1A1
330
22
100
AcDbEntity
  8
0
  6
Continuous
 62
     7
100
AcDbLine
 10
-315.2011108398438
 20
117.673210144043
 30
0.0
 11
-308.7011108398438
 21
111.173210144043
 31
0.0
  0
LINE
  5
1A2
330
22
100
AcDbEntity
  8
0
  6
Continuous
 62
     7
100
AcDbLine
 10
-310.9584655761719
 20
117.673210144043
 30
0.0
 11
-304.4584655761719
 21
111.173210144043
 31
0.0
  0
LINE
  5
1A3
330
22
100
AcDbEntity
  8
0
  6
Continuous
 62
     7
100
AcDbLine
 10
-306.7158203125
 20
117.673210144043
 30
0.0
 11
-300.2158203125
 21
111.173210144043
 31
0.0
  0
LINE
  5
1A4
330
22
100
AcDbEntity
  8
0
  6
Continuous
 62
     7
100
AcDbLine
 10
-302.4731750488281
 20
117.673210144043
 30
0.0
 11
-295.9731750488281
 21
111.173210144043
 31
0.0
  0
LINE
  5
1A5
330
22
100
AcDbEntity
  8
0
  6
Continuous
 62
     7
100
AcDbLine
 10
-298.2305297851563
 20
117.673210144043
 30
0.0
 11
-291.7305297851563
 21
111.173210144043
 31
0.0
  0
LINE
  5
1A6
330
22
100
AcDbEntity
  8
0
  6
Continuous
 62
     7
100
AcDbLine
 10
-293.9878845214844
 20
117.673210144043
 30
0.0
 11
-287.4878845214844
 21
111.173210144043
 31
0.0
  0
LINE
  5
1A7
330
22
100
AcDbEntity
  8
0
  6
Continuous
 62
     7
100
AcDbLine
 10
-289.7452392578125
 20
117.673210144043
 30
0.0
 11
-283.2452392578125
 21
111.173210144043
 31
0.0
  0
LINE
  5
1A8
330
22
100
AcDbEntity
  8
0
  6
Continuous
 62
     7
100
AcDbLine
 10
-285.5026245117188
 20
117.673210144043
 30
0.0
 11
-279.0026245117188
 21
111.173210144043
 31
0.0
  0
LINE
  5
1A9
330
22
100
AcDbEntity
  8
0
  6
Continuous
 62
     7
100
AcDbLine
 10
-281.2599792480469
 20
117.673210144043
 30
0.0
 11
-274.7599792480469
 21
111.173210144043
 31
0.0
  0
LINE
  5
1AA
330
22
100
AcDbEntity
  8
0
  6
Continuous
 62
     7
100
AcDbLine
 10
-277.017333984375
 20
117.673210144043
 30
0.0
 11
-270.517333984375
 21
111.173210144043
 31
0.0
  0
LINE
  5
1AB
330
22
100
AcDbEntity
  8
0
  6
Continuous
 62
     7
100
AcDbLine
 10
-272.7746887207031
 20
117.673210144043
 30
0.0
 11
-266.2746887207031
 21
111.173210144043
 31
0.0
  0
LINE
  5
1AC
330
22
100
AcDbEntity
  8
0
  6
Continuous
 62
     7
100
AcDbLine
 10
-268.5320434570313
 20
117.673210144043
 30
0.0
 11
-262.0320434570313
 21
111.173210144043
 31
0.0
  0
LINE
  5
1AD
330
22
100
AcDbEntity
  8
0
  6
Continuous
 62
     7
100
AcDbLine
 10
-264.2893981933594
 20
117.673210144043
 30
0.0
 11
-257.7893981933594
 21
111.173210144043
 31
0.0
  0
LINE
  5
1AE
330
22
100
AcDbEntity
  8
0
  6
Continuous
 62
     7
100
AcDbLine
 10
-260.0467834472656
 20
117.673210144043
 30
0.0
 11
-253.5467681884766
 21
111.173210144043
 31
0.0
  0
LINE
  5
1AF
330
22
100
AcDbEntity
  8
0
  6
Continuous
 62
     7
100
AcDbLine
 10
-255.8041229248047
 20
117.673210144043
 30
0.0
 11
-249.3041229248047
 21
111.173210144043
 31
0.0
  0
LINE
  5
1B0
330
22
100
AcDbEntity
  8
0
  6
Continuous
 62
     7
100
AcDbLine
 10
-251.5614929199219
 20
117.673210144043
 30
0.0
 11
-245.0614929199219
 21
111.173210144043
 31
0.0
  0
LINE
  5
1B1
330
22
100
AcDbEntity
  8
0
  6
Continuous
 62
     7
100
AcDbLine
 10
-247.31884765625
 20
117.673210144043
 30
0.0
 11
-240.81884765625
 21
111.173210144043
 31
0.0
  0
LINE
  5
1B2
330
22
100
AcDbEntity
  8
0
  6
Continuous
 62
     7
100
AcDbLine
 10
-243.0762023925781
 20
117.673210144043
 30
0.0
 11
-235.5762023925781
 21
110.173210144043
 31
0.0
  0
LINE
  5
1B3
330
22
100
AcDbEntity
  8
0
  6
Continuous
 62
     7
100
AcDbLine
 10
-238.8335723876953
 20
117.673210144043
 30
0.0
 11
-235.0978088378906
 21
113.9374542236328
 31
0.0
  0
LINE
  5
1B4
330
22
100
AcDbEntity
  8
0
  6
Continuous
 62
     7
100
AcDbLine
 10
-230.5978088378906
 20
113.6800994873047
 30
0.0
 11
-227.0909271240234
 21
110.173210144043
 31
0.0
  0
LINE
  5
1B5
330
22
100
AcDbEntity
  8
0
  6
Continuous
 62
     7
100
AcDbLine
 10
-229.3480529785156
 20
116.6729736328125
 30
0.0
 11
-225.8478088378906
 21
113.172737121582
 31
0.0
  0
LINE
  5
1B6
330
22
100
AcDbEntity
  8
0
  6
Continuous
 62
     7
100
AcDbLine
 10
-226.1056365966797
 20
117.673210144043
 30
0.0
 11
-225.8478088378906
 21
117.4153823852539
 31
0.0
  0
LINE
  5
1B7
330
22
100
AcDbEntity
  8
0
  6
Continuous
 62
     7
100
AcDbLine
 10
-335.8478088378906
 20
114.9853973388672
 30
0.0
 11
-332.0356140136719
 21
111.173210144043
 31
0.0
  0
LINE
  5
1B8
330
22
100
AcDbEntity
  8
0
  6
Continuous
 62
     7
100
AcDbLine
 10
-334.29296875
 20
117.673210144043
 30
0.0
 11
-327.79296875
 21
111.173210144043
 31
0.0
  0
LINE
  5
1B9
330
22
100
AcDbEntity
  8
0
  6
Continuous
 62
     7
100
AcDbLine
 10
-330.0503540039063
 20
117.673210144043
 30
0.0
 11
-323.5503540039063
 21
111.173210144043
 31
0.0
  0
LINE
  5
1BA
330
22
100
AcDbEntity
  8
0
  6
Continuous
 62
     7
100
AcDbLine
 10
-325.8077087402344
 20
117.673210144043
 30
0.0
 11
-319.3077087402344
 21
111.173210144043
 31
0.0
  0
LINE
  5
1BB
330
22
100
AcDbEntity
  8
0
  6
Continuous
 62
     7
100
AcDbLine
 10
-321.5650634765625
 20
117.673210144043
 30
0.0
 11
-315.0650634765625
 21
111.173210144043
 31
0.0
  0
LINE
  5
1BC
330
22
100
AcDbEntity
  8
0
  6
Continuous
 62
     7
100
AcDbLine
 10
-317.3224182128906
 20
117.673210144043
 30
0.0
 11
-310.8224182128906
 21
111.173210144043
 31
0.0
  0
LINE
  5
1BD
330
22
100
AcDbEntity
  8
0
  6
Continuous
 62
     7
100
AcDbLine
 10
-313.0797729492188
 20
117.673210144043
 30
0.0
 11
-306.5797729492188
 21
111.173210144043
 31
0.0
  0
LINE
  5
1BE
330
22
100
AcDbEntity
  8
0
  6
Continuous
 62
     7
100
AcDbLine
 10
-308.8371276855469
 20
117.673210144043
 30
0.0
 11
-302.3371276855469
 21
111.173210144043
 31
0.0
  0
LINE
  5
1BF
330
22
100
AcDbEntity
  8
0
  6
Continuous
 62
     7
100
AcDbLine
 10
-304.594482421875
 20
117.673210144043
 30
0.0
 11
-298.094482421875
 21
111.173210144043
 31
0.0
  0
LINE
  5
1C0
330
22
100
AcDbEntity
  8
0
  6
Continuous
 62
     7
100
AcDbLine
 10
-300.3518676757813
 20
117.673210144043
 30
0.0
 11
-293.8518676757813
 21
111.173210144043
 31
0.0
  0
LINE
  5
1C1
330
22
100
AcDbEntity
  8
0
  6
Continuous
 62
     7
100
AcDbLine
 10
-296.1092224121094
 20
117.673210144043
 30
0.0
 11
-289.6092224121094
 21
111.173210144043
 31
0.0
  0
LINE
  5
1C2
330
22
100
AcDbEntity
  8
0
  6
Continuous
 62
     7
100
AcDbLine
 10
-291.8665771484375
 20
117.673210144043
 30
0.0
 11
-285.3665771484375
 21
111.173210144043
 31
0.0
  0
LINE
  5
1C3
330
22
100
AcDbEntity
  8
0
  6
Continuous
 62
     7
100
AcDbLine
 10
-287.6239318847656
 20
117.673210144043
 30
0.0
 11
-281.1239318847656
 21
111.173210144043
 31
0.0
  0
LINE
  5
1C4
330
22
100
AcDbEntity
  8
0
  6
Continuous
 62
     7
100
AcDbLine
 10
-283.3812866210938
 20
117.673210144043
 30
0.0
 11
-276.8812866210938
 21
111.173210144043
 31
0.0
  0
LINE
  5
1C5
330
22
100
AcDbEntity
  8
0
  6
Continuous
 62
     7
100
AcDbLine
 10
-279.1386413574219
 20
117.673210144043
 30
0.0
 11
-272.6386413574219
 21
111.173210144043
 31
0.0
  0
LINE
  5
1C6
330
22
100
AcDbEntity
  8
0
  6
Continuous
 62
     7
100
AcDbLine
 10
-274.89599609375
 20
117.673210144043
 30
0.0
 11
-268.39599609375
 21
111.173210144043
 31
0.0
  0
LINE
  5
1C7
330
22
100
AcDbEntity
  8
0
  6
Continuous
 62
     7
100
AcDbLine
 10
-270.6533813476563
 20
117.673210144043
 30
0.0
 11
-264.1533813476563
 21
111.173210144043
 31
0.0
  0
LINE
  5
1C8
330
22
100
AcDbEntity
  8
0
  6
Continuous
 62
     7
100
AcDbLine
 10
-266.4107360839844
 20
117.673210144043
 30
0.0
 11
-259.9107360839844
 21
111.173210144043
 31
0.0
  0
LINE
  5
1C9
330
22
100
AcDbEntity
  8
0
  6
Continuous
 62
     7
100
AcDbLine
 10
-262.1680908203125
 20
117.673210144043
 30
0.0
 11
-255.6680908203125
 21
111.173210144043
 31
0.0
  0
LINE
  5
1CA
330
22
100
AcDbEntity
  8
0
  6
Continuous
 62
     7
100
AcDbLine
 10
-257.9254455566406
 20
117.673210144043
 30
0.0
 11
-251.4254455566406
 21
111.173210144043
 31
0.0
  0
LINE
  5
1CB
330
22
100
AcDbEntity
  8
0
  6
Continuous
 62
     7
100
AcDbLine
 10
-253.6828002929688
 20
117.673210144043
 30
0.0
 11
-247.1828002929688
 21
111.173210144043
 31
0.0
  0
LINE
  5
1CC
330
22
100
AcDbEntity
  8
0
  6
Continuous
 62
     7
100
AcDbLine
 10
-249.4401702880859
 20
117.673210144043
 30
0.0
 11
-242.9401702880859
 21
111.173210144043
 31
0.0
  0
LINE
  5
1CD
330
22
100
AcDbEntity
  8
0
  6
Continuous
 62
     7
100
AcDbLine
 10
-245.1975250244141
 20
117.673210144043
 30
0.0
 11
-238.6975250244141
 21
111.173210144043
 31
0.0
  0
LINE
  5
1CE
330
22
100
AcDbEntity
  8
0
  6
Continuous
 62
     7
100
AcDbLine
 10
-237.8478088378906
 20
110.3234939575195
 30
0.0
 11
-237.6975250244141
 21
110.173210144043
 31
0.0
  0
LINE
  5
1CF
330
22
100
AcDbEntity
  8
0
  6
Continuous
 62
     7
100
AcDbLine
 10
-240.9548797607422
 20
117.673210144043
 30
0.0
 11
-235.0978088378906
 21
111.8161392211914
 31
0.0
  0
LINE
  5
1D0
330
22
100
AcDbEntity
  8
0
  6
Continuous
 62
     7
100
AcDbLine
 10
-230.5978088378906
 20
111.5587768554688
 30
0.0
 11
-229.2122497558594
 21
110.173210144043
 31
0.0
  0
LINE
  5
1D1
330
22
100
AcDbEntity
  8
0
  6
Continuous
 62
     7
100
AcDbLine
 10
-230.4087066650391
 20
115.6123123168945
 30
0.0
 11
-225.8680267333984
 21
111.0716247558594
 31
0.0
  0
LINE
  5
1D2
330
22
100
AcDbEntity
  8
0
  6
Continuous
 62
     7
100
AcDbLine
 10
-228.2269592285156
 20
117.673210144043
 30
0.0
 11
-225.8478088378906
 21
115.294059753418
 31
0.0
  0
LINE
  5
1D3
330
22
100
AcDbEntity
  8
0
  6
Continuous
 62
     7
100
AcDbLine
 10
-223.3478088378906
 20
91.22982788085938
 30
0.0
 11
-305.8478088378906
 21
43.59843444824218
 31
0.0
  0
LINE
  5
1D4
330
22
100
AcDbEntity
  8
0
  6
Continuous
 62
     7
100
AcDbLine
 10
-240.3478088378906
 20
86.03367614746094
 30
0.0
 11
-314.3478088378906
 21
43.30976104736328
 31
0.0
  0
LINE
  5
1D5
330
22
100
AcDbEntity
  8
0
  6
Continuous
 62
     7
100
AcDbLine
 10
-229.4707641601563
 20
87.69474029541015
 30
0.0
 11
-220.8478088378906
 21
96.31769561767578
 31
0.0
  0
LINE
  5
1D6
330
22
100
AcDbEntity
  8
0
  6
Continuous
 62
     7
100
AcDbLine
 10
-236.1629028320313
 20
83.83103942871093
 30
0.0
 11
-220.8478088378906
 21
99.14612579345705
 31
0.0
  0
LINE
  5
1D7
330
22
100
AcDbEntity
  8
0
  6
Continuous
 62
     7
100
AcDbLine
 10
-242.8550262451172
 20
79.96733093261719
 30
0.0
 11
-220.8478088378906
 21
101.9745483398438
 31
0.0
  0
LINE
  5
1D8
330
22
100
AcDbEntity
  8
0
  6
Continuous
 62
     7
100
AcDbLine
 10
-249.5471649169922
 20
76.10363006591796
 30
0.0
 11
-220.8478088378906
 21
104.802978515625
 31
0.0
  0
LINE
  5
1D9
330
22
100
AcDbEntity
  8
0
  6
Continuous
 62
     7
100
AcDbLine
 10
-211.9775848388672
 20
113.673210144043
 30
0.0
 11
-210.8478088378906
 21
114.802978515625
 31
0.0
  0
LINE
  5
1DA
330
22
100
AcDbEntity
  8
0
  6
Continuous
 62
     7
100
AcDbLine
 10
-256.239288330078
 20
72.23992919921875
 30
0.0
 11
-245.3110961914063
 21
83.16812896728515
 31
0.0
  0
LINE
  5
1DB
330
22
100
AcDbEntity
  8
0
  6
Continuous
 62
     7
100
AcDbLine
 10
-237.8478088378906
 20
90.63140869140623
 30
0.0
 11
-232.8478088378906
 21
95.63140869140623
 31
0.0
  0
LINE
  5
1DC
330
22
100
AcDbEntity
  8
0
  6
Continuous
 62
     7
100
AcDbLine
 10
-232.8478088378906
 20
95.63140869140623
 30
0.0
 11
-220.8478088378906
 21
107.6314086914063
 31
0.0
  0
LINE
  5
1DD
330
22
100
AcDbEntity
  8
0
  6
Continuous
 62
     7
100
AcDbLine
 10
-214.8060150146484
 20
113.673210144043
 30
0.0
 11
-211.1284637451172
 21
117.3507537841797
 31
0.0
  0
LINE
  5
1DE
330
22
100
AcDbEntity
  8
0
  6
Continuous
 62
     7
100
AcDbLine
 10
-262.9314270019531
 20
68.376220703125
 30
0.0
 11
-252.0032196044922
 21
79.30442810058593
 31
0.0
  0
LINE
  5
1DF
330
22
100
AcDbEntity
  8
0
  6
Continuous
 62
     7
100
AcDbLine
 10
-237.8478088378906
 20
93.45983123779296
 30
0.0
 11
-233.8661346435547
 21
97.44152069091796
 31
0.0
  0
LINE
  5
1E0
330
22
100
AcDbEntity
  8
0
  6
Continuous
 62
     7
100
AcDbLine
 10
-230.8478088378906
 20
100.459831237793
 30
0.0
 11
-220.8478088378906
 21
110.459831237793
 31
0.0
  0
LINE
  5
1E1
330
22
100
AcDbEntity
  8
0
  6
Continuous
 62
     7
100
AcDbLine
 10
-217.6344451904297
 20
113.673210144043
 30
0.0
 11
-213.6344451904297
 21
117.673210144043
 31
0.0
  0
LINE
  5
1E2
330
22
100
AcDbEntity
  8
0
  6
Continuous
 62
     7
100
AcDbLine
 10
-311.4628601074219
 20
22.67320823669434
 30
0.0
 11
-308.3478088378906
 21
25.78825950622559
 31
0.0
  0
LINE
  5
1E3
330
22
100
AcDbEntity
  8
0
  6
Continuous
 62
     7
100
AcDbLine
 10
-269.6235656738281
 20
64.51251983642578
 30
0.0
 11
-258.6953430175781
 21
75.44072723388672
 31
0.0
  0
LINE
  5
1E4
330
22
100
AcDbEntity
  8
0
  6
Continuous
 62
     7
100
AcDbLine
 10
-237.8478088378906
 20
96.28826141357421
 30
0.0
 11
-234.5978088378906
 21
99.53826141357422
 31
0.0
  0
LINE
  5
1E5
330
22
100
AcDbEntity
  8
0
  6
Continuous
 62
     7
100
AcDbLine
 10
-230.8478088378906
 20
103.2882614135742
 30
0.0
 11
-216.4628753662109
 21
117.673210144043
 31
0.0
  0
LINE
  5
1E6
330
22
100
AcDbEntity
  8
0
  6
Continuous
 62
     7
100
AcDbLine
 10
-311.9986572265625
 20
24.96583557128906
 30
0.0
 11
-308.3478088378906
 21
28.6166877746582
 31
0.0
  0
LINE
  5
1E7
330
22
100
AcDbEntity
  8
0
  6
Continuous
 62
     7
100
AcDbLine
 10
-276.315673828125
 20
60.64881896972656
 30
0.0
 11
-265.3874816894531
 21
71.57701873779297
 31
0.0
  0
LINE
  5
1E8
330
22
100
AcDbEntity
  8
0
  6
Continuous
 62
     7
100
AcDbLine
 10
-237.8478088378906
 20
99.11668395996095
 30
0.0
 11
-234.8478088378906
 21
102.1166839599609
 31
0.0
  0
LINE
  5
1E9
330
22
100
AcDbEntity
  8
0
  6
Continuous
 62
     7
100
AcDbLine
 10
-230.8478088378906
 20
106.1166839599609
 30
0.0
 11
-226.7513275146484
 21
110.2131729125977
 31
0.0
  0
LINE
  5
1EA
330
22
100
AcDbEntity
  8
0
  6
Continuous
 62
     7
100
AcDbLine
 10
-225.8877868652344
 20
111.0767211914063
 30
0.0
 11
-219.2912902832031
 21
117.673210144043
 31
0.0
  0
LINE
  5
1EB
330
22
100
AcDbEntity
  8
0
  6
Continuous
 62
     7
100
AcDbLine
 10
-312.0811157226563
 20
27.71181678771973
 30
0.0
 11
-308.3478088378906
 21
31.44511413574219
 31
0.0
  0
LINE
  5
1EC
330
22
100
AcDbEntity
  8
0
  6
Continuous
 62
     7
100
AcDbLine
 10
-283.0078125
 20
56.78511428833008
 30
0.0
 11
-272.0796203613281
 21
67.71331787109375
 31
0.0
  0
LINE
  5
1ED
330
22
100
AcDbEntity
  8
0
  6
Continuous
 62
     7
100
AcDbLine
 10
-237.8478088378906
 20
101.9451141357422
 30
0.0
 11
-234.8478088378906
 21
104.9451141357422
 31
0.0
  0
LINE
  5
1EE
330
22
100
AcDbEntity
  8
0
  6
Continuous
 62
     7
100
AcDbLine
 10
-230.8478088378906
 20
108.9451141357422
 30
0.0
 11
-229.6197204589844
 21
110.173210144043
 31
0.0
  0
LINE
  5
1EF
330
22
100
AcDbEntity
  8
0
  6
Continuous
 62
     7
100
AcDbLine
 10
-225.8478088378906
 20
113.9451141357422
 30
0.0
 11
-222.1197204589844
 21
117.673210144043
 31
0.0
  0
LINE
  5
1F0
330
22
100
AcDbEntity
  8
0
  6
Continuous
 62
     7
100
AcDbLine
 10
-312.16357421875
 20
30.45779609680176
 30
0.0
 11
-308.3478088378906
 21
34.27354049682617
 31
0.0
  0
LINE
  5
1F1
330
22
100
AcDbEntity
  8
0
  6
Continuous
 62
     7
100
AcDbLine
 10
-289.699951171875
 20
52.92140960693359
 30
0.0
 11
-278.771728515625
 21
63.84961318969727
 31
0.0
  0
LINE
  5
1F2
330
22
100
AcDbEntity
  8
0
  6
Continuous
 62
     7
100
AcDbLine
 10
-237.8478088378906
 20
104.7735443115234
 30
0.0
 11
-234.8478088378906
 21
107.7735443115234
 31
0.0
  0
LINE
  5
1F3
330
22
100
AcDbEntity
  8
0
  6
Continuous
 62
     7
100
AcDbLine
 10
-225.8478088378906
 20
116.7735443115234
 30
0.0
 11
-224.9481506347656
 21
117.673210144043
 31
0.0
  0
LINE
  5
1F4
330
22
100
AcDbEntity
  8
0
  6
Continuous
 62
     7
100
AcDbLine
 10
-312.2460021972656
 20
33.20377731323242
 30
0.0
 11
-308.3478088378906
 21
37.10197067260742
 31
0.0
  0
LINE
  5
1F5
330
22
100
AcDbEntity
  8
0
  6
Continuous
 62
     7
100
AcDbLine
 10
-296.39208984375
 20
49.05770874023438
 30
0.0
 11
-285.4638671875
 21
59.98591232299805
 31
0.0
  0
LINE
  5
1F6
330
22
100
AcDbEntity
  8
0
  6
Continuous
 62
     7
100
AcDbLine
 10
-237.8478088378906
 20
107.6019668579102
 30
0.0
 11
-235.2765808105469
 21
110.173210144043
 31
0.0
  0
LINE
  5
1F7
330
22
100
AcDbEntity
  8
0
  6
Continuous
 62
     7
100
AcDbLine
 10
-312.3779602050781
 20
35.90023803710938
 30
0.0
 11
-308.2701110839844
 21
40.00811004638672
 31
0.0
  0
LINE
  5
1F8
330
22
100
AcDbEntity
  8
0
  6
Continuous
 62
     7
100
AcDbLine
 10
-303.0841979980469
 20
45.19400405883788
 30
0.0
 11
-292.156005859375
 21
56.12220764160156
 31
0.0
  0
LINE
  5
1F9
330
22
100
AcDbEntity
  8
0
  6
Continuous
 62
     7
100
AcDbLine
 10
-312.5026245117188
 20
38.60402297973633
 30
0.0
 11
-298.84814453125
 21
52.25850296020507
 31
0.0
  0
LINE
  5
1FA
330
22
100
AcDbEntity
  8
0
  6
Continuous
 62
     7
100
AcDbLine
 10
-313.9168395996094
 20
40.01823806762695
 30
0.0
 11
-305.5402526855469
 21
48.39480209350586
 31
0.0
  0
LINE
  5
1FB
330
22
100
AcDbEntity
  8
0
  6
Continuous
 62
     7
100
AcDbLine
 10
-314.8478088378906
 20
41.91567611694336
 30
0.0
 11
-312.2323913574219
 21
44.53109741210938
 31
0.0
  0
LINE
  5
1FC
330
22
100
AcDbEntity
  8
0
  6
CENTER
 62
     7
100
AcDbLine
 10
-335.8478088378906
 20
17.68450927734375
 30
0.0
 11
-335.8478088378906
 21
122.0066909790039
 31
0.0
  0
LINE
  5
1FD
330
22
100
AcDbEntity
  8
0
  6
Continuous
 62
     7
100
AcDbLine
 10
-448.3478088378906
 20
91.22982788085938
 30
0.0
 11
-365.8478088378906
 21
43.59843444824218
 31
0.0
  0
LINE
  5
1FE
330
22
100
AcDbEntity
  8
0
  6
Continuous
 62
     7
100
AcDbLine
 10
-459.8478088378906
 20
113.673210144043
 30
0.0
 11
-335.8478088378906
 21
113.673210144043
 31
0.0
  0
LINE
  5
1FF
330
22
100
AcDbEntity
  8
0
  6
Continuous
 62
     7
100
AcDbLine
 10
-445.8478088378906
 20
92.67321014404295
 30
0.0
 11
-335.8478088378906
 21
92.67321014404295
 31
0.0
  0
LINE
  5
200
330
22
100
AcDbEntity
  8
0
  6
Continuous
 62
     7
100
AcDbLine
 10
-450.8478088378906
 20
95.55995941162107
 30
0.0
 11
-450.8478088378906
 21
112.673210144043
 31
0.0
  0
LINE
  5
201
330
22
100
AcDbEntity
  8
0
  6
Continuous
 62
     7
100
AcDbLine
 10
-351.5424194335938
 20
40.1707534790039
 30
0.0
 11
-335.8478088378906
 21
40.1707534790039
 31
0.0
  0
LINE
  5
202
330
22
100
AcDbEntity
  8
0
  6
Continuous
 62
     7
100
AcDbLine
 10
-364.3595275878906
 20
42.28385162353515
 30
0.0
 11
-335.8478088378906
 21
42.28385162353515
 31
0.0
  0
LINE
  5
203
330
22
100
AcDbEntity
  8
0
  6
Continuous
 62
     7
100
AcDbLine
 10
-362.3478088378906
 20
22.67320823669434
 30
0.0
 11
-335.8478088378906
 21
22.67320823669434
 31
0.0
  0
LINE
  5
204
330
22
100
AcDbEntity
  8
0
  6
Continuous
 62
     7
100
AcDbLine
 10
-335.8478088378906
 20
22.67320823669434
 30
0.0
 11
-309.3478088378906
 21
22.67320823669434
 31
0.0
  0
LINE
  5
205
330
22
100
AcDbEntity
  8
0
  6
Continuous
 62
     7
100
AcDbLine
 10
-313.5195007324219
 20
24.196533203125
 30
0.0
 11
-314.01708984375
 21
40.11848449707031
 31
0.0
  0
LINE
  5
206
330
22
100
AcDbEntity
  8
0
  6
Continuous
 62
     7
100
AcDbLine
 10
-314.034423828125
 20
40.13582229614257
 30
0.0
 11
-314.3478088378906
 21
40.13582229614257
 31
0.0
  0
LINE
  5
207
330
22
100
AcDbEntity
  8
0
  6
Continuous
 62
     7
100
AcDbLine
 10
-308.3478088378906
 20
23.67320823669434
 30
0.0
 11
-308.3478088378906
 21
39.26830673217773
 31
0.0
  0
LINE
  5
208
330
22
100
AcDbEntity
  8
0
  6
Continuous
 62
     7
100
AcDbLine
 10
-309.3478088378906
 20
22.67320823669434
 30
0.0
 11
-308.3478088378906
 21
23.67320823669434
 31
0.0
  0
LINE
  5
209
330
22
100
AcDbEntity
  8
0
  6
Continuous
 62
     7
100
AcDbLine
 10
-311.9478149414063
 20
22.67320823669434
 30
0.0
 11
-313.4711303710938
 21
24.196533203125
 31
0.0
  0
LINE
  5
20A
330
22
100
AcDbEntity
  8
0
  6
Continuous
 62
     7
100
AcDbLine
 10
-311.9478149414063
 20
22.67320823669434
 30
0.0
 11
-312.461181640625
 21
38.56258392333984
 31
0.0
  0
LINE
  5
20B
330
22
100
AcDbEntity
  8
0
  6
Continuous
 62
     7
100
AcDbLine
 10
-335.8478088378906
 20
24.24644279479981
 30
0.0
 11
-313.5210571289063
 21
24.24644279479981
 31
0.0
  0
LINE
  5
20C
330
22
100
AcDbEntity
  8
0
  6
Continuous
 62
     7
100
AcDbLine
 10
-314.8478088378906
 20
41.13582229614258
 30
0.0
 11
-314.8478088378906
 21
42.44373321533203
 31
0.0
  0
LINE
  5
20D
330
22
100
AcDbEntity
  8
0
  6
Continuous
 62
     7
100
AcDbLine
 10
-314.8478088378906
 20
41.13582229614258
 30
0.0
 11
-314.8478088378906
 21
40.63582229614257
 31
0.0
  0
LINE
  5
20E
330
22
100
AcDbEntity
  8
0
  6
Continuous
 62
     7
100
AcDbLine
 10
-314.034423828125
 20
40.13582229614257
 30
0.0
 11
-312.461181640625
 21
38.56258392333984
 31
0.0
  0
LINE
  5
20F
330
22
100
AcDbEntity
  8
0
  6
Continuous
 62
     7
100
AcDbLine
 10
-460.8478088378906
 20
116.673210144043
 30
0.0
 11
-460.8478088378906
 21
114.673210144043
 31
0.0
  0
LINE
  5
210
330
22
100
AcDbEntity
  8
0
  6
Continuous
 62
     7
100
AcDbLine
 10
-314.3478088378906
 20
40.13582229614257
 30
0.0
 11
-335.8478088378906
 21
40.13582229614257
 31
0.0
  0
LINE
  5
211
330
22
100
AcDbEntity
  8
0
  6
Continuous
 62
     7
100
AcDbLine
 10
-315.2052612304688
 20
43.00591278076171
 30
0.0
 11
-335.8478088378906
 21
43.00591278076171
 31
0.0
  0
LINE
  5
212
330
22
100
AcDbEntity
  8
0
  6
Continuous
 62
     7
100
AcDbLine
 10
-362.7041015625
 20
40.1707534790039
 30
0.0
 11
-357.2120361328125
 21
40.1707534790039
 31
0.0
  0
LINE
  5
213
330
22
100
AcDbEntity
  8
0
  6
Continuous
 62
     7
100
AcDbLine
 10
-356.5861511230469
 20
22.67320823669434
 30
0.0
 11
-356.5861511230469
 21
41.1484375
 31
0.0
  0
LINE
  5
214
330
22
100
AcDbEntity
  8
0
  6
Continuous
 62
     7
100
AcDbLine
 10
-363.3478088378906
 20
23.67320823669434
 30
0.0
 11
-363.3478088378906
 21
39.26830673217773
 31
0.0
  0
LINE
  5
215
330
22
100
AcDbEntity
  8
0
  6
Continuous
 62
     7
100
AcDbLine
 10
-363.3478088378906
 20
23.67320823669434
 30
0.0
 11
-357.0937805175781
 21
23.67320823669434
 31
0.0
  0
LINE
  5
216
330
22
100
AcDbEntity
  8
0
  6
Continuous
 62
     7
100
AcDbLine
 10
-362.3478088378906
 20
22.67320823669434
 30
0.0
 11
-363.3478088378906
 21
23.67320823669434
 31
0.0
  0
LINE
  5
217
330
22
100
AcDbEntity
  8
0
  6
Continuous
 62
     7
100
AcDbLine
 10
-351.8509826660156
 20
23.67320823669434
 30
0.0
 11
-335.8478088378906
 21
23.67320823669434
 31
0.0
  0
LINE
  5
218
330
22
100
AcDbEntity
  8
0
  6
Continuous
 62
     7
100
AcDbLine
 10
-352.5226745605469
 20
22.67320823669434
 30
0.0
 11
-352.5226745605469
 21
41.1484375
 31
0.0
  0
LINE
  5
219
330
22
100
AcDbEntity
  8
0
  6
Continuous
 62
     7
100
AcDbLine
 10
-235.0978088378906
 20
115.423210144043
 30
0.0
 11
-234.8478088378906
 21
115.173210144043
 31
0.0
  0
LINE
  5
21A
330
22
100
AcDbEntity
  8
0
  6
Continuous
 62
     7
100
AcDbLine
 10
-210.8478088378906
 20
116.673210144043
 30
0.0
 11
-210.8478088378906
 21
114.673210144043
 31
0.0
  0
LINE
  5
21B
330
22
100
AcDbEntity
  8
0
  6
Continuous
 62
     7
100
AcDbLine
 10
-219.8478088378906
 20
113.673210144043
 30
0.0
 11
-211.8478088378906
 21
113.673210144043
 31
0.0
  0
LINE
  5
21C
330
22
100
AcDbEntity
  8
0
  6
Continuous
 62
     7
100
AcDbLine
 10
-225.8478088378906
 20
117.673210144043
 30
0.0
 11
-225.8478088378906
 21
111.173210144043
 31
0.0
  0
LINE
  5
21D
330
22
100
AcDbEntity
  8
0
  6
Continuous
 62
     7
100
AcDbLine
 10
-234.8478088378906
 20
100.173210144043
 30
0.0
 11
-230.8478088378906
 21
100.173210144043
 31
0.0
  0
LINE
  5
21E
330
22
100
AcDbEntity
  8
0
  6
Continuous
 62
     7
100
AcDbLine
 10
-232.8478088378906
 20
96.42321014404295
 30
0.0
 11
-231.0978088378906
 21
98.17321014404296
 31
0.0
  0
LINE
  5
21F
330
22
100
AcDbEntity
  8
0
  6
Continuous
 62
     7
100
AcDbLine
 10
-234.5978088378906
 20
98.17321014404296
 30
0.0
 11
-232.8478088378906
 21
96.42321014404295
 31
0.0
  0
LINE
  5
220
330
22
100
AcDbEntity
  8
0
  6
Continuous
 62
     7
100
AcDbLine
 10
-237.8478088378906
 20
110.173210144043
 30
0.0
 11
-237.8478088378906
 21
111.173210144043
 31
0.0
  0
LINE
  5
221
330
22
100
AcDbEntity
  8
0
  6
Continuous
 62
     7
100
AcDbLine
 10
-230.5978088378906
 20
110.173210144043
 30
0.0
 11
-230.5978088378906
 21
115.423210144043
 31
0.0
  0
LINE
  5
222
330
22
100
AcDbEntity
  8
0
  6
Continuous
 62
     7
100
AcDbLine
 10
-235.0978088378906
 20
110.173210144043
 30
0.0
 11
-235.0978088378906
 21
115.423210144043
 31
0.0
  0
LINE
  5
223
330
22
100
AcDbEntity
  8
0
  6
Continuous
 62
     7
100
AcDbLine
 10
-234.8478088378906
 20
115.173210144043
 30
0.0
 11
-234.8478088378906
 21
110.173210144043
 31
0.0
  0
LINE
  5
224
330
22
100
AcDbEntity
  8
0
  6
Continuous
 62
     7
100
AcDbLine
 10
-230.8478088378906
 20
115.173210144043
 30
0.0
 11
-230.8478088378906
 21
110.173210144043
 31
0.0
  0
LINE
  5
225
330
22
100
AcDbEntity
  8
0
  6
Continuous
 62
     7
100
AcDbLine
 10
-231.0978088378906
 20
110.173210144043
 30
0.0
 11
-231.0978088378906
 21
98.17321014404296
 31
0.0
  0
LINE
  5
226
330
22
100
AcDbEntity
  8
0
  6
Continuous
 62
     7
100
AcDbLine
 10
-237.8478088378906
 20
110.173210144043
 30
0.0
 11
-237.8478088378906
 21
90.36380767822265
 31
0.0
  0
LINE
  5
227
330
22
100
AcDbEntity
  8
0
  6
Continuous
 62
     7
100
AcDbLine
 10
-234.8478088378906
 20
110.173210144043
 30
0.0
 11
-234.8478088378906
 21
100.173210144043
 31
0.0
  0
LINE
  5
228
330
22
100
AcDbEntity
  8
0
  6
Continuous
 62
     7
100
AcDbLine
 10
-230.8478088378906
 20
110.173210144043
 30
0.0
 11
-230.8478088378906
 21
100.173210144043
 31
0.0
  0
LINE
  5
229
330
22
100
AcDbEntity
  8
0
  6
Continuous
 62
     7
100
AcDbLine
 10
-220.8478088378906
 20
95.55995941162107
 30
0.0
 11
-220.8478088378906
 21
112.673210144043
 31
0.0
  0
LINE
  5
22A
330
22
100
AcDbEntity
  8
0
  6
Continuous
 62
     7
100
AcDbLine
 10
-234.5978088378906
 20
110.173210144043
 30
0.0
 11
-234.5978088378906
 21
98.17321014404296
 31
0.0
  0
LINE
  5
22B
330
22
100
AcDbEntity
  8
0
  6
CENTER
 62
     7
100
AcDbLine
 10
-232.8478088378906
 20
120.2131805419922
 30
0.0
 11
-232.8478088378906
 21
93.58414459228516
 31
0.0
  0
LINE
  5
22C
330
22
100
AcDbEntity
  8
0
  6
Continuous
 62
     7
100
AcDbLine
 10
-237.3478088378906
 20
117.673210144043
 30
0.0
 11
-235.0978088378906
 21
115.423210144043
 31
0.0
  0
LINE
  5
22D
330
22
100
AcDbEntity
  8
0
  6
Continuous
 62
     7
100
AcDbLine
 10
-228.3478088378906
 20
117.673210144043
 30
0.0
 11
-230.5978088378906
 21
115.423210144043
 31
0.0
  0
LINE
  5
22E
330
22
100
AcDbEntity
  8
0
  6
Continuous
 62
     7
100
AcDbLine
 10
-234.8478088378906
 20
115.173210144043
 30
0.0
 11
-230.8478088378906
 21
115.173210144043
 31
0.0
  0
LINE
  5
22F
330
22
100
AcDbEntity
  8
0
  6
Continuous
 62
     7
100
AcDbLine
 10
-230.5978088378906
 20
115.423210144043
 30
0.0
 11
-230.8478088378906
 21
115.173210144043
 31
0.0
  0
LINE
  5
230
330
22
100
AcDbEntity
  8
0
  6
Continuous
 62
     7
100
AcDbLine
 10
-333.0866088867188
 20
157.0219116210938
 30
0.0
 11
-333.3583679199219
 21
156.7501373291016
 31
0.0
  0
LINE
  5
231
330
22
100
AcDbEntity
  8
0
  6
Continuous
 62
     7
100
AcDbLine
 10
-333.0866088867188
 20
157.0219116210938
 30
0.0
 11
-334.7665710449219
 21
159.2395782470703
 31
0.0
  0
LINE
  5
232
330
22
100
AcDbEntity
  8
0
  6
Continuous
 62
     7
100
AcDbLine
 10
-333.6155395507813
 20
162.0157775878906
 30
0.0
 11
-335.8478088378906
 21
160.3208312988281
 31
0.0
  0
LINE
  5
233
330
22
100
AcDbEntity
  8
0
  6
DASHED
 62
     7
100
AcDbLine
 10
-330.8478088378906
 20
159.2651062011719
 30
0.0
 11
-330.8478088378906
 21
157.7651062011719
 31
0.0
  0
LINE
  5
234
330
22
100
AcDbEntity
  8
0
  6
Continuous
 62
     7
100
AcDbLine
 10
-338.6239929199219
 20
157.00732421875
 30
0.0
 11
-336.9290771484375
 21
159.2395782470703
 31
0.0
  0
LINE
  5
235
330
22
100
AcDbEntity
  8
0
  6
Continuous
 62
     7
100
AcDbLine
 10
-338.0654907226563
 20
162.0007781982422
 30
0.0
 11
-338.3372497558594
 21
161.7290191650391
 31
0.0
  0
LINE
  5
236
330
22
100
AcDbEntity
  8
0
  6
Continuous
 62
     7
100
AcDbLine
 10
-338.080078125
 20
156.4633941650391
 30
0.0
 11
-335.8478088378906
 21
158.1583251953125
 31
0.0
  0
LINE
  5
237
330
22
100
AcDbEntity
  8
0
  6
Continuous
 62
     7
100
AcDbLine
 10
-333.6155395507813
 20
162.0157775878906
 30
0.0
 11
-335.8478088378906
 21
160.3208312988281
 31
0.0
  0
LINE
  5
238
330
22
100
AcDbEntity
  8
0
  6
Continuous
 62
     7
100
AcDbLine
 10
-333.3435974121094
 20
161.7438049316406
 30
0.0
 11
-333.0716247558594
 21
161.4718475341797
 31
0.0
  0
LINE
  5
239
330
22
100
AcDbEntity
  8
0
  6
Continuous
 62
     7
100
AcDbLine
 10
-333.0866088867188
 20
157.0219116210938
 30
0.0
 11
-334.7665710449219
 21
159.2395782470703
 31
0.0
  0
LINE
  5
23A
330
22
100
AcDbEntity
  8
0
  6
Continuous
 62
     7
100
AcDbLine
 10
-333.630126953125
 20
156.4783782958984
 30
0.0
 11
-335.8478088378906
 21
158.1583251953125
 31
0.0
  0
LINE
  5
23B
330
22
100
AcDbEntity
  8
0
  6
Continuous
 62
     7
100
AcDbLine
 10
-338.6090087890625
 20
161.4572601318359
 30
0.0
 11
-338.3372497558594
 21
161.7290191650391
 31
0.0
  0
LINE
  5
23C
330
22
100
AcDbEntity
  8
0
  6
Continuous
 62
     7
100
AcDbLine
 10
-338.0654907226563
 20
162.0007781982422
 30
0.0
 11
-338.3372497558594
 21
161.7290191650391
 31
0.0
  0
LINE
  5
23D
330
22
100
AcDbEntity
  8
0
  6
Continuous
 62
     7
100
AcDbLine
 10
-338.6090087890625
 20
161.4572601318359
 30
0.0
 11
-338.3372497558594
 21
161.7290191650391
 31
0.0
  0
LINE
  5
23E
330
22
100
AcDbEntity
  8
0
  6
Continuous
 62
     7
100
AcDbLine
 10
-338.6090087890625
 20
161.4572601318359
 30
0.0
 11
-336.9290771484375
 21
159.2395782470703
 31
0.0
  0
LINE
  5
23F
330
22
100
AcDbEntity
  8
0
  6
Continuous
 62
     7
100
AcDbLine
 10
-397.8478088378906
 20
196.7651062011719
 30
0.0
 11
-397.8478088378906
 21
219.7651062011719
 31
0.0
  0
LINE
  5
240
330
22
100
AcDbEntity
  8
0
  6
Continuous
 62
     7
100
AcDbLine
 10
-392.8478088378906
 20
162.7651062011719
 30
0.0
 11
-392.8478088378906
 21
185.7651062011719
 31
0.0
  0
LINE
  5
241
330
22
100
AcDbEntity
  8
0
  6
Continuous
 62
     7
100
AcDbLine
 10
-392.8478088378906
 20
196.7651062011719
 30
0.0
 11
-392.8478088378906
 21
219.7651062011719
 31
0.0
  0
LINE
  5
242
330
22
100
AcDbEntity
  8
0
  6
Continuous
 62
     7
100
AcDbLine
 10
-367.8478088378906
 20
162.7651062011719
 30
0.0
 11
-367.8478088378906
 21
202.7651062011719
 31
0.0
  0
LINE
  5
243
330
22
100
AcDbEntity
  8
0
  6
Continuous
 62
     7
100
AcDbLine
 10
-387.8478088378906
 20
162.7651062011719
 30
0.0
 11
-387.8478088378906
 21
202.7651062011719
 31
0.0
  0
LINE
  5
244
330
22
100
AcDbEntity
  8
0
  6
Continuous
 62
     7
100
AcDbLine
 10
-377.8478088378906
 20
162.7651062011719
 30
0.0
 11
-377.8478088378906
 21
185.7651062011719
 31
0.0
  0
LINE
  5
245
330
22
100
AcDbEntity
  8
0
  6
Continuous
 62
     7
100
AcDbLine
 10
-372.8478088378906
 20
162.7651062011719
 30
0.0
 11
-372.8478088378906
 21
185.7651062011719
 31
0.0
  0
LINE
  5
246
330
22
100
AcDbEntity
  8
0
  6
Continuous
 62
     7
100
AcDbLine
 10
-382.8478088378906
 20
162.7651062011719
 30
0.0
 11
-382.8478088378906
 21
202.7651062011719
 31
0.0
  0
LINE
  5
247
330
22
100
AcDbEntity
  8
0
  6
Continuous
 62
     7
100
AcDbLine
 10
-372.8478088378906
 20
196.7651062011719
 30
0.0
 11
-372.8478088378906
 21
219.7651062011719
 31
0.0
  0
LINE
  5
248
330
22
100
AcDbEntity
  8
0
  6
Continuous
 62
     7
100
AcDbLine
 10
-377.8478088378906
 20
196.7651062011719
 30
0.0
 11
-377.8478088378906
 21
219.7651062011719
 31
0.0
  0
LINE
  5
249
330
22
100
AcDbEntity
  8
0
  6
DASHED
 62
     7
100
AcDbLine
 10
-338.3478088378906
 20
164.0348052978516
 30
0.0
 11
-338.3478088378906
 21
257.7651062011719
 31
0.0
  0
LINE
  5
24A
330
22
100
AcDbEntity
  8
0
  6
DASHED
 62
     7
100
AcDbLine
 10
-333.3478088378906
 20
257.7651062011719
 30
0.0
 11
-333.3478088378906
 21
164.0348052978516
 31
0.0
  0
LINE
  5
24B
330
22
100
AcDbEntity
  8
0
  6
Continuous
 62
     7
100
AcDbLine
 10
-392.8478088378906
 20
230.7651062011719
 30
0.0
 11
-392.8478088378906
 21
253.7651062011719
 31
0.0
  0
LINE
  5
24C
330
22
100
AcDbEntity
  8
0
  6
Continuous
 62
     7
100
AcDbLine
 10
-397.8478088378906
 20
230.7651062011719
 30
0.0
 11
-397.8478088378906
 21
253.7651062011719
 31
0.0
  0
LINE
  5
24D
330
22
100
AcDbEntity
  8
0
  6
Continuous
 62
     7
100
AcDbLine
 10
-357.8478088378906
 20
230.7651062011719
 30
0.0
 11
-357.8478088378906
 21
253.7651062011719
 31
0.0
  0
LINE
  5
24E
330
22
100
AcDbEntity
  8
0
  6
Continuous
 62
     7
100
AcDbLine
 10
-372.8478088378906
 20
230.7651062011719
 30
0.0
 11
-372.8478088378906
 21
253.7651062011719
 31
0.0
  0
LINE
  5
24F
330
22
100
AcDbEntity
  8
0
  6
Continuous
 62
     7
100
AcDbLine
 10
-377.8478088378906
 20
230.7651062011719
 30
0.0
 11
-377.8478088378906
 21
253.7651062011719
 31
0.0
  0
LINE
  5
250
330
22
100
AcDbEntity
  8
0
  6
Continuous
 62
     7
100
AcDbLine
 10
-367.8478088378906
 20
213.7651062011719
 30
0.0
 11
-367.8478088378906
 21
253.7651062011719
 31
0.0
  0
LINE
  5
251
330
22
100
AcDbEntity
  8
0
  6
Continuous
 62
     7
100
AcDbLine
 10
-382.8478088378906
 20
213.7651062011719
 30
0.0
 11
-382.8478088378906
 21
253.7651062011719
 31
0.0
  0
LINE
  5
252
330
22
100
AcDbEntity
  8
0
  6
Continuous
 62
     7
100
AcDbLine
 10
-362.8478088378906
 20
213.7651062011719
 30
0.0
 11
-362.8478088378906
 21
253.7651062011719
 31
0.0
  0
LINE
  5
253
330
22
100
AcDbEntity
  8
0
  6
Continuous
 62
     7
100
AcDbLine
 10
-387.8478088378906
 20
213.7651062011719
 30
0.0
 11
-387.8478088378906
 21
253.7651062011719
 31
0.0
  0
LINE
  5
254
330
22
100
AcDbEntity
  8
0
  6
Continuous
 62
     7
100
AcDbLine
 10
-397.8478088378906
 20
162.7651062011719
 30
0.0
 11
-397.8478088378906
 21
185.7651062011719
 31
0.0
  0
LINE
  5
255
330
22
100
AcDbEntity
  8
0
  6
Continuous
 62
     7
100
AcDbLine
 10
-347.8478088378906
 20
213.7651062011719
 30
0.0
 11
-347.8478088378906
 21
253.7651062011719
 31
0.0
  0
LINE
  5
256
330
22
100
AcDbEntity
  8
0
  6
Continuous
 62
     7
100
AcDbLine
 10
-352.8478088378906
 20
230.7651062011719
 30
0.0
 11
-352.8478088378906
 21
253.7651062011719
 31
0.0
  0
LINE
  5
257
330
22
100
AcDbEntity
  8
0
  6
Continuous
 62
     7
100
AcDbLine
 10
-342.8478088378906
 20
213.7651062011719
 30
0.0
 11
-342.8478088378906
 21
253.7651062011719
 31
0.0
  0
LINE
  5
258
330
22
100
AcDbEntity
  8
0
  6
DASHED
 62
     7
100
AcDbLine
 10
-340.8478088378906
 20
159.2651062011719
 30
0.0
 11
-340.8478088378906
 21
157.7651062011719
 31
0.0
  0
LINE
  5
259
330
22
100
AcDbEntity
  8
0
  6
Continuous
 62
     7
100
AcDbLine
 10
-352.8478088378906
 20
162.7651062011719
 30
0.0
 11
-352.8478088378906
 21
185.7651062011719
 31
0.0
  0
LINE
  5
25A
330
22
100
AcDbEntity
  8
0
  6
Continuous
 62
     7
100
AcDbLine
 10
-342.8478088378906
 20
168.7651062011719
 30
0.0
 11
-342.8478088378906
 21
202.7651062011719
 31
0.0
  0
LINE
  5
25B
330
22
100
AcDbEntity
  8
0
  6
Continuous
 62
     7
100
AcDbLine
 10
-352.8478088378906
 20
196.7651062011719
 30
0.0
 11
-352.8478088378906
 21
219.7651062011719
 31
0.0
  0
LINE
  5
25C
330
22
100
AcDbEntity
  8
0
  6
Continuous
 62
     7
100
AcDbLine
 10
-347.8478088378906
 20
168.7651062011719
 30
0.0
 11
-347.8478088378906
 21
202.7651062011719
 31
0.0
  0
LINE
  5
25D
330
22
100
AcDbEntity
  8
0
  6
Continuous
 62
     7
100
AcDbLine
 10
-308.8478088378906
 20
213.7651062011719
 30
0.0
 11
-308.8478088378906
 21
253.7651062011719
 31
0.0
  0
LINE
  5
25E
330
22
100
AcDbEntity
  8
0
  6
Continuous
 62
     7
100
AcDbLine
 10
-313.8478088378906
 20
230.7651062011719
 30
0.0
 11
-313.8478088378906
 21
253.7651062011719
 31
0.0
  0
LINE
  5
25F
330
22
100
AcDbEntity
  8
0
  6
Continuous
 62
     7
100
AcDbLine
 10
-303.8478088378906
 20
213.7651062011719
 30
0.0
 11
-303.8478088378906
 21
253.7651062011719
 31
0.0
  0
LINE
  5
260
330
22
100
AcDbEntity
  8
0
  6
Continuous
 62
     7
100
AcDbLine
 10
-298.8478088378906
 20
230.7651062011719
 30
0.0
 11
-298.8478088378906
 21
253.7651062011719
 31
0.0
  0
LINE
  5
261
330
22
100
AcDbEntity
  8
0
  6
Continuous
 62
     7
100
AcDbLine
 10
-308.8478088378906
 20
162.7651062011719
 30
0.0
 11
-308.8478088378906
 21
202.7651062011719
 31
0.0
  0
LINE
  5
262
330
22
100
AcDbEntity
  8
0
  6
Continuous
 62
     7
100
AcDbLine
 10
-313.8478088378906
 20
162.7651062011719
 30
0.0
 11
-313.8478088378906
 21
185.7651062011719
 31
0.0
  0
LINE
  5
263
330
22
100
AcDbEntity
  8
0
  6
Continuous
 62
     7
100
AcDbLine
 10
-313.8478088378906
 20
196.7651062011719
 30
0.0
 11
-313.8478088378906
 21
219.7651062011719
 31
0.0
  0
LINE
  5
264
330
22
100
AcDbEntity
  8
0
  6
Continuous
 62
     7
100
AcDbLine
 10
-298.8478088378906
 20
196.7651062011719
 30
0.0
 11
-298.8478088378906
 21
219.7651062011719
 31
0.0
  0
LINE
  5
265
330
22
100
AcDbEntity
  8
0
  6
Continuous
 62
     7
100
AcDbLine
 10
-298.8478088378906
 20
162.7651062011719
 30
0.0
 11
-298.8478088378906
 21
185.7651062011719
 31
0.0
  0
LINE
  5
266
330
22
100
AcDbEntity
  8
0
  6
Continuous
 62
     7
100
AcDbLine
 10
-303.8478088378906
 20
162.7651062011719
 30
0.0
 11
-303.8478088378906
 21
202.7651062011719
 31
0.0
  0
LINE
  5
267
330
22
100
AcDbEntity
  8
0
  6
Continuous
 62
     7
100
AcDbLine
 10
-318.8478088378906
 20
230.7651062011719
 30
0.0
 11
-318.8478088378906
 21
253.7651062011719
 31
0.0
  0
LINE
  5
268
330
22
100
AcDbEntity
  8
0
  6
Continuous
 62
     7
100
AcDbLine
 10
-318.8478088378906
 20
162.7651062011719
 30
0.0
 11
-318.8478088378906
 21
185.7651062011719
 31
0.0
  0
LINE
  5
269
330
22
100
AcDbEntity
  8
0
  6
Continuous
 62
     7
100
AcDbLine
 10
-318.8478088378906
 20
196.7651062011719
 30
0.0
 11
-318.8478088378906
 21
219.7651062011719
 31
0.0
  0
LINE
  5
26A
330
22
100
AcDbEntity
  8
0
  6
Continuous
 62
     7
100
AcDbLine
 10
-417.8478088378906
 20
196.7651062011719
 30
0.0
 11
-417.8478088378906
 21
219.7651062011719
 31
0.0
  0
LINE
  5
26B
330
22
100
AcDbEntity
  8
0
  6
Continuous
 62
     7
100
AcDbLine
 10
-437.8478088378906
 20
196.7651062011719
 30
0.0
 11
-437.8478088378906
 21
219.7651062011719
 31
0.0
  0
LINE
  5
26C
330
22
100
AcDbEntity
  8
0
  6
Continuous
 62
     7
100
AcDbLine
 10
-432.8478088378906
 20
196.7651062011719
 30
0.0
 11
-432.8478088378906
 21
219.7651062011719
 31
0.0
  0
LINE
  5
26D
330
22
100
AcDbEntity
  8
0
  6
Continuous
 62
     7
100
AcDbLine
 10
-427.8478088378906
 20
162.7651062011719
 30
0.0
 11
-427.8478088378906
 21
202.7651062011719
 31
0.0
  0
LINE
  5
26E
330
22
100
AcDbEntity
  8
0
  6
Continuous
 62
     7
100
AcDbLine
 10
-422.8478088378905
 20
162.7651062011719
 30
0.0
 11
-422.8478088378905
 21
202.7651062011719
 31
0.0
  0
LINE
  5
26F
330
22
100
AcDbEntity
  8
0
  6
Continuous
 62
     7
100
AcDbLine
 10
-436.3435974121093
 20
161.7438049316406
 30
0.0
 11
-436.0716247558594
 21
161.4718475341797
 31
0.0
  0
LINE
  5
270
330
22
100
AcDbEntity
  8
0
  6
Continuous
 62
     7
100
AcDbLine
 10
-436.0716247558594
 20
161.4718475341797
 30
0.0
 11
-437.7665710449218
 21
159.2395782470703
 31
0.0
  0
LINE
  5
271
330
22
100
AcDbEntity
  8
0
  6
Continuous
 62
     7
100
AcDbLine
 10
-436.3435974121093
 20
161.7438049316406
 30
0.0
 11
-436.6155395507813
 21
162.0157775878906
 31
0.0
  0
LINE
  5
272
330
22
100
AcDbEntity
  8
0
  6
Continuous
 62
     7
100
AcDbLine
 10
-441.0654907226563
 20
162.0007781982422
 30
0.0
 11
-438.8478088378906
 21
160.3208312988281
 31
0.0
  0
LINE
  5
273
330
22
100
AcDbEntity
  8
0
  6
Continuous
 62
     7
100
AcDbLine
 10
-441.6090087890625
 20
161.4572601318359
 30
0.0
 11
-439.9290771484374
 21
159.2395782470703
 31
0.0
  0
LINE
  5
274
330
22
100
AcDbEntity
  8
0
  6
Continuous
 62
     7
100
AcDbLine
 10
-441.6090087890625
 20
161.4572601318359
 30
0.0
 11
-441.3372497558594
 21
161.7290191650391
 31
0.0
  0
LINE
  5
275
330
22
100
AcDbEntity
  8
0
  6
Continuous
 62
     7
100
AcDbLine
 10
-441.0654907226563
 20
162.0007781982422
 30
0.0
 11
-441.3372497558594
 21
161.7290191650391
 31
0.0
  0
LINE
  5
276
330
22
100
AcDbEntity
  8
0
  6
Continuous
 62
     7
100
AcDbLine
 10
-441.6090087890625
 20
161.4572601318359
 30
0.0
 11
-441.3372497558594
 21
161.7290191650391
 31
0.0
  0
LINE
  5
277
330
22
100
AcDbEntity
  8
0
  6
Continuous
 62
     7
100
AcDbLine
 10
-436.6301269531249
 20
156.4783782958984
 30
0.0
 11
-438.8478088378906
 21
158.1583251953125
 31
0.0
  0
LINE
  5
278
330
22
100
AcDbEntity
  8
0
  6
Continuous
 62
     7
100
AcDbLine
 10
-436.0866088867187
 20
157.0219116210938
 30
0.0
 11
-437.7665710449218
 21
159.2395782470703
 31
0.0
  0
LINE
  5
279
330
22
100
AcDbEntity
  8
0
  6
Continuous
 62
     7
100
AcDbLine
 10
-417.8478088378906
 20
162.7651062011719
 30
0.0
 11
-417.8478088378906
 21
185.7651062011719
 31
0.0
  0
LINE
  5
27A
330
22
100
AcDbEntity
  8
0
  6
Continuous
 62
     7
100
AcDbLine
 10
-441.6239929199218
 20
157.00732421875
 30
0.0
 11
-439.9290771484374
 21
159.2395782470703
 31
0.0
  0
LINE
  5
27B
330
22
100
AcDbEntity
  8
0
  6
Continuous
 62
     7
100
AcDbLine
 10
-436.0866088867187
 20
157.0219116210938
 30
0.0
 11
-436.3583679199218
 21
156.7501373291016
 31
0.0
  0
LINE
  5
27C
330
22
100
AcDbEntity
  8
0
  6
Continuous
 62
     7
100
AcDbLine
 10
-441.0654907226563
 20
162.0007781982422
 30
0.0
 11
-438.8478088378906
 21
160.3208312988281
 31
0.0
  0
LINE
  5
27D
330
22
100
AcDbEntity
  8
0
  6
Continuous
 62
     7
100
AcDbLine
 10
-436.3435974121093
 20
161.7438049316406
 30
0.0
 11
-436.6155395507813
 21
162.0157775878906
 31
0.0
  0
LINE
  5
27E
330
22
100
AcDbEntity
  8
0
  6
Continuous
 62
     7
100
AcDbLine
 10
-436.6155395507813
 20
162.0157775878906
 30
0.0
 11
-438.8478088378906
 21
160.3208312988281
 31
0.0
  0
LINE
  5
27F
330
22
100
AcDbEntity
  8
0
  6
Continuous
 62
     7
100
AcDbLine
 10
-436.0866088867187
 20
157.0219116210938
 30
0.0
 11
-437.7665710449218
 21
159.2395782470703
 31
0.0
  0
LINE
  5
280
330
22
100
AcDbEntity
  8
0
  6
Continuous
 62
     7
100
AcDbLine
 10
-436.0866088867187
 20
157.0219116210938
 30
0.0
 11
-436.3583679199218
 21
156.7501373291016
 31
0.0
  0
LINE
  5
281
330
22
100
AcDbEntity
  8
0
  6
Continuous
 62
     7
100
AcDbLine
 10
-436.6301269531249
 20
156.4783782958984
 30
0.0
 11
-436.3583679199218
 21
156.7501373291016
 31
0.0
  0
LINE
  5
282
330
22
100
AcDbEntity
  8
0
  6
Continuous
 62
     7
100
AcDbLine
 10
-441.3520507812499
 20
156.7353515625
 30
0.0
 11
-441.0800781249999
 21
156.4633941650391
 31
0.0
  0
LINE
  5
283
330
22
100
AcDbEntity
  8
0
  6
Continuous
 62
     7
100
AcDbLine
 10
-441.3520507812499
 20
156.7353515625
 30
0.0
 11
-441.6239929199218
 21
157.00732421875
 31
0.0
  0
LINE
  5
284
330
22
100
AcDbEntity
  8
0
  6
Continuous
 62
     7
100
AcDbLine
 10
-441.3520507812499
 20
156.7353515625
 30
0.0
 11
-441.6239929199218
 21
157.00732421875
 31
0.0
  0
LINE
  5
285
330
22
100
AcDbEntity
  8
0
  6
Continuous
 62
     7
100
AcDbLine
 10
-441.3520507812499
 20
156.7353515625
 30
0.0
 11
-441.0800781249999
 21
156.4633941650391
 31
0.0
  0
LINE
  5
286
330
22
100
AcDbEntity
  8
0
  6
Continuous
 62
     7
100
AcDbLine
 10
-441.6239929199218
 20
157.00732421875
 30
0.0
 11
-439.9290771484374
 21
159.2395782470703
 31
0.0
  0
LINE
  5
287
330
22
100
AcDbEntity
  8
0
  6
Continuous
 62
     7
100
AcDbLine
 10
-441.6090087890625
 20
161.4572601318359
 30
0.0
 11
-439.9290771484374
 21
159.2395782470703
 31
0.0
  0
LINE
  5
288
330
22
100
AcDbEntity
  8
0
  6
Continuous
 62
     7
100
AcDbLine
 10
-436.6301269531249
 20
156.4783782958984
 30
0.0
 11
-438.8478088378906
 21
158.1583251953125
 31
0.0
  0
LINE
  5
289
330
22
100
AcDbEntity
  8
0
  6
Continuous
 62
     7
100
AcDbLine
 10
-441.0800781249999
 20
156.4633941650391
 30
0.0
 11
-438.8478088378906
 21
158.1583251953125
 31
0.0
  0
LINE
  5
28A
330
22
100
AcDbEntity
  8
0
  6
Continuous
 62
     7
100
AcDbLine
 10
-436.6301269531249
 20
156.4783782958984
 30
0.0
 11
-436.3583679199218
 21
156.7501373291016
 31
0.0
  0
LINE
  5
28B
330
22
100
AcDbEntity
  8
0
  6
Continuous
 62
     7
100
AcDbLine
 10
-436.0716247558594
 20
161.4718475341797
 30
0.0
 11
-437.7665710449218
 21
159.2395782470703
 31
0.0
  0
LINE
  5
28C
330
22
100
AcDbEntity
  8
0
  6
DASHED
 62
     7
100
AcDbLine
 10
-433.8478088378906
 20
159.2651062011719
 30
0.0
 11
-433.8478088378906
 21
157.7651062011719
 31
0.0
  0
LINE
  5
28D
330
22
100
AcDbEntity
  8
0
  6
Continuous
 62
     7
100
AcDbLine
 10
-437.8478088378906
 20
168.7651062011719
 30
0.0
 11
-437.8478088378906
 21
185.7651062011719
 31
0.0
  0
LINE
  5
28E
330
22
100
AcDbEntity
  8
0
  6
Continuous
 62
     7
100
AcDbLine
 10
-432.8478088378906
 20
168.7651062011719
 30
0.0
 11
-432.8478088378906
 21
185.7651062011719
 31
0.0
  0
LINE
  5
28F
330
22
100
AcDbEntity
  8
0
  6
Continuous
 62
     7
100
AcDbLine
 10
-417.8478088378906
 20
230.7651062011719
 30
0.0
 11
-417.8478088378906
 21
253.7651062011719
 31
0.0
  0
LINE
  5
290
330
22
100
AcDbEntity
  8
0
  6
Continuous
 62
     7
100
AcDbLine
 10
-422.8478088378905
 20
213.7651062011719
 30
0.0
 11
-422.8478088378905
 21
253.7651062011719
 31
0.0
  0
LINE
  5
291
330
22
100
AcDbEntity
  8
0
  6
Continuous
 62
     7
100
AcDbLine
 10
-427.8478088378906
 20
213.7651062011719
 30
0.0
 11
-427.8478088378906
 21
253.7651062011719
 31
0.0
  0
LINE
  5
292
330
22
100
AcDbEntity
  8
0
  6
Continuous
 62
     7
100
AcDbLine
 10
-437.8478088378906
 20
230.7651062011719
 30
0.0
 11
-437.8478088378906
 21
250.7651062011719
 31
0.0
  0
LINE
  5
293
330
22
100
AcDbEntity
  8
0
  6
Continuous
 62
     7
100
AcDbLine
 10
-432.8478088378906
 20
230.7651062011719
 30
0.0
 11
-432.8478088378906
 21
250.7651062011719
 31
0.0
  0
LINE
  5
294
330
22
100
AcDbEntity
  8
0
  6
Continuous
 62
     7
100
AcDbLine
 10
-412.8478088378906
 20
230.7651062011719
 30
0.0
 11
-412.8478088378906
 21
253.7651062011719
 31
0.0
  0
LINE
  5
295
330
22
100
AcDbEntity
  8
0
  6
Continuous
 62
     7
100
AcDbLine
 10
-407.8478088378906
 20
213.7651062011719
 30
0.0
 11
-407.8478088378906
 21
253.7651062011719
 31
0.0
  0
LINE
  5
296
330
22
100
AcDbEntity
  8
0
  6
DASHED
 62
     7
100
AcDbLine
 10
-438.8478088378906
 20
164.2651062011719
 30
0.0
 11
-440.3478088378906
 21
164.2651062011719
 31
0.0
  0
LINE
  5
297
330
22
100
AcDbEntity
  8
0
  6
Continuous
 62
     7
100
AcDbLine
 10
-412.8478088378906
 20
162.7651062011719
 30
0.0
 11
-412.8478088378906
 21
185.7651062011719
 31
0.0
  0
LINE
  5
298
330
22
100
AcDbEntity
  8
0
  6
Continuous
 62
     7
100
AcDbLine
 10
-407.8478088378906
 20
162.7651062011719
 30
0.0
 11
-407.8478088378906
 21
202.7651062011719
 31
0.0
  0
LINE
  5
299
330
22
100
AcDbEntity
  8
0
  6
Continuous
 62
     7
100
AcDbLine
 10
-412.8478088378906
 20
196.7651062011719
 30
0.0
 11
-412.8478088378906
 21
219.7651062011719
 31
0.0
  0
LINE
  5
29A
330
22
100
AcDbEntity
  8
0
  6
Continuous
 62
     7
100
AcDbLine
 10
-436.3435974121093
 20
161.7438049316406
 30
0.0
 11
-436.0716247558594
 21
161.4718475341797
 31
0.0
  0
LINE
  5
29B
330
22
100
AcDbEntity
  8
0
  6
Continuous
 62
     7
100
AcDbLine
 10
-436.6155395507813
 20
162.0157775878906
 30
0.0
 11
-438.8478088378906
 21
160.3208312988281
 31
0.0
  0
LINE
  5
29C
330
22
100
AcDbEntity
  8
0
  6
Continuous
 62
     7
100
AcDbLine
 10
-441.0800781249999
 20
156.4633941650391
 30
0.0
 11
-438.8478088378906
 21
158.1583251953125
 31
0.0
  0
LINE
  5
29D
330
22
100
AcDbEntity
  8
0
  6
Continuous
 62
     7
100
AcDbLine
 10
-441.0654907226563
 20
162.0007781982422
 30
0.0
 11
-441.3372497558594
 21
161.7290191650391
 31
0.0
  0
LINE
  5
29E
330
22
100
AcDbEntity
  8
0
  6
Continuous
 62
     7
100
AcDbLine
 10
-436.3352355957031
 20
265.0412902832031
 30
0.0
 11
-438.5674743652343
 21
263.3463439941406
 31
0.0
  0
LINE
  5
29F
330
22
100
AcDbEntity
  8
0
  6
Continuous
 62
     7
100
AcDbLine
 10
-440.78515625
 20
265.0263061523438
 30
0.0
 11
-438.5674743652343
 21
263.3463439941406
 31
0.0
  0
LINE
  5
2A0
330
22
100
AcDbEntity
  8
0
  6
Continuous
 62
     7
100
AcDbLine
 10
-436.3352355957031
 20
265.0412902832031
 30
0.0
 11
-438.5674743652343
 21
263.3463439941406
 31
0.0
  0
LINE
  5
2A1
330
22
100
AcDbEntity
  8
0
  6
Continuous
 62
     7
100
AcDbLine
 10
-441.3286743164062
 20
264.4827880859375
 30
0.0
 11
-439.6487426757813
 21
262.2651062011719
 31
0.0
  0
LINE
  5
2A2
330
22
100
AcDbEntity
  8
0
  6
Continuous
 62
     7
100
AcDbLine
 10
-435.7912902832031
 20
264.4973754882813
 30
0.0
 11
-437.4862365722655
 21
262.2651062011719
 31
0.0
  0
LINE
  5
2A3
330
22
100
AcDbEntity
  8
0
  6
Continuous
 62
     7
100
AcDbLine
 10
-435.7912902832031
 20
264.4973754882813
 30
0.0
 11
-437.4862365722655
 21
262.2651062011719
 31
0.0
  0
LINE
  5
2A4
330
22
100
AcDbEntity
  8
0
  6
Continuous
 62
     7
100
AcDbLine
 10
-440.78515625
 20
265.0263061523438
 30
0.0
 11
-438.5674743652343
 21
263.3463439941406
 31
0.0
  0
LINE
  5
2A5
330
22
100
AcDbEntity
  8
0
  6
Continuous
 62
     7
100
AcDbLine
 10
-441.3286743164062
 20
264.4827880859375
 30
0.0
 11
-439.6487426757813
 21
262.2651062011719
 31
0.0
  0
LINE
  5
2A6
330
22
100
AcDbEntity
  8
0
  6
DASHED
 62
     7
100
AcDbLine
 10
-438.5674743652343
 20
267.2651062011719
 30
0.0
 11
-440.0674743652343
 21
267.2651062011719
 31
0.0
  0
LINE
  5
2A7
330
22
100
AcDbEntity
  8
0
  6
Continuous
 62
     7
100
AcDbLine
 10
-436.0632629394531
 20
264.7693176269531
 30
0.0
 11
-435.7912902832031
 21
264.4973754882813
 31
0.0
  0
LINE
  5
2A8
330
22
100
AcDbEntity
  8
0
  6
Continuous
 62
     7
100
AcDbLine
 10
-440.78515625
 20
265.0263061523438
 30
0.0
 11
-441.0569152832031
 21
264.7545471191406
 31
0.0
  0
LINE
  5
2A9
330
22
100
AcDbEntity
  8
0
  6
Continuous
 62
     7
100
AcDbLine
 10
-436.0632629394531
 20
264.7693176269531
 30
0.0
 11
-436.3352355957031
 21
265.0412902832031
 31
0.0
  0
LINE
  5
2AA
330
22
100
AcDbEntity
  8
0
  6
Continuous
 62
     7
100
AcDbLine
 10
-436.0632629394531
 20
264.7693176269531
 30
0.0
 11
-435.7912902832031
 21
264.4973754882813
 31
0.0
  0
LINE
  5
2AB
330
22
100
AcDbEntity
  8
0
  6
Continuous
 62
     7
100
AcDbLine
 10
-436.0632629394531
 20
264.7693176269531
 30
0.0
 11
-436.3352355957031
 21
265.0412902832031
 31
0.0
  0
LINE
  5
2AC
330
22
100
AcDbEntity
  8
0
  6
Continuous
 62
     7
100
AcDbLine
 10
-441.3286743164062
 20
264.4827880859375
 30
0.0
 11
-441.0569152832031
 21
264.7545471191406
 31
0.0
  0
LINE
  5
2AD
330
22
100
AcDbEntity
  8
0
  6
Continuous
 62
     7
100
AcDbLine
 10
-440.78515625
 20
265.0263061523438
 30
0.0
 11
-441.0569152832031
 21
264.7545471191406
 31
0.0
  0
LINE
  5
2AE
330
22
100
AcDbEntity
  8
0
  6
Continuous
 62
     7
100
AcDbLine
 10
-441.3286743164062
 20
264.4827880859375
 30
0.0
 11
-441.0569152832031
 21
264.7545471191406
 31
0.0
  0
LINE
  5
2AF
330
22
100
AcDbEntity
  8
0
  6
DASHED
 62
     7
100
AcDbLine
 10
-442.3478088378906
 20
255.2651062011719
 30
0.0
 11
-442.3478088378906
 21
166.2651062011719
 31
0.0
  0
LINE
  5
2B0
330
22
100
AcDbEntity
  8
0
  6
Continuous
 62
     7
100
AcDbLine
 10
-441.0717163085938
 20
259.7608947753906
 30
0.0
 11
-440.7997436523437
 21
259.4889221191406
 31
0.0
  0
LINE
  5
2B1
330
22
100
AcDbEntity
  8
0
  6
Continuous
 62
     7
100
AcDbLine
 10
-441.0717163085938
 20
259.7608947753906
 30
0.0
 11
-441.3436889648438
 21
260.0328369140625
 31
0.0
  0
LINE
  5
2B2
330
22
100
AcDbEntity
  8
0
  6
Continuous
 62
     7
100
AcDbLine
 10
-441.0717163085938
 20
259.7608947753906
 30
0.0
 11
-441.3436889648438
 21
260.0328369140625
 31
0.0
  0
LINE
  5
2B3
330
22
100
AcDbEntity
  8
0
  6
Continuous
 62
     7
100
AcDbLine
 10
-441.0717163085938
 20
259.7608947753906
 30
0.0
 11
-440.7997436523437
 21
259.4889221191406
 31
0.0
  0
LINE
  5
2B4
330
22
100
AcDbEntity
  8
0
  6
Continuous
 62
     7
100
AcDbLine
 10
-441.3436889648438
 20
260.0328369140625
 30
0.0
 11
-439.6487426757813
 21
262.2651062011719
 31
0.0
  0
LINE
  5
2B5
330
22
100
AcDbEntity
  8
0
  6
Continuous
 62
     7
100
AcDbLine
 10
-436.3498229980469
 20
259.50390625
 30
0.0
 11
-438.5674743652343
 21
261.1838684082031
 31
0.0
  0
LINE
  5
2B6
330
22
100
AcDbEntity
  8
0
  6
Continuous
 62
     7
100
AcDbLine
 10
-440.7997436523437
 20
259.4889221191406
 30
0.0
 11
-438.5674743652343
 21
261.1838684082031
 31
0.0
  0
LINE
  5
2B7
330
22
100
AcDbEntity
  8
0
  6
Continuous
 62
     7
100
AcDbLine
 10
-436.3498229980469
 20
259.50390625
 30
0.0
 11
-436.0780639648438
 21
259.7756652832031
 31
0.0
  0
LINE
  5
2B8
330
22
100
AcDbEntity
  8
0
  6
Continuous
 62
     7
100
AcDbLine
 10
-436.3498229980469
 20
259.50390625
 30
0.0
 11
-438.5674743652343
 21
261.1838684082031
 31
0.0
  0
LINE
  5
2B9
330
22
100
AcDbEntity
  8
0
  6
Continuous
 62
     7
100
AcDbLine
 10
-435.8062744140625
 20
260.0474243164063
 30
0.0
 11
-437.4862365722655
 21
262.2651062011719
 31
0.0
  0
LINE
  5
2BA
330
22
100
AcDbEntity
  8
0
  6
DASHED
 62
     7
100
AcDbLine
 10
-438.5674743652343
 20
257.2651062011719
 30
0.0
 11
-440.0674743652343
 21
257.2651062011719
 31
0.0
  0
LINE
  5
2BB
330
22
100
AcDbEntity
  8
0
  6
Continuous
 62
     7
100
AcDbLine
 10
-440.7997436523437
 20
259.4889221191406
 30
0.0
 11
-438.5674743652343
 21
261.1838684082031
 31
0.0
  0
LINE
  5
2BC
330
22
100
AcDbEntity
  8
0
  6
Continuous
 62
     7
100
AcDbLine
 10
-441.3436889648438
 20
260.0328369140625
 30
0.0
 11
-439.6487426757813
 21
262.2651062011719
 31
0.0
  0
LINE
  5
2BD
330
22
100
AcDbEntity
  8
0
  6
Continuous
 62
     7
100
AcDbLine
 10
-435.8062744140625
 20
260.0474243164063
 30
0.0
 11
-436.0780639648438
 21
259.7756652832031
 31
0.0
  0
LINE
  5
2BE
330
22
100
AcDbEntity
  8
0
  6
Continuous
 62
     7
100
AcDbLine
 10
-435.8062744140625
 20
260.0474243164063
 30
0.0
 11
-437.4862365722655
 21
262.2651062011719
 31
0.0
  0
LINE
  5
2BF
330
22
100
AcDbEntity
  8
0
  6
Continuous
 62
     7
100
AcDbLine
 10
-435.8062744140625
 20
260.0474243164063
 30
0.0
 11
-436.0780639648438
 21
259.7756652832031
 31
0.0
  0
LINE
  5
2C0
330
22
100
AcDbEntity
  8
0
  6
Continuous
 62
     7
100
AcDbLine
 10
-436.3498229980469
 20
259.50390625
 30
0.0
 11
-436.0780639648438
 21
259.7756652832031
 31
0.0
  0
LINE
  5
2C1
330
22
100
AcDbEntity
  8
0
  6
DASHED
 62
     7
100
AcDbLine
 10
-433.7977905273437
 20
259.7651062011719
 30
0.0
 11
-340.3478088378906
 21
259.7651062011719
 31
0.0
  0
LINE
  5
2C2
330
22
100
AcDbEntity
  8
0
  6
DASHED
 62
     7
100
AcDbLine
 10
-342.8478088378906
 20
155.7651062011719
 30
0.0
 11
-431.8478088378906
 21
155.7651062011719
 31
0.0
  0
LINE
  5
2C3
330
22
100
AcDbEntity
  8
0
  6
DASHED
 62
     7
100
AcDbLine
 10
-433.8976440429687
 20
264.7518615722656
 30
0.0
 11
-340.3478088378906
 21
264.7518615722656
 31
0.0
  0
LINE
  5
2C4
330
22
100
AcDbEntity
  8
0
  6
Continuous
 62
     7
100
AcDbLine
 10
-402.8478088378906
 20
213.7651062011719
 30
0.0
 11
-402.8478088378906
 21
253.7651062011719
 31
0.0
  0
LINE
  5
2C5
330
22
100
AcDbEntity
  8
0
  6
Continuous
 62
     7
100
AcDbLine
 10
-402.8478088378906
 20
162.7651062011719
 30
0.0
 11
-402.8478088378906
 21
202.7651062011719
 31
0.0
  0
LINE
  5
2C6
330
22
100
AcDbEntity
  8
0
  6
DASHED
 62
     7
100
AcDbLine
 10
-342.8478088378906
 20
368.7651062011719
 30
0.0
 11
-431.8478088378906
 21
368.7651062011719
 31
0.0
  0
LINE
  5
2C7
330
22
100
AcDbEntity
  8
0
  6
Continuous
 62
     7
100
AcDbLine
 10
-402.8478088378906
 20
361.7651062011719
 30
0.0
 11
-402.8478088378906
 21
321.7651062011719
 31
0.0
  0
LINE
  5
2C8
330
22
100
AcDbEntity
  8
0
  6
Continuous
 62
     7
100
AcDbLine
 10
-362.8478088378906
 20
310.7651062011719
 30
0.0
 11
-362.8478088378906
 21
270.765106201172
 31
0.0
  0
LINE
  5
2C9
330
22
100
AcDbEntity
  8
0
  6
Continuous
 62
     7
100
AcDbLine
 10
-382.8478088378906
 20
310.7651062011719
 30
0.0
 11
-382.8478088378906
 21
270.765106201172
 31
0.0
  0
LINE
  5
2CA
330
22
100
AcDbEntity
  8
0
  6
Continuous
 62
     7
100
AcDbLine
 10
-377.8478088378906
 20
293.7651062011719
 30
0.0
 11
-377.8478088378906
 21
270.765106201172
 31
0.0
  0
LINE
  5
2CB
330
22
100
AcDbEntity
  8
0
  6
Continuous
 62
     7
100
AcDbLine
 10
-372.8478088378906
 20
293.7651062011719
 30
0.0
 11
-372.8478088378906
 21
270.765106201172
 31
0.0
  0
LINE
  5
2CC
330
22
100
AcDbEntity
  8
0
  6
Continuous
 62
     7
100
AcDbLine
 10
-328.8478088378906
 20
310.7651062011719
 30
0.0
 11
-328.8478088378906
 21
270.765106201172
 31
0.0
  0
LINE
  5
2CD
330
22
100
AcDbEntity
  8
0
  6
Continuous
 62
     7
100
AcDbLine
 10
-323.8478088378906
 20
310.7651062011719
 30
0.0
 11
-323.8478088378906
 21
270.765106201172
 31
0.0
  0
LINE
  5
2CE
330
22
100
AcDbEntity
  8
0
  6
Continuous
 62
     7
100
AcDbLine
 10
-225.3478088378906
 20
152.7651062011719
 30
0.0
 11
-225.3478088378906
 21
371.7651062011719
 31
0.0
  0
LINE
  5
2CF
330
22
100
AcDbEntity
  8
0
  6
Continuous
 62
     7
100
AcDbLine
 10
-226.3478088378906
 20
154.7651062011719
 30
0.0
 11
-226.3478088378906
 21
369.7651062011719
 31
0.0
  0
LINE
  5
2D0
330
22
100
AcDbEntity
  8
0
  6
Continuous
 62
     7
100
AcDbLine
 10
-210.8478088378906
 20
142.2651062011719
 30
0.0
 11
-210.8478088378906
 21
382.2651062011719
 31
0.0
  0
LINE
  5
2D1
330
22
100
AcDbEntity
  8
0
  6
DASHED
 62
     7
100
AcDbLine
 10
-229.3478088378906
 20
269.2651062011719
 30
0.0
 11
-229.3478088378906
 21
358.2651062011719
 31
0.0
  0
LINE
  5
2D2
330
22
100
AcDbEntity
  8
0
  6
Continuous
 62
     7
100
AcDbLine
 10
-258.8478088378906
 20
293.7651062011719
 30
0.0
 11
-258.8478088378906
 21
270.765106201172
 31
0.0
  0
LINE
  5
2D3
330
22
100
AcDbEntity
  8
0
  6
Continuous
 62
     7
100
AcDbLine
 10
-263.8478088378906
 20
310.7651062011719
 30
0.0
 11
-263.8478088378906
 21
270.765106201172
 31
0.0
  0
LINE
  5
2D4
330
22
100
AcDbEntity
  8
0
  6
Continuous
 62
     7
100
AcDbLine
 10
-283.8478088378906
 20
310.7651062011719
 30
0.0
 11
-283.8478088378906
 21
270.765106201172
 31
0.0
  0
LINE
  5
2D5
330
22
100
AcDbEntity
  8
0
  6
Continuous
 62
     7
100
AcDbLine
 10
-278.8478088378905
 20
293.7651062011719
 30
0.0
 11
-278.8478088378905
 21
270.765106201172
 31
0.0
  0
LINE
  5
2D6
330
22
100
AcDbEntity
  8
0
  6
Continuous
 62
     7
100
AcDbLine
 10
-268.8478088378906
 20
310.7651062011719
 30
0.0
 11
-268.8478088378906
 21
270.765106201172
 31
0.0
  0
LINE
  5
2D7
330
22
100
AcDbEntity
  8
0
  6
Continuous
 62
     7
100
AcDbLine
 10
-273.8478088378906
 20
293.7651062011719
 30
0.0
 11
-273.8478088378906
 21
270.765106201172
 31
0.0
  0
LINE
  5
2D8
330
22
100
AcDbEntity
  8
0
  6
Continuous
 62
     7
100
AcDbLine
 10
-238.8478088378906
 20
293.7651062011719
 30
0.0
 11
-238.8478088378906
 21
273.7651062011719
 31
0.0
  0
LINE
  5
2D9
330
22
100
AcDbEntity
  8
0
  6
Continuous
 62
     7
100
AcDbLine
 10
-248.8478088378906
 20
310.7651062011719
 30
0.0
 11
-248.8478088378906
 21
270.765106201172
 31
0.0
  0
LINE
  5
2DA
330
22
100
AcDbEntity
  8
0
  6
Continuous
 62
     7
100
AcDbLine
 10
-243.8478088378906
 20
310.7651062011719
 30
0.0
 11
-243.8478088378906
 21
270.765106201172
 31
0.0
  0
LINE
  5
2DB
330
22
100
AcDbEntity
  8
0
  6
Continuous
 62
     7
100
AcDbLine
 10
-233.8478088378906
 20
293.7651062011719
 30
0.0
 11
-233.8478088378906
 21
273.7651062011719
 31
0.0
  0
LINE
  5
2DC
330
22
100
AcDbEntity
  8
0
  6
Continuous
 62
     7
100
AcDbLine
 10
-253.8478088378906
 20
293.7651062011719
 30
0.0
 11
-253.8478088378906
 21
270.765106201172
 31
0.0
  0
LINE
  5
2DD
330
22
100
AcDbEntity
  8
0
  6
Continuous
 62
     7
100
AcDbLine
 10
-318.8478088378906
 20
293.7651062011719
 30
0.0
 11
-318.8478088378906
 21
270.765106201172
 31
0.0
  0
LINE
  5
2DE
330
22
100
AcDbEntity
  8
0
  6
Continuous
 62
     7
100
AcDbLine
 10
-347.8478088378906
 20
310.7651062011719
 30
0.0
 11
-347.8478088378906
 21
270.765106201172
 31
0.0
  0
LINE
  5
2DF
330
22
100
AcDbEntity
  8
0
  6
Continuous
 62
     7
100
AcDbLine
 10
-352.8478088378906
 20
293.7651062011719
 30
0.0
 11
-352.8478088378906
 21
270.765106201172
 31
0.0
  0
LINE
  5
2E0
330
22
100
AcDbEntity
  8
0
  6
Continuous
 62
     7
100
AcDbLine
 10
-342.8478088378906
 20
310.7651062011719
 30
0.0
 11
-342.8478088378906
 21
270.765106201172
 31
0.0
  0
LINE
  5
2E1
330
22
100
AcDbEntity
  8
0
  6
Continuous
 62
     7
100
AcDbLine
 10
-446.3478088378906
 20
371.7651062011719
 30
0.0
 11
-446.3478088378906
 21
152.7651062011719
 31
0.0
  0
LINE
  5
2E2
330
22
100
AcDbEntity
  8
0
  6
Continuous
 62
     7
100
AcDbLine
 10
-445.3478088378906
 20
369.7651062011719
 30
0.0
 11
-445.3478088378906
 21
154.7651062011719
 31
0.0
  0
LINE
  5
2E3
330
22
100
AcDbEntity
  8
0
  6
Continuous
 62
     7
100
AcDbLine
 10
-460.8478088378906
 20
382.2651062011719
 30
0.0
 11
-460.8478088378906
 21
142.2651062011719
 31
0.0
  0
LINE
  5
2E4
330
22
100
AcDbEntity
  8
0
  6
DASHED
 62
     7
100
AcDbLine
 10
-442.3478088378906
 20
358.2651062011719
 30
0.0
 11
-442.3478088378906
 21
269.2651062011719
 31
0.0
  0
LINE
  5
2E5
330
22
100
AcDbEntity
  8
0
  6
DASHED
 62
     7
100
AcDbLine
 10
-338.3478088378906
 20
266.7518615722656
 30
0.0
 11
-338.3478088378906
 21
360.4954223632813
 31
0.0
  0
LINE
  5
2E6
330
22
100
AcDbEntity
  8
0
  6
DASHED
 62
     7
100
AcDbLine
 10
-333.3478088378906
 20
360.4954223632813
 30
0.0
 11
-333.3478088378906
 21
266.7518615722656
 31
0.0
  0
LINE
  5
2E7
330
22
100
AcDbEntity
  8
0
  6
Continuous
 62
     7
100
AcDbLine
 10
-392.8478088378906
 20
293.7651062011719
 30
0.0
 11
-392.8478088378906
 21
270.765106201172
 31
0.0
  0
LINE
  5
2E8
330
22
100
AcDbEntity
  8
0
  6
Continuous
 62
     7
100
AcDbLine
 10
-412.8478088378906
 20
293.7651062011719
 30
0.0
 11
-412.8478088378906
 21
270.765106201172
 31
0.0
  0
LINE
  5
2E9
330
22
100
AcDbEntity
  8
0
  6
Continuous
 62
     7
100
AcDbLine
 10
-407.8478088378906
 20
310.7651062011719
 30
0.0
 11
-407.8478088378906
 21
270.765106201172
 31
0.0
  0
LINE
  5
2EA
330
22
100
AcDbEntity
  8
0
  6
Continuous
 62
     7
100
AcDbLine
 10
-397.8478088378906
 20
293.7651062011719
 30
0.0
 11
-397.8478088378906
 21
270.765106201172
 31
0.0
  0
LINE
  5
2EB
330
22
100
AcDbEntity
  8
0
  6
Continuous
 62
     7
100
AcDbLine
 10
-427.8478088378906
 20
310.7651062011719
 30
0.0
 11
-427.8478088378906
 21
270.765106201172
 31
0.0
  0
LINE
  5
2EC
330
22
100
AcDbEntity
  8
0
  6
Continuous
 62
     7
100
AcDbLine
 10
-422.8478088378905
 20
310.7651062011719
 30
0.0
 11
-422.8478088378905
 21
270.765106201172
 31
0.0
  0
LINE
  5
2ED
330
22
100
AcDbEntity
  8
0
  6
Continuous
 62
     7
100
AcDbLine
 10
-432.8478088378906
 20
293.7651062011719
 30
0.0
 11
-432.8478088378906
 21
273.7651062011719
 31
0.0
  0
LINE
  5
2EE
330
22
100
AcDbEntity
  8
0
  6
Continuous
 62
     7
100
AcDbLine
 10
-417.8478088378906
 20
293.7651062011719
 30
0.0
 11
-417.8478088378906
 21
270.765106201172
 31
0.0
  0
LINE
  5
2EF
330
22
100
AcDbEntity
  8
0
  6
Continuous
 62
     7
100
AcDbLine
 10
-437.8478088378906
 20
293.7651062011719
 30
0.0
 11
-437.8478088378906
 21
273.7651062011719
 31
0.0
  0
LINE
  5
2F0
330
22
100
AcDbEntity
  8
0
  6
Continuous
 62
     7
100
AcDbLine
 10
-387.8478088378906
 20
310.7651062011719
 30
0.0
 11
-387.8478088378906
 21
270.765106201172
 31
0.0
  0
LINE
  5
2F1
330
22
100
AcDbEntity
  8
0
  6
Continuous
 62
     7
100
AcDbLine
 10
-402.8478088378906
 20
310.7651062011719
 30
0.0
 11
-402.8478088378906
 21
270.765106201172
 31
0.0
  0
LINE
  5
2F2
330
22
100
AcDbEntity
  8
0
  6
Continuous
 62
     7
100
AcDbLine
 10
-367.8478088378906
 20
310.7651062011719
 30
0.0
 11
-367.8478088378906
 21
270.765106201172
 31
0.0
  0
LINE
  5
2F3
330
22
100
AcDbEntity
  8
0
  6
Continuous
 62
     7
100
AcDbLine
 10
-357.8478088378906
 20
293.7651062011719
 30
0.0
 11
-357.8478088378906
 21
270.765106201172
 31
0.0
  0
LINE
  5
2F4
330
22
100
AcDbEntity
  8
0
  6
Continuous
 62
     7
100
AcDbLine
 10
-288.8478088378906
 20
310.7651062011719
 30
0.0
 11
-288.8478088378906
 21
270.765106201172
 31
0.0
  0
LINE
  5
2F5
330
22
100
AcDbEntity
  8
0
  6
Continuous
 62
     7
100
AcDbLine
 10
-228.3478088378906
 20
371.7651062011719
 30
0.0
 11
-443.3478088378906
 21
371.7651062011719
 31
0.0
  0
LINE
  5
2F6
330
22
100
AcDbEntity
  8
0
  6
Continuous
 62
     7
100
AcDbLine
 10
-228.3478088378906
 20
152.7651062011719
 30
0.0
 11
-443.3478088378906
 21
152.7651062011719
 31
0.0
  0
LINE
  5
2F7
330
22
100
AcDbEntity
  8
0
  6
Continuous
 62
     7
100
AcDbLine
 10
-226.3478088378906
 20
372.7651062011719
 30
0.0
 11
-445.3478088378906
 21
372.7651062011719
 31
0.0
  0
LINE
  5
2F8
330
22
100
AcDbEntity
  8
0
  6
Continuous
 62
     7
100
AcDbLine
 10
-215.8478088378906
 20
387.2651062011719
 30
0.0
 11
-455.8478088378906
 21
387.2651062011719
 31
0.0
  0
LINE
  5
2F9
330
22
100
AcDbEntity
  8
0
  6
Continuous
 62
     7
100
AcDbLine
 10
-445.3478088378906
 20
151.7651062011719
 30
0.0
 11
-226.3478088378906
 21
151.7651062011719
 31
0.0
  0
LINE
  5
2FA
330
22
100
AcDbEntity
  8
0
  6
CENTER
 62
     7
100
AcDbLine
 10
-466.9877929687499
 20
262.2651062011719
 30
0.0
 11
-202.5790710449219
 21
262.2651062011719
 31
0.0
  0
LINE
  5
2FB
330
22
100
AcDbEntity
  8
0
  6
DASHED
 62
     7
100
AcDbLine
 10
-331.3478088378906
 20
264.7518615722656
 30
0.0
 11
-237.5176696777344
 21
264.7518615722656
 31
0.0
  0
LINE
  5
2FC
330
22
100
AcDbEntity
  8
0
  6
DASHED
 62
     7
100
AcDbLine
 10
-331.3478088378906
 20
259.7651062011719
 30
0.0
 11
-237.6175079345703
 21
259.7651062011719
 31
0.0
  0
LINE
  5
2FD
330
22
100
AcDbEntity
  8
0
  6
DASHED
 62
     7
100
AcDbLine
 10
-239.8478088378906
 20
155.7651062011719
 30
0.0
 11
-328.8478088378906
 21
155.7651062011719
 31
0.0
  0
LINE
  5
2FE
330
22
100
AcDbEntity
  8
0
  6
DASHED
 62
     7
100
AcDbLine
 10
-239.8478088378906
 20
368.7651062011719
 30
0.0
 11
-328.8478088378906
 21
368.7651062011719
 31
0.0
  0
LINE
  5
2FF
330
22
100
AcDbEntity
  8
0
  6
Continuous
 62
     7
100
AcDbLine
 10
-308.8478088378906
 20
310.7651062011719
 30
0.0
 11
-308.8478088378906
 21
270.765106201172
 31
0.0
  0
LINE
  5
300
330
22
100
AcDbEntity
  8
0
  6
Continuous
 62
     7
100
AcDbLine
 10
-313.8478088378906
 20
293.7651062011719
 30
0.0
 11
-313.8478088378906
 21
270.765106201172
 31
0.0
  0
LINE
  5
301
330
22
100
AcDbEntity
  8
0
  6
Continuous
 62
     7
100
AcDbLine
 10
-303.8478088378906
 20
310.7651062011719
 30
0.0
 11
-303.8478088378906
 21
270.765106201172
 31
0.0
  0
LINE
  5
302
330
22
100
AcDbEntity
  8
0
  6
Continuous
 62
     7
100
AcDbLine
 10
-298.8478088378906
 20
293.7651062011719
 30
0.0
 11
-298.8478088378906
 21
270.765106201172
 31
0.0
  0
LINE
  5
303
330
22
100
AcDbEntity
  8
0
  6
Continuous
 62
     7
100
AcDbLine
 10
-288.8478088378906
 20
213.7651062011719
 30
0.0
 11
-288.8478088378906
 21
253.7651062011719
 31
0.0
  0
LINE
  5
304
330
22
100
AcDbEntity
  8
0
  6
Continuous
 62
     7
100
AcDbLine
 10
-293.8478088378906
 20
230.7651062011719
 30
0.0
 11
-293.8478088378906
 21
253.7651062011719
 31
0.0
  0
LINE
  5
305
330
22
100
AcDbEntity
  8
0
  6
Continuous
 62
     7
100
AcDbLine
 10
-288.8478088378906
 20
162.7651062011719
 30
0.0
 11
-288.8478088378906
 21
202.7651062011719
 31
0.0
  0
LINE
  5
306
330
22
100
AcDbEntity
  8
0
  6
Continuous
 62
     7
100
AcDbLine
 10
-293.8478088378906
 20
162.7651062011719
 30
0.0
 11
-293.8478088378906
 21
185.7651062011719
 31
0.0
  0
LINE
  5
307
330
22
100
AcDbEntity
  8
0
  6
Continuous
 62
     7
100
AcDbLine
 10
-293.8478088378906
 20
196.7651062011719
 30
0.0
 11
-293.8478088378906
 21
219.7651062011719
 31
0.0
  0
LINE
  5
308
330
22
100
AcDbEntity
  8
0
  6
Continuous
 62
     7
100
AcDbLine
 10
-293.8478088378906
 20
327.7651062011719
 30
0.0
 11
-293.8478088378906
 21
304.7651062011719
 31
0.0
  0
LINE
  5
309
330
22
100
AcDbEntity
  8
0
  6
Continuous
 62
     7
100
AcDbLine
 10
-288.8478088378906
 20
361.7651062011719
 30
0.0
 11
-288.8478088378906
 21
321.7651062011719
 31
0.0
  0
LINE
  5
30A
330
22
100
AcDbEntity
  8
0
  6
Continuous
 62
     7
100
AcDbLine
 10
-293.8478088378906
 20
361.7651062011719
 30
0.0
 11
-293.8478088378906
 21
338.7651062011719
 31
0.0
  0
LINE
  5
30B
330
22
100
AcDbEntity
  8
0
  6
Continuous
 62
     7
100
AcDbLine
 10
-293.8478088378906
 20
293.7651062011719
 30
0.0
 11
-293.8478088378906
 21
270.765106201172
 31
0.0
  0
LINE
  5
30C
330
22
100
AcDbEntity
  8
0
  6
CENTER
 62
     7
100
AcDbLine
 10
-335.8478088378906
 20
391.8280334472656
 30
0.0
 11
-335.8478088378906
 21
131.7240142822266
 31
0.0
  0
LINE
  5
30D
330
22
100
AcDbEntity
  8
0
  6
Continuous
 62
     7
100
AcDbLine
 10
-455.8478088378906
 20
137.2651062011719
 30
0.0
 11
-215.8478088378906
 21
137.2651062011719
 31
0.0
  0
ARC
  5
30E
330
22
100
AcDbEntity
  8
0
  6
Continuous
 62
     7
100
AcDbCircle
 10
-365.3478088378906
 20
213.7651062011719
 30
0.0
 40
2.5
100
AcDbArc
 50
180.0000000000004
 51
0.0
  0
ARC
  5
30F
330
22
100
AcDbEntity
  8
0
  6
Continuous
 62
     7
100
AcDbCircle
 10
-443.3478088378906
 20
369.7651062011719
 30
0.0
 40
2.0
100
AcDbArc
 50
90.00000000000019
 51
180.0000000000004
  0
ARC
  5
310
330
22
100
AcDbEntity
  8
0
  6
Continuous
 62
     7
100
AcDbCircle
 10
-445.3478088378906
 20
371.7651062011719
 30
0.0
 40
1.0
100
AcDbArc
 50
90.00000000000019
 51
180.0000000000004
  0
ARC
  5
311
330
22
100
AcDbEntity
  8
0
  6
Continuous
 62
     7
100
AcDbCircle
 10
-326.3478088378906
 20
202.7651062011719
 30
0.0
 40
2.5
100
AcDbArc
 50
0.0
 51
180.0000000000004
  0
ARC
  5
312
330
22
100
AcDbEntity
  8
0
  6
Continuous
 62
     7
100
AcDbCircle
 10
-326.3478088378906
 20
168.7651062011719
 30
0.0
 40
2.5
100
AcDbArc
 50
180.0000000000004
 51
0.0
  0
ARC
  5
313
330
22
100
AcDbEntity
  8
0
  6
Continuous
 62
     7
100
AcDbCircle
 10
-326.3478088378906
 20
213.7651062011719
 30
0.0
 40
2.5
100
AcDbArc
 50
180.0000000000004
 51
0.0
  0
ARC
  5
314
330
22
100
AcDbEntity
  8
0
  6
Continuous
 62
     7
100
AcDbCircle
 10
-326.3478088378906
 20
253.7651062011719
 30
0.0
 40
2.5
100
AcDbArc
 50
0.0
 51
180.0000000000004
  0
ARC
  5
315
330
22
100
AcDbEntity
  8
0
  6
Continuous
 62
     7
100
AcDbCircle
 10
-326.3478088378906
 20
270.765106201172
 30
0.0
 40
2.5
100
AcDbArc
 50
180.0000000000004
 51
0.0
  0
ARC
  5
316
330
22
100
AcDbEntity
  8
0
  6
DASHED
 62
     7
100
AcDbCircle
 10
-328.8478088378906
 20
157.7651062011719
 30
0.0
 40
2.0
100
AcDbArc
 50
180.0000000000004
 51
270.0000000000005
  0
ARC
  5
317
330
22
100
AcDbEntity
  8
0
  6
Continuous
 62
     7
100
AcDbCircle
 10
-415.3478088378906
 20
361.7651062011719
 30
0.0
 40
2.5
100
AcDbArc
 50
0.0
 51
180.0000000000004
  0
ARC
  5
318
330
22
100
AcDbEntity
  8
0
  6
Continuous
 62
     7
100
AcDbCircle
 10
-415.3478088378906
 20
338.7651062011719
 30
0.0
 40
2.5
100
AcDbArc
 50
180.0000000000004
 51
0.0
  0
ARC
  5
319
330
22
100
AcDbEntity
  8
0
  6
Continuous
 62
     7
100
AcDbCircle
 10
-415.3478088378906
 20
327.7651062011719
 30
0.0
 40
2.5
100
AcDbArc
 50
0.0
 51
180.0000000000004
  0
ARC
  5
31A
330
22
100
AcDbEntity
  8
0
  6
Continuous
 62
     7
100
AcDbCircle
 10
-415.3478088378906
 20
293.7651062011719
 30
0.0
 40
2.5
100
AcDbArc
 50
0.0
 51
180.0000000000004
  0
ARC
  5
31B
330
22
100
AcDbEntity
  8
0
  6
DASHED
 62
     7
100
AcDbCircle
 10
-440.3478088378906
 20
358.2651062011719
 30
0.0
 40
2.0
100
AcDbArc
 50
90.00000000000019
 51
180.0000000000004
  0
ARC
  5
31C
330
22
100
AcDbEntity
  8
0
  6
Continuous
 62
     7
100
AcDbCircle
 10
-455.8478088378906
 20
382.2651062011719
 30
0.0
 40
5.0
100
AcDbArc
 50
90.00000000000019
 51
180.0000000000004
  0
CIRCLE
  5
31D
330
22
100
AcDbEntity
  8
0
  6
Continuous
 62
     7
100
AcDbCircle
 10
-438.8478088378906
 20
365.2906188964844
 30
0.0
 40
4.5
  0
CIRCLE
  5
31E
330
22
100
AcDbEntity
  8
0
  6
Continuous
 62
     7
100
AcDbCircle
 10
-438.8478088378906
 20
365.2906188964844
 30
0.0
 40
4.75
  0
ARC
  5
31F
330
22
100
AcDbEntity
  8
0
  6
DASHED
 62
     7
100
AcDbCircle
 10
-438.8478088378906
 20
365.2651062011719
 30
0.0
 40
5.0
100
AcDbArc
 50
270.0000000000005
 51
0.0
  0
ARC
  5
320
330
22
100
AcDbEntity
  8
0
  6
DASHED
 62
     7
100
AcDbCircle
 10
-431.8478088378906
 20
366.7651062011719
 30
0.0
 40
2.0
100
AcDbArc
 50
90.00000000000019
 51
180.0000000000004
  0
ARC
  5
321
330
22
100
AcDbEntity
  8
0
  6
Continuous
 62
     7
100
AcDbCircle
 10
-415.3478088378906
 20
304.7651062011719
 30
0.0
 40
2.5
100
AcDbArc
 50
180.0000000000004
 51
0.0
  0
ARC
  5
322
330
22
100
AcDbEntity
  8
0
  6
Continuous
 62
     7
100
AcDbCircle
 10
-306.3478088378906
 20
321.7651062011719
 30
0.0
 40
2.5
100
AcDbArc
 50
180.0000000000004
 51
0.0
  0
ARC
  5
323
330
22
100
AcDbEntity
  8
0
  6
Continuous
 62
     7
100
AcDbCircle
 10
-306.3478088378906
 20
310.7651062011719
 30
0.0
 40
2.5
100
AcDbArc
 50
0.0
 51
180.0000000000004
  0
ARC
  5
324
330
22
100
AcDbEntity
  8
0
  6
Continuous
 62
     7
100
AcDbCircle
 10
-306.3478088378906
 20
361.7651062011719
 30
0.0
 40
2.5
100
AcDbArc
 50
0.0
 51
180.0000000000004
  0
ARC
  5
325
330
22
100
AcDbEntity
  8
0
  6
Continuous
 62
     7
100
AcDbCircle
 10
-435.3478088378905
 20
355.7651062011719
 30
0.0
 40
2.5
100
AcDbArc
 50
0.0
 51
180.0000000000004
  0
ARC
  5
326
330
22
100
AcDbEntity
  8
0
  6
Continuous
 62
     7
100
AcDbCircle
 10
-435.3478088378905
 20
338.7651062011719
 30
0.0
 40
2.5
100
AcDbArc
 50
180.0000000000004
 51
0.0
  0
ARC
  5
327
330
22
100
AcDbEntity
  8
0
  6
Continuous
 62
     7
100
AcDbCircle
 10
-435.3478088378905
 20
327.7651062011719
 30
0.0
 40
2.5
100
AcDbArc
 50
0.0
 51
180.0000000000004
  0
ARC
  5
328
330
22
100
AcDbEntity
  8
0
  6
Continuous
 62
     7
100
AcDbCircle
 10
-435.3478088378905
 20
293.7651062011719
 30
0.0
 40
2.5
100
AcDbArc
 50
0.0
 51
180.0000000000004
  0
ARC
  5
329
330
22
100
AcDbEntity
  8
0
  6
Continuous
 62
     7
100
AcDbCircle
 10
-435.3478088378905
 20
304.7651062011719
 30
0.0
 40
2.5
100
AcDbArc
 50
180.0000000000004
 51
0.0
  0
ARC
  5
32A
330
22
100
AcDbEntity
  8
0
  6
Continuous
 62
     7
100
AcDbCircle
 10
-425.3478088378906
 20
321.7651062011719
 30
0.0
 40
2.5
100
AcDbArc
 50
180.0000000000004
 51
0.0
  0
ARC
  5
32B
330
22
100
AcDbEntity
  8
0
  6
Continuous
 62
     7
100
AcDbCircle
 10
-425.3478088378906
 20
310.7651062011719
 30
0.0
 40
2.5
100
AcDbArc
 50
0.0
 51
180.0000000000004
  0
ARC
  5
32C
330
22
100
AcDbEntity
  8
0
  6
Continuous
 62
     7
100
AcDbCircle
 10
-425.3478088378906
 20
361.7651062011719
 30
0.0
 40
2.5
100
AcDbArc
 50
0.0
 51
180.0000000000004
  0
ARC
  5
32D
330
22
100
AcDbEntity
  8
0
  6
Continuous
 62
     7
100
AcDbCircle
 10
-395.3478088378906
 20
361.7651062011719
 30
0.0
 40
2.5
100
AcDbArc
 50
0.0
 51
180.0000000000004
  0
ARC
  5
32E
330
22
100
AcDbEntity
  8
0
  6
Continuous
 62
     7
100
AcDbCircle
 10
-355.3478088378906
 20
304.7651062011719
 30
0.0
 40
2.5
100
AcDbArc
 50
180.0000000000004
 51
0.0
  0
ARC
  5
32F
330
22
100
AcDbEntity
  8
0
  6
Continuous
 62
     7
100
AcDbCircle
 10
-355.3478088378906
 20
327.7651062011719
 30
0.0
 40
2.5
100
AcDbArc
 50
0.0
 51
180.0000000000004
  0
ARC
  5
330
330
22
100
AcDbEntity
  8
0
  6
Continuous
 62
     7
100
AcDbCircle
 10
-355.3478088378906
 20
293.7651062011719
 30
0.0
 40
2.5
100
AcDbArc
 50
0.0
 51
180.0000000000004
  0
ARC
  5
331
330
22
100
AcDbEntity
  8
0
  6
Continuous
 62
     7
100
AcDbCircle
 10
-355.3478088378906
 20
361.7651062011719
 30
0.0
 40
2.5
100
AcDbArc
 50
0.0
 51
180.0000000000004
  0
CIRCLE
  5
332
330
22
100
AcDbEntity
  8
0
  6
Continuous
 62
     7
100
AcDbCircle
 10
-335.8478088378906
 20
365.2651062011719
 30
0.0
 40
4.75
  0
CIRCLE
  5
333
330
22
100
AcDbEntity
  8
0
  6
Continuous
 62
     7
100
AcDbCircle
 10
-335.8478088378906
 20
365.2651062011719
 30
0.0
 40
4.75
  0
CIRCLE
  5
334
330
22
100
AcDbEntity
  8
0
  6
Continuous
 62
     7
100
AcDbCircle
 10
-335.8478088378906
 20
365.2651062011719
 30
0.0
 40
4.5
  0
CIRCLE
  5
335
330
22
100
AcDbEntity
  8
0
  6
Continuous
 62
     7
100
AcDbCircle
 10
-335.8478088378906
 20
365.2651062011719
 30
0.0
 40
4.5
  0
ARC
  5
336
330
22
100
AcDbEntity
  8
0
  6
Continuous
 62
     7
100
AcDbCircle
 10
-345.3478088378906
 20
310.7651062011719
 30
0.0
 40
2.5
100
AcDbArc
 50
0.0
 51
180.0000000000004
  0
ARC
  5
337
330
22
100
AcDbEntity
  8
0
  6
Continuous
 62
     7
100
AcDbCircle
 10
-345.3478088378906
 20
321.7651062011719
 30
0.0
 40
2.5
100
AcDbArc
 50
180.0000000000004
 51
0.0
  0
ARC
  5
338
330
22
100
AcDbEntity
  8
0
  6
Continuous
 62
     7
100
AcDbCircle
 10
-345.3478088378906
 20
355.7651062011719
 30
0.0
 40
2.5
100
AcDbArc
 50
0.0
 51
180.0000000000004
  0
ARC
  5
339
330
22
100
AcDbEntity
  8
0
  6
Continuous
 62
     7
100
AcDbCircle
 10
-355.3478088378906
 20
338.7651062011719
 30
0.0
 40
2.5
100
AcDbArc
 50
180.0000000000004
 51
0.0
  0
ARC
  5
33A
330
22
100
AcDbEntity
  8
0
  6
DASHED
 62
     7
100
AcDbCircle
 10
-335.8478088378906
 20
365.2651062011719
 30
0.0
 40
5.0
100
AcDbArc
 50
180.0000000000004
 51
252.5423550415739
  0
ARC
  5
33B
330
22
100
AcDbEntity
  8
0
  6
DASHED
 62
     7
100
AcDbCircle
 10
-342.8478088378906
 20
366.7651062011719
 30
0.0
 40
2.0
100
AcDbArc
 50
0.0
 51
90.00000000000019
  0
ARC
  5
33C
330
22
100
AcDbEntity
  8
0
  6
Continuous
 62
     7
100
AcDbCircle
 10
-316.3478088378906
 20
327.7651062011719
 30
0.0
 40
2.5
100
AcDbArc
 50
0.0
 51
180.0000000000004
  0
ARC
  5
33D
330
22
100
AcDbEntity
  8
0
  6
Continuous
 62
     7
100
AcDbCircle
 10
-316.3478088378906
 20
293.7651062011719
 30
0.0
 40
2.5
100
AcDbArc
 50
0.0
 51
180.0000000000004
  0
ARC
  5
33E
330
22
100
AcDbEntity
  8
0
  6
Continuous
 62
     7
100
AcDbCircle
 10
-316.3478088378906
 20
338.7651062011719
 30
0.0
 40
2.5
100
AcDbArc
 50
180.0000000000004
 51
0.0
  0
ARC
  5
33F
330
22
100
AcDbEntity
  8
0
  6
Continuous
 62
     7
100
AcDbCircle
 10
-316.3478088378906
 20
361.7651062011719
 30
0.0
 40
2.5
100
AcDbArc
 50
0.0
 51
180.0000000000004
  0
ARC
  5
340
330
22
100
AcDbEntity
  8
0
  6
Continuous
 62
     7
100
AcDbCircle
 10
-316.3478088378906
 20
304.7651062011719
 30
0.0
 40
2.5
100
AcDbArc
 50
180.0000000000004
 51
0.0
  0
ARC
  5
341
330
22
100
AcDbEntity
  8
0
  6
Continuous
 62
     7
100
AcDbCircle
 10
-365.3478088378906
 20
310.7651062011719
 30
0.0
 40
2.5
100
AcDbArc
 50
0.0
 51
180.0000000000004
  0
ARC
  5
342
330
22
100
AcDbEntity
  8
0
  6
Continuous
 62
     7
100
AcDbCircle
 10
-365.3478088378906
 20
321.7651062011719
 30
0.0
 40
2.5
100
AcDbArc
 50
180.0000000000004
 51
0.0
  0
ARC
  5
343
330
22
100
AcDbEntity
  8
0
  6
Continuous
 62
     7
100
AcDbCircle
 10
-365.3478088378906
 20
361.7651062011719
 30
0.0
 40
2.5
100
AcDbArc
 50
0.0
 51
180.0000000000004
  0
ARC
  5
344
330
22
100
AcDbEntity
  8
0
  6
Continuous
 62
     7
100
AcDbCircle
 10
-375.3478088378906
 20
327.7651062011719
 30
0.0
 40
2.5
100
AcDbArc
 50
0.0
 51
180.0000000000004
  0
ARC
  5
345
330
22
100
AcDbEntity
  8
0
  6
Continuous
 62
     7
100
AcDbCircle
 10
-375.3478088378906
 20
293.7651062011719
 30
0.0
 40
2.5
100
AcDbArc
 50
0.0
 51
180.0000000000004
  0
ARC
  5
346
330
22
100
AcDbEntity
  8
0
  6
Continuous
 62
     7
100
AcDbCircle
 10
-375.3478088378906
 20
338.7651062011719
 30
0.0
 40
2.5
100
AcDbArc
 50
180.0000000000004
 51
0.0
  0
ARC
  5
347
330
22
100
AcDbEntity
  8
0
  6
Continuous
 62
     7
100
AcDbCircle
 10
-375.3478088378906
 20
304.7651062011719
 30
0.0
 40
2.5
100
AcDbArc
 50
180.0000000000004
 51
0.0
  0
ARC
  5
348
330
22
100
AcDbEntity
  8
0
  6
Continuous
 62
     7
100
AcDbCircle
 10
-375.3478088378906
 20
361.7651062011719
 30
0.0
 40
2.5
100
AcDbArc
 50
0.0
 51
180.0000000000004
  0
ARC
  5
349
330
22
100
AcDbEntity
  8
0
  6
Continuous
 62
     7
100
AcDbCircle
 10
-385.3478088378906
 20
361.7651062011719
 30
0.0
 40
2.5
100
AcDbArc
 50
0.0
 51
180.0000000000004
  0
ARC
  5
34A
330
22
100
AcDbEntity
  8
0
  6
Continuous
 62
     7
100
AcDbCircle
 10
-385.3478088378906
 20
310.7651062011719
 30
0.0
 40
2.5
100
AcDbArc
 50
0.0
 51
180.0000000000004
  0
ARC
  5
34B
330
22
100
AcDbEntity
  8
0
  6
Continuous
 62
     7
100
AcDbCircle
 10
-385.3478088378906
 20
321.7651062011719
 30
0.0
 40
2.5
100
AcDbArc
 50
180.0000000000004
 51
0.0
  0
ARC
  5
34C
330
22
100
AcDbEntity
  8
0
  6
Continuous
 62
     7
100
AcDbCircle
 10
-395.3478088378906
 20
293.7651062011719
 30
0.0
 40
2.5
100
AcDbArc
 50
0.0
 51
180.0000000000004
  0
ARC
  5
34D
330
22
100
AcDbEntity
  8
0
  6
Continuous
 62
     7
100
AcDbCircle
 10
-395.3478088378906
 20
304.7651062011719
 30
0.0
 40
2.5
100
AcDbArc
 50
180.0000000000004
 51
0.0
  0
ARC
  5
34E
330
22
100
AcDbEntity
  8
0
  6
Continuous
 62
     7
100
AcDbCircle
 10
-395.3478088378906
 20
327.7651062011719
 30
0.0
 40
2.5
100
AcDbArc
 50
0.0
 51
180.0000000000004
  0
ARC
  5
34F
330
22
100
AcDbEntity
  8
0
  6
Continuous
 62
     7
100
AcDbCircle
 10
-395.3478088378906
 20
338.7651062011719
 30
0.0
 40
2.5
100
AcDbArc
 50
180.0000000000004
 51
0.0
  0
ARC
  5
350
330
22
100
AcDbEntity
  8
0
  6
DASHED
 62
     7
100
AcDbCircle
 10
-335.8478088378906
 20
365.2651062011719
 30
0.0
 40
5.0
100
AcDbArc
 50
287.4576449584277
 51
0.0
  0
ARC
  5
351
330
22
100
AcDbEntity
  8
0
  6
Continuous
 62
     7
100
AcDbCircle
 10
-256.3478088378906
 20
270.765106201172
 30
0.0
 40
2.5
100
AcDbArc
 50
180.0000000000004
 51
0.0
  0
ARC
  5
352
330
22
100
AcDbEntity
  8
0
  6
Continuous
 62
     7
100
AcDbCircle
 10
-266.3478088378905
 20
270.765106201172
 30
0.0
 40
2.5
100
AcDbArc
 50
180.0000000000004
 51
0.0
  0
ARC
  5
353
330
22
100
AcDbEntity
  8
0
  6
Continuous
 62
     7
100
AcDbCircle
 10
-326.3478088378906
 20
355.7651062011719
 30
0.0
 40
2.5
100
AcDbArc
 50
0.0
 51
180.0000000000004
  0
ARC
  5
354
330
22
100
AcDbEntity
  8
0
  6
Continuous
 62
     7
100
AcDbCircle
 10
-326.3478088378906
 20
310.7651062011719
 30
0.0
 40
2.5
100
AcDbArc
 50
0.0
 51
180.0000000000004
  0
ARC
  5
355
330
22
100
AcDbEntity
  8
0
  6
Continuous
 62
     7
100
AcDbCircle
 10
-326.3478088378906
 20
321.7651062011719
 30
0.0
 40
2.5
100
AcDbArc
 50
180.0000000000004
 51
0.0
  0
ARC
  5
356
330
22
100
AcDbEntity
  8
0
  6
DASHED
 62
     7
100
AcDbCircle
 10
-328.8478088378906
 20
366.7651062011719
 30
0.0
 40
2.0
100
AcDbArc
 50
90.00000000000019
 51
180.0000000000004
  0
ARC
  5
357
330
22
100
AcDbEntity
  8
0
  6
Continuous
 62
     7
100
AcDbCircle
 10
-276.3478088378906
 20
270.765106201172
 30
0.0
 40
2.5
100
AcDbArc
 50
180.0000000000004
 51
0.0
  0
ARC
  5
358
330
22
100
AcDbEntity
  8
0
  6
DASHED
 62
     7
100
AcDbCircle
 10
-231.3478088378906
 20
255.2651062011719
 30
0.0
 40
2.0
100
AcDbArc
 50
0.0
 51
90.00000000000019
  0
CIRCLE
  5
359
330
22
100
AcDbEntity
  8
0
  6
Continuous
 62
     7
100
AcDbCircle
 10
-232.8478088378906
 20
262.2651062011719
 30
0.0
 40
4.75
  0
CIRCLE
  5
35A
330
22
100
AcDbEntity
  8
0
  6
Continuous
 62
     7
100
AcDbCircle
 10
-232.8478088378906
 20
262.2651062011719
 30
0.0
 40
4.75
  0
CIRCLE
  5
35B
330
22
100
AcDbEntity
  8
0
  6
Continuous
 62
     7
100
AcDbCircle
 10
-232.8478088378906
 20
262.2651062011719
 30
0.0
 40
4.5
  0
CIRCLE
  5
35C
330
22
100
AcDbEntity
  8
0
  6
Continuous
 62
     7
100
AcDbCircle
 10
-232.8478088378906
 20
262.2651062011719
 30
0.0
 40
4.5
  0
ARC
  5
35D
330
22
100
AcDbEntity
  8
0
  6
DASHED
 62
     7
100
AcDbCircle
 10
-232.8478088378906
 20
262.2651062011719
 30
0.0
 40
5.0
100
AcDbArc
 50
197.457592502484
 51
270.0000000000005
  0
ARC
  5
35E
330
22
100
AcDbEntity
  8
0
  6
Continuous
 62
     7
100
AcDbCircle
 10
-256.3478088378906
 20
162.7651062011719
 30
0.0
 40
2.5
100
AcDbArc
 50
180.0000000000004
 51
0.0
  0
ARC
  5
35F
330
22
100
AcDbEntity
  8
0
  6
Continuous
 62
     7
100
AcDbCircle
 10
-266.3478088378905
 20
162.7651062011719
 30
0.0
 40
2.5
100
AcDbArc
 50
180.0000000000004
 51
0.0
  0
ARC
  5
360
330
22
100
AcDbEntity
  8
0
  6
Continuous
 62
     7
100
AcDbCircle
 10
-256.3478088378906
 20
185.7651062011719
 30
0.0
 40
2.5
100
AcDbArc
 50
0.0
 51
180.0000000000004
  0
ARC
  5
361
330
22
100
AcDbEntity
  8
0
  6
Continuous
 62
     7
100
AcDbCircle
 10
-266.3478088378905
 20
213.7651062011719
 30
0.0
 40
2.5
100
AcDbArc
 50
180.0000000000004
 51
0.0
  0
ARC
  5
362
330
22
100
AcDbEntity
  8
0
  6
Continuous
 62
     7
100
AcDbCircle
 10
-256.3478088378906
 20
219.7651062011719
 30
0.0
 40
2.5
100
AcDbArc
 50
0.0
 51
180.0000000000004
  0
ARC
  5
363
330
22
100
AcDbEntity
  8
0
  6
Continuous
 62
     7
100
AcDbCircle
 10
-256.3478088378906
 20
230.7651062011719
 30
0.0
 40
2.5
100
AcDbArc
 50
180.0000000000004
 51
0.0
  0
ARC
  5
364
330
22
100
AcDbEntity
  8
0
  6
Continuous
 62
     7
100
AcDbCircle
 10
-256.3478088378906
 20
253.7651062011719
 30
0.0
 40
2.5
100
AcDbArc
 50
0.0
 51
180.0000000000004
  0
ARC
  5
365
330
22
100
AcDbEntity
  8
0
  6
Continuous
 62
     7
100
AcDbCircle
 10
-266.3478088378905
 20
253.7651062011719
 30
0.0
 40
2.5
100
AcDbArc
 50
0.0
 51
180.0000000000004
  0
ARC
  5
366
330
22
100
AcDbEntity
  8
0
  6
DASHED
 62
     7
100
AcDbCircle
 10
-231.3478088378906
 20
269.2651062011719
 30
0.0
 40
2.0
100
AcDbArc
 50
270.0000000000005
 51
0.0
  0
ARC
  5
367
330
22
100
AcDbEntity
  8
0
  6
Continuous
 62
     7
100
AcDbCircle
 10
-246.3478088378906
 20
270.765106201172
 30
0.0
 40
2.5
100
AcDbArc
 50
180.0000000000004
 51
0.0
  0
ARC
  5
368
330
22
100
AcDbEntity
  8
0
  6
DASHED
 62
     7
100
AcDbCircle
 10
-232.8478088378906
 20
262.2651062011719
 30
0.0
 40
5.0
100
AcDbArc
 50
90.00000000000019
 51
159.0625670389302
  0
ARC
  5
369
330
22
100
AcDbEntity
  8
0
  6
Continuous
 62
     7
100
AcDbCircle
 10
-246.3478088378906
 20
253.7651062011719
 30
0.0
 40
2.5
100
AcDbArc
 50
0.0
 51
180.0000000000004
  0
ARC
  5
36A
330
22
100
AcDbEntity
  8
0
  6
Continuous
 62
     7
100
AcDbCircle
 10
-236.3478088378906
 20
250.7651062011719
 30
0.0
 40
2.5
100
AcDbArc
 50
0.0
 51
180.0000000000004
  0
ARC
  5
36B
330
22
100
AcDbEntity
  8
0
  6
Continuous
 62
     7
100
AcDbCircle
 10
-276.3478088378906
 20
196.7651062011719
 30
0.0
 40
2.5
100
AcDbArc
 50
180.0000000000004
 51
0.0
  0
ARC
  5
36C
330
22
100
AcDbEntity
  8
0
  6
Continuous
 62
     7
100
AcDbCircle
 10
-276.3478088378906
 20
185.7651062011719
 30
0.0
 40
2.5
100
AcDbArc
 50
0.0
 51
180.0000000000004
  0
ARC
  5
36D
330
22
100
AcDbEntity
  8
0
  6
Continuous
 62
     7
100
AcDbCircle
 10
-276.3478088378906
 20
162.7651062011719
 30
0.0
 40
2.5
100
AcDbArc
 50
180.0000000000004
 51
0.0
  0
ARC
  5
36E
330
22
100
AcDbEntity
  8
0
  6
Continuous
 62
     7
100
AcDbCircle
 10
-276.3478088378906
 20
219.7651062011719
 30
0.0
 40
2.5
100
AcDbArc
 50
0.0
 51
180.0000000000004
  0
ARC
  5
36F
330
22
100
AcDbEntity
  8
0
  6
Continuous
 62
     7
100
AcDbCircle
 10
-276.3478088378906
 20
253.7651062011719
 30
0.0
 40
2.5
100
AcDbArc
 50
0.0
 51
180.0000000000004
  0
ARC
  5
370
330
22
100
AcDbEntity
  8
0
  6
Continuous
 62
     7
100
AcDbCircle
 10
-256.3478088378906
 20
196.7651062011719
 30
0.0
 40
2.5
100
AcDbArc
 50
180.0000000000004
 51
0.0
  0
ARC
  5
371
330
22
100
AcDbEntity
  8
0
  6
Continuous
 62
     7
100
AcDbCircle
 10
-266.3478088378905
 20
202.7651062011719
 30
0.0
 40
2.5
100
AcDbArc
 50
0.0
 51
180.0000000000004
  0
ARC
  5
372
330
22
100
AcDbEntity
  8
0
  6
Continuous
 62
     7
100
AcDbCircle
 10
-236.3478088378906
 20
196.7651062011719
 30
0.0
 40
2.5
100
AcDbArc
 50
180.0000000000004
 51
0.0
  0
ARC
  5
373
330
22
100
AcDbEntity
  8
0
  6
Continuous
 62
     7
100
AcDbCircle
 10
-226.3478088378906
 20
152.7651062011719
 30
0.0
 40
1.0
100
AcDbArc
 50
270.0000000000005
 51
0.0
  0
ARC
  5
374
330
22
100
AcDbEntity
  8
0
  6
DASHED
 62
     7
100
AcDbCircle
 10
-231.3478088378906
 20
166.2651062011719
 30
0.0
 40
2.0
100
AcDbArc
 50
270.0000000000005
 51
0.0
  0
ARC
  5
375
330
22
100
AcDbEntity
  8
0
  6
DASHED
 62
     7
100
AcDbCircle
 10
-232.8478088378906
 20
159.2651062011719
 30
0.0
 40
5.0
100
AcDbArc
 50
90.00000000000019
 51
180.0000000000004
  0
ARC
  5
376
330
22
100
AcDbEntity
  8
0
  6
DASHED
 62
     7
100
AcDbCircle
 10
-239.8478088378906
 20
157.7651062011719
 30
0.0
 40
2.0
100
AcDbArc
 50
270.0000000000005
 51
0.0
  0
ARC
  5
377
330
22
100
AcDbEntity
  8
0
  6
Continuous
 62
     7
100
AcDbCircle
 10
-276.3478088378906
 20
230.7651062011719
 30
0.0
 40
2.5
100
AcDbArc
 50
180.0000000000004
 51
0.0
  0
ARC
  5
378
330
22
100
AcDbEntity
  8
0
  6
Continuous
 62
     7
100
AcDbCircle
 10
-236.3478088378906
 20
230.7651062011719
 30
0.0
 40
2.5
100
AcDbArc
 50
180.0000000000004
 51
0.0
  0
ARC
  5
379
330
22
100
AcDbEntity
  8
0
  6
Continuous
 62
     7
100
AcDbCircle
 10
-236.3478088378906
 20
219.7651062011719
 30
0.0
 40
2.5
100
AcDbArc
 50
0.0
 51
180.0000000000004
  0
ARC
  5
37A
330
22
100
AcDbEntity
  8
0
  6
Continuous
 62
     7
100
AcDbCircle
 10
-246.3478088378906
 20
213.7651062011719
 30
0.0
 40
2.5
100
AcDbArc
 50
180.0000000000004
 51
0.0
  0
CIRCLE
  5
37B
330
22
100
AcDbEntity
  8
0
  6
Continuous
 62
     7
100
AcDbCircle
 10
-232.8478088378906
 20
159.2395782470703
 30
0.0
 40
4.5
  0
CIRCLE
  5
37C
330
22
100
AcDbEntity
  8
0
  6
Continuous
 62
     7
100
AcDbCircle
 10
-232.8478088378906
 20
159.2395782470703
 30
0.0
 40
4.5
  0
CIRCLE
  5
37D
330
22
100
AcDbEntity
  8
0
  6
Continuous
 62
     7
100
AcDbCircle
 10
-232.8478088378906
 20
159.2395782470703
 30
0.0
 40
4.75
  0
CIRCLE
  5
37E
330
22
100
AcDbEntity
  8
0
  6
Continuous
 62
     7
100
AcDbCircle
 10
-232.8478088378906
 20
159.2395782470703
 30
0.0
 40
4.75
  0
ARC
  5
37F
330
22
100
AcDbEntity
  8
0
  6
Continuous
 62
     7
100
AcDbCircle
 10
-266.3478088378905
 20
321.7651062011719
 30
0.0
 40
2.5
100
AcDbArc
 50
180.0000000000004
 51
0.0
  0
ARC
  5
380
330
22
100
AcDbEntity
  8
0
  6
Continuous
 62
     7
100
AcDbCircle
 10
-256.3478088378906
 20
327.7651062011719
 30
0.0
 40
2.5
100
AcDbArc
 50
0.0
 51
180.0000000000004
  0
ARC
  5
381
330
22
100
AcDbEntity
  8
0
  6
Continuous
 62
     7
100
AcDbCircle
 10
-256.3478088378906
 20
338.7651062011719
 30
0.0
 40
2.5
100
AcDbArc
 50
180.0000000000004
 51
0.0
  0
ARC
  5
382
330
22
100
AcDbEntity
  8
0
  6
Continuous
 62
     7
100
AcDbCircle
 10
-256.3478088378906
 20
304.7651062011719
 30
0.0
 40
2.5
100
AcDbArc
 50
180.0000000000004
 51
0.0
  0
ARC
  5
383
330
22
100
AcDbEntity
  8
0
  6
Continuous
 62
     7
100
AcDbCircle
 10
-266.3478088378905
 20
361.7651062011719
 30
0.0
 40
2.5
100
AcDbArc
 50
0.0
 51
180.0000000000004
  0
ARC
  5
384
330
22
100
AcDbEntity
  8
0
  6
Continuous
 62
     7
100
AcDbCircle
 10
-256.3478088378906
 20
361.7651062011719
 30
0.0
 40
2.5
100
AcDbArc
 50
0.0
 51
180.0000000000004
  0
ARC
  5
385
330
22
100
AcDbEntity
  8
0
  6
Continuous
 62
     7
100
AcDbCircle
 10
-266.3478088378905
 20
310.7651062011719
 30
0.0
 40
2.5
100
AcDbArc
 50
0.0
 51
180.0000000000004
  0
ARC
  5
386
330
22
100
AcDbEntity
  8
0
  6
Continuous
 62
     7
100
AcDbCircle
 10
-256.3478088378906
 20
293.7651062011719
 30
0.0
 40
2.5
100
AcDbArc
 50
0.0
 51
180.0000000000004
  0
ARC
  5
387
330
22
100
AcDbEntity
  8
0
  6
Continuous
 62
     7
100
AcDbCircle
 10
-236.3478088378906
 20
273.7651062011719
 30
0.0
 40
2.5
100
AcDbArc
 50
180.0000000000004
 51
0.0
  0
ARC
  5
388
330
22
100
AcDbEntity
  8
0
  6
Continuous
 62
     7
100
AcDbCircle
 10
-246.3478088378906
 20
202.7651062011719
 30
0.0
 40
2.5
100
AcDbArc
 50
0.0
 51
180.0000000000004
  0
ARC
  5
389
330
22
100
AcDbEntity
  8
0
  6
Continuous
 62
     7
100
AcDbCircle
 10
-228.3478088378906
 20
154.7651062011719
 30
0.0
 40
2.0
100
AcDbArc
 50
270.0000000000005
 51
0.0
  0
ARC
  5
38A
330
22
100
AcDbEntity
  8
0
  6
Continuous
 62
     7
100
AcDbCircle
 10
-236.3478088378906
 20
168.7651062011719
 30
0.0
 40
2.5
100
AcDbArc
 50
180.0000000000004
 51
0.0
  0
ARC
  5
38B
330
22
100
AcDbEntity
  8
0
  6
Continuous
 62
     7
100
AcDbCircle
 10
-246.3478088378906
 20
162.7651062011719
 30
0.0
 40
2.5
100
AcDbArc
 50
180.0000000000004
 51
0.0
  0
ARC
  5
38C
330
22
100
AcDbEntity
  8
0
  6
Continuous
 62
     7
100
AcDbCircle
 10
-236.3478088378906
 20
185.7651062011719
 30
0.0
 40
2.5
100
AcDbArc
 50
0.0
 51
180.0000000000004
  0
CIRCLE
  5
38D
330
22
100
AcDbEntity
  8
0
  6
Continuous
 62
     7
100
AcDbCircle
 10
-232.8478088378906
 20
365.2651062011719
 30
0.0
 40
4.5
  0
CIRCLE
  5
38E
330
22
100
AcDbEntity
  8
0
  6
Continuous
 62
     7
100
AcDbCircle
 10
-232.8478088378906
 20
365.2651062011719
 30
0.0
 40
4.5
  0
CIRCLE
  5
38F
330
22
100
AcDbEntity
  8
0
  6
Continuous
 62
     7
100
AcDbCircle
 10
-232.8478088378906
 20
365.2651062011719
 30
0.0
 40
4.75
  0
ARC
  5
390
330
22
100
AcDbEntity
  8
0
  6
Continuous
 62
     7
100
AcDbCircle
 10
-215.8478088378906
 20
382.2651062011719
 30
0.0
 40
5.0
100
AcDbArc
 50
0.0
 51
90.00000000000019
  0
ARC
  5
391
330
22
100
AcDbEntity
  8
0
  6
Continuous
 62
     7
100
AcDbCircle
 10
-226.3478088378906
 20
371.7651062011719
 30
0.0
 40
1.0
100
AcDbArc
 50
0.0
 51
90.00000000000019
  0
ARC
  5
392
330
22
100
AcDbEntity
  8
0
  6
DASHED
 62
     7
100
AcDbCircle
 10
-231.3478088378906
 20
358.2651062011719
 30
0.0
 40
2.0
100
AcDbArc
 50
0.0
 51
90.00000000000019
  0
ARC
  5
393
330
22
100
AcDbEntity
  8
0
  6
DASHED
 62
     7
100
AcDbCircle
 10
-232.8478088378906
 20
365.2651062011719
 30
0.0
 40
5.0
100
AcDbArc
 50
180.0000000000004
 51
270.0000000000005
  0
ARC
  5
394
330
22
100
AcDbEntity
  8
0
  6
DASHED
 62
     7
100
AcDbCircle
 10
-239.8478088378906
 20
366.7651062011719
 30
0.0
 40
2.0
100
AcDbArc
 50
0.0
 51
90.00000000000019
  0
ARC
  5
395
330
22
100
AcDbEntity
  8
0
  6
Continuous
 62
     7
100
AcDbCircle
 10
-276.3478088378906
 20
304.7651062011719
 30
0.0
 40
2.5
100
AcDbArc
 50
180.0000000000004
 51
0.0
  0
ARC
  5
396
330
22
100
AcDbEntity
  8
0
  6
Continuous
 62
     7
100
AcDbCircle
 10
-276.3478088378906
 20
361.7651062011719
 30
0.0
 40
2.5
100
AcDbArc
 50
0.0
 51
180.0000000000004
  0
ARC
  5
397
330
22
100
AcDbEntity
  8
0
  6
Continuous
 62
     7
100
AcDbCircle
 10
-276.3478088378906
 20
293.7651062011719
 30
0.0
 40
2.5
100
AcDbArc
 50
0.0
 51
180.0000000000004
  0
ARC
  5
398
330
22
100
AcDbEntity
  8
0
  6
Continuous
 62
     7
100
AcDbCircle
 10
-276.3478088378906
 20
338.7651062011719
 30
0.0
 40
2.5
100
AcDbArc
 50
180.0000000000004
 51
0.0
  0
ARC
  5
399
330
22
100
AcDbEntity
  8
0
  6
Continuous
 62
     7
100
AcDbCircle
 10
-276.3478088378906
 20
327.7651062011719
 30
0.0
 40
2.5
100
AcDbArc
 50
0.0
 51
180.0000000000004
  0
ARC
  5
39A
330
22
100
AcDbEntity
  8
0
  6
Continuous
 62
     7
100
AcDbCircle
 10
-236.3478088378906
 20
293.7651062011719
 30
0.0
 40
2.5
100
AcDbArc
 50
0.0
 51
180.0000000000004
  0
ARC
  5
39B
330
22
100
AcDbEntity
  8
0
  6
Continuous
 62
     7
100
AcDbCircle
 10
-236.3478088378906
 20
304.7651062011719
 30
0.0
 40
2.5
100
AcDbArc
 50
180.0000000000004
 51
0.0
  0
ARC
  5
39C
330
22
100
AcDbEntity
  8
0
  6
Continuous
 62
     7
100
AcDbCircle
 10
-236.3478088378906
 20
338.7651062011719
 30
0.0
 40
2.5
100
AcDbArc
 50
180.0000000000004
 51
0.0
  0
ARC
  5
39D
330
22
100
AcDbEntity
  8
0
  6
Continuous
 62
     7
100
AcDbCircle
 10
-228.3478088378906
 20
369.7651062011719
 30
0.0
 40
2.0
100
AcDbArc
 50
0.0
 51
90.00000000000019
  0
ARC
  5
39E
330
22
100
AcDbEntity
  8
0
  6
Continuous
 62
     7
100
AcDbCircle
 10
-246.3478088378906
 20
310.7651062011719
 30
0.0
 40
2.5
100
AcDbArc
 50
0.0
 51
180.0000000000004
  0
ARC
  5
39F
330
22
100
AcDbEntity
  8
0
  6
Continuous
 62
     7
100
AcDbCircle
 10
-246.3478088378906
 20
321.7651062011719
 30
0.0
 40
2.5
100
AcDbArc
 50
180.0000000000004
 51
0.0
  0
ARC
  5
3A0
330
22
100
AcDbEntity
  8
0
  6
Continuous
 62
     7
100
AcDbCircle
 10
-246.3478088378906
 20
361.7651062011719
 30
0.0
 40
2.5
100
AcDbArc
 50
0.0
 51
180.0000000000004
  0
CIRCLE
  5
3A1
330
22
100
AcDbEntity
  8
0
  6
Continuous
 62
     7
100
AcDbCircle
 10
-232.8478088378906
 20
365.2651062011719
 30
0.0
 40
4.75
  0
ARC
  5
3A2
330
22
100
AcDbEntity
  8
0
  6
Continuous
 62
     7
100
AcDbCircle
 10
-236.3478088378906
 20
355.7651062011719
 30
0.0
 40
2.5
100
AcDbArc
 50
0.0
 51
180.0000000000004
  0
ARC
  5
3A3
330
22
100
AcDbEntity
  8
0
  6
Continuous
 62
     7
100
AcDbCircle
 10
-236.3478088378906
 20
327.7651062011719
 30
0.0
 40
2.5
100
AcDbArc
 50
0.0
 51
180.0000000000004
  0
ARC
  5
3A4
330
22
100
AcDbEntity
  8
0
  6
Continuous
 62
     7
100
AcDbCircle
 10
-355.3160705566406
 20
38.28779220581055
 30
0.0
 40
3.998277664184569
100
AcDbArc
 50
45.68144519595005
 51
91.90838208350703
  0
ARC
  5
3A5
330
22
100
AcDbEntity
  8
0
  6
Continuous
 62
     7
100
AcDbCircle
 10
-314.3478088378906
 20
40.63582229614257
 30
0.0
 40
0.5
100
AcDbArc
 50
180.0000000000004
 51
270.0000000000005
  0
ARC
  5
3A6
330
22
100
AcDbEntity
  8
0
  6
Continuous
 62
     7
100
AcDbCircle
 10
-313.8478088378906
 20
42.44373321533203
 30
0.0
 40
1.0
100
AcDbArc
 50
119.9999304359993
 51
180.0000000000004
  0
ARC
  5
3A7
330
22
100
AcDbEntity
  8
0
  6
Continuous
 62
     7
100
AcDbCircle
 10
-303.3478088378906
 20
39.26830673217773
 30
0.0
 40
5.0
100
AcDbArc
 50
119.9999960056695
 51
180.0000000000004
  0
ARC
  5
3A8
330
22
100
AcDbEntity
  8
0
  6
Continuous
 62
     7
100
AcDbCircle
 10
-459.8478088378906
 20
114.673210144043
 30
0.0
 40
1.0
100
AcDbArc
 50
180.0000000000004
 51
270.0000000000005
  0
ARC
  5
3A9
330
22
100
AcDbEntity
  8
0
  6
Continuous
 62
     7
100
AcDbCircle
 10
-459.8478088378906
 20
116.673210144043
 30
0.0
 40
1.0
100
AcDbArc
 50
90.00000000000019
 51
180.0000000000004
  0
ARC
  5
3AA
330
22
100
AcDbEntity
  8
0
  6
Continuous
 62
     7
100
AcDbCircle
 10
-445.8478088378906
 20
95.55995941162107
 30
0.0
 40
5.0
100
AcDbArc
 50
180.0000000000004
 51
240.0000258509168
  0
ARC
  5
3AB
330
22
100
AcDbEntity
  8
0
  6
Continuous
 62
     7
100
AcDbCircle
 10
-355.2720031738281
 20
22.38624000549316
 30
0.0
 40
1.345117211341857
100
AcDbArc
 50
102.3177200215866
 51
167.6817864019126
  0
ARC
  5
3AC
330
22
100
AcDbEntity
  8
0
  6
Continuous
 62
     7
100
AcDbCircle
 10
-368.3478088378906
 20
39.26830673217773
 30
0.0
 40
5.0
100
AcDbArc
 50
0.0
 51
60.00000399433043
  0
ARC
  5
3AD
330
22
100
AcDbEntity
  8
0
  6
Continuous
 62
     7
100
AcDbCircle
 10
-355.395263671875
 20
41.09291458129883
 30
0.0
 40
1.19215989112854
100
AcDbArc
 50
87.40746928526663
 51
177.3306235823077
  0
ARC
  5
3AE
330
22
100
AcDbEntity
  8
0
  6
Continuous
 62
     7
100
AcDbCircle
 10
-355.1236267089844
 20
19.98615264892578
 30
0.0
 40
3.739664077758788
100
AcDbArc
 50
45.93285184108306
 51
96.6849457087865
  0
ARC
  5
3AF
330
22
100
AcDbEntity
  8
0
  6
Continuous
 62
     7
100
AcDbCircle
 10
-211.8478088378906
 20
116.673210144043
 30
0.0
 40
1.0
100
AcDbArc
 50
0.0
 51
90.00000000000019
  0
ARC
  5
3B0
330
22
100
AcDbEntity
  8
0
  6
Continuous
 62
     7
100
AcDbCircle
 10
-211.8478088378906
 20
114.673210144043
 30
0.0
 40
1.0
100
AcDbArc
 50
270.0000000000005
 51
0.0
  0
ARC
  5
3B1
330
22
100
AcDbEntity
  8
0
  6
Continuous
 62
     7
100
AcDbCircle
 10
-219.8478088378906
 20
112.673210144043
 30
0.0
 40
1.0
100
AcDbArc
 50
90.00000000000019
 51
180.0000000000004
  0
ARC
  5
3B2
330
22
100
AcDbEntity
  8
0
  6
Continuous
 62
     7
100
AcDbCircle
 10
-225.8478088378906
 20
95.55995941162107
 30
0.0
 40
5.0
100
AcDbArc
 50
299.9999741490847
 51
0.0
  0
ARC
  5
3B3
330
22
100
AcDbEntity
  8
0
  6
Continuous
 62
     7
100
AcDbCircle
 10
-242.8478088378906
 20
90.36380767822265
 30
0.0
 40
5.0
100
AcDbArc
 50
299.9999741490847
 51
0.0
  0
ARC
  5
3B4
330
22
100
AcDbEntity
  8
0
  6
Continuous
 62
     7
100
AcDbCircle
 10
-226.8478088378906
 20
111.173210144043
 30
0.0
 40
1.0
100
AcDbArc
 50
270.0000000000005
 51
0.0
  0
ARC
  5
3B5
330
22
100
AcDbEntity
  8
0
  6
DASHED
 62
     7
100
AcDbCircle
 10
-335.8478088378906
 20
159.2651062011719
 30
0.0
 40
5.0
100
AcDbArc
 50
0.0
 51
72.54240749751675
  0
ARC
  5
3B6
330
22
100
AcDbEntity
  8
0
  6
Continuous
 62
     7
100
AcDbCircle
 10
-395.3478088378906
 20
230.7651062011719
 30
0.0
 40
2.5
100
AcDbArc
 50
180.0000000000004
 51
0.0
  0
ARC
  5
3B7
330
22
100
AcDbEntity
  8
0
  6
Continuous
 62
     7
100
AcDbCircle
 10
-395.3478088378906
 20
219.7651062011719
 30
0.0
 40
2.5
100
AcDbArc
 50
0.0
 51
180.0000000000004
  0
ARC
  5
3B8
330
22
100
AcDbEntity
  8
0
  6
Continuous
 62
     7
100
AcDbCircle
 10
-395.3478088378906
 20
162.7651062011719
 30
0.0
 40
2.5
100
AcDbArc
 50
180.0000000000004
 51
0.0
  0
ARC
  5
3B9
330
22
100
AcDbEntity
  8
0
  6
Continuous
 62
     7
100
AcDbCircle
 10
-395.3478088378906
 20
185.7651062011719
 30
0.0
 40
2.5
100
AcDbArc
 50
0.0
 51
180.0000000000004
  0
ARC
  5
3BA
330
22
100
AcDbEntity
  8
0
  6
Continuous
 62
     7
100
AcDbCircle
 10
-395.3478088378906
 20
196.7651062011719
 30
0.0
 40
2.5
100
AcDbArc
 50
180.0000000000004
 51
0.0
  0
ARC
  5
3BB
330
22
100
AcDbEntity
  8
0
  6
Continuous
 62
     7
100
AcDbCircle
 10
-365.3478088378906
 20
162.7651062011719
 30
0.0
 40
2.5
100
AcDbArc
 50
180.0000000000004
 51
0.0
  0
ARC
  5
3BC
330
22
100
AcDbEntity
  8
0
  6
Continuous
 62
     7
100
AcDbCircle
 10
-365.3478088378906
 20
202.7651062011719
 30
0.0
 40
2.5
100
AcDbArc
 50
0.0
 51
180.0000000000004
  0
ARC
  5
3BD
330
22
100
AcDbEntity
  8
0
  6
Continuous
 62
     7
100
AcDbCircle
 10
-385.3478088378906
 20
213.7651062011719
 30
0.0
 40
2.5
100
AcDbArc
 50
180.0000000000004
 51
0.0
  0
ARC
  5
3BE
330
22
100
AcDbEntity
  8
0
  6
Continuous
 62
     7
100
AcDbCircle
 10
-385.3478088378906
 20
162.7651062011719
 30
0.0
 40
2.5
100
AcDbArc
 50
180.0000000000004
 51
0.0
  0
ARC
  5
3BF
330
22
100
AcDbEntity
  8
0
  6
Continuous
 62
     7
100
AcDbCircle
 10
-385.3478088378906
 20
202.7651062011719
 30
0.0
 40
2.5
100
AcDbArc
 50
0.0
 51
180.0000000000004
  0
ARC
  5
3C0
330
22
100
AcDbEntity
  8
0
  6
Continuous
 62
     7
100
AcDbCircle
 10
-375.3478088378906
 20
230.7651062011719
 30
0.0
 40
2.5
100
AcDbArc
 50
180.0000000000004
 51
0.0
  0
ARC
  5
3C1
330
22
100
AcDbEntity
  8
0
  6
Continuous
 62
     7
100
AcDbCircle
 10
-375.3478088378906
 20
219.7651062011719
 30
0.0
 40
2.5
100
AcDbArc
 50
0.0
 51
180.0000000000004
  0
ARC
  5
3C2
330
22
100
AcDbEntity
  8
0
  6
Continuous
 62
     7
100
AcDbCircle
 10
-375.3478088378906
 20
185.7651062011719
 30
0.0
 40
2.5
100
AcDbArc
 50
0.0
 51
180.0000000000004
  0
ARC
  5
3C3
330
22
100
AcDbEntity
  8
0
  6
Continuous
 62
     7
100
AcDbCircle
 10
-375.3478088378906
 20
162.7651062011719
 30
0.0
 40
2.5
100
AcDbArc
 50
180.0000000000004
 51
0.0
  0
ARC
  5
3C4
330
22
100
AcDbEntity
  8
0
  6
Continuous
 62
     7
100
AcDbCircle
 10
-375.3478088378906
 20
196.7651062011719
 30
0.0
 40
2.5
100
AcDbArc
 50
180.0000000000004
 51
0.0
  0
ARC
  5
3C5
330
22
100
AcDbEntity
  8
0
  6
DASHED
 62
     7
100
AcDbCircle
 10
-340.3478088378906
 20
266.7518615722656
 30
0.0
 40
2.0
100
AcDbArc
 50
270.0000000000005
 51
0.0
  0
ARC
  5
3C6
330
22
100
AcDbEntity
  8
0
  6
Continuous
 62
     7
100
AcDbCircle
 10
-355.3478088378906
 20
270.765106201172
 30
0.0
 40
2.5
100
AcDbArc
 50
180.0000000000004
 51
0.0
  0
ARC
  5
3C7
330
22
100
AcDbEntity
  8
0
  6
Continuous
 62
     7
100
AcDbCircle
 10
-345.3478088378906
 20
270.765106201172
 30
0.0
 40
2.5
100
AcDbArc
 50
180.0000000000004
 51
0.0
  0
ARC
  5
3C8
330
22
100
AcDbEntity
  8
0
  6
Continuous
 62
     7
100
AcDbCircle
 10
-395.3478088378906
 20
270.765106201172
 30
0.0
 40
2.5
100
AcDbArc
 50
180.0000000000004
 51
0.0
  0
ARC
  5
3C9
330
22
100
AcDbEntity
  8
0
  6
Continuous
 62
     7
100
AcDbCircle
 10
-385.3478088378906
 20
270.765106201172
 30
0.0
 40
2.5
100
AcDbArc
 50
180.0000000000004
 51
0.0
  0
ARC
  5
3CA
330
22
100
AcDbEntity
  8
0
  6
Continuous
 62
     7
100
AcDbCircle
 10
-375.3478088378906
 20
270.765106201172
 30
0.0
 40
2.5
100
AcDbArc
 50
180.0000000000004
 51
0.0
  0
ARC
  5
3CB
330
22
100
AcDbEntity
  8
0
  6
Continuous
 62
     7
100
AcDbCircle
 10
-365.3478088378906
 20
270.765106201172
 30
0.0
 40
2.5
100
AcDbArc
 50
180.0000000000004
 51
0.0
  0
ARC
  5
3CC
330
22
100
AcDbEntity
  8
0
  6
DASHED
 62
     7
100
AcDbCircle
 10
-331.3478088378906
 20
257.7651062011719
 30
0.0
 40
2.0
100
AcDbArc
 50
90.00000000000019
 51
180.0000000000004
  0
ARC
  5
3CD
330
22
100
AcDbEntity
  8
0
  6
DASHED
 62
     7
100
AcDbCircle
 10
-331.3478088378906
 20
266.7518615722656
 30
0.0
 40
2.0
100
AcDbArc
 50
180.0000000000004
 51
270.0000000000005
  0
ARC
  5
3CE
330
22
100
AcDbEntity
  8
0
  6
Continuous
 62
     7
100
AcDbCircle
 10
-395.3478088378906
 20
253.7651062011719
 30
0.0
 40
2.5
100
AcDbArc
 50
0.0
 51
180.0000000000004
  0
ARC
  5
3CF
330
22
100
AcDbEntity
  8
0
  6
Continuous
 62
     7
100
AcDbCircle
 10
-385.3478088378906
 20
253.7651062011719
 30
0.0
 40
2.5
100
AcDbArc
 50
0.0
 51
180.0000000000004
  0
ARC
  5
3D0
330
22
100
AcDbEntity
  8
0
  6
Continuous
 62
     7
100
AcDbCircle
 10
-375.3478088378906
 20
253.7651062011719
 30
0.0
 40
2.5
100
AcDbArc
 50
0.0
 51
180.0000000000004
  0
ARC
  5
3D1
330
22
100
AcDbEntity
  8
0
  6
Continuous
 62
     7
100
AcDbCircle
 10
-365.3478088378906
 20
253.7651062011719
 30
0.0
 40
2.5
100
AcDbArc
 50
0.0
 51
180.0000000000004
  0
ARC
  5
3D2
330
22
100
AcDbEntity
  8
0
  6
DASHED
 62
     7
100
AcDbCircle
 10
-340.3478088378906
 20
257.7651062011719
 30
0.0
 40
2.0
100
AcDbArc
 50
0.0
 51
90.00000000000019
  0
ARC
  5
3D3
330
22
100
AcDbEntity
  8
0
  6
Continuous
 62
     7
100
AcDbCircle
 10
-355.3478088378906
 20
253.7651062011719
 30
0.0
 40
2.5
100
AcDbArc
 50
0.0
 51
180.0000000000004
  0
ARC
  5
3D4
330
22
100
AcDbEntity
  8
0
  6
Continuous
 62
     7
100
AcDbCircle
 10
-345.3478088378906
 20
253.7651062011719
 30
0.0
 40
2.5
100
AcDbArc
 50
0.0
 51
180.0000000000004
  0
ARC
  5
3D5
330
22
100
AcDbEntity
  8
0
  6
DASHED
 62
     7
100
AcDbCircle
 10
-342.8478088378906
 20
157.7651062011719
 30
0.0
 40
2.0
100
AcDbArc
 50
270.0000000000005
 51
0.0
  0
ARC
  5
3D6
330
22
100
AcDbEntity
  8
0
  6
DASHED
 62
     7
100
AcDbCircle
 10
-335.8478088378906
 20
159.2651062011719
 30
0.0
 40
5.0
100
AcDbArc
 50
107.4575925024833
 51
180.0000000000004
  0
CIRCLE
  5
3D7
330
22
100
AcDbEntity
  8
0
  6
Continuous
 62
     7
100
AcDbCircle
 10
-335.8478088378906
 20
159.2395782470703
 30
0.0
 40
4.5
  0
CIRCLE
  5
3D8
330
22
100
AcDbEntity
  8
0
  6
Continuous
 62
     7
100
AcDbCircle
 10
-335.8478088378906
 20
159.2395782470703
 30
0.0
 40
4.5
  0
CIRCLE
  5
3D9
330
22
100
AcDbEntity
  8
0
  6
Continuous
 62
     7
100
AcDbCircle
 10
-335.8478088378906
 20
159.2395782470703
 30
0.0
 40
4.75
  0
CIRCLE
  5
3DA
330
22
100
AcDbEntity
  8
0
  6
Continuous
 62
     7
100
AcDbCircle
 10
-335.8478088378906
 20
159.2395782470703
 30
0.0
 40
4.75
  0
ARC
  5
3DB
330
22
100
AcDbEntity
  8
0
  6
Continuous
 62
     7
100
AcDbCircle
 10
-355.3478088378906
 20
230.7651062011719
 30
0.0
 40
2.5
100
AcDbArc
 50
180.0000000000004
 51
0.0
  0
ARC
  5
3DC
330
22
100
AcDbEntity
  8
0
  6
Continuous
 62
     7
100
AcDbCircle
 10
-355.3478088378906
 20
219.7651062011719
 30
0.0
 40
2.5
100
AcDbArc
 50
0.0
 51
180.0000000000004
  0
ARC
  5
3DD
330
22
100
AcDbEntity
  8
0
  6
Continuous
 62
     7
100
AcDbCircle
 10
-355.3478088378906
 20
162.7651062011719
 30
0.0
 40
2.5
100
AcDbArc
 50
180.0000000000004
 51
0.0
  0
ARC
  5
3DE
330
22
100
AcDbEntity
  8
0
  6
Continuous
 62
     7
100
AcDbCircle
 10
-355.3478088378906
 20
185.7651062011719
 30
0.0
 40
2.5
100
AcDbArc
 50
0.0
 51
180.0000000000004
  0
ARC
  5
3DF
330
22
100
AcDbEntity
  8
0
  6
Continuous
 62
     7
100
AcDbCircle
 10
-345.3478088378906
 20
168.7651062011719
 30
0.0
 40
2.5
100
AcDbArc
 50
180.0000000000004
 51
0.0
  0
ARC
  5
3E0
330
22
100
AcDbEntity
  8
0
  6
Continuous
 62
     7
100
AcDbCircle
 10
-345.3478088378906
 20
213.7651062011719
 30
0.0
 40
2.5
100
AcDbArc
 50
180.0000000000004
 51
0.0
  0
ARC
  5
3E1
330
22
100
AcDbEntity
  8
0
  6
Continuous
 62
     7
100
AcDbCircle
 10
-355.3478088378906
 20
196.7651062011719
 30
0.0
 40
2.5
100
AcDbArc
 50
180.0000000000004
 51
0.0
  0
ARC
  5
3E2
330
22
100
AcDbEntity
  8
0
  6
Continuous
 62
     7
100
AcDbCircle
 10
-345.3478088378906
 20
202.7651062011719
 30
0.0
 40
2.5
100
AcDbArc
 50
0.0
 51
180.0000000000004
  0
ARC
  5
3E3
330
22
100
AcDbEntity
  8
0
  6
Continuous
 62
     7
100
AcDbCircle
 10
-306.3478088378906
 20
270.765106201172
 30
0.0
 40
2.5
100
AcDbArc
 50
180.0000000000004
 51
0.0
  0
ARC
  5
3E4
330
22
100
AcDbEntity
  8
0
  6
Continuous
 62
     7
100
AcDbCircle
 10
-316.3478088378906
 20
270.765106201172
 30
0.0
 40
2.5
100
AcDbArc
 50
180.0000000000004
 51
0.0
  0
ARC
  5
3E5
330
22
100
AcDbEntity
  8
0
  6
Continuous
 62
     7
100
AcDbCircle
 10
-306.3478088378906
 20
253.7651062011719
 30
0.0
 40
2.5
100
AcDbArc
 50
0.0
 51
180.0000000000004
  0
ARC
  5
3E6
330
22
100
AcDbEntity
  8
0
  6
Continuous
 62
     7
100
AcDbCircle
 10
-306.3478088378906
 20
213.7651062011719
 30
0.0
 40
2.5
100
AcDbArc
 50
180.0000000000004
 51
0.0
  0
ARC
  5
3E7
330
22
100
AcDbEntity
  8
0
  6
Continuous
 62
     7
100
AcDbCircle
 10
-306.3478088378906
 20
162.7651062011719
 30
0.0
 40
2.5
100
AcDbArc
 50
180.0000000000004
 51
0.0
  0
ARC
  5
3E8
330
22
100
AcDbEntity
  8
0
  6
Continuous
 62
     7
100
AcDbCircle
 10
-306.3478088378906
 20
202.7651062011719
 30
0.0
 40
2.5
100
AcDbArc
 50
0.0
 51
180.0000000000004
  0
ARC
  5
3E9
330
22
100
AcDbEntity
  8
0
  6
Continuous
 62
     7
100
AcDbCircle
 10
-316.3478088378906
 20
253.7651062011719
 30
0.0
 40
2.5
100
AcDbArc
 50
0.0
 51
180.0000000000004
  0
ARC
  5
3EA
330
22
100
AcDbEntity
  8
0
  6
Continuous
 62
     7
100
AcDbCircle
 10
-316.3478088378906
 20
219.7651062011719
 30
0.0
 40
2.5
100
AcDbArc
 50
0.0
 51
180.0000000000004
  0
ARC
  5
3EB
330
22
100
AcDbEntity
  8
0
  6
Continuous
 62
     7
100
AcDbCircle
 10
-316.3478088378906
 20
230.7651062011719
 30
0.0
 40
2.5
100
AcDbArc
 50
180.0000000000004
 51
0.0
  0
ARC
  5
3EC
330
22
100
AcDbEntity
  8
0
  6
Continuous
 62
     7
100
AcDbCircle
 10
-316.3478088378906
 20
185.7651062011719
 30
0.0
 40
2.5
100
AcDbArc
 50
0.0
 51
180.0000000000004
  0
ARC
  5
3ED
330
22
100
AcDbEntity
  8
0
  6
Continuous
 62
     7
100
AcDbCircle
 10
-316.3478088378906
 20
162.7651062011719
 30
0.0
 40
2.5
100
AcDbArc
 50
180.0000000000004
 51
0.0
  0
ARC
  5
3EE
330
22
100
AcDbEntity
  8
0
  6
Continuous
 62
     7
100
AcDbCircle
 10
-316.3478088378906
 20
196.7651062011719
 30
0.0
 40
2.5
100
AcDbArc
 50
180.0000000000004
 51
0.0
  0
ARC
  5
3EF
330
22
100
AcDbEntity
  8
0
  6
Continuous
 62
     7
100
AcDbCircle
 10
-425.3478088378906
 20
202.7651062011719
 30
0.0
 40
2.5
100
AcDbArc
 50
0.0
 51
180.0000000000004
  0
ARC
  5
3F0
330
22
100
AcDbEntity
  8
0
  6
Continuous
 62
     7
100
AcDbCircle
 10
-435.3478088378905
 20
196.7651062011719
 30
0.0
 40
2.5
100
AcDbArc
 50
180.0000000000004
 51
0.0
  0
CIRCLE
  5
3F1
330
22
100
AcDbEntity
  8
0
  6
Continuous
 62
     7
100
AcDbCircle
 10
-438.8478088378906
 20
159.2395782470703
 30
0.0
 40
4.75
  0
CIRCLE
  5
3F2
330
22
100
AcDbEntity
  8
0
  6
Continuous
 62
     7
100
AcDbCircle
 10
-438.8478088378906
 20
159.2395782470703
 30
0.0
 40
4.75
  0
CIRCLE
  5
3F3
330
22
100
AcDbEntity
  8
0
  6
Continuous
 62
     7
100
AcDbCircle
 10
-438.8478088378906
 20
159.2395782470703
 30
0.0
 40
4.5
  0
ARC
  5
3F4
330
22
100
AcDbEntity
  8
0
  6
Continuous
 62
     7
100
AcDbCircle
 10
-435.3478088378905
 20
230.7651062011719
 30
0.0
 40
2.5
100
AcDbArc
 50
180.0000000000004
 51
0.0
  0
ARC
  5
3F5
330
22
100
AcDbEntity
  8
0
  6
Continuous
 62
     7
100
AcDbCircle
 10
-425.3478088378906
 20
213.7651062011719
 30
0.0
 40
2.5
100
AcDbArc
 50
180.0000000000004
 51
0.0
  0
ARC
  5
3F6
330
22
100
AcDbEntity
  8
0
  6
Continuous
 62
     7
100
AcDbCircle
 10
-435.3478088378905
 20
219.7651062011719
 30
0.0
 40
2.5
100
AcDbArc
 50
0.0
 51
180.0000000000004
  0
ARC
  5
3F7
330
22
100
AcDbEntity
  8
0
  6
Continuous
 62
     7
100
AcDbCircle
 10
-435.3478088378905
 20
273.7651062011719
 30
0.0
 40
2.5
100
AcDbArc
 50
180.0000000000004
 51
0.0
  0
ARC
  5
3F8
330
22
100
AcDbEntity
  8
0
  6
DASHED
 62
     7
100
AcDbCircle
 10
-431.8478088378906
 20
157.7651062011719
 30
0.0
 40
2.0
100
AcDbArc
 50
180.0000000000004
 51
270.0000000000005
  0
ARC
  5
3F9
330
22
100
AcDbEntity
  8
0
  6
Continuous
 62
     7
100
AcDbCircle
 10
-425.3478088378906
 20
162.7651062011719
 30
0.0
 40
2.5
100
AcDbArc
 50
180.0000000000004
 51
0.0
  0
ARC
  5
3FA
330
22
100
AcDbEntity
  8
0
  6
Continuous
 62
     7
100
AcDbCircle
 10
-435.3478088378905
 20
168.7651062011719
 30
0.0
 40
2.5
100
AcDbArc
 50
180.0000000000004
 51
0.0
  0
ARC
  5
3FB
330
22
100
AcDbEntity
  8
0
  6
Continuous
 62
     7
100
AcDbCircle
 10
-435.3478088378905
 20
185.7651062011719
 30
0.0
 40
2.5
100
AcDbArc
 50
0.0
 51
180.0000000000004
  0
ARC
  5
3FC
330
22
100
AcDbEntity
  8
0
  6
Continuous
 62
     7
100
AcDbCircle
 10
-425.3478088378906
 20
253.7651062011719
 30
0.0
 40
2.5
100
AcDbArc
 50
0.0
 51
180.0000000000004
  0
ARC
  5
3FD
330
22
100
AcDbEntity
  8
0
  6
Continuous
 62
     7
100
AcDbCircle
 10
-415.3478088378906
 20
253.7651062011719
 30
0.0
 40
2.5
100
AcDbArc
 50
0.0
 51
180.0000000000004
  0
ARC
  5
3FE
330
22
100
AcDbEntity
  8
0
  6
DASHED
 62
     7
100
AcDbCircle
 10
-438.8478088378906
 20
159.2651062011719
 30
0.0
 40
5.0
100
AcDbArc
 50
0.0
 51
90.00000000000019
  0
ARC
  5
3FF
330
22
100
AcDbEntity
  8
0
  6
Continuous
 62
     7
100
AcDbCircle
 10
-415.3478088378906
 20
219.7651062011719
 30
0.0
 40
2.5
100
AcDbArc
 50
0.0
 51
180.0000000000004
  0
ARC
  5
400
330
22
100
AcDbEntity
  8
0
  6
Continuous
 62
     7
100
AcDbCircle
 10
-415.3478088378906
 20
230.7651062011719
 30
0.0
 40
2.5
100
AcDbArc
 50
180.0000000000004
 51
0.0
  0
ARC
  5
401
330
22
100
AcDbEntity
  8
0
  6
Continuous
 62
     7
100
AcDbCircle
 10
-415.3478088378906
 20
162.7651062011719
 30
0.0
 40
2.5
100
AcDbArc
 50
180.0000000000004
 51
0.0
  0
ARC
  5
402
330
22
100
AcDbEntity
  8
0
  6
Continuous
 62
     7
100
AcDbCircle
 10
-415.3478088378906
 20
185.7651062011719
 30
0.0
 40
2.5
100
AcDbArc
 50
0.0
 51
180.0000000000004
  0
ARC
  5
403
330
22
100
AcDbEntity
  8
0
  6
Continuous
 62
     7
100
AcDbCircle
 10
-415.3478088378906
 20
196.7651062011719
 30
0.0
 40
2.5
100
AcDbArc
 50
180.0000000000004
 51
0.0
  0
ARC
  5
404
330
22
100
AcDbEntity
  8
0
  6
DASHED
 62
     7
100
AcDbCircle
 10
-440.3478088378906
 20
166.2651062011719
 30
0.0
 40
2.0
100
AcDbArc
 50
180.0000000000004
 51
270.0000000000005
  0
CIRCLE
  5
405
330
22
100
AcDbEntity
  8
0
  6
Continuous
 62
     7
100
AcDbCircle
 10
-438.8478088378906
 20
159.2395782470703
 30
0.0
 40
4.5
  0
ARC
  5
406
330
22
100
AcDbEntity
  8
0
  6
DASHED
 62
     7
100
AcDbCircle
 10
-438.5674743652343
 20
262.2651062011719
 30
0.0
 40
5.0
100
AcDbArc
 50
20.93755792837393
 51
90.00000000000019
  0
ARC
  5
407
330
22
100
AcDbEntity
  8
0
  6
DASHED
 62
     7
100
AcDbCircle
 10
-440.3478088378906
 20
269.2651062011719
 30
0.0
 40
2.0
100
AcDbArc
 50
180.0000000000004
 51
270.0000000000005
  0
ARC
  5
408
330
22
100
AcDbEntity
  8
0
  6
Continuous
 62
     7
100
AcDbCircle
 10
-425.3478088378906
 20
270.765106201172
 30
0.0
 40
2.5
100
AcDbArc
 50
180.0000000000004
 51
0.0
  0
ARC
  5
409
330
22
100
AcDbEntity
  8
0
  6
Continuous
 62
     7
100
AcDbCircle
 10
-415.3478088378906
 20
270.765106201172
 30
0.0
 40
2.5
100
AcDbArc
 50
180.0000000000004
 51
0.0
  0
ARC
  5
40A
330
22
100
AcDbEntity
  8
0
  6
Continuous
 62
     7
100
AcDbCircle
 10
-445.3478088378906
 20
152.7651062011719
 30
0.0
 40
1.0
100
AcDbArc
 50
180.0000000000004
 51
270.0000000000005
  0
ARC
  5
40B
330
22
100
AcDbEntity
  8
0
  6
Continuous
 62
     7
100
AcDbCircle
 10
-443.3478088378906
 20
154.7651062011719
 30
0.0
 40
2.0
100
AcDbArc
 50
180.0000000000004
 51
270.0000000000005
  0
ARC
  5
40C
330
22
100
AcDbEntity
  8
0
  6
Continuous
 62
     7
100
AcDbCircle
 10
-435.3478088378905
 20
250.7651062011719
 30
0.0
 40
2.5
100
AcDbArc
 50
0.0
 51
180.0000000000004
  0
CIRCLE
  5
40D
330
22
100
AcDbEntity
  8
0
  6
Continuous
 62
     7
100
AcDbCircle
 10
-438.5674743652343
 20
262.2651062011719
 30
0.0
 40
4.5
  0
CIRCLE
  5
40E
330
22
100
AcDbEntity
  8
0
  6
Continuous
 62
     7
100
AcDbCircle
 10
-438.5674743652343
 20
262.2651062011719
 30
0.0
 40
4.75
  0
ARC
  5
40F
330
22
100
AcDbEntity
  8
0
  6
DASHED
 62
     7
100
AcDbCircle
 10
-440.3478088378906
 20
255.2651062011719
 30
0.0
 40
2.0
100
AcDbArc
 50
90.00000000000019
 51
180.0000000000004
  0
ARC
  5
410
330
22
100
AcDbEntity
  8
0
  6
DASHED
 62
     7
100
AcDbCircle
 10
-438.5674743652343
 20
262.2651062011719
 30
0.0
 40
5.0
100
AcDbArc
 50
270.0000000000005
 51
342.5423550415739
  0
ARC
  5
411
330
22
100
AcDbEntity
  8
0
  6
Continuous
 62
     7
100
AcDbCircle
 10
-405.3478088378906
 20
270.765106201172
 30
0.0
 40
2.5
100
AcDbArc
 50
180.0000000000004
 51
0.0
  0
ARC
  5
412
330
22
100
AcDbEntity
  8
0
  6
Continuous
 62
     7
100
AcDbCircle
 10
-405.3478088378906
 20
253.7651062011719
 30
0.0
 40
2.5
100
AcDbArc
 50
0.0
 51
180.0000000000004
  0
ARC
  5
413
330
22
100
AcDbEntity
  8
0
  6
Continuous
 62
     7
100
AcDbCircle
 10
-405.3478088378906
 20
213.7651062011719
 30
0.0
 40
2.5
100
AcDbArc
 50
180.0000000000004
 51
0.0
  0
ARC
  5
414
330
22
100
AcDbEntity
  8
0
  6
Continuous
 62
     7
100
AcDbCircle
 10
-405.3478088378906
 20
162.7651062011719
 30
0.0
 40
2.5
100
AcDbArc
 50
180.0000000000004
 51
0.0
  0
ARC
  5
415
330
22
100
AcDbEntity
  8
0
  6
Continuous
 62
     7
100
AcDbCircle
 10
-405.3478088378906
 20
202.7651062011719
 30
0.0
 40
2.5
100
AcDbArc
 50
0.0
 51
180.0000000000004
  0
ARC
  5
416
330
22
100
AcDbEntity
  8
0
  6
Continuous
 62
     7
100
AcDbCircle
 10
-405.3478088378906
 20
321.7651062011719
 30
0.0
 40
2.5
100
AcDbArc
 50
180.0000000000004
 51
0.0
  0
ARC
  5
417
330
22
100
AcDbEntity
  8
0
  6
Continuous
 62
     7
100
AcDbCircle
 10
-405.3478088378906
 20
310.7651062011719
 30
0.0
 40
2.5
100
AcDbArc
 50
0.0
 51
180.0000000000004
  0
ARC
  5
418
330
22
100
AcDbEntity
  8
0
  6
Continuous
 62
     7
100
AcDbCircle
 10
-405.3478088378906
 20
361.7651062011719
 30
0.0
 40
2.5
100
AcDbArc
 50
0.0
 51
180.0000000000004
  0
ARC
  5
419
330
22
100
AcDbEntity
  8
0
  6
Continuous
 62
     7
100
AcDbCircle
 10
-296.3478088378906
 20
327.7651062011719
 30
0.0
 40
2.5
100
AcDbArc
 50
0.0
 51
180.0000000000004
  0
ARC
  5
41A
330
22
100
AcDbEntity
  8
0
  6
Continuous
 62
     7
100
AcDbCircle
 10
-296.3478088378906
 20
253.7651062011719
 30
0.0
 40
2.5
100
AcDbArc
 50
0.0
 51
180.0000000000004
  0
ARC
  5
41B
330
22
100
AcDbEntity
  8
0
  6
Continuous
 62
     7
100
AcDbCircle
 10
-286.3478088378906
 20
213.7651062011719
 30
0.0
 40
2.5
100
AcDbArc
 50
180.0000000000004
 51
0.0
  0
ARC
  5
41C
330
22
100
AcDbEntity
  8
0
  6
Continuous
 62
     7
100
AcDbCircle
 10
-286.3478088378906
 20
162.7651062011719
 30
0.0
 40
2.5
100
AcDbArc
 50
180.0000000000004
 51
0.0
  0
ARC
  5
41D
330
22
100
AcDbEntity
  8
0
  6
Continuous
 62
     7
100
AcDbCircle
 10
-286.3478088378906
 20
202.7651062011719
 30
0.0
 40
2.5
100
AcDbArc
 50
0.0
 51
180.0000000000004
  0
ARC
  5
41E
330
22
100
AcDbEntity
  8
0
  6
Continuous
 62
     7
100
AcDbCircle
 10
-296.3478088378906
 20
230.7651062011719
 30
0.0
 40
2.5
100
AcDbArc
 50
180.0000000000004
 51
0.0
  0
ARC
  5
41F
330
22
100
AcDbEntity
  8
0
  6
Continuous
 62
     7
100
AcDbCircle
 10
-296.3478088378906
 20
219.7651062011719
 30
0.0
 40
2.5
100
AcDbArc
 50
0.0
 51
180.0000000000004
  0
ARC
  5
420
330
22
100
AcDbEntity
  8
0
  6
Continuous
 62
     7
100
AcDbCircle
 10
-296.3478088378906
 20
185.7651062011719
 30
0.0
 40
2.5
100
AcDbArc
 50
0.0
 51
180.0000000000004
  0
ARC
  5
421
330
22
100
AcDbEntity
  8
0
  6
Continuous
 62
     7
100
AcDbCircle
 10
-296.3478088378906
 20
162.7651062011719
 30
0.0
 40
2.5
100
AcDbArc
 50
180.0000000000004
 51
0.0
  0
ARC
  5
422
330
22
100
AcDbEntity
  8
0
  6
Continuous
 62
     7
100
AcDbCircle
 10
-296.3478088378906
 20
196.7651062011719
 30
0.0
 40
2.5
100
AcDbArc
 50
180.0000000000004
 51
0.0
  0
ARC
  5
423
330
22
100
AcDbEntity
  8
0
  6
Continuous
 62
     7
100
AcDbCircle
 10
-286.3478088378906
 20
361.7651062011719
 30
0.0
 40
2.5
100
AcDbArc
 50
0.0
 51
180.0000000000004
  0
ARC
  5
424
330
22
100
AcDbEntity
  8
0
  6
Continuous
 62
     7
100
AcDbCircle
 10
-286.3478088378906
 20
310.7651062011719
 30
0.0
 40
2.5
100
AcDbArc
 50
0.0
 51
180.0000000000004
  0
ARC
  5
425
330
22
100
AcDbEntity
  8
0
  6
Continuous
 62
     7
100
AcDbCircle
 10
-286.3478088378906
 20
321.7651062011719
 30
0.0
 40
2.5
100
AcDbArc
 50
180.0000000000004
 51
0.0
  0
ARC
  5
426
330
22
100
AcDbEntity
  8
0
  6
Continuous
 62
     7
100
AcDbCircle
 10
-296.3478088378906
 20
361.7651062011719
 30
0.0
 40
2.5
100
AcDbArc
 50
0.0
 51
180.0000000000004
  0
ARC
  5
427
330
22
100
AcDbEntity
  8
0
  6
Continuous
 62
     7
100
AcDbCircle
 10
-296.3478088378906
 20
338.7651062011719
 30
0.0
 40
2.5
100
AcDbArc
 50
180.0000000000004
 51
0.0
  0
ARC
  5
428
330
22
100
AcDbEntity
  8
0
  6
Continuous
 62
     7
100
AcDbCircle
 10
-296.3478088378906
 20
293.7651062011719
 30
0.0
 40
2.5
100
AcDbArc
 50
0.0
 51
180.0000000000004
  0
ARC
  5
429
330
22
100
AcDbEntity
  8
0
  6
Continuous
 62
     7
100
AcDbCircle
 10
-296.3478088378906
 20
304.7651062011719
 30
0.0
 40
2.5
100
AcDbArc
 50
180.0000000000004
 51
0.0
  0
ARC
  5
42A
330
22
100
AcDbEntity
  8
0
  6
Continuous
 62
     7
100
AcDbCircle
 10
-215.8478088378906
 20
142.2651062011719
 30
0.0
 40
5.0
100
AcDbArc
 50
270.0000000000005
 51
0.0
  0
ARC
  5
42B
330
22
100
AcDbEntity
  8
0
  6
Continuous
 62
     7
100
AcDbCircle
 10
-455.8478088378906
 20
142.2651062011719
 30
0.0
 40
5.0
100
AcDbArc
 50
180.0000000000004
 51
270.0000000000005
  0
ARC
  5
42C
330
22
100
AcDbEntity
  8
0
  6
Continuous
 62
     7
100
AcDbCircle
 10
-286.3478088378906
 20
270.765106201172
 30
0.0
 40
2.5
100
AcDbArc
 50
180.0000000000004
 51
0.0
  0
ARC
  5
42D
330
22
100
AcDbEntity
  8
0
  6
Continuous
 62
     7
100
AcDbCircle
 10
-296.3478088378906
 20
270.765106201172
 30
0.0
 40
2.5
100
AcDbArc
 50
180.0000000000004
 51
0.0
  0
ARC
  5
42E
330
22
100
AcDbEntity
  8
0
  6
Continuous
 62
     7
100
AcDbCircle
 10
-286.3478088378906
 20
253.7651062011719
 30
0.0
 40
2.5
100
AcDbArc
 50
0.0
 51
180.0000000000004
  0
TEXT
  5
42F
330
22
100
AcDbEntity
  8
0
  6
Continuous
 62
     7
100
AcDbText
 10
-159.1202478408814
 20
128.0040893554688
 30
0.0
 40
7.0
  1
ＤＬ－ＳＫ４－４０ＧＢ
 41
0.8440126641457824
100
AcDbText
  0
DIMENSION
  5
430
330
22
100
AcDbEntity
  8
0
  6
Continuous
 62
     7
100
AcDbDimension
  2
*D1
 10
-190.1522064208984
 20
372.7651062011719
 30
0.0
 11
-190.1522064208984
 21
262.2651062011719
 31
0.0
 71
     5
 42
-1.0
  3
DIMSTYLE1
100
AcDbAlignedDimension
 13
-226.3478088378906
 23
151.7651062011719
 33
0.0
 14
-226.3478088378906
 24
372.7651062011719
 34
0.0
 50
90.0
100
AcDbRotatedDimension
  0
DIMENSION
  5
431
330
22
100
AcDbEntity
  8
0
  6
Continuous
 62
     7
100
AcDbDimension
  2
*D2
 10
-205.4118041992188
 20
117.673210144043
 30
0.0
 11
-205.4118041992188
 21
70.17321014404297
 31
0.0
 71
     5
 42
-1.0
  3
DIMSTYLE2
100
AcDbAlignedDimension
 13
-309.3478088378906
 23
22.67320823669434
 33
0.0
 14
-211.8478088378906
 24
117.673210144043
 34
0.0
 50
90.0
100
AcDbRotatedDimension
  0
DIMENSION
  5
432
330
22
100
AcDbEntity
  8
0
  6
Continuous
 62
     7
100
AcDbDimension
  2
*D3
 10
-210.8478088378906
 20
402.1207275390625
 30
0.0
 11
-335.8478088378906
 21
402.1207275390625
 31
0.0
 71
     5
 42
-1.0
  3
DIMSTYLE3
100
AcDbAlignedDimension
 13
-460.8478088378906
 23
382.2651062011719
 33
0.0
 14
-210.8478088378906
 24
382.2651062011719
 34
0.0
100
AcDbRotatedDimension
  0
DIMENSION
  5
433
330
22
100
AcDbEntity
  8
0
  6
Continuous
 62
     7
100
AcDbDimension
  2
*D4
 10
-176.7643127441406
 20
387.2651062011719
 30
0.0
 11
-176.7643127441406
 21
262.2651062011719
 31
0.0
 71
     5
 42
-1.0
  3
DIMSTYLE4
100
AcDbAlignedDimension
 13
-215.8478088378906
 23
137.2651062011719
 33
0.0
 14
-215.8478088378906
 24
387.2651062011719
 34
0.0
 50
90.0
100
AcDbRotatedDimension
  0
DIMENSION
  5
434
330
22
100
AcDbEntity
  8
0
  6
Continuous
 62
     7
100
AcDbDimension
  2
*D5
 10
-225.3478088378906
 20
395.8909606933594
 30
0.0
 11
-335.8478088378906
 21
395.8909606933594
 31
0.0
 71
     5
 42
-1.0
  3
DIMSTYLE5
100
AcDbAlignedDimension
 13
-446.3478088378906
 23
371.7651062011719
 33
0.0
 14
-225.3478088378906
 24
371.7651062011719
 34
0.0
100
AcDbRotatedDimension
  0
INSERT
  5
435
330
22
100
AcDbEntity
  8
0
  6
Continuous
 62
     7
100
AcDbBlockReference
  2
KOZU0001
 10
-313.8512268066406
 20
34.81116867065431
 30
0.0
  0
ENDSEC
  0
SECTION
  2
OBJECTS
  0
DICTIONARY
  5
C
330
0
100
AcDbDictionary
281
     1
  3
ACAD_COLOR
350
1B
  3
ACAD_GROUP
350
D
  3
ACAD_LAYOUT
350
19
  3
ACAD_MATERIAL
350
1A
  3
ACAD_MLINESTYLE
350
16
  3
ACAD_PLOTSETTINGS
350
18
  3
ACAD_PLOTSTYLENAME
350
E
  3
ACAD_TABLESTYLE
350
1C
  3
AcDbVariableDictionary
350
441
  0
DICTIONARY
  5
1B
102
{ACAD_REACTORS
330
C
102
}
330
C
100
AcDbDictionary
281
     1
  0
DICTIONARY
  5
D
102
{ACAD_REACTORS
330
C
102
}
330
C
100
AcDbDictionary
281
     1
  0
DICTIONARY
  5
19
102
{ACAD_REACTORS
330
C
102
}
330
C
100
AcDbDictionary
281
     1
  3
Model
350
25
  3
レイアウト1
350
21
  0
DICTIONARY
  5
1A
102
{ACAD_REACTORS
330
C
102
}
330
C
100
AcDbDictionary
281
     1
  0
DICTIONARY
  5
16
102
{ACAD_REACTORS
330
C
102
}
330
C
100
AcDbDictionary
281
     1
  3
Standard
350
17
  0
DICTIONARY
  5
18
102
{ACAD_REACTORS
330
C
102
}
330
C
100
AcDbDictionary
281
     1
  0
ACDBDICTIONARYWDFLT
  5
E
102
{ACAD_REACTORS
330
C
102
}
330
C
100
AcDbDictionary
281
     1
  3
Normal
350
F
100
AcDbDictionaryWithDefault
340
F
  0
DICTIONARY
  5
1C
102
{ACAD_REACTORS
330
C
102
}
330
C
100
AcDbDictionary
281
     1
  3
Standard
350
1D
  0
DICTIONARY
  5
441
102
{ACAD_REACTORS
330
C
102
}
330
C
100
AcDbDictionary
281
     1
  3
CTABLESTYLE
350
442
  0
LAYOUT
  5
25
102
{ACAD_REACTORS
330
19
102
}
330
19
100
AcDbPlotSettings
  1

  2
PDF reDirect v2
  4
User66
  6

 40
3.174999952316284
 41
3.174999952316284
 42
3.17498779296875
 43
3.17498779296875
 44
420.0
 45
594.0
 46
0.0
 47
0.0
 48
0.0
 49
0.0
140
0.0
141
0.0
142
1.0
143
1.0
 70
 11952
 72
     1
 73
     1
 74
     2
  7
C:\Users\ck\AppData\Roaming\Autodesk\AutoCAD 2005\R16.1\jpn\Plot Styles\black.ctb
 75
    16
147
1.0
 76
     0
 77
     2
 78
   300
148
592.0
149
0.0
100
AcDbLayout
  1
Model
 70
     1
 71
     0
 10
0.0
 20
0.0
 11
12.0
 21
9.0
 12
0.0
 22
0.0
 32
0.0
 14
0.0
 24
0.0
 34
0.0
 15
0.0
 25
0.0
 35
0.0
146
0.0
 13
0.0
 23
0.0
 33
0.0
 16
1.0
 26
0.0
 36
0.0
 17
0.0
 27
1.0
 37
0.0
 76
     0
330
22
1001
ACAD_PSEXT
1000
PDF reDirect v2
1000
PDF reDirect Pro
1000
PDF_REDIRECT_PORT:
1000
PDF reDirect provided by EXP Systems
1070
     0
  0
LAYOUT
  5
21
102
{ACAD_REACTORS
330
19
102
}
330
19
100
AcDbPlotSettings
  1

  2
PDF reDirect v2
  4

  6

 40
0.0
 41
0.0
 42
0.0
 43
0.0
 44
0.0
 45
0.0
 46
0.0
 47
0.0
 48
0.0
 49
0.0
140
0.0
141
0.0
142
1.0
143
1.0
 70
   688
 72
     0
 73
     0
 74
     5
  7
C:\Users\ck\AppData\Roaming\Autodesk\AutoCAD 2005\R16.1\jpn\Plot Styles\black.ctb
 75
    16
147
1.0
 76
     0
 77
     2
 78
   300
148
0.0
149
0.0
100
AcDbLayout
  1
レイアウト1
 70
     1
 71
     1
 10
-592.0
 20
0.0
 11
0.0
 21
418.0
 12
0.0
 22
0.0
 32
0.0
 14
1.000000000000000E+20
 24
1.000000000000000E+20
 34
1.000000000000000E+20
 15
-1.000000000000000E+20
 25
-1.000000000000000E+20
 35
-1.000000000000000E+20
146
0.0
 13
0.0
 23
0.0
 33
0.0
 16
1.0
 26
0.0
 36
0.0
 17
0.0
 27
1.0
 37
0.0
 76
     0
330
1E
  0
MLINESTYLE
  5
17
102
{ACAD_REACTORS
330
16
102
}
330
16
100
AcDbMlineStyle
  2
STANDARD
 70
     0
  3

 62
   256
 51
90.0
 52
90.0
 71
     2
 49
0.5
 62
   256
  6
BYLAYER
 49
-0.5
 62
   256
  6
BYLAYER
  0
ACDBPLACEHOLDER
  5
F
102
{ACAD_REACTORS
330
E
102
}
330
E
  0
TABLESTYLE
  5
1D
102
{ACAD_REACTORS
330
1C
102
}
330
1C
100
AcDbTableStyle
  3
Standard
 70
     0
 71
     0
 40
0.06
 41
0.06
280
     0
281
     0
  7
STANDARD
140
0.18
170
     2
 62
     0
 63
     7
283
     0
274
    -2
284
     1
 64
     0
275
    -2
285
     1
 65
     0
276
    -2
286
     1
 66
     0
277
    -2
287
     1
 67
     0
278
    -2
288
     1
 68
     0
279
    -2
289
     1
 69
     0
  7
STANDARD
140
0.25
170
     5
 62
     0
 63
     7
283
     0
274
    -2
284
     1
 64
     0
275
    -2
285
     1
 65
     0
276
    -2
286
     1
 66
     0
277
    -2
287
     1
 67
     0
278
    -2
288
     1
 68
     0
279
    -2
289
     1
 69
     0
  7
STANDARD
140
0.18
170
     5
 62
     0
 63
     7
283
     0
274
    -2
284
     1
 64
     0
275
    -2
285
     1
 65
     0
276
    -2
286
     1
 66
     0
277
    -2
287
     1
 67
     0
278
    -2
288
     1
 68
     0
279
    -2
289
     1
 69
     0
  0
DICTIONARYVAR
  5
442
102
{ACAD_REACTORS
330
441
102
}
330
441
100
DictionaryVariables
280
     0
  1
STANDARD
  0
ENDSEC
  0
EOF
