  0
SECTION
  2
HEADER
  9
$ACADVER
  1
AC1018
  9
$ACADMAINTVER
 70
    39
  9
$DWGCODEPAGE
  3
ANSI_932
  9
$INSBASE
 10
0.0
 20
0.0
 30
0.0
  9
$EXTMIN
 10
-760.3131986438683
 20
75.37890829120169
 30
-0.0015258207003583
  9
$EXTMAX
 10
-382.4930701913467
 20
797.9947986586426
 30
0.0000000349246037
  9
$LIMMIN
 10
-1187.0
 20
0.0
  9
$LIMMAX
 10
0.0
 20
839.0
  9
$ORTHOMODE
 70
     0
  9
$REGENMODE
 70
     1
  9
$FILLMODE
 70
     1
  9
$QTEXTMODE
 70
     0
  9
$MIRRTEXT
 70
     0
  9
$LTSCALE
 40
1.0
  9
$ATTMODE
 70
     1
  9
$TEXTSIZE
 40
0.2
  9
$TRACEWID
 40
0.05
  9
$TEXTSTYLE
  7
STANDARD
  9
$CLAYER
  8
0
  9
$CELTYPE
  6
CONTINUOUS
  9
$CECOLOR
 62
   256
  9
$CELTSCALE
 40
1.0
  9
$DISPSILH
 70
     0
  9
$DIMSCALE
 40
1.0
  9
$DIMASZ
 40
1.0
  9
$DIMEXO
 40
2.54
  9
$DIMDLI
 40
0.38
  9
$DIMRND
 40
0.0
  9
$DIMDLE
 40
0.0
  9
$DIMEXE
 40
2.54
  9
$DIMTP
 40
0.0
  9
$DIMTM
 40
0.0
  9
$DIMTXT
 40
3.0
  9
$DIMCEN
 40
0.09
  9
$DIMTSZ
 40
0.0
  9
$DIMTOL
 70
     0
  9
$DIMLIM
 70
     0
  9
$DIMTIH
 70
     0
  9
$DIMTOH
 70
     0
  9
$DIMSE1
 70
     0
  9
$DIMSE2
 70
     0
  9
$DIMTAD
 70
     1
  9
$DIMZIN
 70
     0
  9
$DIMBLK
  1

  9
$DIMASO
 70
     1
  9
$DIMSHO
 70
     0
  9
$DIMPOST
  1

  9
$DIMAPOST
  1

  9
$DIMALT
 70
     0
  9
$DIMALTD
 70
     2
  9
$DIMALTF
 40
25.4
  9
$DIMLFAC
 40
1.0
  9
$DIMTOFL
 70
     0
  9
$DIMTVP
 40
1.0
  9
$DIMTIX
 70
     0
  9
$DIMSOXD
 70
     0
  9
$DIMSAH
 70
     1
  9
$DIMBLK1
  1

  9
$DIMBLK2
  1

  9
$DIMSTYLE
  2
DIMSTYLE1
  9
$DIMCLRD
 70
     0
  9
$DIMCLRE
 70
     0
  9
$DIMCLRT
 70
     0
  9
$DIMTFAC
 40
1.0
  9
$DIMGAP
 40
1.5
  9
$DIMJUST
 70
     0
  9
$DIMSD1
 70
     0
  9
$DIMSD2
 70
     0
  9
$DIMTOLJ
 70
     1
  9
$DIMTZIN
 70
     0
  9
$DIMALTZ
 70
     0
  9
$DIMALTTZ
 70
     0
  9
$DIMUPT
 70
     0
  9
$DIMDEC
 70
     4
  9
$DIMTDEC
 70
     4
  9
$DIMALTU
 70
     2
  9
$DIMALTTD
 70
     2
  9
$DIMTXSTY
  7
STANDARD
  9
$DIMAUNIT
 70
     0
  9
$DIMADEC
 70
     0
  9
$DIMALTRND
 40
0.0
  9
$DIMAZIN
 70
     0
  9
$DIMDSEP
 70
    46
  9
$DIMATFIT
 70
     3
  9
$DIMFRAC
 70
     0
  9
$DIMLDRBLK
  1

  9
$DIMLUNIT
 70
     2
  9
$DIMLWD
 70
    -2
  9
$DIMLWE
 70
    -2
  9
$DIMTMOVE
 70
     0
  9
$LUNITS
 70
     2
  9
$LUPREC
 70
     4
  9
$SKETCHINC
 40
0.1
  9
$FILLETRAD
 40
0.0
  9
$AUNITS
 70
     0
  9
$AUPREC
 70
     0
  9
$MENU
  1
.
  9
$ELEVATION
 40
0.0
  9
$PELEVATION
 40
0.0
  9
$THICKNESS
 40
0.0
  9
$LIMCHECK
 70
     0
  9
$CHAMFERA
 40
0.0
  9
$CHAMFERB
 40
0.0
  9
$CHAMFERC
 40
0.0
  9
$CHAMFERD
 40
0.0
  9
$SKPOLY
 70
     0
  9
$TDCREATE
 40
2457706.823136494
  9
$TDUCREATE
 40
2457706.448136493
  9
$TDUPDATE
 40
2457706.823845313
  9
$TDUUPDATE
 40
2457706.448845313
  9
$TDINDWG
 40
0.0007103241
  9
$TDUSRTIMER
 40
0.0007103241
  9
$USRTIMER
 70
     1
  9
$ANGBASE
 50
0.0
  9
$ANGDIR
 70
     0
  9
$PDMODE
 70
     0
  9
$PDSIZE
 40
0.0
  9
$PLINEWID
 40
0.0
  9
$SPLFRAME
 70
     0
  9
$SPLINETYPE
 70
     6
  9
$SPLINESEGS
 70
     8
  9
$HANDSEED
  5
6C0
  9
$SURFTAB1
 70
     6
  9
$SURFTAB2
 70
     6
  9
$SURFTYPE
 70
     6
  9
$SURFU
 70
     6
  9
$SURFV
 70
     6
  9
$UCSBASE
  2

  9
$UCSNAME
  2

  9
$UCSORG
 10
0.0
 20
0.0
 30
0.0
  9
$UCSXDIR
 10
1.0
 20
0.0
 30
0.0
  9
$UCSYDIR
 10
0.0
 20
1.0
 30
0.0
  9
$UCSORTHOREF
  2

  9
$UCSORTHOVIEW
 70
     0
  9
$UCSORGTOP
 10
0.0
 20
0.0
 30
0.0
  9
$UCSORGBOTTOM
 10
0.0
 20
0.0
 30
0.0
  9
$UCSORGLEFT
 10
0.0
 20
0.0
 30
0.0
  9
$UCSORGRIGHT
 10
0.0
 20
0.0
 30
0.0
  9
$UCSORGFRONT
 10
0.0
 20
0.0
 30
0.0
  9
$UCSORGBACK
 10
0.0
 20
0.0
 30
0.0
  9
$PUCSBASE
  2

  9
$PUCSNAME
  2

  9
$PUCSORG
 10
0.0
 20
0.0
 30
0.0
  9
$PUCSXDIR
 10
1.0
 20
0.0
 30
0.0
  9
$PUCSYDIR
 10
0.0
 20
1.0
 30
0.0
  9
$PUCSORTHOREF
  2

  9
$PUCSORTHOVIEW
 70
     0
  9
$PUCSORGTOP
 10
0.0
 20
0.0
 30
0.0
  9
$PUCSORGBOTTOM
 10
0.0
 20
0.0
 30
0.0
  9
$PUCSORGLEFT
 10
0.0
 20
0.0
 30
0.0
  9
$PUCSORGRIGHT
 10
0.0
 20
0.0
 30
0.0
  9
$PUCSORGFRONT
 10
0.0
 20
0.0
 30
0.0
  9
$PUCSORGBACK
 10
0.0
 20
0.0
 30
0.0
  9
$USERI1
 70
     0
  9
$USERI2
 70
     0
  9
$USERI3
 70
     0
  9
$USERI4
 70
     0
  9
$USERI5
 70
     0
  9
$USERR1
 40
0.0
  9
$USERR2
 40
0.0
  9
$USERR3
 40
0.0
  9
$USERR4
 40
0.0
  9
$USERR5
 40
0.0
  9
$WORLDVIEW
 70
     1
  9
$SHADEDGE
 70
     3
  9
$SHADEDIF
 70
    70
  9
$TILEMODE
 70
     1
  9
$MAXACTVP
 70
    64
  9
$PINSBASE
 10
0.0
 20
0.0
 30
0.0
  9
$PLIMCHECK
 70
     0
  9
$PEXTMIN
 10
1.000000000000000E+20
 20
1.000000000000000E+20
 30
1.000000000000000E+20
  9
$PEXTMAX
 10
-1.000000000000000E+20
 20
-1.000000000000000E+20
 30
-1.000000000000000E+20
  9
$PLIMMIN
 10
-1187.0
 20
0.0
  9
$PLIMMAX
 10
0.0
 20
839.0
  9
$UNITMODE
 70
     0
  9
$VISRETAIN
 70
     1
  9
$PLINEGEN
 70
     0
  9
$PSLTSCALE
 70
     1
  9
$TREEDEPTH
 70
  3020
  9
$CMLSTYLE
  2
Standard
  9
$CMLJUST
 70
     0
  9
$CMLSCALE
 40
1.0
  9
$PROXYGRAPHICS
 70
     1
  9
$MEASUREMENT
 70
     0
  9
$CELWEIGHT
370
    -1
  9
$ENDCAPS
280
     0
  9
$JOINSTYLE
280
     0
  9
$LWDISPLAY
290
     0
  9
$INSUNITS
 70
     0
  9
$HYPERLINKBASE
  1

  9
$STYLESHEET
  1

  9
$XEDIT
290
     1
  9
$CEPSNTYPE
380
     0
  9
$PSTYLEMODE
290
     1
  9
$FINGERPRINTGUID
  2
{7087D34C-F625-47AF-81DF-3B13CEDB7679}
  9
$VERSIONGUID
  2
{9C641517-DD4A-43E8-A740-16F25B2162B9}
  9
$EXTNAMES
290
     1
  9
$PSVPSCALE
 40
0.0
  9
$OLESTARTUP
290
     0
  9
$SORTENTS
280
   127
  9
$INDEXCTL
280
     0
  9
$HIDETEXT
280
     0
  9
$XCLIPFRAME
290
     0
  9
$HALOGAP
280
     0
  9
$OBSCOLOR
 70
   257
  9
$OBSLTYPE
280
     0
  9
$INTERSECTIONDISPLAY
280
     0
  9
$INTERSECTIONCOLOR
 70
   257
  9
$DIMASSOC
280
     1
  9
$PROJECTNAME
  1

  0
ENDSEC
  0
SECTION
  2
CLASSES
  0
CLASS
  1
ACDBDICTIONARYWDFLT
  2
AcDbDictionaryWithDefault
  3
ObjectDBX Classes
 90
        0
 91
        1
280
     0
281
     0
  0
CLASS
  1
TABLESTYLE
  2
AcDbTableStyle
  3
ObjectDBX Classes
 90
     2047
 91
        1
280
     0
281
     0
  0
CLASS
  1
DICTIONARYVAR
  2
AcDbDictionaryVar
  3
ObjectDBX Classes
 90
        0
 91
        1
280
     0
281
     0
  0
ENDSEC
  0
SECTION
  2
TABLES
  0
TABLE
  2
VPORT
  5
8
330
0
100
AcDbSymbolTable
 70
     2
  0
VPORT
  5
6BF
330
8
100
AcDbSymbolTableRecord
100
AcDbViewportTableRecord
  2
*Active
 70
     0
 10
0.0
 20
0.0
 11
1.0
 21
1.0
 12
-593.5000000000001
 22
419.5
 13
0.0
 23
0.0
 14
1.0
 24
1.0
 15
0.0
 25
0.0
 16
0.0
 26
0.0
 36
1.0
 17
0.0
 27
0.0
 37
0.0
 40
845.6236842105264
 41
1.56258234519104
 42
50.0
 43
0.0
 44
0.0
 50
0.0
 51
0.0
 71
     0
 72
   100
 73
     1
 74
     1
 75
     0
 76
     0
 77
     0
 78
     0
281
     0
 65
     1
110
0.0
120
0.0
130
0.0
111
1.0
121
0.0
131
0.0
112
0.0
122
1.0
132
0.0
 79
     0
146
0.0
  0
ENDTAB
  0
TABLE
  2
LTYPE
  5
5
330
0
100
AcDbSymbolTable
 70
     6
  0
LTYPE
  5
13
330
5
100
AcDbSymbolTableRecord
100
AcDbLinetypeTableRecord
  2
ByBlock
 70
     0
  3

 72
    65
 73
     0
 40
0.0
  0
LTYPE
  5
14
330
5
100
AcDbSymbolTableRecord
100
AcDbLinetypeTableRecord
  2
ByLayer
 70
     0
  3

 72
    65
 73
     0
 40
0.0
  0
LTYPE
  5
15
330
5
100
AcDbSymbolTableRecord
100
AcDbLinetypeTableRecord
  2
CONTINUOUS
 70
     0
  3
Solid line
 72
    65
 73
     0
 40
0.0
  0
LTYPE
  5
26
330
5
100
AcDbSymbolTableRecord
100
AcDbLinetypeTableRecord
  2
DASHED
 70
     0
  3
__ __ __ __ __ __ __ __ __ __ __ __ __ __ __
 72
    65
 73
     2
 40
3.5
 49
2.0
 74
     0
 49
-1.5
 74
     0
  0
LTYPE
  5
27
330
5
100
AcDbSymbolTableRecord
100
AcDbLinetypeTableRecord
  2
CENTER
 70
     0
  3
____ _ ____ _ ____ _ ____ _ ____ _ ____ _ ____
 72
    65
 73
     4
 40
17.5
 49
13.0
 74
     0
 49
-1.5
 74
     0
 49
1.5
 74
     0
 49
-1.5
 74
     0
  0
LTYPE
  5
28
330
5
100
AcDbSymbolTableRecord
100
AcDbLinetypeTableRecord
  2
PHANTOM
 70
     0
  3
_____ _ _ _____ _ _ _____ _ _ _____ _ _ ____  
 72
    65
 73
     6
 40
15.5
 49
8.0
 74
     0
 49
-1.5
 74
     0
 49
1.5
 74
     0
 49
-1.5
 74
     0
 49
1.5
 74
     0
 49
-1.5
 74
     0
  0
LTYPE
  5
29
330
5
100
AcDbSymbolTableRecord
100
AcDbLinetypeTableRecord
  2
DOT
 70
     0
  3
. . . . . . . . . . . . . . . . . . . . . . . .
 72
    65
 73
     2
 40
0.25
 49
0.0
 74
     0
 49
-0.25
 74
     0
  0
LTYPE
  5
2A
330
5
100
AcDbSymbolTableRecord
100
AcDbLinetypeTableRecord
  2
HIDDEN
 70
     0
  3
__ __ __ __ __ __ __ __ __ __ __ __ __ __ __
 72
    65
 73
     2
 40
3.5
 49
2.0
 74
     0
 49
-1.5
 74
     0
  0
ENDTAB
  0
TABLE
  2
LAYER
  5
2
330
0
100
AcDbSymbolTable
 70
     2
  0
LAYER
  5
10
330
2
100
AcDbSymbolTableRecord
100
AcDbLayerTableRecord
  2
0
 70
     0
 62
     7
  6
CONTINUOUS
370
    -3
390
F
  0
LAYER
  5
2B
330
2
100
AcDbSymbolTableRecord
100
AcDbLayerTableRecord
  2
DEFPOINTS
 70
     0
 62
     7
  6
CONTINUOUS
290
     0
370
    -3
390
F
  0
ENDTAB
  0
TABLE
  2
STYLE
  5
3
330
0
100
AcDbSymbolTable
 70
     2
  0
STYLE
  5
11
330
3
100
AcDbSymbolTableRecord
100
AcDbTextStyleTableRecord
  2
STANDARD
 70
     0
 40
0.0
 41
1.0
 50
0.0
 71
     0
 42
0.2
  3

  4

1001
ACAD
1000
MS Gothic
1071
    32817
  0
ENDTAB
  0
TABLE
  2
VIEW
  5
6
330
0
100
AcDbSymbolTable
 70
     0
  0
ENDTAB
  0
TABLE
  2
UCS
  5
7
330
0
100
AcDbSymbolTable
 70
     0
  0
ENDTAB
  0
TABLE
  2
APPID
  5
9
330
0
100
AcDbSymbolTable
 70
     2
  0
APPID
  5
12
330
9
100
AcDbSymbolTableRecord
100
AcDbRegAppTableRecord
  2
ACAD
 70
     0
  0
APPID
  5
6B4
330
9
100
AcDbSymbolTableRecord
100
AcDbRegAppTableRecord
  2
ACAD_PSEXT
 70
     0
  0
ENDTAB
  0
TABLE
  2
DIMSTYLE
  5
A
330
0
100
AcDbSymbolTable
 70
    16
100
AcDbDimStyleTable
 71
     1
340
2C
  0
DIMSTYLE
105
2C
102
{ACAD_REACTORS
330
6A1
102
}
330
A
100
AcDbSymbolTableRecord
100
AcDbDimStyleTableRecord
  2
DIMSTYLE1
 70
     0
 41
1.0
 42
2.54
 44
2.54
 73
     0
 74
     0
 77
     1
140
3.0
145
1.0
147
1.5
172
     1
173
     1
279
     2
340
11
  0
DIMSTYLE
105
2D
102
{ACAD_REACTORS
330
6A2
102
}
330
A
100
AcDbSymbolTableRecord
100
AcDbDimStyleTableRecord
  2
DIMSTYLE2
 70
     0
 41
1.0
 42
2.54
 44
2.54
 73
     0
 74
     0
 77
     1
140
3.0
145
1.0
147
1.5
172
     1
173
     1
279
     2
340
11
  0
DIMSTYLE
105
2E
102
{ACAD_REACTORS
330
6A3
102
}
330
A
100
AcDbSymbolTableRecord
100
AcDbDimStyleTableRecord
  2
DIMSTYLE3
 70
     0
 41
1.0
 42
2.54
 44
2.54
 73
     0
 74
     0
 77
     1
140
3.0
145
1.0
147
1.5
172
     1
173
     1
279
     2
340
11
  0
DIMSTYLE
105
2F
102
{ACAD_REACTORS
330
6A4
102
}
330
A
100
AcDbSymbolTableRecord
100
AcDbDimStyleTableRecord
  2
DIMSTYLE4
 70
     0
 41
1.0
 42
2.54
 44
2.54
 73
     0
 74
     0
 77
     1
140
3.0
145
1.0
147
1.5
172
     1
173
     1
279
     2
340
11
  0
DIMSTYLE
105
30
102
{ACAD_REACTORS
330
6A5
102
}
330
A
100
AcDbSymbolTableRecord
100
AcDbDimStyleTableRecord
  2
DIMSTYLE5
 70
     0
 41
1.0
 42
2.54
 44
2.54
 73
     0
 74
     0
 77
     1
140
3.0
145
1.0
147
1.5
172
     1
173
     1
279
     2
340
11
  0
DIMSTYLE
105
31
102
{ACAD_REACTORS
330
6A6
102
}
330
A
100
AcDbSymbolTableRecord
100
AcDbDimStyleTableRecord
  2
DIMSTYLE6
 70
     0
 41
1.0
 42
2.54
 44
2.54
 73
     0
 74
     0
 77
     1
140
3.0
145
1.0
147
1.5
172
     1
173
     1
279
     2
340
11
  0
DIMSTYLE
105
32
102
{ACAD_REACTORS
330
6A7
102
}
330
A
100
AcDbSymbolTableRecord
100
AcDbDimStyleTableRecord
  2
DIMSTYLE7
 70
     0
 41
1.0
 42
2.54
 44
2.54
 73
     0
 74
     0
 77
     1
140
3.0
145
1.0
147
1.5
172
     1
173
     1
279
     2
340
11
  0
DIMSTYLE
105
33
102
{ACAD_REACTORS
330
6A8
102
}
330
A
100
AcDbSymbolTableRecord
100
AcDbDimStyleTableRecord
  2
DIMSTYLE8
 70
     0
 41
1.0
 42
2.54
 44
2.54
 73
     0
 74
     0
 77
     1
140
3.0
145
1.0
147
1.5
172
     1
173
     1
279
     2
340
11
  0
DIMSTYLE
105
34
102
{ACAD_REACTORS
330
6A9
102
}
330
A
100
AcDbSymbolTableRecord
100
AcDbDimStyleTableRecord
  2
DIMSTYLE9
 70
     0
 41
1.0
 42
2.54
 44
2.54
 73
     0
 74
     0
 77
     1
140
3.0
145
1.0
147
1.5
172
     1
173
     1
279
     2
340
11
  0
DIMSTYLE
105
35
102
{ACAD_REACTORS
330
6AA
102
}
330
A
100
AcDbSymbolTableRecord
100
AcDbDimStyleTableRecord
  2
DIMSTYLE10
 70
     0
 41
1.0
 42
2.54
 44
2.54
 73
     0
 74
     0
 77
     1
140
3.0
145
1.0
147
1.5
172
     1
173
     1
279
     2
340
11
  0
DIMSTYLE
105
36
102
{ACAD_REACTORS
330
6AD
102
}
330
A
100
AcDbSymbolTableRecord
100
AcDbDimStyleTableRecord
  2
DIMSTYLE11
 70
     0
 41
1.0
 42
2.54
 44
2.54
 73
     0
 74
     0
 77
     1
140
3.0
145
1.0
147
1.5
172
     1
173
     1
279
     2
340
11
  0
DIMSTYLE
105
37
102
{ACAD_REACTORS
330
6AE
102
}
330
A
100
AcDbSymbolTableRecord
100
AcDbDimStyleTableRecord
  2
DIMSTYLE12
 70
     0
 41
1.0
 42
2.54
 44
2.54
 73
     0
 74
     0
 77
     1
140
3.0
145
1.0
147
1.5
172
     1
173
     1
279
     2
340
11
  0
DIMSTYLE
105
38
102
{ACAD_REACTORS
330
6AF
102
}
330
A
100
AcDbSymbolTableRecord
100
AcDbDimStyleTableRecord
  2
DIMSTYLE13
 70
     0
 41
1.0
 42
2.54
 44
2.54
 73
     0
 74
     0
 77
     1
140
3.0
145
1.0
147
1.5
172
     1
173
     1
279
     2
340
11
  0
DIMSTYLE
105
39
102
{ACAD_REACTORS
330
6B0
102
}
330
A
100
AcDbSymbolTableRecord
100
AcDbDimStyleTableRecord
  2
DIMSTYLE14
 70
     0
 41
1.0
 42
2.54
 44
2.54
 73
     0
 74
     0
 77
     1
140
3.0
145
1.0
147
1.5
172
     1
173
     1
279
     2
340
11
  0
DIMSTYLE
105
3A
102
{ACAD_REACTORS
330
6B1
102
}
330
A
100
AcDbSymbolTableRecord
100
AcDbDimStyleTableRecord
  2
DIMSTYLE15
 70
     0
 41
1.0
 42
2.54
 44
2.54
 73
     0
 74
     0
 77
     1
140
3.0
145
1.0
147
1.5
172
     1
173
     1
279
     2
340
11
  0
ENDTAB
  0
TABLE
  2
BLOCK_RECORD
  5
1
330
0
100
AcDbSymbolTable
 70
    19
  0
BLOCK_RECORD
  5
22
330
1
100
AcDbSymbolTableRecord
100
AcDbBlockTableRecord
  2
*Model_Space
340
25
  0
BLOCK_RECORD
  5
1E
330
1
100
AcDbSymbolTableRecord
100
AcDbBlockTableRecord
  2
*Paper_Space
340
21
  0
BLOCK_RECORD
  5
3E
330
1
100
AcDbSymbolTableRecord
100
AcDbBlockTableRecord
  2
_OPEN30
340
0
102
{BLKREFS
331
47
331
48
331
53
331
54
331
5F
331
60
331
6B
331
6C
331
78
331
7A
331
85
331
86
331
91
331
92
331
9D
331
9E
331
A9
331
AA
331
B4
331
B5
331
BF
331
C0
331
CB
331
CC
331
D6
331
D7
331
E1
331
E2
331
EB
331
EC
102
}
  0
BLOCK_RECORD
  5
44
330
1
100
AcDbSymbolTableRecord
100
AcDbBlockTableRecord
  2
*D1
340
0
  0
BLOCK_RECORD
  5
50
330
1
100
AcDbSymbolTableRecord
100
AcDbBlockTableRecord
  2
*D2
340
0
  0
BLOCK_RECORD
  5
5C
330
1
100
AcDbSymbolTableRecord
100
AcDbBlockTableRecord
  2
*D3
340
0
  0
BLOCK_RECORD
  5
68
330
1
100
AcDbSymbolTableRecord
100
AcDbBlockTableRecord
  2
*D4
340
0
  0
BLOCK_RECORD
  5
74
330
1
100
AcDbSymbolTableRecord
100
AcDbBlockTableRecord
  2
*D5
340
0
  0
BLOCK_RECORD
  5
82
330
1
100
AcDbSymbolTableRecord
100
AcDbBlockTableRecord
  2
*D6
340
0
  0
BLOCK_RECORD
  5
8E
330
1
100
AcDbSymbolTableRecord
100
AcDbBlockTableRecord
  2
*D7
340
0
  0
BLOCK_RECORD
  5
9A
330
1
100
AcDbSymbolTableRecord
100
AcDbBlockTableRecord
  2
*D8
340
0
  0
BLOCK_RECORD
  5
A6
330
1
100
AcDbSymbolTableRecord
100
AcDbBlockTableRecord
  2
*D9
340
0
  0
BLOCK_RECORD
  5
B1
330
1
100
AcDbSymbolTableRecord
100
AcDbBlockTableRecord
  2
*D10
340
0
  0
BLOCK_RECORD
  5
BC
330
1
100
AcDbSymbolTableRecord
100
AcDbBlockTableRecord
  2
*D11
340
0
  0
BLOCK_RECORD
  5
C8
330
1
100
AcDbSymbolTableRecord
100
AcDbBlockTableRecord
  2
*D12
340
0
  0
BLOCK_RECORD
  5
D3
330
1
100
AcDbSymbolTableRecord
100
AcDbBlockTableRecord
  2
*D13
340
0
  0
BLOCK_RECORD
  5
DE
330
1
100
AcDbSymbolTableRecord
100
AcDbBlockTableRecord
  2
*D14
340
0
  0
BLOCK_RECORD
  5
E8
330
1
100
AcDbSymbolTableRecord
100
AcDbBlockTableRecord
  2
*D15
340
0
  0
BLOCK_RECORD
  5
F3
330
1
100
AcDbSymbolTableRecord
100
AcDbBlockTableRecord
  2
KOZU0001
340
0
102
{BLKREFS
331
6AB
102
}
  0
BLOCK_RECORD
  5
FC
330
1
100
AcDbSymbolTableRecord
100
AcDbBlockTableRecord
  2
KOZU0002
340
0
102
{BLKREFS
331
6AC
102
}
  0
ENDTAB
  0
ENDSEC
  0
SECTION
  2
BLOCKS
  0
BLOCK
  5
23
330
22
100
AcDbEntity
  8
0
100
AcDbBlockBegin
  2
*Model_Space
 70
     0
 10
0.0
 20
0.0
 30
0.0
  3
*Model_Space
  1

  0
ENDBLK
  5
24
330
22
100
AcDbEntity
  8
0
100
AcDbBlockEnd
  0
BLOCK
  5
1F
330
1E
100
AcDbEntity
 67
     1
  8
0
100
AcDbBlockBegin
  2
*Paper_Space
 70
     0
 10
0.0
 20
0.0
 30
0.0
  3
*Paper_Space
  1

  0
ENDBLK
  5
20
330
1E
100
AcDbEntity
 67
     1
  8
0
100
AcDbBlockEnd
  0
BLOCK
  5
3F
330
3E
100
AcDbEntity
  8
0
100
AcDbBlockBegin
  2
_OPEN30
 70
     0
 10
0.0
 20
0.0
 30
0.0
  3
_OPEN30
  1

  0
LINE
  5
40
330
3E
100
AcDbEntity
  8
0
  6
ByBlock
 62
     0
100
AcDbLine
 10
0.0
 20
0.0
 30
0.0
 11
-2.999999999999993
 21
-1.000000000000017
 31
0.0
  0
LINE
  5
41
330
3E
100
AcDbEntity
  8
0
  6
ByBlock
 62
     0
100
AcDbLine
 10
0.0
 20
0.0
 30
0.0
 11
-3.000000000000006
 21
0.9999999999999815
 31
0.0
  0
LINE
  5
42
330
3E
100
AcDbEntity
  8
0
  6
ByBlock
 62
     0
100
AcDbLine
 10
0.0
 20
0.0
 30
0.0
 11
-3.0
 21
0.0
 31
0.0
  0
ENDBLK
  5
43
330
3E
100
AcDbEntity
  8
0
100
AcDbBlockEnd
  0
BLOCK
  5
45
330
44
100
AcDbEntity
  8
0
100
AcDbBlockBegin
  2
*D1
 70
     1
 10
0.0
 20
0.0
 30
0.0
  3
*D1
  1

  0
LINE
  5
46
330
44
100
AcDbEntity
  8
0
  6
Continuous
 62
     7
100
AcDbLine
 10
-402.9657897949219
 20
462.7423706054687
 30
0.0
 11
-402.9657897949219
 21
756.7423706054687
 31
0.0
  0
INSERT
  5
47
330
44
100
AcDbEntity
  8
0
  6
Continuous
 62
     7
100
AcDbBlockReference
  2
_OPEN30
 10
-402.9657897949219
 20
459.7423706054688
 30
0.0
 50
270.0000000000005
  0
INSERT
  5
48
330
44
100
AcDbEntity
  8
0
  6
Continuous
 62
     7
100
AcDbBlockReference
  2
_OPEN30
 10
-402.9657897949219
 20
759.7423706054687
 30
0.0
 50
90.00000000000019
  0
LINE
  5
49
330
44
100
AcDbEntity
  8
0
  6
Continuous
 62
     7
100
AcDbLine
 10
-445.5592126464843
 20
459.7423706054688
 30
0.0
 11
-400.6797790527343
 21
459.7423706054688
 31
0.0
  0
LINE
  5
4A
330
44
100
AcDbEntity
  8
0
  6
Continuous
 62
     7
100
AcDbLine
 10
-445.5592126464843
 20
759.7423706054687
 30
0.0
 11
-400.6797790527343
 21
759.7423706054687
 31
0.0
  0
TEXT
  5
4B
330
44
100
AcDbEntity
  8
0
  6
Continuous
 62
     7
100
AcDbText
 10
-403.7157896170165
 20
605.6723704010237
 30
0.0
 40
3.0
  1
300
 50
90.00000250447815
 41
1.135813968126164
100
AcDbText
  0
POINT
  5
4C
330
44
100
AcDbEntity
  8
DEFPOINTS
  6
Continuous
 62
     7
100
AcDbPoint
 10
-448.0992126464843
 20
459.7423706054688
 30
0.0
  0
POINT
  5
4D
330
44
100
AcDbEntity
  8
DEFPOINTS
  6
Continuous
 62
     7
100
AcDbPoint
 10
-448.0992126464843
 20
759.7423706054687
 30
0.0
  0
POINT
  5
4E
330
44
100
AcDbEntity
  8
DEFPOINTS
  6
Continuous
 62
     7
100
AcDbPoint
 10
-402.9657897949219
 20
759.7423706054687
 30
0.0
  0
ENDBLK
  5
4F
330
44
100
AcDbEntity
  8
0
100
AcDbBlockEnd
  0
BLOCK
  5
51
330
50
100
AcDbEntity
  8
0
100
AcDbBlockBegin
  2
*D2
 70
     1
 10
0.0
 20
0.0
 30
0.0
  3
*D2
  1

  0
LINE
  5
52
330
50
100
AcDbEntity
  8
0
  6
Continuous
 62
     7
100
AcDbLine
 10
-417.0468444824218
 20
477.2423706054688
 30
0.0
 11
-417.0468444824218
 21
742.2423706054687
 31
0.0
  0
INSERT
  5
53
330
50
100
AcDbEntity
  8
0
  6
Continuous
 62
     7
100
AcDbBlockReference
  2
_OPEN30
 10
-417.0468444824218
 20
474.2423706054688
 30
0.0
 50
270.0000000000005
  0
INSERT
  5
54
330
50
100
AcDbEntity
  8
0
  6
Continuous
 62
     7
100
AcDbBlockReference
  2
_OPEN30
 10
-417.0468444824218
 20
745.2423706054688
 30
0.0
 50
90.00000000000019
  0
LINE
  5
55
330
50
100
AcDbEntity
  8
0
  6
Continuous
 62
     7
100
AcDbLine
 10
-456.0592126464843
 20
474.2423706054688
 30
0.0
 11
-414.7608337402344
 21
474.2423706054688
 31
0.0
  0
LINE
  5
56
330
50
100
AcDbEntity
  8
0
  6
Continuous
 62
     7
100
AcDbLine
 10
-456.0592126464843
 20
745.2423706054688
 30
0.0
 11
-414.7608337402344
 21
745.2423706054688
 31
0.0
  0
TEXT
  5
57
330
50
100
AcDbEntity
  8
0
  6
Continuous
 62
     7
100
AcDbText
 10
-417.7968443045164
 20
605.6723704010237
 30
0.0
 40
3.0
  1
271
 50
90.00000250447815
 41
1.110000014305114
100
AcDbText
  0
POINT
  5
58
330
50
100
AcDbEntity
  8
DEFPOINTS
  6
Continuous
 62
     7
100
AcDbPoint
 10
-458.5992126464843
 20
474.2423706054688
 30
0.0
  0
POINT
  5
59
330
50
100
AcDbEntity
  8
DEFPOINTS
  6
Continuous
 62
     7
100
AcDbPoint
 10
-458.5992126464843
 20
745.2423706054688
 30
0.0
  0
POINT
  5
5A
330
50
100
AcDbEntity
  8
DEFPOINTS
  6
Continuous
 62
     7
100
AcDbPoint
 10
-417.0468444824218
 20
745.2423706054688
 30
0.0
  0
ENDBLK
  5
5B
330
50
100
AcDbEntity
  8
0
100
AcDbBlockEnd
  0
BLOCK
  5
5D
330
5C
100
AcDbEntity
  8
0
100
AcDbBlockBegin
  2
*D3
 70
     1
 10
0.0
 20
0.0
 30
0.0
  3
*D3
  1

  0
LINE
  5
5E
330
5C
100
AcDbEntity
  8
0
  6
Continuous
 62
     7
100
AcDbLine
 10
-740.0991821289062
 20
793.8382568359375
 30
0.0
 11
-446.0992126464843
 21
793.8382568359375
 31
0.0
  0
INSERT
  5
5F
330
5C
100
AcDbEntity
  8
0
  6
Continuous
 62
     7
100
AcDbBlockReference
  2
_OPEN30
 10
-743.0991821289062
 20
793.8382568359375
 30
0.0
 50
180.0000000000004
  0
INSERT
  5
60
330
5C
100
AcDbEntity
  8
0
  6
Continuous
 62
     7
100
AcDbBlockReference
  2
_OPEN30
 10
-443.0992126464843
 20
793.8382568359375
 30
0.0
  0
LINE
  5
61
330
5C
100
AcDbEntity
  8
0
  6
Continuous
 62
     7
100
AcDbLine
 10
-743.0991821289062
 20
757.2823706054687
 30
0.0
 11
-743.0991821289062
 21
796.124267578125
 31
0.0
  0
LINE
  5
62
330
5C
100
AcDbEntity
  8
0
  6
Continuous
 62
     7
100
AcDbLine
 10
-443.0992126464843
 20
757.2823706054687
 30
0.0
 11
-443.0992126464843
 21
796.124267578125
 31
0.0
  0
TEXT
  5
63
330
5C
100
AcDbEntity
  8
0
  6
Continuous
 62
     7
100
AcDbText
 10
-597.1691823005676
 20
794.5882568359374
 30
0.0
 40
3.0
  1
300
 41
1.135813968126164
100
AcDbText
  0
POINT
  5
64
330
5C
100
AcDbEntity
  8
DEFPOINTS
  6
Continuous
 62
     7
100
AcDbPoint
 10
-743.0991821289062
 20
754.7423706054687
 30
0.0
  0
POINT
  5
65
330
5C
100
AcDbEntity
  8
DEFPOINTS
  6
Continuous
 62
     7
100
AcDbPoint
 10
-443.0992126464843
 20
754.7423706054687
 30
0.0
  0
POINT
  5
66
330
5C
100
AcDbEntity
  8
DEFPOINTS
  6
Continuous
 62
     7
100
AcDbPoint
 10
-443.0992126464843
 20
793.8382568359375
 30
0.0
  0
ENDBLK
  5
67
330
5C
100
AcDbEntity
  8
0
100
AcDbBlockEnd
  0
BLOCK
  5
69
330
68
100
AcDbEntity
  8
0
100
AcDbBlockBegin
  2
*D4
 70
     1
 10
0.0
 20
0.0
 30
0.0
  3
*D4
  1

  0
LINE
  5
6A
330
68
100
AcDbEntity
  8
0
  6
Continuous
 62
     7
100
AcDbLine
 10
-725.5991821289062
 20
780.6896972656249
 30
0.0
 11
-460.5992126464843
 21
780.6896972656249
 31
0.0
  0
INSERT
  5
6B
330
68
100
AcDbEntity
  8
0
  6
Continuous
 62
     7
100
AcDbBlockReference
  2
_OPEN30
 10
-728.5991821289062
 20
780.6896972656249
 30
0.0
 50
180.0000000000004
  0
INSERT
  5
6C
330
68
100
AcDbEntity
  8
0
  6
Continuous
 62
     7
100
AcDbBlockReference
  2
_OPEN30
 10
-457.5992126464844
 20
780.6896972656249
 30
0.0
  0
LINE
  5
6D
330
68
100
AcDbEntity
  8
0
  6
Continuous
 62
     7
100
AcDbLine
 10
-728.5991821289062
 20
746.7823706054687
 30
0.0
 11
-728.5991821289062
 21
782.9756469726562
 31
0.0
  0
LINE
  5
6E
330
68
100
AcDbEntity
  8
0
  6
Continuous
 62
     7
100
AcDbLine
 10
-457.5992126464844
 20
746.7823706054687
 30
0.0
 11
-457.5992126464844
 21
782.9756469726562
 31
0.0
  0
TEXT
  5
6F
330
68
100
AcDbEntity
  8
0
  6
Continuous
 62
     7
100
AcDbText
 10
-597.1691823005676
 20
781.439697265625
 30
0.0
 40
3.0
  1
271
 41
1.110000014305114
100
AcDbText
  0
POINT
  5
70
330
68
100
AcDbEntity
  8
DEFPOINTS
  6
Continuous
 62
     7
100
AcDbPoint
 10
-728.5991821289062
 20
744.2423706054687
 30
0.0
  0
POINT
  5
71
330
68
100
AcDbEntity
  8
DEFPOINTS
  6
Continuous
 62
     7
100
AcDbPoint
 10
-457.5992126464844
 20
744.2423706054687
 30
0.0
  0
POINT
  5
72
330
68
100
AcDbEntity
  8
DEFPOINTS
  6
Continuous
 62
     7
100
AcDbPoint
 10
-457.5992126464844
 20
780.6896972656249
 30
0.0
  0
ENDBLK
  5
73
330
68
100
AcDbEntity
  8
0
100
AcDbBlockEnd
  0
BLOCK
  5
75
330
74
100
AcDbEntity
  8
0
100
AcDbBlockBegin
  2
*D5
 70
     1
 10
0.0
 20
0.0
 30
0.0
  3
*D5
  1

  0
LINE
  5
76
330
74
100
AcDbEntity
  8
0
  6
Continuous
 62
     7
100
AcDbLine
 10
-402.9657897949219
 20
184.6504669189453
 30
0.0
 11
-402.9657897949219
 21
168.1194915771484
 31
0.0
  0
LINE
  5
77
330
74
100
AcDbEntity
  8
0
  6
Continuous
 62
     7
100
AcDbLine
 10
-402.9657897949219
 20
188.1504669189453
 30
0.0
 11
-402.9657897949219
 21
184.6504669189453
 31
0.0
  0
INSERT
  5
78
330
74
100
AcDbEntity
  8
0
  6
Continuous
 62
     7
100
AcDbBlockReference
  2
_OPEN30
 10
-402.9657897949219
 20
188.1504669189453
 30
0.0
 50
270.0000000000002
  0
LINE
  5
79
330
74
100
AcDbEntity
  8
0
  6
Continuous
 62
     7
100
AcDbLine
 10
-402.9657897949219
 20
191.1504669189453
 30
0.0
 11
-402.9657897949219
 21
194.5004669189453
 31
0.0
  0
INSERT
  5
7A
330
74
100
AcDbEntity
  8
0
  6
Continuous
 62
     7
100
AcDbBlockReference
  2
_OPEN30
 10
-402.9657897949219
 20
184.6504669189453
 30
0.0
 50
90.00000000000049
  0
LINE
  5
7B
330
74
100
AcDbEntity
  8
0
  6
Continuous
 62
     7
100
AcDbLine
 10
-402.9657897949219
 20
181.6504669189453
 30
0.0
 11
-402.9657897949218
 21
178.3004669189453
 31
0.0
  0
LINE
  5
7C
330
74
100
AcDbEntity
  8
0
  6
Continuous
 62
     7
100
AcDbLine
 10
-493.5592126464843
 20
184.6504669189453
 30
0.0
 11
-400.6797790527343
 21
184.6504669189453
 31
0.0
  0
TEXT
  5
7D
330
74
100
AcDbEntity
  8
0
  6
Continuous
 62
     7
100
AcDbText
 10
-403.7157896170165
 20
168.1194986969223
 30
0.0
 40
3.0
  1
3.5
 50
90.00000250447815
 41
1.356666684150696
100
AcDbText
  0
POINT
  5
7E
330
74
100
AcDbEntity
  8
DEFPOINTS
  6
Continuous
 62
     7
100
AcDbPoint
 10
-400.6797790527343
 20
188.1504669189453
 30
0.0
  0
POINT
  5
7F
330
74
100
AcDbEntity
  8
DEFPOINTS
  6
Continuous
 62
     7
100
AcDbPoint
 10
-496.0992126464843
 20
184.6504669189453
 30
0.0
  0
POINT
  5
80
330
74
100
AcDbEntity
  8
DEFPOINTS
  6
Continuous
 62
     7
100
AcDbPoint
 10
-402.9657897949219
 20
184.6504669189453
 30
0.0
  0
ENDBLK
  5
81
330
74
100
AcDbEntity
  8
0
100
AcDbBlockEnd
  0
BLOCK
  5
83
330
82
100
AcDbEntity
  8
0
100
AcDbBlockBegin
  2
*D6
 70
     1
 10
0.0
 20
0.0
 30
0.0
  3
*D6
  1

  0
LINE
  5
84
330
82
100
AcDbEntity
  8
0
  6
Continuous
 62
     7
100
AcDbLine
 10
-701.0991821289062
 20
77.67269134521484
 30
0.0
 11
-485.0992126464843
 21
77.67269134521483
 31
0.0
  0
INSERT
  5
85
330
82
100
AcDbEntity
  8
0
  6
Continuous
 62
     7
100
AcDbBlockReference
  2
_OPEN30
 10
-704.0991821289062
 20
77.67269134521484
 30
0.0
 50
180.0000000000004
  0
INSERT
  5
86
330
82
100
AcDbEntity
  8
0
  6
Continuous
 62
     7
100
AcDbBlockReference
  2
_OPEN30
 10
-482.0992126464843
 20
77.67269134521484
 30
0.0
  0
LINE
  5
87
330
82
100
AcDbEntity
  8
0
  6
Continuous
 62
     7
100
AcDbLine
 10
-704.0991821289062
 20
182.6104669189453
 30
0.0
 11
-704.0991821289062
 21
75.3866958618164
 31
0.0
  0
LINE
  5
88
330
82
100
AcDbEntity
  8
0
  6
Continuous
 62
     7
100
AcDbLine
 10
-482.0992126464843
 20
182.6104669189453
 30
0.0
 11
-482.0992126464843
 21
75.3866958618164
 31
0.0
  0
TEXT
  5
89
330
82
100
AcDbEntity
  8
0
  6
Continuous
 62
     7
100
AcDbText
 10
-598.6691823601723
 20
78.42269134521484
 30
0.0
 40
3.0
  1
%%C222
 41
0.96283492695801
100
AcDbText
  0
POINT
  5
8A
330
82
100
AcDbEntity
  8
DEFPOINTS
  6
Continuous
 62
     7
100
AcDbPoint
 10
-704.0991821289062
 20
185.1504669189453
 30
0.0
  0
POINT
  5
8B
330
82
100
AcDbEntity
  8
DEFPOINTS
  6
Continuous
 62
     7
100
AcDbPoint
 10
-482.0992126464843
 20
185.1504669189453
 30
0.0
  0
POINT
  5
8C
330
82
100
AcDbEntity
  8
DEFPOINTS
  6
Continuous
 62
     7
100
AcDbPoint
 10
-482.0992126464843
 20
77.67269134521484
 30
0.0
  0
ENDBLK
  5
8D
330
82
100
AcDbEntity
  8
0
100
AcDbBlockEnd
  0
BLOCK
  5
8F
330
8E
100
AcDbEntity
  8
0
100
AcDbBlockBegin
  2
*D7
 70
     1
 10
0.0
 20
0.0
 30
0.0
  3
*D7
  1

  0
LINE
  5
90
330
8E
100
AcDbEntity
  8
0
  6
Continuous
 62
     7
100
AcDbLine
 10
-652.5991821289062
 20
91.25540161132812
 30
0.0
 11
-533.5991821289063
 21
91.25540161132812
 31
0.0
  0
INSERT
  5
91
330
8E
100
AcDbEntity
  8
0
  6
Continuous
 62
     7
100
AcDbBlockReference
  2
_OPEN30
 10
-655.5991821289062
 20
91.25540161132812
 30
0.0
 50
180.0000000000004
  0
INSERT
  5
92
330
8E
100
AcDbEntity
  8
0
  6
Continuous
 62
     7
100
AcDbBlockReference
  2
_OPEN30
 10
-530.5991821289063
 20
91.25540161132812
 30
0.0
  0
LINE
  5
93
330
8E
100
AcDbEntity
  8
0
  6
Continuous
 62
     7
100
AcDbLine
 10
-655.5991821289062
 20
141.6104669189453
 30
0.0
 11
-655.5991821289062
 21
88.96940612792969
 31
0.0
  0
LINE
  5
94
330
8E
100
AcDbEntity
  8
0
  6
Continuous
 62
     7
100
AcDbLine
 10
-530.5991821289063
 20
141.6104669189453
 30
0.0
 11
-530.5991821289063
 21
88.96940612792969
 31
0.0
  0
TEXT
  5
95
330
8E
100
AcDbEntity
  8
0
  6
Continuous
 62
     7
100
AcDbText
 10
-598.6691823601723
 20
92.00540161132812
 30
0.0
 40
3.0
  1
%%C125
 41
1.053926216168795
100
AcDbText
  0
POINT
  5
96
330
8E
100
AcDbEntity
  8
DEFPOINTS
  6
Continuous
 62
     7
100
AcDbPoint
 10
-655.5991821289062
 20
144.1504669189453
 30
0.0
  0
POINT
  5
97
330
8E
100
AcDbEntity
  8
DEFPOINTS
  6
Continuous
 62
     7
100
AcDbPoint
 10
-530.5991821289063
 20
144.1504669189453
 30
0.0
  0
POINT
  5
98
330
8E
100
AcDbEntity
  8
DEFPOINTS
  6
Continuous
 62
     7
100
AcDbPoint
 10
-530.5991821289063
 20
91.25540161132812
 30
0.0
  0
ENDBLK
  5
99
330
8E
100
AcDbEntity
  8
0
100
AcDbBlockEnd
  0
BLOCK
  5
9B
330
9A
100
AcDbEntity
  8
0
100
AcDbBlockBegin
  2
*D8
 70
     1
 10
0.0
 20
0.0
 30
0.0
  3
*D8
  1

  0
LINE
  5
9C
330
9A
100
AcDbEntity
  8
0
  6
Continuous
 62
     7
100
AcDbLine
 10
-745.2388305664062
 20
146.1504669189453
 30
0.0
 11
-745.2388305664062
 21
225.1504669189453
 31
0.0
  0
INSERT
  5
9D
330
9A
100
AcDbEntity
  8
0
  6
Continuous
 62
     7
100
AcDbBlockReference
  2
_OPEN30
 10
-745.2388305664062
 20
143.1504669189453
 30
0.0
 50
270.0000000000005
  0
INSERT
  5
9E
330
9A
100
AcDbEntity
  8
0
  6
Continuous
 62
     7
100
AcDbBlockReference
  2
_OPEN30
 10
-745.2388305664062
 20
228.1504669189453
 30
0.0
 50
90.00000000000019
  0
LINE
  5
9F
330
9A
100
AcDbEntity
  8
0
  6
Continuous
 62
     7
100
AcDbLine
 10
-657.1391821289061
 20
143.1504669189453
 30
0.0
 11
-747.5248413085937
 21
143.1504669189453
 31
0.0
  0
LINE
  5
A0
330
9A
100
AcDbEntity
  8
0
  6
Continuous
 62
     7
100
AcDbLine
 10
-655.6391821289062
 20
228.1504669189453
 30
0.0
 11
-747.5248413085937
 21
228.1504669189453
 31
0.0
  0
TEXT
  5
A1
330
9A
100
AcDbEntity
  8
0
  6
Continuous
 62
     7
100
AcDbText
 10
-745.988830454068
 20
183.0804667741051
 30
0.0
 40
3.0
  1
85
 50
90.00000250447815
 41
1.028000020980834
100
AcDbText
  0
POINT
  5
A2
330
9A
100
AcDbEntity
  8
DEFPOINTS
  6
Continuous
 62
     7
100
AcDbPoint
 10
-654.5991821289062
 20
143.1504669189453
 30
0.0
  0
POINT
  5
A3
330
9A
100
AcDbEntity
  8
DEFPOINTS
  6
Continuous
 62
     7
100
AcDbPoint
 10
-653.0991821289062
 20
228.1504669189453
 30
0.0
  0
POINT
  5
A4
330
9A
100
AcDbEntity
  8
DEFPOINTS
  6
Continuous
 62
     7
100
AcDbPoint
 10
-745.2388305664062
 20
228.1504669189453
 30
0.0
  0
ENDBLK
  5
A5
330
9A
100
AcDbEntity
  8
0
100
AcDbBlockEnd
  0
BLOCK
  5
A7
330
A6
100
AcDbEntity
  8
0
100
AcDbBlockBegin
  2
*D9
 70
     1
 10
0.0
 20
0.0
 30
0.0
  3
*D9
  1

  0
LINE
  5
A8
330
A6
100
AcDbEntity
  8
0
  6
Continuous
 62
     7
100
AcDbLine
 10
-658.5991821289062
 20
153.6280975341797
 30
0.0
 11
-670.5991821289062
 21
153.6280975341797
 31
0.0
  0
INSERT
  5
A9
330
A6
100
AcDbEntity
  8
0
  6
Continuous
 62
     7
100
AcDbBlockReference
  2
_OPEN30
 10
-655.5991821289062
 20
153.6280975341797
 30
0.0
  0
INSERT
  5
AA
330
A6
100
AcDbEntity
  8
0
  6
Continuous
 62
     7
100
AcDbBlockReference
  2
_OPEN30
 10
-673.5991821289062
 20
153.6280975341797
 30
0.0
 50
180.0000000000004
  0
LINE
  5
AB
330
A6
100
AcDbEntity
  8
0
  6
Continuous
 62
     7
100
AcDbLine
 10
-673.5991821289062
 20
180.6556024169922
 30
0.0
 11
-673.5991821289062
 21
151.3421020507813
 31
0.0
  0
TEXT
  5
AC
330
A6
100
AcDbEntity
  8
0
  6
Continuous
 62
     7
100
AcDbText
 10
-667.169182240963
 20
154.3780975341797
 30
0.0
 40
3.0
  1
18
 41
1.285000026226043
100
AcDbText
  0
POINT
  5
AD
330
A6
100
AcDbEntity
  8
DEFPOINTS
  6
Continuous
 62
     7
100
AcDbPoint
 10
-655.5991821289062
 20
144.1504669189453
 30
0.0
  0
POINT
  5
AE
330
A6
100
AcDbEntity
  8
DEFPOINTS
  6
Continuous
 62
     7
100
AcDbPoint
 10
-673.5991821289062
 20
183.1956024169922
 30
0.0
  0
POINT
  5
AF
330
A6
100
AcDbEntity
  8
DEFPOINTS
  6
Continuous
 62
     7
100
AcDbPoint
 10
-673.5991821289062
 20
153.6280975341797
 30
0.0
  0
ENDBLK
  5
B0
330
A6
100
AcDbEntity
  8
0
100
AcDbBlockEnd
  0
BLOCK
  5
B2
330
B1
100
AcDbEntity
  8
0
100
AcDbBlockBegin
  2
*D10
 70
     1
 10
0.0
 20
0.0
 30
0.0
  3
*D10
  1

  0
LINE
  5
B3
330
B1
100
AcDbEntity
  8
0
  6
Continuous
 62
     7
100
AcDbLine
 10
-683.4557495117187
 20
181.6504669189453
 30
0.0
 11
-683.4557495117187
 21
165.6504669189453
 31
0.0
  0
INSERT
  5
B4
330
B1
100
AcDbEntity
  8
0
  6
Continuous
 62
     7
100
AcDbBlockReference
  2
_OPEN30
 10
-683.4557495117187
 20
184.6504669189453
 30
0.0
 50
90.00000000000019
  0
INSERT
  5
B5
330
B1
100
AcDbEntity
  8
0
  6
Continuous
 62
     7
100
AcDbBlockReference
  2
_OPEN30
 10
-683.4557495117187
 20
162.6504669189453
 30
0.0
 50
270.0000000000005
  0
LINE
  5
B6
330
B1
100
AcDbEntity
  8
0
  6
Continuous
 62
     7
100
AcDbLine
 10
-660.1391821289062
 20
162.6504669189453
 30
0.0
 11
-685.7417602539062
 21
162.6504669189453
 31
0.0
  0
TEXT
  5
B7
330
B1
100
AcDbEntity
  8
0
  6
Continuous
 62
     7
100
AcDbText
 10
-684.2057493993804
 20
171.0804667741051
 30
0.0
 40
3.0
  1
22
 50
90.00000250447815
 41
1.028000020980834
100
AcDbText
  0
POINT
  5
B8
330
B1
100
AcDbEntity
  8
DEFPOINTS
  6
Continuous
 62
     7
100
AcDbPoint
 10
-703.5991821289062
 20
184.6504669189453
 30
0.0
  0
POINT
  5
B9
330
B1
100
AcDbEntity
  8
DEFPOINTS
  6
Continuous
 62
     7
100
AcDbPoint
 10
-657.5991821289062
 20
162.6504669189453
 30
0.0
  0
POINT
  5
BA
330
B1
100
AcDbEntity
  8
DEFPOINTS
  6
Continuous
 62
     7
100
AcDbPoint
 10
-683.4557495117187
 20
162.6504669189453
 30
0.0
  0
ENDBLK
  5
BB
330
B1
100
AcDbEntity
  8
0
100
AcDbBlockEnd
  0
BLOCK
  5
BD
330
BC
100
AcDbEntity
  8
0
100
AcDbBlockBegin
  2
*D11
 70
     1
 10
0.0
 20
0.0
 30
0.0
  3
*D11
  1

  0
LINE
  5
BE
330
BC
100
AcDbEntity
  8
0
  6
Continuous
 62
     7
100
AcDbLine
 10
-402.9657897949219
 20
191.1504669189453
 30
0.0
 11
-402.9657897949219
 21
388.1504516601563
 31
0.0
  0
INSERT
  5
BF
330
BC
100
AcDbEntity
  8
0
  6
Continuous
 62
     7
100
AcDbBlockReference
  2
_OPEN30
 10
-402.9657897949219
 20
188.1504669189453
 30
0.0
 50
270.0000000000005
  0
INSERT
  5
C0
330
BC
100
AcDbEntity
  8
0
  6
Continuous
 62
     7
100
AcDbBlockReference
  2
_OPEN30
 10
-402.9657897949219
 20
391.1504516601563
 30
0.0
 50
90.00000000000019
  0
LINE
  5
C1
330
BC
100
AcDbEntity
  8
0
  6
Continuous
 62
     7
100
AcDbLine
 10
-481.5592126464843
 20
188.1504669189453
 30
0.0
 11
-400.6797790527343
 21
188.1504669189453
 31
0.0
  0
LINE
  5
C2
330
BC
100
AcDbEntity
  8
0
  6
Continuous
 62
     7
100
AcDbLine
 10
-441.5592126464843
 20
391.1504516601563
 30
0.0
 11
-400.6797790527343
 21
391.1504516601563
 31
0.0
  0
TEXT
  5
C3
330
BC
100
AcDbEntity
  8
0
  6
Continuous
 62
     7
100
AcDbText
 10
-403.7157889613456
 20
270.5804508596649
 30
0.0
 40
3.0
  1
２０３　（１８３～２１０）
 50
90.00000250447815
 41
0.8434321120058422
100
AcDbText
  0
POINT
  5
C4
330
BC
100
AcDbEntity
  8
DEFPOINTS
  6
Continuous
 62
     7
100
AcDbPoint
 10
-484.0992126464843
 20
188.1504669189453
 30
0.0
  0
POINT
  5
C5
330
BC
100
AcDbEntity
  8
DEFPOINTS
  6
Continuous
 62
     7
100
AcDbPoint
 10
-444.0992126464843
 20
391.1504516601563
 30
0.0
  0
POINT
  5
C6
330
BC
100
AcDbEntity
  8
DEFPOINTS
  6
Continuous
 62
     7
100
AcDbPoint
 10
-402.9657897949219
 20
391.1504516601563
 30
0.0
  0
ENDBLK
  5
C7
330
BC
100
AcDbEntity
  8
0
100
AcDbBlockEnd
  0
BLOCK
  5
C9
330
C8
100
AcDbEntity
  8
0
100
AcDbBlockBegin
  2
*D12
 70
     1
 10
0.0
 20
0.0
 30
0.0
  3
*D12
  1

  0
LINE
  5
CA
330
C8
100
AcDbEntity
  8
0
  6
Continuous
 62
     7
100
AcDbLine
 10
-417.0468444824218
 20
191.1504669189453
 30
0.0
 11
-417.0468444824218
 21
225.1504669189453
 31
0.0
  0
INSERT
  5
CB
330
C8
100
AcDbEntity
  8
0
  6
Continuous
 62
     7
100
AcDbBlockReference
  2
_OPEN30
 10
-417.0468444824218
 20
188.1504669189453
 30
0.0
 50
270.0000000000005
  0
INSERT
  5
CC
330
C8
100
AcDbEntity
  8
0
  6
Continuous
 62
     7
100
AcDbBlockReference
  2
_OPEN30
 10
-417.0468444824218
 20
228.1504669189453
 30
0.0
 50
90.00000000000019
  0
LINE
  5
CD
330
C8
100
AcDbEntity
  8
0
  6
Continuous
 62
     7
100
AcDbLine
 10
-530.5591821289063
 20
228.1504669189453
 30
0.0
 11
-414.7608337402344
 21
228.1504669189453
 31
0.0
  0
TEXT
  5
CE
330
C8
100
AcDbEntity
  8
0
  6
Continuous
 62
     7
100
AcDbText
 10
-417.7968443700835
 20
205.5804667741051
 30
0.0
 40
3.0
  1
40
 50
90.00000250447815
 41
1.101428593908038
100
AcDbText
  0
POINT
  5
CF
330
C8
100
AcDbEntity
  8
DEFPOINTS
  6
Continuous
 62
     7
100
AcDbPoint
 10
-400.6797790527343
 20
188.1504669189453
 30
0.0
  0
POINT
  5
D0
330
C8
100
AcDbEntity
  8
DEFPOINTS
  6
Continuous
 62
     7
100
AcDbPoint
 10
-533.0991821289063
 20
228.1504669189453
 30
0.0
  0
POINT
  5
D1
330
C8
100
AcDbEntity
  8
DEFPOINTS
  6
Continuous
 62
     7
100
AcDbPoint
 10
-417.0468444824218
 20
228.1504669189453
 30
0.0
  0
ENDBLK
  5
D2
330
C8
100
AcDbEntity
  8
0
100
AcDbBlockEnd
  0
BLOCK
  5
D4
330
D3
100
AcDbEntity
  8
0
100
AcDbBlockBegin
  2
*D13
 70
     1
 10
0.0
 20
0.0
 30
0.0
  3
*D13
  1

  0
LINE
  5
D5
330
D3
100
AcDbEntity
  8
0
  6
Continuous
 62
     7
100
AcDbLine
 10
-417.0468444824218
 20
388.1504516601563
 30
0.0
 11
-417.0468444824218
 21
289.1504516601563
 31
0.0
  0
INSERT
  5
D6
330
D3
100
AcDbEntity
  8
0
  6
Continuous
 62
     7
100
AcDbBlockReference
  2
_OPEN30
 10
-417.0468444824218
 20
391.1504516601563
 30
0.0
 50
90.00000000000019
  0
INSERT
  5
D7
330
D3
100
AcDbEntity
  8
0
  6
Continuous
 62
     7
100
AcDbBlockReference
  2
_OPEN30
 10
-417.0468444824218
 20
286.1504516601563
 30
0.0
 50
270.0000000000005
  0
LINE
  5
D8
330
D3
100
AcDbEntity
  8
0
  6
Continuous
 62
     7
100
AcDbLine
 10
-530.0591821289063
 20
286.1504516601563
 30
0.0
 11
-414.7608337402344
 21
286.1504516601563
 31
0.0
  0
TEXT
  5
D9
330
D3
100
AcDbEntity
  8
0
  6
Continuous
 62
     7
100
AcDbText
 10
-417.7968443045164
 20
334.5804514557114
 30
0.0
 40
3.0
  1
105
 50
90.00000250447815
 41
1.252307708446795
100
AcDbText
  0
POINT
  5
DA
330
D3
100
AcDbEntity
  8
DEFPOINTS
  6
Continuous
 62
     7
100
AcDbPoint
 10
-400.6797790527343
 20
391.1504516601563
 30
0.0
  0
POINT
  5
DB
330
D3
100
AcDbEntity
  8
DEFPOINTS
  6
Continuous
 62
     7
100
AcDbPoint
 10
-532.5991821289063
 20
286.1504516601563
 30
0.0
  0
POINT
  5
DC
330
D3
100
AcDbEntity
  8
DEFPOINTS
  6
Continuous
 62
     7
100
AcDbPoint
 10
-417.0468444824218
 20
286.1504516601563
 30
0.0
  0
ENDBLK
  5
DD
330
D3
100
AcDbEntity
  8
0
100
AcDbBlockEnd
  0
BLOCK
  5
DF
330
DE
100
AcDbEntity
  8
0
100
AcDbBlockBegin
  2
*D14
 70
     1
 10
0.0
 20
0.0
 30
0.0
  3
*D14
  1

  0
LINE
  5
E0
330
DE
100
AcDbEntity
  8
0
  6
Continuous
 62
     7
100
AcDbLine
 10
-574.1204833984375
 20
211.1504669189453
 30
0.0
 11
-574.1204833984375
 21
305.1504516601563
 31
0.0
  0
INSERT
  5
E1
330
DE
100
AcDbEntity
  8
0
  6
Continuous
 62
     7
100
AcDbBlockReference
  2
_OPEN30
 10
-574.1204833984375
 20
208.1504669189453
 30
0.0
 50
270.0000000000005
  0
INSERT
  5
E2
330
DE
100
AcDbEntity
  8
0
  6
Continuous
 62
     7
100
AcDbBlockReference
  2
_OPEN30
 10
-574.1204833984375
 20
308.1504516601563
 30
0.0
 50
90.00000000000019
  0
TEXT
  5
E3
330
DE
100
AcDbEntity
  8
0
  6
Continuous
 62
     7
100
AcDbText
 10
-574.8704832205322
 20
254.0804514557113
 30
0.0
 40
3.0
  1
100
 50
90.00000250447815
 41
1.320000017011488
100
AcDbText
  0
POINT
  5
E4
330
DE
100
AcDbEntity
  8
DEFPOINTS
  6
Continuous
 62
     7
100
AcDbPoint
 10
-593.0991821289062
 20
208.1504669189453
 30
0.0
  0
POINT
  5
E5
330
DE
100
AcDbEntity
  8
DEFPOINTS
  6
Continuous
 62
     7
100
AcDbPoint
 10
-593.0991821289062
 20
308.1504516601563
 30
0.0
  0
POINT
  5
E6
330
DE
100
AcDbEntity
  8
DEFPOINTS
  6
Continuous
 62
     7
100
AcDbPoint
 10
-574.1204833984375
 20
308.1504516601563
 30
0.0
  0
ENDBLK
  5
E7
330
DE
100
AcDbEntity
  8
0
100
AcDbBlockEnd
  0
BLOCK
  5
E9
330
E8
100
AcDbEntity
  8
0
100
AcDbBlockBegin
  2
*D15
 70
     1
 10
0.0
 20
0.0
 30
0.0
  3
*D15
  1

  0
LINE
  5
EA
330
E8
100
AcDbEntity
  8
0
  6
Continuous
 62
     7
100
AcDbLine
 10
-562.978271484375
 20
211.1504669189453
 30
0.0
 11
-562.978271484375
 21
255.1504516601563
 31
0.0
  0
INSERT
  5
EB
330
E8
100
AcDbEntity
  8
0
  6
Continuous
 62
     7
100
AcDbBlockReference
  2
_OPEN30
 10
-562.978271484375
 20
208.1504669189453
 30
0.0
 50
270.0000000000005
  0
INSERT
  5
EC
330
E8
100
AcDbEntity
  8
0
  6
Continuous
 62
     7
100
AcDbBlockReference
  2
_OPEN30
 10
-562.978271484375
 20
258.1504516601563
 30
0.0
 50
90.00000000000019
  0
LINE
  5
ED
330
E8
100
AcDbEntity
  8
0
  6
Continuous
 62
     7
100
AcDbLine
 10
-540.6391821289061
 20
258.1504516601563
 30
0.0
 11
-565.2642211914062
 21
258.1504516601563
 31
0.0
  0
TEXT
  5
EE
330
E8
100
AcDbEntity
  8
0
  6
Continuous
 62
     7
100
AcDbText
 10
-563.7282713720367
 20
230.5804667741051
 30
0.0
 40
3.0
  1
50
 50
90.00000250447815
 41
1.101428593908038
100
AcDbText
  0
POINT
  5
EF
330
E8
100
AcDbEntity
  8
DEFPOINTS
  6
Continuous
 62
     7
100
AcDbPoint
 10
-538.0991821289064
 20
208.1504669189453
 30
0.0
  0
POINT
  5
F0
330
E8
100
AcDbEntity
  8
DEFPOINTS
  6
Continuous
 62
     7
100
AcDbPoint
 10
-538.0991821289064
 20
258.1504516601563
 30
0.0
  0
POINT
  5
F1
330
E8
100
AcDbEntity
  8
DEFPOINTS
  6
Continuous
 62
     7
100
AcDbPoint
 10
-562.978271484375
 20
258.1504516601563
 30
0.0
  0
ENDBLK
  5
F2
330
E8
100
AcDbEntity
  8
0
100
AcDbBlockEnd
  0
BLOCK
  5
F4
330
F3
100
AcDbEntity
  8
0
100
AcDbBlockBegin
  2
KOZU0001
 70
     0
 10
0.0
 20
0.0
 30
0.0
  3
KOZU0001
  1

  0
LINE
  5
F5
330
F3
100
AcDbEntity
  8
0
  6
Continuous
 62
     7
100
AcDbLine
 10
0.0
 20
0.0
 30
0.0
 11
-64.93341064453125
 21
-64.54221343994141
 31
0.0
  0
LINE
  5
F6
330
F3
100
AcDbEntity
  8
0
  6
Continuous
 62
     7
100
AcDbLine
 10
-64.93341064453125
 20
-64.54221343994141
 30
0.0
 11
-100.2369384765625
 21
-64.54221343994141
 31
0.0
  0
LINE
  5
F7
330
F3
100
AcDbEntity
  8
0
  6
Continuous
 62
     7
100
AcDbLine
 10
0.0
 20
0.0
 30
0.0
 11
-1.422752868319576
 21
-2.824141334226816
 31
0.0
  0
LINE
  5
F8
330
F3
100
AcDbEntity
  8
0
  6
Continuous
 62
     7
100
AcDbLine
 10
0.0
 20
0.0
 30
0.0
 11
-2.832687095191751
 21
-1.405661346389704
 31
0.0
  0
TEXT
  5
F9
330
F3
100
AcDbEntity
  8
0
  6
Continuous
 62
     7
100
AcDbText
 10
-98.51690757274628
 20
-63.7922134399414
 30
0.0
 40
3.0
  1
共廻り防止用羽根
 41
0.8454512278006642
100
AcDbText
  0
TEXT
  5
FA
330
F3
100
AcDbEntity
  8
0
  6
Continuous
 62
     7
100
AcDbText
 10
-98.51690757274628
 20
-69.05721343994141
 30
0.0
 40
3.0
  1
３ヶ所
 41
0.8550420278260688
100
AcDbText
  0
ENDBLK
  5
FB
330
F3
100
AcDbEntity
  8
0
100
AcDbBlockEnd
  0
BLOCK
  5
FD
330
FC
100
AcDbEntity
  8
0
100
AcDbBlockBegin
  2
KOZU0002
 70
     0
 10
0.0
 20
0.0
 30
0.0
  3
KOZU0002
  1

  0
LINE
  5
FE
330
FC
100
AcDbEntity
  8
0
  6
Continuous
 62
     7
100
AcDbLine
 10
0.0
 20
0.0
 30
0.0
 11
11.55413818359375
 21
-15.45751953125
 31
0.0
  0
LINE
  5
FF
330
FC
100
AcDbEntity
  8
0
  6
Continuous
 62
     7
100
AcDbLine
 10
11.55413818359375
 20
-15.45751953125
 30
0.0
 11
42.46160888671875
 21
-15.45751953125
 31
0.0
  0
LINE
  5
100
330
FC
100
AcDbEntity
  8
0
  6
Continuous
 62
     7
100
AcDbLine
 10
0.0
 20
0.0
 30
0.0
 11
2.597086425440484
 21
-1.804201235669893
 31
0.0
  0
LINE
  5
101
330
FC
100
AcDbEntity
  8
0
  6
Continuous
 62
     7
100
AcDbLine
 10
0.0
 20
0.0
 30
0.0
 11
0.9951483989504515
 21
-3.001612843800204
 31
0.0
  0
TEXT
  5
102
330
FC
100
AcDbEntity
  8
0
  6
Continuous
 62
     7
100
AcDbText
 10
14.60163807868958
 20
-14.70751953125
 30
0.0
 40
3.0
  1
配管接続口
 41
0.8487395020950888
100
AcDbText
  0
TEXT
  5
103
330
FC
100
AcDbEntity
  8
0
  6
Continuous
 62
     7
100
AcDbText
 10
14.60163807868958
 20
-19.97251953125
 30
0.0
 40
3.0
  1
Ｒｃ４（１００Ａ）
 41
0.8448610247221777
100
AcDbText
  0
ENDBLK
  5
104
330
FC
100
AcDbEntity
  8
0
100
AcDbBlockEnd
  0
ENDSEC
  0
SECTION
  2
ENTITIES
  0
POINT
  5
105
330
22
100
AcDbEntity
  8
0
  6
Continuous
 62
     7
100
AcDbPoint
 10
-593.0991821289062
 20
184.6504669189453
 30
0.0
  0
POINT
  5
106
330
22
100
AcDbEntity
  8
0
  6
Continuous
 62
     7
100
AcDbPoint
 10
-593.0991821289062
 20
609.7423706054687
 30
0.0
  0
POINT
  5
107
330
22
100
AcDbEntity
  8
0
  6
Continuous
 62
     7
100
AcDbPoint
 10
-593.0991821289062
 20
184.6504669189453
 30
0.0
  0
POINT
  5
108
330
22
100
AcDbEntity
  8
0
  6
Continuous
 62
     7
100
AcDbPoint
 10
-593.0991821289062
 20
609.7423706054687
 30
0.0
  0
POINT
  5
109
330
22
100
AcDbEntity
  8
0
  6
Continuous
 62
     7
100
AcDbPoint
 10
-537.2157592773438
 20
162.8780822753906
 30
0.0
  0
POINT
  5
10A
330
22
100
AcDbEntity
  8
0
  6
Continuous
 62
     7
100
AcDbPoint
 10
-538.0991821289064
 20
258.1504516601563
 30
0.0
  0
LINE
  5
10B
330
22
100
AcDbEntity
  8
0
  6
CENTER
 62
     7
100
AcDbLine
 10
-465.142822265625
 20
394.3193969726563
 30
0.0
 11
-465.142822265625
 21
366.9349975585938
 31
0.0
  0
LINE
  5
10C
330
22
100
AcDbEntity
  8
0
  6
Continuous
 62
     7
100
AcDbLine
 10
-452.0992126464843
 20
387.1504516601563
 30
0.0
 11
-444.0992126464843
 21
387.1504516601563
 31
0.0
  0
LINE
  5
10D
330
22
100
AcDbEntity
  8
0
  6
Continuous
 62
     7
100
AcDbLine
 10
-443.0992126464843
 20
390.1504516601563
 30
0.0
 11
-443.0992126464843
 21
388.1504516601563
 31
0.0
  0
LINE
  5
10E
330
22
100
AcDbEntity
  8
0
  6
Continuous
 62
     7
100
AcDbLine
 10
-458.0992126464844
 20
391.1504516601563
 30
0.0
 11
-458.0992126464844
 21
384.6504516601563
 31
0.0
  0
LINE
  5
10F
330
22
100
AcDbEntity
  8
0
  6
Continuous
 62
     7
100
AcDbLine
 10
-453.0992126464844
 20
369.0372009277344
 30
0.0
 11
-453.0992126464844
 21
386.1504516601563
 31
0.0
  0
LINE
  5
110
330
22
100
AcDbEntity
  8
0
  6
Continuous
 62
     7
100
AcDbLine
 10
-467.142822265625
 20
373.6504516601563
 30
0.0
 11
-463.142822265625
 21
373.6504516601563
 31
0.0
  0
LINE
  5
111
330
22
100
AcDbEntity
  8
0
  6
Continuous
 62
     7
100
AcDbLine
 10
-463.142822265625
 20
383.6504516601563
 30
0.0
 11
-463.142822265625
 21
373.6504516601563
 31
0.0
  0
LINE
  5
112
330
22
100
AcDbEntity
  8
0
  6
Continuous
 62
     7
100
AcDbLine
 10
-467.142822265625
 20
383.6504516601563
 30
0.0
 11
-467.142822265625
 21
373.6504516601563
 31
0.0
  0
LINE
  5
113
330
22
100
AcDbEntity
  8
0
  6
Continuous
 62
     7
100
AcDbLine
 10
-470.0992126464844
 20
383.6504516601563
 30
0.0
 11
-470.0992126464844
 21
362.6863708496094
 31
0.0
  0
LINE
  5
114
330
22
100
AcDbEntity
  8
0
  6
Continuous
 62
     7
100
AcDbLine
 10
-463.3928222656249
 20
383.6504516601563
 30
0.0
 11
-463.3928222656249
 21
371.6504516601563
 31
0.0
  0
LINE
  5
115
330
22
100
AcDbEntity
  8
0
  6
Continuous
 62
     7
100
AcDbLine
 10
-466.892822265625
 20
383.6504516601563
 30
0.0
 11
-466.892822265625
 21
371.6504516601563
 31
0.0
  0
LINE
  5
116
330
22
100
AcDbEntity
  8
0
  6
Continuous
 62
     7
100
AcDbLine
 10
-466.892822265625
 20
371.6504516601563
 30
0.0
 11
-465.142822265625
 21
369.9004516601563
 31
0.0
  0
LINE
  5
117
330
22
100
AcDbEntity
  8
0
  6
Continuous
 62
     7
100
AcDbLine
 10
-465.142822265625
 20
369.9004516601563
 30
0.0
 11
-463.3928222656249
 21
371.6504516601563
 31
0.0
  0
LINE
  5
118
330
22
100
AcDbEntity
  8
0
  6
Continuous
 62
     7
100
AcDbLine
 10
-537.3446044921875
 20
306.601318359375
 30
0.0
 11
-536.2054443359375
 21
270.1504516601563
 31
0.0
  0
LINE
  5
119
330
22
100
AcDbEntity
  8
0
  6
Continuous
 62
     7
100
AcDbLine
 10
-538.8937377929688
 20
308.1504516601563
 30
0.0
 11
-537.7545776367188
 21
271.6996154785156
 31
0.0
  0
LINE
  5
11A
330
22
100
AcDbEntity
  8
0
  6
Continuous
 62
     7
100
AcDbLine
 10
-535.9492187499999
 20
269.8942260742188
 30
0.0
 11
-537.7545776367188
 21
271.6996154785156
 31
0.0
  0
LINE
  5
11B
330
22
100
AcDbEntity
  8
0
  6
Continuous
 62
     7
100
AcDbLine
 10
-539.5991821289063
 20
317.8299560546875
 30
0.0
 11
-539.0991821289063
 21
317.8299560546875
 31
0.0
  0
LINE
  5
11C
330
22
100
AcDbEntity
  8
0
  6
Continuous
 62
     7
100
AcDbLine
 10
-540.5991821289063
 20
319.6737670898438
 30
0.0
 11
-540.5991821289063
 21
318.8299560546875
 31
0.0
  0
LINE
  5
11D
330
22
100
AcDbEntity
  8
0
  6
Continuous
 62
     7
100
AcDbLine
 10
-532.5991821289063
 20
286.1504516601563
 30
0.0
 11
-531.5991821289063
 21
287.1504516601563
 31
0.0
  0
LINE
  5
11E
330
22
100
AcDbEntity
  8
0
  6
Continuous
 62
     7
100
AcDbLine
 10
-536.584228515625
 20
286.1504516601563
 30
0.0
 11
-537.585693359375
 21
316.3164367675781
 31
0.0
  0
LINE
  5
11F
330
22
100
AcDbEntity
  8
0
  6
Continuous
 62
     7
100
AcDbLine
 10
-538.1148681640625
 20
287.7796325683594
 30
0.0
 11
-539.1165771484375
 21
317.8299560546875
 31
0.0
  0
LINE
  5
120
330
22
100
AcDbEntity
  8
0
  6
Continuous
 62
     7
100
AcDbLine
 10
-531.5991821289063
 20
287.1504516601563
 30
0.0
 11
-531.5991821289063
 21
317.9417114257813
 31
0.0
  0
LINE
  5
121
330
22
100
AcDbEntity
  8
0
  6
Continuous
 62
     7
100
AcDbLine
 10
-536.7054443359375
 20
286.1504516601563
 30
0.0
 11
-532.5991821289063
 21
286.1504516601563
 31
0.0
  0
LINE
  5
122
330
22
100
AcDbEntity
  8
0
  6
Continuous
 62
     7
100
AcDbLine
 10
-538.8937377929688
 20
308.1504516601563
 30
0.0
 11
-537.3446044921875
 21
306.601318359375
 31
0.0
  0
LINE
  5
123
330
22
100
AcDbEntity
  8
0
  6
Continuous
 62
     7
100
AcDbLine
 10
-539.0991821289063
 20
317.8299560546875
 30
0.0
 11
-537.585693359375
 21
316.3164367675781
 31
0.0
  0
LINE
  5
124
330
22
100
AcDbEntity
  8
0
  6
Continuous
 62
     7
100
AcDbLine
 10
-470.0992126464844
 20
383.6504516601563
 30
0.0
 11
-470.0992126464844
 21
384.1504516601563
 31
0.0
  0
LINE
  5
125
330
22
100
AcDbEntity
  8
0
  6
Continuous
 62
     7
100
AcDbLine
 10
-469.6428222656249
 20
390.6504516601563
 30
0.0
 11
-467.3928222656249
 21
388.4004516601563
 31
0.0
  0
LINE
  5
126
330
22
100
AcDbEntity
  8
0
  6
Continuous
 62
     7
100
AcDbLine
 10
-460.642822265625
 20
390.6504516601563
 30
0.0
 11
-462.892822265625
 21
388.4004516601563
 31
0.0
  0
LINE
  5
127
330
22
100
AcDbEntity
  8
0
  6
Continuous
 62
     7
100
AcDbLine
 10
-463.142822265625
 20
388.1504516601563
 30
0.0
 11
-463.142822265625
 21
376.2609252929688
 31
0.0
  0
LINE
  5
128
330
22
100
AcDbEntity
  8
0
  6
Continuous
 62
     7
100
AcDbLine
 10
-467.142822265625
 20
388.1504516601563
 30
0.0
 11
-467.142822265625
 21
376.2609252929688
 31
0.0
  0
LINE
  5
129
330
22
100
AcDbEntity
  8
0
  6
Continuous
 62
     7
100
AcDbLine
 10
-467.142822265625
 20
388.1504516601563
 30
0.0
 11
-463.142822265625
 21
388.1504516601563
 31
0.0
  0
LINE
  5
12A
330
22
100
AcDbEntity
  8
0
  6
Continuous
 62
     7
100
AcDbLine
 10
-462.892822265625
 20
388.4004516601563
 30
0.0
 11
-463.142822265625
 21
388.1504516601563
 31
0.0
  0
LINE
  5
12B
330
22
100
AcDbEntity
  8
0
  6
Continuous
 62
     7
100
AcDbLine
 10
-467.3928222656249
 20
388.4004516601563
 30
0.0
 11
-467.142822265625
 21
388.1504516601563
 31
0.0
  0
LINE
  5
12C
330
22
100
AcDbEntity
  8
0
  6
Continuous
 62
     7
100
AcDbLine
 10
-462.892822265625
 20
383.6504516601563
 30
0.0
 11
-462.892822265625
 21
388.4004516601563
 31
0.0
  0
LINE
  5
12D
330
22
100
AcDbEntity
  8
0
  6
Continuous
 62
     7
100
AcDbLine
 10
-467.3928222656249
 20
383.6504516601563
 30
0.0
 11
-467.3928222656249
 21
388.4004516601563
 31
0.0
  0
LINE
  5
12E
330
22
100
AcDbEntity
  8
0
  6
Continuous
 62
     7
100
AcDbLine
 10
-536.5991821289063
 20
209.6504669189453
 30
0.0
 11
-536.5991821289063
 21
259.6504516601563
 31
0.0
  0
LINE
  5
12F
330
22
100
AcDbEntity
  8
0
  6
Continuous
 62
     7
100
AcDbLine
 10
-538.0991821289064
 20
258.1504516601563
 30
0.0
 11
-535.9492187499999
 21
260.3004455566406
 31
0.0
  0
LINE
  5
130
330
22
100
AcDbEntity
  8
0
  6
Continuous
 62
     7
100
AcDbLine
 10
-538.0991821289064
 20
208.1504669189453
 30
0.0
 11
-538.0991821289064
 21
258.1504516601563
 31
0.0
  0
LINE
  5
131
330
22
100
AcDbEntity
  8
0
  6
Continuous
 62
     7
100
AcDbLine
 10
-538.0991821289064
 20
226.6504669189453
 30
0.0
 11
-538.0991821289064
 21
189.6504669189453
 31
0.0
  0
LINE
  5
132
330
22
100
AcDbEntity
  8
0
  6
Continuous
 62
     7
100
AcDbLine
 10
-536.5991821289063
 20
228.1504669189453
 30
0.0
 11
-536.5991821289063
 21
188.1504669189453
 31
0.0
  0
LINE
  5
133
330
22
100
AcDbEntity
  8
0
  6
Continuous
 62
     7
100
AcDbLine
 10
-532.0991821289063
 20
193.1504669189453
 30
0.0
 11
-532.0991821289063
 21
227.1504669189453
 31
0.0
  0
LINE
  5
134
330
22
100
AcDbEntity
  8
0
  6
Continuous
 62
     7
100
AcDbLine
 10
-538.0991821289064
 20
189.6504669189453
 30
0.0
 11
-536.5991821289063
 21
188.1504669189453
 31
0.0
  0
LINE
  5
135
330
22
100
AcDbEntity
  8
0
  6
Continuous
 62
     7
100
AcDbLine
 10
-514.8491821289063
 20
187.1504669189453
 30
0.0
 11
-515.8491821289064
 21
188.1504669189453
 31
0.0
  0
LINE
  5
136
330
22
100
AcDbEntity
  8
0
  6
Continuous
 62
     7
100
AcDbLine
 10
-538.0991821289064
 20
208.1504669189453
 30
0.0
 11
-536.5991821289063
 21
209.6504669189453
 31
0.0
  0
LINE
  5
137
330
22
100
AcDbEntity
  8
0
  6
Continuous
 62
     7
100
AcDbLine
 10
-514.8491821289063
 20
187.1504669189453
 30
0.0
 11
-513.8491821289063
 21
188.1504669189453
 31
0.0
  0
LINE
  5
138
330
22
100
AcDbEntity
  8
0
  6
Continuous
 62
     7
100
AcDbLine
 10
-536.5991821289063
 20
228.1504669189453
 30
0.0
 11
-538.0991821289064
 21
226.6504669189453
 31
0.0
  0
LINE
  5
139
330
22
100
AcDbEntity
  8
0
  6
Continuous
 62
     7
100
AcDbLine
 10
-536.5991821289063
 20
228.1504669189453
 30
0.0
 11
-533.0991821289063
 21
228.1504669189453
 31
0.0
  0
LINE
  5
13A
330
22
100
AcDbEntity
  8
0
  6
Continuous
 62
     7
100
AcDbLine
 10
-482.0992126464843
 20
185.1504669189453
 30
0.0
 11
-482.0992126464843
 21
186.1504669189453
 31
0.0
  0
LINE
  5
13B
330
22
100
AcDbEntity
  8
0
  6
Continuous
 62
     7
100
AcDbLine
 10
-529.5991821289063
 20
184.6504669189453
 30
0.0
 11
-482.5992126464844
 21
184.6504669189453
 31
0.0
  0
LINE
  5
13C
330
22
100
AcDbEntity
  8
0
  6
Continuous
 62
     7
100
AcDbLine
 10
-498.8468017578124
 20
187.1504669189453
 30
0.0
 11
-499.8468017578125
 21
188.1504669189453
 31
0.0
  0
LINE
  5
13D
330
22
100
AcDbEntity
  8
0
  6
Continuous
 62
     7
100
AcDbLine
 10
-498.8468017578124
 20
187.1504669189453
 30
0.0
 11
-497.8468017578125
 21
188.1504669189453
 31
0.0
  0
LINE
  5
13E
330
22
100
AcDbEntity
  8
0
  6
Continuous
 62
     7
100
AcDbLine
 10
-527.0991821289063
 20
188.1504669189453
 30
0.0
 11
-484.0992126464843
 21
188.1504669189453
 31
0.0
  0
LINE
  5
13F
330
22
100
AcDbEntity
  8
0
  6
Continuous
 62
     7
100
AcDbLine
 10
-657.5991821289062
 20
322.5605163574219
 30
0.0
 11
-593.0991821289062
 21
322.5605163574219
 31
0.0
  0
LINE
  5
140
330
22
100
AcDbEntity
  8
0
  6
Continuous
 62
     7
100
AcDbLine
 10
-655.5991821289062
 20
286.1504516601563
 30
0.0
 11
-593.0991821289062
 21
286.1504516601563
 31
0.0
  0
LINE
  5
141
330
22
100
AcDbEntity
  8
0
  6
Continuous
 62
     7
100
AcDbLine
 10
-619.4900512695312
 20
319.5803833007813
 30
0.0
 11
-593.0991821289062
 21
319.5803833007813
 31
0.0
  0
LINE
  5
142
330
22
100
AcDbEntity
  8
0
  6
Continuous
 62
     7
100
AcDbLine
 10
-620.73974609375
 20
287.1504516601563
 30
0.0
 11
-593.0991821289062
 21
287.1504516601563
 31
0.0
  0
LINE
  5
143
330
22
100
AcDbEntity
  8
0
  6
Continuous
 62
     7
100
AcDbLine
 10
-647.9922485351562
 20
286.1504516601563
 30
0.0
 11
-648.44384765625
 21
271.6996154785156
 31
0.0
  0
LINE
  5
144
330
22
100
AcDbEntity
  8
0
  6
Continuous
 62
     7
100
AcDbLine
 10
-649.4929809570312
 20
286.1504516601563
 30
0.0
 11
-649.9929809570312
 21
270.1504516601563
 31
0.0
  0
LINE
  5
145
330
22
100
AcDbEntity
  8
0
  6
Continuous
 62
     7
100
AcDbLine
 10
-650.2492065429687
 20
269.8942260742188
 30
0.0
 11
-648.44384765625
 21
271.6996154785156
 31
0.0
  0
LINE
  5
146
330
22
100
AcDbEntity
  8
0
  6
Continuous
 62
     7
100
AcDbLine
 10
-657.5991821289062
 20
287.1504516601563
 30
0.0
 11
-657.5991821289062
 21
322.5605163574219
 31
0.0
  0
LINE
  5
147
330
22
100
AcDbEntity
  8
0
  6
Continuous
 62
     7
100
AcDbLine
 10
-628.8770141601562
 20
319.5803833007813
 30
0.0
 11
-654.767822265625
 21
319.5803833007813
 31
0.0
  0
LINE
  5
148
330
22
100
AcDbEntity
  8
0
  6
Continuous
 62
     7
100
AcDbLine
 10
-626.8490600585937
 20
286.1504516601563
 30
0.0
 11
-626.8490600585937
 21
320.966552734375
 31
0.0
  0
LINE
  5
149
330
22
100
AcDbEntity
  8
0
  6
Continuous
 62
     7
100
AcDbLine
 10
-653.8229370117187
 20
287.1504516601563
 30
0.0
 11
-627.3445434570312
 21
287.1504516601563
 31
0.0
  0
LINE
  5
14A
330
22
100
AcDbEntity
  8
0
  6
Continuous
 62
     7
100
AcDbLine
 10
-656.5991821289062
 20
286.1504516601563
 30
0.0
 11
-657.5991821289062
 21
287.1504516601563
 31
0.0
  0
LINE
  5
14B
330
22
100
AcDbEntity
  8
0
  6
Continuous
 62
     7
100
AcDbLine
 10
-655.5991821289062
 20
286.1504516601563
 30
0.0
 11
-656.5991821289062
 21
286.1504516601563
 31
0.0
  0
LINE
  5
14C
330
22
100
AcDbEntity
  8
0
  6
Continuous
 62
     7
100
AcDbLine
 10
-655.5991821289062
 20
286.1504516601563
 30
0.0
 11
-655.5991821289062
 21
319.3022155761719
 31
0.0
  0
LINE
  5
14D
330
22
100
AcDbEntity
  8
0
  6
Continuous
 62
     7
100
AcDbLine
 10
-654.5991821289062
 20
317.9417114257813
 30
0.0
 11
-654.5991821289062
 21
286.1504516601563
 31
0.0
  0
LINE
  5
14E
330
22
100
AcDbEntity
  8
0
  6
Continuous
 62
     7
100
AcDbLine
 10
-621.1361694335937
 20
286.1504516601563
 30
0.0
 11
-621.1361694335937
 21
319.5803833007813
 31
0.0
  0
LINE
  5
14F
330
22
100
AcDbEntity
  8
0
  6
Continuous
 62
     7
100
AcDbLine
 10
-588.0991821289062
 20
383.6504516601563
 30
0.0
 11
-588.0991821289062
 21
361.1863708496094
 31
0.0
  0
LINE
  5
150
330
22
100
AcDbEntity
  8
0
  6
Continuous
 62
     7
100
AcDbLine
 10
-536.5991821289063
 20
143.1504669189453
 30
0.0
 11
-538.1483764648439
 21
144.6996002197266
 31
0.0
  0
LINE
  5
151
330
22
100
AcDbEntity
  8
0
  6
Continuous
 62
     7
100
AcDbLine
 10
-704.0991821289062
 20
185.1504669189453
 30
0.0
 11
-704.0991821289062
 21
186.1504669189453
 31
0.0
  0
LINE
  5
152
330
22
100
AcDbEntity
  8
0
  6
Continuous
 62
     7
100
AcDbLine
 10
-659.5991821289062
 20
166.6504669189453
 30
0.0
 11
-659.5991821289062
 21
164.5854644775391
 31
0.0
  0
LINE
  5
153
330
22
100
AcDbEntity
  8
0
  6
Continuous
 62
     7
100
AcDbLine
 10
-657.5991821289062
 20
162.6504669189453
 30
0.0
 11
-655.5991821289062
 21
162.6504669189453
 31
0.0
  0
LINE
  5
154
330
22
100
AcDbEntity
  8
0
  6
Continuous
 62
     7
100
AcDbLine
 10
-648.0991821289062
 20
258.1504516601563
 30
0.0
 11
-593.0991821289062
 21
258.1504516601563
 31
0.0
  0
LINE
  5
155
330
22
100
AcDbEntity
  8
0
  6
Continuous
 62
     7
100
AcDbLine
 10
-653.0991821289062
 20
228.1504669189453
 30
0.0
 11
-593.0991821289062
 21
228.1504669189453
 31
0.0
  0
LINE
  5
156
330
22
100
AcDbEntity
  8
0
  6
Continuous
 62
     7
100
AcDbLine
 10
-649.5991821289062
 20
228.1504669189453
 30
0.0
 11
-649.5991821289062
 21
259.6504516601563
 31
0.0
  0
LINE
  5
157
330
22
100
AcDbEntity
  8
0
  6
Continuous
 62
     7
100
AcDbLine
 10
-648.0991821289062
 20
258.1504516601563
 30
0.0
 11
-650.2492065429687
 21
260.3004455566406
 31
0.0
  0
LINE
  5
158
330
22
100
AcDbEntity
  8
0
  6
Continuous
 62
     7
100
AcDbLine
 10
-648.0991821289062
 20
228.1504669189453
 30
0.0
 11
-648.0991821289062
 21
258.1504516601563
 31
0.0
  0
LINE
  5
159
330
22
100
AcDbEntity
  8
0
  6
Continuous
 62
     7
100
AcDbLine
 10
-654.0991821289062
 20
193.1504669189453
 30
0.0
 11
-654.0991821289062
 21
227.1504669189453
 31
0.0
  0
LINE
  5
15A
330
22
100
AcDbEntity
  8
0
  6
Continuous
 62
     7
100
AcDbLine
 10
-743.0991821289062
 20
390.1504516601563
 30
0.0
 11
-743.0991821289062
 21
388.1504516601563
 31
0.0
  0
LINE
  5
15B
330
22
100
AcDbEntity
  8
0
  6
Continuous
 62
     7
100
AcDbLine
 10
-733.0991821289062
 20
369.0372009277344
 30
0.0
 11
-733.0991821289062
 21
387.1504516601563
 31
0.0
  0
LINE
  5
15C
330
22
100
AcDbEntity
  8
0
  6
Continuous
 62
     7
100
AcDbLine
 10
-648.44384765625
 20
271.6996154785156
 30
0.0
 11
-593.0991821289062
 21
271.6996154785156
 31
0.0
  0
LINE
  5
15D
330
22
100
AcDbEntity
  8
0
  6
Continuous
 62
     7
100
AcDbLine
 10
-655.5991821289062
 20
144.1504669189453
 30
0.0
 11
-655.5991821289062
 21
183.6504669189453
 31
0.0
  0
LINE
  5
15E
330
22
100
AcDbEntity
  8
0
  6
Continuous
 62
     7
100
AcDbLine
 10
-538.1469116210938
 20
144.6527557373047
 30
0.0
 11
-539.2874755859375
 21
181.1504669189453
 31
0.0
  0
LINE
  5
15F
330
22
100
AcDbEntity
  8
0
  6
Continuous
 62
     7
100
AcDbLine
 10
-530.5991821289063
 20
144.1504669189453
 30
0.0
 11
-530.5991821289063
 21
183.6504669189453
 31
0.0
  0
LINE
  5
160
330
22
100
AcDbEntity
  8
0
  6
Continuous
 62
     7
100
AcDbLine
 10
-536.5991821289063
 20
143.1504669189453
 30
0.0
 11
-537.832275390625
 21
182.605712890625
 31
0.0
  0
LINE
  5
161
330
22
100
AcDbEntity
  8
0
  6
Continuous
 62
     7
100
AcDbLine
 10
-536.5991821289063
 20
228.0143737792969
 30
0.0
 11
-536.4631347656249
 21
228.1504669189453
 31
0.0
  0
LINE
  5
162
330
22
100
AcDbEntity
  8
0
  6
Continuous
 62
     7
100
AcDbLine
 10
-536.5991821289063
 20
223.771728515625
 30
0.0
 11
-532.4647827148438
 21
227.9061431884766
 31
0.0
  0
LINE
  5
163
330
22
100
AcDbEntity
  8
0
  6
Continuous
 62
     7
100
AcDbLine
 10
-536.5991821289063
 20
219.5290832519531
 30
0.0
 11
-532.0991821289063
 21
224.0290832519531
 31
0.0
  0
LINE
  5
164
330
22
100
AcDbEntity
  8
0
  6
Continuous
 62
     7
100
AcDbLine
 10
-536.5991821289063
 20
215.2864379882813
 30
0.0
 11
-532.0991821289063
 21
219.7864379882813
 31
0.0
  0
LINE
  5
165
330
22
100
AcDbEntity
  8
0
  6
Continuous
 62
     7
100
AcDbLine
 10
-536.5991821289063
 20
211.0438079833984
 30
0.0
 11
-532.0991821289063
 21
215.5438079833984
 31
0.0
  0
LINE
  5
166
330
22
100
AcDbEntity
  8
0
  6
Continuous
 62
     7
100
AcDbLine
 10
-536.5991821289063
 20
206.8011627197266
 30
0.0
 11
-532.0991821289063
 21
211.3011627197266
 31
0.0
  0
LINE
  5
167
330
22
100
AcDbEntity
  8
0
  6
Continuous
 62
     7
100
AcDbLine
 10
-536.5991821289063
 20
202.5585174560547
 30
0.0
 11
-532.0991821289063
 21
207.0585174560547
 31
0.0
  0
LINE
  5
168
330
22
100
AcDbEntity
  8
0
  6
Continuous
 62
     7
100
AcDbLine
 10
-536.5991821289063
 20
198.3158874511719
 30
0.0
 11
-532.0991821289063
 21
202.8158874511719
 31
0.0
  0
LINE
  5
169
330
22
100
AcDbEntity
  8
0
  6
Continuous
 62
     7
100
AcDbLine
 10
-536.5991821289063
 20
194.0732421875
 30
0.0
 11
-532.0991821289063
 21
198.5732421875
 31
0.0
  0
LINE
  5
16A
330
22
100
AcDbEntity
  8
0
  6
Continuous
 62
     7
100
AcDbLine
 10
-536.5991821289063
 20
189.8305969238281
 30
0.0
 11
-532.0991821289063
 21
194.3305969238281
 31
0.0
  0
LINE
  5
16B
330
22
100
AcDbEntity
  8
0
  6
Continuous
 62
     7
100
AcDbLine
 10
-537.3320312499999
 20
184.8551483154297
 30
0.0
 11
-531.4509277343749
 21
190.7362518310547
 31
0.0
  0
LINE
  5
16C
330
22
100
AcDbEntity
  8
0
  6
Continuous
 62
     7
100
AcDbLine
 10
-537.7567138671874
 20
180.1878356933594
 30
0.0
 11
-529.2738647460939
 21
188.6706848144531
 31
0.0
  0
LINE
  5
16D
330
22
100
AcDbEntity
  8
0
  6
Continuous
 62
     7
100
AcDbLine
 10
-529.0514526367188
 20
184.6504669189453
 30
0.0
 11
-525.5514526367188
 21
188.1504669189453
 31
0.0
  0
LINE
  5
16E
330
22
100
AcDbEntity
  8
0
  6
Continuous
 62
     7
100
AcDbLine
 10
-537.6281127929688
 20
176.0737762451172
 30
0.0
 11
-530.5991821289063
 21
183.1026763916016
 31
0.0
  0
LINE
  5
16F
330
22
100
AcDbEntity
  8
0
  6
Continuous
 62
     7
100
AcDbLine
 10
-524.8087768554689
 20
184.6504669189453
 30
0.0
 11
-521.3087768554689
 21
188.1504669189453
 31
0.0
  0
LINE
  5
170
330
22
100
AcDbEntity
  8
0
  6
Continuous
 62
     7
100
AcDbLine
 10
-537.4995727539063
 20
171.9597015380859
 30
0.0
 11
-530.5991821289063
 21
178.8600311279297
 31
0.0
  0
LINE
  5
171
330
22
100
AcDbEntity
  8
0
  6
Continuous
 62
     7
100
AcDbLine
 10
-520.5661621093749
 20
184.6504669189453
 30
0.0
 11
-517.0661621093749
 21
188.1504669189453
 31
0.0
  0
LINE
  5
172
330
22
100
AcDbEntity
  8
0
  6
Continuous
 62
     7
100
AcDbLine
 10
-537.3709716796875
 20
167.8456268310547
 30
0.0
 11
-530.5991821289063
 21
174.6174011230469
 31
0.0
  0
LINE
  5
173
330
22
100
AcDbEntity
  8
0
  6
Continuous
 62
     7
100
AcDbLine
 10
-516.323486328125
 20
184.6504669189453
 30
0.0
 11
-512.823486328125
 21
188.1504669189453
 31
0.0
  0
LINE
  5
174
330
22
100
AcDbEntity
  8
0
  6
Continuous
 62
     7
100
AcDbLine
 10
-537.242431640625
 20
163.7315673828125
 30
0.0
 11
-530.5991821289063
 21
170.374755859375
 31
0.0
  0
LINE
  5
175
330
22
100
AcDbEntity
  8
0
  6
Continuous
 62
     7
100
AcDbLine
 10
-512.0808715820313
 20
184.6504669189453
 30
0.0
 11
-508.5808715820313
 21
188.1504669189453
 31
0.0
  0
LINE
  5
176
330
22
100
AcDbEntity
  8
0
  6
Continuous
 62
     7
100
AcDbLine
 10
-537.1138305664064
 20
159.6174926757813
 30
0.0
 11
-530.5991821289063
 21
166.1321105957031
 31
0.0
  0
LINE
  5
177
330
22
100
AcDbEntity
  8
0
  6
Continuous
 62
     7
100
AcDbLine
 10
-507.8382263183593
 20
184.6504669189453
 30
0.0
 11
-504.3382263183594
 21
188.1504669189453
 31
0.0
  0
LINE
  5
178
330
22
100
AcDbEntity
  8
0
  6
Continuous
 62
     7
100
AcDbLine
 10
-536.9852905273439
 20
155.5034332275391
 30
0.0
 11
-530.5991821289063
 21
161.8894805908203
 31
0.0
  0
LINE
  5
179
330
22
100
AcDbEntity
  8
0
  6
Continuous
 62
     7
100
AcDbLine
 10
-503.5955810546875
 20
184.6504669189453
 30
0.0
 11
-500.0955810546875
 21
188.1504669189453
 31
0.0
  0
LINE
  5
17A
330
22
100
AcDbEntity
  8
0
  6
Continuous
 62
     7
100
AcDbLine
 10
-536.856689453125
 20
151.3893585205078
 30
0.0
 11
-530.5991821289063
 21
157.6468353271484
 31
0.0
  0
LINE
  5
17B
330
22
100
AcDbEntity
  8
0
  6
Continuous
 62
     7
100
AcDbLine
 10
-499.3529357910156
 20
184.6504669189453
 30
0.0
 11
-495.8529357910156
 21
188.1504669189453
 31
0.0
  0
LINE
  5
17C
330
22
100
AcDbEntity
  8
0
  6
Continuous
 62
     7
100
AcDbLine
 10
-536.7280883789063
 20
147.2752838134766
 30
0.0
 11
-530.5991821289063
 21
153.4041900634766
 31
0.0
  0
LINE
  5
17D
330
22
100
AcDbEntity
  8
0
  6
Continuous
 62
     7
100
AcDbLine
 10
-495.1102905273438
 20
184.6504669189453
 30
0.0
 11
-491.6102905273437
 21
188.1504669189453
 31
0.0
  0
LINE
  5
17E
330
22
100
AcDbEntity
  8
0
  6
Continuous
 62
     7
100
AcDbLine
 10
-536.5995483398438
 20
143.1612243652344
 30
0.0
 11
-530.5991821289063
 21
149.1615600585938
 31
0.0
  0
LINE
  5
17F
330
22
100
AcDbEntity
  8
0
  6
Continuous
 62
     7
100
AcDbLine
 10
-490.8676757812499
 20
184.6504669189453
 30
0.0
 11
-487.36767578125
 21
188.1504669189453
 31
0.0
  0
LINE
  5
180
330
22
100
AcDbEntity
  8
0
  6
Continuous
 62
     7
100
AcDbLine
 10
-532.3676757812499
 20
143.1504669189453
 30
0.0
 11
-530.5991821289063
 21
144.9189147949219
 31
0.0
  0
LINE
  5
181
330
22
100
AcDbEntity
  8
0
  6
Continuous
 62
     7
100
AcDbLine
 10
-486.6250305175781
 20
184.6504669189453
 30
0.0
 11
-483.2999267578125
 21
187.9755554199219
 31
0.0
  0
LINE
  5
182
330
22
100
AcDbEntity
  8
0
  6
Continuous
 62
     7
100
AcDbLine
 10
-539.2874755859375
 20
181.1504669189453
 30
0.0
 11
-537.832275390625
 21
182.605712890625
 31
0.0
  0
LINE
  5
183
330
22
100
AcDbEntity
  8
0
  6
Continuous
 62
     7
100
AcDbLine
 10
-537.832275390625
 20
182.605712890625
 30
0.0
 11
-537.832275390625
 21
188.1504669189453
 31
0.0
  0
LINE
  5
184
330
22
100
AcDbEntity
  8
0
  6
Continuous
 62
     7
100
AcDbLine
 10
-540.2449340820314
 20
318.097412109375
 30
0.0
 11
-534.6652832031249
 21
323.6770629882813
 31
0.0
  0
LINE
  5
185
330
22
100
AcDbEntity
  8
0
  6
Continuous
 62
     7
100
AcDbLine
 10
-538.3916015625
 20
317.1223449707031
 30
0.0
 11
-527.9731445312499
 21
327.540771484375
 31
0.0
  0
LINE
  5
186
330
22
100
AcDbEntity
  8
0
  6
Continuous
 62
     7
100
AcDbLine
 10
-470.0992126464844
 20
382.5862731933593
 30
0.0
 11
-469.0350341796874
 21
383.6504516601563
 31
0.0
  0
LINE
  5
187
330
22
100
AcDbEntity
  8
0
  6
Continuous
 62
     7
100
AcDbLine
 10
-537.5465698242188
 20
315.1388854980469
 30
0.0
 11
-521.281005859375
 21
331.4044799804688
 31
0.0
  0
LINE
  5
188
330
22
100
AcDbEntity
  8
0
  6
Continuous
 62
     7
100
AcDbLine
 10
-470.0992126464844
 20
379.7578430175781
 30
0.0
 11
-467.142822265625
 21
382.7142333984375
 31
0.0
  0
LINE
  5
189
330
22
100
AcDbEntity
  8
0
  6
Continuous
 62
     7
100
AcDbLine
 10
-525.51708984375
 20
324.3399658203125
 30
0.0
 11
-514.5888671875
 21
335.2681884765625
 31
0.0
  0
LINE
  5
18A
330
22
100
AcDbEntity
  8
0
  6
Continuous
 62
     7
100
AcDbLine
 10
-537.4556884765625
 20
312.4013671875
 30
0.0
 11
-531.5651855468749
 21
318.2918395996094
 31
0.0
  0
LINE
  5
18B
330
22
100
AcDbEntity
  8
0
  6
Continuous
 62
     7
100
AcDbLine
 10
-458.0992126464844
 20
388.929443359375
 30
0.0
 11
-455.878173828125
 21
391.1504516601563
 31
0.0
  0
LINE
  5
18C
330
22
100
AcDbEntity
  8
0
  6
Continuous
 62
     7
100
AcDbLine
 10
-470.0992126464844
 20
376.929443359375
 30
0.0
 11
-467.142822265625
 21
379.8858032226563
 31
0.0
  0
LINE
  5
18D
330
22
100
AcDbEntity
  8
0
  6
Continuous
 62
     7
100
AcDbLine
 10
-518.8249511718749
 20
328.2036743164063
 30
0.0
 11
-507.8967590332031
 21
339.1318969726563
 31
0.0
  0
LINE
  5
18E
330
22
100
AcDbEntity
  8
0
  6
Continuous
 62
     7
100
AcDbLine
 10
-537.3648071289063
 20
309.663818359375
 30
0.0
 11
-531.5991821289063
 21
315.429443359375
 31
0.0
  0
LINE
  5
18F
330
22
100
AcDbEntity
  8
0
  6
Continuous
 62
     7
100
AcDbLine
 10
-458.0992126464844
 20
386.1010131835938
 30
0.0
 11
-453.0497436523438
 21
391.1504516601563
 31
0.0
  0
LINE
  5
190
330
22
100
AcDbEntity
  8
0
  6
Continuous
 62
     7
100
AcDbLine
 10
-463.142822265625
 20
381.057373046875
 30
0.0
 11
-460.5497436523438
 21
383.6504516601563
 31
0.0
  0
LINE
  5
191
330
22
100
AcDbEntity
  8
0
  6
Continuous
 62
     7
100
AcDbLine
 10
-470.0992126464844
 20
374.1010131835938
 30
0.0
 11
-467.142822265625
 21
377.057373046875
 31
0.0
  0
LINE
  5
192
330
22
100
AcDbEntity
  8
0
  6
Continuous
 62
     7
100
AcDbLine
 10
-512.1328124999999
 20
332.0673828125
 30
0.0
 11
-501.2046203613281
 21
342.9955749511719
 31
0.0
  0
LINE
  5
193
330
22
100
AcDbEntity
  8
0
  6
Continuous
 62
     7
100
AcDbLine
 10
-537.27392578125
 20
306.92626953125
 30
0.0
 11
-531.5991821289063
 21
312.6010131835938
 31
0.0
  0
LINE
  5
194
330
22
100
AcDbEntity
  8
0
  6
Continuous
 62
     7
100
AcDbLine
 10
-463.142822265625
 20
378.2289428710938
 30
0.0
 11
-450.2213134765624
 21
391.1504516601563
 31
0.0
  0
LINE
  5
195
330
22
100
AcDbEntity
  8
0
  6
Continuous
 62
     7
100
AcDbLine
 10
-470.0992126464844
 20
371.2725830078125
 30
0.0
 11
-467.142822265625
 21
374.2289428710938
 31
0.0
  0
LINE
  5
196
330
22
100
AcDbEntity
  8
0
  6
Continuous
 62
     7
100
AcDbLine
 10
-505.4407043457031
 20
335.9310913085938
 30
0.0
 11
-494.5125122070312
 21
346.8592834472656
 31
0.0
  0
LINE
  5
197
330
22
100
AcDbEntity
  8
0
  6
Continuous
 62
     7
100
AcDbLine
 10
-537.1830444335938
 20
304.188720703125
 30
0.0
 11
-531.5991821289063
 21
309.7725830078125
 31
0.0
  0
LINE
  5
198
330
22
100
AcDbEntity
  8
0
  6
Continuous
 62
     7
100
AcDbLine
 10
-451.3929138183593
 20
387.1504516601563
 30
0.0
 11
-447.3929138183593
 21
391.1504516601563
 31
0.0
  0
LINE
  5
199
330
22
100
AcDbEntity
  8
0
  6
Continuous
 62
     7
100
AcDbLine
 10
-463.142822265625
 20
375.4005126953125
 30
0.0
 11
-453.0992126464844
 21
385.4441528320313
 31
0.0
  0
LINE
  5
19A
330
22
100
AcDbEntity
  8
0
  6
Continuous
 62
     7
100
AcDbLine
 10
-470.0992126464844
 20
368.4441528320313
 30
0.0
 11
-466.892822265625
 21
371.6505126953125
 31
0.0
  0
LINE
  5
19B
330
22
100
AcDbEntity
  8
0
  6
Continuous
 62
     7
100
AcDbLine
 10
-498.7485656738281
 20
339.7947998046875
 30
0.0
 11
-487.8203735351562
 21
350.7229919433594
 31
0.0
  0
LINE
  5
19C
330
22
100
AcDbEntity
  8
0
  6
Continuous
 62
     7
100
AcDbLine
 10
-537.0921630859375
 20
301.451171875
 30
0.0
 11
-531.5991821289063
 21
306.9441528320313
 31
0.0
  0
LINE
  5
19D
330
22
100
AcDbEntity
  8
0
  6
Continuous
 62
     7
100
AcDbLine
 10
-448.5644836425781
 20
387.1504516601563
 30
0.0
 11
-444.5644836425781
 21
391.1504516601563
 31
0.0
  0
LINE
  5
19E
330
22
100
AcDbEntity
  8
0
  6
Continuous
 62
     7
100
AcDbLine
 10
-463.3928222656249
 20
372.3220825195313
 30
0.0
 11
-453.0992126464844
 21
382.61572265625
 31
0.0
  0
LINE
  5
19F
330
22
100
AcDbEntity
  8
0
  6
Continuous
 62
     7
100
AcDbLine
 10
-470.0992126464844
 20
365.61572265625
 30
0.0
 11
-465.4786682128906
 21
370.2362670898438
 31
0.0
  0
LINE
  5
1A0
330
22
100
AcDbEntity
  8
0
  6
Continuous
 62
     7
100
AcDbLine
 10
-492.0564270019531
 20
343.6585083007813
 30
0.0
 11
-481.1282348632813
 21
354.5867004394531
 31
0.0
  0
LINE
  5
1A1
330
22
100
AcDbEntity
  8
0
  6
Continuous
 62
     7
100
AcDbLine
 10
-537.0012817382813
 20
298.713623046875
 30
0.0
 11
-531.5991821289063
 21
304.11572265625
 31
0.0
  0
LINE
  5
1A2
330
22
100
AcDbEntity
  8
0
  6
Continuous
 62
     7
100
AcDbLine
 10
-445.7360534667968
 20
387.1504516601563
 30
0.0
 11
-443.0992126464843
 21
389.7872924804688
 31
0.0
  0
LINE
  5
1A3
330
22
100
AcDbEntity
  8
0
  6
Continuous
 62
     7
100
AcDbLine
 10
-465.142822265625
 20
367.7436828613281
 30
0.0
 11
-453.0992126464844
 21
379.7872924804688
 31
0.0
  0
LINE
  5
1A4
330
22
100
AcDbEntity
  8
0
  6
Continuous
 62
     7
100
AcDbLine
 10
-470.0992126464844
 20
362.7872924804688
 30
0.0
 11
-465.142822265625
 21
367.7436828613281
 31
0.0
  0
LINE
  5
1A5
330
22
100
AcDbEntity
  8
0
  6
Continuous
 62
     7
100
AcDbLine
 10
-485.3643188476563
 20
347.5221862792969
 30
0.0
 11
-474.4360961914063
 21
358.4504089355469
 31
0.0
  0
LINE
  5
1A6
330
22
100
AcDbEntity
  8
0
  6
Continuous
 62
     7
100
AcDbLine
 10
-536.910400390625
 20
295.9761047363281
 30
0.0
 11
-531.5991821289063
 21
301.2872924804688
 31
0.0
  0
LINE
  5
1A7
330
22
100
AcDbEntity
  8
0
  6
Continuous
 62
     7
100
AcDbLine
 10
-478.6721801757813
 20
351.3858947753906
 30
0.0
 11
-453.0992126464844
 21
376.9588623046875
 31
0.0
  0
LINE
  5
1A8
330
22
100
AcDbEntity
  8
0
  6
Continuous
 62
     7
100
AcDbLine
 10
-536.8195190429688
 20
293.2385559082031
 30
0.0
 11
-531.5991821289063
 21
298.4588623046875
 31
0.0
  0
LINE
  5
1A9
330
22
100
AcDbEntity
  8
0
  6
Continuous
 62
     7
100
AcDbLine
 10
-471.9800415039062
 20
355.2496032714844
 30
0.0
 11
-453.0992126464844
 21
374.1304321289063
 31
0.0
  0
LINE
  5
1AA
330
22
100
AcDbEntity
  8
0
  6
Continuous
 62
     7
100
AcDbLine
 10
-536.7286376953124
 20
290.5010070800781
 30
0.0
 11
-531.5991821289063
 21
295.6304321289063
 31
0.0
  0
LINE
  5
1AB
330
22
100
AcDbEntity
  8
0
  6
Continuous
 62
     7
100
AcDbLine
 10
-465.2879028320312
 20
359.1133117675781
 30
0.0
 11
-453.0992126464844
 21
371.302001953125
 31
0.0
  0
LINE
  5
1AC
330
22
100
AcDbEntity
  8
0
  6
Continuous
 62
     7
100
AcDbLine
 10
-536.6377563476564
 20
287.7634582519531
 30
0.0
 11
-531.5991821289063
 21
292.802001953125
 31
0.0
  0
LINE
  5
1AD
330
22
100
AcDbEntity
  8
0
  6
Continuous
 62
     7
100
AcDbLine
 10
-458.5957946777344
 20
362.9770202636719
 30
0.0
 11
-453.1627807617188
 21
368.4100036621094
 31
0.0
  0
LINE
  5
1AE
330
22
100
AcDbEntity
  8
0
  6
Continuous
 62
     7
100
AcDbLine
 10
-535.42236328125
 20
286.1504516601563
 30
0.0
 11
-531.5991821289063
 21
289.9735717773438
 31
0.0
  0
LINE
  5
1AF
330
22
100
AcDbEntity
  8
0
  6
Continuous
 62
     7
100
AcDbLine
 10
-471.5992126464843
 20
360.0882873535156
 30
0.0
 11
-540.0991821289063
 21
320.539794921875
 31
0.0
  0
LINE
  5
1B0
330
22
100
AcDbEntity
  8
0
  6
Continuous
 62
     7
100
AcDbLine
 10
-455.5992126464843
 20
364.7070922851563
 30
0.0
 11
-529.0991821289063
 21
322.2718505859375
 31
0.0
  0
LINE
  5
1B1
330
22
100
AcDbEntity
  8
0
  6
Continuous
 62
     7
100
AcDbLine
 10
-593.0991821289062
 20
184.6504669189453
 30
0.0
 11
-703.5991821289062
 21
184.6504669189453
 31
0.0
  0
LINE
  5
1B2
330
22
100
AcDbEntity
  8
0
  6
Continuous
 62
     7
100
AcDbLine
 10
-655.5991821289062
 20
162.6504669189453
 30
0.0
 11
-655.5991821289062
 21
146.7693634033203
 31
0.0
  0
LINE
  5
1B3
330
22
100
AcDbEntity
  8
0
  6
Continuous
 62
     7
100
AcDbLine
 10
-742.0991821289062
 20
387.1504516601563
 30
0.0
 11
-593.0991821289062
 21
387.1504516601563
 31
0.0
  0
LINE
  5
1B4
330
22
100
AcDbEntity
  8
0
  6
Continuous
 62
     7
100
AcDbLine
 10
-730.5991821289062
 20
366.1504516601563
 30
0.0
 11
-593.0991821289062
 21
366.1504516601563
 31
0.0
  0
LINE
  5
1B5
330
22
100
AcDbEntity
  8
0
  6
Continuous
 62
     7
100
AcDbLine
 10
-730.5991821289062
 20
364.7070922851563
 30
0.0
 11
-657.0991821289062
 21
322.2718505859375
 31
0.0
  0
LINE
  5
1B6
330
22
100
AcDbEntity
  8
0
  6
Continuous
 62
     7
100
AcDbLine
 10
-702.0991821289062
 20
188.1504669189453
 30
0.0
 11
-659.0991821289062
 21
188.1504669189453
 31
0.0
  0
LINE
  5
1B7
330
22
100
AcDbEntity
  8
0
  6
Continuous
 62
     7
100
AcDbLine
 10
-673.5991821289062
 20
184.6504669189453
 30
0.0
 11
-673.5991821289062
 21
183.1956024169922
 31
0.0
  0
LINE
  5
1B8
330
22
100
AcDbEntity
  8
0
  6
Continuous
 62
     7
100
AcDbLine
 10
-535.9492187499999
 20
269.8942260742188
 30
0.0
 11
-535.9492187499999
 21
260.3004455566406
 31
0.0
  0
LINE
  5
1B9
330
22
100
AcDbEntity
  8
0
  6
Continuous
 62
     7
100
AcDbLine
 10
-540.0991821289063
 20
308.1504516601563
 30
0.0
 11
-540.0991821289063
 21
208.1504669189453
 31
0.0
  0
LINE
  5
1BA
330
22
100
AcDbEntity
  8
0
  6
Continuous
 62
     7
100
AcDbLine
 10
-540.0991821289063
 20
307.8443908691406
 30
0.0
 11
-538.844970703125
 21
306.5901489257813
 31
0.0
  0
LINE
  5
1BB
330
22
100
AcDbEntity
  8
0
  6
Continuous
 62
     7
100
AcDbLine
 10
-540.0991821289063
 20
307.1372985839844
 30
0.0
 11
-538.8221435546874
 21
305.8602294921875
 31
0.0
  0
LINE
  5
1BC
330
22
100
AcDbEntity
  8
0
  6
Continuous
 62
     7
100
AcDbLine
 10
-540.0991821289063
 20
305.0159606933594
 30
0.0
 11
-538.7537231445313
 21
303.6704711914063
 31
0.0
  0
LINE
  5
1BD
330
22
100
AcDbEntity
  8
0
  6
Continuous
 62
     7
100
AcDbLine
 10
-540.0991821289063
 20
304.3088684082031
 30
0.0
 11
-538.7308959960939
 21
302.9405517578125
 31
0.0
  0
LINE
  5
1BE
330
22
100
AcDbEntity
  8
0
  6
Continuous
 62
     7
100
AcDbLine
 10
-540.0991821289063
 20
302.1875305175781
 30
0.0
 11
-538.6624755859375
 21
300.7508239746094
 31
0.0
  0
LINE
  5
1BF
330
22
100
AcDbEntity
  8
0
  6
Continuous
 62
     7
100
AcDbLine
 10
-540.0991821289063
 20
301.4804382324219
 30
0.0
 11
-538.6396484375
 21
300.0209045410156
 31
0.0
  0
LINE
  5
1C0
330
22
100
AcDbEntity
  8
0
  6
Continuous
 62
     7
100
AcDbLine
 10
-540.0991821289063
 20
299.3591003417969
 30
0.0
 11
-538.5712280273438
 21
297.8311462402344
 31
0.0
  0
LINE
  5
1C1
330
22
100
AcDbEntity
  8
0
  6
Continuous
 62
     7
100
AcDbLine
 10
-540.0991821289063
 20
298.6520080566407
 30
0.0
 11
-538.5484008789063
 21
297.1012268066406
 31
0.0
  0
LINE
  5
1C2
330
22
100
AcDbEntity
  8
0
  6
Continuous
 62
     7
100
AcDbLine
 10
-540.0991821289063
 20
296.5306701660156
 30
0.0
 11
-538.4799804687499
 21
294.9114685058594
 31
0.0
  0
LINE
  5
1C3
330
22
100
AcDbEntity
  8
0
  6
Continuous
 62
     7
100
AcDbLine
 10
-540.0991821289063
 20
295.8235778808594
 30
0.0
 11
-538.4571533203125
 21
294.1815490722656
 31
0.0
  0
LINE
  5
1C4
330
22
100
AcDbEntity
  8
0
  6
Continuous
 62
     7
100
AcDbLine
 10
-540.0991821289063
 20
293.7022705078125
 30
0.0
 11
-538.3887329101563
 21
291.9917907714843
 31
0.0
  0
LINE
  5
1C5
330
22
100
AcDbEntity
  8
0
  6
Continuous
 62
     7
100
AcDbLine
 10
-540.0991821289063
 20
292.9951477050781
 30
0.0
 11
-538.365966796875
 21
291.2618713378906
 31
0.0
  0
LINE
  5
1C6
330
22
100
AcDbEntity
  8
0
  6
Continuous
 62
     7
100
AcDbLine
 10
-540.0991821289063
 20
290.8738403320313
 30
0.0
 11
-538.2974853515625
 21
289.0721130371094
 31
0.0
  0
LINE
  5
1C7
330
22
100
AcDbEntity
  8
0
  6
Continuous
 62
     7
100
AcDbLine
 10
-540.0991821289063
 20
290.1667175292969
 30
0.0
 11
-538.2747192382813
 21
288.3421936035156
 31
0.0
  0
LINE
  5
1C8
330
22
100
AcDbEntity
  8
0
  6
Continuous
 62
     7
100
AcDbLine
 10
-540.0991821289063
 20
288.04541015625
 30
0.0
 11
-538.2062377929688
 21
286.1524658203125
 31
0.0
  0
LINE
  5
1C9
330
22
100
AcDbEntity
  8
0
  6
Continuous
 62
     7
100
AcDbLine
 10
-540.0991821289063
 20
287.3382873535156
 30
0.0
 11
-538.1834716796874
 21
285.4225463867188
 31
0.0
  0
LINE
  5
1CA
330
22
100
AcDbEntity
  8
0
  6
Continuous
 62
     7
100
AcDbLine
 10
-540.0991821289063
 20
285.2169799804688
 30
0.0
 11
-538.1149902343749
 21
283.2327880859375
 31
0.0
  0
LINE
  5
1CB
330
22
100
AcDbEntity
  8
0
  6
Continuous
 62
     7
100
AcDbLine
 10
-540.0991821289063
 20
284.5098571777344
 30
0.0
 11
-538.0922241210938
 21
282.5028686523438
 31
0.0
  0
LINE
  5
1CC
330
22
100
AcDbEntity
  8
0
  6
Continuous
 62
     7
100
AcDbLine
 10
-540.0991821289063
 20
282.3885498046875
 30
0.0
 11
-538.0237426757814
 21
280.3131103515625
 31
0.0
  0
LINE
  5
1CD
330
22
100
AcDbEntity
  8
0
  6
Continuous
 62
     7
100
AcDbLine
 10
-540.0991821289063
 20
281.6814270019531
 30
0.0
 11
-538.0009765625
 21
279.5831909179688
 31
0.0
  0
LINE
  5
1CE
330
22
100
AcDbEntity
  8
0
  6
Continuous
 62
     7
100
AcDbLine
 10
-540.0991821289063
 20
279.5601196289063
 30
0.0
 11
-537.9325561523438
 21
277.3934326171875
 31
0.0
  0
LINE
  5
1CF
330
22
100
AcDbEntity
  8
0
  6
Continuous
 62
     7
100
AcDbLine
 10
-540.0991821289063
 20
278.85302734375
 30
0.0
 11
-537.9097290039063
 21
276.6635131835938
 31
0.0
  0
LINE
  5
1D0
330
22
100
AcDbEntity
  8
0
  6
Continuous
 62
     7
100
AcDbLine
 10
-540.0991821289063
 20
276.731689453125
 30
0.0
 11
-537.8413085937499
 21
274.4737548828125
 31
0.0
  0
LINE
  5
1D1
330
22
100
AcDbEntity
  8
0
  6
Continuous
 62
     7
100
AcDbLine
 10
-540.0991821289063
 20
276.0245971679688
 30
0.0
 11
-537.8184814453125
 21
273.7438354492188
 31
0.0
  0
LINE
  5
1D2
330
22
100
AcDbEntity
  8
0
  6
Continuous
 62
     7
100
AcDbLine
 10
-540.0991821289063
 20
273.9032592773438
 30
0.0
 11
-535.9492187499999
 21
269.7532653808594
 31
0.0
  0
LINE
  5
1D3
330
22
100
AcDbEntity
  8
0
  6
Continuous
 62
     7
100
AcDbLine
 10
-540.0991821289063
 20
273.1961669921875
 30
0.0
 11
-535.9492187499999
 21
269.0461730957031
 31
0.0
  0
LINE
  5
1D4
330
22
100
AcDbEntity
  8
0
  6
Continuous
 62
     7
100
AcDbLine
 10
-540.0991821289063
 20
271.0748291015625
 30
0.0
 11
-535.9492187499999
 21
266.9248352050781
 31
0.0
  0
LINE
  5
1D5
330
22
100
AcDbEntity
  8
0
  6
Continuous
 62
     7
100
AcDbLine
 10
-540.0991821289063
 20
270.3677368164063
 30
0.0
 11
-535.9492187499999
 21
266.2177429199219
 31
0.0
  0
LINE
  5
1D6
330
22
100
AcDbEntity
  8
0
  6
Continuous
 62
     7
100
AcDbLine
 10
-540.0991821289063
 20
268.2463989257813
 30
0.0
 11
-535.9492187499999
 21
264.0964050292969
 31
0.0
  0
LINE
  5
1D7
330
22
100
AcDbEntity
  8
0
  6
Continuous
 62
     7
100
AcDbLine
 10
-540.0991821289063
 20
267.539306640625
 30
0.0
 11
-535.9492187499999
 21
263.3893127441406
 31
0.0
  0
LINE
  5
1D8
330
22
100
AcDbEntity
  8
0
  6
Continuous
 62
     7
100
AcDbLine
 10
-540.0991821289063
 20
265.4179992675781
 30
0.0
 11
-535.9492187499999
 21
261.2679748535156
 31
0.0
  0
LINE
  5
1D9
330
22
100
AcDbEntity
  8
0
  6
Continuous
 62
     7
100
AcDbLine
 10
-540.0991821289063
 20
264.7108764648438
 30
0.0
 11
-535.9492187499999
 21
260.5608825683594
 31
0.0
  0
LINE
  5
1DA
330
22
100
AcDbEntity
  8
0
  6
Continuous
 62
     7
100
AcDbLine
 10
-540.0991821289063
 20
262.5895690917969
 30
0.0
 11
-536.879638671875
 21
259.3699951171875
 31
0.0
  0
LINE
  5
1DB
330
22
100
AcDbEntity
  8
0
  6
Continuous
 62
     7
100
AcDbLine
 10
-540.0991821289063
 20
261.8824462890625
 30
0.0
 11
-537.2332153320313
 21
259.0164489746094
 31
0.0
  0
LINE
  5
1DC
330
22
100
AcDbEntity
  8
0
  6
Continuous
 62
     7
100
AcDbLine
 10
-540.0991821289063
 20
259.7611389160156
 30
0.0
 11
-538.0991821289064
 21
257.7611389160156
 31
0.0
  0
LINE
  5
1DD
330
22
100
AcDbEntity
  8
0
  6
Continuous
 62
     7
100
AcDbLine
 10
-540.0991821289063
 20
259.0540161132813
 30
0.0
 11
-538.0991821289064
 21
257.0540161132813
 31
0.0
  0
LINE
  5
1DE
330
22
100
AcDbEntity
  8
0
  6
Continuous
 62
     7
100
AcDbLine
 10
-540.0991821289063
 20
256.9327087402344
 30
0.0
 11
-538.0991821289064
 21
254.9327087402344
 31
0.0
  0
LINE
  5
1DF
330
22
100
AcDbEntity
  8
0
  6
Continuous
 62
     7
100
AcDbLine
 10
-540.0991821289063
 20
256.2255859375
 30
0.0
 11
-538.0991821289064
 21
254.2256011962891
 31
0.0
  0
LINE
  5
1E0
330
22
100
AcDbEntity
  8
0
  6
Continuous
 62
     7
100
AcDbLine
 10
-540.0991821289063
 20
254.1042785644531
 30
0.0
 11
-538.0991821289064
 21
252.1042785644531
 31
0.0
  0
LINE
  5
1E1
330
22
100
AcDbEntity
  8
0
  6
Continuous
 62
     7
100
AcDbLine
 10
-540.0991821289063
 20
253.3971710205078
 30
0.0
 11
-538.0991821289064
 21
251.3971710205078
 31
0.0
  0
LINE
  5
1E2
330
22
100
AcDbEntity
  8
0
  6
Continuous
 62
     7
100
AcDbLine
 10
-540.0991821289063
 20
251.2758483886719
 30
0.0
 11
-538.0991821289064
 21
249.2758483886719
 31
0.0
  0
LINE
  5
1E3
330
22
100
AcDbEntity
  8
0
  6
Continuous
 62
     7
100
AcDbLine
 10
-540.0991821289063
 20
250.5687408447266
 30
0.0
 11
-538.0991821289064
 21
248.5687408447266
 31
0.0
  0
LINE
  5
1E4
330
22
100
AcDbEntity
  8
0
  6
Continuous
 62
     7
100
AcDbLine
 10
-540.0991821289063
 20
248.4474182128906
 30
0.0
 11
-538.0991821289064
 21
246.4474182128906
 31
0.0
  0
LINE
  5
1E5
330
22
100
AcDbEntity
  8
0
  6
Continuous
 62
     7
100
AcDbLine
 10
-540.0991821289063
 20
247.7403106689453
 30
0.0
 11
-538.0991821289064
 21
245.7403106689453
 31
0.0
  0
LINE
  5
1E6
330
22
100
AcDbEntity
  8
0
  6
Continuous
 62
     7
100
AcDbLine
 10
-540.0991821289063
 20
245.6189880371094
 30
0.0
 11
-538.0991821289064
 21
243.6189880371094
 31
0.0
  0
LINE
  5
1E7
330
22
100
AcDbEntity
  8
0
  6
Continuous
 62
     7
100
AcDbLine
 10
-540.0991821289063
 20
244.9118957519531
 30
0.0
 11
-538.0991821289064
 21
242.9118957519531
 31
0.0
  0
LINE
  5
1E8
330
22
100
AcDbEntity
  8
0
  6
Continuous
 62
     7
100
AcDbLine
 10
-540.0991821289063
 20
242.7905731201172
 30
0.0
 11
-538.0991821289064
 21
240.7905731201172
 31
0.0
  0
LINE
  5
1E9
330
22
100
AcDbEntity
  8
0
  6
Continuous
 62
     7
100
AcDbLine
 10
-540.0991821289063
 20
242.0834655761719
 30
0.0
 11
-538.0991821289064
 21
240.0834655761719
 31
0.0
  0
LINE
  5
1EA
330
22
100
AcDbEntity
  8
0
  6
Continuous
 62
     7
100
AcDbLine
 10
-540.0991821289063
 20
239.9621429443359
 30
0.0
 11
-538.0991821289064
 21
237.9621429443359
 31
0.0
  0
LINE
  5
1EB
330
22
100
AcDbEntity
  8
0
  6
Continuous
 62
     7
100
AcDbLine
 10
-540.0991821289063
 20
239.2550354003906
 30
0.0
 11
-538.0991821289064
 21
237.2550354003906
 31
0.0
  0
LINE
  5
1EC
330
22
100
AcDbEntity
  8
0
  6
Continuous
 62
     7
100
AcDbLine
 10
-540.0991821289063
 20
237.1337127685547
 30
0.0
 11
-538.0991821289064
 21
235.1337127685547
 31
0.0
  0
LINE
  5
1ED
330
22
100
AcDbEntity
  8
0
  6
Continuous
 62
     7
100
AcDbLine
 10
-540.0991821289063
 20
236.4266052246094
 30
0.0
 11
-538.0991821289064
 21
234.4266052246094
 31
0.0
  0
LINE
  5
1EE
330
22
100
AcDbEntity
  8
0
  6
Continuous
 62
     7
100
AcDbLine
 10
-540.0991821289063
 20
234.3052825927734
 30
0.0
 11
-538.0991821289064
 21
232.3052825927734
 31
0.0
  0
LINE
  5
1EF
330
22
100
AcDbEntity
  8
0
  6
Continuous
 62
     7
100
AcDbLine
 10
-540.0991821289063
 20
233.5981750488281
 30
0.0
 11
-538.0991821289064
 21
231.5981750488281
 31
0.0
  0
LINE
  5
1F0
330
22
100
AcDbEntity
  8
0
  6
Continuous
 62
     7
100
AcDbLine
 10
-540.0991821289063
 20
231.4768524169922
 30
0.0
 11
-538.0991821289064
 21
229.4768524169922
 31
0.0
  0
LINE
  5
1F1
330
22
100
AcDbEntity
  8
0
  6
Continuous
 62
     7
100
AcDbLine
 10
-540.0991821289063
 20
230.7697601318359
 30
0.0
 11
-538.0991821289064
 21
228.7697601318359
 31
0.0
  0
LINE
  5
1F2
330
22
100
AcDbEntity
  8
0
  6
Continuous
 62
     7
100
AcDbLine
 10
-540.0991821289063
 20
228.6484375
 30
0.0
 11
-538.0991821289064
 21
226.6484375
 31
0.0
  0
LINE
  5
1F3
330
22
100
AcDbEntity
  8
0
  6
Continuous
 62
     7
100
AcDbLine
 10
-540.0991821289063
 20
227.9413299560547
 30
0.0
 11
-538.0991821289064
 21
225.9413299560547
 31
0.0
  0
LINE
  5
1F4
330
22
100
AcDbEntity
  8
0
  6
Continuous
 62
     7
100
AcDbLine
 10
-540.0991821289063
 20
225.8200073242188
 30
0.0
 11
-538.0991821289064
 21
223.8200073242188
 31
0.0
  0
LINE
  5
1F5
330
22
100
AcDbEntity
  8
0
  6
Continuous
 62
     7
100
AcDbLine
 10
-540.0991821289063
 20
225.1128997802734
 30
0.0
 11
-538.0991821289064
 21
223.1128997802734
 31
0.0
  0
LINE
  5
1F6
330
22
100
AcDbEntity
  8
0
  6
Continuous
 62
     7
100
AcDbLine
 10
-540.0991821289063
 20
222.9915771484375
 30
0.0
 11
-538.0991821289064
 21
220.9915771484375
 31
0.0
  0
LINE
  5
1F7
330
22
100
AcDbEntity
  8
0
  6
Continuous
 62
     7
100
AcDbLine
 10
-540.0991821289063
 20
222.2844696044922
 30
0.0
 11
-538.0991821289064
 21
220.2844696044922
 31
0.0
  0
LINE
  5
1F8
330
22
100
AcDbEntity
  8
0
  6
Continuous
 62
     7
100
AcDbLine
 10
-540.0991821289063
 20
220.1631469726563
 30
0.0
 11
-538.0991821289064
 21
218.1631469726563
 31
0.0
  0
LINE
  5
1F9
330
22
100
AcDbEntity
  8
0
  6
Continuous
 62
     7
100
AcDbLine
 10
-540.0991821289063
 20
219.4560394287109
 30
0.0
 11
-538.0991821289064
 21
217.4560394287109
 31
0.0
  0
LINE
  5
1FA
330
22
100
AcDbEntity
  8
0
  6
Continuous
 62
     7
100
AcDbLine
 10
-540.0991821289063
 20
217.334716796875
 30
0.0
 11
-538.0991821289064
 21
215.334716796875
 31
0.0
  0
LINE
  5
1FB
330
22
100
AcDbEntity
  8
0
  6
Continuous
 62
     7
100
AcDbLine
 10
-540.0991821289063
 20
216.6276245117188
 30
0.0
 11
-538.0991821289064
 21
214.6276245117189
 31
0.0
  0
LINE
  5
1FC
330
22
100
AcDbEntity
  8
0
  6
Continuous
 62
     7
100
AcDbLine
 10
-540.0991821289063
 20
214.5063018798828
 30
0.0
 11
-538.0991821289064
 21
212.5063018798828
 31
0.0
  0
LINE
  5
1FD
330
22
100
AcDbEntity
  8
0
  6
Continuous
 62
     7
100
AcDbLine
 10
-540.0991821289063
 20
213.7991943359375
 30
0.0
 11
-538.0991821289064
 21
211.7991943359375
 31
0.0
  0
LINE
  5
1FE
330
22
100
AcDbEntity
  8
0
  6
Continuous
 62
     7
100
AcDbLine
 10
-540.0991821289063
 20
211.6778717041016
 30
0.0
 11
-538.0991821289064
 21
209.6778717041016
 31
0.0
  0
LINE
  5
1FF
330
22
100
AcDbEntity
  8
0
  6
Continuous
 62
     7
100
AcDbLine
 10
-540.0991821289063
 20
210.9707641601563
 30
0.0
 11
-538.0991821289064
 21
208.9707641601563
 31
0.0
  0
LINE
  5
200
330
22
100
AcDbEntity
  8
0
  6
Continuous
 62
     7
100
AcDbLine
 10
-540.0991821289063
 20
208.8494415283203
 30
0.0
 11
-539.4002075195313
 21
208.1504669189453
 31
0.0
  0
LINE
  5
201
330
22
100
AcDbEntity
  8
0
  6
Continuous
 62
     7
100
AcDbLine
 10
-650.2492065429687
 20
269.8942260742188
 30
0.0
 11
-650.2492065429687
 21
260.3004455566406
 31
0.0
  0
LINE
  5
202
330
22
100
AcDbEntity
  8
0
  6
Continuous
 62
     7
100
AcDbLine
 10
-569.0814819335937
 20
208.1504669189453
 30
0.0
 11
-557.0199584960938
 21
208.1504669189453
 31
0.0
  0
LINE
  5
203
330
22
100
AcDbEntity
  8
0
  6
Continuous
 62
     7
100
AcDbLine
 10
-569.0814819335937
 20
308.1504516601563
 30
0.0
 11
-557.0199584960938
 21
308.1504516601563
 31
0.0
  0
LINE
  5
204
330
22
100
AcDbEntity
  8
0
  6
CENTER
 62
     7
100
AcDbLine
 10
-593.0991821289062
 20
135.4098968505859
 30
0.0
 11
-593.0991821289062
 21
401.1058654785156
 31
0.0
  0
LINE
  5
205
330
22
100
AcDbEntity
  8
0
  6
Continuous
 62
     7
100
AcDbLine
 10
-654.5991821289062
 20
143.1504669189453
 30
0.0
 11
-531.5991821289063
 21
143.1504669189453
 31
0.0
  0
LINE
  5
206
330
22
100
AcDbEntity
  8
0
  6
Continuous
 62
     7
100
AcDbLine
 10
-742.0991821289062
 20
391.1504516601563
 30
0.0
 11
-444.0992126464843
 21
391.1504516601563
 31
0.0
  0
LINE
  5
207
330
22
100
AcDbEntity
  8
0
  6
Continuous
 62
     7
100
AcDbLine
 10
-536.5991821289063
 20
188.1504669189453
 30
0.0
 11
-593.0991821289062
 21
188.1504669189453
 31
0.0
  0
LINE
  5
208
330
22
100
AcDbEntity
  8
0
  6
Continuous
 62
     7
100
AcDbLine
 10
-593.0991821289062
 20
208.1504669189453
 30
0.0
 11
-538.0991821289064
 21
208.1504669189453
 31
0.0
  0
LINE
  5
209
330
22
100
AcDbEntity
  8
0
  6
Continuous
 62
     7
100
AcDbLine
 10
-538.0991821289064
 20
189.6504669189453
 30
0.0
 11
-593.0991821289062
 21
189.6504669189453
 31
0.0
  0
LINE
  5
20A
330
22
100
AcDbEntity
  8
0
  6
Continuous
 62
     7
100
AcDbLine
 10
-537.832275390625
 20
182.605712890625
 30
0.0
 11
-593.0991821289062
 21
182.605712890625
 31
0.0
  0
LINE
  5
20B
330
22
100
AcDbEntity
  8
0
  6
Continuous
 62
     7
100
AcDbLine
 10
-538.1483764648439
 20
144.6996002197266
 30
0.0
 11
-593.0991821289062
 21
144.6996002197266
 31
0.0
  0
LINE
  5
20C
330
22
100
AcDbEntity
  8
0
  6
Continuous
 62
     7
100
AcDbLine
 10
-593.0991821289062
 20
181.1504669189453
 30
0.0
 11
-539.2874755859375
 21
181.1504669189453
 31
0.0
  0
LINE
  5
20D
330
22
100
AcDbEntity
  8
0
  6
Continuous
 62
     7
100
AcDbLine
 10
-461.3254699707031
 20
389.9678344726563
 30
0.0
 11
-458.0992126464844
 21
386.7415771484375
 31
0.0
  0
LINE
  5
20E
330
22
100
AcDbEntity
  8
0
  6
Continuous
 62
     7
100
AcDbLine
 10
-462.892822265625
 20
387.2925415039063
 30
0.0
 11
-459.2507324218749
 21
383.6504516601563
 31
0.0
  0
LINE
  5
20F
330
22
100
AcDbEntity
  8
0
  6
Continuous
 62
     7
100
AcDbLine
 10
-470.4933776855468
 20
390.6504516601563
 30
0.0
 11
-467.3928222656249
 21
387.5499267578125
 31
0.0
  0
LINE
  5
210
330
22
100
AcDbEntity
  8
0
  6
Continuous
 62
     7
100
AcDbLine
 10
-474.7360229492188
 20
390.6504516601563
 30
0.0
 11
-467.7360229492188
 21
383.6504516601563
 31
0.0
  0
LINE
  5
211
330
22
100
AcDbEntity
  8
0
  6
Continuous
 62
     7
100
AcDbLine
 10
-478.9786682128906
 20
390.6504516601563
 30
0.0
 11
-472.4786682128906
 21
384.1504516601563
 31
0.0
  0
LINE
  5
212
330
22
100
AcDbEntity
  8
0
  6
Continuous
 62
     7
100
AcDbLine
 10
-483.2213134765624
 20
390.6504516601563
 30
0.0
 11
-476.7213134765625
 21
384.1504516601563
 31
0.0
  0
LINE
  5
213
330
22
100
AcDbEntity
  8
0
  6
Continuous
 62
     7
100
AcDbLine
 10
-487.4639282226563
 20
390.6504516601563
 30
0.0
 11
-480.9639282226562
 21
384.1504516601563
 31
0.0
  0
LINE
  5
214
330
22
100
AcDbEntity
  8
0
  6
Continuous
 62
     7
100
AcDbLine
 10
-491.7065734863281
 20
390.6504516601563
 30
0.0
 11
-485.206573486328
 21
384.1504516601563
 31
0.0
  0
LINE
  5
215
330
22
100
AcDbEntity
  8
0
  6
Continuous
 62
     7
100
AcDbLine
 10
-495.94921875
 20
390.6504516601563
 30
0.0
 11
-489.44921875
 21
384.1504516601563
 31
0.0
  0
LINE
  5
216
330
22
100
AcDbEntity
  8
0
  6
Continuous
 62
     7
100
AcDbLine
 10
-500.1918640136718
 20
390.6504516601563
 30
0.0
 11
-493.6918640136719
 21
384.1504516601563
 31
0.0
  0
LINE
  5
217
330
22
100
AcDbEntity
  8
0
  6
Continuous
 62
     7
100
AcDbLine
 10
-504.4345092773438
 20
390.6504516601563
 30
0.0
 11
-497.9345092773438
 21
384.1504516601563
 31
0.0
  0
LINE
  5
218
330
22
100
AcDbEntity
  8
0
  6
Continuous
 62
     7
100
AcDbLine
 10
-508.6771545410156
 20
390.6504516601563
 30
0.0
 11
-502.1771545410156
 21
384.1504516601563
 31
0.0
  0
LINE
  5
219
330
22
100
AcDbEntity
  8
0
  6
Continuous
 62
     7
100
AcDbLine
 10
-512.9197998046874
 20
390.6504516601563
 30
0.0
 11
-506.4197998046875
 21
384.1504516601563
 31
0.0
  0
LINE
  5
21A
330
22
100
AcDbEntity
  8
0
  6
Continuous
 62
     7
100
AcDbLine
 10
-517.1624145507813
 20
390.6504516601563
 30
0.0
 11
-510.6624145507812
 21
384.1504516601563
 31
0.0
  0
LINE
  5
21B
330
22
100
AcDbEntity
  8
0
  6
Continuous
 62
     7
100
AcDbLine
 10
-521.4050903320313
 20
390.6504516601563
 30
0.0
 11
-514.9050903320313
 21
384.1504516601563
 31
0.0
  0
LINE
  5
21C
330
22
100
AcDbEntity
  8
0
  6
Continuous
 62
     7
100
AcDbLine
 10
-525.6477050781249
 20
390.6504516601563
 30
0.0
 11
-519.147705078125
 21
384.1504516601563
 31
0.0
  0
LINE
  5
21D
330
22
100
AcDbEntity
  8
0
  6
Continuous
 62
     7
100
AcDbLine
 10
-529.8903198242189
 20
390.6504516601563
 30
0.0
 11
-523.3903198242188
 21
384.1504516601563
 31
0.0
  0
LINE
  5
21E
330
22
100
AcDbEntity
  8
0
  6
Continuous
 62
     7
100
AcDbLine
 10
-534.1329956054688
 20
390.6504516601563
 30
0.0
 11
-527.6329956054688
 21
384.1504516601563
 31
0.0
  0
LINE
  5
21F
330
22
100
AcDbEntity
  8
0
  6
Continuous
 62
     7
100
AcDbLine
 10
-538.3756103515625
 20
390.6504516601563
 30
0.0
 11
-531.8756103515625
 21
384.1504516601563
 31
0.0
  0
LINE
  5
220
330
22
100
AcDbEntity
  8
0
  6
Continuous
 62
     7
100
AcDbLine
 10
-542.6182861328125
 20
390.6504516601563
 30
0.0
 11
-536.1182861328124
 21
384.1504516601563
 31
0.0
  0
LINE
  5
221
330
22
100
AcDbEntity
  8
0
  6
Continuous
 62
     7
100
AcDbLine
 10
-546.8609008789063
 20
390.6504516601563
 30
0.0
 11
-540.3609008789064
 21
384.1504516601563
 31
0.0
  0
LINE
  5
222
330
22
100
AcDbEntity
  8
0
  6
Continuous
 62
     7
100
AcDbLine
 10
-551.1035766601564
 20
390.6504516601563
 30
0.0
 11
-544.6035766601563
 21
384.1504516601563
 31
0.0
  0
LINE
  5
223
330
22
100
AcDbEntity
  8
0
  6
Continuous
 62
     7
100
AcDbLine
 10
-555.3461914062499
 20
390.6504516601563
 30
0.0
 11
-548.84619140625
 21
384.1504516601563
 31
0.0
  0
LINE
  5
224
330
22
100
AcDbEntity
  8
0
  6
Continuous
 62
     7
100
AcDbLine
 10
-559.5888061523438
 20
390.6504516601563
 30
0.0
 11
-553.0888061523438
 21
384.1504516601563
 31
0.0
  0
LINE
  5
225
330
22
100
AcDbEntity
  8
0
  6
Continuous
 62
     7
100
AcDbLine
 10
-563.8314819335938
 20
390.6504516601563
 30
0.0
 11
-557.3314819335938
 21
384.1504516601563
 31
0.0
  0
LINE
  5
226
330
22
100
AcDbEntity
  8
0
  6
Continuous
 62
     7
100
AcDbLine
 10
-568.0740966796874
 20
390.6504516601563
 30
0.0
 11
-561.5740966796875
 21
384.1504516601563
 31
0.0
  0
LINE
  5
227
330
22
100
AcDbEntity
  8
0
  6
Continuous
 62
     7
100
AcDbLine
 10
-572.3167724609375
 20
390.6504516601563
 30
0.0
 11
-565.8167724609374
 21
384.1504516601563
 31
0.0
  0
LINE
  5
228
330
22
100
AcDbEntity
  8
0
  6
Continuous
 62
     7
100
AcDbLine
 10
-576.5593872070312
 20
390.6504516601563
 30
0.0
 11
-570.0593872070312
 21
384.1504516601563
 31
0.0
  0
LINE
  5
229
330
22
100
AcDbEntity
  8
0
  6
Continuous
 62
     7
100
AcDbLine
 10
-580.8020629882812
 20
390.6504516601563
 30
0.0
 11
-574.3020629882813
 21
384.1504516601563
 31
0.0
  0
LINE
  5
22A
330
22
100
AcDbEntity
  8
0
  6
Continuous
 62
     7
100
AcDbLine
 10
-585.044677734375
 20
390.6504516601563
 30
0.0
 11
-578.5446777343749
 21
384.1504516601563
 31
0.0
  0
LINE
  5
22B
330
22
100
AcDbEntity
  8
0
  6
Continuous
 62
     7
100
AcDbLine
 10
-589.2872924804687
 20
390.6504516601563
 30
0.0
 11
-582.7872924804687
 21
384.1504516601563
 31
0.0
  0
LINE
  5
22C
330
22
100
AcDbEntity
  8
0
  6
Continuous
 62
     7
100
AcDbLine
 10
-593.0991821289062
 20
390.2196960449219
 30
0.0
 11
-587.0299682617187
 21
384.1504516601563
 31
0.0
  0
LINE
  5
22D
330
22
100
AcDbEntity
  8
0
  6
Continuous
 62
     7
100
AcDbLine
 10
-593.0991821289062
 20
385.9770812988281
 30
0.0
 11
-591.2725830078125
 21
384.1504516601563
 31
0.0
  0
LINE
  5
22E
330
22
100
AcDbEntity
  8
0
  6
Continuous
 62
     7
100
AcDbLine
 10
-459.8867797851562
 20
390.6504516601563
 30
0.0
 11
-458.0992126464844
 21
388.8628845214844
 31
0.0
  0
LINE
  5
22F
330
22
100
AcDbEntity
  8
0
  6
Continuous
 62
     7
100
AcDbLine
 10
-462.3861389160156
 20
388.9071655273438
 30
0.0
 11
-458.1080627441406
 21
384.6290893554688
 31
0.0
  0
LINE
  5
230
330
22
100
AcDbEntity
  8
0
  6
Continuous
 62
     7
100
AcDbLine
 10
-462.892822265625
 20
385.1712341308594
 30
0.0
 11
-461.3720703124999
 21
383.6504516601563
 31
0.0
  0
LINE
  5
231
330
22
100
AcDbEntity
  8
0
  6
Continuous
 62
     7
100
AcDbLine
 10
-472.6147155761719
 20
390.6504516601563
 30
0.0
 11
-467.3928222656249
 21
385.4285888671875
 31
0.0
  0
LINE
  5
232
330
22
100
AcDbEntity
  8
0
  6
Continuous
 62
     7
100
AcDbLine
 10
-469.9039001464844
 20
383.697021484375
 30
0.0
 11
-469.8573303222656
 21
383.6504516601563
 31
0.0
  0
LINE
  5
233
330
22
100
AcDbEntity
  8
0
  6
Continuous
 62
     7
100
AcDbLine
 10
-476.8573303222656
 20
390.6504516601563
 30
0.0
 11
-470.3573303222656
 21
384.1504516601563
 31
0.0
  0
LINE
  5
234
330
22
100
AcDbEntity
  8
0
  6
Continuous
 62
     7
100
AcDbLine
 10
-481.0999755859374
 20
390.6504516601563
 30
0.0
 11
-474.5999755859375
 21
384.1504516601563
 31
0.0
  0
LINE
  5
235
330
22
100
AcDbEntity
  8
0
  6
Continuous
 62
     7
100
AcDbLine
 10
-485.3426208496093
 20
390.6504516601563
 30
0.0
 11
-478.8426208496093
 21
384.1504516601563
 31
0.0
  0
LINE
  5
236
330
22
100
AcDbEntity
  8
0
  6
Continuous
 62
     7
100
AcDbLine
 10
-489.5852661132813
 20
390.6504516601563
 30
0.0
 11
-483.0852661132813
 21
384.1504516601563
 31
0.0
  0
LINE
  5
237
330
22
100
AcDbEntity
  8
0
  6
Continuous
 62
     7
100
AcDbLine
 10
-493.8279113769531
 20
390.6504516601563
 30
0.0
 11
-487.3279113769531
 21
384.1504516601563
 31
0.0
  0
LINE
  5
238
330
22
100
AcDbEntity
  8
0
  6
Continuous
 62
     7
100
AcDbLine
 10
-498.070556640625
 20
390.6504516601563
 30
0.0
 11
-491.5705566406249
 21
384.1504516601563
 31
0.0
  0
LINE
  5
239
330
22
100
AcDbEntity
  8
0
  6
Continuous
 62
     7
100
AcDbLine
 10
-502.3131713867187
 20
390.6504516601563
 30
0.0
 11
-495.8131713867188
 21
384.1504516601563
 31
0.0
  0
LINE
  5
23A
330
22
100
AcDbEntity
  8
0
  6
Continuous
 62
     7
100
AcDbLine
 10
-506.5558166503906
 20
390.6504516601563
 30
0.0
 11
-500.0558166503906
 21
384.1504516601563
 31
0.0
  0
LINE
  5
23B
330
22
100
AcDbEntity
  8
0
  6
Continuous
 62
     7
100
AcDbLine
 10
-510.7984619140625
 20
390.6504516601563
 30
0.0
 11
-504.2984619140624
 21
384.1504516601563
 31
0.0
  0
LINE
  5
23C
330
22
100
AcDbEntity
  8
0
  6
Continuous
 62
     7
100
AcDbLine
 10
-515.0411376953124
 20
390.6504516601563
 30
0.0
 11
-508.5411071777343
 21
384.1504516601563
 31
0.0
  0
LINE
  5
23D
330
22
100
AcDbEntity
  8
0
  6
Continuous
 62
     7
100
AcDbLine
 10
-519.2837524414064
 20
390.6504516601563
 30
0.0
 11
-512.7837524414063
 21
384.1504516601563
 31
0.0
  0
LINE
  5
23E
330
22
100
AcDbEntity
  8
0
  6
Continuous
 62
     7
100
AcDbLine
 10
-523.5263671874999
 20
390.6504516601563
 30
0.0
 11
-517.0263671875
 21
384.1504516601563
 31
0.0
  0
LINE
  5
23F
330
22
100
AcDbEntity
  8
0
  6
Continuous
 62
     7
100
AcDbLine
 10
-527.76904296875
 20
390.6504516601563
 30
0.0
 11
-521.26904296875
 21
384.1504516601563
 31
0.0
  0
LINE
  5
240
330
22
100
AcDbEntity
  8
0
  6
Continuous
 62
     7
100
AcDbLine
 10
-532.0116577148438
 20
390.6504516601563
 30
0.0
 11
-525.5116577148438
 21
384.1504516601563
 31
0.0
  0
LINE
  5
241
330
22
100
AcDbEntity
  8
0
  6
Continuous
 62
     7
100
AcDbLine
 10
-536.2543334960938
 20
390.6504516601563
 30
0.0
 11
-529.7543334960939
 21
384.1504516601563
 31
0.0
  0
LINE
  5
242
330
22
100
AcDbEntity
  8
0
  6
Continuous
 62
     7
100
AcDbLine
 10
-540.4969482421875
 20
390.6504516601563
 30
0.0
 11
-533.9969482421874
 21
384.1504516601563
 31
0.0
  0
LINE
  5
243
330
22
100
AcDbEntity
  8
0
  6
Continuous
 62
     7
100
AcDbLine
 10
-544.7395629882813
 20
390.6504516601563
 30
0.0
 11
-538.2395629882814
 21
384.1504516601563
 31
0.0
  0
LINE
  5
244
330
22
100
AcDbEntity
  8
0
  6
Continuous
 62
     7
100
AcDbLine
 10
-548.9822387695313
 20
390.6504516601563
 30
0.0
 11
-542.4822387695313
 21
384.1504516601563
 31
0.0
  0
LINE
  5
245
330
22
100
AcDbEntity
  8
0
  6
Continuous
 62
     7
100
AcDbLine
 10
-553.224853515625
 20
390.6504516601563
 30
0.0
 11
-546.724853515625
 21
384.1504516601563
 31
0.0
  0
LINE
  5
246
330
22
100
AcDbEntity
  8
0
  6
Continuous
 62
     7
100
AcDbLine
 10
-557.4675292968749
 20
390.6504516601563
 30
0.0
 11
-550.967529296875
 21
384.1504516601563
 31
0.0
  0
LINE
  5
247
330
22
100
AcDbEntity
  8
0
  6
Continuous
 62
     7
100
AcDbLine
 10
-561.7101440429689
 20
390.6504516601563
 30
0.0
 11
-555.2101440429688
 21
384.1504516601563
 31
0.0
  0
LINE
  5
248
330
22
100
AcDbEntity
  8
0
  6
Continuous
 62
     7
100
AcDbLine
 10
-565.9528198242187
 20
390.6504516601563
 30
0.0
 11
-559.4528198242188
 21
384.1504516601563
 31
0.0
  0
LINE
  5
249
330
22
100
AcDbEntity
  8
0
  6
Continuous
 62
     7
100
AcDbLine
 10
-570.1954345703125
 20
390.6504516601563
 30
0.0
 11
-563.6954345703125
 21
384.1504516601563
 31
0.0
  0
LINE
  5
24A
330
22
100
AcDbEntity
  8
0
  6
Continuous
 62
     7
100
AcDbLine
 10
-574.4380493164062
 20
390.6504516601563
 30
0.0
 11
-567.9380493164062
 21
384.1504516601563
 31
0.0
  0
LINE
  5
24B
330
22
100
AcDbEntity
  8
0
  6
Continuous
 62
     7
100
AcDbLine
 10
-578.6807250976562
 20
390.6504516601563
 30
0.0
 11
-572.1807250976562
 21
384.1504516601563
 31
0.0
  0
LINE
  5
24C
330
22
100
AcDbEntity
  8
0
  6
Continuous
 62
     7
100
AcDbLine
 10
-582.92333984375
 20
390.6504516601563
 30
0.0
 11
-576.4233398437499
 21
384.1504516601563
 31
0.0
  0
LINE
  5
24D
330
22
100
AcDbEntity
  8
0
  6
Continuous
 62
     7
100
AcDbLine
 10
-587.1660156249999
 20
390.6504516601563
 30
0.0
 11
-580.666015625
 21
384.1504516601563
 31
0.0
  0
LINE
  5
24E
330
22
100
AcDbEntity
  8
0
  6
Continuous
 62
     7
100
AcDbLine
 10
-591.4086303710937
 20
390.6504516601563
 30
0.0
 11
-584.9086303710937
 21
384.1504516601563
 31
0.0
  0
LINE
  5
24F
330
22
100
AcDbEntity
  8
0
  6
Continuous
 62
     7
100
AcDbLine
 10
-593.0991821289062
 20
388.098388671875
 30
0.0
 11
-589.1513061523437
 21
384.1504516601563
 31
0.0
  0
LINE
  5
250
330
22
100
AcDbEntity
  8
0
  6
Continuous
 62
     7
100
AcDbLine
 10
-593.0991821289062
 20
384.1504516601563
 30
0.0
 11
-470.0992126464844
 21
384.1504516601563
 31
0.0
  0
LINE
  5
251
330
22
100
AcDbEntity
  8
0
  6
Continuous
 62
     7
100
AcDbLine
 10
-458.0992126464844
 20
390.6504516601563
 30
0.0
 11
-593.0991821289062
 21
390.6504516601563
 31
0.0
  0
LINE
  5
252
330
22
100
AcDbEntity
  8
0
  6
Continuous
 62
     7
100
AcDbLine
 10
-539.5991821289063
 20
317.8299560546875
 30
0.0
 11
-593.0991821289062
 21
317.8299560546875
 31
0.0
  0
LINE
  5
253
330
22
100
AcDbEntity
  8
0
  6
Continuous
 62
     7
100
AcDbLine
 10
-593.0991821289062
 20
383.6504516601563
 30
0.0
 11
-459.0992126464843
 21
383.6504516601563
 31
0.0
  0
LINE
  5
254
330
22
100
AcDbEntity
  8
0
  6
Continuous
 62
     7
100
AcDbLine
 10
-475.5045166015625
 20
361.1863708496094
 30
0.0
 11
-593.0991821289062
 21
361.1863708496094
 31
0.0
  0
LINE
  5
255
330
22
100
AcDbEntity
  8
0
  6
Continuous
 62
     7
100
AcDbLine
 10
-593.0991821289062
 20
308.1504516601563
 30
0.0
 11
-538.8937377929688
 21
308.1504516601563
 31
0.0
  0
LINE
  5
256
330
22
100
AcDbEntity
  8
0
  6
Continuous
 62
     7
100
AcDbLine
 10
-540.4652099609375
 20
320.539794921875
 30
0.0
 11
-593.0991821289062
 21
320.539794921875
 31
0.0
  0
LINE
  5
257
330
22
100
AcDbEntity
  8
0
  6
DASHED
 62
     7
100
AcDbLine
 10
-465.0992126464843
 20
732.7423706054688
 30
0.0
 11
-463.5992126464843
 21
732.7423706054688
 31
0.0
  0
LINE
  5
258
330
22
100
AcDbEntity
  8
0
  6
CENTER
 62
     7
100
AcDbLine
 10
-465.0992126464843
 20
743.4564208984375
 30
0.0
 11
-465.0992126464843
 21
732.079345703125
 31
0.0
  0
LINE
  5
259
330
22
100
AcDbEntity
  8
0
  6
Continuous
 62
     7
100
AcDbLine
 10
-467.8604125976563
 20
739.9600219726562
 30
0.0
 11
-466.1804504394531
 21
737.7423706054687
 31
0.0
  0
LINE
  5
25A
330
22
100
AcDbEntity
  8
0
  6
Continuous
 62
     7
100
AcDbLine
 10
-462.8815307617188
 20
734.9811401367187
 30
0.0
 11
-465.0992126464843
 21
736.6611328124999
 31
0.0
  0
LINE
  5
25B
330
22
100
AcDbEntity
  8
0
  6
Continuous
 62
     7
100
AcDbLine
 10
-467.3314819335938
 20
734.9661865234375
 30
0.0
 11
-465.0992126464843
 21
736.6611328124999
 31
0.0
  0
LINE
  5
25C
330
22
100
AcDbEntity
  8
0
  6
Continuous
 62
     7
100
AcDbLine
 10
-462.8815307617188
 20
734.9811401367187
 30
0.0
 11
-462.6097717285156
 21
735.2529296874999
 31
0.0
  0
LINE
  5
25D
330
22
100
AcDbEntity
  8
0
  6
Continuous
 62
     7
100
AcDbLine
 10
-462.3230285644531
 20
739.974609375
 30
0.0
 11
-464.0179748535156
 21
737.7423706054687
 31
0.0
  0
LINE
  5
25E
330
22
100
AcDbEntity
  8
0
  6
Continuous
 62
     7
100
AcDbLine
 10
-462.5949707031249
 20
740.24658203125
 30
0.0
 11
-462.3230285644531
 21
739.974609375
 31
0.0
  0
LINE
  5
25F
330
22
100
AcDbEntity
  8
0
  6
Continuous
 62
     7
100
AcDbLine
 10
-462.3230285644531
 20
739.974609375
 30
0.0
 11
-464.0179748535156
 21
737.7423706054687
 31
0.0
  0
LINE
  5
260
330
22
100
AcDbEntity
  8
0
  6
Continuous
 62
     7
100
AcDbLine
 10
-462.5949707031249
 20
740.24658203125
 30
0.0
 11
-462.8669433593749
 21
740.5185546874999
 31
0.0
  0
LINE
  5
261
330
22
100
AcDbEntity
  8
0
  6
Continuous
 62
     7
100
AcDbLine
 10
-467.3168945312499
 20
740.5035400390625
 30
0.0
 11
-465.0992126464843
 21
738.8236083984375
 31
0.0
  0
LINE
  5
262
330
22
100
AcDbEntity
  8
0
  6
Continuous
 62
     7
100
AcDbLine
 10
-467.8604125976563
 20
739.9600219726562
 30
0.0
 11
-466.1804504394531
 21
737.7423706054687
 31
0.0
  0
LINE
  5
263
330
22
100
AcDbEntity
  8
0
  6
Continuous
 62
     7
100
AcDbLine
 10
-467.8604125976563
 20
739.9600219726562
 30
0.0
 11
-467.5886535644531
 21
740.2318115234375
 31
0.0
  0
LINE
  5
264
330
22
100
AcDbEntity
  8
0
  6
Continuous
 62
     7
100
AcDbLine
 10
-467.3168945312499
 20
740.5035400390625
 30
0.0
 11
-467.5886535644531
 21
740.2318115234375
 31
0.0
  0
LINE
  5
265
330
22
100
AcDbEntity
  8
0
  6
Continuous
 62
     7
100
AcDbLine
 10
-467.8604125976563
 20
739.9600219726562
 30
0.0
 11
-467.5886535644531
 21
740.2318115234375
 31
0.0
  0
LINE
  5
266
330
22
100
AcDbEntity
  8
0
  6
Continuous
 62
     7
100
AcDbLine
 10
-462.5949707031249
 20
740.24658203125
 30
0.0
 11
-462.3230285644531
 21
739.974609375
 31
0.0
  0
LINE
  5
267
330
22
100
AcDbEntity
  8
0
  6
Continuous
 62
     7
100
AcDbLine
 10
-462.8669433593749
 20
740.5185546874999
 30
0.0
 11
-465.0992126464843
 21
738.8236083984375
 31
0.0
  0
LINE
  5
268
330
22
100
AcDbEntity
  8
0
  6
Continuous
 62
     7
100
AcDbLine
 10
-467.3314819335938
 20
734.9661865234375
 30
0.0
 11
-465.0992126464843
 21
736.6611328124999
 31
0.0
  0
LINE
  5
269
330
22
100
AcDbEntity
  8
0
  6
Continuous
 62
     7
100
AcDbLine
 10
-467.3168945312499
 20
740.5035400390625
 30
0.0
 11
-467.5886535644531
 21
740.2318115234375
 31
0.0
  0
LINE
  5
26A
330
22
100
AcDbEntity
  8
0
  6
Continuous
 62
     7
100
AcDbLine
 10
-462.8815307617188
 20
734.9811401367187
 30
0.0
 11
-465.0992126464843
 21
736.6611328124999
 31
0.0
  0
LINE
  5
26B
330
22
100
AcDbEntity
  8
0
  6
Continuous
 62
     7
100
AcDbLine
 10
-462.3380126953125
 20
735.524658203125
 30
0.0
 11
-464.0179748535156
 21
737.7423706054687
 31
0.0
  0
LINE
  5
26C
330
22
100
AcDbEntity
  8
0
  6
Continuous
 62
     7
100
AcDbLine
 10
-467.8753967285156
 20
735.5100708007812
 30
0.0
 11
-466.1804504394531
 21
737.7423706054687
 31
0.0
  0
LINE
  5
26D
330
22
100
AcDbEntity
  8
0
  6
Continuous
 62
     7
100
AcDbLine
 10
-462.3380126953125
 20
735.524658203125
 30
0.0
 11
-462.6097717285156
 21
735.2529296874999
 31
0.0
  0
LINE
  5
26E
330
22
100
AcDbEntity
  8
0
  6
Continuous
 62
     7
100
AcDbLine
 10
-467.3168945312499
 20
740.5035400390625
 30
0.0
 11
-465.0992126464843
 21
738.8236083984375
 31
0.0
  0
LINE
  5
26F
330
22
100
AcDbEntity
  8
0
  6
Continuous
 62
     7
100
AcDbLine
 10
-462.5949707031249
 20
740.24658203125
 30
0.0
 11
-462.8669433593749
 21
740.5185546874999
 31
0.0
  0
LINE
  5
270
330
22
100
AcDbEntity
  8
0
  6
Continuous
 62
     7
100
AcDbLine
 10
-462.8669433593749
 20
740.5185546874999
 30
0.0
 11
-465.0992126464843
 21
738.8236083984375
 31
0.0
  0
LINE
  5
271
330
22
100
AcDbEntity
  8
0
  6
Continuous
 62
     7
100
AcDbLine
 10
-462.3380126953125
 20
735.524658203125
 30
0.0
 11
-464.0179748535156
 21
737.7423706054687
 31
0.0
  0
LINE
  5
272
330
22
100
AcDbEntity
  8
0
  6
Continuous
 62
     7
100
AcDbLine
 10
-462.3380126953125
 20
735.524658203125
 30
0.0
 11
-462.6097717285156
 21
735.2529296874999
 31
0.0
  0
LINE
  5
273
330
22
100
AcDbEntity
  8
0
  6
Continuous
 62
     7
100
AcDbLine
 10
-462.8815307617188
 20
734.9811401367187
 30
0.0
 11
-462.6097717285156
 21
735.2529296874999
 31
0.0
  0
LINE
  5
274
330
22
100
AcDbEntity
  8
0
  6
Continuous
 62
     7
100
AcDbLine
 10
-467.6034240722656
 20
735.2381591796874
 30
0.0
 11
-467.3314819335938
 21
734.9661865234375
 31
0.0
  0
LINE
  5
275
330
22
100
AcDbEntity
  8
0
  6
Continuous
 62
     7
100
AcDbLine
 10
-467.6034240722656
 20
735.2381591796874
 30
0.0
 11
-467.8753967285156
 21
735.5100708007812
 31
0.0
  0
LINE
  5
276
330
22
100
AcDbEntity
  8
0
  6
Continuous
 62
     7
100
AcDbLine
 10
-467.6034240722656
 20
735.2381591796874
 30
0.0
 11
-467.8753967285156
 21
735.5100708007812
 31
0.0
  0
LINE
  5
277
330
22
100
AcDbEntity
  8
0
  6
Continuous
 62
     7
100
AcDbLine
 10
-467.6034240722656
 20
735.2381591796874
 30
0.0
 11
-467.3314819335938
 21
734.9661865234375
 31
0.0
  0
LINE
  5
278
330
22
100
AcDbEntity
  8
0
  6
Continuous
 62
     7
100
AcDbLine
 10
-467.8753967285156
 20
735.5100708007812
 30
0.0
 11
-466.1804504394531
 21
737.7423706054687
 31
0.0
  0
LINE
  5
279
330
22
100
AcDbEntity
  8
0
  6
CENTER
 62
     7
100
AcDbLine
 10
-459.278839111328
 20
737.7423706054687
 30
0.0
 11
-471.4496765136718
 21
737.7423706054687
 31
0.0
  0
LINE
  5
27A
330
22
100
AcDbEntity
  8
0
  6
DASHED
 62
     7
100
AcDbLine
 10
-470.0992126464844
 20
737.7423706054687
 30
0.0
 11
-470.0992126464844
 21
739.2423706054687
 31
0.0
  0
LINE
  5
27B
330
22
100
AcDbEntity
  8
0
  6
Continuous
 62
     7
100
AcDbLine
 10
-519.0991821289063
 20
692.2423706054687
 30
0.0
 11
-519.0991821289063
 21
661.2423706054687
 31
0.0
  0
LINE
  5
27C
330
22
100
AcDbEntity
  8
0
  6
Continuous
 62
     7
100
AcDbLine
 10
-509.0992126464843
 20
713.2423706054687
 30
0.0
 11
-509.0992126464843
 21
682.2423706054687
 31
0.0
  0
LINE
  5
27D
330
22
100
AcDbEntity
  8
0
  6
Continuous
 62
     7
100
AcDbLine
 10
-514.0991821289063
 20
713.2423706054687
 30
0.0
 11
-514.0991821289063
 21
682.2423706054687
 31
0.0
  0
LINE
  5
27E
330
22
100
AcDbEntity
  8
0
  6
Continuous
 62
     7
100
AcDbLine
 10
-494.0992126464843
 20
713.2423706054687
 30
0.0
 11
-494.0992126464843
 21
682.2423706054687
 31
0.0
  0
LINE
  5
27F
330
22
100
AcDbEntity
  8
0
  6
Continuous
 62
     7
100
AcDbLine
 10
-504.0992126464844
 20
692.2423706054687
 30
0.0
 11
-504.0992126464844
 21
661.2423706054687
 31
0.0
  0
LINE
  5
280
330
22
100
AcDbEntity
  8
0
  6
Continuous
 62
     7
100
AcDbLine
 10
-484.0992126464843
 20
692.2423706054687
 30
0.0
 11
-484.0992126464843
 21
661.2423706054687
 31
0.0
  0
LINE
  5
281
330
22
100
AcDbEntity
  8
0
  6
Continuous
 62
     7
100
AcDbLine
 10
-479.0992126464844
 20
692.2423706054687
 30
0.0
 11
-479.0992126464844
 21
661.2423706054687
 31
0.0
  0
LINE
  5
282
330
22
100
AcDbEntity
  8
0
  6
Continuous
 62
     7
100
AcDbLine
 10
-474.0992126464844
 20
713.2423706054687
 30
0.0
 11
-474.0992126464844
 21
682.2423706054687
 31
0.0
  0
LINE
  5
283
330
22
100
AcDbEntity
  8
0
  6
Continuous
 62
     7
100
AcDbLine
 10
-499.0992126464844
 20
692.2423706054687
 30
0.0
 11
-499.0992126464844
 21
661.2423706054687
 31
0.0
  0
LINE
  5
284
330
22
100
AcDbEntity
  8
0
  6
Continuous
 62
     7
100
AcDbLine
 10
-469.0992126464843
 20
713.2423706054687
 30
0.0
 11
-469.0992126464843
 21
682.2423706054687
 31
0.0
  0
LINE
  5
285
330
22
100
AcDbEntity
  8
0
  6
Continuous
 62
     7
100
AcDbLine
 10
-469.0992126464843
 20
590.2423706054687
 30
0.0
 11
-469.0992126464843
 21
600.2423706054687
 31
0.0
  0
LINE
  5
286
330
22
100
AcDbEntity
  8
0
  6
Continuous
 62
     7
100
AcDbLine
 10
-489.0992126464843
 20
713.2423706054687
 30
0.0
 11
-489.0992126464843
 21
682.2423706054687
 31
0.0
  0
LINE
  5
287
330
22
100
AcDbEntity
  8
0
  6
Continuous
 62
     7
100
AcDbLine
 10
-529.0991821289063
 20
713.2423706054687
 30
0.0
 11
-529.0991821289063
 21
682.2423706054687
 31
0.0
  0
LINE
  5
288
330
22
100
AcDbEntity
  8
0
  6
Continuous
 62
     7
100
AcDbLine
 10
-524.0991821289063
 20
692.2423706054687
 30
0.0
 11
-524.0991821289063
 21
661.2423706054687
 31
0.0
  0
LINE
  5
289
330
22
100
AcDbEntity
  8
0
  6
Continuous
 62
     7
100
AcDbLine
 10
-544.0991821289063
 20
692.2423706054687
 30
0.0
 11
-544.0991821289063
 21
661.2423706054687
 31
0.0
  0
LINE
  5
28A
330
22
100
AcDbEntity
  8
0
  6
Continuous
 62
     7
100
AcDbLine
 10
-539.0991821289063
 20
692.2423706054687
 30
0.0
 11
-539.0991821289063
 21
661.2423706054687
 31
0.0
  0
LINE
  5
28B
330
22
100
AcDbEntity
  8
0
  6
Continuous
 62
     7
100
AcDbLine
 10
-534.0991821289064
 20
713.2423706054687
 30
0.0
 11
-534.0991821289064
 21
682.2423706054687
 31
0.0
  0
LINE
  5
28C
330
22
100
AcDbEntity
  8
0
  6
Continuous
 62
     7
100
AcDbLine
 10
-474.0992126464844
 20
590.2423706054687
 30
0.0
 11
-474.0992126464844
 21
600.2423706054687
 31
0.0
  0
LINE
  5
28D
330
22
100
AcDbEntity
  8
0
  6
Continuous
 62
     7
100
AcDbLine
 10
-479.0992126464844
 20
569.2423706054687
 30
0.0
 11
-479.0992126464844
 21
600.2423706054687
 31
0.0
  0
LINE
  5
28E
330
22
100
AcDbEntity
  8
0
  6
Continuous
 62
     7
100
AcDbLine
 10
-462.8815307617188
 20
606.9811401367187
 30
0.0
 11
-462.6097717285156
 21
607.2529296875
 31
0.0
  0
LINE
  5
28F
330
22
100
AcDbEntity
  8
0
  6
Continuous
 62
     7
100
AcDbLine
 10
-467.3314819335938
 20
606.9661865234374
 30
0.0
 11
-465.0992126464843
 21
608.6611328125
 31
0.0
  0
LINE
  5
290
330
22
100
AcDbEntity
  8
0
  6
Continuous
 62
     7
100
AcDbLine
 10
-462.8815307617188
 20
606.9811401367187
 30
0.0
 11
-465.0992126464843
 21
608.6611328125
 31
0.0
  0
LINE
  5
291
330
22
100
AcDbEntity
  8
0
  6
Continuous
 62
     7
100
AcDbLine
 10
-467.8753967285156
 20
607.5100708007812
 30
0.0
 11
-466.1804504394531
 21
609.7423706054687
 31
0.0
  0
LINE
  5
292
330
22
100
AcDbEntity
  8
0
  6
Continuous
 62
     7
100
AcDbLine
 10
-467.6034240722656
 20
607.2381591796875
 30
0.0
 11
-467.3314819335938
 21
606.9661865234374
 31
0.0
  0
LINE
  5
293
330
22
100
AcDbEntity
  8
0
  6
Continuous
 62
     7
100
AcDbLine
 10
-467.6034240722656
 20
607.2381591796875
 30
0.0
 11
-467.8753967285156
 21
607.5100708007812
 31
0.0
  0
LINE
  5
294
330
22
100
AcDbEntity
  8
0
  6
Continuous
 62
     7
100
AcDbLine
 10
-467.6034240722656
 20
607.2381591796875
 30
0.0
 11
-467.8753967285156
 21
607.5100708007812
 31
0.0
  0
LINE
  5
295
330
22
100
AcDbEntity
  8
0
  6
Continuous
 62
     7
100
AcDbLine
 10
-467.6034240722656
 20
607.2381591796875
 30
0.0
 11
-467.3314819335938
 21
606.9661865234374
 31
0.0
  0
LINE
  5
296
330
22
100
AcDbEntity
  8
0
  6
Continuous
 62
     7
100
AcDbLine
 10
-462.8815307617188
 20
606.9811401367187
 30
0.0
 11
-462.6097717285156
 21
607.2529296875
 31
0.0
  0
LINE
  5
297
330
22
100
AcDbEntity
  8
0
  6
Continuous
 62
     7
100
AcDbLine
 10
-462.3380126953125
 20
607.5246582031249
 30
0.0
 11
-462.6097717285156
 21
607.2529296875
 31
0.0
  0
LINE
  5
298
330
22
100
AcDbEntity
  8
0
  6
Continuous
 62
     7
100
AcDbLine
 10
-462.3380126953125
 20
607.5246582031249
 30
0.0
 11
-464.0179748535156
 21
609.7423706054687
 31
0.0
  0
LINE
  5
299
330
22
100
AcDbEntity
  8
0
  6
Continuous
 62
     7
100
AcDbLine
 10
-462.3380126953125
 20
607.5246582031249
 30
0.0
 11
-462.6097717285156
 21
607.2529296875
 31
0.0
  0
LINE
  5
29A
330
22
100
AcDbEntity
  8
0
  6
Continuous
 62
     7
100
AcDbLine
 10
-467.8753967285156
 20
607.5100708007812
 30
0.0
 11
-466.1804504394531
 21
609.7423706054687
 31
0.0
  0
LINE
  5
29B
330
22
100
AcDbEntity
  8
0
  6
Continuous
 62
     7
100
AcDbLine
 10
-467.3314819335938
 20
606.9661865234374
 30
0.0
 11
-465.0992126464843
 21
608.6611328125
 31
0.0
  0
LINE
  5
29C
330
22
100
AcDbEntity
  8
0
  6
Continuous
 62
     7
100
AcDbLine
 10
-462.3230285644531
 20
611.9746093749999
 30
0.0
 11
-464.0179748535156
 21
609.7423706054687
 31
0.0
  0
LINE
  5
29D
330
22
100
AcDbEntity
  8
0
  6
Continuous
 62
     7
100
AcDbLine
 10
-467.8604125976563
 20
611.9600219726562
 30
0.0
 11
-466.1804504394531
 21
609.7423706054687
 31
0.0
  0
LINE
  5
29E
330
22
100
AcDbEntity
  8
0
  6
Continuous
 62
     7
100
AcDbLine
 10
-462.8669433593749
 20
612.5185546875
 30
0.0
 11
-465.0992126464843
 21
610.8236083984374
 31
0.0
  0
LINE
  5
29F
330
22
100
AcDbEntity
  8
0
  6
Continuous
 62
     7
100
AcDbLine
 10
-462.3380126953125
 20
607.5246582031249
 30
0.0
 11
-464.0179748535156
 21
609.7423706054687
 31
0.0
  0
LINE
  5
2A0
330
22
100
AcDbEntity
  8
0
  6
Continuous
 62
     7
100
AcDbLine
 10
-462.8815307617188
 20
606.9811401367187
 30
0.0
 11
-465.0992126464843
 21
608.6611328125
 31
0.0
  0
LINE
  5
2A1
330
22
100
AcDbEntity
  8
0
  6
DASHED
 62
     7
100
AcDbLine
 10
-465.0992126464843
 20
604.7423706054687
 30
0.0
 11
-463.5992126464843
 21
604.7423706054687
 31
0.0
  0
LINE
  5
2A2
330
22
100
AcDbEntity
  8
0
  6
Continuous
 62
     7
100
AcDbLine
 10
-494.0992126464843
 20
590.2423706054687
 30
0.0
 11
-494.0992126464843
 21
600.2423706054687
 31
0.0
  0
LINE
  5
2A3
330
22
100
AcDbEntity
  8
0
  6
Continuous
 62
     7
100
AcDbLine
 10
-534.0991821289064
 20
590.2423706054687
 30
0.0
 11
-534.0991821289064
 21
600.2423706054687
 31
0.0
  0
LINE
  5
2A4
330
22
100
AcDbEntity
  8
0
  6
Continuous
 62
     7
100
AcDbLine
 10
-499.0992126464844
 20
569.2423706054687
 30
0.0
 11
-499.0992126464844
 21
600.2423706054687
 31
0.0
  0
LINE
  5
2A5
330
22
100
AcDbEntity
  8
0
  6
Continuous
 62
     7
100
AcDbLine
 10
-544.0991821289063
 20
569.2423706054687
 30
0.0
 11
-544.0991821289063
 21
600.2423706054687
 31
0.0
  0
LINE
  5
2A6
330
22
100
AcDbEntity
  8
0
  6
Continuous
 62
     7
100
AcDbLine
 10
-462.5949707031249
 20
612.2465820312499
 30
0.0
 11
-462.8669433593749
 21
612.5185546875
 31
0.0
  0
LINE
  5
2A7
330
22
100
AcDbEntity
  8
0
  6
Continuous
 62
     7
100
AcDbLine
 10
-467.3168945312499
 20
612.5035400390625
 30
0.0
 11
-465.0992126464843
 21
610.8236083984374
 31
0.0
  0
LINE
  5
2A8
330
22
100
AcDbEntity
  8
0
  6
Continuous
 62
     7
100
AcDbLine
 10
-467.3168945312499
 20
612.5035400390625
 30
0.0
 11
-467.5886535644531
 21
612.2318115234374
 31
0.0
  0
LINE
  5
2A9
330
22
100
AcDbEntity
  8
0
  6
Continuous
 62
     7
100
AcDbLine
 10
-462.8669433593749
 20
612.5185546875
 30
0.0
 11
-465.0992126464843
 21
610.8236083984374
 31
0.0
  0
LINE
  5
2AA
330
22
100
AcDbEntity
  8
0
  6
Continuous
 62
     7
100
AcDbLine
 10
-462.5949707031249
 20
612.2465820312499
 30
0.0
 11
-462.3230285644531
 21
611.9746093749999
 31
0.0
  0
LINE
  5
2AB
330
22
100
AcDbEntity
  8
0
  6
Continuous
 62
     7
100
AcDbLine
 10
-467.8604125976563
 20
611.9600219726562
 30
0.0
 11
-467.5886535644531
 21
612.2318115234374
 31
0.0
  0
LINE
  5
2AC
330
22
100
AcDbEntity
  8
0
  6
Continuous
 62
     7
100
AcDbLine
 10
-467.3168945312499
 20
612.5035400390625
 30
0.0
 11
-467.5886535644531
 21
612.2318115234374
 31
0.0
  0
LINE
  5
2AD
330
22
100
AcDbEntity
  8
0
  6
Continuous
 62
     7
100
AcDbLine
 10
-467.8604125976563
 20
611.9600219726562
 30
0.0
 11
-467.5886535644531
 21
612.2318115234374
 31
0.0
  0
LINE
  5
2AE
330
22
100
AcDbEntity
  8
0
  6
Continuous
 62
     7
100
AcDbLine
 10
-467.8604125976563
 20
611.9600219726562
 30
0.0
 11
-466.1804504394531
 21
609.7423706054687
 31
0.0
  0
LINE
  5
2AF
330
22
100
AcDbEntity
  8
0
  6
Continuous
 62
     7
100
AcDbLine
 10
-467.3168945312499
 20
612.5035400390625
 30
0.0
 11
-465.0992126464843
 21
610.8236083984374
 31
0.0
  0
LINE
  5
2B0
330
22
100
AcDbEntity
  8
0
  6
Continuous
 62
     7
100
AcDbLine
 10
-462.5949707031249
 20
612.2465820312499
 30
0.0
 11
-462.8669433593749
 21
612.5185546875
 31
0.0
  0
LINE
  5
2B1
330
22
100
AcDbEntity
  8
0
  6
Continuous
 62
     7
100
AcDbLine
 10
-462.3230285644531
 20
611.9746093749999
 30
0.0
 11
-464.0179748535156
 21
609.7423706054687
 31
0.0
  0
LINE
  5
2B2
330
22
100
AcDbEntity
  8
0
  6
DASHED
 62
     7
100
AcDbLine
 10
-465.0992126464843
 20
614.7423706054687
 30
0.0
 11
-463.5992126464843
 21
614.7423706054687
 31
0.0
  0
LINE
  5
2B3
330
22
100
AcDbEntity
  8
0
  6
Continuous
 62
     7
100
AcDbLine
 10
-504.0992126464844
 20
569.2423706054687
 30
0.0
 11
-504.0992126464844
 21
600.2423706054687
 31
0.0
  0
LINE
  5
2B4
330
22
100
AcDbEntity
  8
0
  6
Continuous
 62
     7
100
AcDbLine
 10
-524.0991821289063
 20
569.2423706054687
 30
0.0
 11
-524.0991821289063
 21
600.2423706054687
 31
0.0
  0
LINE
  5
2B5
330
22
100
AcDbEntity
  8
0
  6
Continuous
 62
     7
100
AcDbLine
 10
-519.0991821289063
 20
569.2423706054687
 30
0.0
 11
-519.0991821289063
 21
600.2423706054687
 31
0.0
  0
LINE
  5
2B6
330
22
100
AcDbEntity
  8
0
  6
Continuous
 62
     7
100
AcDbLine
 10
-529.0991821289063
 20
590.2423706054687
 30
0.0
 11
-529.0991821289063
 21
600.2423706054687
 31
0.0
  0
LINE
  5
2B7
330
22
100
AcDbEntity
  8
0
  6
Continuous
 62
     7
100
AcDbLine
 10
-539.0991821289063
 20
569.2423706054687
 30
0.0
 11
-539.0991821289063
 21
600.2423706054687
 31
0.0
  0
LINE
  5
2B8
330
22
100
AcDbEntity
  8
0
  6
Continuous
 62
     7
100
AcDbLine
 10
-514.0991821289063
 20
590.2423706054687
 30
0.0
 11
-514.0991821289063
 21
600.2423706054687
 31
0.0
  0
LINE
  5
2B9
330
22
100
AcDbEntity
  8
0
  6
Continuous
 62
     7
100
AcDbLine
 10
-484.0992126464843
 20
569.2423706054687
 30
0.0
 11
-484.0992126464843
 21
600.2423706054687
 31
0.0
  0
LINE
  5
2BA
330
22
100
AcDbEntity
  8
0
  6
Continuous
 62
     7
100
AcDbLine
 10
-462.5949707031249
 20
612.2465820312499
 30
0.0
 11
-462.3230285644531
 21
611.9746093749999
 31
0.0
  0
LINE
  5
2BB
330
22
100
AcDbEntity
  8
0
  6
Continuous
 62
     7
100
AcDbLine
 10
-509.0992126464843
 20
590.2423706054687
 30
0.0
 11
-509.0992126464843
 21
600.2423706054687
 31
0.0
  0
LINE
  5
2BC
330
22
100
AcDbEntity
  8
0
  6
Continuous
 62
     7
100
AcDbLine
 10
-467.8604125976563
 20
483.9600219726563
 30
0.0
 11
-466.1804504394531
 21
481.7423706054688
 31
0.0
  0
LINE
  5
2BD
330
22
100
AcDbEntity
  8
0
  6
Continuous
 62
     7
100
AcDbLine
 10
-469.0992126464843
 20
628.9174804687499
 30
0.0
 11
-469.0992126464843
 21
619.2423706054687
 31
0.0
  0
LINE
  5
2BE
330
22
100
AcDbEntity
  8
0
  6
Continuous
 62
     7
100
AcDbLine
 10
-474.0992126464844
 20
628.9174804687499
 30
0.0
 11
-474.0992126464844
 21
619.2423706054687
 31
0.0
  0
LINE
  5
2BF
330
22
100
AcDbEntity
  8
0
  6
Continuous
 62
     7
100
AcDbLine
 10
-534.0991821289064
 20
628.9174804687499
 30
0.0
 11
-534.0991821289064
 21
619.2423706054687
 31
0.0
  0
LINE
  5
2C0
330
22
100
AcDbEntity
  8
0
  6
Continuous
 62
     7
100
AcDbLine
 10
-489.0992126464843
 20
628.9174804687499
 30
0.0
 11
-489.0992126464843
 21
619.2423706054687
 31
0.0
  0
LINE
  5
2C1
330
22
100
AcDbEntity
  8
0
  6
Continuous
 62
     7
100
AcDbLine
 10
-509.0992126464843
 20
628.9174804687499
 30
0.0
 11
-509.0992126464843
 21
619.2423706054687
 31
0.0
  0
LINE
  5
2C2
330
22
100
AcDbEntity
  8
0
  6
Continuous
 62
     7
100
AcDbLine
 10
-514.0991821289063
 20
628.9174804687499
 30
0.0
 11
-514.0991821289063
 21
619.2423706054687
 31
0.0
  0
LINE
  5
2C3
330
22
100
AcDbEntity
  8
0
  6
Continuous
 62
     7
100
AcDbLine
 10
-494.0992126464843
 20
628.9174804687499
 30
0.0
 11
-494.0992126464843
 21
619.2423706054687
 31
0.0
  0
LINE
  5
2C4
330
22
100
AcDbEntity
  8
0
  6
Continuous
 62
     7
100
AcDbLine
 10
-529.0991821289063
 20
628.9174804687499
 30
0.0
 11
-529.0991821289063
 21
619.2423706054687
 31
0.0
  0
LINE
  5
2C5
330
22
100
AcDbEntity
  8
0
  6
CENTER
 62
     7
100
AcDbLine
 10
-465.0992126464843
 20
603.9219970703125
 30
0.0
 11
-465.0992126464843
 21
616.0928344726563
 31
0.0
  0
LINE
  5
2C6
330
22
100
AcDbEntity
  8
0
  6
Continuous
 62
     7
100
AcDbLine
 10
-489.0992126464843
 20
590.2423706054687
 30
0.0
 11
-489.0992126464843
 21
600.2423706054687
 31
0.0
  0
LINE
  5
2C7
330
22
100
AcDbEntity
  8
0
  6
Continuous
 62
     7
100
AcDbLine
 10
-467.8604125976563
 20
483.9600219726563
 30
0.0
 11
-467.5886535644531
 21
484.2317810058593
 31
0.0
  0
LINE
  5
2C8
330
22
100
AcDbEntity
  8
0
  6
Continuous
 62
     7
100
AcDbLine
 10
-467.3168945312499
 20
484.5035705566406
 30
0.0
 11
-467.5886535644531
 21
484.2317810058593
 31
0.0
  0
LINE
  5
2C9
330
22
100
AcDbEntity
  8
0
  6
Continuous
 62
     7
100
AcDbLine
 10
-467.8604125976563
 20
483.9600219726563
 30
0.0
 11
-467.5886535644531
 21
484.2317810058593
 31
0.0
  0
LINE
  5
2CA
330
22
100
AcDbEntity
  8
0
  6
Continuous
 62
     7
100
AcDbLine
 10
-462.8815307617188
 20
478.9811706542969
 30
0.0
 11
-465.0992126464843
 21
480.6611022949218
 31
0.0
  0
LINE
  5
2CB
330
22
100
AcDbEntity
  8
0
  6
Continuous
 62
     7
100
AcDbLine
 10
-462.3380126953125
 20
479.5246887207031
 30
0.0
 11
-464.0179748535156
 21
481.7423706054688
 31
0.0
  0
LINE
  5
2CC
330
22
100
AcDbEntity
  8
0
  6
Continuous
 62
     7
100
AcDbLine
 10
-462.5949707031249
 20
484.24658203125
 30
0.0
 11
-462.3230285644531
 21
483.974609375
 31
0.0
  0
LINE
  5
2CD
330
22
100
AcDbEntity
  8
0
  6
Continuous
 62
     7
100
AcDbLine
 10
-462.8669433593749
 20
484.5185546875
 30
0.0
 11
-465.0992126464843
 21
482.8236083984375
 31
0.0
  0
LINE
  5
2CE
330
22
100
AcDbEntity
  8
0
  6
Continuous
 62
     7
100
AcDbLine
 10
-467.3314819335938
 20
478.9661560058593
 30
0.0
 11
-465.0992126464843
 21
480.6611022949218
 31
0.0
  0
LINE
  5
2CF
330
22
100
AcDbEntity
  8
0
  6
Continuous
 62
     7
100
AcDbLine
 10
-467.3168945312499
 20
484.5035705566406
 30
0.0
 11
-467.5886535644531
 21
484.2317810058593
 31
0.0
  0
LINE
  5
2D0
330
22
100
AcDbEntity
  8
0
  6
CENTER
 62
     7
100
AcDbLine
 10
-459.278839111328
 20
481.7423706054688
 30
0.0
 11
-471.4496765136718
 21
481.7423706054688
 31
0.0
  0
LINE
  5
2D1
330
22
100
AcDbEntity
  8
0
  6
CENTER
 62
     7
100
AcDbLine
 10
-465.0992126464843
 20
476.0282897949219
 30
0.0
 11
-465.0992126464843
 21
487.4053649902343
 31
0.0
  0
LINE
  5
2D2
330
22
100
AcDbEntity
  8
0
  6
DASHED
 62
     7
100
AcDbLine
 10
-465.0992126464843
 20
486.7423706054688
 30
0.0
 11
-463.5992126464843
 21
486.7423706054688
 31
0.0
  0
LINE
  5
2D3
330
22
100
AcDbEntity
  8
0
  6
DASHED
 62
     7
100
AcDbLine
 10
-470.0992126464844
 20
481.7423706054688
 30
0.0
 11
-470.0992126464844
 21
480.2423706054688
 31
0.0
  0
LINE
  5
2D4
330
22
100
AcDbEntity
  8
0
  6
Continuous
 62
     7
100
AcDbLine
 10
-467.3168945312499
 20
484.5035705566406
 30
0.0
 11
-465.0992126464843
 21
482.8236083984375
 31
0.0
  0
LINE
  5
2D5
330
22
100
AcDbEntity
  8
0
  6
Continuous
 62
     7
100
AcDbLine
 10
-462.5949707031249
 20
484.24658203125
 30
0.0
 11
-462.8669433593749
 21
484.5185546875
 31
0.0
  0
LINE
  5
2D6
330
22
100
AcDbEntity
  8
0
  6
Continuous
 62
     7
100
AcDbLine
 10
-462.8669433593749
 20
484.5185546875
 30
0.0
 11
-465.0992126464843
 21
482.8236083984375
 31
0.0
  0
LINE
  5
2D7
330
22
100
AcDbEntity
  8
0
  6
Continuous
 62
     7
100
AcDbLine
 10
-467.3168945312499
 20
484.5035705566406
 30
0.0
 11
-465.0992126464843
 21
482.8236083984375
 31
0.0
  0
LINE
  5
2D8
330
22
100
AcDbEntity
  8
0
  6
Continuous
 62
     7
100
AcDbLine
 10
-474.0992126464844
 20
506.2423706054688
 30
0.0
 11
-474.0992126464844
 21
537.2423706054688
 31
0.0
  0
LINE
  5
2D9
330
22
100
AcDbEntity
  8
0
  6
Continuous
 62
     7
100
AcDbLine
 10
-474.0992126464844
 20
490.2423706054688
 30
0.0
 11
-474.0992126464844
 21
495.2423706054688
 31
0.0
  0
LINE
  5
2DA
330
22
100
AcDbEntity
  8
0
  6
Continuous
 62
     7
100
AcDbLine
 10
-479.0992126464844
 20
485.2423706054688
 30
0.0
 11
-479.0992126464844
 21
516.2423706054688
 31
0.0
  0
LINE
  5
2DB
330
22
100
AcDbEntity
  8
0
  6
Continuous
 62
     7
100
AcDbLine
 10
-467.8753967285156
 20
479.5101013183593
 30
0.0
 11
-466.1804504394531
 21
481.7423706054688
 31
0.0
  0
LINE
  5
2DC
330
22
100
AcDbEntity
  8
0
  6
Continuous
 62
     7
100
AcDbLine
 10
-462.3380126953125
 20
479.5246887207031
 30
0.0
 11
-462.6097717285156
 21
479.2529296875
 31
0.0
  0
LINE
  5
2DD
330
22
100
AcDbEntity
  8
0
  6
Continuous
 62
     7
100
AcDbLine
 10
-462.3380126953125
 20
479.5246887207031
 30
0.0
 11
-464.0179748535156
 21
481.7423706054688
 31
0.0
  0
LINE
  5
2DE
330
22
100
AcDbEntity
  8
0
  6
Continuous
 62
     7
100
AcDbLine
 10
-462.3380126953125
 20
479.5246887207031
 30
0.0
 11
-462.6097717285156
 21
479.2529296875
 31
0.0
  0
LINE
  5
2DF
330
22
100
AcDbEntity
  8
0
  6
Continuous
 62
     7
100
AcDbLine
 10
-462.8815307617188
 20
478.9811706542969
 30
0.0
 11
-462.6097717285156
 21
479.2529296875
 31
0.0
  0
LINE
  5
2E0
330
22
100
AcDbEntity
  8
0
  6
Continuous
 62
     7
100
AcDbLine
 10
-467.6034240722656
 20
479.2381286621093
 30
0.0
 11
-467.3314819335938
 21
478.9661560058593
 31
0.0
  0
LINE
  5
2E1
330
22
100
AcDbEntity
  8
0
  6
Continuous
 62
     7
100
AcDbLine
 10
-467.6034240722656
 20
479.2381286621093
 30
0.0
 11
-467.8753967285156
 21
479.5101013183593
 31
0.0
  0
LINE
  5
2E2
330
22
100
AcDbEntity
  8
0
  6
Continuous
 62
     7
100
AcDbLine
 10
-467.6034240722656
 20
479.2381286621093
 30
0.0
 11
-467.8753967285156
 21
479.5101013183593
 31
0.0
  0
LINE
  5
2E3
330
22
100
AcDbEntity
  8
0
  6
Continuous
 62
     7
100
AcDbLine
 10
-467.6034240722656
 20
479.2381286621093
 30
0.0
 11
-467.3314819335938
 21
478.9661560058593
 31
0.0
  0
LINE
  5
2E4
330
22
100
AcDbEntity
  8
0
  6
Continuous
 62
     7
100
AcDbLine
 10
-467.8753967285156
 20
479.5101013183593
 30
0.0
 11
-466.1804504394531
 21
481.7423706054688
 31
0.0
  0
LINE
  5
2E5
330
22
100
AcDbEntity
  8
0
  6
Continuous
 62
     7
100
AcDbLine
 10
-469.0992126464843
 20
506.2423706054688
 30
0.0
 11
-469.0992126464843
 21
537.2423706054688
 31
0.0
  0
LINE
  5
2E6
330
22
100
AcDbEntity
  8
0
  6
Continuous
 62
     7
100
AcDbLine
 10
-469.0992126464843
 20
490.2423706054688
 30
0.0
 11
-469.0992126464843
 21
495.2423706054688
 31
0.0
  0
LINE
  5
2E7
330
22
100
AcDbEntity
  8
0
  6
Continuous
 62
     7
100
AcDbLine
 10
-467.8604125976563
 20
483.9600219726563
 30
0.0
 11
-466.1804504394531
 21
481.7423706054688
 31
0.0
  0
LINE
  5
2E8
330
22
100
AcDbEntity
  8
0
  6
Continuous
 62
     7
100
AcDbLine
 10
-462.8815307617188
 20
478.9811706542969
 30
0.0
 11
-465.0992126464843
 21
480.6611022949218
 31
0.0
  0
LINE
  5
2E9
330
22
100
AcDbEntity
  8
0
  6
Continuous
 62
     7
100
AcDbLine
 10
-467.3314819335938
 20
478.9661560058593
 30
0.0
 11
-465.0992126464843
 21
480.6611022949218
 31
0.0
  0
LINE
  5
2EA
330
22
100
AcDbEntity
  8
0
  6
Continuous
 62
     7
100
AcDbLine
 10
-462.8815307617188
 20
478.9811706542969
 30
0.0
 11
-462.6097717285156
 21
479.2529296875
 31
0.0
  0
LINE
  5
2EB
330
22
100
AcDbEntity
  8
0
  6
Continuous
 62
     7
100
AcDbLine
 10
-462.3230285644531
 20
483.974609375
 30
0.0
 11
-464.0179748535156
 21
481.7423706054688
 31
0.0
  0
LINE
  5
2EC
330
22
100
AcDbEntity
  8
0
  6
Continuous
 62
     7
100
AcDbLine
 10
-462.5949707031249
 20
484.24658203125
 30
0.0
 11
-462.3230285644531
 21
483.974609375
 31
0.0
  0
LINE
  5
2ED
330
22
100
AcDbEntity
  8
0
  6
Continuous
 62
     7
100
AcDbLine
 10
-462.3230285644531
 20
483.974609375
 30
0.0
 11
-464.0179748535156
 21
481.7423706054688
 31
0.0
  0
LINE
  5
2EE
330
22
100
AcDbEntity
  8
0
  6
Continuous
 62
     7
100
AcDbLine
 10
-462.5949707031249
 20
484.24658203125
 30
0.0
 11
-462.8669433593749
 21
484.5185546875
 31
0.0
  0
LINE
  5
2EF
330
22
100
AcDbEntity
  8
0
  6
Continuous
 62
     7
100
AcDbLine
 10
-524.0991821289063
 20
485.2423706054688
 30
0.0
 11
-524.0991821289063
 21
516.2423706054688
 31
0.0
  0
LINE
  5
2F0
330
22
100
AcDbEntity
  8
0
  6
Continuous
 62
     7
100
AcDbLine
 10
-519.0991821289063
 20
485.2423706054688
 30
0.0
 11
-519.0991821289063
 21
516.2423706054688
 31
0.0
  0
LINE
  5
2F1
330
22
100
AcDbEntity
  8
0
  6
Continuous
 62
     7
100
AcDbLine
 10
-509.0992126464843
 20
485.2423706054688
 30
0.0
 11
-509.0992126464843
 21
495.2423706054688
 31
0.0
  0
LINE
  5
2F2
330
22
100
AcDbEntity
  8
0
  6
Continuous
 62
     7
100
AcDbLine
 10
-514.0991821289063
 20
485.2423706054688
 30
0.0
 11
-514.0991821289063
 21
495.2423706054688
 31
0.0
  0
LINE
  5
2F3
330
22
100
AcDbEntity
  8
0
  6
Continuous
 62
     7
100
AcDbLine
 10
-534.0991821289064
 20
485.2423706054688
 30
0.0
 11
-534.0991821289064
 21
495.2423706054688
 31
0.0
  0
LINE
  5
2F4
330
22
100
AcDbEntity
  8
0
  6
Continuous
 62
     7
100
AcDbLine
 10
-514.0991821289063
 20
506.2423706054688
 30
0.0
 11
-514.0991821289063
 21
537.2423706054688
 31
0.0
  0
LINE
  5
2F5
330
22
100
AcDbEntity
  8
0
  6
Continuous
 62
     7
100
AcDbLine
 10
-509.0992126464843
 20
506.2423706054688
 30
0.0
 11
-509.0992126464843
 21
537.2423706054688
 31
0.0
  0
LINE
  5
2F6
330
22
100
AcDbEntity
  8
0
  6
Continuous
 62
     7
100
AcDbLine
 10
-529.0991821289063
 20
506.2423706054688
 30
0.0
 11
-529.0991821289063
 21
537.2423706054688
 31
0.0
  0
LINE
  5
2F7
330
22
100
AcDbEntity
  8
0
  6
Continuous
 62
     7
100
AcDbLine
 10
-534.0991821289064
 20
506.2423706054688
 30
0.0
 11
-534.0991821289064
 21
537.2423706054688
 31
0.0
  0
LINE
  5
2F8
330
22
100
AcDbEntity
  8
0
  6
Continuous
 62
     7
100
AcDbLine
 10
-484.0992126464843
 20
485.2423706054688
 30
0.0
 11
-484.0992126464843
 21
516.2423706054688
 31
0.0
  0
LINE
  5
2F9
330
22
100
AcDbEntity
  8
0
  6
Continuous
 62
     7
100
AcDbLine
 10
-494.0992126464843
 20
506.2423706054688
 30
0.0
 11
-494.0992126464843
 21
537.2423706054688
 31
0.0
  0
LINE
  5
2FA
330
22
100
AcDbEntity
  8
0
  6
DASHED
 62
     7
100
AcDbLine
 10
-588.0991821289062
 20
737.7423706054687
 30
0.0
 11
-588.0991821289062
 21
739.2423706054687
 31
0.0
  0
LINE
  5
2FB
330
22
100
AcDbEntity
  8
0
  6
Continuous
 62
     7
100
AcDbLine
 10
-489.0992126464843
 20
485.2423706054688
 30
0.0
 11
-489.0992126464843
 21
495.2423706054688
 31
0.0
  0
LINE
  5
2FC
330
22
100
AcDbEntity
  8
0
  6
Continuous
 62
     7
100
AcDbLine
 10
-489.0992126464843
 20
506.2423706054688
 30
0.0
 11
-489.0992126464843
 21
537.2423706054688
 31
0.0
  0
LINE
  5
2FD
330
22
100
AcDbEntity
  8
0
  6
Continuous
 62
     7
100
AcDbLine
 10
-539.0991821289063
 20
485.2423706054688
 30
0.0
 11
-539.0991821289063
 21
516.2423706054688
 31
0.0
  0
LINE
  5
2FE
330
22
100
AcDbEntity
  8
0
  6
Continuous
 62
     7
100
AcDbLine
 10
-544.0991821289063
 20
485.2423706054688
 30
0.0
 11
-544.0991821289063
 21
516.2423706054688
 31
0.0
  0
LINE
  5
2FF
330
22
100
AcDbEntity
  8
0
  6
Continuous
 62
     7
100
AcDbLine
 10
-499.0992126464844
 20
485.2423706054688
 30
0.0
 11
-499.0992126464844
 21
516.2423706054688
 31
0.0
  0
LINE
  5
300
330
22
100
AcDbEntity
  8
0
  6
Continuous
 62
     7
100
AcDbLine
 10
-529.0991821289063
 20
485.2423706054688
 30
0.0
 11
-529.0991821289063
 21
495.2423706054688
 31
0.0
  0
LINE
  5
301
330
22
100
AcDbEntity
  8
0
  6
Continuous
 62
     7
100
AcDbLine
 10
-494.0992126464843
 20
485.2423706054688
 30
0.0
 11
-494.0992126464843
 21
495.2423706054688
 31
0.0
  0
LINE
  5
302
330
22
100
AcDbEntity
  8
0
  6
Continuous
 62
     7
100
AcDbLine
 10
-504.0992126464844
 20
485.2423706054688
 30
0.0
 11
-504.0992126464844
 21
516.2423706054688
 31
0.0
  0
LINE
  5
303
330
22
100
AcDbEntity
  8
0
  6
Continuous
 62
     7
100
AcDbLine
 10
-595.31689453125
 20
740.5035400390625
 30
0.0
 11
-595.588623046875
 21
740.2318115234375
 31
0.0
  0
LINE
  5
304
330
22
100
AcDbEntity
  8
0
  6
Continuous
 62
     7
100
AcDbLine
 10
-595.3314819335937
 20
734.9661865234375
 30
0.0
 11
-593.0991821289062
 21
736.6611328124999
 31
0.0
  0
LINE
  5
305
330
22
100
AcDbEntity
  8
0
  6
Continuous
 62
     7
100
AcDbLine
 10
-590.8669433593749
 20
740.5185546874999
 30
0.0
 11
-593.0991821289062
 21
738.8236083984375
 31
0.0
  0
LINE
  5
306
330
22
100
AcDbEntity
  8
0
  6
CENTER
 62
     7
100
AcDbLine
 10
-598.9196166992187
 20
737.7423706054687
 30
0.0
 11
-586.7487792968749
 21
737.7423706054687
 31
0.0
  0
LINE
  5
307
330
22
100
AcDbEntity
  8
0
  6
DASHED
 62
     7
100
AcDbLine
 10
-598.0991821289062
 20
737.7423706054687
 30
0.0
 11
-598.0991821289062
 21
739.2423706054687
 31
0.0
  0
LINE
  5
308
330
22
100
AcDbEntity
  8
0
  6
Continuous
 62
     7
100
AcDbLine
 10
-590.3380126953124
 20
735.524658203125
 30
0.0
 11
-592.0179443359375
 21
737.7423706054687
 31
0.0
  0
LINE
  5
309
330
22
100
AcDbEntity
  8
0
  6
Continuous
 62
     7
100
AcDbLine
 10
-590.8815307617187
 20
734.9811401367187
 30
0.0
 11
-593.0991821289062
 21
736.6611328124999
 31
0.0
  0
LINE
  5
30A
330
22
100
AcDbEntity
  8
0
  6
Continuous
 62
     7
100
AcDbLine
 10
-595.8604125976562
 20
739.9600219726562
 30
0.0
 11
-595.588623046875
 21
740.2318115234375
 31
0.0
  0
LINE
  5
30B
330
22
100
AcDbEntity
  8
0
  6
Continuous
 62
     7
100
AcDbLine
 10
-595.31689453125
 20
740.5035400390625
 30
0.0
 11
-595.588623046875
 21
740.2318115234375
 31
0.0
  0
LINE
  5
30C
330
22
100
AcDbEntity
  8
0
  6
Continuous
 62
     7
100
AcDbLine
 10
-595.8604125976562
 20
739.9600219726562
 30
0.0
 11
-595.588623046875
 21
740.2318115234375
 31
0.0
  0
LINE
  5
30D
330
22
100
AcDbEntity
  8
0
  6
Continuous
 62
     7
100
AcDbLine
 10
-590.3380126953124
 20
735.524658203125
 30
0.0
 11
-590.6098022460937
 21
735.2529296874999
 31
0.0
  0
LINE
  5
30E
330
22
100
AcDbEntity
  8
0
  6
Continuous
 62
     7
100
AcDbLine
 10
-590.594970703125
 20
740.24658203125
 30
0.0
 11
-590.8669433593749
 21
740.5185546874999
 31
0.0
  0
LINE
  5
30F
330
22
100
AcDbEntity
  8
0
  6
Continuous
 62
     7
100
AcDbLine
 10
-590.3380126953124
 20
735.524658203125
 30
0.0
 11
-590.6098022460937
 21
735.2529296874999
 31
0.0
  0
LINE
  5
310
330
22
100
AcDbEntity
  8
0
  6
Continuous
 62
     7
100
AcDbLine
 10
-590.594970703125
 20
740.24658203125
 30
0.0
 11
-590.322998046875
 21
739.974609375
 31
0.0
  0
LINE
  5
311
330
22
100
AcDbEntity
  8
0
  6
Continuous
 62
     7
100
AcDbLine
 10
-590.594970703125
 20
740.24658203125
 30
0.0
 11
-590.8669433593749
 21
740.5185546874999
 31
0.0
  0
LINE
  5
312
330
22
100
AcDbEntity
  8
0
  6
Continuous
 62
     7
100
AcDbLine
 10
-590.594970703125
 20
740.24658203125
 30
0.0
 11
-590.322998046875
 21
739.974609375
 31
0.0
  0
LINE
  5
313
330
22
100
AcDbEntity
  8
0
  6
Continuous
 62
     7
100
AcDbLine
 10
-574.0991821289062
 20
713.2423706054687
 30
0.0
 11
-574.0991821289062
 21
682.2423706054687
 31
0.0
  0
LINE
  5
314
330
22
100
AcDbEntity
  8
0
  6
Continuous
 62
     7
100
AcDbLine
 10
-595.8604125976562
 20
739.9600219726562
 30
0.0
 11
-594.1804809570312
 21
737.7423706054687
 31
0.0
  0
LINE
  5
315
330
22
100
AcDbEntity
  8
0
  6
Continuous
 62
     7
100
AcDbLine
 10
-595.31689453125
 20
740.5035400390625
 30
0.0
 11
-593.0991821289062
 21
738.8236083984375
 31
0.0
  0
LINE
  5
316
330
22
100
AcDbEntity
  8
0
  6
Continuous
 62
     7
100
AcDbLine
 10
-590.322998046875
 20
739.974609375
 30
0.0
 11
-592.0179443359375
 21
737.7423706054687
 31
0.0
  0
LINE
  5
317
330
22
100
AcDbEntity
  8
0
  6
Continuous
 62
     7
100
AcDbLine
 10
-590.322998046875
 20
739.974609375
 30
0.0
 11
-592.0179443359375
 21
737.7423706054687
 31
0.0
  0
LINE
  5
318
330
22
100
AcDbEntity
  8
0
  6
Continuous
 62
     7
100
AcDbLine
 10
-590.8815307617187
 20
734.9811401367187
 30
0.0
 11
-590.6098022460937
 21
735.2529296874999
 31
0.0
  0
LINE
  5
319
330
22
100
AcDbEntity
  8
0
  6
Continuous
 62
     7
100
AcDbLine
 10
-595.3314819335937
 20
734.9661865234375
 30
0.0
 11
-593.0991821289062
 21
736.6611328124999
 31
0.0
  0
LINE
  5
31A
330
22
100
AcDbEntity
  8
0
  6
Continuous
 62
     7
100
AcDbLine
 10
-590.8815307617187
 20
734.9811401367187
 30
0.0
 11
-593.0991821289062
 21
736.6611328124999
 31
0.0
  0
LINE
  5
31B
330
22
100
AcDbEntity
  8
0
  6
Continuous
 62
     7
100
AcDbLine
 10
-595.8604125976562
 20
739.9600219726562
 30
0.0
 11
-594.1804809570312
 21
737.7423706054687
 31
0.0
  0
LINE
  5
31C
330
22
100
AcDbEntity
  8
0
  6
Continuous
 62
     7
100
AcDbLine
 10
-595.8754272460937
 20
735.5100708007812
 30
0.0
 11
-594.1804809570312
 21
737.7423706054687
 31
0.0
  0
LINE
  5
31D
330
22
100
AcDbEntity
  8
0
  6
Continuous
 62
     7
100
AcDbLine
 10
-595.6034545898437
 20
735.2381591796874
 30
0.0
 11
-595.3314819335937
 21
734.9661865234375
 31
0.0
  0
LINE
  5
31E
330
22
100
AcDbEntity
  8
0
  6
Continuous
 62
     7
100
AcDbLine
 10
-595.6034545898437
 20
735.2381591796874
 30
0.0
 11
-595.8754272460937
 21
735.5100708007812
 31
0.0
  0
LINE
  5
31F
330
22
100
AcDbEntity
  8
0
  6
Continuous
 62
     7
100
AcDbLine
 10
-595.6034545898437
 20
735.2381591796874
 30
0.0
 11
-595.8754272460937
 21
735.5100708007812
 31
0.0
  0
LINE
  5
320
330
22
100
AcDbEntity
  8
0
  6
Continuous
 62
     7
100
AcDbLine
 10
-595.6034545898437
 20
735.2381591796874
 30
0.0
 11
-595.3314819335937
 21
734.9661865234375
 31
0.0
  0
LINE
  5
321
330
22
100
AcDbEntity
  8
0
  6
Continuous
 62
     7
100
AcDbLine
 10
-590.8815307617187
 20
734.9811401367187
 30
0.0
 11
-590.6098022460937
 21
735.2529296874999
 31
0.0
  0
LINE
  5
322
330
22
100
AcDbEntity
  8
0
  6
Continuous
 62
     7
100
AcDbLine
 10
-590.3380126953124
 20
735.524658203125
 30
0.0
 11
-592.0179443359375
 21
737.7423706054687
 31
0.0
  0
LINE
  5
323
330
22
100
AcDbEntity
  8
0
  6
Continuous
 62
     7
100
AcDbLine
 10
-590.8669433593749
 20
740.5185546874999
 30
0.0
 11
-593.0991821289062
 21
738.8236083984375
 31
0.0
  0
LINE
  5
324
330
22
100
AcDbEntity
  8
0
  6
Continuous
 62
     7
100
AcDbLine
 10
-595.31689453125
 20
740.5035400390625
 30
0.0
 11
-593.0991821289062
 21
738.8236083984375
 31
0.0
  0
LINE
  5
325
330
22
100
AcDbEntity
  8
0
  6
Continuous
 62
     7
100
AcDbLine
 10
-595.8754272460937
 20
735.5100708007812
 30
0.0
 11
-594.1804809570312
 21
737.7423706054687
 31
0.0
  0
LINE
  5
326
330
22
100
AcDbEntity
  8
0
  6
Continuous
 62
     7
100
AcDbLine
 10
-657.0991821289062
 20
713.2423706054687
 30
0.0
 11
-657.0991821289062
 21
682.2423706054687
 31
0.0
  0
LINE
  5
327
330
22
100
AcDbEntity
  8
0
  6
Continuous
 62
     7
100
AcDbLine
 10
-672.0991821289062
 20
713.2423706054687
 30
0.0
 11
-672.0991821289062
 21
682.2423706054687
 31
0.0
  0
LINE
  5
328
330
22
100
AcDbEntity
  8
0
  6
Continuous
 62
     7
100
AcDbLine
 10
-632.0991821289062
 20
713.2423706054687
 30
0.0
 11
-632.0991821289062
 21
682.2423706054687
 31
0.0
  0
LINE
  5
329
330
22
100
AcDbEntity
  8
0
  6
Continuous
 62
     7
100
AcDbLine
 10
-637.0991821289062
 20
713.2423706054687
 30
0.0
 11
-637.0991821289062
 21
682.2423706054687
 31
0.0
  0
LINE
  5
32A
330
22
100
AcDbEntity
  8
0
  6
Continuous
 62
     7
100
AcDbLine
 10
-642.0991821289062
 20
692.2423706054687
 30
0.0
 11
-642.0991821289062
 21
661.2423706054687
 31
0.0
  0
LINE
  5
32B
330
22
100
AcDbEntity
  8
0
  6
Continuous
 62
     7
100
AcDbLine
 10
-607.0991821289062
 20
692.2423706054687
 30
0.0
 11
-607.0991821289062
 21
661.2423706054687
 31
0.0
  0
LINE
  5
32C
330
22
100
AcDbEntity
  8
0
  6
Continuous
 62
     7
100
AcDbLine
 10
-612.0991821289062
 20
713.2423706054687
 30
0.0
 11
-612.0991821289062
 21
682.2423706054687
 31
0.0
  0
LINE
  5
32D
330
22
100
AcDbEntity
  8
0
  6
Continuous
 62
     7
100
AcDbLine
 10
-602.0991821289062
 20
692.2423706054687
 30
0.0
 11
-602.0991821289062
 21
661.2423706054687
 31
0.0
  0
LINE
  5
32E
330
22
100
AcDbEntity
  8
0
  6
Continuous
 62
     7
100
AcDbLine
 10
-559.0991821289064
 20
692.2423706054687
 30
0.0
 11
-559.0991821289064
 21
661.2423706054687
 31
0.0
  0
LINE
  5
32F
330
22
100
AcDbEntity
  8
0
  6
Continuous
 62
     7
100
AcDbLine
 10
-564.0991821289062
 20
692.2423706054687
 30
0.0
 11
-564.0991821289062
 21
661.2423706054687
 31
0.0
  0
LINE
  5
330
330
22
100
AcDbEntity
  8
0
  6
Continuous
 62
     7
100
AcDbLine
 10
-584.0991821289062
 20
692.2423706054687
 30
0.0
 11
-584.0991821289062
 21
661.2423706054687
 31
0.0
  0
LINE
  5
331
330
22
100
AcDbEntity
  8
0
  6
Continuous
 62
     7
100
AcDbLine
 10
-579.0991821289062
 20
692.2423706054687
 30
0.0
 11
-579.0991821289062
 21
661.2423706054687
 31
0.0
  0
LINE
  5
332
330
22
100
AcDbEntity
  8
0
  6
Continuous
 62
     7
100
AcDbLine
 10
-569.0991821289062
 20
713.2423706054687
 30
0.0
 11
-569.0991821289062
 21
682.2423706054687
 31
0.0
  0
LINE
  5
333
330
22
100
AcDbEntity
  8
0
  6
Continuous
 62
     7
100
AcDbLine
 10
-617.0991821289062
 20
713.2423706054687
 30
0.0
 11
-617.0991821289062
 21
682.2423706054687
 31
0.0
  0
LINE
  5
334
330
22
100
AcDbEntity
  8
0
  6
Continuous
 62
     7
100
AcDbLine
 10
-647.0991821289062
 20
692.2423706054687
 30
0.0
 11
-647.0991821289062
 21
661.2423706054687
 31
0.0
  0
LINE
  5
335
330
22
100
AcDbEntity
  8
0
  6
Continuous
 62
     7
100
AcDbLine
 10
-627.0991821289062
 20
692.2423706054687
 30
0.0
 11
-627.0991821289062
 21
661.2423706054687
 31
0.0
  0
LINE
  5
336
330
22
100
AcDbEntity
  8
0
  6
Continuous
 62
     7
100
AcDbLine
 10
-622.0991821289062
 20
692.2423706054687
 30
0.0
 11
-622.0991821289062
 21
661.2423706054687
 31
0.0
  0
LINE
  5
337
330
22
100
AcDbEntity
  8
0
  6
Continuous
 62
     7
100
AcDbLine
 10
-667.0991821289062
 20
692.2423706054687
 30
0.0
 11
-667.0991821289062
 21
661.2423706054687
 31
0.0
  0
LINE
  5
338
330
22
100
AcDbEntity
  8
0
  6
Continuous
 62
     7
100
AcDbLine
 10
-662.0991821289062
 20
692.2423706054687
 30
0.0
 11
-662.0991821289062
 21
661.2423706054687
 31
0.0
  0
LINE
  5
339
330
22
100
AcDbEntity
  8
0
  6
Continuous
 62
     7
100
AcDbLine
 10
-652.0991821289062
 20
713.2423706054687
 30
0.0
 11
-652.0991821289062
 21
682.2423706054687
 31
0.0
  0
LINE
  5
33A
330
22
100
AcDbEntity
  8
0
  6
Continuous
 62
     7
100
AcDbLine
 10
-718.8815307617187
 20
735.0067138671875
 30
0.0
 11
-721.0991821289062
 21
736.6866455078125
 31
0.0
  0
LINE
  5
33B
330
22
100
AcDbEntity
  8
0
  6
Continuous
 62
     7
100
AcDbLine
 10
-723.3314819335937
 20
734.99169921875
 30
0.0
 11
-721.0991821289062
 21
736.6866455078125
 31
0.0
  0
LINE
  5
33C
330
22
100
AcDbEntity
  8
0
  6
Continuous
 62
     7
100
AcDbLine
 10
-718.8815307617187
 20
735.0067138671875
 30
0.0
 11
-718.6098022460937
 21
735.2784423828125
 31
0.0
  0
LINE
  5
33D
330
22
100
AcDbEntity
  8
0
  6
Continuous
 62
     7
100
AcDbLine
 10
-718.322998046875
 20
740.0001220703124
 30
0.0
 11
-720.0179443359375
 21
737.7678833007812
 31
0.0
  0
LINE
  5
33E
330
22
100
AcDbEntity
  8
0
  6
Continuous
 62
     7
100
AcDbLine
 10
-718.594970703125
 20
740.2720947265625
 30
0.0
 11
-718.322998046875
 21
740.0001220703124
 31
0.0
  0
LINE
  5
33F
330
22
100
AcDbEntity
  8
0
  6
Continuous
 62
     7
100
AcDbLine
 10
-718.322998046875
 20
740.0001220703124
 30
0.0
 11
-720.0179443359375
 21
737.7678833007812
 31
0.0
  0
LINE
  5
340
330
22
100
AcDbEntity
  8
0
  6
DASHED
 62
     7
100
AcDbLine
 10
-721.0991821289062
 20
732.7423706054688
 30
0.0
 11
-722.5991821289063
 21
732.7423706054688
 31
0.0
  0
LINE
  5
341
330
22
100
AcDbEntity
  8
0
  6
CENTER
 62
     7
100
AcDbLine
 10
-721.0991821289062
 20
743.4564208984375
 30
0.0
 11
-721.0991821289062
 21
732.079345703125
 31
0.0
  0
LINE
  5
342
330
22
100
AcDbEntity
  8
0
  6
Continuous
 62
     7
100
AcDbLine
 10
-723.31689453125
 20
740.5290527343749
 30
0.0
 11
-723.588623046875
 21
740.25732421875
 31
0.0
  0
LINE
  5
343
330
22
100
AcDbEntity
  8
0
  6
CENTER
 62
     7
100
AcDbLine
 10
-726.9196166992188
 20
737.7423706054687
 30
0.0
 11
-714.748779296875
 21
737.7423706054687
 31
0.0
  0
LINE
  5
344
330
22
100
AcDbEntity
  8
0
  6
DASHED
 62
     7
100
AcDbLine
 10
-716.0991821289062
 20
737.7423706054687
 30
0.0
 11
-716.0991821289062
 21
739.2423706054687
 31
0.0
  0
LINE
  5
345
330
22
100
AcDbEntity
  8
0
  6
Continuous
 62
     7
100
AcDbLine
 10
-723.31689453125
 20
740.5290527343749
 30
0.0
 11
-721.0991821289062
 21
738.84912109375
 31
0.0
  0
LINE
  5
346
330
22
100
AcDbEntity
  8
0
  6
Continuous
 62
     7
100
AcDbLine
 10
-723.8604125976562
 20
739.9855346679687
 30
0.0
 11
-722.1804809570312
 21
737.7678833007812
 31
0.0
  0
LINE
  5
347
330
22
100
AcDbEntity
  8
0
  6
Continuous
 62
     7
100
AcDbLine
 10
-723.8604125976562
 20
739.9855346679687
 30
0.0
 11
-723.588623046875
 21
740.25732421875
 31
0.0
  0
LINE
  5
348
330
22
100
AcDbEntity
  8
0
  6
Continuous
 62
     7
100
AcDbLine
 10
-723.31689453125
 20
740.5290527343749
 30
0.0
 11
-723.588623046875
 21
740.25732421875
 31
0.0
  0
LINE
  5
349
330
22
100
AcDbEntity
  8
0
  6
Continuous
 62
     7
100
AcDbLine
 10
-723.8604125976562
 20
739.9855346679687
 30
0.0
 11
-723.588623046875
 21
740.25732421875
 31
0.0
  0
LINE
  5
34A
330
22
100
AcDbEntity
  8
0
  6
Continuous
 62
     7
100
AcDbLine
 10
-718.8815307617187
 20
735.0067138671875
 30
0.0
 11
-721.0991821289062
 21
736.6866455078125
 31
0.0
  0
LINE
  5
34B
330
22
100
AcDbEntity
  8
0
  6
Continuous
 62
     7
100
AcDbLine
 10
-718.3380126953125
 20
735.5502319335937
 30
0.0
 11
-720.0179443359375
 21
737.7678833007812
 31
0.0
  0
LINE
  5
34C
330
22
100
AcDbEntity
  8
0
  6
Continuous
 62
     7
100
AcDbLine
 10
-718.594970703125
 20
740.2720947265625
 30
0.0
 11
-718.322998046875
 21
740.0001220703124
 31
0.0
  0
LINE
  5
34D
330
22
100
AcDbEntity
  8
0
  6
Continuous
 62
     7
100
AcDbLine
 10
-718.866943359375
 20
740.5440673828125
 30
0.0
 11
-721.0991821289062
 21
738.84912109375
 31
0.0
  0
LINE
  5
34E
330
22
100
AcDbEntity
  8
0
  6
Continuous
 62
     7
100
AcDbLine
 10
-723.3314819335937
 20
734.99169921875
 30
0.0
 11
-721.0991821289062
 21
736.6866455078125
 31
0.0
  0
LINE
  5
34F
330
22
100
AcDbEntity
  8
0
  6
Continuous
 62
     7
100
AcDbLine
 10
-723.8754272460937
 20
735.53564453125
 30
0.0
 11
-722.1804809570312
 21
737.7678833007812
 31
0.0
  0
LINE
  5
350
330
22
100
AcDbEntity
  8
0
  6
Continuous
 62
     7
100
AcDbLine
 10
-718.3380126953125
 20
735.5502319335937
 30
0.0
 11
-718.6098022460937
 21
735.2784423828125
 31
0.0
  0
LINE
  5
351
330
22
100
AcDbEntity
  8
0
  6
Continuous
 62
     7
100
AcDbLine
 10
-723.31689453125
 20
740.5290527343749
 30
0.0
 11
-721.0991821289062
 21
738.84912109375
 31
0.0
  0
LINE
  5
352
330
22
100
AcDbEntity
  8
0
  6
Continuous
 62
     7
100
AcDbLine
 10
-718.594970703125
 20
740.2720947265625
 30
0.0
 11
-718.866943359375
 21
740.5440673828125
 31
0.0
  0
LINE
  5
353
330
22
100
AcDbEntity
  8
0
  6
Continuous
 62
     7
100
AcDbLine
 10
-718.866943359375
 20
740.5440673828125
 30
0.0
 11
-721.0991821289062
 21
738.84912109375
 31
0.0
  0
LINE
  5
354
330
22
100
AcDbEntity
  8
0
  6
Continuous
 62
     7
100
AcDbLine
 10
-718.3380126953125
 20
735.5502319335937
 30
0.0
 11
-720.0179443359375
 21
737.7678833007812
 31
0.0
  0
LINE
  5
355
330
22
100
AcDbEntity
  8
0
  6
Continuous
 62
     7
100
AcDbLine
 10
-718.3380126953125
 20
735.5502319335937
 30
0.0
 11
-718.6098022460937
 21
735.2784423828125
 31
0.0
  0
LINE
  5
356
330
22
100
AcDbEntity
  8
0
  6
Continuous
 62
     7
100
AcDbLine
 10
-718.8815307617187
 20
735.0067138671875
 30
0.0
 11
-718.6098022460937
 21
735.2784423828125
 31
0.0
  0
LINE
  5
357
330
22
100
AcDbEntity
  8
0
  6
Continuous
 62
     7
100
AcDbLine
 10
-723.6034545898437
 20
735.263671875
 30
0.0
 11
-723.3314819335937
 21
734.99169921875
 31
0.0
  0
LINE
  5
358
330
22
100
AcDbEntity
  8
0
  6
Continuous
 62
     7
100
AcDbLine
 10
-723.6034545898437
 20
735.263671875
 30
0.0
 11
-723.8754272460937
 21
735.53564453125
 31
0.0
  0
LINE
  5
359
330
22
100
AcDbEntity
  8
0
  6
Continuous
 62
     7
100
AcDbLine
 10
-723.6034545898437
 20
735.263671875
 30
0.0
 11
-723.8754272460937
 21
735.53564453125
 31
0.0
  0
LINE
  5
35A
330
22
100
AcDbEntity
  8
0
  6
Continuous
 62
     7
100
AcDbLine
 10
-723.8604125976562
 20
739.9855346679687
 30
0.0
 11
-722.1804809570312
 21
737.7678833007812
 31
0.0
  0
LINE
  5
35B
330
22
100
AcDbEntity
  8
0
  6
Continuous
 62
     7
100
AcDbLine
 10
-682.0991821289062
 20
692.2423706054687
 30
0.0
 11
-682.0991821289062
 21
661.2423706054687
 31
0.0
  0
LINE
  5
35C
330
22
100
AcDbEntity
  8
0
  6
Continuous
 62
     7
100
AcDbLine
 10
-687.0991821289062
 20
692.2423706054687
 30
0.0
 11
-687.0991821289062
 21
661.2423706054687
 31
0.0
  0
LINE
  5
35D
330
22
100
AcDbEntity
  8
0
  6
Continuous
 62
     7
100
AcDbLine
 10
-702.0991821289062
 20
692.2423706054687
 30
0.0
 11
-702.0991821289062
 21
661.2423706054687
 31
0.0
  0
LINE
  5
35E
330
22
100
AcDbEntity
  8
0
  6
Continuous
 62
     7
100
AcDbLine
 10
-717.0991821289062
 20
713.2423706054687
 30
0.0
 11
-717.0991821289062
 21
682.2423706054687
 31
0.0
  0
LINE
  5
35F
330
22
100
AcDbEntity
  8
0
  6
Continuous
 62
     7
100
AcDbLine
 10
-707.0991821289062
 20
692.2423706054687
 30
0.0
 11
-707.0991821289062
 21
661.2423706054687
 31
0.0
  0
LINE
  5
360
330
22
100
AcDbEntity
  8
0
  6
Continuous
 62
     7
100
AcDbLine
 10
-697.0991821289062
 20
713.2423706054687
 30
0.0
 11
-697.0991821289062
 21
682.2423706054687
 31
0.0
  0
LINE
  5
361
330
22
100
AcDbEntity
  8
0
  6
Continuous
 62
     7
100
AcDbLine
 10
-692.0991821289062
 20
713.2423706054687
 30
0.0
 11
-692.0991821289062
 21
682.2423706054687
 31
0.0
  0
LINE
  5
362
330
22
100
AcDbEntity
  8
0
  6
Continuous
 62
     7
100
AcDbLine
 10
-712.0991821289062
 20
713.2423706054687
 30
0.0
 11
-712.0991821289062
 21
682.2423706054687
 31
0.0
  0
LINE
  5
363
330
22
100
AcDbEntity
  8
0
  6
Continuous
 62
     7
100
AcDbLine
 10
-723.6034545898437
 20
735.263671875
 30
0.0
 11
-723.3314819335937
 21
734.99169921875
 31
0.0
  0
LINE
  5
364
330
22
100
AcDbEntity
  8
0
  6
Continuous
 62
     7
100
AcDbLine
 10
-723.8754272460937
 20
735.53564453125
 30
0.0
 11
-722.1804809570312
 21
737.7678833007812
 31
0.0
  0
LINE
  5
365
330
22
100
AcDbEntity
  8
0
  6
Continuous
 62
     7
100
AcDbLine
 10
-718.594970703125
 20
740.2720947265625
 30
0.0
 11
-718.866943359375
 21
740.5440673828125
 31
0.0
  0
LINE
  5
366
330
22
100
AcDbEntity
  8
0
  6
Continuous
 62
     7
100
AcDbLine
 10
-602.0991821289062
 20
569.2423706054687
 30
0.0
 11
-602.0991821289062
 21
600.2423706054687
 31
0.0
  0
LINE
  5
367
330
22
100
AcDbEntity
  8
0
  6
Continuous
 62
     7
100
AcDbLine
 10
-559.0991821289064
 20
569.2423706054687
 30
0.0
 11
-559.0991821289064
 21
600.2423706054687
 31
0.0
  0
LINE
  5
368
330
22
100
AcDbEntity
  8
0
  6
Continuous
 62
     7
100
AcDbLine
 10
-569.0991821289062
 20
590.2423706054687
 30
0.0
 11
-569.0991821289062
 21
600.2423706054687
 31
0.0
  0
LINE
  5
369
330
22
100
AcDbEntity
  8
0
  6
Continuous
 62
     7
100
AcDbLine
 10
-579.0991821289062
 20
569.2423706054687
 30
0.0
 11
-579.0991821289062
 21
600.2423706054687
 31
0.0
  0
LINE
  5
36A
330
22
100
AcDbEntity
  8
0
  6
Continuous
 62
     7
100
AcDbLine
 10
-584.0991821289062
 20
569.2423706054687
 30
0.0
 11
-584.0991821289062
 21
600.2423706054687
 31
0.0
  0
LINE
  5
36B
330
22
100
AcDbEntity
  8
0
  6
Continuous
 62
     7
100
AcDbLine
 10
-564.0991821289062
 20
569.2423706054687
 30
0.0
 11
-564.0991821289062
 21
600.2423706054687
 31
0.0
  0
LINE
  5
36C
330
22
100
AcDbEntity
  8
0
  6
Continuous
 62
     7
100
AcDbLine
 10
-574.0991821289062
 20
590.2423706054687
 30
0.0
 11
-574.0991821289062
 21
600.2423706054687
 31
0.0
  0
LINE
  5
36D
330
22
100
AcDbEntity
  8
0
  6
Continuous
 62
     7
100
AcDbLine
 10
-662.0991821289062
 20
569.2423706054687
 30
0.0
 11
-662.0991821289062
 21
600.2423706054687
 31
0.0
  0
LINE
  5
36E
330
22
100
AcDbEntity
  8
0
  6
Continuous
 62
     7
100
AcDbLine
 10
-647.0991821289062
 20
569.2423706054687
 30
0.0
 11
-647.0991821289062
 21
600.2423706054687
 31
0.0
  0
LINE
  5
36F
330
22
100
AcDbEntity
  8
0
  6
Continuous
 62
     7
100
AcDbLine
 10
-652.0991821289062
 20
590.5671997070312
 30
0.0
 11
-652.0991821289062
 21
600.2423706054687
 31
0.0
  0
LINE
  5
370
330
22
100
AcDbEntity
  8
0
  6
Continuous
 62
     7
100
AcDbLine
 10
-657.0991821289062
 20
590.5671997070312
 30
0.0
 11
-657.0991821289062
 21
600.2423706054687
 31
0.0
  0
LINE
  5
371
330
22
100
AcDbEntity
  8
0
  6
Continuous
 62
     7
100
AcDbLine
 10
-622.0991821289062
 20
569.2423706054687
 30
0.0
 11
-622.0991821289062
 21
600.2423706054687
 31
0.0
  0
LINE
  5
372
330
22
100
AcDbEntity
  8
0
  6
Continuous
 62
     7
100
AcDbLine
 10
-627.0991821289062
 20
569.2423706054687
 30
0.0
 11
-627.0991821289062
 21
600.2423706054687
 31
0.0
  0
LINE
  5
373
330
22
100
AcDbEntity
  8
0
  6
Continuous
 62
     7
100
AcDbLine
 10
-637.0991821289062
 20
590.5671997070312
 30
0.0
 11
-637.0991821289062
 21
600.2423706054687
 31
0.0
  0
LINE
  5
374
330
22
100
AcDbEntity
  8
0
  6
Continuous
 62
     7
100
AcDbLine
 10
-672.0991821289062
 20
590.5671997070312
 30
0.0
 11
-672.0991821289062
 21
600.2423706054687
 31
0.0
  0
LINE
  5
375
330
22
100
AcDbEntity
  8
0
  6
Continuous
 62
     7
100
AcDbLine
 10
-612.0991821289062
 20
590.5671997070312
 30
0.0
 11
-612.0991821289062
 21
600.2423706054687
 31
0.0
  0
LINE
  5
376
330
22
100
AcDbEntity
  8
0
  6
Continuous
 62
     7
100
AcDbLine
 10
-607.0991821289062
 20
569.2423706054687
 30
0.0
 11
-607.0991821289062
 21
600.2423706054687
 31
0.0
  0
LINE
  5
377
330
22
100
AcDbEntity
  8
0
  6
Continuous
 62
     7
100
AcDbLine
 10
-617.0991821289062
 20
628.9174804687499
 30
0.0
 11
-617.0991821289062
 21
619.2423706054687
 31
0.0
  0
LINE
  5
378
330
22
100
AcDbEntity
  8
0
  6
Continuous
 62
     7
100
AcDbLine
 10
-637.0991821289062
 20
628.9174804687499
 30
0.0
 11
-637.0991821289062
 21
619.2423706054687
 31
0.0
  0
LINE
  5
379
330
22
100
AcDbEntity
  8
0
  6
Continuous
 62
     7
100
AcDbLine
 10
-652.0991821289062
 20
628.9174804687499
 30
0.0
 11
-652.0991821289062
 21
619.2423706054687
 31
0.0
  0
LINE
  5
37A
330
22
100
AcDbEntity
  8
0
  6
Continuous
 62
     7
100
AcDbLine
 10
-672.0991821289062
 20
628.9174804687499
 30
0.0
 11
-672.0991821289062
 21
619.2423706054687
 31
0.0
  0
LINE
  5
37B
330
22
100
AcDbEntity
  8
0
  6
Continuous
 62
     7
100
AcDbLine
 10
-657.0991821289062
 20
628.9174804687499
 30
0.0
 11
-657.0991821289062
 21
619.2423706054687
 31
0.0
  0
LINE
  5
37C
330
22
100
AcDbEntity
  8
0
  6
Continuous
 62
     7
100
AcDbLine
 10
-632.0991821289062
 20
628.9174804687499
 30
0.0
 11
-632.0991821289062
 21
619.2423706054687
 31
0.0
  0
LINE
  5
37D
330
22
100
AcDbEntity
  8
0
  6
Continuous
 62
     7
100
AcDbLine
 10
-574.0991821289062
 20
628.9174804687499
 30
0.0
 11
-574.0991821289062
 21
619.2423706054687
 31
0.0
  0
LINE
  5
37E
330
22
100
AcDbEntity
  8
0
  6
Continuous
 62
     7
100
AcDbLine
 10
-569.0991821289062
 20
628.9174804687499
 30
0.0
 11
-569.0991821289062
 21
619.2423706054687
 31
0.0
  0
LINE
  5
37F
330
22
100
AcDbEntity
  8
0
  6
Continuous
 62
     7
100
AcDbLine
 10
-612.0991821289062
 20
628.9174804687499
 30
0.0
 11
-612.0991821289062
 21
619.2423706054687
 31
0.0
  0
LINE
  5
380
330
22
100
AcDbEntity
  8
0
  6
Continuous
 62
     7
100
AcDbLine
 10
-642.0991821289062
 20
569.2423706054687
 30
0.0
 11
-642.0991821289062
 21
600.2423706054687
 31
0.0
  0
LINE
  5
381
330
22
100
AcDbEntity
  8
0
  6
Continuous
 62
     7
100
AcDbLine
 10
-632.0991821289062
 20
590.5671997070312
 30
0.0
 11
-632.0991821289062
 21
600.2423706054687
 31
0.0
  0
LINE
  5
382
330
22
100
AcDbEntity
  8
0
  6
Continuous
 62
     7
100
AcDbLine
 10
-667.0991821289062
 20
569.2423706054687
 30
0.0
 11
-667.0991821289062
 21
600.2423706054687
 31
0.0
  0
LINE
  5
383
330
22
100
AcDbEntity
  8
0
  6
Continuous
 62
     7
100
AcDbLine
 10
-574.0991821289062
 20
506.2423706054688
 30
0.0
 11
-574.0991821289062
 21
537.2423706054688
 31
0.0
  0
LINE
  5
384
330
22
100
AcDbEntity
  8
0
  6
Continuous
 62
     7
100
AcDbLine
 10
-574.0991821289062
 20
485.2423706054688
 30
0.0
 11
-574.0991821289062
 21
495.2423706054688
 31
0.0
  0
LINE
  5
385
330
22
100
AcDbEntity
  8
0
  6
Continuous
 62
     7
100
AcDbLine
 10
-569.0991821289062
 20
506.2423706054688
 30
0.0
 11
-569.0991821289062
 21
537.2423706054688
 31
0.0
  0
LINE
  5
386
330
22
100
AcDbEntity
  8
0
  6
Continuous
 62
     7
100
AcDbLine
 10
-569.0991821289062
 20
485.2423706054688
 30
0.0
 11
-569.0991821289062
 21
495.2423706054688
 31
0.0
  0
LINE
  5
387
330
22
100
AcDbEntity
  8
0
  6
Continuous
 62
     7
100
AcDbLine
 10
-579.0991821289062
 20
485.2423706054688
 30
0.0
 11
-579.0991821289062
 21
516.2423706054688
 31
0.0
  0
LINE
  5
388
330
22
100
AcDbEntity
  8
0
  6
Continuous
 62
     7
100
AcDbLine
 10
-584.0991821289062
 20
485.2423706054688
 30
0.0
 11
-584.0991821289062
 21
516.2423706054688
 31
0.0
  0
LINE
  5
389
330
22
100
AcDbEntity
  8
0
  6
Continuous
 62
     7
100
AcDbLine
 10
-564.0991821289062
 20
485.2423706054688
 30
0.0
 11
-564.0991821289062
 21
516.2423706054688
 31
0.0
  0
LINE
  5
38A
330
22
100
AcDbEntity
  8
0
  6
Continuous
 62
     7
100
AcDbLine
 10
-590.594970703125
 20
484.24658203125
 30
0.0
 11
-590.322998046875
 21
483.974609375
 31
0.0
  0
LINE
  5
38B
330
22
100
AcDbEntity
  8
0
  6
Continuous
 62
     7
100
AcDbLine
 10
-590.3380126953124
 20
479.5246887207031
 30
0.0
 11
-590.6098022460937
 21
479.2529296875
 31
0.0
  0
LINE
  5
38C
330
22
100
AcDbEntity
  8
0
  6
Continuous
 62
     7
100
AcDbLine
 10
-590.3380126953124
 20
479.5246887207031
 30
0.0
 11
-590.6098022460937
 21
479.2529296875
 31
0.0
  0
LINE
  5
38D
330
22
100
AcDbEntity
  8
0
  6
DASHED
 62
     7
100
AcDbLine
 10
-588.0991821289062
 20
481.7423706054688
 30
0.0
 11
-588.0991821289062
 21
480.2423706054688
 31
0.0
  0
LINE
  5
38E
330
22
100
AcDbEntity
  8
0
  6
Continuous
 62
     7
100
AcDbLine
 10
-617.0991821289062
 20
590.5671997070312
 30
0.0
 11
-617.0991821289062
 21
600.2423706054687
 31
0.0
  0
LINE
  5
38F
330
22
100
AcDbEntity
  8
0
  6
Continuous
 62
     7
100
AcDbLine
 10
-595.8604125976562
 20
483.9600219726563
 30
0.0
 11
-594.1804809570312
 21
481.7423706054688
 31
0.0
  0
LINE
  5
390
330
22
100
AcDbEntity
  8
0
  6
Continuous
 62
     7
100
AcDbLine
 10
-590.8815307617187
 20
478.9811706542969
 30
0.0
 11
-593.0991821289062
 21
480.6611022949218
 31
0.0
  0
LINE
  5
391
330
22
100
AcDbEntity
  8
0
  6
Continuous
 62
     7
100
AcDbLine
 10
-595.3314819335937
 20
478.9661560058593
 30
0.0
 11
-593.0991821289062
 21
480.6611022949218
 31
0.0
  0
LINE
  5
392
330
22
100
AcDbEntity
  8
0
  6
Continuous
 62
     7
100
AcDbLine
 10
-590.8815307617187
 20
478.9811706542969
 30
0.0
 11
-590.6098022460937
 21
479.2529296875
 31
0.0
  0
LINE
  5
393
330
22
100
AcDbEntity
  8
0
  6
Continuous
 62
     7
100
AcDbLine
 10
-590.322998046875
 20
483.974609375
 30
0.0
 11
-592.0179443359375
 21
481.7423706054688
 31
0.0
  0
LINE
  5
394
330
22
100
AcDbEntity
  8
0
  6
Continuous
 62
     7
100
AcDbLine
 10
-612.0991821289062
 20
485.2423706054688
 30
0.0
 11
-612.0991821289062
 21
495.2423706054688
 31
0.0
  0
LINE
  5
395
330
22
100
AcDbEntity
  8
0
  6
Continuous
 62
     7
100
AcDbLine
 10
-612.0991821289062
 20
506.2423706054688
 30
0.0
 11
-612.0991821289062
 21
537.2423706054688
 31
0.0
  0
LINE
  5
396
330
22
100
AcDbEntity
  8
0
  6
Continuous
 62
     7
100
AcDbLine
 10
-607.0991821289062
 20
485.2423706054688
 30
0.0
 11
-607.0991821289062
 21
516.2423706054688
 31
0.0
  0
LINE
  5
397
330
22
100
AcDbEntity
  8
0
  6
CENTER
 62
     7
100
AcDbLine
 10
-598.9196166992187
 20
481.7423706054688
 30
0.0
 11
-586.7487792968749
 21
481.7423706054688
 31
0.0
  0
LINE
  5
398
330
22
100
AcDbEntity
  8
0
  6
Continuous
 62
     7
100
AcDbLine
 10
-602.0991821289062
 20
485.2423706054688
 30
0.0
 11
-602.0991821289062
 21
516.2423706054688
 31
0.0
  0
LINE
  5
399
330
22
100
AcDbEntity
  8
0
  6
DASHED
 62
     7
100
AcDbLine
 10
-598.0991821289062
 20
481.7423706054688
 30
0.0
 11
-598.0991821289062
 21
480.2423706054688
 31
0.0
  0
LINE
  5
39A
330
22
100
AcDbEntity
  8
0
  6
Continuous
 62
     7
100
AcDbLine
 10
-595.31689453125
 20
484.5035705566406
 30
0.0
 11
-593.0991821289062
 21
482.8236083984375
 31
0.0
  0
LINE
  5
39B
330
22
100
AcDbEntity
  8
0
  6
Continuous
 62
     7
100
AcDbLine
 10
-595.8604125976562
 20
483.9600219726563
 30
0.0
 11
-594.1804809570312
 21
481.7423706054688
 31
0.0
  0
LINE
  5
39C
330
22
100
AcDbEntity
  8
0
  6
Continuous
 62
     7
100
AcDbLine
 10
-559.0991821289064
 20
485.2423706054688
 30
0.0
 11
-559.0991821289064
 21
516.2423706054688
 31
0.0
  0
LINE
  5
39D
330
22
100
AcDbEntity
  8
0
  6
Continuous
 62
     7
100
AcDbLine
 10
-590.594970703125
 20
484.24658203125
 30
0.0
 11
-590.8669433593749
 21
484.5185546875
 31
0.0
  0
LINE
  5
39E
330
22
100
AcDbEntity
  8
0
  6
Continuous
 62
     7
100
AcDbLine
 10
-590.594970703125
 20
484.24658203125
 30
0.0
 11
-590.322998046875
 21
483.974609375
 31
0.0
  0
LINE
  5
39F
330
22
100
AcDbEntity
  8
0
  6
Continuous
 62
     7
100
AcDbLine
 10
-590.594970703125
 20
484.24658203125
 30
0.0
 11
-590.8669433593749
 21
484.5185546875
 31
0.0
  0
LINE
  5
3A0
330
22
100
AcDbEntity
  8
0
  6
Continuous
 62
     7
100
AcDbLine
 10
-672.0991821289062
 20
506.2423706054688
 30
0.0
 11
-672.0991821289062
 21
537.2423706054688
 31
0.0
  0
LINE
  5
3A1
330
22
100
AcDbEntity
  8
0
  6
Continuous
 62
     7
100
AcDbLine
 10
-672.0991821289062
 20
485.2423706054688
 30
0.0
 11
-672.0991821289062
 21
495.2423706054688
 31
0.0
  0
LINE
  5
3A2
330
22
100
AcDbEntity
  8
0
  6
Continuous
 62
     7
100
AcDbLine
 10
-622.0991821289062
 20
485.2423706054688
 30
0.0
 11
-622.0991821289062
 21
516.2423706054688
 31
0.0
  0
LINE
  5
3A3
330
22
100
AcDbEntity
  8
0
  6
Continuous
 62
     7
100
AcDbLine
 10
-590.322998046875
 20
483.974609375
 30
0.0
 11
-592.0179443359375
 21
481.7423706054688
 31
0.0
  0
LINE
  5
3A4
330
22
100
AcDbEntity
  8
0
  6
Continuous
 62
     7
100
AcDbLine
 10
-595.8604125976562
 20
483.9600219726563
 30
0.0
 11
-595.588623046875
 21
484.2317810058593
 31
0.0
  0
LINE
  5
3A5
330
22
100
AcDbEntity
  8
0
  6
Continuous
 62
     7
100
AcDbLine
 10
-595.31689453125
 20
484.5035705566406
 30
0.0
 11
-595.588623046875
 21
484.2317810058593
 31
0.0
  0
LINE
  5
3A6
330
22
100
AcDbEntity
  8
0
  6
Continuous
 62
     7
100
AcDbLine
 10
-595.8604125976562
 20
483.9600219726563
 30
0.0
 11
-595.588623046875
 21
484.2317810058593
 31
0.0
  0
LINE
  5
3A7
330
22
100
AcDbEntity
  8
0
  6
Continuous
 62
     7
100
AcDbLine
 10
-590.8815307617187
 20
478.9811706542969
 30
0.0
 11
-593.0991821289062
 21
480.6611022949218
 31
0.0
  0
LINE
  5
3A8
330
22
100
AcDbEntity
  8
0
  6
Continuous
 62
     7
100
AcDbLine
 10
-590.3380126953124
 20
479.5246887207031
 30
0.0
 11
-592.0179443359375
 21
481.7423706054688
 31
0.0
  0
LINE
  5
3A9
330
22
100
AcDbEntity
  8
0
  6
Continuous
 62
     7
100
AcDbLine
 10
-590.8669433593749
 20
484.5185546875
 30
0.0
 11
-593.0991821289062
 21
482.8236083984375
 31
0.0
  0
LINE
  5
3AA
330
22
100
AcDbEntity
  8
0
  6
Continuous
 62
     7
100
AcDbLine
 10
-595.3314819335937
 20
478.9661560058593
 30
0.0
 11
-593.0991821289062
 21
480.6611022949218
 31
0.0
  0
LINE
  5
3AB
330
22
100
AcDbEntity
  8
0
  6
Continuous
 62
     7
100
AcDbLine
 10
-595.31689453125
 20
484.5035705566406
 30
0.0
 11
-595.588623046875
 21
484.2317810058593
 31
0.0
  0
LINE
  5
3AC
330
22
100
AcDbEntity
  8
0
  6
Continuous
 62
     7
100
AcDbLine
 10
-595.8754272460937
 20
479.5101013183593
 30
0.0
 11
-594.1804809570312
 21
481.7423706054688
 31
0.0
  0
LINE
  5
3AD
330
22
100
AcDbEntity
  8
0
  6
Continuous
 62
     7
100
AcDbLine
 10
-590.8669433593749
 20
484.5185546875
 30
0.0
 11
-593.0991821289062
 21
482.8236083984375
 31
0.0
  0
LINE
  5
3AE
330
22
100
AcDbEntity
  8
0
  6
Continuous
 62
     7
100
AcDbLine
 10
-590.3380126953124
 20
479.5246887207031
 30
0.0
 11
-592.0179443359375
 21
481.7423706054688
 31
0.0
  0
LINE
  5
3AF
330
22
100
AcDbEntity
  8
0
  6
Continuous
 62
     7
100
AcDbLine
 10
-590.8815307617187
 20
478.9811706542969
 30
0.0
 11
-590.6098022460937
 21
479.2529296875
 31
0.0
  0
LINE
  5
3B0
330
22
100
AcDbEntity
  8
0
  6
Continuous
 62
     7
100
AcDbLine
 10
-595.6034545898437
 20
479.2381286621093
 30
0.0
 11
-595.3314819335937
 21
478.9661560058593
 31
0.0
  0
LINE
  5
3B1
330
22
100
AcDbEntity
  8
0
  6
Continuous
 62
     7
100
AcDbLine
 10
-595.6034545898437
 20
479.2381286621093
 30
0.0
 11
-595.8754272460937
 21
479.5101013183593
 31
0.0
  0
LINE
  5
3B2
330
22
100
AcDbEntity
  8
0
  6
Continuous
 62
     7
100
AcDbLine
 10
-595.6034545898437
 20
479.2381286621093
 30
0.0
 11
-595.8754272460937
 21
479.5101013183593
 31
0.0
  0
LINE
  5
3B3
330
22
100
AcDbEntity
  8
0
  6
Continuous
 62
     7
100
AcDbLine
 10
-595.31689453125
 20
484.5035705566406
 30
0.0
 11
-593.0991821289062
 21
482.8236083984375
 31
0.0
  0
LINE
  5
3B4
330
22
100
AcDbEntity
  8
0
  6
Continuous
 62
     7
100
AcDbLine
 10
-595.6034545898437
 20
479.2381286621093
 30
0.0
 11
-595.3314819335937
 21
478.9661560058593
 31
0.0
  0
LINE
  5
3B5
330
22
100
AcDbEntity
  8
0
  6
Continuous
 62
     7
100
AcDbLine
 10
-595.8754272460937
 20
479.5101013183593
 30
0.0
 11
-594.1804809570312
 21
481.7423706054688
 31
0.0
  0
LINE
  5
3B6
330
22
100
AcDbEntity
  8
0
  6
Continuous
 62
     7
100
AcDbLine
 10
-652.0991821289062
 20
485.2423706054688
 30
0.0
 11
-652.0991821289062
 21
495.2423706054688
 31
0.0
  0
LINE
  5
3B7
330
22
100
AcDbEntity
  8
0
  6
Continuous
 62
     7
100
AcDbLine
 10
-627.0991821289062
 20
485.2423706054688
 30
0.0
 11
-627.0991821289062
 21
516.2423706054688
 31
0.0
  0
LINE
  5
3B8
330
22
100
AcDbEntity
  8
0
  6
Continuous
 62
     7
100
AcDbLine
 10
-652.0991821289062
 20
506.2423706054688
 30
0.0
 11
-652.0991821289062
 21
537.2423706054688
 31
0.0
  0
LINE
  5
3B9
330
22
100
AcDbEntity
  8
0
  6
Continuous
 62
     7
100
AcDbLine
 10
-642.0991821289062
 20
485.2423706054688
 30
0.0
 11
-642.0991821289062
 21
516.2423706054688
 31
0.0
  0
LINE
  5
3BA
330
22
100
AcDbEntity
  8
0
  6
Continuous
 62
     7
100
AcDbLine
 10
-657.0991821289062
 20
485.2423706054688
 30
0.0
 11
-657.0991821289062
 21
495.2423706054688
 31
0.0
  0
LINE
  5
3BB
330
22
100
AcDbEntity
  8
0
  6
Continuous
 62
     7
100
AcDbLine
 10
-667.0991821289062
 20
485.2423706054688
 30
0.0
 11
-667.0991821289062
 21
516.2423706054688
 31
0.0
  0
LINE
  5
3BC
330
22
100
AcDbEntity
  8
0
  6
Continuous
 62
     7
100
AcDbLine
 10
-662.0991821289062
 20
485.2423706054688
 30
0.0
 11
-662.0991821289062
 21
516.2423706054688
 31
0.0
  0
LINE
  5
3BD
330
22
100
AcDbEntity
  8
0
  6
Continuous
 62
     7
100
AcDbLine
 10
-637.0991821289062
 20
485.2423706054688
 30
0.0
 11
-637.0991821289062
 21
495.2423706054688
 31
0.0
  0
LINE
  5
3BE
330
22
100
AcDbEntity
  8
0
  6
Continuous
 62
     7
100
AcDbLine
 10
-657.0991821289062
 20
506.2423706054688
 30
0.0
 11
-657.0991821289062
 21
537.2423706054688
 31
0.0
  0
LINE
  5
3BF
330
22
100
AcDbEntity
  8
0
  6
Continuous
 62
     7
100
AcDbLine
 10
-647.0991821289062
 20
485.2423706054688
 30
0.0
 11
-647.0991821289062
 21
516.2423706054688
 31
0.0
  0
LINE
  5
3C0
330
22
100
AcDbEntity
  8
0
  6
Continuous
 62
     7
100
AcDbLine
 10
-707.0991821289062
 20
569.2423706054687
 30
0.0
 11
-707.0991821289062
 21
600.2423706054687
 31
0.0
  0
LINE
  5
3C1
330
22
100
AcDbEntity
  8
0
  6
Continuous
 62
     7
100
AcDbLine
 10
-702.0991821289062
 20
569.2423706054687
 30
0.0
 11
-702.0991821289062
 21
600.2423706054687
 31
0.0
  0
LINE
  5
3C2
330
22
100
AcDbEntity
  8
0
  6
Continuous
 62
     7
100
AcDbLine
 10
-717.0991821289062
 20
590.5671997070312
 30
0.0
 11
-717.0991821289062
 21
600.2423706054687
 31
0.0
  0
LINE
  5
3C3
330
22
100
AcDbEntity
  8
0
  6
Continuous
 62
     7
100
AcDbLine
 10
-687.0991821289062
 20
569.2423706054687
 30
0.0
 11
-687.0991821289062
 21
600.2423706054687
 31
0.0
  0
LINE
  5
3C4
330
22
100
AcDbEntity
  8
0
  6
Continuous
 62
     7
100
AcDbLine
 10
-712.0991821289062
 20
590.5671997070312
 30
0.0
 11
-712.0991821289062
 21
600.2423706054687
 31
0.0
  0
LINE
  5
3C5
330
22
100
AcDbEntity
  8
0
  6
Continuous
 62
     7
100
AcDbLine
 10
-617.0991821289062
 20
506.2423706054688
 30
0.0
 11
-617.0991821289062
 21
537.2423706054688
 31
0.0
  0
LINE
  5
3C6
330
22
100
AcDbEntity
  8
0
  6
Continuous
 62
     7
100
AcDbLine
 10
-617.0991821289062
 20
485.2423706054688
 30
0.0
 11
-617.0991821289062
 21
495.2423706054688
 31
0.0
  0
LINE
  5
3C7
330
22
100
AcDbEntity
  8
0
  6
Continuous
 62
     7
100
AcDbLine
 10
-637.0991821289062
 20
506.2423706054688
 30
0.0
 11
-637.0991821289062
 21
537.2423706054688
 31
0.0
  0
LINE
  5
3C8
330
22
100
AcDbEntity
  8
0
  6
Continuous
 62
     7
100
AcDbLine
 10
-632.0991821289062
 20
485.2423706054688
 30
0.0
 11
-632.0991821289062
 21
495.2423706054688
 31
0.0
  0
LINE
  5
3C9
330
22
100
AcDbEntity
  8
0
  6
Continuous
 62
     7
100
AcDbLine
 10
-632.0991821289062
 20
506.2423706054688
 30
0.0
 11
-632.0991821289062
 21
537.2423706054688
 31
0.0
  0
LINE
  5
3CA
330
22
100
AcDbEntity
  8
0
  6
Continuous
 62
     7
100
AcDbLine
 10
-718.3146362304687
 20
612.2720947265625
 30
0.0
 11
-718.5866088867187
 21
612.5440673828125
 31
0.0
  0
LINE
  5
3CB
330
22
100
AcDbEntity
  8
0
  6
Continuous
 62
     7
100
AcDbLine
 10
-718.0426635742187
 20
612.0001220703125
 30
0.0
 11
-719.7376098632812
 21
609.7678833007812
 31
0.0
  0
LINE
  5
3CC
330
22
100
AcDbEntity
  8
0
  6
Continuous
 62
     7
100
AcDbLine
 10
-718.3146362304687
 20
612.2720947265625
 30
0.0
 11
-718.0426635742187
 21
612.0001220703125
 31
0.0
  0
LINE
  5
3CD
330
22
100
AcDbEntity
  8
0
  6
Continuous
 62
     7
100
AcDbLine
 10
-718.0426635742187
 20
612.0001220703125
 30
0.0
 11
-719.7376098632812
 21
609.7678833007812
 31
0.0
  0
LINE
  5
3CE
330
22
100
AcDbEntity
  8
0
  6
Continuous
 62
     7
100
AcDbLine
 10
-723.580078125
 20
611.9855346679687
 30
0.0
 11
-721.9001464843749
 21
609.7678833007812
 31
0.0
  0
LINE
  5
3CF
330
22
100
AcDbEntity
  8
0
  6
DASHED
 62
     7
100
AcDbLine
 10
-720.8189086914062
 20
614.7423706054687
 30
0.0
 11
-722.3189086914062
 21
614.7423706054687
 31
0.0
  0
LINE
  5
3D0
330
22
100
AcDbEntity
  8
0
  6
Continuous
 62
     7
100
AcDbLine
 10
-718.6011962890624
 20
607.0067138671874
 30
0.0
 11
-718.3294677734375
 21
607.2784423828125
 31
0.0
  0
LINE
  5
3D1
330
22
100
AcDbEntity
  8
0
  6
Continuous
 62
     7
100
AcDbLine
 10
-718.0576782226562
 20
607.5502319335937
 30
0.0
 11
-718.3294677734375
 21
607.2784423828125
 31
0.0
  0
LINE
  5
3D2
330
22
100
AcDbEntity
  8
0
  6
Continuous
 62
     7
100
AcDbLine
 10
-718.0576782226562
 20
607.5502319335937
 30
0.0
 11
-719.7376098632812
 21
609.7678833007812
 31
0.0
  0
LINE
  5
3D3
330
22
100
AcDbEntity
  8
0
  6
Continuous
 62
     7
100
AcDbLine
 10
-718.0576782226562
 20
607.5502319335937
 30
0.0
 11
-718.3294677734375
 21
607.2784423828125
 31
0.0
  0
LINE
  5
3D4
330
22
100
AcDbEntity
  8
0
  6
Continuous
 62
     7
100
AcDbLine
 10
-723.5950927734375
 20
607.5356445312499
 30
0.0
 11
-721.9001464843749
 21
609.7678833007812
 31
0.0
  0
LINE
  5
3D5
330
22
100
AcDbEntity
  8
0
  6
Continuous
 62
     7
100
AcDbLine
 10
-723.0511474609374
 20
606.99169921875
 30
0.0
 11
-720.8189086914062
 21
608.6866455078125
 31
0.0
  0
LINE
  5
3D6
330
22
100
AcDbEntity
  8
0
  6
Continuous
 62
     7
100
AcDbLine
 10
-723.0511474609374
 20
606.99169921875
 30
0.0
 11
-720.8189086914062
 21
608.6866455078125
 31
0.0
  0
LINE
  5
3D7
330
22
100
AcDbEntity
  8
0
  6
Continuous
 62
     7
100
AcDbLine
 10
-718.6011962890624
 20
607.0067138671874
 30
0.0
 11
-720.8189086914062
 21
608.6866455078125
 31
0.0
  0
LINE
  5
3D8
330
22
100
AcDbEntity
  8
0
  6
Continuous
 62
     7
100
AcDbLine
 10
-723.5950927734375
 20
607.5356445312499
 30
0.0
 11
-721.9001464843749
 21
609.7678833007812
 31
0.0
  0
LINE
  5
3D9
330
22
100
AcDbEntity
  8
0
  6
Continuous
 62
     7
100
AcDbLine
 10
-723.3231201171875
 20
607.263671875
 30
0.0
 11
-723.0511474609374
 21
606.99169921875
 31
0.0
  0
LINE
  5
3DA
330
22
100
AcDbEntity
  8
0
  6
Continuous
 62
     7
100
AcDbLine
 10
-723.3231201171875
 20
607.263671875
 30
0.0
 11
-723.5950927734375
 21
607.5356445312499
 31
0.0
  0
LINE
  5
3DB
330
22
100
AcDbEntity
  8
0
  6
Continuous
 62
     7
100
AcDbLine
 10
-723.3231201171875
 20
607.263671875
 30
0.0
 11
-723.5950927734375
 21
607.5356445312499
 31
0.0
  0
LINE
  5
3DC
330
22
100
AcDbEntity
  8
0
  6
Continuous
 62
     7
100
AcDbLine
 10
-723.3231201171875
 20
607.263671875
 30
0.0
 11
-723.0511474609374
 21
606.99169921875
 31
0.0
  0
LINE
  5
3DD
330
22
100
AcDbEntity
  8
0
  6
Continuous
 62
     7
100
AcDbLine
 10
-697.0991821289062
 20
590.5671997070312
 30
0.0
 11
-697.0991821289062
 21
600.2423706054687
 31
0.0
  0
LINE
  5
3DE
330
22
100
AcDbEntity
  8
0
  6
Continuous
 62
     7
100
AcDbLine
 10
-692.0991821289062
 20
590.5671997070312
 30
0.0
 11
-692.0991821289062
 21
600.2423706054687
 31
0.0
  0
LINE
  5
3DF
330
22
100
AcDbEntity
  8
0
  6
DASHED
 62
     7
100
AcDbLine
 10
-720.8189086914062
 20
604.7423706054687
 30
0.0
 11
-722.3189086914062
 21
604.7423706054687
 31
0.0
  0
LINE
  5
3E0
330
22
100
AcDbEntity
  8
0
  6
Continuous
 62
     7
100
AcDbLine
 10
-718.0576782226562
 20
607.5502319335937
 30
0.0
 11
-719.7376098632812
 21
609.7678833007812
 31
0.0
  0
LINE
  5
3E1
330
22
100
AcDbEntity
  8
0
  6
Continuous
 62
     7
100
AcDbLine
 10
-718.6011962890624
 20
607.0067138671874
 30
0.0
 11
-720.8189086914062
 21
608.6866455078125
 31
0.0
  0
LINE
  5
3E2
330
22
100
AcDbEntity
  8
0
  6
Continuous
 62
     7
100
AcDbLine
 10
-718.6011962890624
 20
607.0067138671874
 30
0.0
 11
-718.3294677734375
 21
607.2784423828125
 31
0.0
  0
LINE
  5
3E3
330
22
100
AcDbEntity
  8
0
  6
Continuous
 62
     7
100
AcDbLine
 10
-682.0991821289062
 20
569.2423706054687
 30
0.0
 11
-682.0991821289062
 21
600.2423706054687
 31
0.0
  0
LINE
  5
3E4
330
22
100
AcDbEntity
  8
0
  6
Continuous
 62
     7
100
AcDbLine
 10
-718.5866088867187
 20
612.5440673828125
 30
0.0
 11
-720.8189086914062
 21
610.84912109375
 31
0.0
  0
LINE
  5
3E5
330
22
100
AcDbEntity
  8
0
  6
Continuous
 62
     7
100
AcDbLine
 10
-718.3146362304687
 20
612.2720947265625
 30
0.0
 11
-718.5866088867187
 21
612.5440673828125
 31
0.0
  0
LINE
  5
3E6
330
22
100
AcDbEntity
  8
0
  6
Continuous
 62
     7
100
AcDbLine
 10
-723.0365600585937
 20
612.529052734375
 30
0.0
 11
-720.8189086914062
 21
610.84912109375
 31
0.0
  0
LINE
  5
3E7
330
22
100
AcDbEntity
  8
0
  6
Continuous
 62
     7
100
AcDbLine
 10
-723.0365600585937
 20
612.529052734375
 30
0.0
 11
-723.3083496093749
 21
612.25732421875
 31
0.0
  0
LINE
  5
3E8
330
22
100
AcDbEntity
  8
0
  6
CENTER
 62
     7
100
AcDbLine
 10
-720.8189086914062
 20
603.9219970703125
 30
0.0
 11
-720.8189086914062
 21
616.0928344726563
 31
0.0
  0
LINE
  5
3E9
330
22
100
AcDbEntity
  8
0
  6
Continuous
 62
     7
100
AcDbLine
 10
-718.5866088867187
 20
612.5440673828125
 30
0.0
 11
-720.8189086914062
 21
610.84912109375
 31
0.0
  0
LINE
  5
3EA
330
22
100
AcDbEntity
  8
0
  6
Continuous
 62
     7
100
AcDbLine
 10
-718.3146362304687
 20
612.2720947265625
 30
0.0
 11
-718.0426635742187
 21
612.0001220703125
 31
0.0
  0
LINE
  5
3EB
330
22
100
AcDbEntity
  8
0
  6
Continuous
 62
     7
100
AcDbLine
 10
-723.580078125
 20
611.9855346679687
 30
0.0
 11
-723.3083496093749
 21
612.25732421875
 31
0.0
  0
LINE
  5
3EC
330
22
100
AcDbEntity
  8
0
  6
Continuous
 62
     7
100
AcDbLine
 10
-723.0365600585937
 20
612.529052734375
 30
0.0
 11
-723.3083496093749
 21
612.25732421875
 31
0.0
  0
LINE
  5
3ED
330
22
100
AcDbEntity
  8
0
  6
Continuous
 62
     7
100
AcDbLine
 10
-723.580078125
 20
611.9855346679687
 30
0.0
 11
-723.3083496093749
 21
612.25732421875
 31
0.0
  0
LINE
  5
3EE
330
22
100
AcDbEntity
  8
0
  6
Continuous
 62
     7
100
AcDbLine
 10
-723.580078125
 20
611.9855346679687
 30
0.0
 11
-721.9001464843749
 21
609.7678833007812
 31
0.0
  0
LINE
  5
3EF
330
22
100
AcDbEntity
  8
0
  6
Continuous
 62
     7
100
AcDbLine
 10
-723.0365600585937
 20
612.529052734375
 30
0.0
 11
-720.8189086914062
 21
610.84912109375
 31
0.0
  0
LINE
  5
3F0
330
22
100
AcDbEntity
  8
0
  6
Continuous
 62
     7
100
AcDbLine
 10
-717.0991821289062
 20
490.2423706054688
 30
0.0
 11
-717.0991821289062
 21
495.2423706054688
 31
0.0
  0
LINE
  5
3F1
330
22
100
AcDbEntity
  8
0
  6
Continuous
 62
     7
100
AcDbLine
 10
-712.0991821289062
 20
490.2423706054688
 30
0.0
 11
-712.0991821289062
 21
495.2423706054688
 31
0.0
  0
LINE
  5
3F2
330
22
100
AcDbEntity
  8
0
  6
Continuous
 62
     7
100
AcDbLine
 10
-697.0991821289062
 20
506.2423706054688
 30
0.0
 11
-697.0991821289062
 21
537.2423706054688
 31
0.0
  0
LINE
  5
3F3
330
22
100
AcDbEntity
  8
0
  6
Continuous
 62
     7
100
AcDbLine
 10
-697.0991821289062
 20
485.2423706054688
 30
0.0
 11
-697.0991821289062
 21
495.2423706054688
 31
0.0
  0
LINE
  5
3F4
330
22
100
AcDbEntity
  8
0
  6
Continuous
 62
     7
100
AcDbLine
 10
-692.0991821289062
 20
485.2423706054688
 30
0.0
 11
-692.0991821289062
 21
495.2423706054688
 31
0.0
  0
LINE
  5
3F5
330
22
100
AcDbEntity
  8
0
  6
CENTER
 62
     7
100
AcDbLine
 10
-721.0991821289062
 20
476.0282897949219
 30
0.0
 11
-721.0991821289062
 21
487.4053649902343
 31
0.0
  0
LINE
  5
3F6
330
22
100
AcDbEntity
  8
0
  6
Continuous
 62
     7
100
AcDbLine
 10
-697.0991821289062
 20
628.9174804687499
 30
0.0
 11
-697.0991821289062
 21
619.2423706054687
 31
0.0
  0
LINE
  5
3F7
330
22
100
AcDbEntity
  8
0
  6
Continuous
 62
     7
100
AcDbLine
 10
-712.0991821289062
 20
628.9174804687499
 30
0.0
 11
-712.0991821289062
 21
619.2423706054687
 31
0.0
  0
LINE
  5
3F8
330
22
100
AcDbEntity
  8
0
  6
Continuous
 62
     7
100
AcDbLine
 10
-717.0991821289062
 20
628.9174804687499
 30
0.0
 11
-717.0991821289062
 21
619.2423706054687
 31
0.0
  0
LINE
  5
3F9
330
22
100
AcDbEntity
  8
0
  6
Continuous
 62
     7
100
AcDbLine
 10
-692.0991821289062
 20
628.9174804687499
 30
0.0
 11
-692.0991821289062
 21
619.2423706054687
 31
0.0
  0
LINE
  5
3FA
330
22
100
AcDbEntity
  8
0
  6
Continuous
 62
     7
100
AcDbLine
 10
-723.31689453125
 20
484.5035705566406
 30
0.0
 11
-721.0991821289062
 21
482.8236083984375
 31
0.0
  0
LINE
  5
3FB
330
22
100
AcDbEntity
  8
0
  6
Continuous
 62
     7
100
AcDbLine
 10
-718.594970703125
 20
484.24658203125
 30
0.0
 11
-718.866943359375
 21
484.5185546875
 31
0.0
  0
LINE
  5
3FC
330
22
100
AcDbEntity
  8
0
  6
Continuous
 62
     7
100
AcDbLine
 10
-718.322998046875
 20
483.974609375
 30
0.0
 11
-720.0179443359375
 21
481.7423706054688
 31
0.0
  0
LINE
  5
3FD
330
22
100
AcDbEntity
  8
0
  6
Continuous
 62
     7
100
AcDbLine
 10
-718.594970703125
 20
484.24658203125
 30
0.0
 11
-718.322998046875
 21
483.974609375
 31
0.0
  0
LINE
  5
3FE
330
22
100
AcDbEntity
  8
0
  6
Continuous
 62
     7
100
AcDbLine
 10
-718.322998046875
 20
483.974609375
 30
0.0
 11
-720.0179443359375
 21
481.7423706054688
 31
0.0
  0
LINE
  5
3FF
330
22
100
AcDbEntity
  8
0
  6
Continuous
 62
     7
100
AcDbLine
 10
-718.8815307617187
 20
478.9811706542969
 30
0.0
 11
-718.6098022460937
 21
479.2529296875
 31
0.0
  0
LINE
  5
400
330
22
100
AcDbEntity
  8
0
  6
Continuous
 62
     7
100
AcDbLine
 10
-723.3314819335937
 20
478.9661560058593
 30
0.0
 11
-721.0991821289062
 21
480.6611022949218
 31
0.0
  0
LINE
  5
401
330
22
100
AcDbEntity
  8
0
  6
Continuous
 62
     7
100
AcDbLine
 10
-718.8815307617187
 20
478.9811706542969
 30
0.0
 11
-721.0991821289062
 21
480.6611022949218
 31
0.0
  0
LINE
  5
402
330
22
100
AcDbEntity
  8
0
  6
Continuous
 62
     7
100
AcDbLine
 10
-723.8604125976562
 20
483.9600219726563
 30
0.0
 11
-722.1804809570312
 21
481.7423706054688
 31
0.0
  0
LINE
  5
403
330
22
100
AcDbEntity
  8
0
  6
Continuous
 62
     7
100
AcDbLine
 10
-723.8754272460937
 20
479.5101013183593
 30
0.0
 11
-722.1804809570312
 21
481.7423706054688
 31
0.0
  0
LINE
  5
404
330
22
100
AcDbEntity
  8
0
  6
Continuous
 62
     7
100
AcDbLine
 10
-723.6034545898437
 20
479.2381286621093
 30
0.0
 11
-723.3314819335937
 21
478.9661560058593
 31
0.0
  0
LINE
  5
405
330
22
100
AcDbEntity
  8
0
  6
Continuous
 62
     7
100
AcDbLine
 10
-723.6034545898437
 20
479.2381286621093
 30
0.0
 11
-723.8754272460937
 21
479.5101013183593
 31
0.0
  0
LINE
  5
406
330
22
100
AcDbEntity
  8
0
  6
Continuous
 62
     7
100
AcDbLine
 10
-723.6034545898437
 20
479.2381286621093
 30
0.0
 11
-723.8754272460937
 21
479.5101013183593
 31
0.0
  0
LINE
  5
407
330
22
100
AcDbEntity
  8
0
  6
Continuous
 62
     7
100
AcDbLine
 10
-723.6034545898437
 20
479.2381286621093
 30
0.0
 11
-723.3314819335937
 21
478.9661560058593
 31
0.0
  0
LINE
  5
408
330
22
100
AcDbEntity
  8
0
  6
Continuous
 62
     7
100
AcDbLine
 10
-718.8815307617187
 20
478.9811706542969
 30
0.0
 11
-718.6098022460937
 21
479.2529296875
 31
0.0
  0
LINE
  5
409
330
22
100
AcDbEntity
  8
0
  6
Continuous
 62
     7
100
AcDbLine
 10
-718.3380126953125
 20
479.5246887207031
 30
0.0
 11
-718.6098022460937
 21
479.2529296875
 31
0.0
  0
LINE
  5
40A
330
22
100
AcDbEntity
  8
0
  6
Continuous
 62
     7
100
AcDbLine
 10
-718.3380126953125
 20
479.5246887207031
 30
0.0
 11
-720.0179443359375
 21
481.7423706054688
 31
0.0
  0
LINE
  5
40B
330
22
100
AcDbEntity
  8
0
  6
Continuous
 62
     7
100
AcDbLine
 10
-717.0991821289062
 20
506.2423706054688
 30
0.0
 11
-717.0991821289062
 21
537.2423706054688
 31
0.0
  0
LINE
  5
40C
330
22
100
AcDbEntity
  8
0
  6
Continuous
 62
     7
100
AcDbLine
 10
-712.0991821289062
 20
506.2423706054688
 30
0.0
 11
-712.0991821289062
 21
537.2423706054688
 31
0.0
  0
LINE
  5
40D
330
22
100
AcDbEntity
  8
0
  6
Continuous
 62
     7
100
AcDbLine
 10
-707.0991821289062
 20
485.2423706054688
 30
0.0
 11
-707.0991821289062
 21
516.2423706054688
 31
0.0
  0
LINE
  5
40E
330
22
100
AcDbEntity
  8
0
  6
Continuous
 62
     7
100
AcDbLine
 10
-702.0991821289062
 20
485.2423706054688
 30
0.0
 11
-702.0991821289062
 21
516.2423706054688
 31
0.0
  0
LINE
  5
40F
330
22
100
AcDbEntity
  8
0
  6
Continuous
 62
     7
100
AcDbLine
 10
-723.31689453125
 20
484.5035705566406
 30
0.0
 11
-723.588623046875
 21
484.2317810058593
 31
0.0
  0
LINE
  5
410
330
22
100
AcDbEntity
  8
0
  6
Continuous
 62
     7
100
AcDbLine
 10
-723.8604125976562
 20
483.9600219726563
 30
0.0
 11
-723.588623046875
 21
484.2317810058593
 31
0.0
  0
LINE
  5
411
330
22
100
AcDbEntity
  8
0
  6
Continuous
 62
     7
100
AcDbLine
 10
-723.8604125976562
 20
483.9600219726563
 30
0.0
 11
-722.1804809570312
 21
481.7423706054688
 31
0.0
  0
LINE
  5
412
330
22
100
AcDbEntity
  8
0
  6
Continuous
 62
     7
100
AcDbLine
 10
-692.0991821289062
 20
506.2423706054688
 30
0.0
 11
-692.0991821289062
 21
537.2423706054688
 31
0.0
  0
LINE
  5
413
330
22
100
AcDbEntity
  8
0
  6
Continuous
 62
     7
100
AcDbLine
 10
-718.866943359375
 20
484.5185546875
 30
0.0
 11
-721.0991821289062
 21
482.8236083984375
 31
0.0
  0
LINE
  5
414
330
22
100
AcDbEntity
  8
0
  6
Continuous
 62
     7
100
AcDbLine
 10
-718.594970703125
 20
484.24658203125
 30
0.0
 11
-718.866943359375
 21
484.5185546875
 31
0.0
  0
LINE
  5
415
330
22
100
AcDbEntity
  8
0
  6
Continuous
 62
     7
100
AcDbLine
 10
-723.31689453125
 20
484.5035705566406
 30
0.0
 11
-721.0991821289062
 21
482.8236083984375
 31
0.0
  0
LINE
  5
416
330
22
100
AcDbEntity
  8
0
  6
Continuous
 62
     7
100
AcDbLine
 10
-718.3380126953125
 20
479.5246887207031
 30
0.0
 11
-718.6098022460937
 21
479.2529296875
 31
0.0
  0
LINE
  5
417
330
22
100
AcDbEntity
  8
0
  6
Continuous
 62
     7
100
AcDbLine
 10
-723.8754272460937
 20
479.5101013183593
 30
0.0
 11
-722.1804809570312
 21
481.7423706054688
 31
0.0
  0
LINE
  5
418
330
22
100
AcDbEntity
  8
0
  6
Continuous
 62
     7
100
AcDbLine
 10
-723.31689453125
 20
484.5035705566406
 30
0.0
 11
-723.588623046875
 21
484.2317810058593
 31
0.0
  0
LINE
  5
419
330
22
100
AcDbEntity
  8
0
  6
Continuous
 62
     7
100
AcDbLine
 10
-723.3314819335937
 20
478.9661560058593
 30
0.0
 11
-721.0991821289062
 21
480.6611022949218
 31
0.0
  0
LINE
  5
41A
330
22
100
AcDbEntity
  8
0
  6
Continuous
 62
     7
100
AcDbLine
 10
-718.866943359375
 20
484.5185546875
 30
0.0
 11
-721.0991821289062
 21
482.8236083984375
 31
0.0
  0
LINE
  5
41B
330
22
100
AcDbEntity
  8
0
  6
Continuous
 62
     7
100
AcDbLine
 10
-718.594970703125
 20
484.24658203125
 30
0.0
 11
-718.322998046875
 21
483.974609375
 31
0.0
  0
LINE
  5
41C
330
22
100
AcDbEntity
  8
0
  6
Continuous
 62
     7
100
AcDbLine
 10
-718.3380126953125
 20
479.5246887207031
 30
0.0
 11
-720.0179443359375
 21
481.7423706054688
 31
0.0
  0
LINE
  5
41D
330
22
100
AcDbEntity
  8
0
  6
Continuous
 62
     7
100
AcDbLine
 10
-718.8815307617187
 20
478.9811706542969
 30
0.0
 11
-721.0991821289062
 21
480.6611022949218
 31
0.0
  0
LINE
  5
41E
330
22
100
AcDbEntity
  8
0
  6
Continuous
 62
     7
100
AcDbLine
 10
-723.8604125976562
 20
483.9600219726563
 30
0.0
 11
-723.588623046875
 21
484.2317810058593
 31
0.0
  0
LINE
  5
41F
330
22
100
AcDbEntity
  8
0
  6
Continuous
 62
     7
100
AcDbLine
 10
-687.0991821289062
 20
485.2423706054688
 30
0.0
 11
-687.0991821289062
 21
516.2423706054688
 31
0.0
  0
LINE
  5
420
330
22
100
AcDbEntity
  8
0
  6
CENTER
 62
     7
100
AcDbLine
 10
-726.9196166992188
 20
481.7423706054688
 30
0.0
 11
-707.4757690429687
 21
481.7423706054688
 31
0.0
  0
LINE
  5
421
330
22
100
AcDbEntity
  8
0
  6
DASHED
 62
     7
100
AcDbLine
 10
-716.0991821289062
 20
481.7423706054688
 30
0.0
 11
-716.0991821289062
 21
480.2423706054688
 31
0.0
  0
LINE
  5
422
330
22
100
AcDbEntity
  8
0
  6
DASHED
 62
     7
100
AcDbLine
 10
-721.0991821289062
 20
486.7423706054688
 30
0.0
 11
-722.5991821289063
 21
486.7423706054688
 31
0.0
  0
LINE
  5
423
330
22
100
AcDbEntity
  8
0
  6
Continuous
 62
     7
100
AcDbLine
 10
-682.0991821289062
 20
485.2423706054688
 30
0.0
 11
-682.0991821289062
 21
516.2423706054688
 31
0.0
  0
LINE
  5
424
330
22
100
AcDbEntity
  8
0
  6
Continuous
 62
     7
100
AcDbLine
 10
-474.0992126464844
 20
548.2423706054688
 30
0.0
 11
-474.0992126464844
 21
579.2423706054687
 31
0.0
  0
LINE
  5
425
330
22
100
AcDbEntity
  8
0
  6
DASHED
 62
     7
100
AcDbLine
 10
-461.5992126464844
 20
488.7423706054688
 30
0.0
 11
-461.5992126464844
 21
602.7423706054687
 31
0.0
  0
LINE
  5
426
330
22
100
AcDbEntity
  8
0
  6
Continuous
 62
     7
100
AcDbLine
 10
-479.0992126464844
 20
527.2423706054688
 30
0.0
 11
-479.0992126464844
 21
558.2423706054688
 31
0.0
  0
LINE
  5
427
330
22
100
AcDbEntity
  8
0
  6
Continuous
 62
     7
100
AcDbLine
 10
-469.0992126464843
 20
548.2423706054688
 30
0.0
 11
-469.0992126464843
 21
579.2423706054687
 31
0.0
  0
LINE
  5
428
330
22
100
AcDbEntity
  8
0
  6
Continuous
 62
     7
100
AcDbLine
 10
-489.0992126464843
 20
734.2423706054687
 30
0.0
 11
-489.0992126464843
 21
724.2423706054687
 31
0.0
  0
LINE
  5
429
330
22
100
AcDbEntity
  8
0
  6
Continuous
 62
     7
100
AcDbLine
 10
-504.0992126464844
 20
734.2423706054687
 30
0.0
 11
-504.0992126464844
 21
703.2423706054687
 31
0.0
  0
LINE
  5
42A
330
22
100
AcDbEntity
  8
0
  6
Continuous
 62
     7
100
AcDbLine
 10
-519.0991821289063
 20
734.2423706054687
 30
0.0
 11
-519.0991821289063
 21
703.2423706054687
 31
0.0
  0
LINE
  5
42B
330
22
100
AcDbEntity
  8
0
  6
Continuous
 62
     7
100
AcDbLine
 10
-524.0991821289063
 20
734.2423706054687
 30
0.0
 11
-524.0991821289063
 21
703.2423706054687
 31
0.0
  0
LINE
  5
42C
330
22
100
AcDbEntity
  8
0
  6
Continuous
 62
     7
100
AcDbLine
 10
-499.0992126464844
 20
734.2423706054687
 30
0.0
 11
-499.0992126464844
 21
703.2423706054687
 31
0.0
  0
LINE
  5
42D
330
22
100
AcDbEntity
  8
0
  6
Continuous
 62
     7
100
AcDbLine
 10
-544.0991821289063
 20
734.2423706054687
 30
0.0
 11
-544.0991821289063
 21
703.2423706054687
 31
0.0
  0
LINE
  5
42E
330
22
100
AcDbEntity
  8
0
  6
Continuous
 62
     7
100
AcDbLine
 10
-539.0991821289063
 20
734.2423706054687
 30
0.0
 11
-539.0991821289063
 21
703.2423706054687
 31
0.0
  0
LINE
  5
42F
330
22
100
AcDbEntity
  8
0
  6
Continuous
 62
     7
100
AcDbLine
 10
-514.0991821289063
 20
734.2423706054687
 30
0.0
 11
-514.0991821289063
 21
724.2423706054687
 31
0.0
  0
LINE
  5
430
330
22
100
AcDbEntity
  8
0
  6
Continuous
 62
     7
100
AcDbLine
 10
-509.0992126464843
 20
734.2423706054687
 30
0.0
 11
-509.0992126464843
 21
724.2423706054687
 31
0.0
  0
LINE
  5
431
330
22
100
AcDbEntity
  8
0
  6
Continuous
 62
     7
100
AcDbLine
 10
-534.0991821289064
 20
734.2423706054687
 30
0.0
 11
-534.0991821289064
 21
724.2423706054687
 31
0.0
  0
LINE
  5
432
330
22
100
AcDbEntity
  8
0
  6
Continuous
 62
     7
100
AcDbLine
 10
-479.0992126464844
 20
734.2423706054687
 30
0.0
 11
-479.0992126464844
 21
703.2423706054687
 31
0.0
  0
LINE
  5
433
330
22
100
AcDbEntity
  8
0
  6
Continuous
 62
     7
100
AcDbLine
 10
-474.0992126464844
 20
729.2423706054687
 30
0.0
 11
-474.0992126464844
 21
724.2423706054687
 31
0.0
  0
LINE
  5
434
330
22
100
AcDbEntity
  8
0
  6
Continuous
 62
     7
100
AcDbLine
 10
-529.0991821289063
 20
734.2423706054687
 30
0.0
 11
-529.0991821289063
 21
724.2423706054687
 31
0.0
  0
LINE
  5
435
330
22
100
AcDbEntity
  8
0
  6
Continuous
 62
     7
100
AcDbLine
 10
-494.0992126464843
 20
734.2423706054687
 30
0.0
 11
-494.0992126464843
 21
724.2423706054687
 31
0.0
  0
LINE
  5
436
330
22
100
AcDbEntity
  8
0
  6
Continuous
 62
     7
100
AcDbLine
 10
-469.0992126464843
 20
729.2423706054687
 30
0.0
 11
-469.0992126464843
 21
724.2423706054687
 31
0.0
  0
LINE
  5
437
330
22
100
AcDbEntity
  8
0
  6
Continuous
 62
     7
100
AcDbLine
 10
-484.0992126464843
 20
734.2423706054687
 30
0.0
 11
-484.0992126464843
 21
703.2423706054687
 31
0.0
  0
LINE
  5
438
330
22
100
AcDbEntity
  8
0
  6
Continuous
 62
     7
100
AcDbLine
 10
-652.0991821289062
 20
734.2423706054687
 30
0.0
 11
-652.0991821289062
 21
724.2423706054687
 31
0.0
  0
LINE
  5
439
330
22
100
AcDbEntity
  8
0
  6
Continuous
 62
     7
100
AcDbLine
 10
-637.0991821289062
 20
734.2423706054687
 30
0.0
 11
-637.0991821289062
 21
724.2423706054687
 31
0.0
  0
LINE
  5
43A
330
22
100
AcDbEntity
  8
0
  6
Continuous
 62
     7
100
AcDbLine
 10
-612.0991821289062
 20
734.2423706054687
 30
0.0
 11
-612.0991821289062
 21
724.2423706054687
 31
0.0
  0
LINE
  5
43B
330
22
100
AcDbEntity
  8
0
  6
Continuous
 62
     7
100
AcDbLine
 10
-607.0991821289062
 20
734.2423706054687
 30
0.0
 11
-607.0991821289062
 21
703.2423706054687
 31
0.0
  0
LINE
  5
43C
330
22
100
AcDbEntity
  8
0
  6
Continuous
 62
     7
100
AcDbLine
 10
-602.0991821289062
 20
734.2423706054687
 30
0.0
 11
-602.0991821289062
 21
703.2423706054687
 31
0.0
  0
LINE
  5
43D
330
22
100
AcDbEntity
  8
0
  6
Continuous
 62
     7
100
AcDbLine
 10
-559.0991821289064
 20
734.2423706054687
 30
0.0
 11
-559.0991821289064
 21
703.2423706054687
 31
0.0
  0
LINE
  5
43E
330
22
100
AcDbEntity
  8
0
  6
Continuous
 62
     7
100
AcDbLine
 10
-584.0991821289062
 20
734.2423706054687
 30
0.0
 11
-584.0991821289062
 21
703.2423706054687
 31
0.0
  0
LINE
  5
43F
330
22
100
AcDbEntity
  8
0
  6
Continuous
 62
     7
100
AcDbLine
 10
-579.0991821289062
 20
734.2423706054687
 30
0.0
 11
-579.0991821289062
 21
703.2423706054687
 31
0.0
  0
LINE
  5
440
330
22
100
AcDbEntity
  8
0
  6
Continuous
 62
     7
100
AcDbLine
 10
-564.0991821289062
 20
734.2423706054687
 30
0.0
 11
-564.0991821289062
 21
703.2423706054687
 31
0.0
  0
LINE
  5
441
330
22
100
AcDbEntity
  8
0
  6
Continuous
 62
     7
100
AcDbLine
 10
-574.0991821289062
 20
734.2423706054687
 30
0.0
 11
-574.0991821289062
 21
724.2423706054687
 31
0.0
  0
LINE
  5
442
330
22
100
AcDbEntity
  8
0
  6
Continuous
 62
     7
100
AcDbLine
 10
-569.0991821289062
 20
734.2423706054687
 30
0.0
 11
-569.0991821289062
 21
724.2423706054687
 31
0.0
  0
LINE
  5
443
330
22
100
AcDbEntity
  8
0
  6
Continuous
 62
     7
100
AcDbLine
 10
-489.0992126464843
 20
548.2423706054688
 30
0.0
 11
-489.0992126464843
 21
579.2423706054687
 31
0.0
  0
LINE
  5
444
330
22
100
AcDbEntity
  8
0
  6
Continuous
 62
     7
100
AcDbLine
 10
-524.0991821289063
 20
527.2423706054688
 30
0.0
 11
-524.0991821289063
 21
558.2423706054688
 31
0.0
  0
LINE
  5
445
330
22
100
AcDbEntity
  8
0
  6
Continuous
 62
     7
100
AcDbLine
 10
-539.0991821289063
 20
527.2423706054688
 30
0.0
 11
-539.0991821289063
 21
558.2423706054688
 31
0.0
  0
LINE
  5
446
330
22
100
AcDbEntity
  8
0
  6
Continuous
 62
     7
100
AcDbLine
 10
-544.0991821289063
 20
527.2423706054688
 30
0.0
 11
-544.0991821289063
 21
558.2423706054688
 31
0.0
  0
LINE
  5
447
330
22
100
AcDbEntity
  8
0
  6
Continuous
 62
     7
100
AcDbLine
 10
-504.0992126464844
 20
527.2423706054688
 30
0.0
 11
-504.0992126464844
 21
558.2423706054688
 31
0.0
  0
LINE
  5
448
330
22
100
AcDbEntity
  8
0
  6
Continuous
 62
     7
100
AcDbLine
 10
-519.0991821289063
 20
527.2423706054688
 30
0.0
 11
-519.0991821289063
 21
558.2423706054688
 31
0.0
  0
LINE
  5
449
330
22
100
AcDbEntity
  8
0
  6
Continuous
 62
     7
100
AcDbLine
 10
-499.0992126464844
 20
527.2423706054688
 30
0.0
 11
-499.0992126464844
 21
558.2423706054688
 31
0.0
  0
LINE
  5
44A
330
22
100
AcDbEntity
  8
0
  6
Continuous
 62
     7
100
AcDbLine
 10
-494.0992126464843
 20
548.2423706054688
 30
0.0
 11
-494.0992126464843
 21
579.2423706054687
 31
0.0
  0
LINE
  5
44B
330
22
100
AcDbEntity
  8
0
  6
Continuous
 62
     7
100
AcDbLine
 10
-514.0991821289063
 20
548.2423706054688
 30
0.0
 11
-514.0991821289063
 21
579.2423706054687
 31
0.0
  0
LINE
  5
44C
330
22
100
AcDbEntity
  8
0
  6
Continuous
 62
     7
100
AcDbLine
 10
-509.0992126464843
 20
548.2423706054688
 30
0.0
 11
-509.0992126464843
 21
579.2423706054687
 31
0.0
  0
LINE
  5
44D
330
22
100
AcDbEntity
  8
0
  6
Continuous
 62
     7
100
AcDbLine
 10
-534.0991821289064
 20
548.2423706054688
 30
0.0
 11
-534.0991821289064
 21
579.2423706054687
 31
0.0
  0
LINE
  5
44E
330
22
100
AcDbEntity
  8
0
  6
Continuous
 62
     7
100
AcDbLine
 10
-529.0991821289063
 20
548.2423706054688
 30
0.0
 11
-529.0991821289063
 21
579.2423706054687
 31
0.0
  0
LINE
  5
44F
330
22
100
AcDbEntity
  8
0
  6
Continuous
 62
     7
100
AcDbLine
 10
-484.0992126464843
 20
527.2423706054688
 30
0.0
 11
-484.0992126464843
 21
558.2423706054688
 31
0.0
  0
LINE
  5
450
330
22
100
AcDbEntity
  8
0
  6
Continuous
 62
     7
100
AcDbLine
 10
-569.0991821289062
 20
548.2423706054688
 30
0.0
 11
-569.0991821289062
 21
579.2423706054687
 31
0.0
  0
LINE
  5
451
330
22
100
AcDbEntity
  8
0
  6
Continuous
 62
     7
100
AcDbLine
 10
-574.0991821289062
 20
548.2423706054688
 30
0.0
 11
-574.0991821289062
 21
579.2423706054687
 31
0.0
  0
LINE
  5
452
330
22
100
AcDbEntity
  8
0
  6
Continuous
 62
     7
100
AcDbLine
 10
-702.0991821289062
 20
734.2423706054687
 30
0.0
 11
-702.0991821289062
 21
703.2423706054687
 31
0.0
  0
LINE
  5
453
330
22
100
AcDbEntity
  8
0
  6
Continuous
 62
     7
100
AcDbLine
 10
-707.0991821289062
 20
734.2423706054687
 30
0.0
 11
-707.0991821289062
 21
703.2423706054687
 31
0.0
  0
LINE
  5
454
330
22
100
AcDbEntity
  8
0
  6
Continuous
 62
     7
100
AcDbLine
 10
-682.0991821289062
 20
734.2423706054687
 30
0.0
 11
-682.0991821289062
 21
703.2423706054687
 31
0.0
  0
LINE
  5
455
330
22
100
AcDbEntity
  8
0
  6
Continuous
 62
     7
100
AcDbLine
 10
-687.0991821289062
 20
734.2423706054687
 30
0.0
 11
-687.0991821289062
 21
703.2423706054687
 31
0.0
  0
LINE
  5
456
330
22
100
AcDbEntity
  8
0
  6
Continuous
 62
     7
100
AcDbLine
 10
-712.0991821289062
 20
729.2423706054687
 30
0.0
 11
-712.0991821289062
 21
724.2423706054687
 31
0.0
  0
LINE
  5
457
330
22
100
AcDbEntity
  8
0
  6
Continuous
 62
     7
100
AcDbLine
 10
-692.0991821289062
 20
734.2423706054687
 30
0.0
 11
-692.0991821289062
 21
724.2423706054687
 31
0.0
  0
LINE
  5
458
330
22
100
AcDbEntity
  8
0
  6
Continuous
 62
     7
100
AcDbLine
 10
-697.0991821289062
 20
734.2423706054687
 30
0.0
 11
-697.0991821289062
 21
724.2423706054687
 31
0.0
  0
LINE
  5
459
330
22
100
AcDbEntity
  8
0
  6
Continuous
 62
     7
100
AcDbLine
 10
-717.0991821289062
 20
729.2423706054687
 30
0.0
 11
-717.0991821289062
 21
724.2423706054687
 31
0.0
  0
LINE
  5
45A
330
22
100
AcDbEntity
  8
0
  6
Continuous
 62
     7
100
AcDbLine
 10
-617.0991821289062
 20
734.2423706054687
 30
0.0
 11
-617.0991821289062
 21
724.2423706054687
 31
0.0
  0
LINE
  5
45B
330
22
100
AcDbEntity
  8
0
  6
Continuous
 62
     7
100
AcDbLine
 10
-627.0991821289062
 20
734.2423706054687
 30
0.0
 11
-627.0991821289062
 21
703.2423706054687
 31
0.0
  0
LINE
  5
45C
330
22
100
AcDbEntity
  8
0
  6
Continuous
 62
     7
100
AcDbLine
 10
-647.0991821289062
 20
734.2423706054687
 30
0.0
 11
-647.0991821289062
 21
703.2423706054687
 31
0.0
  0
LINE
  5
45D
330
22
100
AcDbEntity
  8
0
  6
Continuous
 62
     7
100
AcDbLine
 10
-642.0991821289062
 20
734.2423706054687
 30
0.0
 11
-642.0991821289062
 21
703.2423706054687
 31
0.0
  0
LINE
  5
45E
330
22
100
AcDbEntity
  8
0
  6
Continuous
 62
     7
100
AcDbLine
 10
-662.0991821289062
 20
734.2423706054687
 30
0.0
 11
-662.0991821289062
 21
703.2423706054687
 31
0.0
  0
LINE
  5
45F
330
22
100
AcDbEntity
  8
0
  6
Continuous
 62
     7
100
AcDbLine
 10
-667.0991821289062
 20
734.2423706054687
 30
0.0
 11
-667.0991821289062
 21
703.2423706054687
 31
0.0
  0
LINE
  5
460
330
22
100
AcDbEntity
  8
0
  6
Continuous
 62
     7
100
AcDbLine
 10
-622.0991821289062
 20
734.2423706054687
 30
0.0
 11
-622.0991821289062
 21
703.2423706054687
 31
0.0
  0
LINE
  5
461
330
22
100
AcDbEntity
  8
0
  6
Continuous
 62
     7
100
AcDbLine
 10
-632.0991821289062
 20
734.2423706054687
 30
0.0
 11
-632.0991821289062
 21
724.2423706054687
 31
0.0
  0
LINE
  5
462
330
22
100
AcDbEntity
  8
0
  6
Continuous
 62
     7
100
AcDbLine
 10
-672.0991821289062
 20
734.2423706054687
 30
0.0
 11
-672.0991821289062
 21
724.2423706054687
 31
0.0
  0
LINE
  5
463
330
22
100
AcDbEntity
  8
0
  6
Continuous
 62
     7
100
AcDbLine
 10
-657.0991821289062
 20
734.2423706054687
 30
0.0
 11
-657.0991821289062
 21
724.2423706054687
 31
0.0
  0
LINE
  5
464
330
22
100
AcDbEntity
  8
0
  6
Continuous
 62
     7
100
AcDbLine
 10
-697.0991821289062
 20
548.2423706054688
 30
0.0
 11
-697.0991821289062
 21
579.5671997070312
 31
0.0
  0
LINE
  5
465
330
22
100
AcDbEntity
  8
0
  6
Continuous
 62
     7
100
AcDbLine
 10
-692.0991821289062
 20
548.2423706054688
 30
0.0
 11
-692.0991821289062
 21
579.5671997070312
 31
0.0
  0
LINE
  5
466
330
22
100
AcDbEntity
  8
0
  6
Continuous
 62
     7
100
AcDbLine
 10
-712.0991821289062
 20
548.2423706054688
 30
0.0
 11
-712.0991821289062
 21
579.5671997070312
 31
0.0
  0
LINE
  5
467
330
22
100
AcDbEntity
  8
0
  6
Continuous
 62
     7
100
AcDbLine
 10
-717.0991821289062
 20
548.2423706054688
 30
0.0
 11
-717.0991821289062
 21
579.5671997070312
 31
0.0
  0
LINE
  5
468
330
22
100
AcDbEntity
  8
0
  6
Continuous
 62
     7
100
AcDbLine
 10
-617.0991821289062
 20
548.2423706054688
 30
0.0
 11
-617.0991821289062
 21
579.5671997070312
 31
0.0
  0
LINE
  5
469
330
22
100
AcDbEntity
  8
0
  6
Continuous
 62
     7
100
AcDbLine
 10
-622.0991821289062
 20
527.2423706054688
 30
0.0
 11
-622.0991821289062
 21
558.2423706054688
 31
0.0
  0
LINE
  5
46A
330
22
100
AcDbEntity
  8
0
  6
Continuous
 62
     7
100
AcDbLine
 10
-642.0991821289062
 20
527.2423706054688
 30
0.0
 11
-642.0991821289062
 21
558.2423706054688
 31
0.0
  0
LINE
  5
46B
330
22
100
AcDbEntity
  8
0
  6
Continuous
 62
     7
100
AcDbLine
 10
-647.0991821289062
 20
527.2423706054688
 30
0.0
 11
-647.0991821289062
 21
558.2423706054688
 31
0.0
  0
LINE
  5
46C
330
22
100
AcDbEntity
  8
0
  6
Continuous
 62
     7
100
AcDbLine
 10
-627.0991821289062
 20
527.2423706054688
 30
0.0
 11
-627.0991821289062
 21
558.2423706054688
 31
0.0
  0
LINE
  5
46D
330
22
100
AcDbEntity
  8
0
  6
Continuous
 62
     7
100
AcDbLine
 10
-667.0991821289062
 20
527.2423706054688
 30
0.0
 11
-667.0991821289062
 21
558.2423706054688
 31
0.0
  0
LINE
  5
46E
330
22
100
AcDbEntity
  8
0
  6
Continuous
 62
     7
100
AcDbLine
 10
-662.0991821289062
 20
527.2423706054688
 30
0.0
 11
-662.0991821289062
 21
558.2423706054688
 31
0.0
  0
LINE
  5
46F
330
22
100
AcDbEntity
  8
0
  6
Continuous
 62
     7
100
AcDbLine
 10
-672.0991821289062
 20
548.2423706054688
 30
0.0
 11
-672.0991821289062
 21
579.5671997070312
 31
0.0
  0
LINE
  5
470
330
22
100
AcDbEntity
  8
0
  6
Continuous
 62
     7
100
AcDbLine
 10
-632.0991821289062
 20
548.2423706054688
 30
0.0
 11
-632.0991821289062
 21
579.5671997070312
 31
0.0
  0
LINE
  5
471
330
22
100
AcDbEntity
  8
0
  6
Continuous
 62
     7
100
AcDbLine
 10
-637.0991821289062
 20
548.2423706054688
 30
0.0
 11
-637.0991821289062
 21
579.5671997070312
 31
0.0
  0
LINE
  5
472
330
22
100
AcDbEntity
  8
0
  6
Continuous
 62
     7
100
AcDbLine
 10
-657.0991821289062
 20
548.2423706054688
 30
0.0
 11
-657.0991821289062
 21
579.5671997070312
 31
0.0
  0
LINE
  5
473
330
22
100
AcDbEntity
  8
0
  6
Continuous
 62
     7
100
AcDbLine
 10
-652.0991821289062
 20
548.2423706054688
 30
0.0
 11
-652.0991821289062
 21
579.5671997070312
 31
0.0
  0
LINE
  5
474
330
22
100
AcDbEntity
  8
0
  6
Continuous
 62
     7
100
AcDbLine
 10
-612.0991821289062
 20
548.2423706054688
 30
0.0
 11
-612.0991821289062
 21
579.5671997070312
 31
0.0
  0
LINE
  5
475
330
22
100
AcDbEntity
  8
0
  6
Continuous
 62
     7
100
AcDbLine
 10
-607.0991821289062
 20
527.2423706054688
 30
0.0
 11
-607.0991821289062
 21
558.2423706054688
 31
0.0
  0
LINE
  5
476
330
22
100
AcDbEntity
  8
0
  6
DASHED
 62
     7
100
AcDbLine
 10
-595.5991821289062
 20
486.0724792480469
 30
0.0
 11
-595.5991821289062
 21
605.2423706054687
 31
0.0
  0
LINE
  5
477
330
22
100
AcDbEntity
  8
0
  6
Continuous
 62
     7
100
AcDbLine
 10
-602.0991821289062
 20
527.2423706054688
 30
0.0
 11
-602.0991821289062
 21
558.2423706054688
 31
0.0
  0
LINE
  5
478
330
22
100
AcDbEntity
  8
0
  6
Continuous
 62
     7
100
AcDbLine
 10
-559.0991821289064
 20
527.2423706054688
 30
0.0
 11
-559.0991821289064
 21
558.2423706054688
 31
0.0
  0
LINE
  5
479
330
22
100
AcDbEntity
  8
0
  6
DASHED
 62
     7
100
AcDbLine
 10
-590.5991821289062
 20
605.2423706054687
 30
0.0
 11
-590.5991821289062
 21
486.0724792480469
 31
0.0
  0
LINE
  5
47A
330
22
100
AcDbEntity
  8
0
  6
Continuous
 62
     7
100
AcDbLine
 10
-564.0991821289062
 20
527.2423706054688
 30
0.0
 11
-564.0991821289062
 21
558.2423706054688
 31
0.0
  0
LINE
  5
47B
330
22
100
AcDbEntity
  8
0
  6
Continuous
 62
     7
100
AcDbLine
 10
-584.0991821289062
 20
527.2423706054688
 30
0.0
 11
-584.0991821289062
 21
558.2423706054688
 31
0.0
  0
LINE
  5
47C
330
22
100
AcDbEntity
  8
0
  6
Continuous
 62
     7
100
AcDbLine
 10
-579.0991821289062
 20
527.2423706054688
 30
0.0
 11
-579.0991821289062
 21
558.2423706054688
 31
0.0
  0
LINE
  5
47D
330
22
100
AcDbEntity
  8
0
  6
Continuous
 62
     7
100
AcDbLine
 10
-677.0991821289062
 20
713.2423706054687
 30
0.0
 11
-677.0991821289062
 21
682.2423706054687
 31
0.0
  0
LINE
  5
47E
330
22
100
AcDbEntity
  8
0
  6
Continuous
 62
     7
100
AcDbLine
 10
-677.0991821289062
 20
734.2423706054687
 30
0.0
 11
-677.0991821289062
 21
724.2423706054687
 31
0.0
  0
LINE
  5
47F
330
22
100
AcDbEntity
  8
0
  6
DASHED
 62
     7
100
AcDbLine
 10
-724.5991821289062
 20
602.7423706054687
 30
0.0
 11
-724.5991821289062
 21
488.7423706054688
 31
0.0
  0
LINE
  5
480
330
22
100
AcDbEntity
  8
0
  6
Continuous
 62
     7
100
AcDbLine
 10
-682.0991821289062
 20
527.2423706054688
 30
0.0
 11
-682.0991821289062
 21
558.2423706054688
 31
0.0
  0
LINE
  5
481
330
22
100
AcDbEntity
  8
0
  6
Continuous
 62
     7
100
AcDbLine
 10
-687.0991821289062
 20
527.2423706054688
 30
0.0
 11
-687.0991821289062
 21
558.2423706054688
 31
0.0
  0
LINE
  5
482
330
22
100
AcDbEntity
  8
0
  6
Continuous
 62
     7
100
AcDbLine
 10
-702.0991821289062
 20
527.2423706054688
 30
0.0
 11
-702.0991821289062
 21
558.2423706054688
 31
0.0
  0
LINE
  5
483
330
22
100
AcDbEntity
  8
0
  6
Continuous
 62
     7
100
AcDbLine
 10
-707.0991821289062
 20
527.2423706054688
 30
0.0
 11
-707.0991821289062
 21
558.2423706054688
 31
0.0
  0
LINE
  5
484
330
22
100
AcDbEntity
  8
0
  6
DASHED
 62
     7
100
AcDbLine
 10
-600.0991821289062
 20
478.2423706054688
 30
0.0
 11
-714.0991821289063
 21
478.2423706054688
 31
0.0
  0
LINE
  5
485
330
22
100
AcDbEntity
  8
0
  6
DASHED
 62
     7
100
AcDbLine
 10
-716.588623046875
 20
612.2423706054687
 30
0.0
 11
-597.5991821289063
 21
612.2423706054687
 31
0.0
  0
LINE
  5
486
330
22
100
AcDbEntity
  8
0
  6
DASHED
 62
     7
100
AcDbLine
 10
-716.48876953125
 20
607.2423706054687
 30
0.0
 11
-597.5991821289063
 21
607.2423706054687
 31
0.0
  0
LINE
  5
487
330
22
100
AcDbEntity
  8
0
  6
Continuous
 62
     7
100
AcDbLine
 10
-677.0991821289062
 20
628.9174804687499
 30
0.0
 11
-677.0991821289062
 21
619.2423706054687
 31
0.0
  0
LINE
  5
488
330
22
100
AcDbEntity
  8
0
  6
Continuous
 62
     7
100
AcDbLine
 10
-677.0991821289062
 20
485.2423706054688
 30
0.0
 11
-677.0991821289062
 21
495.2423706054688
 31
0.0
  0
LINE
  5
489
330
22
100
AcDbEntity
  8
0
  6
Continuous
 62
     7
100
AcDbLine
 10
-677.0991821289062
 20
548.2423706054688
 30
0.0
 11
-677.0991821289062
 21
579.5671997070312
 31
0.0
  0
LINE
  5
48A
330
22
100
AcDbEntity
  8
0
  6
Continuous
 62
     7
100
AcDbLine
 10
-677.0991821289062
 20
590.5671997070312
 30
0.0
 11
-677.0991821289062
 21
600.2423706054687
 31
0.0
  0
LINE
  5
48B
330
22
100
AcDbEntity
  8
0
  6
Continuous
 62
     7
100
AcDbLine
 10
-677.0991821289062
 20
506.2423706054688
 30
0.0
 11
-677.0991821289062
 21
537.2423706054688
 31
0.0
  0
LINE
  5
48C
330
22
100
AcDbEntity
  8
0
  6
DASHED
 62
     7
100
AcDbLine
 10
-600.0991821289062
 20
741.2423706054688
 30
0.0
 11
-714.0991821289063
 21
741.2423706054688
 31
0.0
  0
LINE
  5
48D
330
22
100
AcDbEntity
  8
0
  6
Continuous
 62
     7
100
AcDbLine
 10
-504.0992126464844
 20
650.2423706054687
 30
0.0
 11
-504.0992126464844
 21
619.2423706054687
 31
0.0
  0
LINE
  5
48E
330
22
100
AcDbEntity
  8
0
  6
Continuous
 62
     7
100
AcDbLine
 10
-499.0992126464844
 20
650.2423706054687
 30
0.0
 11
-499.0992126464844
 21
619.2423706054687
 31
0.0
  0
LINE
  5
48F
330
22
100
AcDbEntity
  8
0
  6
Continuous
 62
     7
100
AcDbLine
 10
-519.0991821289063
 20
650.2423706054687
 30
0.0
 11
-519.0991821289063
 21
619.2423706054687
 31
0.0
  0
LINE
  5
490
330
22
100
AcDbEntity
  8
0
  6
Continuous
 62
     7
100
AcDbLine
 10
-524.0991821289063
 20
650.2423706054687
 30
0.0
 11
-524.0991821289063
 21
619.2423706054687
 31
0.0
  0
LINE
  5
491
330
22
100
AcDbEntity
  8
0
  6
Continuous
 62
     7
100
AcDbLine
 10
-539.0991821289063
 20
650.2423706054687
 30
0.0
 11
-539.0991821289063
 21
619.2423706054687
 31
0.0
  0
LINE
  5
492
330
22
100
AcDbEntity
  8
0
  6
Continuous
 62
     7
100
AcDbLine
 10
-484.0992126464843
 20
650.2423706054687
 30
0.0
 11
-484.0992126464843
 21
619.2423706054687
 31
0.0
  0
LINE
  5
493
330
22
100
AcDbEntity
  8
0
  6
Continuous
 62
     7
100
AcDbLine
 10
-479.0992126464844
 20
650.2423706054687
 30
0.0
 11
-479.0992126464844
 21
619.2423706054687
 31
0.0
  0
LINE
  5
494
330
22
100
AcDbEntity
  8
0
  6
Continuous
 62
     7
100
AcDbLine
 10
-489.0992126464843
 20
671.2423706054687
 30
0.0
 11
-489.0992126464843
 21
639.91748046875
 31
0.0
  0
LINE
  5
495
330
22
100
AcDbEntity
  8
0
  6
Continuous
 62
     7
100
AcDbLine
 10
-494.0992126464843
 20
671.2423706054687
 30
0.0
 11
-494.0992126464843
 21
639.91748046875
 31
0.0
  0
LINE
  5
496
330
22
100
AcDbEntity
  8
0
  6
Continuous
 62
     7
100
AcDbLine
 10
-509.0992126464843
 20
671.2423706054687
 30
0.0
 11
-509.0992126464843
 21
639.91748046875
 31
0.0
  0
LINE
  5
497
330
22
100
AcDbEntity
  8
0
  6
Continuous
 62
     7
100
AcDbLine
 10
-529.0991821289063
 20
671.2423706054687
 30
0.0
 11
-529.0991821289063
 21
639.91748046875
 31
0.0
  0
LINE
  5
498
330
22
100
AcDbEntity
  8
0
  6
Continuous
 62
     7
100
AcDbLine
 10
-474.0992126464844
 20
671.2423706054687
 30
0.0
 11
-474.0992126464844
 21
639.91748046875
 31
0.0
  0
LINE
  5
499
330
22
100
AcDbEntity
  8
0
  6
Continuous
 62
     7
100
AcDbLine
 10
-534.0991821289064
 20
671.2423706054687
 30
0.0
 11
-534.0991821289064
 21
639.91748046875
 31
0.0
  0
LINE
  5
49A
330
22
100
AcDbEntity
  8
0
  6
Continuous
 62
     7
100
AcDbLine
 10
-514.0991821289063
 20
671.2423706054687
 30
0.0
 11
-514.0991821289063
 21
639.91748046875
 31
0.0
  0
LINE
  5
49B
330
22
100
AcDbEntity
  8
0
  6
Continuous
 62
     7
100
AcDbLine
 10
-469.0992126464843
 20
671.2423706054687
 30
0.0
 11
-469.0992126464843
 21
639.91748046875
 31
0.0
  0
LINE
  5
49C
330
22
100
AcDbEntity
  8
0
  6
Continuous
 62
     7
100
AcDbLine
 10
-457.5992126464844
 20
475.2423706054687
 30
0.0
 11
-457.5992126464844
 21
744.2423706054687
 31
0.0
  0
LINE
  5
49D
330
22
100
AcDbEntity
  8
0
  6
DASHED
 62
     7
100
AcDbLine
 10
-461.5992126464844
 20
616.7423706054687
 30
0.0
 11
-461.5992126464844
 21
730.7423706054687
 31
0.0
  0
LINE
  5
49E
330
22
100
AcDbEntity
  8
0
  6
Continuous
 62
     7
100
AcDbLine
 10
-458.5992126464843
 20
477.2423706054688
 30
0.0
 11
-458.5992126464843
 21
742.2423706054687
 31
0.0
  0
LINE
  5
49F
330
22
100
AcDbEntity
  8
0
  6
Continuous
 62
     7
100
AcDbLine
 10
-692.0991821289062
 20
671.2423706054687
 30
0.0
 11
-692.0991821289062
 21
639.91748046875
 31
0.0
  0
LINE
  5
4A0
330
22
100
AcDbEntity
  8
0
  6
Continuous
 62
     7
100
AcDbLine
 10
-697.0991821289062
 20
671.2423706054687
 30
0.0
 11
-697.0991821289062
 21
639.91748046875
 31
0.0
  0
LINE
  5
4A1
330
22
100
AcDbEntity
  8
0
  6
Continuous
 62
     7
100
AcDbLine
 10
-717.0991821289062
 20
671.2423706054687
 30
0.0
 11
-717.0991821289062
 21
639.91748046875
 31
0.0
  0
LINE
  5
4A2
330
22
100
AcDbEntity
  8
0
  6
Continuous
 62
     7
100
AcDbLine
 10
-712.0991821289062
 20
671.2423706054687
 30
0.0
 11
-712.0991821289062
 21
639.91748046875
 31
0.0
  0
LINE
  5
4A3
330
22
100
AcDbEntity
  8
0
  6
Continuous
 62
     7
100
AcDbLine
 10
-677.0991821289062
 20
671.2423706054687
 30
0.0
 11
-677.0991821289062
 21
639.91748046875
 31
0.0
  0
LINE
  5
4A4
330
22
100
AcDbEntity
  8
0
  6
Continuous
 62
     7
100
AcDbLine
 10
-632.0991821289062
 20
671.2423706054687
 30
0.0
 11
-632.0991821289062
 21
639.91748046875
 31
0.0
  0
LINE
  5
4A5
330
22
100
AcDbEntity
  8
0
  6
Continuous
 62
     7
100
AcDbLine
 10
-652.0991821289062
 20
671.2423706054687
 30
0.0
 11
-652.0991821289062
 21
639.91748046875
 31
0.0
  0
LINE
  5
4A6
330
22
100
AcDbEntity
  8
0
  6
Continuous
 62
     7
100
AcDbLine
 10
-672.0991821289062
 20
671.2423706054687
 30
0.0
 11
-672.0991821289062
 21
639.91748046875
 31
0.0
  0
LINE
  5
4A7
330
22
100
AcDbEntity
  8
0
  6
Continuous
 62
     7
100
AcDbLine
 10
-657.0991821289062
 20
671.2423706054687
 30
0.0
 11
-657.0991821289062
 21
639.91748046875
 31
0.0
  0
LINE
  5
4A8
330
22
100
AcDbEntity
  8
0
  6
Continuous
 62
     7
100
AcDbLine
 10
-637.0991821289062
 20
671.2423706054687
 30
0.0
 11
-637.0991821289062
 21
639.91748046875
 31
0.0
  0
LINE
  5
4A9
330
22
100
AcDbEntity
  8
0
  6
Continuous
 62
     7
100
AcDbLine
 10
-612.0991821289062
 20
671.2423706054687
 30
0.0
 11
-612.0991821289062
 21
639.91748046875
 31
0.0
  0
LINE
  5
4AA
330
22
100
AcDbEntity
  8
0
  6
Continuous
 62
     7
100
AcDbLine
 10
-569.0991821289062
 20
671.2423706054687
 30
0.0
 11
-569.0991821289062
 21
639.91748046875
 31
0.0
  0
LINE
  5
4AB
330
22
100
AcDbEntity
  8
0
  6
Continuous
 62
     7
100
AcDbLine
 10
-574.0991821289062
 20
671.2423706054687
 30
0.0
 11
-574.0991821289062
 21
639.91748046875
 31
0.0
  0
LINE
  5
4AC
330
22
100
AcDbEntity
  8
0
  6
DASHED
 62
     7
100
AcDbLine
 10
-724.5991821289062
 20
730.7423706054687
 30
0.0
 11
-724.5991821289062
 21
616.7423706054687
 31
0.0
  0
LINE
  5
4AD
330
22
100
AcDbEntity
  8
0
  6
Continuous
 62
     7
100
AcDbLine
 10
-728.5991821289062
 20
744.2423706054687
 30
0.0
 11
-728.5991821289062
 21
475.2423706054687
 31
0.0
  0
LINE
  5
4AE
330
22
100
AcDbEntity
  8
0
  6
Continuous
 62
     7
100
AcDbLine
 10
-727.5991821289062
 20
742.2423706054687
 30
0.0
 11
-727.5991821289062
 21
477.2423706054688
 31
0.0
  0
LINE
  5
4AF
330
22
100
AcDbEntity
  8
0
  6
DASHED
 62
     7
100
AcDbLine
 10
-590.5991821289062
 20
733.4122314453125
 30
0.0
 11
-590.5991821289062
 21
614.2423706054687
 31
0.0
  0
LINE
  5
4B0
330
22
100
AcDbEntity
  8
0
  6
DASHED
 62
     7
100
AcDbLine
 10
-595.5991821289062
 20
614.2423706054687
 30
0.0
 11
-595.5991821289062
 21
733.4122314453125
 31
0.0
  0
LINE
  5
4B1
330
22
100
AcDbEntity
  8
0
  6
Continuous
 62
     7
100
AcDbLine
 10
-544.0991821289063
 20
650.2423706054687
 30
0.0
 11
-544.0991821289063
 21
619.2423706054687
 31
0.0
  0
LINE
  5
4B2
330
22
100
AcDbEntity
  8
0
  6
Continuous
 62
     7
100
AcDbLine
 10
-702.0991821289062
 20
650.2423706054687
 30
0.0
 11
-702.0991821289062
 21
619.2423706054687
 31
0.0
  0
LINE
  5
4B3
330
22
100
AcDbEntity
  8
0
  6
Continuous
 62
     7
100
AcDbLine
 10
-707.0991821289062
 20
650.2423706054687
 30
0.0
 11
-707.0991821289062
 21
619.2423706054687
 31
0.0
  0
LINE
  5
4B4
330
22
100
AcDbEntity
  8
0
  6
Continuous
 62
     7
100
AcDbLine
 10
-617.0991821289062
 20
671.2423706054687
 30
0.0
 11
-617.0991821289062
 21
639.91748046875
 31
0.0
  0
LINE
  5
4B5
330
22
100
AcDbEntity
  8
0
  6
Continuous
 62
     7
100
AcDbLine
 10
-662.0991821289062
 20
650.2423706054687
 30
0.0
 11
-662.0991821289062
 21
619.2423706054687
 31
0.0
  0
LINE
  5
4B6
330
22
100
AcDbEntity
  8
0
  6
Continuous
 62
     7
100
AcDbLine
 10
-667.0991821289062
 20
650.2423706054687
 30
0.0
 11
-667.0991821289062
 21
619.2423706054687
 31
0.0
  0
LINE
  5
4B7
330
22
100
AcDbEntity
  8
0
  6
Continuous
 62
     7
100
AcDbLine
 10
-642.0991821289062
 20
650.2423706054687
 30
0.0
 11
-642.0991821289062
 21
619.2423706054687
 31
0.0
  0
LINE
  5
4B8
330
22
100
AcDbEntity
  8
0
  6
Continuous
 62
     7
100
AcDbLine
 10
-647.0991821289062
 20
650.2423706054687
 30
0.0
 11
-647.0991821289062
 21
619.2423706054687
 31
0.0
  0
LINE
  5
4B9
330
22
100
AcDbEntity
  8
0
  6
Continuous
 62
     7
100
AcDbLine
 10
-627.0991821289062
 20
650.2423706054687
 30
0.0
 11
-627.0991821289062
 21
619.2423706054687
 31
0.0
  0
LINE
  5
4BA
330
22
100
AcDbEntity
  8
0
  6
Continuous
 62
     7
100
AcDbLine
 10
-622.0991821289062
 20
650.2423706054687
 30
0.0
 11
-622.0991821289062
 21
619.2423706054687
 31
0.0
  0
LINE
  5
4BB
330
22
100
AcDbEntity
  8
0
  6
Continuous
 62
     7
100
AcDbLine
 10
-682.0991821289062
 20
650.2423706054687
 30
0.0
 11
-682.0991821289062
 21
619.2423706054687
 31
0.0
  0
LINE
  5
4BC
330
22
100
AcDbEntity
  8
0
  6
Continuous
 62
     7
100
AcDbLine
 10
-687.0991821289062
 20
650.2423706054687
 30
0.0
 11
-687.0991821289062
 21
619.2423706054687
 31
0.0
  0
LINE
  5
4BD
330
22
100
AcDbEntity
  8
0
  6
Continuous
 62
     7
100
AcDbLine
 10
-584.0991821289062
 20
650.2423706054687
 30
0.0
 11
-584.0991821289062
 21
619.2423706054687
 31
0.0
  0
LINE
  5
4BE
330
22
100
AcDbEntity
  8
0
  6
Continuous
 62
     7
100
AcDbLine
 10
-559.0991821289064
 20
650.2423706054687
 30
0.0
 11
-559.0991821289064
 21
619.2423706054687
 31
0.0
  0
LINE
  5
4BF
330
22
100
AcDbEntity
  8
0
  6
Continuous
 62
     7
100
AcDbLine
 10
-564.0991821289062
 20
650.2423706054687
 30
0.0
 11
-564.0991821289062
 21
619.2423706054687
 31
0.0
  0
LINE
  5
4C0
330
22
100
AcDbEntity
  8
0
  6
Continuous
 62
     7
100
AcDbLine
 10
-579.0991821289062
 20
650.2423706054687
 30
0.0
 11
-579.0991821289062
 21
619.2423706054687
 31
0.0
  0
LINE
  5
4C1
330
22
100
AcDbEntity
  8
0
  6
Continuous
 62
     7
100
AcDbLine
 10
-607.0991821289062
 20
650.2423706054687
 30
0.0
 11
-607.0991821289062
 21
619.2423706054687
 31
0.0
  0
LINE
  5
4C2
330
22
100
AcDbEntity
  8
0
  6
Continuous
 62
     7
100
AcDbLine
 10
-602.0991821289062
 20
650.2423706054687
 30
0.0
 11
-602.0991821289062
 21
619.2423706054687
 31
0.0
  0
LINE
  5
4C3
330
22
100
AcDbEntity
  8
0
  6
Continuous
 62
     7
100
AcDbLine
 10
-549.0991821289063
 20
506.2423706054688
 30
0.0
 11
-549.0991821289063
 21
537.2423706054688
 31
0.0
  0
LINE
  5
4C4
330
22
100
AcDbEntity
  8
0
  6
Continuous
 62
     7
100
AcDbLine
 10
-549.0991821289063
 20
485.2423706054688
 30
0.0
 11
-549.0991821289063
 21
495.2423706054688
 31
0.0
  0
LINE
  5
4C5
330
22
100
AcDbEntity
  8
0
  6
Continuous
 62
     7
100
AcDbLine
 10
-549.0991821289063
 20
548.2423706054688
 30
0.0
 11
-549.0991821289063
 21
579.2423706054687
 31
0.0
  0
LINE
  5
4C6
330
22
100
AcDbEntity
  8
0
  6
Continuous
 62
     7
100
AcDbLine
 10
-549.0991821289063
 20
590.2423706054687
 30
0.0
 11
-549.0991821289063
 21
600.2423706054687
 31
0.0
  0
LINE
  5
4C7
330
22
100
AcDbEntity
  8
0
  6
DASHED
 62
     7
100
AcDbLine
 10
-472.0992126464843
 20
741.2423706054688
 30
0.0
 11
-586.0991821289062
 21
741.2423706054688
 31
0.0
  0
LINE
  5
4C8
330
22
100
AcDbEntity
  8
0
  6
Continuous
 62
     7
100
AcDbLine
 10
-554.0991821289063
 20
713.2423706054687
 30
0.0
 11
-554.0991821289063
 21
682.2423706054687
 31
0.0
  0
LINE
  5
4C9
330
22
100
AcDbEntity
  8
0
  6
Continuous
 62
     7
100
AcDbLine
 10
-554.0991821289063
 20
671.2423706054687
 30
0.0
 11
-554.0991821289063
 21
639.91748046875
 31
0.0
  0
LINE
  5
4CA
330
22
100
AcDbEntity
  8
0
  6
Continuous
 62
     7
100
AcDbLine
 10
-554.0991821289063
 20
734.2423706054687
 30
0.0
 11
-554.0991821289063
 21
724.2423706054687
 31
0.0
  0
LINE
  5
4CB
330
22
100
AcDbEntity
  8
0
  6
Continuous
 62
     7
100
AcDbLine
 10
-549.0991821289063
 20
713.2423706054687
 30
0.0
 11
-549.0991821289063
 21
682.2423706054687
 31
0.0
  0
LINE
  5
4CC
330
22
100
AcDbEntity
  8
0
  6
Continuous
 62
     7
100
AcDbLine
 10
-549.0991821289063
 20
734.2423706054687
 30
0.0
 11
-549.0991821289063
 21
724.2423706054687
 31
0.0
  0
LINE
  5
4CD
330
22
100
AcDbEntity
  8
0
  6
Continuous
 62
     7
100
AcDbLine
 10
-549.0991821289063
 20
671.2423706054687
 30
0.0
 11
-549.0991821289063
 21
639.91748046875
 31
0.0
  0
LINE
  5
4CE
330
22
100
AcDbEntity
  8
0
  6
Continuous
 62
     7
100
AcDbLine
 10
-738.0991821289062
 20
459.7423706054688
 30
0.0
 11
-448.0992126464843
 21
459.7423706054688
 31
0.0
  0
LINE
  5
4CF
330
22
100
AcDbEntity
  8
0
  6
Continuous
 62
     7
100
AcDbLine
 10
-460.5992126464843
 20
744.2423706054687
 30
0.0
 11
-725.5991821289062
 21
744.2423706054687
 31
0.0
  0
LINE
  5
4D0
330
22
100
AcDbEntity
  8
0
  6
CENTER
 62
     7
100
AcDbLine
 10
-754.4890747070312
 20
609.7423706054687
 30
0.0
 11
-432.9683227539063
 21
609.7423706054687
 31
0.0
  0
LINE
  5
4D1
330
22
100
AcDbEntity
  8
0
  6
Continuous
 62
     7
100
AcDbLine
 10
-448.0992126464843
 20
759.7423706054687
 30
0.0
 11
-738.0991821289062
 21
759.7423706054687
 31
0.0
  0
LINE
  5
4D2
330
22
100
AcDbEntity
  8
0
  6
Continuous
 62
     7
100
AcDbLine
 10
-727.5991821289062
 20
474.2423706054688
 30
0.0
 11
-458.5992126464843
 21
474.2423706054688
 31
0.0
  0
LINE
  5
4D3
330
22
100
AcDbEntity
  8
0
  6
Continuous
 62
     7
100
AcDbLine
 10
-458.5992126464843
 20
745.2423706054688
 30
0.0
 11
-727.5991821289062
 21
745.2423706054688
 31
0.0
  0
LINE
  5
4D4
330
22
100
AcDbEntity
  8
0
  6
Continuous
 62
     7
100
AcDbLine
 10
-460.5992126464843
 20
475.2423706054687
 30
0.0
 11
-725.5991821289062
 21
475.2423706054687
 31
0.0
  0
LINE
  5
4D5
330
22
100
AcDbEntity
  8
0
  6
Continuous
 62
     7
100
AcDbLine
 10
-549.0991821289063
 20
628.9174804687499
 30
0.0
 11
-549.0991821289063
 21
619.2423706054687
 31
0.0
  0
LINE
  5
4D6
330
22
100
AcDbEntity
  8
0
  6
Continuous
 62
     7
100
AcDbLine
 10
-554.0991821289063
 20
628.9174804687499
 30
0.0
 11
-554.0991821289063
 21
619.2423706054687
 31
0.0
  0
LINE
  5
4D7
330
22
100
AcDbEntity
  8
0
  6
DASHED
 62
     7
100
AcDbLine
 10
-588.5991821289062
 20
612.2423706054687
 30
0.0
 11
-469.3294982910156
 21
612.2423706054687
 31
0.0
  0
LINE
  5
4D8
330
22
100
AcDbEntity
  8
0
  6
DASHED
 62
     7
100
AcDbLine
 10
-472.0992126464843
 20
478.2423706054688
 30
0.0
 11
-586.0991821289062
 21
478.2423706054688
 31
0.0
  0
LINE
  5
4D9
330
22
100
AcDbEntity
  8
0
  6
DASHED
 62
     7
100
AcDbLine
 10
-588.5991821289062
 20
607.2423706054687
 30
0.0
 11
-469.4293518066406
 21
607.2423706054687
 31
0.0
  0
LINE
  5
4DA
330
22
100
AcDbEntity
  8
0
  6
Continuous
 62
     7
100
AcDbLine
 10
-554.0991821289063
 20
590.2423706054687
 30
0.0
 11
-554.0991821289063
 21
600.2423706054687
 31
0.0
  0
LINE
  5
4DB
330
22
100
AcDbEntity
  8
0
  6
Continuous
 62
     7
100
AcDbLine
 10
-554.0991821289063
 20
548.2423706054688
 30
0.0
 11
-554.0991821289063
 21
579.2423706054687
 31
0.0
  0
LINE
  5
4DC
330
22
100
AcDbEntity
  8
0
  6
Continuous
 62
     7
100
AcDbLine
 10
-554.0991821289063
 20
485.2423706054688
 30
0.0
 11
-554.0991821289063
 21
495.2423706054688
 31
0.0
  0
LINE
  5
4DD
330
22
100
AcDbEntity
  8
0
  6
Continuous
 62
     7
100
AcDbLine
 10
-554.0991821289063
 20
506.2423706054688
 30
0.0
 11
-554.0991821289063
 21
537.2423706054688
 31
0.0
  0
LINE
  5
4DE
330
22
100
AcDbEntity
  8
0
  6
CENTER
 62
     7
100
AcDbLine
 10
-593.0991821289062
 20
767.7982177734374
 30
0.0
 11
-593.0991821289062
 21
450.0075073242188
 31
0.0
  0
LINE
  5
4DF
330
22
100
AcDbEntity
  8
0
  6
Continuous
 62
     7
100
AcDbLine
 10
-743.0991821289062
 20
754.7423706054687
 30
0.0
 11
-743.0991821289062
 21
464.7423706054688
 31
0.0
  0
LINE
  5
4E0
330
22
100
AcDbEntity
  8
0
  6
Continuous
 62
     7
100
AcDbLine
 10
-443.0992126464843
 20
464.7423706054688
 30
0.0
 11
-443.0992126464843
 21
754.7423706054687
 31
0.0
  0
ARC
  5
4E1
330
22
100
AcDbEntity
  8
0
  6
Continuous
 62
     7
100
AcDbCircle
 10
-452.0992126464843
 20
386.1504516601563
 30
0.0
 40
1.0
100
AcDbArc
 50
90.00000000000019
 51
180.0000000000004
  0
ARC
  5
4E2
330
22
100
AcDbEntity
  8
0
  6
Continuous
 62
     7
100
AcDbCircle
 10
-459.0992126464843
 20
384.6504516601563
 30
0.0
 40
1.0
100
AcDbArc
 50
270.0000000000005
 51
0.0
  0
ARC
  5
4E3
330
22
100
AcDbEntity
  8
0
  6
Continuous
 62
     7
100
AcDbCircle
 10
-458.0992126464844
 20
369.0372009277344
 30
0.0
 40
5.0
100
AcDbArc
 50
300.0001052890317
 51
0.0
  0
ARC
  5
4E4
330
22
100
AcDbEntity
  8
0
  6
Continuous
 62
     7
100
AcDbCircle
 10
-444.0992126464843
 20
388.1504516601563
 30
0.0
 40
1.0
100
AcDbArc
 50
270.0000000000005
 51
0.0
  0
ARC
  5
4E5
330
22
100
AcDbEntity
  8
0
  6
Continuous
 62
     7
100
AcDbCircle
 10
-444.0992126464843
 20
390.1504516601563
 30
0.0
 40
1.0
100
AcDbArc
 50
0.0
 51
90.00000000000019
  0
ARC
  5
4E6
330
22
100
AcDbEntity
  8
0
  6
Continuous
 62
     7
100
AcDbCircle
 10
-473.0992126464843
 20
362.6863708496094
 30
0.0
 40
3.0
100
AcDbArc
 50
299.9999304360001
 51
0.0
  0
ARC
  5
4E7
330
22
100
AcDbEntity
  8
0
  6
Continuous
 62
     7
100
AcDbCircle
 10
-539.5991821289063
 20
319.6737670898438
 30
0.0
 40
1.0
100
AcDbArc
 50
119.9999304359993
 51
180.0000000000004
  0
ARC
  5
4E8
330
22
100
AcDbEntity
  8
0
  6
Continuous
 62
     7
100
AcDbCircle
 10
-526.5991821289063
 20
317.9417114257813
 30
0.0
 40
5.0
100
AcDbArc
 50
119.9999304359993
 51
180.0000000000004
  0
ARC
  5
4E9
330
22
100
AcDbEntity
  8
0
  6
Continuous
 62
     7
100
AcDbCircle
 10
-539.5991821289063
 20
318.8299560546875
 30
0.0
 40
1.0
100
AcDbArc
 50
180.0000000000004
 51
270.0000000000005
  0
ARC
  5
4EA
330
22
100
AcDbEntity
  8
0
  6
Continuous
 62
     7
100
AcDbCircle
 10
-529.5991821289063
 20
183.6504669189453
 30
0.0
 40
1.0
100
AcDbArc
 50
90.00000000000019
 51
180.0000000000004
  0
ARC
  5
4EB
330
22
100
AcDbEntity
  8
0
  6
Continuous
 62
     7
100
AcDbCircle
 10
-533.0991821289063
 20
227.1504669189453
 30
0.0
 40
1.0
100
AcDbArc
 50
0.0
 51
90.00000000000019
  0
ARC
  5
4EC
330
22
100
AcDbEntity
  8
0
  6
Continuous
 62
     7
100
AcDbCircle
 10
-527.0991821289063
 20
193.1504669189453
 30
0.0
 40
5.0
100
AcDbArc
 50
180.0000000000004
 51
270.0000000000005
  0
ARC
  5
4ED
330
22
100
AcDbEntity
  8
0
  6
Continuous
 62
     7
100
AcDbCircle
 10
-482.5992126464844
 20
185.1504669189453
 30
0.0
 40
0.5
100
AcDbArc
 50
270.0000000000005
 51
0.0
  0
ARC
  5
4EE
330
22
100
AcDbEntity
  8
0
  6
Continuous
 62
     7
100
AcDbCircle
 10
-484.0992126464843
 20
186.1504669189453
 30
0.0
 40
2.0
100
AcDbArc
 50
0.0
 51
90.00000000000019
  0
ARC
  5
4EF
330
22
100
AcDbEntity
  8
0
  6
Continuous
 62
     7
100
AcDbCircle
 10
-625.4108276367187
 20
277.6407775878906
 30
0.0
 40
9.522980690002439
100
AcDbArc
 50
63.32828332436469
 51
93.02769740042268
  0
ARC
  5
4F0
330
22
100
AcDbEntity
  8
0
  6
Continuous
 62
     7
100
AcDbCircle
 10
-660.5367431640624
 20
318.5144348144531
 30
0.0
 40
5.0
100
AcDbArc
 50
9.065055268667553
 51
54.01936894977891
  0
ARC
  5
4F1
330
22
100
AcDbEntity
  8
0
  6
Continuous
 62
     7
100
AcDbCircle
 10
-659.5991821289062
 20
317.9417114257813
 30
0.0
 40
5.0
100
AcDbArc
 50
0.0
 51
60.00006956400067
  0
ARC
  5
4F2
330
22
100
AcDbEntity
  8
0
  6
Continuous
 62
     7
100
AcDbCircle
 10
-625.2384033203124
 20
285.5814514160156
 30
0.0
 40
1.708203315734863
100
AcDbArc
 50
113.2906589445077
 51
160.5431017157958
  0
ARC
  5
4F3
330
22
100
AcDbEntity
  8
0
  6
Continuous
 62
     7
100
AcDbCircle
 10
-531.5991821289063
 20
144.1504669189453
 30
0.0
 40
1.0
100
AcDbArc
 50
270.0000000000005
 51
0.0
  0
ARC
  5
4F4
330
22
100
AcDbEntity
  8
0
  6
Continuous
 62
     7
100
AcDbCircle
 10
-702.0991821289062
 20
186.1504669189453
 30
0.0
 40
2.0
100
AcDbArc
 50
90.00000000000019
 51
180.0000000000004
  0
ARC
  5
4F5
330
22
100
AcDbEntity
  8
0
  6
Continuous
 62
     7
100
AcDbCircle
 10
-703.5991821289062
 20
185.1504669189453
 30
0.0
 40
0.5
100
AcDbArc
 50
180.0000000000004
 51
270.0000000000005
  0
ARC
  5
4F6
330
22
100
AcDbEntity
  8
0
  6
Continuous
 62
     7
100
AcDbCircle
 10
-654.5991821289062
 20
144.1504669189453
 30
0.0
 40
1.0
100
AcDbArc
 50
180.0000000000004
 51
270.0000000000005
  0
ARC
  5
4F7
330
22
100
AcDbEntity
  8
0
  6
Continuous
 62
     7
100
AcDbCircle
 10
-657.5991821289062
 20
164.6504669189453
 30
0.0
 40
2.0
100
AcDbArc
 50
180.0000000000004
 51
270.0000000000005
  0
ARC
  5
4F8
330
22
100
AcDbEntity
  8
0
  6
Continuous
 62
     7
100
AcDbCircle
 10
-659.0991821289062
 20
193.1504669189453
 30
0.0
 40
5.0
100
AcDbArc
 50
270.0000000000005
 51
0.0
  0
ARC
  5
4F9
330
22
100
AcDbEntity
  8
0
  6
Continuous
 62
     7
100
AcDbCircle
 10
-653.0991821289062
 20
227.1504669189453
 30
0.0
 40
1.0
100
AcDbArc
 50
90.00000000000019
 51
180.0000000000004
  0
ARC
  5
4FA
330
22
100
AcDbEntity
  8
0
  6
Continuous
 62
     7
100
AcDbCircle
 10
-656.5991821289062
 20
183.6504669189453
 30
0.0
 40
1.0
100
AcDbArc
 50
0.0
 51
90.00000000000019
  0
ARC
  5
4FB
330
22
100
AcDbEntity
  8
0
  6
Continuous
 62
     7
100
AcDbCircle
 10
-742.0991821289062
 20
390.1504516601563
 30
0.0
 40
1.0
100
AcDbArc
 50
90.00000000000019
 51
180.0000000000004
  0
ARC
  5
4FC
330
22
100
AcDbEntity
  8
0
  6
Continuous
 62
     7
100
AcDbCircle
 10
-742.0991821289062
 20
388.1504516601563
 30
0.0
 40
1.0
100
AcDbArc
 50
180.0000000000004
 51
270.0000000000005
  0
ARC
  5
4FD
330
22
100
AcDbEntity
  8
0
  6
Continuous
 62
     7
100
AcDbCircle
 10
-728.0991821289062
 20
369.0372009277344
 30
0.0
 40
5.0
100
AcDbArc
 50
180.0000000000004
 51
239.9998947109698
  0
ARC
  5
4FE
330
22
100
AcDbEntity
  8
0
  6
Continuous
 62
     7
100
AcDbCircle
 10
-677.4116210937499
 20
164.0588226318359
 30
0.0
 40
18.0
100
AcDbArc
 50
8.278236625634242
 51
73.10498678841887
  0
ARC
  5
4FF
330
22
100
AcDbEntity
  8
0
  6
Continuous
 62
     7
100
AcDbCircle
 10
-671.5991821289062
 20
183.1956024169922
 30
0.0
 40
2.0
100
AcDbArc
 50
180.0000000000004
 51
253.103341976441
  0
ARC
  5
500
330
22
100
AcDbEntity
  8
0
  6
DASHED
 62
     7
100
AcDbCircle
 10
-465.0992126464843
 20
737.7423706054687
 30
0.0
 40
5.0
100
AcDbArc
 50
180.0000000000004
 51
270.0000000000005
  0
ARC
  5
501
330
22
100
AcDbEntity
  8
0
  6
DASHED
 62
     7
100
AcDbCircle
 10
-463.5992126464843
 20
730.7423706054687
 30
0.0
 40
2.0
100
AcDbArc
 50
0.0
 51
90.00000000000019
  0
ARC
  5
502
330
22
100
AcDbEntity
  8
0
  6
Continuous
 62
     7
100
AcDbCircle
 10
-460.5992126464843
 20
742.2423706054687
 30
0.0
 40
2.0
100
AcDbArc
 50
0.0
 51
90.00000000000019
  0
ARC
  5
503
330
22
100
AcDbEntity
  8
0
  6
Continuous
 62
     7
100
AcDbCircle
 10
-448.0992126464843
 20
754.7423706054687
 30
0.0
 40
5.0
100
AcDbArc
 50
0.0
 51
90.00000000000019
  0
ARC
  5
504
330
22
100
AcDbEntity
  8
0
  6
Continuous
 62
     7
100
AcDbCircle
 10
-541.5991821289063
 20
734.2423706054687
 30
0.0
 40
2.5
100
AcDbArc
 50
0.0
 51
180.0000000000004
  0
ARC
  5
505
330
22
100
AcDbEntity
  8
0
  6
Continuous
 62
     7
100
AcDbCircle
 10
-481.5992126464843
 20
734.2423706054687
 30
0.0
 40
2.5
100
AcDbArc
 50
0.0
 51
180.0000000000004
  0
ARC
  5
506
330
22
100
AcDbEntity
  8
0
  6
Continuous
 62
     7
100
AcDbCircle
 10
-471.5992126464843
 20
729.2423706054687
 30
0.0
 40
2.5
100
AcDbArc
 50
0.0
 51
180.0000000000004
  0
CIRCLE
  5
507
330
22
100
AcDbEntity
  8
0
  6
Continuous
 62
     7
100
AcDbCircle
 10
-465.0992126464843
 20
737.7423706054687
 30
0.0
 40
4.75
  0
CIRCLE
  5
508
330
22
100
AcDbEntity
  8
0
  6
Continuous
 62
     7
100
AcDbCircle
 10
-465.0992126464843
 20
737.7423706054687
 30
0.0
 40
4.5
  0
ARC
  5
509
330
22
100
AcDbEntity
  8
0
  6
Continuous
 62
     7
100
AcDbCircle
 10
-531.5991821289063
 20
734.2423706054687
 30
0.0
 40
2.5
100
AcDbArc
 50
0.0
 51
180.0000000000004
  0
ARC
  5
50A
330
22
100
AcDbEntity
  8
0
  6
Continuous
 62
     7
100
AcDbCircle
 10
-458.5992126464843
 20
744.2423706054687
 30
0.0
 40
1.0
100
AcDbArc
 50
0.0
 51
90.00000000000019
  0
ARC
  5
50B
330
22
100
AcDbEntity
  8
0
  6
DASHED
 62
     7
100
AcDbCircle
 10
-472.0992126464843
 20
739.2423706054687
 30
0.0
 40
2.0
100
AcDbArc
 50
0.0
 51
90.00000000000019
  0
ARC
  5
50C
330
22
100
AcDbEntity
  8
0
  6
Continuous
 62
     7
100
AcDbCircle
 10
-511.5992126464844
 20
682.2423706054687
 30
0.0
 40
2.5
100
AcDbArc
 50
180.0000000000004
 51
0.0
  0
ARC
  5
50D
330
22
100
AcDbEntity
  8
0
  6
Continuous
 62
     7
100
AcDbCircle
 10
-511.5992126464844
 20
671.2423706054687
 30
0.0
 40
2.5
100
AcDbArc
 50
0.0
 51
180.0000000000004
  0
ARC
  5
50E
330
22
100
AcDbEntity
  8
0
  6
Continuous
 62
     7
100
AcDbCircle
 10
-521.5991821289064
 20
692.2423706054687
 30
0.0
 40
2.5
100
AcDbArc
 50
0.0
 51
180.0000000000004
  0
ARC
  5
50F
330
22
100
AcDbEntity
  8
0
  6
Continuous
 62
     7
100
AcDbCircle
 10
-501.5992126464843
 20
692.2423706054687
 30
0.0
 40
2.5
100
AcDbArc
 50
0.0
 51
180.0000000000004
  0
ARC
  5
510
330
22
100
AcDbEntity
  8
0
  6
Continuous
 62
     7
100
AcDbCircle
 10
-471.5992126464843
 20
671.2423706054687
 30
0.0
 40
2.5
100
AcDbArc
 50
0.0
 51
180.0000000000004
  0
ARC
  5
511
330
22
100
AcDbEntity
  8
0
  6
Continuous
 62
     7
100
AcDbCircle
 10
-471.5992126464843
 20
682.2423706054687
 30
0.0
 40
2.5
100
AcDbArc
 50
180.0000000000004
 51
0.0
  0
ARC
  5
512
330
22
100
AcDbEntity
  8
0
  6
Continuous
 62
     7
100
AcDbCircle
 10
-471.5992126464843
 20
713.2423706054687
 30
0.0
 40
2.5
100
AcDbArc
 50
0.0
 51
180.0000000000004
  0
ARC
  5
513
330
22
100
AcDbEntity
  8
0
  6
Continuous
 62
     7
100
AcDbCircle
 10
-521.5991821289064
 20
703.2423706054687
 30
0.0
 40
2.5
100
AcDbArc
 50
180.0000000000004
 51
0.0
  0
ARC
  5
514
330
22
100
AcDbEntity
  8
0
  6
Continuous
 62
     7
100
AcDbCircle
 10
-501.5992126464843
 20
703.2423706054687
 30
0.0
 40
2.5
100
AcDbArc
 50
180.0000000000004
 51
0.0
  0
ARC
  5
515
330
22
100
AcDbEntity
  8
0
  6
Continuous
 62
     7
100
AcDbCircle
 10
-481.5992126464843
 20
703.2423706054687
 30
0.0
 40
2.5
100
AcDbArc
 50
180.0000000000004
 51
0.0
  0
ARC
  5
516
330
22
100
AcDbEntity
  8
0
  6
Continuous
 62
     7
100
AcDbCircle
 10
-481.5992126464843
 20
692.2423706054687
 30
0.0
 40
2.5
100
AcDbArc
 50
0.0
 51
180.0000000000004
  0
ARC
  5
517
330
22
100
AcDbEntity
  8
0
  6
Continuous
 62
     7
100
AcDbCircle
 10
-491.5992126464844
 20
734.2423706054687
 30
0.0
 40
2.5
100
AcDbArc
 50
0.0
 51
180.0000000000004
  0
ARC
  5
518
330
22
100
AcDbEntity
  8
0
  6
Continuous
 62
     7
100
AcDbCircle
 10
-511.5992126464844
 20
734.2423706054687
 30
0.0
 40
2.5
100
AcDbArc
 50
0.0
 51
180.0000000000004
  0
ARC
  5
519
330
22
100
AcDbEntity
  8
0
  6
Continuous
 62
     7
100
AcDbCircle
 10
-521.5991821289064
 20
734.2423706054687
 30
0.0
 40
2.5
100
AcDbArc
 50
0.0
 51
180.0000000000004
  0
ARC
  5
51A
330
22
100
AcDbEntity
  8
0
  6
Continuous
 62
     7
100
AcDbCircle
 10
-501.5992126464843
 20
734.2423706054687
 30
0.0
 40
2.5
100
AcDbArc
 50
0.0
 51
180.0000000000004
  0
ARC
  5
51B
330
22
100
AcDbEntity
  8
0
  6
DASHED
 62
     7
100
AcDbCircle
 10
-465.0992126464843
 20
609.7423706054687
 30
0.0
 40
5.0
100
AcDbArc
 50
209.9999304360001
 51
270.0000000000005
  0
ARC
  5
51C
330
22
100
AcDbEntity
  8
0
  6
Continuous
 62
     7
100
AcDbCircle
 10
-521.5991821289064
 20
650.2423706054687
 30
0.0
 40
2.5
100
AcDbArc
 50
0.0
 51
180.0000000000004
  0
ARC
  5
51D
330
22
100
AcDbEntity
  8
0
  6
Continuous
 62
     7
100
AcDbCircle
 10
-541.5991821289063
 20
650.2423706054687
 30
0.0
 40
2.5
100
AcDbArc
 50
0.0
 51
180.0000000000004
  0
ARC
  5
51E
330
22
100
AcDbEntity
  8
0
  6
Continuous
 62
     7
100
AcDbCircle
 10
-541.5991821289063
 20
661.2423706054687
 30
0.0
 40
2.5
100
AcDbArc
 50
180.0000000000004
 51
0.0
  0
ARC
  5
51F
330
22
100
AcDbEntity
  8
0
  6
Continuous
 62
     7
100
AcDbCircle
 10
-521.5991821289064
 20
661.2423706054687
 30
0.0
 40
2.5
100
AcDbArc
 50
180.0000000000004
 51
0.0
  0
ARC
  5
520
330
22
100
AcDbEntity
  8
0
  6
Continuous
 62
     7
100
AcDbCircle
 10
-501.5992126464843
 20
661.2423706054687
 30
0.0
 40
2.5
100
AcDbArc
 50
180.0000000000004
 51
0.0
  0
ARC
  5
521
330
22
100
AcDbEntity
  8
0
  6
Continuous
 62
     7
100
AcDbCircle
 10
-501.5992126464843
 20
650.2423706054687
 30
0.0
 40
2.5
100
AcDbArc
 50
0.0
 51
180.0000000000004
  0
ARC
  5
522
330
22
100
AcDbEntity
  8
0
  6
Continuous
 62
     7
100
AcDbCircle
 10
-481.5992126464843
 20
650.2423706054687
 30
0.0
 40
2.5
100
AcDbArc
 50
0.0
 51
180.0000000000004
  0
ARC
  5
523
330
22
100
AcDbEntity
  8
0
  6
Continuous
 62
     7
100
AcDbCircle
 10
-481.5992126464843
 20
661.2423706054687
 30
0.0
 40
2.5
100
AcDbArc
 50
180.0000000000004
 51
0.0
  0
ARC
  5
524
330
22
100
AcDbEntity
  8
0
  6
Continuous
 62
     7
100
AcDbCircle
 10
-491.5992126464844
 20
671.2423706054687
 30
0.0
 40
2.5
100
AcDbArc
 50
0.0
 51
180.0000000000004
  0
ARC
  5
525
330
22
100
AcDbEntity
  8
0
  6
Continuous
 62
     7
100
AcDbCircle
 10
-491.5992126464844
 20
682.2423706054687
 30
0.0
 40
2.5
100
AcDbArc
 50
180.0000000000004
 51
0.0
  0
ARC
  5
526
330
22
100
AcDbEntity
  8
0
  6
Continuous
 62
     7
100
AcDbCircle
 10
-491.5992126464844
 20
713.2423706054687
 30
0.0
 40
2.5
100
AcDbArc
 50
0.0
 51
180.0000000000004
  0
ARC
  5
527
330
22
100
AcDbEntity
  8
0
  6
Continuous
 62
     7
100
AcDbCircle
 10
-511.5992126464844
 20
713.2423706054687
 30
0.0
 40
2.5
100
AcDbArc
 50
0.0
 51
180.0000000000004
  0
ARC
  5
528
330
22
100
AcDbEntity
  8
0
  6
Continuous
 62
     7
100
AcDbCircle
 10
-531.5991821289063
 20
713.2423706054687
 30
0.0
 40
2.5
100
AcDbArc
 50
0.0
 51
180.0000000000004
  0
ARC
  5
529
330
22
100
AcDbEntity
  8
0
  6
Continuous
 62
     7
100
AcDbCircle
 10
-531.5991821289063
 20
671.2423706054687
 30
0.0
 40
2.5
100
AcDbArc
 50
0.0
 51
180.0000000000004
  0
ARC
  5
52A
330
22
100
AcDbEntity
  8
0
  6
Continuous
 62
     7
100
AcDbCircle
 10
-541.5991821289063
 20
703.2423706054687
 30
0.0
 40
2.5
100
AcDbArc
 50
180.0000000000004
 51
0.0
  0
ARC
  5
52B
330
22
100
AcDbEntity
  8
0
  6
Continuous
 62
     7
100
AcDbCircle
 10
-541.5991821289063
 20
692.2423706054687
 30
0.0
 40
2.5
100
AcDbArc
 50
0.0
 51
180.0000000000004
  0
ARC
  5
52C
330
22
100
AcDbEntity
  8
0
  6
Continuous
 62
     7
100
AcDbCircle
 10
-531.5991821289063
 20
682.2423706054687
 30
0.0
 40
2.5
100
AcDbArc
 50
180.0000000000004
 51
0.0
  0
ARC
  5
52D
330
22
100
AcDbEntity
  8
0
  6
Continuous
 62
     7
100
AcDbCircle
 10
-471.5992126464843
 20
579.2423706054687
 30
0.0
 40
2.5
100
AcDbArc
 50
0.0
 51
180.0000000000004
  0
ARC
  5
52E
330
22
100
AcDbEntity
  8
0
  6
Continuous
 62
     7
100
AcDbCircle
 10
-471.5992126464843
 20
590.2423706054687
 30
0.0
 40
2.5
100
AcDbArc
 50
180.0000000000004
 51
0.0
  0
ARC
  5
52F
330
22
100
AcDbEntity
  8
0
  6
DASHED
 62
     7
100
AcDbCircle
 10
-463.5992126464843
 20
602.7423706054687
 30
0.0
 40
2.0
100
AcDbArc
 50
0.0
 51
90.00000000000019
  0
ARC
  5
530
330
22
100
AcDbEntity
  8
0
  6
Continuous
 62
     7
100
AcDbCircle
 10
-521.5991821289064
 20
600.2423706054687
 30
0.0
 40
2.5
100
AcDbArc
 50
0.0
 51
180.0000000000004
  0
ARC
  5
531
330
22
100
AcDbEntity
  8
0
  6
Continuous
 62
     7
100
AcDbCircle
 10
-511.5992126464844
 20
600.2423706054687
 30
0.0
 40
2.5
100
AcDbArc
 50
0.0
 51
180.0000000000004
  0
ARC
  5
532
330
22
100
AcDbEntity
  8
0
  6
Continuous
 62
     7
100
AcDbCircle
 10
-541.5991821289063
 20
600.2423706054687
 30
0.0
 40
2.5
100
AcDbArc
 50
0.0
 51
180.0000000000004
  0
ARC
  5
533
330
22
100
AcDbEntity
  8
0
  6
Continuous
 62
     7
100
AcDbCircle
 10
-541.5991821289063
 20
558.2423706054688
 30
0.0
 40
2.5
100
AcDbArc
 50
0.0
 51
180.0000000000004
  0
CIRCLE
  5
534
330
22
100
AcDbEntity
  8
0
  6
Continuous
 62
     7
100
AcDbCircle
 10
-465.0992126464843
 20
609.7423706054687
 30
0.0
 40
4.5
  0
CIRCLE
  5
535
330
22
100
AcDbEntity
  8
0
  6
Continuous
 62
     7
100
AcDbCircle
 10
-465.0992126464843
 20
609.7423706054687
 30
0.0
 40
4.75
  0
ARC
  5
536
330
22
100
AcDbEntity
  8
0
  6
DASHED
 62
     7
100
AcDbCircle
 10
-465.0992126464843
 20
609.7423706054687
 30
0.0
 40
5.0
100
AcDbArc
 50
90.00000000000019
 51
150.0000695640007
  0
ARC
  5
537
330
22
100
AcDbEntity
  8
0
  6
Continuous
 62
     7
100
AcDbCircle
 10
-471.5992126464843
 20
600.2423706054687
 30
0.0
 40
2.5
100
AcDbArc
 50
0.0
 51
180.0000000000004
  0
ARC
  5
538
330
22
100
AcDbEntity
  8
0
  6
Continuous
 62
     7
100
AcDbCircle
 10
-491.5992126464844
 20
579.2423706054687
 30
0.0
 40
2.5
100
AcDbArc
 50
0.0
 51
180.0000000000004
  0
ARC
  5
539
330
22
100
AcDbEntity
  8
0
  6
Continuous
 62
     7
100
AcDbCircle
 10
-491.5992126464844
 20
600.2423706054687
 30
0.0
 40
2.5
100
AcDbArc
 50
0.0
 51
180.0000000000004
  0
ARC
  5
53A
330
22
100
AcDbEntity
  8
0
  6
Continuous
 62
     7
100
AcDbCircle
 10
-531.5991821289063
 20
590.2423706054687
 30
0.0
 40
2.5
100
AcDbArc
 50
180.0000000000004
 51
0.0
  0
ARC
  5
53B
330
22
100
AcDbEntity
  8
0
  6
Continuous
 62
     7
100
AcDbCircle
 10
-501.5992126464843
 20
558.2423706054688
 30
0.0
 40
2.5
100
AcDbArc
 50
0.0
 51
180.0000000000004
  0
ARC
  5
53C
330
22
100
AcDbEntity
  8
0
  6
Continuous
 62
     7
100
AcDbCircle
 10
-521.5991821289064
 20
558.2423706054688
 30
0.0
 40
2.5
100
AcDbArc
 50
0.0
 51
180.0000000000004
  0
ARC
  5
53D
330
22
100
AcDbEntity
  8
0
  6
Continuous
 62
     7
100
AcDbCircle
 10
-501.5992126464843
 20
569.2423706054687
 30
0.0
 40
2.5
100
AcDbArc
 50
180.0000000000004
 51
0.0
  0
ARC
  5
53E
330
22
100
AcDbEntity
  8
0
  6
Continuous
 62
     7
100
AcDbCircle
 10
-541.5991821289063
 20
569.2423706054687
 30
0.0
 40
2.5
100
AcDbArc
 50
180.0000000000004
 51
0.0
  0
ARC
  5
53F
330
22
100
AcDbEntity
  8
0
  6
Continuous
 62
     7
100
AcDbCircle
 10
-481.5992126464843
 20
558.2423706054688
 30
0.0
 40
2.5
100
AcDbArc
 50
0.0
 51
180.0000000000004
  0
ARC
  5
540
330
22
100
AcDbEntity
  8
0
  6
Continuous
 62
     7
100
AcDbCircle
 10
-481.5992126464843
 20
600.2423706054687
 30
0.0
 40
2.5
100
AcDbArc
 50
0.0
 51
180.0000000000004
  0
ARC
  5
541
330
22
100
AcDbEntity
  8
0
  6
Continuous
 62
     7
100
AcDbCircle
 10
-481.5992126464843
 20
569.2423706054687
 30
0.0
 40
2.5
100
AcDbArc
 50
180.0000000000004
 51
0.0
  0
ARC
  5
542
330
22
100
AcDbEntity
  8
0
  6
Continuous
 62
     7
100
AcDbCircle
 10
-511.5992126464844
 20
590.2423706054687
 30
0.0
 40
2.5
100
AcDbArc
 50
180.0000000000004
 51
0.0
  0
ARC
  5
543
330
22
100
AcDbEntity
  8
0
  6
Continuous
 62
     7
100
AcDbCircle
 10
-531.5991821289063
 20
579.2423706054687
 30
0.0
 40
2.5
100
AcDbArc
 50
0.0
 51
180.0000000000004
  0
ARC
  5
544
330
22
100
AcDbEntity
  8
0
  6
Continuous
 62
     7
100
AcDbCircle
 10
-531.5991821289063
 20
600.2423706054687
 30
0.0
 40
2.5
100
AcDbArc
 50
0.0
 51
180.0000000000004
  0
ARC
  5
545
330
22
100
AcDbEntity
  8
0
  6
Continuous
 62
     7
100
AcDbCircle
 10
-521.5991821289064
 20
569.2423706054687
 30
0.0
 40
2.5
100
AcDbArc
 50
180.0000000000004
 51
0.0
  0
ARC
  5
546
330
22
100
AcDbEntity
  8
0
  6
Continuous
 62
     7
100
AcDbCircle
 10
-511.5992126464844
 20
579.2423706054687
 30
0.0
 40
2.5
100
AcDbArc
 50
0.0
 51
180.0000000000004
  0
ARC
  5
547
330
22
100
AcDbEntity
  8
0
  6
Continuous
 62
     7
100
AcDbCircle
 10
-501.5992126464843
 20
600.2423706054687
 30
0.0
 40
2.5
100
AcDbArc
 50
0.0
 51
180.0000000000004
  0
ARC
  5
548
330
22
100
AcDbEntity
  8
0
  6
Continuous
 62
     7
100
AcDbCircle
 10
-471.5992126464843
 20
628.9174804687499
 30
0.0
 40
2.5
100
AcDbArc
 50
0.0
 51
180.0000000000004
  0
ARC
  5
549
330
22
100
AcDbEntity
  8
0
  6
Continuous
 62
     7
100
AcDbCircle
 10
-511.5992126464844
 20
628.9174804687499
 30
0.0
 40
2.5
100
AcDbArc
 50
0.0
 51
180.0000000000004
  0
ARC
  5
54A
330
22
100
AcDbEntity
  8
0
  6
Continuous
 62
     7
100
AcDbCircle
 10
-531.5991821289063
 20
628.9174804687499
 30
0.0
 40
2.5
100
AcDbArc
 50
0.0
 51
180.0000000000004
  0
ARC
  5
54B
330
22
100
AcDbEntity
  8
0
  6
Continuous
 62
     7
100
AcDbCircle
 10
-491.5992126464844
 20
628.9174804687499
 30
0.0
 40
2.5
100
AcDbArc
 50
0.0
 51
180.0000000000004
  0
ARC
  5
54C
330
22
100
AcDbEntity
  8
0
  6
Continuous
 62
     7
100
AcDbCircle
 10
-491.5992126464844
 20
590.2423706054687
 30
0.0
 40
2.5
100
AcDbArc
 50
180.0000000000004
 51
0.0
  0
ARC
  5
54D
330
22
100
AcDbEntity
  8
0
  6
Continuous
 62
     7
100
AcDbCircle
 10
-511.5992126464844
 20
619.2423706054687
 30
0.0
 40
2.5
100
AcDbArc
 50
180.0000000000004
 51
0.0
  0
ARC
  5
54E
330
22
100
AcDbEntity
  8
0
  6
Continuous
 62
     7
100
AcDbCircle
 10
-531.5991821289063
 20
619.2423706054687
 30
0.0
 40
2.5
100
AcDbArc
 50
180.0000000000004
 51
0.0
  0
ARC
  5
54F
330
22
100
AcDbEntity
  8
0
  6
Continuous
 62
     7
100
AcDbCircle
 10
-501.5992126464843
 20
619.2423706054687
 30
0.0
 40
2.5
100
AcDbArc
 50
180.0000000000004
 51
0.0
  0
ARC
  5
550
330
22
100
AcDbEntity
  8
0
  6
Continuous
 62
     7
100
AcDbCircle
 10
-481.5992126464843
 20
619.2423706054687
 30
0.0
 40
2.5
100
AcDbArc
 50
180.0000000000004
 51
0.0
  0
ARC
  5
551
330
22
100
AcDbEntity
  8
0
  6
Continuous
 62
     7
100
AcDbCircle
 10
-471.5992126464843
 20
619.2423706054687
 30
0.0
 40
2.5
100
AcDbArc
 50
180.0000000000004
 51
0.0
  0
ARC
  5
552
330
22
100
AcDbEntity
  8
0
  6
DASHED
 62
     7
100
AcDbCircle
 10
-463.5992126464843
 20
616.7423706054687
 30
0.0
 40
2.0
100
AcDbArc
 50
270.0000000000005
 51
0.0
  0
ARC
  5
553
330
22
100
AcDbEntity
  8
0
  6
Continuous
 62
     7
100
AcDbCircle
 10
-521.5991821289064
 20
619.2423706054687
 30
0.0
 40
2.5
100
AcDbArc
 50
180.0000000000004
 51
0.0
  0
ARC
  5
554
330
22
100
AcDbEntity
  8
0
  6
Continuous
 62
     7
100
AcDbCircle
 10
-541.5991821289063
 20
619.2423706054687
 30
0.0
 40
2.5
100
AcDbArc
 50
180.0000000000004
 51
0.0
  0
ARC
  5
555
330
22
100
AcDbEntity
  8
0
  6
Continuous
 62
     7
100
AcDbCircle
 10
-491.5992126464844
 20
619.2423706054687
 30
0.0
 40
2.5
100
AcDbArc
 50
180.0000000000004
 51
0.0
  0
ARC
  5
556
330
22
100
AcDbEntity
  8
0
  6
Continuous
 62
     7
100
AcDbCircle
 10
-471.5992126464843
 20
490.2423706054688
 30
0.0
 40
2.5
100
AcDbArc
 50
180.0000000000004
 51
0.0
  0
ARC
  5
557
330
22
100
AcDbEntity
  8
0
  6
Continuous
 62
     7
100
AcDbCircle
 10
-471.5992126464843
 20
548.2423706054688
 30
0.0
 40
2.5
100
AcDbArc
 50
180.0000000000004
 51
0.0
  0
CIRCLE
  5
558
330
22
100
AcDbEntity
  8
0
  6
Continuous
 62
     7
100
AcDbCircle
 10
-465.0992126464843
 20
481.7423706054688
 30
0.0
 40
4.75
  0
CIRCLE
  5
559
330
22
100
AcDbEntity
  8
0
  6
Continuous
 62
     7
100
AcDbCircle
 10
-465.0992126464843
 20
481.7423706054688
 30
0.0
 40
4.5
  0
ARC
  5
55A
330
22
100
AcDbEntity
  8
0
  6
Continuous
 62
     7
100
AcDbCircle
 10
-458.5992126464843
 20
475.2423706054687
 30
0.0
 40
1.0
100
AcDbArc
 50
270.0000000000005
 51
0.0
  0
ARC
  5
55B
330
22
100
AcDbEntity
  8
0
  6
DASHED
 62
     7
100
AcDbCircle
 10
-463.5992126464843
 20
488.7423706054688
 30
0.0
 40
2.0
100
AcDbArc
 50
270.0000000000005
 51
0.0
  0
ARC
  5
55C
330
22
100
AcDbEntity
  8
0
  6
DASHED
 62
     7
100
AcDbCircle
 10
-472.0992126464843
 20
480.2423706054688
 30
0.0
 40
2.0
100
AcDbArc
 50
270.0000000000005
 51
0.0
  0
ARC
  5
55D
330
22
100
AcDbEntity
  8
0
  6
DASHED
 62
     7
100
AcDbCircle
 10
-465.0992126464843
 20
481.7423706054688
 30
0.0
 40
5.0
100
AcDbArc
 50
90.00000000000019
 51
180.0000000000004
  0
ARC
  5
55E
330
22
100
AcDbEntity
  8
0
  6
Continuous
 62
     7
100
AcDbCircle
 10
-481.5992126464843
 20
516.2423706054688
 30
0.0
 40
2.5
100
AcDbArc
 50
0.0
 51
180.0000000000004
  0
ARC
  5
55F
330
22
100
AcDbEntity
  8
0
  6
Continuous
 62
     7
100
AcDbCircle
 10
-460.5992126464843
 20
477.2423706054688
 30
0.0
 40
2.0
100
AcDbArc
 50
270.0000000000005
 51
0.0
  0
ARC
  5
560
330
22
100
AcDbEntity
  8
0
  6
Continuous
 62
     7
100
AcDbCircle
 10
-511.5992126464844
 20
485.2423706054688
 30
0.0
 40
2.5
100
AcDbArc
 50
180.0000000000004
 51
0.0
  0
ARC
  5
561
330
22
100
AcDbEntity
  8
0
  6
Continuous
 62
     7
100
AcDbCircle
 10
-521.5991821289064
 20
485.2423706054688
 30
0.0
 40
2.5
100
AcDbArc
 50
180.0000000000004
 51
0.0
  0
ARC
  5
562
330
22
100
AcDbEntity
  8
0
  6
Continuous
 62
     7
100
AcDbCircle
 10
-521.5991821289064
 20
516.2423706054688
 30
0.0
 40
2.5
100
AcDbArc
 50
0.0
 51
180.0000000000004
  0
ARC
  5
563
330
22
100
AcDbEntity
  8
0
  6
Continuous
 62
     7
100
AcDbCircle
 10
-541.5991821289063
 20
516.2423706054688
 30
0.0
 40
2.5
100
AcDbArc
 50
0.0
 51
180.0000000000004
  0
ARC
  5
564
330
22
100
AcDbEntity
  8
0
  6
Continuous
 62
     7
100
AcDbCircle
 10
-501.5992126464843
 20
516.2423706054688
 30
0.0
 40
2.5
100
AcDbArc
 50
0.0
 51
180.0000000000004
  0
ARC
  5
565
330
22
100
AcDbEntity
  8
0
  6
Continuous
 62
     7
100
AcDbCircle
 10
-501.5992126464843
 20
527.2423706054688
 30
0.0
 40
2.5
100
AcDbArc
 50
180.0000000000004
 51
0.0
  0
ARC
  5
566
330
22
100
AcDbEntity
  8
0
  6
Continuous
 62
     7
100
AcDbCircle
 10
-541.5991821289063
 20
485.2423706054688
 30
0.0
 40
2.5
100
AcDbArc
 50
180.0000000000004
 51
0.0
  0
ARC
  5
567
330
22
100
AcDbEntity
  8
0
  6
Continuous
 62
     7
100
AcDbCircle
 10
-481.5992126464843
 20
485.2423706054688
 30
0.0
 40
2.5
100
AcDbArc
 50
180.0000000000004
 51
0.0
  0
ARC
  5
568
330
22
100
AcDbEntity
  8
0
  6
Continuous
 62
     7
100
AcDbCircle
 10
-521.5991821289064
 20
527.2423706054688
 30
0.0
 40
2.5
100
AcDbArc
 50
180.0000000000004
 51
0.0
  0
ARC
  5
569
330
22
100
AcDbEntity
  8
0
  6
Continuous
 62
     7
100
AcDbCircle
 10
-511.5992126464844
 20
537.2423706054688
 30
0.0
 40
2.5
100
AcDbArc
 50
0.0
 51
180.0000000000004
  0
ARC
  5
56A
330
22
100
AcDbEntity
  8
0
  6
Continuous
 62
     7
100
AcDbCircle
 10
-471.5992126464843
 20
537.2423706054688
 30
0.0
 40
2.5
100
AcDbArc
 50
0.0
 51
180.0000000000004
  0
ARC
  5
56B
330
22
100
AcDbEntity
  8
0
  6
Continuous
 62
     7
100
AcDbCircle
 10
-471.5992126464843
 20
495.2423706054688
 30
0.0
 40
2.5
100
AcDbArc
 50
0.0
 51
180.0000000000004
  0
ARC
  5
56C
330
22
100
AcDbEntity
  8
0
  6
Continuous
 62
     7
100
AcDbCircle
 10
-471.5992126464843
 20
506.2423706054688
 30
0.0
 40
2.5
100
AcDbArc
 50
180.0000000000004
 51
0.0
  0
ARC
  5
56D
330
22
100
AcDbEntity
  8
0
  6
Continuous
 62
     7
100
AcDbCircle
 10
-481.5992126464843
 20
527.2423706054688
 30
0.0
 40
2.5
100
AcDbArc
 50
180.0000000000004
 51
0.0
  0
ARC
  5
56E
330
22
100
AcDbEntity
  8
0
  6
DASHED
 62
     7
100
AcDbCircle
 10
-586.0991821289062
 20
739.2423706054687
 30
0.0
 40
2.0
100
AcDbArc
 50
90.00000000000019
 51
180.0000000000004
  0
ARC
  5
56F
330
22
100
AcDbEntity
  8
0
  6
Continuous
 62
     7
100
AcDbCircle
 10
-491.5992126464844
 20
548.2423706054688
 30
0.0
 40
2.5
100
AcDbArc
 50
180.0000000000004
 51
0.0
  0
ARC
  5
570
330
22
100
AcDbEntity
  8
0
  6
Continuous
 62
     7
100
AcDbCircle
 10
-491.5992126464844
 20
506.2423706054688
 30
0.0
 40
2.5
100
AcDbArc
 50
180.0000000000004
 51
0.0
  0
ARC
  5
571
330
22
100
AcDbEntity
  8
0
  6
Continuous
 62
     7
100
AcDbCircle
 10
-491.5992126464844
 20
537.2423706054688
 30
0.0
 40
2.5
100
AcDbArc
 50
0.0
 51
180.0000000000004
  0
ARC
  5
572
330
22
100
AcDbEntity
  8
0
  6
Continuous
 62
     7
100
AcDbCircle
 10
-491.5992126464844
 20
485.2423706054688
 30
0.0
 40
2.5
100
AcDbArc
 50
180.0000000000004
 51
0.0
  0
ARC
  5
573
330
22
100
AcDbEntity
  8
0
  6
Continuous
 62
     7
100
AcDbCircle
 10
-491.5992126464844
 20
495.2423706054688
 30
0.0
 40
2.5
100
AcDbArc
 50
0.0
 51
180.0000000000004
  0
ARC
  5
574
330
22
100
AcDbEntity
  8
0
  6
Continuous
 62
     7
100
AcDbCircle
 10
-541.5991821289063
 20
527.2423706054688
 30
0.0
 40
2.5
100
AcDbArc
 50
180.0000000000004
 51
0.0
  0
ARC
  5
575
330
22
100
AcDbEntity
  8
0
  6
Continuous
 62
     7
100
AcDbCircle
 10
-531.5991821289063
 20
495.2423706054688
 30
0.0
 40
2.5
100
AcDbArc
 50
0.0
 51
180.0000000000004
  0
ARC
  5
576
330
22
100
AcDbEntity
  8
0
  6
Continuous
 62
     7
100
AcDbCircle
 10
-531.5991821289063
 20
506.2423706054688
 30
0.0
 40
2.5
100
AcDbArc
 50
180.0000000000004
 51
0.0
  0
ARC
  5
577
330
22
100
AcDbEntity
  8
0
  6
Continuous
 62
     7
100
AcDbCircle
 10
-531.5991821289063
 20
537.2423706054688
 30
0.0
 40
2.5
100
AcDbArc
 50
0.0
 51
180.0000000000004
  0
ARC
  5
578
330
22
100
AcDbEntity
  8
0
  6
Continuous
 62
     7
100
AcDbCircle
 10
-531.5991821289063
 20
485.2423706054688
 30
0.0
 40
2.5
100
AcDbArc
 50
180.0000000000004
 51
0.0
  0
ARC
  5
579
330
22
100
AcDbEntity
  8
0
  6
Continuous
 62
     7
100
AcDbCircle
 10
-511.5992126464844
 20
548.2423706054688
 30
0.0
 40
2.5
100
AcDbArc
 50
180.0000000000004
 51
0.0
  0
ARC
  5
57A
330
22
100
AcDbEntity
  8
0
  6
Continuous
 62
     7
100
AcDbCircle
 10
-531.5991821289063
 20
548.2423706054688
 30
0.0
 40
2.5
100
AcDbArc
 50
180.0000000000004
 51
0.0
  0
ARC
  5
57B
330
22
100
AcDbEntity
  8
0
  6
Continuous
 62
     7
100
AcDbCircle
 10
-511.5992126464844
 20
506.2423706054688
 30
0.0
 40
2.5
100
AcDbArc
 50
180.0000000000004
 51
0.0
  0
ARC
  5
57C
330
22
100
AcDbEntity
  8
0
  6
Continuous
 62
     7
100
AcDbCircle
 10
-511.5992126464844
 20
495.2423706054688
 30
0.0
 40
2.5
100
AcDbArc
 50
0.0
 51
180.0000000000004
  0
ARC
  5
57D
330
22
100
AcDbEntity
  8
0
  6
Continuous
 62
     7
100
AcDbCircle
 10
-501.5992126464843
 20
485.2423706054688
 30
0.0
 40
2.5
100
AcDbArc
 50
180.0000000000004
 51
0.0
  0
ARC
  5
57E
330
22
100
AcDbEntity
  8
0
  6
Continuous
 62
     7
100
AcDbCircle
 10
-604.5991821289062
 20
734.2423706054687
 30
0.0
 40
2.5
100
AcDbArc
 50
0.0
 51
180.0000000000004
  0
ARC
  5
57F
330
22
100
AcDbEntity
  8
0
  6
DASHED
 62
     7
100
AcDbCircle
 10
-593.0991821289062
 20
737.7423706054687
 30
0.0
 40
5.0
100
AcDbArc
 50
180.0000000000004
 51
240.0000695640013
  0
ARC
  5
580
330
22
100
AcDbEntity
  8
0
  6
DASHED
 62
     7
100
AcDbCircle
 10
-600.0991821289062
 20
739.2423706054687
 30
0.0
 40
2.0
100
AcDbArc
 50
0.0
 51
90.00000000000019
  0
CIRCLE
  5
581
330
22
100
AcDbEntity
  8
0
  6
Continuous
 62
     7
100
AcDbCircle
 10
-593.0991821289062
 20
737.7423706054687
 30
0.0
 40
4.5
  0
CIRCLE
  5
582
330
22
100
AcDbEntity
  8
0
  6
Continuous
 62
     7
100
AcDbCircle
 10
-593.0991821289062
 20
737.7423706054687
 30
0.0
 40
4.75
  0
ARC
  5
583
330
22
100
AcDbEntity
  8
0
  6
Continuous
 62
     7
100
AcDbCircle
 10
-561.5991821289063
 20
734.2423706054687
 30
0.0
 40
2.5
100
AcDbArc
 50
0.0
 51
180.0000000000004
  0
ARC
  5
584
330
22
100
AcDbEntity
  8
0
  6
Continuous
 62
     7
100
AcDbCircle
 10
-571.5991821289062
 20
734.2423706054687
 30
0.0
 40
2.5
100
AcDbArc
 50
0.0
 51
180.0000000000004
  0
ARC
  5
585
330
22
100
AcDbEntity
  8
0
  6
Continuous
 62
     7
100
AcDbCircle
 10
-581.5991821289062
 20
734.2423706054687
 30
0.0
 40
2.5
100
AcDbArc
 50
0.0
 51
180.0000000000004
  0
ARC
  5
586
330
22
100
AcDbEntity
  8
0
  6
DASHED
 62
     7
100
AcDbCircle
 10
-593.0991821289062
 20
737.7423706054687
 30
0.0
 40
5.0
100
AcDbArc
 50
299.9999304360001
 51
0.0
  0
ARC
  5
587
330
22
100
AcDbEntity
  8
0
  6
Continuous
 62
     7
100
AcDbCircle
 10
-614.5991821289062
 20
734.2423706054687
 30
0.0
 40
2.5
100
AcDbArc
 50
0.0
 51
180.0000000000004
  0
ARC
  5
588
330
22
100
AcDbEntity
  8
0
  6
Continuous
 62
     7
100
AcDbCircle
 10
-634.5991821289062
 20
734.2423706054687
 30
0.0
 40
2.5
100
AcDbArc
 50
0.0
 51
180.0000000000004
  0
ARC
  5
589
330
22
100
AcDbEntity
  8
0
  6
Continuous
 62
     7
100
AcDbCircle
 10
-644.5991821289062
 20
734.2423706054687
 30
0.0
 40
2.5
100
AcDbArc
 50
0.0
 51
180.0000000000004
  0
ARC
  5
58A
330
22
100
AcDbEntity
  8
0
  6
Continuous
 62
     7
100
AcDbCircle
 10
-624.5991821289062
 20
734.2423706054687
 30
0.0
 40
2.5
100
AcDbArc
 50
0.0
 51
180.0000000000004
  0
ARC
  5
58B
330
22
100
AcDbEntity
  8
0
  6
Continuous
 62
     7
100
AcDbCircle
 10
-654.5991821289062
 20
734.2423706054687
 30
0.0
 40
2.5
100
AcDbArc
 50
0.0
 51
180.0000000000004
  0
ARC
  5
58C
330
22
100
AcDbEntity
  8
0
  6
Continuous
 62
     7
100
AcDbCircle
 10
-664.5991821289062
 20
734.2423706054687
 30
0.0
 40
2.5
100
AcDbArc
 50
0.0
 51
180.0000000000004
  0
ARC
  5
58D
330
22
100
AcDbEntity
  8
0
  6
Continuous
 62
     7
100
AcDbCircle
 10
-664.5991821289062
 20
692.2423706054687
 30
0.0
 40
2.5
100
AcDbArc
 50
0.0
 51
180.0000000000004
  0
ARC
  5
58E
330
22
100
AcDbEntity
  8
0
  6
Continuous
 62
     7
100
AcDbCircle
 10
-654.5991821289062
 20
713.2423706054687
 30
0.0
 40
2.5
100
AcDbArc
 50
0.0
 51
180.0000000000004
  0
ARC
  5
58F
330
22
100
AcDbEntity
  8
0
  6
Continuous
 62
     7
100
AcDbCircle
 10
-644.5991821289062
 20
703.2423706054687
 30
0.0
 40
2.5
100
AcDbArc
 50
180.0000000000004
 51
0.0
  0
ARC
  5
590
330
22
100
AcDbEntity
  8
0
  6
Continuous
 62
     7
100
AcDbCircle
 10
-604.5991821289062
 20
703.2423706054687
 30
0.0
 40
2.5
100
AcDbArc
 50
180.0000000000004
 51
0.0
  0
ARC
  5
591
330
22
100
AcDbEntity
  8
0
  6
Continuous
 62
     7
100
AcDbCircle
 10
-604.5991821289062
 20
692.2423706054687
 30
0.0
 40
2.5
100
AcDbArc
 50
0.0
 51
180.0000000000004
  0
ARC
  5
592
330
22
100
AcDbEntity
  8
0
  6
Continuous
 62
     7
100
AcDbCircle
 10
-561.5991821289063
 20
703.2423706054687
 30
0.0
 40
2.5
100
AcDbArc
 50
180.0000000000004
 51
0.0
  0
ARC
  5
593
330
22
100
AcDbEntity
  8
0
  6
Continuous
 62
     7
100
AcDbCircle
 10
-561.5991821289063
 20
692.2423706054687
 30
0.0
 40
2.5
100
AcDbArc
 50
0.0
 51
180.0000000000004
  0
ARC
  5
594
330
22
100
AcDbEntity
  8
0
  6
Continuous
 62
     7
100
AcDbCircle
 10
-571.5991821289062
 20
671.2423706054687
 30
0.0
 40
2.5
100
AcDbArc
 50
0.0
 51
180.0000000000004
  0
ARC
  5
595
330
22
100
AcDbEntity
  8
0
  6
Continuous
 62
     7
100
AcDbCircle
 10
-571.5991821289062
 20
682.2423706054687
 30
0.0
 40
2.5
100
AcDbArc
 50
180.0000000000004
 51
0.0
  0
ARC
  5
596
330
22
100
AcDbEntity
  8
0
  6
Continuous
 62
     7
100
AcDbCircle
 10
-581.5991821289062
 20
692.2423706054687
 30
0.0
 40
2.5
100
AcDbArc
 50
0.0
 51
180.0000000000004
  0
ARC
  5
597
330
22
100
AcDbEntity
  8
0
  6
Continuous
 62
     7
100
AcDbCircle
 10
-581.5991821289062
 20
703.2423706054687
 30
0.0
 40
2.5
100
AcDbArc
 50
180.0000000000004
 51
0.0
  0
ARC
  5
598
330
22
100
AcDbEntity
  8
0
  6
Continuous
 62
     7
100
AcDbCircle
 10
-571.5991821289062
 20
713.2423706054687
 30
0.0
 40
2.5
100
AcDbArc
 50
0.0
 51
180.0000000000004
  0
ARC
  5
599
330
22
100
AcDbEntity
  8
0
  6
Continuous
 62
     7
100
AcDbCircle
 10
-604.5991821289062
 20
650.2423706054687
 30
0.0
 40
2.5
100
AcDbArc
 50
0.0
 51
180.0000000000004
  0
ARC
  5
59A
330
22
100
AcDbEntity
  8
0
  6
Continuous
 62
     7
100
AcDbCircle
 10
-604.5991821289062
 20
661.2423706054687
 30
0.0
 40
2.5
100
AcDbArc
 50
180.0000000000004
 51
0.0
  0
ARC
  5
59B
330
22
100
AcDbEntity
  8
0
  6
Continuous
 62
     7
100
AcDbCircle
 10
-561.5991821289063
 20
661.2423706054687
 30
0.0
 40
2.5
100
AcDbArc
 50
180.0000000000004
 51
0.0
  0
ARC
  5
59C
330
22
100
AcDbEntity
  8
0
  6
Continuous
 62
     7
100
AcDbCircle
 10
-561.5991821289063
 20
650.2423706054687
 30
0.0
 40
2.5
100
AcDbArc
 50
0.0
 51
180.0000000000004
  0
ARC
  5
59D
330
22
100
AcDbEntity
  8
0
  6
Continuous
 62
     7
100
AcDbCircle
 10
-581.5991821289062
 20
661.2423706054687
 30
0.0
 40
2.5
100
AcDbArc
 50
180.0000000000004
 51
0.0
  0
ARC
  5
59E
330
22
100
AcDbEntity
  8
0
  6
Continuous
 62
     7
100
AcDbCircle
 10
-581.5991821289062
 20
650.2423706054687
 30
0.0
 40
2.5
100
AcDbArc
 50
0.0
 51
180.0000000000004
  0
ARC
  5
59F
330
22
100
AcDbEntity
  8
0
  6
Continuous
 62
     7
100
AcDbCircle
 10
-614.5991821289062
 20
671.2423706054687
 30
0.0
 40
2.5
100
AcDbArc
 50
0.0
 51
180.0000000000004
  0
ARC
  5
5A0
330
22
100
AcDbEntity
  8
0
  6
Continuous
 62
     7
100
AcDbCircle
 10
-614.5991821289062
 20
713.2423706054687
 30
0.0
 40
2.5
100
AcDbArc
 50
0.0
 51
180.0000000000004
  0
ARC
  5
5A1
330
22
100
AcDbEntity
  8
0
  6
Continuous
 62
     7
100
AcDbCircle
 10
-614.5991821289062
 20
682.2423706054687
 30
0.0
 40
2.5
100
AcDbArc
 50
180.0000000000004
 51
0.0
  0
ARC
  5
5A2
330
22
100
AcDbEntity
  8
0
  6
Continuous
 62
     7
100
AcDbCircle
 10
-644.5991821289062
 20
692.2423706054687
 30
0.0
 40
2.5
100
AcDbArc
 50
0.0
 51
180.0000000000004
  0
ARC
  5
5A3
330
22
100
AcDbEntity
  8
0
  6
Continuous
 62
     7
100
AcDbCircle
 10
-664.5991821289062
 20
703.2423706054687
 30
0.0
 40
2.5
100
AcDbArc
 50
180.0000000000004
 51
0.0
  0
ARC
  5
5A4
330
22
100
AcDbEntity
  8
0
  6
Continuous
 62
     7
100
AcDbCircle
 10
-624.5991821289062
 20
692.2423706054687
 30
0.0
 40
2.5
100
AcDbArc
 50
0.0
 51
180.0000000000004
  0
ARC
  5
5A5
330
22
100
AcDbEntity
  8
0
  6
Continuous
 62
     7
100
AcDbCircle
 10
-654.5991821289062
 20
671.2423706054687
 30
0.0
 40
2.5
100
AcDbArc
 50
0.0
 51
180.0000000000004
  0
ARC
  5
5A6
330
22
100
AcDbEntity
  8
0
  6
Continuous
 62
     7
100
AcDbCircle
 10
-634.5991821289062
 20
682.2423706054687
 30
0.0
 40
2.5
100
AcDbArc
 50
180.0000000000004
 51
0.0
  0
ARC
  5
5A7
330
22
100
AcDbEntity
  8
0
  6
Continuous
 62
     7
100
AcDbCircle
 10
-654.5991821289062
 20
682.2423706054687
 30
0.0
 40
2.5
100
AcDbArc
 50
180.0000000000004
 51
0.0
  0
ARC
  5
5A8
330
22
100
AcDbEntity
  8
0
  6
Continuous
 62
     7
100
AcDbCircle
 10
-624.5991821289062
 20
703.2423706054687
 30
0.0
 40
2.5
100
AcDbArc
 50
180.0000000000004
 51
0.0
  0
ARC
  5
5A9
330
22
100
AcDbEntity
  8
0
  6
Continuous
 62
     7
100
AcDbCircle
 10
-634.5991821289062
 20
713.2423706054687
 30
0.0
 40
2.5
100
AcDbArc
 50
0.0
 51
180.0000000000004
  0
ARC
  5
5AA
330
22
100
AcDbEntity
  8
0
  6
Continuous
 62
     7
100
AcDbCircle
 10
-634.5991821289062
 20
671.2423706054687
 30
0.0
 40
2.5
100
AcDbArc
 50
0.0
 51
180.0000000000004
  0
ARC
  5
5AB
330
22
100
AcDbEntity
  8
0
  6
DASHED
 62
     7
100
AcDbCircle
 10
-714.0991821289063
 20
739.2423706054687
 30
0.0
 40
2.0
100
AcDbArc
 50
90.00000000000019
 51
180.0000000000004
  0
ARC
  5
5AC
330
22
100
AcDbEntity
  8
0
  6
Continuous
 62
     7
100
AcDbCircle
 10
-725.5991821289062
 20
742.2423706054687
 30
0.0
 40
2.0
100
AcDbArc
 50
90.00000000000019
 51
180.0000000000004
  0
ARC
  5
5AD
330
22
100
AcDbEntity
  8
0
  6
Continuous
 62
     7
100
AcDbCircle
 10
-704.5991821289062
 20
734.2423706054687
 30
0.0
 40
2.5
100
AcDbArc
 50
0.0
 51
180.0000000000004
  0
ARC
  5
5AE
330
22
100
AcDbEntity
  8
0
  6
Continuous
 62
     7
100
AcDbCircle
 10
-694.5991821289062
 20
734.2423706054687
 30
0.0
 40
2.5
100
AcDbArc
 50
0.0
 51
180.0000000000004
  0
ARC
  5
5AF
330
22
100
AcDbEntity
  8
0
  6
Continuous
 62
     7
100
AcDbCircle
 10
-714.5991821289062
 20
729.2423706054687
 30
0.0
 40
2.5
100
AcDbArc
 50
0.0
 51
180.0000000000004
  0
ARC
  5
5B0
330
22
100
AcDbEntity
  8
0
  6
Continuous
 62
     7
100
AcDbCircle
 10
-738.0991821289062
 20
754.7423706054687
 30
0.0
 40
5.0
100
AcDbArc
 50
90.00000000000019
 51
180.0000000000004
  0
ARC
  5
5B1
330
22
100
AcDbEntity
  8
0
  6
Continuous
 62
     7
100
AcDbCircle
 10
-727.5991821289062
 20
744.2423706054687
 30
0.0
 40
1.0
100
AcDbArc
 50
90.00000000000019
 51
180.0000000000004
  0
ARC
  5
5B2
330
22
100
AcDbEntity
  8
0
  6
DASHED
 62
     7
100
AcDbCircle
 10
-721.0991821289062
 20
737.7423706054687
 30
0.0
 40
5.0
100
AcDbArc
 50
270.0000000000005
 51
0.0
  0
ARC
  5
5B3
330
22
100
AcDbEntity
  8
0
  6
Continuous
 62
     7
100
AcDbCircle
 10
-644.5991821289062
 20
650.2423706054687
 30
0.0
 40
2.5
100
AcDbArc
 50
0.0
 51
180.0000000000004
  0
ARC
  5
5B4
330
22
100
AcDbEntity
  8
0
  6
Continuous
 62
     7
100
AcDbCircle
 10
-664.5991821289062
 20
661.2423706054687
 30
0.0
 40
2.5
100
AcDbArc
 50
180.0000000000004
 51
0.0
  0
ARC
  5
5B5
330
22
100
AcDbEntity
  8
0
  6
Continuous
 62
     7
100
AcDbCircle
 10
-664.5991821289062
 20
650.2423706054687
 30
0.0
 40
2.5
100
AcDbArc
 50
0.0
 51
180.0000000000004
  0
ARC
  5
5B6
330
22
100
AcDbEntity
  8
0
  6
Continuous
 62
     7
100
AcDbCircle
 10
-624.5991821289062
 20
650.2423706054687
 30
0.0
 40
2.5
100
AcDbArc
 50
0.0
 51
180.0000000000004
  0
ARC
  5
5B7
330
22
100
AcDbEntity
  8
0
  6
Continuous
 62
     7
100
AcDbCircle
 10
-644.5991821289062
 20
661.2423706054687
 30
0.0
 40
2.5
100
AcDbArc
 50
180.0000000000004
 51
0.0
  0
ARC
  5
5B8
330
22
100
AcDbEntity
  8
0
  6
Continuous
 62
     7
100
AcDbCircle
 10
-624.5991821289062
 20
661.2423706054687
 30
0.0
 40
2.5
100
AcDbArc
 50
180.0000000000004
 51
0.0
  0
CIRCLE
  5
5B9
330
22
100
AcDbEntity
  8
0
  6
Continuous
 62
     7
100
AcDbCircle
 10
-721.0991821289062
 20
737.7678833007812
 30
0.0
 40
4.75
  0
CIRCLE
  5
5BA
330
22
100
AcDbEntity
  8
0
  6
Continuous
 62
     7
100
AcDbCircle
 10
-721.0991821289062
 20
737.7678833007812
 30
0.0
 40
4.5
  0
ARC
  5
5BB
330
22
100
AcDbEntity
  8
0
  6
DASHED
 62
     7
100
AcDbCircle
 10
-722.5991821289063
 20
730.7423706054687
 30
0.0
 40
2.0
100
AcDbArc
 50
90.00000000000019
 51
180.0000000000004
  0
ARC
  5
5BC
330
22
100
AcDbEntity
  8
0
  6
Continuous
 62
     7
100
AcDbCircle
 10
-684.5991821289062
 20
661.2423706054687
 30
0.0
 40
2.5
100
AcDbArc
 50
180.0000000000004
 51
0.0
  0
ARC
  5
5BD
330
22
100
AcDbEntity
  8
0
  6
Continuous
 62
     7
100
AcDbCircle
 10
-704.5991821289062
 20
661.2423706054687
 30
0.0
 40
2.5
100
AcDbArc
 50
180.0000000000004
 51
0.0
  0
ARC
  5
5BE
330
22
100
AcDbEntity
  8
0
  6
Continuous
 62
     7
100
AcDbCircle
 10
-704.5991821289062
 20
650.2423706054687
 30
0.0
 40
2.5
100
AcDbArc
 50
0.0
 51
180.0000000000004
  0
ARC
  5
5BF
330
22
100
AcDbEntity
  8
0
  6
Continuous
 62
     7
100
AcDbCircle
 10
-684.5991821289062
 20
703.2423706054687
 30
0.0
 40
2.5
100
AcDbArc
 50
180.0000000000004
 51
0.0
  0
ARC
  5
5C0
330
22
100
AcDbEntity
  8
0
  6
Continuous
 62
     7
100
AcDbCircle
 10
-684.5991821289062
 20
692.2423706054687
 30
0.0
 40
2.5
100
AcDbArc
 50
0.0
 51
180.0000000000004
  0
ARC
  5
5C1
330
22
100
AcDbEntity
  8
0
  6
Continuous
 62
     7
100
AcDbCircle
 10
-694.5991821289062
 20
682.2423706054687
 30
0.0
 40
2.5
100
AcDbArc
 50
180.0000000000004
 51
0.0
  0
ARC
  5
5C2
330
22
100
AcDbEntity
  8
0
  6
Continuous
 62
     7
100
AcDbCircle
 10
-694.5991821289062
 20
671.2423706054687
 30
0.0
 40
2.5
100
AcDbArc
 50
0.0
 51
180.0000000000004
  0
ARC
  5
5C3
330
22
100
AcDbEntity
  8
0
  6
Continuous
 62
     7
100
AcDbCircle
 10
-704.5991821289062
 20
692.2423706054687
 30
0.0
 40
2.5
100
AcDbArc
 50
0.0
 51
180.0000000000004
  0
ARC
  5
5C4
330
22
100
AcDbEntity
  8
0
  6
Continuous
 62
     7
100
AcDbCircle
 10
-704.5991821289062
 20
703.2423706054687
 30
0.0
 40
2.5
100
AcDbArc
 50
180.0000000000004
 51
0.0
  0
ARC
  5
5C5
330
22
100
AcDbEntity
  8
0
  6
Continuous
 62
     7
100
AcDbCircle
 10
-694.5991821289062
 20
713.2423706054687
 30
0.0
 40
2.5
100
AcDbArc
 50
0.0
 51
180.0000000000004
  0
ARC
  5
5C6
330
22
100
AcDbEntity
  8
0
  6
Continuous
 62
     7
100
AcDbCircle
 10
-714.5991821289062
 20
682.2423706054687
 30
0.0
 40
2.5
100
AcDbArc
 50
180.0000000000004
 51
0.0
  0
ARC
  5
5C7
330
22
100
AcDbEntity
  8
0
  6
Continuous
 62
     7
100
AcDbCircle
 10
-714.5991821289062
 20
671.2423706054687
 30
0.0
 40
2.5
100
AcDbArc
 50
0.0
 51
180.0000000000004
  0
ARC
  5
5C8
330
22
100
AcDbEntity
  8
0
  6
Continuous
 62
     7
100
AcDbCircle
 10
-714.5991821289062
 20
713.2423706054687
 30
0.0
 40
2.5
100
AcDbArc
 50
0.0
 51
180.0000000000004
  0
ARC
  5
5C9
330
22
100
AcDbEntity
  8
0
  6
Continuous
 62
     7
100
AcDbCircle
 10
-684.5991821289062
 20
734.2423706054687
 30
0.0
 40
2.5
100
AcDbArc
 50
0.0
 51
180.0000000000004
  0
ARC
  5
5CA
330
22
100
AcDbEntity
  8
0
  6
Continuous
 62
     7
100
AcDbCircle
 10
-604.5991821289062
 20
600.2423706054687
 30
0.0
 40
2.5
100
AcDbArc
 50
0.0
 51
180.0000000000004
  0
ARC
  5
5CB
330
22
100
AcDbEntity
  8
0
  6
Continuous
 62
     7
100
AcDbCircle
 10
-604.5991821289062
 20
558.2423706054688
 30
0.0
 40
2.5
100
AcDbArc
 50
0.0
 51
180.0000000000004
  0
ARC
  5
5CC
330
22
100
AcDbEntity
  8
0
  6
Continuous
 62
     7
100
AcDbCircle
 10
-604.5991821289062
 20
569.2423706054687
 30
0.0
 40
2.5
100
AcDbArc
 50
180.0000000000004
 51
0.0
  0
ARC
  5
5CD
330
22
100
AcDbEntity
  8
0
  6
Continuous
 62
     7
100
AcDbCircle
 10
-571.5991821289062
 20
619.2423706054687
 30
0.0
 40
2.5
100
AcDbArc
 50
180.0000000000004
 51
0.0
  0
ARC
  5
5CE
330
22
100
AcDbEntity
  8
0
  6
Continuous
 62
     7
100
AcDbCircle
 10
-581.5991821289062
 20
619.2423706054687
 30
0.0
 40
2.5
100
AcDbArc
 50
180.0000000000004
 51
0.0
  0
ARC
  5
5CF
330
22
100
AcDbEntity
  8
0
  6
Continuous
 62
     7
100
AcDbCircle
 10
-561.5991821289063
 20
619.2423706054687
 30
0.0
 40
2.5
100
AcDbArc
 50
180.0000000000004
 51
0.0
  0
ARC
  5
5D0
330
22
100
AcDbEntity
  8
0
  6
Continuous
 62
     7
100
AcDbCircle
 10
-561.5991821289063
 20
569.2423706054687
 30
0.0
 40
2.5
100
AcDbArc
 50
180.0000000000004
 51
0.0
  0
ARC
  5
5D1
330
22
100
AcDbEntity
  8
0
  6
Continuous
 62
     7
100
AcDbCircle
 10
-561.5991821289063
 20
600.2423706054687
 30
0.0
 40
2.5
100
AcDbArc
 50
0.0
 51
180.0000000000004
  0
ARC
  5
5D2
330
22
100
AcDbEntity
  8
0
  6
Continuous
 62
     7
100
AcDbCircle
 10
-561.5991821289063
 20
558.2423706054688
 30
0.0
 40
2.5
100
AcDbArc
 50
0.0
 51
180.0000000000004
  0
ARC
  5
5D3
330
22
100
AcDbEntity
  8
0
  6
DASHED
 62
     7
100
AcDbCircle
 10
-588.5991821289062
 20
614.2423706054687
 30
0.0
 40
2.0
100
AcDbArc
 50
180.0000000000004
 51
270.0000000000005
  0
ARC
  5
5D4
330
22
100
AcDbEntity
  8
0
  6
Continuous
 62
     7
100
AcDbCircle
 10
-571.5991821289062
 20
600.2423706054687
 30
0.0
 40
2.5
100
AcDbArc
 50
0.0
 51
180.0000000000004
  0
ARC
  5
5D5
330
22
100
AcDbEntity
  8
0
  6
Continuous
 62
     7
100
AcDbCircle
 10
-581.5991821289062
 20
558.2423706054688
 30
0.0
 40
2.5
100
AcDbArc
 50
0.0
 51
180.0000000000004
  0
ARC
  5
5D6
330
22
100
AcDbEntity
  8
0
  6
Continuous
 62
     7
100
AcDbCircle
 10
-581.5991821289062
 20
569.2423706054687
 30
0.0
 40
2.5
100
AcDbArc
 50
180.0000000000004
 51
0.0
  0
ARC
  5
5D7
330
22
100
AcDbEntity
  8
0
  6
Continuous
 62
     7
100
AcDbCircle
 10
-581.5991821289062
 20
600.2423706054687
 30
0.0
 40
2.5
100
AcDbArc
 50
0.0
 51
180.0000000000004
  0
ARC
  5
5D8
330
22
100
AcDbEntity
  8
0
  6
Continuous
 62
     7
100
AcDbCircle
 10
-571.5991821289062
 20
590.2423706054687
 30
0.0
 40
2.5
100
AcDbArc
 50
180.0000000000004
 51
0.0
  0
ARC
  5
5D9
330
22
100
AcDbEntity
  8
0
  6
Continuous
 62
     7
100
AcDbCircle
 10
-571.5991821289062
 20
579.2423706054687
 30
0.0
 40
2.5
100
AcDbArc
 50
0.0
 51
180.0000000000004
  0
ARC
  5
5DA
330
22
100
AcDbEntity
  8
0
  6
DASHED
 62
     7
100
AcDbCircle
 10
-588.5991821289062
 20
605.2423706054687
 30
0.0
 40
2.0
100
AcDbArc
 50
90.00000000000019
 51
180.0000000000004
  0
ARC
  5
5DB
330
22
100
AcDbEntity
  8
0
  6
Continuous
 62
     7
100
AcDbCircle
 10
-684.5991821289062
 20
650.2423706054687
 30
0.0
 40
2.5
100
AcDbArc
 50
0.0
 51
180.0000000000004
  0
ARC
  5
5DC
330
22
100
AcDbEntity
  8
0
  6
Continuous
 62
     7
100
AcDbCircle
 10
-624.5991821289062
 20
569.2423706054687
 30
0.0
 40
2.5
100
AcDbArc
 50
180.0000000000004
 51
0.0
  0
ARC
  5
5DD
330
22
100
AcDbEntity
  8
0
  6
Continuous
 62
     7
100
AcDbCircle
 10
-654.5991821289062
 20
590.5671997070312
 30
0.0
 40
2.5
100
AcDbArc
 50
180.0000000000004
 51
0.0
  0
ARC
  5
5DE
330
22
100
AcDbEntity
  8
0
  6
Continuous
 62
     7
100
AcDbCircle
 10
-654.5991821289062
 20
579.5671997070312
 30
0.0
 40
2.5
100
AcDbArc
 50
0.0
 51
180.0000000000004
  0
ARC
  5
5DF
330
22
100
AcDbEntity
  8
0
  6
Continuous
 62
     7
100
AcDbCircle
 10
-654.5991821289062
 20
600.2423706054687
 30
0.0
 40
2.5
100
AcDbArc
 50
0.0
 51
180.0000000000004
  0
ARC
  5
5E0
330
22
100
AcDbEntity
  8
0
  6
Continuous
 62
     7
100
AcDbCircle
 10
-644.5991821289062
 20
600.2423706054687
 30
0.0
 40
2.5
100
AcDbArc
 50
0.0
 51
180.0000000000004
  0
ARC
  5
5E1
330
22
100
AcDbEntity
  8
0
  6
Continuous
 62
     7
100
AcDbCircle
 10
-644.5991821289062
 20
558.2423706054688
 30
0.0
 40
2.5
100
AcDbArc
 50
0.0
 51
180.0000000000004
  0
ARC
  5
5E2
330
22
100
AcDbEntity
  8
0
  6
Continuous
 62
     7
100
AcDbCircle
 10
-664.5991821289062
 20
569.2423706054687
 30
0.0
 40
2.5
100
AcDbArc
 50
180.0000000000004
 51
0.0
  0
ARC
  5
5E3
330
22
100
AcDbEntity
  8
0
  6
Continuous
 62
     7
100
AcDbCircle
 10
-664.5991821289062
 20
600.2423706054687
 30
0.0
 40
2.5
100
AcDbArc
 50
0.0
 51
180.0000000000004
  0
ARC
  5
5E4
330
22
100
AcDbEntity
  8
0
  6
Continuous
 62
     7
100
AcDbCircle
 10
-634.5991821289062
 20
600.2423706054687
 30
0.0
 40
2.5
100
AcDbArc
 50
0.0
 51
180.0000000000004
  0
ARC
  5
5E5
330
22
100
AcDbEntity
  8
0
  6
Continuous
 62
     7
100
AcDbCircle
 10
-664.5991821289062
 20
558.2423706054688
 30
0.0
 40
2.5
100
AcDbArc
 50
0.0
 51
180.0000000000004
  0
ARC
  5
5E6
330
22
100
AcDbEntity
  8
0
  6
Continuous
 62
     7
100
AcDbCircle
 10
-644.5991821289062
 20
569.2423706054687
 30
0.0
 40
2.5
100
AcDbArc
 50
180.0000000000004
 51
0.0
  0
ARC
  5
5E7
330
22
100
AcDbEntity
  8
0
  6
Continuous
 62
     7
100
AcDbCircle
 10
-624.5991821289062
 20
558.2423706054688
 30
0.0
 40
2.5
100
AcDbArc
 50
0.0
 51
180.0000000000004
  0
ARC
  5
5E8
330
22
100
AcDbEntity
  8
0
  6
DASHED
 62
     7
100
AcDbCircle
 10
-597.5991821289063
 20
614.2423706054687
 30
0.0
 40
2.0
100
AcDbArc
 50
270.0000000000005
 51
0.0
  0
ARC
  5
5E9
330
22
100
AcDbEntity
  8
0
  6
Continuous
 62
     7
100
AcDbCircle
 10
-604.5991821289062
 20
619.2423706054687
 30
0.0
 40
2.5
100
AcDbArc
 50
180.0000000000004
 51
0.0
  0
ARC
  5
5EA
330
22
100
AcDbEntity
  8
0
  6
DASHED
 62
     7
100
AcDbCircle
 10
-597.5991821289063
 20
605.2423706054687
 30
0.0
 40
2.0
100
AcDbArc
 50
0.0
 51
90.00000000000019
  0
ARC
  5
5EB
330
22
100
AcDbEntity
  8
0
  6
Continuous
 62
     7
100
AcDbCircle
 10
-614.5991821289062
 20
619.2423706054687
 30
0.0
 40
2.5
100
AcDbArc
 50
180.0000000000004
 51
0.0
  0
ARC
  5
5EC
330
22
100
AcDbEntity
  8
0
  6
Continuous
 62
     7
100
AcDbCircle
 10
-614.5991821289062
 20
628.9174804687499
 30
0.0
 40
2.5
100
AcDbArc
 50
0.0
 51
180.0000000000004
  0
ARC
  5
5ED
330
22
100
AcDbEntity
  8
0
  6
Continuous
 62
     7
100
AcDbCircle
 10
-634.5991821289062
 20
628.9174804687499
 30
0.0
 40
2.5
100
AcDbArc
 50
0.0
 51
180.0000000000004
  0
ARC
  5
5EE
330
22
100
AcDbEntity
  8
0
  6
Continuous
 62
     7
100
AcDbCircle
 10
-654.5991821289062
 20
628.9174804687499
 30
0.0
 40
2.5
100
AcDbArc
 50
0.0
 51
180.0000000000004
  0
ARC
  5
5EF
330
22
100
AcDbEntity
  8
0
  6
Continuous
 62
     7
100
AcDbCircle
 10
-571.5991821289062
 20
628.9174804687499
 30
0.0
 40
2.5
100
AcDbArc
 50
0.0
 51
180.0000000000004
  0
ARC
  5
5F0
330
22
100
AcDbEntity
  8
0
  6
Continuous
 62
     7
100
AcDbCircle
 10
-664.5991821289062
 20
619.2423706054687
 30
0.0
 40
2.5
100
AcDbArc
 50
180.0000000000004
 51
0.0
  0
ARC
  5
5F1
330
22
100
AcDbEntity
  8
0
  6
Continuous
 62
     7
100
AcDbCircle
 10
-634.5991821289062
 20
619.2423706054687
 30
0.0
 40
2.5
100
AcDbArc
 50
180.0000000000004
 51
0.0
  0
ARC
  5
5F2
330
22
100
AcDbEntity
  8
0
  6
Continuous
 62
     7
100
AcDbCircle
 10
-654.5991821289062
 20
619.2423706054687
 30
0.0
 40
2.5
100
AcDbArc
 50
180.0000000000004
 51
0.0
  0
ARC
  5
5F3
330
22
100
AcDbEntity
  8
0
  6
Continuous
 62
     7
100
AcDbCircle
 10
-644.5991821289062
 20
619.2423706054687
 30
0.0
 40
2.5
100
AcDbArc
 50
180.0000000000004
 51
0.0
  0
ARC
  5
5F4
330
22
100
AcDbEntity
  8
0
  6
Continuous
 62
     7
100
AcDbCircle
 10
-624.5991821289062
 20
619.2423706054687
 30
0.0
 40
2.5
100
AcDbArc
 50
180.0000000000004
 51
0.0
  0
ARC
  5
5F5
330
22
100
AcDbEntity
  8
0
  6
Continuous
 62
     7
100
AcDbCircle
 10
-634.5991821289062
 20
579.5671997070312
 30
0.0
 40
2.5
100
AcDbArc
 50
0.0
 51
180.0000000000004
  0
ARC
  5
5F6
330
22
100
AcDbEntity
  8
0
  6
Continuous
 62
     7
100
AcDbCircle
 10
-624.5991821289062
 20
600.2423706054687
 30
0.0
 40
2.5
100
AcDbArc
 50
0.0
 51
180.0000000000004
  0
ARC
  5
5F7
330
22
100
AcDbEntity
  8
0
  6
Continuous
 62
     7
100
AcDbCircle
 10
-634.5991821289062
 20
590.5671997070312
 30
0.0
 40
2.5
100
AcDbArc
 50
180.0000000000004
 51
0.0
  0
ARC
  5
5F8
330
22
100
AcDbEntity
  8
0
  6
Continuous
 62
     7
100
AcDbCircle
 10
-571.5991821289062
 20
537.2423706054688
 30
0.0
 40
2.5
100
AcDbArc
 50
0.0
 51
180.0000000000004
  0
ARC
  5
5F9
330
22
100
AcDbEntity
  8
0
  6
Continuous
 62
     7
100
AcDbCircle
 10
-571.5991821289062
 20
495.2423706054688
 30
0.0
 40
2.5
100
AcDbArc
 50
0.0
 51
180.0000000000004
  0
ARC
  5
5FA
330
22
100
AcDbEntity
  8
0
  6
Continuous
 62
     7
100
AcDbCircle
 10
-571.5991821289062
 20
506.2423706054688
 30
0.0
 40
2.5
100
AcDbArc
 50
180.0000000000004
 51
0.0
  0
ARC
  5
5FB
330
22
100
AcDbEntity
  8
0
  6
Continuous
 62
     7
100
AcDbCircle
 10
-581.5991821289062
 20
527.2423706054688
 30
0.0
 40
2.5
100
AcDbArc
 50
180.0000000000004
 51
0.0
  0
ARC
  5
5FC
330
22
100
AcDbEntity
  8
0
  6
Continuous
 62
     7
100
AcDbCircle
 10
-581.5991821289062
 20
485.2423706054688
 30
0.0
 40
2.5
100
AcDbArc
 50
180.0000000000004
 51
0.0
  0
ARC
  5
5FD
330
22
100
AcDbEntity
  8
0
  6
Continuous
 62
     7
100
AcDbCircle
 10
-581.5991821289062
 20
516.2423706054688
 30
0.0
 40
2.5
100
AcDbArc
 50
0.0
 51
180.0000000000004
  0
ARC
  5
5FE
330
22
100
AcDbEntity
  8
0
  6
Continuous
 62
     7
100
AcDbCircle
 10
-571.5991821289062
 20
548.2423706054688
 30
0.0
 40
2.5
100
AcDbArc
 50
180.0000000000004
 51
0.0
  0
ARC
  5
5FF
330
22
100
AcDbEntity
  8
0
  6
Continuous
 62
     7
100
AcDbCircle
 10
-571.5991821289062
 20
485.2423706054688
 30
0.0
 40
2.5
100
AcDbArc
 50
180.0000000000004
 51
0.0
  0
ARC
  5
600
330
22
100
AcDbEntity
  8
0
  6
DASHED
 62
     7
100
AcDbCircle
 10
-586.0991821289062
 20
480.2423706054688
 30
0.0
 40
2.0
100
AcDbArc
 50
180.0000000000004
 51
270.0000000000005
  0
ARC
  5
601
330
22
100
AcDbEntity
  8
0
  6
DASHED
 62
     7
100
AcDbCircle
 10
-593.0991821289062
 20
481.7423706054688
 30
0.0
 40
5.0
100
AcDbArc
 50
0.0
 51
59.99989471096908
  0
ARC
  5
602
330
22
100
AcDbEntity
  8
0
  6
Continuous
 62
     7
100
AcDbCircle
 10
-614.5991821289062
 20
600.2423706054687
 30
0.0
 40
2.5
100
AcDbArc
 50
0.0
 51
180.0000000000004
  0
ARC
  5
603
330
22
100
AcDbEntity
  8
0
  6
Continuous
 62
     7
100
AcDbCircle
 10
-614.5991821289062
 20
579.5671997070312
 30
0.0
 40
2.5
100
AcDbArc
 50
0.0
 51
180.0000000000004
  0
ARC
  5
604
330
22
100
AcDbEntity
  8
0
  6
Continuous
 62
     7
100
AcDbCircle
 10
-614.5991821289062
 20
590.5671997070312
 30
0.0
 40
2.5
100
AcDbArc
 50
180.0000000000004
 51
0.0
  0
ARC
  5
605
330
22
100
AcDbEntity
  8
0
  6
Continuous
 62
     7
100
AcDbCircle
 10
-604.5991821289062
 20
485.2423706054688
 30
0.0
 40
2.5
100
AcDbArc
 50
180.0000000000004
 51
0.0
  0
ARC
  5
606
330
22
100
AcDbEntity
  8
0
  6
DASHED
 62
     7
100
AcDbCircle
 10
-593.0991821289062
 20
481.7423706054688
 30
0.0
 40
5.0
100
AcDbArc
 50
120.0001052890309
 51
180.0000000000004
  0
ARC
  5
607
330
22
100
AcDbEntity
  8
0
  6
Continuous
 62
     7
100
AcDbCircle
 10
-604.5991821289062
 20
516.2423706054688
 30
0.0
 40
2.5
100
AcDbArc
 50
0.0
 51
180.0000000000004
  0
ARC
  5
608
330
22
100
AcDbEntity
  8
0
  6
Continuous
 62
     7
100
AcDbCircle
 10
-604.5991821289062
 20
527.2423706054688
 30
0.0
 40
2.5
100
AcDbArc
 50
180.0000000000004
 51
0.0
  0
ARC
  5
609
330
22
100
AcDbEntity
  8
0
  6
DASHED
 62
     7
100
AcDbCircle
 10
-600.0991821289062
 20
480.2423706054688
 30
0.0
 40
2.0
100
AcDbArc
 50
270.0000000000005
 51
0.0
  0
ARC
  5
60A
330
22
100
AcDbEntity
  8
0
  6
Continuous
 62
     7
100
AcDbCircle
 10
-561.5991821289063
 20
485.2423706054688
 30
0.0
 40
2.5
100
AcDbArc
 50
180.0000000000004
 51
0.0
  0
ARC
  5
60B
330
22
100
AcDbEntity
  8
0
  6
Continuous
 62
     7
100
AcDbCircle
 10
-561.5991821289063
 20
527.2423706054688
 30
0.0
 40
2.5
100
AcDbArc
 50
180.0000000000004
 51
0.0
  0
ARC
  5
60C
330
22
100
AcDbEntity
  8
0
  6
Continuous
 62
     7
100
AcDbCircle
 10
-561.5991821289063
 20
516.2423706054688
 30
0.0
 40
2.5
100
AcDbArc
 50
0.0
 51
180.0000000000004
  0
ARC
  5
60D
330
22
100
AcDbEntity
  8
0
  6
Continuous
 62
     7
100
AcDbCircle
 10
-664.5991821289062
 20
527.2423706054688
 30
0.0
 40
2.5
100
AcDbArc
 50
180.0000000000004
 51
0.0
  0
CIRCLE
  5
60E
330
22
100
AcDbEntity
  8
0
  6
Continuous
 62
     7
100
AcDbCircle
 10
-593.0991821289062
 20
481.7423706054688
 30
0.0
 40
4.75
  0
CIRCLE
  5
60F
330
22
100
AcDbEntity
  8
0
  6
Continuous
 62
     7
100
AcDbCircle
 10
-593.0991821289062
 20
481.7423706054688
 30
0.0
 40
4.5
  0
ARC
  5
610
330
22
100
AcDbEntity
  8
0
  6
Continuous
 62
     7
100
AcDbCircle
 10
-654.5991821289062
 20
495.2423706054688
 30
0.0
 40
2.5
100
AcDbArc
 50
0.0
 51
180.0000000000004
  0
ARC
  5
611
330
22
100
AcDbEntity
  8
0
  6
Continuous
 62
     7
100
AcDbCircle
 10
-654.5991821289062
 20
537.2423706054688
 30
0.0
 40
2.5
100
AcDbArc
 50
0.0
 51
180.0000000000004
  0
ARC
  5
612
330
22
100
AcDbEntity
  8
0
  6
Continuous
 62
     7
100
AcDbCircle
 10
-634.5991821289062
 20
548.2423706054688
 30
0.0
 40
2.5
100
AcDbArc
 50
180.0000000000004
 51
0.0
  0
ARC
  5
613
330
22
100
AcDbEntity
  8
0
  6
Continuous
 62
     7
100
AcDbCircle
 10
-654.5991821289062
 20
548.2423706054688
 30
0.0
 40
2.5
100
AcDbArc
 50
180.0000000000004
 51
0.0
  0
ARC
  5
614
330
22
100
AcDbEntity
  8
0
  6
Continuous
 62
     7
100
AcDbCircle
 10
-624.5991821289062
 20
485.2423706054688
 30
0.0
 40
2.5
100
AcDbArc
 50
180.0000000000004
 51
0.0
  0
ARC
  5
615
330
22
100
AcDbEntity
  8
0
  6
Continuous
 62
     7
100
AcDbCircle
 10
-624.5991821289062
 20
527.2423706054688
 30
0.0
 40
2.5
100
AcDbArc
 50
180.0000000000004
 51
0.0
  0
ARC
  5
616
330
22
100
AcDbEntity
  8
0
  6
Continuous
 62
     7
100
AcDbCircle
 10
-664.5991821289062
 20
485.2423706054688
 30
0.0
 40
2.5
100
AcDbArc
 50
180.0000000000004
 51
0.0
  0
ARC
  5
617
330
22
100
AcDbEntity
  8
0
  6
Continuous
 62
     7
100
AcDbCircle
 10
-644.5991821289062
 20
485.2423706054688
 30
0.0
 40
2.5
100
AcDbArc
 50
180.0000000000004
 51
0.0
  0
ARC
  5
618
330
22
100
AcDbEntity
  8
0
  6
Continuous
 62
     7
100
AcDbCircle
 10
-654.5991821289062
 20
506.2423706054688
 30
0.0
 40
2.5
100
AcDbArc
 50
180.0000000000004
 51
0.0
  0
ARC
  5
619
330
22
100
AcDbEntity
  8
0
  6
Continuous
 62
     7
100
AcDbCircle
 10
-664.5991821289062
 20
516.2423706054688
 30
0.0
 40
2.5
100
AcDbArc
 50
0.0
 51
180.0000000000004
  0
ARC
  5
61A
330
22
100
AcDbEntity
  8
0
  6
Continuous
 62
     7
100
AcDbCircle
 10
-644.5991821289062
 20
516.2423706054688
 30
0.0
 40
2.5
100
AcDbArc
 50
0.0
 51
180.0000000000004
  0
ARC
  5
61B
330
22
100
AcDbEntity
  8
0
  6
Continuous
 62
     7
100
AcDbCircle
 10
-644.5991821289062
 20
527.2423706054688
 30
0.0
 40
2.5
100
AcDbArc
 50
180.0000000000004
 51
0.0
  0
ARC
  5
61C
330
22
100
AcDbEntity
  8
0
  6
Continuous
 62
     7
100
AcDbCircle
 10
-634.5991821289062
 20
495.2423706054688
 30
0.0
 40
2.5
100
AcDbArc
 50
0.0
 51
180.0000000000004
  0
ARC
  5
61D
330
22
100
AcDbEntity
  8
0
  6
Continuous
 62
     7
100
AcDbCircle
 10
-634.5991821289062
 20
506.2423706054688
 30
0.0
 40
2.5
100
AcDbArc
 50
180.0000000000004
 51
0.0
  0
ARC
  5
61E
330
22
100
AcDbEntity
  8
0
  6
Continuous
 62
     7
100
AcDbCircle
 10
-624.5991821289062
 20
516.2423706054688
 30
0.0
 40
2.5
100
AcDbArc
 50
0.0
 51
180.0000000000004
  0
ARC
  5
61F
330
22
100
AcDbEntity
  8
0
  6
DASHED
 62
     7
100
AcDbCircle
 10
-720.8189086914062
 20
609.7423706054687
 30
0.0
 40
5.0
100
AcDbArc
 50
270.0000000000005
 51
330.0000695640014
  0
ARC
  5
620
330
22
100
AcDbEntity
  8
0
  6
Continuous
 62
     7
100
AcDbCircle
 10
-694.5991821289062
 20
590.5671997070312
 30
0.0
 40
2.5
100
AcDbArc
 50
180.0000000000004
 51
0.0
  0
ARC
  5
621
330
22
100
AcDbEntity
  8
0
  6
Continuous
 62
     7
100
AcDbCircle
 10
-714.5991821289062
 20
590.5671997070312
 30
0.0
 40
2.5
100
AcDbArc
 50
180.0000000000004
 51
0.0
  0
ARC
  5
622
330
22
100
AcDbEntity
  8
0
  6
Continuous
 62
     7
100
AcDbCircle
 10
-704.5991821289062
 20
558.2423706054688
 30
0.0
 40
2.5
100
AcDbArc
 50
0.0
 51
180.0000000000004
  0
ARC
  5
623
330
22
100
AcDbEntity
  8
0
  6
Continuous
 62
     7
100
AcDbCircle
 10
-694.5991821289062
 20
600.2423706054687
 30
0.0
 40
2.5
100
AcDbArc
 50
0.0
 51
180.0000000000004
  0
ARC
  5
624
330
22
100
AcDbEntity
  8
0
  6
Continuous
 62
     7
100
AcDbCircle
 10
-704.5991821289062
 20
600.2423706054687
 30
0.0
 40
2.5
100
AcDbArc
 50
0.0
 51
180.0000000000004
  0
ARC
  5
625
330
22
100
AcDbEntity
  8
0
  6
Continuous
 62
     7
100
AcDbCircle
 10
-714.5991821289062
 20
600.2423706054687
 30
0.0
 40
2.5
100
AcDbArc
 50
0.0
 51
180.0000000000004
  0
ARC
  5
626
330
22
100
AcDbEntity
  8
0
  6
Continuous
 62
     7
100
AcDbCircle
 10
-614.5991821289062
 20
537.2423706054688
 30
0.0
 40
2.5
100
AcDbArc
 50
0.0
 51
180.0000000000004
  0
ARC
  5
627
330
22
100
AcDbEntity
  8
0
  6
Continuous
 62
     7
100
AcDbCircle
 10
-614.5991821289062
 20
485.2423706054688
 30
0.0
 40
2.5
100
AcDbArc
 50
180.0000000000004
 51
0.0
  0
ARC
  5
628
330
22
100
AcDbEntity
  8
0
  6
Continuous
 62
     7
100
AcDbCircle
 10
-614.5991821289062
 20
506.2423706054688
 30
0.0
 40
2.5
100
AcDbArc
 50
180.0000000000004
 51
0.0
  0
ARC
  5
629
330
22
100
AcDbEntity
  8
0
  6
Continuous
 62
     7
100
AcDbCircle
 10
-614.5991821289062
 20
495.2423706054688
 30
0.0
 40
2.5
100
AcDbArc
 50
0.0
 51
180.0000000000004
  0
ARC
  5
62A
330
22
100
AcDbEntity
  8
0
  6
Continuous
 62
     7
100
AcDbCircle
 10
-614.5991821289062
 20
548.2423706054688
 30
0.0
 40
2.5
100
AcDbArc
 50
180.0000000000004
 51
0.0
  0
ARC
  5
62B
330
22
100
AcDbEntity
  8
0
  6
Continuous
 62
     7
100
AcDbCircle
 10
-654.5991821289062
 20
485.2423706054688
 30
0.0
 40
2.5
100
AcDbArc
 50
180.0000000000004
 51
0.0
  0
ARC
  5
62C
330
22
100
AcDbEntity
  8
0
  6
Continuous
 62
     7
100
AcDbCircle
 10
-634.5991821289062
 20
537.2423706054688
 30
0.0
 40
2.5
100
AcDbArc
 50
0.0
 51
180.0000000000004
  0
ARC
  5
62D
330
22
100
AcDbEntity
  8
0
  6
Continuous
 62
     7
100
AcDbCircle
 10
-634.5991821289062
 20
485.2423706054688
 30
0.0
 40
2.5
100
AcDbArc
 50
180.0000000000004
 51
0.0
  0
ARC
  5
62E
330
22
100
AcDbEntity
  8
0
  6
DASHED
 62
     7
100
AcDbCircle
 10
-720.8189086914062
 20
609.7423706054687
 30
0.0
 40
5.0
100
AcDbArc
 50
29.99993043599933
 51
90.00000000000019
  0
ARC
  5
62F
330
22
100
AcDbEntity
  8
0
  6
Continuous
 62
     7
100
AcDbCircle
 10
-694.5991821289062
 20
579.5671997070312
 30
0.0
 40
2.5
100
AcDbArc
 50
0.0
 51
180.0000000000004
  0
ARC
  5
630
330
22
100
AcDbEntity
  8
0
  6
Continuous
 62
     7
100
AcDbCircle
 10
-714.5991821289062
 20
579.5671997070312
 30
0.0
 40
2.5
100
AcDbArc
 50
0.0
 51
180.0000000000004
  0
ARC
  5
631
330
22
100
AcDbEntity
  8
0
  6
Continuous
 62
     7
100
AcDbCircle
 10
-704.5991821289062
 20
569.2423706054687
 30
0.0
 40
2.5
100
AcDbArc
 50
180.0000000000004
 51
0.0
  0
ARC
  5
632
330
22
100
AcDbEntity
  8
0
  6
DASHED
 62
     7
100
AcDbCircle
 10
-722.5991821289063
 20
602.7423706054687
 30
0.0
 40
2.0
100
AcDbArc
 50
90.00000000000019
 51
180.0000000000004
  0
ARC
  5
633
330
22
100
AcDbEntity
  8
0
  6
Continuous
 62
     7
100
AcDbCircle
 10
-684.5991821289062
 20
600.2423706054687
 30
0.0
 40
2.5
100
AcDbArc
 50
0.0
 51
180.0000000000004
  0
ARC
  5
634
330
22
100
AcDbEntity
  8
0
  6
Continuous
 62
     7
100
AcDbCircle
 10
-684.5991821289062
 20
558.2423706054688
 30
0.0
 40
2.5
100
AcDbArc
 50
0.0
 51
180.0000000000004
  0
ARC
  5
635
330
22
100
AcDbEntity
  8
0
  6
Continuous
 62
     7
100
AcDbCircle
 10
-684.5991821289062
 20
569.2423706054687
 30
0.0
 40
2.5
100
AcDbArc
 50
180.0000000000004
 51
0.0
  0
ARC
  5
636
330
22
100
AcDbEntity
  8
0
  6
Continuous
 62
     7
100
AcDbCircle
 10
-684.5991821289062
 20
619.2423706054687
 30
0.0
 40
2.5
100
AcDbArc
 50
180.0000000000004
 51
0.0
  0
ARC
  5
637
330
22
100
AcDbEntity
  8
0
  6
Continuous
 62
     7
100
AcDbCircle
 10
-704.5991821289062
 20
619.2423706054687
 30
0.0
 40
2.5
100
AcDbArc
 50
180.0000000000004
 51
0.0
  0
CIRCLE
  5
638
330
22
100
AcDbEntity
  8
0
  6
Continuous
 62
     7
100
AcDbCircle
 10
-720.8189086914062
 20
609.7678833007812
 30
0.0
 40
4.5
  0
CIRCLE
  5
639
330
22
100
AcDbEntity
  8
0
  6
Continuous
 62
     7
100
AcDbCircle
 10
-720.8189086914062
 20
609.7678833007812
 30
0.0
 40
4.75
  0
ARC
  5
63A
330
22
100
AcDbEntity
  8
0
  6
Continuous
 62
     7
100
AcDbCircle
 10
-694.5991821289062
 20
537.2423706054688
 30
0.0
 40
2.5
100
AcDbArc
 50
0.0
 51
180.0000000000004
  0
ARC
  5
63B
330
22
100
AcDbEntity
  8
0
  6
Continuous
 62
     7
100
AcDbCircle
 10
-714.5991821289062
 20
495.2423706054688
 30
0.0
 40
2.5
100
AcDbArc
 50
0.0
 51
180.0000000000004
  0
ARC
  5
63C
330
22
100
AcDbEntity
  8
0
  6
Continuous
 62
     7
100
AcDbCircle
 10
-694.5991821289062
 20
506.2423706054688
 30
0.0
 40
2.5
100
AcDbArc
 50
180.0000000000004
 51
0.0
  0
ARC
  5
63D
330
22
100
AcDbEntity
  8
0
  6
Continuous
 62
     7
100
AcDbCircle
 10
-694.5991821289062
 20
495.2423706054688
 30
0.0
 40
2.5
100
AcDbArc
 50
0.0
 51
180.0000000000004
  0
ARC
  5
63E
330
22
100
AcDbEntity
  8
0
  6
Continuous
 62
     7
100
AcDbCircle
 10
-704.5991821289062
 20
516.2423706054688
 30
0.0
 40
2.5
100
AcDbArc
 50
0.0
 51
180.0000000000004
  0
ARC
  5
63F
330
22
100
AcDbEntity
  8
0
  6
Continuous
 62
     7
100
AcDbCircle
 10
-694.5991821289062
 20
485.2423706054688
 30
0.0
 40
2.5
100
AcDbArc
 50
180.0000000000004
 51
0.0
  0
ARC
  5
640
330
22
100
AcDbEntity
  8
0
  6
Continuous
 62
     7
100
AcDbCircle
 10
-704.5991821289062
 20
527.2423706054688
 30
0.0
 40
2.5
100
AcDbArc
 50
180.0000000000004
 51
0.0
  0
ARC
  5
641
330
22
100
AcDbEntity
  8
0
  6
Continuous
 62
     7
100
AcDbCircle
 10
-704.5991821289062
 20
485.2423706054688
 30
0.0
 40
2.5
100
AcDbArc
 50
180.0000000000004
 51
0.0
  0
ARC
  5
642
330
22
100
AcDbEntity
  8
0
  6
DASHED
 62
     7
100
AcDbCircle
 10
-721.0991821289062
 20
481.7423706054688
 30
0.0
 40
5.0
100
AcDbArc
 50
0.0
 51
90.00000000000019
  0
ARC
  5
643
330
22
100
AcDbEntity
  8
0
  6
DASHED
 62
     7
100
AcDbCircle
 10
-714.0991821289063
 20
480.2423706054688
 30
0.0
 40
2.0
100
AcDbArc
 50
180.0000000000004
 51
270.0000000000005
  0
ARC
  5
644
330
22
100
AcDbEntity
  8
0
  6
Continuous
 62
     7
100
AcDbCircle
 10
-714.5991821289062
 20
628.9174804687499
 30
0.0
 40
2.5
100
AcDbArc
 50
0.0
 51
180.0000000000004
  0
ARC
  5
645
330
22
100
AcDbEntity
  8
0
  6
Continuous
 62
     7
100
AcDbCircle
 10
-694.5991821289062
 20
628.9174804687499
 30
0.0
 40
2.5
100
AcDbArc
 50
0.0
 51
180.0000000000004
  0
ARC
  5
646
330
22
100
AcDbEntity
  8
0
  6
Continuous
 62
     7
100
AcDbCircle
 10
-694.5991821289062
 20
619.2423706054687
 30
0.0
 40
2.5
100
AcDbArc
 50
180.0000000000004
 51
0.0
  0
ARC
  5
647
330
22
100
AcDbEntity
  8
0
  6
Continuous
 62
     7
100
AcDbCircle
 10
-714.5991821289062
 20
619.2423706054687
 30
0.0
 40
2.5
100
AcDbArc
 50
180.0000000000004
 51
0.0
  0
ARC
  5
648
330
22
100
AcDbEntity
  8
0
  6
DASHED
 62
     7
100
AcDbCircle
 10
-722.5991821289063
 20
616.7423706054687
 30
0.0
 40
2.0
100
AcDbArc
 50
180.0000000000004
 51
270.0000000000005
  0
ARC
  5
649
330
22
100
AcDbEntity
  8
0
  6
Continuous
 62
     7
100
AcDbCircle
 10
-725.5991821289062
 20
477.2423706054688
 30
0.0
 40
2.0
100
AcDbArc
 50
180.0000000000004
 51
270.0000000000005
  0
ARC
  5
64A
330
22
100
AcDbEntity
  8
0
  6
Continuous
 62
     7
100
AcDbCircle
 10
-727.5991821289062
 20
475.2423706054687
 30
0.0
 40
1.0
100
AcDbArc
 50
180.0000000000004
 51
270.0000000000005
  0
ARC
  5
64B
330
22
100
AcDbEntity
  8
0
  6
Continuous
 62
     7
100
AcDbCircle
 10
-714.5991821289062
 20
506.2423706054688
 30
0.0
 40
2.5
100
AcDbArc
 50
180.0000000000004
 51
0.0
  0
ARC
  5
64C
330
22
100
AcDbEntity
  8
0
  6
Continuous
 62
     7
100
AcDbCircle
 10
-714.5991821289062
 20
537.2423706054688
 30
0.0
 40
2.5
100
AcDbArc
 50
0.0
 51
180.0000000000004
  0
ARC
  5
64D
330
22
100
AcDbEntity
  8
0
  6
Continuous
 62
     7
100
AcDbCircle
 10
-694.5991821289062
 20
548.2423706054688
 30
0.0
 40
2.5
100
AcDbArc
 50
180.0000000000004
 51
0.0
  0
ARC
  5
64E
330
22
100
AcDbEntity
  8
0
  6
Continuous
 62
     7
100
AcDbCircle
 10
-714.5991821289062
 20
548.2423706054688
 30
0.0
 40
2.5
100
AcDbArc
 50
180.0000000000004
 51
0.0
  0
CIRCLE
  5
64F
330
22
100
AcDbEntity
  8
0
  6
Continuous
 62
     7
100
AcDbCircle
 10
-721.0991821289062
 20
481.7423706054688
 30
0.0
 40
4.5
  0
CIRCLE
  5
650
330
22
100
AcDbEntity
  8
0
  6
Continuous
 62
     7
100
AcDbCircle
 10
-721.0991821289062
 20
481.7423706054688
 30
0.0
 40
4.5
  0
CIRCLE
  5
651
330
22
100
AcDbEntity
  8
0
  6
Continuous
 62
     7
100
AcDbCircle
 10
-721.0991821289062
 20
481.7423706054688
 30
0.0
 40
4.75
  0
ARC
  5
652
330
22
100
AcDbEntity
  8
0
  6
Continuous
 62
     7
100
AcDbCircle
 10
-714.5991821289062
 20
490.2423706054688
 30
0.0
 40
2.5
100
AcDbArc
 50
180.0000000000004
 51
0.0
  0
ARC
  5
653
330
22
100
AcDbEntity
  8
0
  6
DASHED
 62
     7
100
AcDbCircle
 10
-722.5991821289063
 20
488.7423706054688
 30
0.0
 40
2.0
100
AcDbArc
 50
180.0000000000004
 51
270.0000000000005
  0
ARC
  5
654
330
22
100
AcDbEntity
  8
0
  6
Continuous
 62
     7
100
AcDbCircle
 10
-684.5991821289062
 20
485.2423706054688
 30
0.0
 40
2.5
100
AcDbArc
 50
180.0000000000004
 51
0.0
  0
ARC
  5
655
330
22
100
AcDbEntity
  8
0
  6
Continuous
 62
     7
100
AcDbCircle
 10
-684.5991821289062
 20
527.2423706054688
 30
0.0
 40
2.5
100
AcDbArc
 50
180.0000000000004
 51
0.0
  0
ARC
  5
656
330
22
100
AcDbEntity
  8
0
  6
Continuous
 62
     7
100
AcDbCircle
 10
-684.5991821289062
 20
516.2423706054688
 30
0.0
 40
2.5
100
AcDbArc
 50
0.0
 51
180.0000000000004
  0
ARC
  5
657
330
22
100
AcDbEntity
  8
0
  6
Continuous
 62
     7
100
AcDbCircle
 10
-491.5992126464844
 20
724.2423706054687
 30
0.0
 40
2.5
100
AcDbArc
 50
180.0000000000004
 51
0.0
  0
ARC
  5
658
330
22
100
AcDbEntity
  8
0
  6
Continuous
 62
     7
100
AcDbCircle
 10
-531.5991821289063
 20
724.2423706054687
 30
0.0
 40
2.5
100
AcDbArc
 50
180.0000000000004
 51
0.0
  0
ARC
  5
659
330
22
100
AcDbEntity
  8
0
  6
Continuous
 62
     7
100
AcDbCircle
 10
-511.5992126464844
 20
724.2423706054687
 30
0.0
 40
2.5
100
AcDbArc
 50
180.0000000000004
 51
0.0
  0
ARC
  5
65A
330
22
100
AcDbEntity
  8
0
  6
Continuous
 62
     7
100
AcDbCircle
 10
-471.5992126464843
 20
724.2423706054687
 30
0.0
 40
2.5
100
AcDbArc
 50
180.0000000000004
 51
0.0
  0
ARC
  5
65B
330
22
100
AcDbEntity
  8
0
  6
Continuous
 62
     7
100
AcDbCircle
 10
-571.5991821289062
 20
724.2423706054687
 30
0.0
 40
2.5
100
AcDbArc
 50
180.0000000000004
 51
0.0
  0
ARC
  5
65C
330
22
100
AcDbEntity
  8
0
  6
Continuous
 62
     7
100
AcDbCircle
 10
-694.5991821289062
 20
724.2423706054687
 30
0.0
 40
2.5
100
AcDbArc
 50
180.0000000000004
 51
0.0
  0
ARC
  5
65D
330
22
100
AcDbEntity
  8
0
  6
Continuous
 62
     7
100
AcDbCircle
 10
-714.5991821289062
 20
724.2423706054687
 30
0.0
 40
2.5
100
AcDbArc
 50
180.0000000000004
 51
0.0
  0
ARC
  5
65E
330
22
100
AcDbEntity
  8
0
  6
Continuous
 62
     7
100
AcDbCircle
 10
-614.5991821289062
 20
724.2423706054687
 30
0.0
 40
2.5
100
AcDbArc
 50
180.0000000000004
 51
0.0
  0
ARC
  5
65F
330
22
100
AcDbEntity
  8
0
  6
Continuous
 62
     7
100
AcDbCircle
 10
-634.5991821289062
 20
724.2423706054687
 30
0.0
 40
2.5
100
AcDbArc
 50
180.0000000000004
 51
0.0
  0
ARC
  5
660
330
22
100
AcDbEntity
  8
0
  6
Continuous
 62
     7
100
AcDbCircle
 10
-654.5991821289062
 20
724.2423706054687
 30
0.0
 40
2.5
100
AcDbArc
 50
180.0000000000004
 51
0.0
  0
ARC
  5
661
330
22
100
AcDbEntity
  8
0
  6
Continuous
 62
     7
100
AcDbCircle
 10
-674.5991821289062
 20
724.2423706054687
 30
0.0
 40
2.5
100
AcDbArc
 50
180.0000000000004
 51
0.0
  0
ARC
  5
662
330
22
100
AcDbEntity
  8
0
  6
Continuous
 62
     7
100
AcDbCircle
 10
-674.5991821289062
 20
671.2423706054687
 30
0.0
 40
2.5
100
AcDbArc
 50
0.0
 51
180.0000000000004
  0
ARC
  5
663
330
22
100
AcDbEntity
  8
0
  6
Continuous
 62
     7
100
AcDbCircle
 10
-674.5991821289062
 20
682.2423706054687
 30
0.0
 40
2.5
100
AcDbArc
 50
180.0000000000004
 51
0.0
  0
ARC
  5
664
330
22
100
AcDbEntity
  8
0
  6
Continuous
 62
     7
100
AcDbCircle
 10
-674.5991821289062
 20
713.2423706054687
 30
0.0
 40
2.5
100
AcDbArc
 50
0.0
 51
180.0000000000004
  0
ARC
  5
665
330
22
100
AcDbEntity
  8
0
  6
Continuous
 62
     7
100
AcDbCircle
 10
-674.5991821289062
 20
734.2423706054687
 30
0.0
 40
2.5
100
AcDbArc
 50
0.0
 51
180.0000000000004
  0
ARC
  5
666
330
22
100
AcDbEntity
  8
0
  6
Continuous
 62
     7
100
AcDbCircle
 10
-674.5991821289062
 20
628.9174804687499
 30
0.0
 40
2.5
100
AcDbArc
 50
0.0
 51
180.0000000000004
  0
ARC
  5
667
330
22
100
AcDbEntity
  8
0
  6
Continuous
 62
     7
100
AcDbCircle
 10
-674.5991821289062
 20
619.2423706054687
 30
0.0
 40
2.5
100
AcDbArc
 50
180.0000000000004
 51
0.0
  0
ARC
  5
668
330
22
100
AcDbEntity
  8
0
  6
Continuous
 62
     7
100
AcDbCircle
 10
-674.5991821289062
 20
600.2423706054687
 30
0.0
 40
2.5
100
AcDbArc
 50
0.0
 51
180.0000000000004
  0
ARC
  5
669
330
22
100
AcDbEntity
  8
0
  6
Continuous
 62
     7
100
AcDbCircle
 10
-674.5991821289062
 20
590.5671997070312
 30
0.0
 40
2.5
100
AcDbArc
 50
180.0000000000004
 51
0.0
  0
ARC
  5
66A
330
22
100
AcDbEntity
  8
0
  6
Continuous
 62
     7
100
AcDbCircle
 10
-674.5991821289062
 20
579.5671997070312
 30
0.0
 40
2.5
100
AcDbArc
 50
0.0
 51
180.0000000000004
  0
ARC
  5
66B
330
22
100
AcDbEntity
  8
0
  6
Continuous
 62
     7
100
AcDbCircle
 10
-674.5991821289062
 20
548.2423706054688
 30
0.0
 40
2.5
100
AcDbArc
 50
180.0000000000004
 51
0.0
  0
ARC
  5
66C
330
22
100
AcDbEntity
  8
0
  6
Continuous
 62
     7
100
AcDbCircle
 10
-674.5991821289062
 20
495.2423706054688
 30
0.0
 40
2.5
100
AcDbArc
 50
0.0
 51
180.0000000000004
  0
ARC
  5
66D
330
22
100
AcDbEntity
  8
0
  6
Continuous
 62
     7
100
AcDbCircle
 10
-674.5991821289062
 20
506.2423706054688
 30
0.0
 40
2.5
100
AcDbArc
 50
180.0000000000004
 51
0.0
  0
ARC
  5
66E
330
22
100
AcDbEntity
  8
0
  6
Continuous
 62
     7
100
AcDbCircle
 10
-674.5991821289062
 20
537.2423706054688
 30
0.0
 40
2.5
100
AcDbArc
 50
0.0
 51
180.0000000000004
  0
ARC
  5
66F
330
22
100
AcDbEntity
  8
0
  6
Continuous
 62
     7
100
AcDbCircle
 10
-674.5991821289062
 20
485.2423706054688
 30
0.0
 40
2.5
100
AcDbArc
 50
180.0000000000004
 51
0.0
  0
ARC
  5
670
330
22
100
AcDbEntity
  8
0
  6
Continuous
 62
     7
100
AcDbCircle
 10
-511.5992126464844
 20
639.91748046875
 30
0.0
 40
2.5
100
AcDbArc
 50
180.0000000000004
 51
0.0
  0
ARC
  5
671
330
22
100
AcDbEntity
  8
0
  6
Continuous
 62
     7
100
AcDbCircle
 10
-491.5992126464844
 20
639.91748046875
 30
0.0
 40
2.5
100
AcDbArc
 50
180.0000000000004
 51
0.0
  0
ARC
  5
672
330
22
100
AcDbEntity
  8
0
  6
Continuous
 62
     7
100
AcDbCircle
 10
-654.5991821289062
 20
639.91748046875
 30
0.0
 40
2.5
100
AcDbArc
 50
180.0000000000004
 51
0.0
  0
ARC
  5
673
330
22
100
AcDbEntity
  8
0
  6
Continuous
 62
     7
100
AcDbCircle
 10
-634.5991821289062
 20
639.91748046875
 30
0.0
 40
2.5
100
AcDbArc
 50
180.0000000000004
 51
0.0
  0
ARC
  5
674
330
22
100
AcDbEntity
  8
0
  6
Continuous
 62
     7
100
AcDbCircle
 10
-571.5991821289062
 20
639.91748046875
 30
0.0
 40
2.5
100
AcDbArc
 50
180.0000000000004
 51
0.0
  0
ARC
  5
675
330
22
100
AcDbEntity
  8
0
  6
Continuous
 62
     7
100
AcDbCircle
 10
-471.5992126464843
 20
639.91748046875
 30
0.0
 40
2.5
100
AcDbArc
 50
180.0000000000004
 51
0.0
  0
ARC
  5
676
330
22
100
AcDbEntity
  8
0
  6
Continuous
 62
     7
100
AcDbCircle
 10
-531.5991821289063
 20
639.91748046875
 30
0.0
 40
2.5
100
AcDbArc
 50
180.0000000000004
 51
0.0
  0
ARC
  5
677
330
22
100
AcDbEntity
  8
0
  6
Continuous
 62
     7
100
AcDbCircle
 10
-614.5991821289062
 20
639.91748046875
 30
0.0
 40
2.5
100
AcDbArc
 50
180.0000000000004
 51
0.0
  0
ARC
  5
678
330
22
100
AcDbEntity
  8
0
  6
Continuous
 62
     7
100
AcDbCircle
 10
-674.5991821289062
 20
639.91748046875
 30
0.0
 40
2.5
100
AcDbArc
 50
180.0000000000004
 51
0.0
  0
ARC
  5
679
330
22
100
AcDbEntity
  8
0
  6
Continuous
 62
     7
100
AcDbCircle
 10
-714.5991821289062
 20
639.91748046875
 30
0.0
 40
2.5
100
AcDbArc
 50
180.0000000000004
 51
0.0
  0
ARC
  5
67A
330
22
100
AcDbEntity
  8
0
  6
Continuous
 62
     7
100
AcDbCircle
 10
-694.5991821289062
 20
639.91748046875
 30
0.0
 40
2.5
100
AcDbArc
 50
180.0000000000004
 51
0.0
  0
ARC
  5
67B
330
22
100
AcDbEntity
  8
0
  6
Continuous
 62
     7
100
AcDbCircle
 10
-551.5991821289063
 20
579.2423706054687
 30
0.0
 40
2.5
100
AcDbArc
 50
0.0
 51
180.0000000000004
  0
ARC
  5
67C
330
22
100
AcDbEntity
  8
0
  6
Continuous
 62
     7
100
AcDbCircle
 10
-551.5991821289063
 20
600.2423706054687
 30
0.0
 40
2.5
100
AcDbArc
 50
0.0
 51
180.0000000000004
  0
ARC
  5
67D
330
22
100
AcDbEntity
  8
0
  6
Continuous
 62
     7
100
AcDbCircle
 10
-551.5991821289063
 20
506.2423706054688
 30
0.0
 40
2.5
100
AcDbArc
 50
180.0000000000004
 51
0.0
  0
ARC
  5
67E
330
22
100
AcDbEntity
  8
0
  6
Continuous
 62
     7
100
AcDbCircle
 10
-551.5991821289063
 20
537.2423706054688
 30
0.0
 40
2.5
100
AcDbArc
 50
0.0
 51
180.0000000000004
  0
ARC
  5
67F
330
22
100
AcDbEntity
  8
0
  6
Continuous
 62
     7
100
AcDbCircle
 10
-551.5991821289063
 20
495.2423706054688
 30
0.0
 40
2.5
100
AcDbArc
 50
0.0
 51
180.0000000000004
  0
ARC
  5
680
330
22
100
AcDbEntity
  8
0
  6
Continuous
 62
     7
100
AcDbCircle
 10
-551.5991821289063
 20
485.2423706054688
 30
0.0
 40
2.5
100
AcDbArc
 50
180.0000000000004
 51
0.0
  0
ARC
  5
681
330
22
100
AcDbEntity
  8
0
  6
Continuous
 62
     7
100
AcDbCircle
 10
-551.5991821289063
 20
724.2423706054687
 30
0.0
 40
2.5
100
AcDbArc
 50
180.0000000000004
 51
0.0
  0
ARC
  5
682
330
22
100
AcDbEntity
  8
0
  6
Continuous
 62
     7
100
AcDbCircle
 10
-551.5991821289063
 20
734.2423706054687
 30
0.0
 40
2.5
100
AcDbArc
 50
0.0
 51
180.0000000000004
  0
ARC
  5
683
330
22
100
AcDbEntity
  8
0
  6
Continuous
 62
     7
100
AcDbCircle
 10
-551.5991821289063
 20
682.2423706054687
 30
0.0
 40
2.5
100
AcDbArc
 50
180.0000000000004
 51
0.0
  0
ARC
  5
684
330
22
100
AcDbEntity
  8
0
  6
Continuous
 62
     7
100
AcDbCircle
 10
-551.5991821289063
 20
671.2423706054687
 30
0.0
 40
2.5
100
AcDbArc
 50
0.0
 51
180.0000000000004
  0
ARC
  5
685
330
22
100
AcDbEntity
  8
0
  6
Continuous
 62
     7
100
AcDbCircle
 10
-551.5991821289063
 20
713.2423706054687
 30
0.0
 40
2.5
100
AcDbArc
 50
0.0
 51
180.0000000000004
  0
ARC
  5
686
330
22
100
AcDbEntity
  8
0
  6
Continuous
 62
     7
100
AcDbCircle
 10
-551.5991821289063
 20
639.91748046875
 30
0.0
 40
2.5
100
AcDbArc
 50
180.0000000000004
 51
0.0
  0
ARC
  5
687
330
22
100
AcDbEntity
  8
0
  6
Continuous
 62
     7
100
AcDbCircle
 10
-551.5991821289063
 20
628.9174804687499
 30
0.0
 40
2.5
100
AcDbArc
 50
0.0
 51
180.0000000000004
  0
ARC
  5
688
330
22
100
AcDbEntity
  8
0
  6
Continuous
 62
     7
100
AcDbCircle
 10
-551.5991821289063
 20
619.2423706054687
 30
0.0
 40
2.5
100
AcDbArc
 50
180.0000000000004
 51
0.0
  0
ARC
  5
689
330
22
100
AcDbEntity
  8
0
  6
Continuous
 62
     7
100
AcDbCircle
 10
-551.5991821289063
 20
548.2423706054688
 30
0.0
 40
2.5
100
AcDbArc
 50
180.0000000000004
 51
0.0
  0
ARC
  5
68A
330
22
100
AcDbEntity
  8
0
  6
Continuous
 62
     7
100
AcDbCircle
 10
-551.5991821289063
 20
590.2423706054687
 30
0.0
 40
2.5
100
AcDbArc
 50
180.0000000000004
 51
0.0
  0
ARC
  5
68B
330
22
100
AcDbEntity
  8
0
  6
Continuous
 62
     7
100
AcDbCircle
 10
-448.0992126464843
 20
464.7423706054688
 30
0.0
 40
5.0
100
AcDbArc
 50
270.0000000000005
 51
0.0
  0
ARC
  5
68C
330
22
100
AcDbEntity
  8
0
  6
Continuous
 62
     7
100
AcDbCircle
 10
-738.0991821289062
 20
464.7423706054688
 30
0.0
 40
5.0
100
AcDbArc
 50
180.0000000000004
 51
270.0000000000005
  0
LWPOLYLINE
  5
68D
330
22
100
AcDbEntity
  8
0
  6
Continuous
 62
     7
100
AcDbPolyline
 90
       17
 70
     0
 43
0.0
 10
-621.1361827592208
 20
319.580383300755
 42
0.0401679067373621
 10
-621.3073268972912
 20
319.9896155742917
 42
0.0401679067373621
 10
-621.5475695838477
 20
320.3883173730022
 42
0.0401679067373621
 10
-621.8507288295236
 20
320.7662291950673
 42
0.0401679067373621
 10
-622.2090036591484
 20
321.1136265119336
 42
0.0401679067373621
 10
-622.6131748485341
 20
321.4215700024946
 42
0.0401679067373621
 10
-623.0528421560316
 20
321.6821355821043
 42
0.0401679067373621
 10
-623.5166919443415
 20
321.8886183072518
 42
0.0401679067373621
 10
-623.9927883060707
 20
322.0357049089699
 42
0.0401679067373621
 10
-624.4688802017078
 20
322.1196105152998
 42
0.0401679067373621
 10
-624.9327167066646
 20
322.1381760446333
 42
0.0401679067373621
 10
-625.3723622553583
 20
322.0909237637807
 42
0.0401679067373621
 10
-625.7765037703935
 20
321.9790695811302
 42
0.0401679067373621
 10
-626.1347417737087
 20
321.8054917585657
 42
0.0401679067373621
 10
-626.4378579887412
 20
321.5746568472596
 42
0.0401679067373621
 10
-626.6780525475957
 20
321.2925047531767
 42
0.0401679067373621
 10
-626.8491446993415
 20
320.9662958898189
 42
-1.0
  0
TEXT
  5
6A0
330
22
100
AcDbEntity
  8
0
  6
Continuous
 62
     7
100
AcDbText
 10
-459.3267755508422
 20
107.5295181274414
 30
0.0
 40
7.0
  1
ＤＬ－ＳＫ４－１００
 41
0.8443929888818491
100
AcDbText
  0
DIMENSION
  5
6A1
330
22
100
AcDbEntity
  8
0
  6
Continuous
 62
     7
100
AcDbDimension
  2
*D1
 10
-402.9657897949219
 20
759.7423706054687
 30
0.0
 11
-402.9657897949219
 21
609.7423706054687
 31
0.0
 71
     5
 42
-1.0
  3
DIMSTYLE1
100
AcDbAlignedDimension
 13
-448.0992126464843
 23
459.7423706054688
 33
0.0
 14
-448.0992126464843
 24
759.7423706054687
 34
0.0
 50
90.0
100
AcDbRotatedDimension
  0
DIMENSION
  5
6A2
330
22
100
AcDbEntity
  8
0
  6
Continuous
 62
     7
100
AcDbDimension
  2
*D2
 10
-417.0468444824218
 20
745.2423706054688
 30
0.0
 11
-417.0468444824218
 21
609.7423706054687
 31
0.0
 71
     5
 42
-1.0
  3
DIMSTYLE2
100
AcDbAlignedDimension
 13
-458.5992126464843
 23
474.2423706054688
 33
0.0
 14
-458.5992126464843
 24
745.2423706054688
 34
0.0
 50
90.0
100
AcDbRotatedDimension
  0
DIMENSION
  5
6A3
330
22
100
AcDbEntity
  8
0
  6
Continuous
 62
     7
100
AcDbDimension
  2
*D3
 10
-443.0992126464843
 20
793.8382568359375
 30
0.0
 11
-593.0991821289062
 21
793.8382568359375
 31
0.0
 71
     5
 42
-1.0
  3
DIMSTYLE3
100
AcDbAlignedDimension
 13
-743.0991821289062
 23
754.7423706054687
 33
0.0
 14
-443.0992126464843
 24
754.7423706054687
 34
0.0
100
AcDbRotatedDimension
  0
DIMENSION
  5
6A4
330
22
100
AcDbEntity
  8
0
  6
Continuous
 62
     7
100
AcDbDimension
  2
*D4
 10
-457.5992126464844
 20
780.6896972656249
 30
0.0
 11
-593.0991821289062
 21
780.6896972656249
 31
0.0
 71
     5
 42
-1.0
  3
DIMSTYLE4
100
AcDbAlignedDimension
 13
-728.5991821289062
 23
744.2423706054687
 33
0.0
 14
-457.5992126464844
 24
744.2423706054687
 34
0.0
100
AcDbRotatedDimension
  0
DIMENSION
  5
6A5
330
22
100
AcDbEntity
  8
0
  6
Continuous
 62
     7
100
AcDbDimension
  2
*D5
 10
-402.9657897949219
 20
184.6504669189453
 30
0.0
 11
-402.9657897949219
 21
172.1894989013672
 31
0.0
 71
     5
 42
-1.0
  3
DIMSTYLE5
100
AcDbAlignedDimension
 13
-400.6797790527343
 23
188.1504669189453
 33
0.0
 14
-496.0992126464843
 24
184.6504669189453
 34
0.0
 50
90.0
100
AcDbRotatedDimension
  0
DIMENSION
  5
6A6
330
22
100
AcDbEntity
  8
0
  6
Continuous
 62
     7
100
AcDbDimension
  2
*D6
 10
-482.0992126464843
 20
77.67269134521484
 30
0.0
 11
-593.0991821289062
 21
77.67269134521484
 31
0.0
 71
     5
 42
-1.0
  3
DIMSTYLE6
100
AcDbAlignedDimension
 13
-704.0991821289062
 23
185.1504669189453
 33
0.0
 14
-482.0992126464843
 24
185.1504669189453
 34
0.0
100
AcDbRotatedDimension
  0
DIMENSION
  5
6A7
330
22
100
AcDbEntity
  8
0
  6
Continuous
 62
     7
100
AcDbDimension
  2
*D7
 10
-530.5991821289063
 20
91.25540161132812
 30
0.0
 11
-593.0991821289062
 21
91.25540161132812
 31
0.0
 71
     5
 42
-1.0
  3
DIMSTYLE7
100
AcDbAlignedDimension
 13
-655.5991821289062
 23
144.1504669189453
 33
0.0
 14
-530.5991821289063
 24
144.1504669189453
 34
0.0
100
AcDbRotatedDimension
  0
DIMENSION
  5
6A8
330
22
100
AcDbEntity
  8
0
  6
Continuous
 62
     7
100
AcDbDimension
  2
*D8
 10
-745.2388305664062
 20
228.1504669189453
 30
0.0
 11
-745.2388305664062
 21
185.6504669189453
 31
0.0
 71
     5
 42
-1.0
  3
DIMSTYLE8
100
AcDbAlignedDimension
 13
-654.5991821289062
 23
143.1504669189453
 33
0.0
 14
-653.0991821289062
 24
228.1504669189453
 34
0.0
 50
90.0
100
AcDbRotatedDimension
  0
DIMENSION
  5
6A9
330
22
100
AcDbEntity
  8
0
  6
Continuous
 62
     7
100
AcDbDimension
  2
*D9
 10
-673.5991821289062
 20
153.6280975341797
 30
0.0
 11
-664.5991821289062
 21
153.6280975341797
 31
0.0
 71
     5
 42
-1.0
  3
DIMSTYLE9
100
AcDbAlignedDimension
 13
-655.5991821289062
 23
144.1504669189453
 33
0.0
 14
-673.5991821289062
 24
183.1956024169922
 34
0.0
100
AcDbRotatedDimension
  0
DIMENSION
  5
6AA
330
22
100
AcDbEntity
  8
0
  6
Continuous
 62
     7
100
AcDbDimension
  2
*D10
 10
-683.4557495117187
 20
162.6504669189453
 30
0.0
 11
-683.4557495117187
 21
173.6504669189453
 31
0.0
 71
     5
 42
-1.0
  3
DIMSTYLE10
100
AcDbAlignedDimension
 13
-703.5991821289062
 23
184.6504669189453
 33
0.0
 14
-657.5991821289062
 24
162.6504669189453
 34
0.0
 50
90.0
100
AcDbRotatedDimension
  0
INSERT
  5
6AB
330
22
100
AcDbEntity
  8
0
  6
Continuous
 62
     7
100
AcDbBlockReference
  2
KOZU0001
 10
-660.0061645507812
 20
178.8475646972656
 30
0.0
  0
INSERT
  5
6AC
330
22
100
AcDbEntity
  8
0
  6
Continuous
 62
     7
100
AcDbBlockReference
  2
KOZU0002
 10
-537.2157592773438
 20
162.8780822753906
 30
0.0
  0
DIMENSION
  5
6AD
330
22
100
AcDbEntity
  8
0
  6
Continuous
 62
     7
100
AcDbDimension
  2
*D11
 10
-402.9657897949219
 20
391.1504516601563
 30
0.0
 11
-402.9657897949219
 21
289.6504516601563
 31
0.0
 71
     5
 42
-1.0
  3
DIMSTYLE11
100
AcDbAlignedDimension
 13
-484.0992126464843
 23
188.1504669189453
 33
0.0
 14
-444.0992126464843
 24
391.1504516601563
 34
0.0
 50
90.0
100
AcDbRotatedDimension
  0
DIMENSION
  5
6AE
330
22
100
AcDbEntity
  8
0
  6
Continuous
 62
     7
100
AcDbDimension
  2
*D12
 10
-417.0468444824218
 20
228.1504669189453
 30
0.0
 11
-417.0468444824218
 21
208.1504669189453
 31
0.0
 71
     5
 42
-1.0
  3
DIMSTYLE12
100
AcDbAlignedDimension
 13
-400.6797790527343
 23
188.1504669189453
 33
0.0
 14
-533.0991821289063
 24
228.1504669189453
 34
0.0
 50
90.0
100
AcDbRotatedDimension
  0
DIMENSION
  5
6AF
330
22
100
AcDbEntity
  8
0
  6
Continuous
 62
     7
100
AcDbDimension
  2
*D13
 10
-417.0468444824218
 20
286.1504516601563
 30
0.0
 11
-417.0468444824218
 21
338.6504516601563
 31
0.0
 71
     5
 42
-1.0
  3
DIMSTYLE13
100
AcDbAlignedDimension
 13
-400.6797790527343
 23
391.1504516601563
 33
0.0
 14
-532.5991821289063
 24
286.1504516601563
 34
0.0
 50
90.0
100
AcDbRotatedDimension
  0
DIMENSION
  5
6B0
330
22
100
AcDbEntity
  8
0
  6
Continuous
 62
     7
100
AcDbDimension
  2
*D14
 10
-574.1204833984375
 20
308.1504516601563
 30
0.0
 11
-574.1204833984375
 21
258.1504516601563
 31
0.0
 71
     5
 42
-1.0
  3
DIMSTYLE14
100
AcDbAlignedDimension
 13
-593.0991821289062
 23
208.1504669189453
 33
0.0
 14
-593.0991821289062
 24
308.1504516601563
 34
0.0
 50
90.0
100
AcDbRotatedDimension
  0
DIMENSION
  5
6B1
330
22
100
AcDbEntity
  8
0
  6
Continuous
 62
     7
100
AcDbDimension
  2
*D15
 10
-562.978271484375
 20
258.1504516601563
 30
0.0
 11
-562.978271484375
 21
233.1504669189453
 31
0.0
 71
     5
 42
-1.0
  3
DIMSTYLE15
100
AcDbAlignedDimension
 13
-538.0991821289064
 23
208.1504669189453
 33
0.0
 14
-538.0991821289064
 24
258.1504516601563
 34
0.0
 50
90.0
100
AcDbRotatedDimension
  0
ENDSEC
  0
SECTION
  2
OBJECTS
  0
DICTIONARY
  5
C
330
0
100
AcDbDictionary
281
     1
  3
ACAD_COLOR
350
1B
  3
ACAD_GROUP
350
D
  3
ACAD_LAYOUT
350
19
  3
ACAD_MATERIAL
350
1A
  3
ACAD_MLINESTYLE
350
16
  3
ACAD_PLOTSETTINGS
350
18
  3
ACAD_PLOTSTYLENAME
350
E
  3
ACAD_TABLESTYLE
350
1C
  3
AcDbVariableDictionary
350
6BD
  0
DICTIONARY
  5
1B
102
{ACAD_REACTORS
330
C
102
}
330
C
100
AcDbDictionary
281
     1
  0
DICTIONARY
  5
D
102
{ACAD_REACTORS
330
C
102
}
330
C
100
AcDbDictionary
281
     1
  0
DICTIONARY
  5
19
102
{ACAD_REACTORS
330
C
102
}
330
C
100
AcDbDictionary
281
     1
  3
Model
350
25
  3
レイアウト1
350
21
  0
DICTIONARY
  5
1A
102
{ACAD_REACTORS
330
C
102
}
330
C
100
AcDbDictionary
281
     1
  0
DICTIONARY
  5
16
102
{ACAD_REACTORS
330
C
102
}
330
C
100
AcDbDictionary
281
     1
  3
Standard
350
17
  0
DICTIONARY
  5
18
102
{ACAD_REACTORS
330
C
102
}
330
C
100
AcDbDictionary
281
     1
  0
ACDBDICTIONARYWDFLT
  5
E
102
{ACAD_REACTORS
330
C
102
}
330
C
100
AcDbDictionary
281
     1
  3
Normal
350
F
100
AcDbDictionaryWithDefault
340
F
  0
DICTIONARY
  5
1C
102
{ACAD_REACTORS
330
C
102
}
330
C
100
AcDbDictionary
281
     1
  3
Standard
350
1D
  0
DICTIONARY
  5
6BD
102
{ACAD_REACTORS
330
C
102
}
330
C
100
AcDbDictionary
281
     1
  3
CTABLESTYLE
350
6BE
  0
LAYOUT
  5
25
102
{ACAD_REACTORS
330
19
102
}
330
19
100
AcDbPlotSettings
  1

  2
PDF reDirect v2
  4
User119
  6

 40
3.174999952316284
 41
3.174999952316284
 42
3.17498779296875
 43
3.175048828125
 44
841.0
 45
1188.800048828125
 46
0.0
 47
0.0
 48
0.0
 49
0.0
140
0.0
141
0.0
142
1.0
143
1.0
 70
 11952
 72
     1
 73
     1
 74
     2
  7
C:\Users\ck\AppData\Roaming\Autodesk\AutoCAD 2005\R16.1\jpn\Plot Styles\black.ctb
 75
    16
147
1.0
 76
     0
 77
     2
 78
   300
148
1187.0
149
0.0
100
AcDbLayout
  1
Model
 70
     1
 71
     0
 10
0.0
 20
0.0
 11
12.0
 21
9.0
 12
0.0
 22
0.0
 32
0.0
 14
0.0
 24
0.0
 34
0.0
 15
0.0
 25
0.0
 35
0.0
146
0.0
 13
0.0
 23
0.0
 33
0.0
 16
1.0
 26
0.0
 36
0.0
 17
0.0
 27
1.0
 37
0.0
 76
     0
330
22
1001
ACAD_PSEXT
1000
PDF reDirect v2
1000
PDF reDirect Pro
1000
PDF_REDIRECT_PORT:
1000
PDF reDirect provided by EXP Systems
1070
     0
  0
LAYOUT
  5
21
102
{ACAD_REACTORS
330
19
102
}
330
19
100
AcDbPlotSettings
  1

  2
PDF reDirect v2
  4

  6

 40
0.0
 41
0.0
 42
0.0
 43
0.0
 44
0.0
 45
0.0
 46
0.0
 47
0.0
 48
0.0
 49
0.0
140
0.0
141
0.0
142
1.0
143
1.0
 70
   688
 72
     0
 73
     0
 74
     5
  7
C:\Users\ck\AppData\Roaming\Autodesk\AutoCAD 2005\R16.1\jpn\Plot Styles\black.ctb
 75
    16
147
1.0
 76
     0
 77
     2
 78
   300
148
0.0
149
0.0
100
AcDbLayout
  1
レイアウト1
 70
     1
 71
     1
 10
-1187.0
 20
0.0
 11
0.0
 21
839.0
 12
0.0
 22
0.0
 32
0.0
 14
1.000000000000000E+20
 24
1.000000000000000E+20
 34
1.000000000000000E+20
 15
-1.000000000000000E+20
 25
-1.000000000000000E+20
 35
-1.000000000000000E+20
146
0.0
 13
0.0
 23
0.0
 33
0.0
 16
1.0
 26
0.0
 36
0.0
 17
0.0
 27
1.0
 37
0.0
 76
     0
330
1E
  0
MLINESTYLE
  5
17
102
{ACAD_REACTORS
330
16
102
}
330
16
100
AcDbMlineStyle
  2
STANDARD
 70
     0
  3

 62
   256
 51
90.0
 52
90.0
 71
     2
 49
0.5
 62
   256
  6
BYLAYER
 49
-0.5
 62
   256
  6
BYLAYER
  0
ACDBPLACEHOLDER
  5
F
102
{ACAD_REACTORS
330
E
102
}
330
E
  0
TABLESTYLE
  5
1D
102
{ACAD_REACTORS
330
1C
102
}
330
1C
100
AcDbTableStyle
  3
Standard
 70
     0
 71
     0
 40
0.06
 41
0.06
280
     0
281
     0
  7
STANDARD
140
0.18
170
     2
 62
     0
 63
     7
283
     0
274
    -2
284
     1
 64
     0
275
    -2
285
     1
 65
     0
276
    -2
286
     1
 66
     0
277
    -2
287
     1
 67
     0
278
    -2
288
     1
 68
     0
279
    -2
289
     1
 69
     0
  7
STANDARD
140
0.25
170
     5
 62
     0
 63
     7
283
     0
274
    -2
284
     1
 64
     0
275
    -2
285
     1
 65
     0
276
    -2
286
     1
 66
     0
277
    -2
287
     1
 67
     0
278
    -2
288
     1
 68
     0
279
    -2
289
     1
 69
     0
  7
STANDARD
140
0.18
170
     5
 62
     0
 63
     7
283
     0
274
    -2
284
     1
 64
     0
275
    -2
285
     1
 65
     0
276
    -2
286
     1
 66
     0
277
    -2
287
     1
 67
     0
278
    -2
288
     1
 68
     0
279
    -2
289
     1
 69
     0
  0
DICTIONARYVAR
  5
6BE
102
{ACAD_REACTORS
330
6BD
102
}
330
6BD
100
DictionaryVariables
280
     0
  1
STANDARD
  0
ENDSEC
  0
EOF
