  0
SECTION
  2
HEADER
  9
$ACADVER
  1
AC1018
  9
$ACADMAINTVER
 70
    39
  9
$DWGCODEPAGE
  3
ANSI_932
  9
$INSBASE
 10
0.0
 20
0.0
 30
0.0
  9
$EXTMIN
 10
-300.3923633859869
 20
36.70254589792171
 30
-0.0015258207003583
  9
$EXTMAX
 10
-95.62109288226475
 20
277.6369177832232
 30
0.0000000349246037
  9
$LIMMIN
 10
-423.0
 20
-2.0
  9
$LIMMAX
 10
-5.0
 20
293.0
  9
$ORTHOMODE
 70
     0
  9
$REGENMODE
 70
     1
  9
$FILLMODE
 70
     1
  9
$QTEXTMODE
 70
     0
  9
$MIRRTEXT
 70
     0
  9
$LTSCALE
 40
1.0
  9
$ATTMODE
 70
     1
  9
$TEXTSIZE
 40
0.2
  9
$TRACEWID
 40
0.05
  9
$TEXTSTYLE
  7
STANDARD
  9
$CLAYER
  8
0
  9
$CELTYPE
  6
CONTINUOUS
  9
$CECOLOR
 62
   256
  9
$CELTSCALE
 40
1.0
  9
$DISPSILH
 70
     0
  9
$DIMSCALE
 40
1.0
  9
$DIMASZ
 40
1.0
  9
$DIMEXO
 40
2.54
  9
$DIMDLI
 40
0.38
  9
$DIMRND
 40
0.0
  9
$DIMDLE
 40
0.0
  9
$DIMEXE
 40
2.54
  9
$DIMTP
 40
0.0
  9
$DIMTM
 40
0.0
  9
$DIMTXT
 40
3.0
  9
$DIMCEN
 40
0.09
  9
$DIMTSZ
 40
0.0
  9
$DIMTOL
 70
     0
  9
$DIMLIM
 70
     0
  9
$DIMTIH
 70
     0
  9
$DIMTOH
 70
     0
  9
$DIMSE1
 70
     0
  9
$DIMSE2
 70
     0
  9
$DIMTAD
 70
     1
  9
$DIMZIN
 70
     0
  9
$DIMBLK
  1

  9
$DIMASO
 70
     1
  9
$DIMSHO
 70
     0
  9
$DIMPOST
  1

  9
$DIMAPOST
  1

  9
$DIMALT
 70
     0
  9
$DIMALTD
 70
     2
  9
$DIMALTF
 40
25.4
  9
$DIMLFAC
 40
1.0
  9
$DIMTOFL
 70
     0
  9
$DIMTVP
 40
1.0
  9
$DIMTIX
 70
     0
  9
$DIMSOXD
 70
     0
  9
$DIMSAH
 70
     1
  9
$DIMBLK1
  1

  9
$DIMBLK2
  1

  9
$DIMSTYLE
  2
DIMSTYLE1
  9
$DIMCLRD
 70
     0
  9
$DIMCLRE
 70
     0
  9
$DIMCLRT
 70
     0
  9
$DIMTFAC
 40
1.0
  9
$DIMGAP
 40
1.5
  9
$DIMJUST
 70
     0
  9
$DIMSD1
 70
     0
  9
$DIMSD2
 70
     0
  9
$DIMTOLJ
 70
     1
  9
$DIMTZIN
 70
     0
  9
$DIMALTZ
 70
     0
  9
$DIMALTTZ
 70
     0
  9
$DIMUPT
 70
     0
  9
$DIMDEC
 70
     4
  9
$DIMTDEC
 70
     4
  9
$DIMALTU
 70
     2
  9
$DIMALTTD
 70
     2
  9
$DIMTXSTY
  7
STANDARD
  9
$DIMAUNIT
 70
     0
  9
$DIMADEC
 70
     0
  9
$DIMALTRND
 40
0.0
  9
$DIMAZIN
 70
     0
  9
$DIMDSEP
 70
    46
  9
$DIMATFIT
 70
     3
  9
$DIMFRAC
 70
     0
  9
$DIMLDRBLK
  1

  9
$DIMLUNIT
 70
     2
  9
$DIMLWD
 70
    -2
  9
$DIMLWE
 70
    -2
  9
$DIMTMOVE
 70
     0
  9
$LUNITS
 70
     2
  9
$LUPREC
 70
     4
  9
$SKETCHINC
 40
0.1
  9
$FILLETRAD
 40
0.0
  9
$AUNITS
 70
     0
  9
$AUPREC
 70
     0
  9
$MENU
  1
.
  9
$ELEVATION
 40
0.0
  9
$PELEVATION
 40
0.0
  9
$THICKNESS
 40
0.0
  9
$LIMCHECK
 70
     0
  9
$CHAMFERA
 40
0.0
  9
$CHAMFERB
 40
0.0
  9
$CHAMFERC
 40
0.0
  9
$CHAMFERD
 40
0.0
  9
$SKPOLY
 70
     0
  9
$TDCREATE
 40
2457842.878811701
  9
$TDUCREATE
 40
2457842.503811701
  9
$TDUPDATE
 40
2457842.879294583
  9
$TDUUPDATE
 40
2457842.504294583
  9
$TDINDWG
 40
0.0004839236
  9
$TDUSRTIMER
 40
0.0004839236
  9
$USRTIMER
 70
     1
  9
$ANGBASE
 50
0.0
  9
$ANGDIR
 70
     0
  9
$PDMODE
 70
     0
  9
$PDSIZE
 40
0.0
  9
$PLINEWID
 40
0.0
  9
$SPLFRAME
 70
     0
  9
$SPLINETYPE
 70
     6
  9
$SPLINESEGS
 70
     8
  9
$HANDSEED
  5
1BE
  9
$SURFTAB1
 70
     6
  9
$SURFTAB2
 70
     6
  9
$SURFTYPE
 70
     6
  9
$SURFU
 70
     6
  9
$SURFV
 70
     6
  9
$UCSBASE
  2

  9
$UCSNAME
  2

  9
$UCSORG
 10
0.0
 20
0.0
 30
0.0
  9
$UCSXDIR
 10
1.0
 20
0.0
 30
0.0
  9
$UCSYDIR
 10
0.0
 20
1.0
 30
0.0
  9
$UCSORTHOREF
  2

  9
$UCSORTHOVIEW
 70
     0
  9
$UCSORGTOP
 10
0.0
 20
0.0
 30
0.0
  9
$UCSORGBOTTOM
 10
0.0
 20
0.0
 30
0.0
  9
$UCSORGLEFT
 10
0.0
 20
0.0
 30
0.0
  9
$UCSORGRIGHT
 10
0.0
 20
0.0
 30
0.0
  9
$UCSORGFRONT
 10
0.0
 20
0.0
 30
0.0
  9
$UCSORGBACK
 10
0.0
 20
0.0
 30
0.0
  9
$PUCSBASE
  2

  9
$PUCSNAME
  2

  9
$PUCSORG
 10
0.0
 20
0.0
 30
0.0
  9
$PUCSXDIR
 10
1.0
 20
0.0
 30
0.0
  9
$PUCSYDIR
 10
0.0
 20
1.0
 30
0.0
  9
$PUCSORTHOREF
  2

  9
$PUCSORTHOVIEW
 70
     0
  9
$PUCSORGTOP
 10
0.0
 20
0.0
 30
0.0
  9
$PUCSORGBOTTOM
 10
0.0
 20
0.0
 30
0.0
  9
$PUCSORGLEFT
 10
0.0
 20
0.0
 30
0.0
  9
$PUCSORGRIGHT
 10
0.0
 20
0.0
 30
0.0
  9
$PUCSORGFRONT
 10
0.0
 20
0.0
 30
0.0
  9
$PUCSORGBACK
 10
0.0
 20
0.0
 30
0.0
  9
$USERI1
 70
     0
  9
$USERI2
 70
     0
  9
$USERI3
 70
     0
  9
$USERI4
 70
     0
  9
$USERI5
 70
     0
  9
$USERR1
 40
0.0
  9
$USERR2
 40
0.0
  9
$USERR3
 40
0.0
  9
$USERR4
 40
0.0
  9
$USERR5
 40
0.0
  9
$WORLDVIEW
 70
     1
  9
$SHADEDGE
 70
     3
  9
$SHADEDIF
 70
    70
  9
$TILEMODE
 70
     1
  9
$MAXACTVP
 70
    64
  9
$PINSBASE
 10
0.0
 20
0.0
 30
0.0
  9
$PLIMCHECK
 70
     0
  9
$PEXTMIN
 10
1.000000000000000E+20
 20
1.000000000000000E+20
 30
1.000000000000000E+20
  9
$PEXTMAX
 10
-1.000000000000000E+20
 20
-1.000000000000000E+20
 30
-1.000000000000000E+20
  9
$PLIMMIN
 10
-423.0
 20
-2.0
  9
$PLIMMAX
 10
-5.0
 20
293.0
  9
$UNITMODE
 70
     0
  9
$VISRETAIN
 70
     1
  9
$PLINEGEN
 70
     0
  9
$PSLTSCALE
 70
     1
  9
$TREEDEPTH
 70
  3020
  9
$CMLSTYLE
  2
Standard
  9
$CMLJUST
 70
     0
  9
$CMLSCALE
 40
1.0
  9
$PROXYGRAPHICS
 70
     1
  9
$MEASUREMENT
 70
     0
  9
$CELWEIGHT
370
    -1
  9
$ENDCAPS
280
     0
  9
$JOINSTYLE
280
     0
  9
$LWDISPLAY
290
     0
  9
$INSUNITS
 70
     0
  9
$HYPERLINKBASE
  1

  9
$STYLESHEET
  1

  9
$XEDIT
290
     1
  9
$CEPSNTYPE
380
     0
  9
$PSTYLEMODE
290
     1
  9
$FINGERPRINTGUID
  2
{896B107B-350C-4A22-A2B3-5B1C45ED57BB}
  9
$VERSIONGUID
  2
{30DE9C2C-771D-448B-B508-9350A92757BC}
  9
$EXTNAMES
290
     1
  9
$PSVPSCALE
 40
0.0
  9
$OLESTARTUP
290
     0
  9
$SORTENTS
280
   127
  9
$INDEXCTL
280
     0
  9
$HIDETEXT
280
     0
  9
$XCLIPFRAME
290
     0
  9
$HALOGAP
280
     0
  9
$OBSCOLOR
 70
   257
  9
$OBSLTYPE
280
     0
  9
$INTERSECTIONDISPLAY
280
     0
  9
$INTERSECTIONCOLOR
 70
   257
  9
$DIMASSOC
280
     1
  9
$PROJECTNAME
  1

  0
ENDSEC
  0
SECTION
  2
CLASSES
  0
CLASS
  1
ACDBDICTIONARYWDFLT
  2
AcDbDictionaryWithDefault
  3
ObjectDBX Classes
 90
        0
 91
        1
280
     0
281
     0
  0
CLASS
  1
TABLESTYLE
  2
AcDbTableStyle
  3
ObjectDBX Classes
 90
     2047
 91
        1
280
     0
281
     0
  0
CLASS
  1
DICTIONARYVAR
  2
AcDbDictionaryVar
  3
ObjectDBX Classes
 90
        0
 91
        1
280
     0
281
     0
  0
ENDSEC
  0
SECTION
  2
TABLES
  0
TABLE
  2
VPORT
  5
8
330
0
100
AcDbSymbolTable
 70
     2
  0
VPORT
  5
1BD
330
8
100
AcDbSymbolTableRecord
100
AcDbViewportTableRecord
  2
*Active
 70
     0
 10
0.0
 20
0.0
 11
1.0
 21
1.0
 12
-214.0
 22
145.5
 13
0.0
 23
0.0
 14
1.0
 24
1.0
 15
0.0
 25
0.0
 16
0.0
 26
0.0
 36
1.0
 17
0.0
 27
0.0
 37
0.0
 40
297.3320158102766
 41
1.707124010554089
 42
50.0
 43
0.0
 44
0.0
 50
0.0
 51
0.0
 71
     0
 72
   100
 73
     1
 74
     1
 75
     0
 76
     0
 77
     0
 78
     0
281
     0
 65
     1
110
0.0
120
0.0
130
0.0
111
1.0
121
0.0
131
0.0
112
0.0
122
1.0
132
0.0
 79
     0
146
0.0
  0
ENDTAB
  0
TABLE
  2
LTYPE
  5
5
330
0
100
AcDbSymbolTable
 70
     6
  0
LTYPE
  5
13
330
5
100
AcDbSymbolTableRecord
100
AcDbLinetypeTableRecord
  2
ByBlock
 70
     0
  3

 72
    65
 73
     0
 40
0.0
  0
LTYPE
  5
14
330
5
100
AcDbSymbolTableRecord
100
AcDbLinetypeTableRecord
  2
ByLayer
 70
     0
  3

 72
    65
 73
     0
 40
0.0
  0
LTYPE
  5
15
330
5
100
AcDbSymbolTableRecord
100
AcDbLinetypeTableRecord
  2
CONTINUOUS
 70
     0
  3
Solid line
 72
    65
 73
     0
 40
0.0
  0
LTYPE
  5
26
330
5
100
AcDbSymbolTableRecord
100
AcDbLinetypeTableRecord
  2
DASHED
 70
     0
  3
__ __ __ __ __ __ __ __ __ __ __ __ __ __ __
 72
    65
 73
     2
 40
3.5
 49
2.0
 74
     0
 49
-1.5
 74
     0
  0
LTYPE
  5
27
330
5
100
AcDbSymbolTableRecord
100
AcDbLinetypeTableRecord
  2
CENTER
 70
     0
  3
____ _ ____ _ ____ _ ____ _ ____ _ ____ _ ____
 72
    65
 73
     4
 40
17.5
 49
13.0
 74
     0
 49
-1.5
 74
     0
 49
1.5
 74
     0
 49
-1.5
 74
     0
  0
LTYPE
  5
28
330
5
100
AcDbSymbolTableRecord
100
AcDbLinetypeTableRecord
  2
PHANTOM
 70
     0
  3
_____ _ _ _____ _ _ _____ _ _ _____ _ _ ____  
 72
    65
 73
     6
 40
15.5
 49
8.0
 74
     0
 49
-1.5
 74
     0
 49
1.5
 74
     0
 49
-1.5
 74
     0
 49
1.5
 74
     0
 49
-1.5
 74
     0
  0
LTYPE
  5
29
330
5
100
AcDbSymbolTableRecord
100
AcDbLinetypeTableRecord
  2
DOT
 70
     0
  3
. . . . . . . . . . . . . . . . . . . . . . . .
 72
    65
 73
     2
 40
0.25
 49
0.0
 74
     0
 49
-0.25
 74
     0
  0
LTYPE
  5
2A
330
5
100
AcDbSymbolTableRecord
100
AcDbLinetypeTableRecord
  2
HIDDEN
 70
     0
  3
__ __ __ __ __ __ __ __ __ __ __ __ __ __ __
 72
    65
 73
     2
 40
3.5
 49
2.0
 74
     0
 49
-1.5
 74
     0
  0
ENDTAB
  0
TABLE
  2
LAYER
  5
2
330
0
100
AcDbSymbolTable
 70
     3
  0
LAYER
  5
10
330
2
100
AcDbSymbolTableRecord
100
AcDbLayerTableRecord
  2
0
 70
     0
 62
     7
  6
CONTINUOUS
370
    -3
390
F
  0
LAYER
  5
2B
330
2
100
AcDbSymbolTableRecord
100
AcDbLayerTableRecord
  2
1
 70
     0
 62
     7
  6
CONTINUOUS
370
    -3
390
F
  0
LAYER
  5
2C
330
2
100
AcDbSymbolTableRecord
100
AcDbLayerTableRecord
  2
DEFPOINTS
 70
     0
 62
     7
  6
CONTINUOUS
290
     0
370
    -3
390
F
  0
ENDTAB
  0
TABLE
  2
STYLE
  5
3
330
0
100
AcDbSymbolTable
 70
     2
  0
STYLE
  5
11
330
3
100
AcDbSymbolTableRecord
100
AcDbTextStyleTableRecord
  2
STANDARD
 70
     0
 40
0.0
 41
1.0
 50
0.0
 71
     0
 42
0.2
  3

  4

1001
ACAD
1000
MS Gothic
1071
    32817
  0
ENDTAB
  0
TABLE
  2
VIEW
  5
6
330
0
100
AcDbSymbolTable
 70
     0
  0
ENDTAB
  0
TABLE
  2
UCS
  5
7
330
0
100
AcDbSymbolTable
 70
     0
  0
ENDTAB
  0
TABLE
  2
APPID
  5
9
330
0
100
AcDbSymbolTable
 70
     2
  0
APPID
  5
12
330
9
100
AcDbSymbolTableRecord
100
AcDbRegAppTableRecord
  2
ACAD
 70
     0
  0
APPID
  5
1B2
330
9
100
AcDbSymbolTableRecord
100
AcDbRegAppTableRecord
  2
ACAD_PSEXT
 70
     0
  0
ENDTAB
  0
TABLE
  2
DIMSTYLE
  5
A
330
0
100
AcDbSymbolTable
 70
     3
100
AcDbDimStyleTable
 71
     1
340
2D
  0
DIMSTYLE
105
2D
102
{ACAD_REACTORS
330
1AD
102
}
330
A
100
AcDbSymbolTableRecord
100
AcDbDimStyleTableRecord
  2
DIMSTYLE1
 70
     0
 41
1.0
 42
2.54
 44
2.54
 73
     0
 74
     0
 77
     1
140
3.0
145
1.0
147
1.5
172
     1
173
     1
279
     2
340
11
  0
DIMSTYLE
105
2E
102
{ACAD_REACTORS
330
1AF
102
}
330
A
100
AcDbSymbolTableRecord
100
AcDbDimStyleTableRecord
  2
DIMSTYLE2
 70
     0
 41
1.0
 42
2.54
 44
2.54
 73
     0
 74
     0
 75
     1
 76
     1
 77
     1
140
3.0
145
1.0
147
1.5
172
     1
173
     1
279
     2
340
11
  0
ENDTAB
  0
TABLE
  2
BLOCK_RECORD
  5
1
330
0
100
AcDbSymbolTable
 70
     5
  0
BLOCK_RECORD
  5
22
330
1
100
AcDbSymbolTableRecord
100
AcDbBlockTableRecord
  2
*Model_Space
340
25
  0
BLOCK_RECORD
  5
1E
330
1
100
AcDbSymbolTableRecord
100
AcDbBlockTableRecord
  2
*Paper_Space
340
21
  0
BLOCK_RECORD
  5
32
330
1
100
AcDbSymbolTableRecord
100
AcDbBlockTableRecord
  2
_OPEN30
340
0
102
{BLKREFS
331
3B
331
3C
331
48
331
49
102
}
  0
BLOCK_RECORD
  5
38
330
1
100
AcDbSymbolTableRecord
100
AcDbBlockTableRecord
  2
*D1
340
0
  0
BLOCK_RECORD
  5
44
330
1
100
AcDbSymbolTableRecord
100
AcDbBlockTableRecord
  2
*D2
340
0
  0
BLOCK_RECORD
  5
4E
330
1
100
AcDbSymbolTableRecord
100
AcDbBlockTableRecord
  2
KOZU0001
340
0
102
{BLKREFS
331
1AE
102
}
  0
ENDTAB
  0
ENDSEC
  0
SECTION
  2
BLOCKS
  0
BLOCK
  5
23
330
22
100
AcDbEntity
  8
0
100
AcDbBlockBegin
  2
*Model_Space
 70
     0
 10
0.0
 20
0.0
 30
0.0
  3
*Model_Space
  1

  0
ENDBLK
  5
24
330
22
100
AcDbEntity
  8
0
100
AcDbBlockEnd
  0
BLOCK
  5
1F
330
1E
100
AcDbEntity
 67
     1
  8
0
100
AcDbBlockBegin
  2
*Paper_Space
 70
     0
 10
0.0
 20
0.0
 30
0.0
  3
*Paper_Space
  1

  0
ENDBLK
  5
20
330
1E
100
AcDbEntity
 67
     1
  8
0
100
AcDbBlockEnd
  0
BLOCK
  5
33
330
32
100
AcDbEntity
  8
0
100
AcDbBlockBegin
  2
_OPEN30
 70
     0
 10
0.0
 20
0.0
 30
0.0
  3
_OPEN30
  1

  0
LINE
  5
34
330
32
100
AcDbEntity
  8
0
  6
ByBlock
 62
     0
100
AcDbLine
 10
0.0
 20
0.0
 30
0.0
 11
-2.999999999999993
 21
-1.000000000000017
 31
0.0
  0
LINE
  5
35
330
32
100
AcDbEntity
  8
0
  6
ByBlock
 62
     0
100
AcDbLine
 10
0.0
 20
0.0
 30
0.0
 11
-3.000000000000006
 21
0.9999999999999815
 31
0.0
  0
LINE
  5
36
330
32
100
AcDbEntity
  8
0
  6
ByBlock
 62
     0
100
AcDbLine
 10
0.0
 20
0.0
 30
0.0
 11
-3.0
 21
0.0
 31
0.0
  0
ENDBLK
  5
37
330
32
100
AcDbEntity
  8
0
100
AcDbBlockEnd
  0
BLOCK
  5
39
330
38
100
AcDbEntity
  8
0
100
AcDbBlockBegin
  2
*D1
 70
     1
 10
0.0
 20
0.0
 30
0.0
  3
*D1
  1

  0
LINE
  5
3A
330
38
100
AcDbEntity
  8
0
  6
Continuous
 62
     7
100
AcDbLine
 10
-141.3714447021484
 20
59.26227569580078
 30
0.0
 11
-141.3714447021484
 21
103.2622756958008
 31
0.0
  0
INSERT
  5
3B
330
38
100
AcDbEntity
  8
0
  6
Continuous
 62
     7
100
AcDbBlockReference
  2
_OPEN30
 10
-141.3714447021484
 20
56.26227569580078
 30
0.0
 50
270.0000000000005
  0
INSERT
  5
3C
330
38
100
AcDbEntity
  8
0
  6
Continuous
 62
     7
100
AcDbBlockReference
  2
_OPEN30
 10
-141.3714447021484
 20
106.2622756958008
 30
0.0
 50
90.00000000000019
  0
LINE
  5
3D
330
38
100
AcDbEntity
  8
0
  6
Continuous
 62
     7
100
AcDbLine
 10
-191.3278588867188
 20
56.26227569580078
 30
0.0
 11
-139.08544921875
 21
56.26227569580078
 31
0.0
  0
LINE
  5
3E
330
38
100
AcDbEntity
  8
0
  6
Continuous
 62
     7
100
AcDbLine
 10
-159.8278588867188
 20
106.2622756958008
 30
0.0
 11
-139.08544921875
 21
106.2622756958008
 31
0.0
  0
TEXT
  5
3F
330
38
100
AcDbEntity
  8
0
  6
Continuous
 62
     7
100
AcDbText
 10
-142.1214445898101
 20
78.6922755509605
 30
0.0
 40
3.0
  1
50
 50
90.00000250447815
 41
1.101428593908038
100
AcDbText
  0
POINT
  5
40
330
38
100
AcDbEntity
  8
DEFPOINTS
  6
Continuous
 62
     7
100
AcDbPoint
 10
-193.8678588867188
 20
56.26227569580078
 30
0.0
  0
POINT
  5
41
330
38
100
AcDbEntity
  8
DEFPOINTS
  6
Continuous
 62
     7
100
AcDbPoint
 10
-162.3678588867188
 20
106.2622756958008
 30
0.0
  0
POINT
  5
42
330
38
100
AcDbEntity
  8
DEFPOINTS
  6
Continuous
 62
     7
100
AcDbPoint
 10
-141.3714447021484
 20
106.2622756958008
 30
0.0
  0
ENDBLK
  5
43
330
38
100
AcDbEntity
  8
0
100
AcDbBlockEnd
  0
BLOCK
  5
45
330
44
100
AcDbEntity
  8
0
100
AcDbBlockBegin
  2
*D2
 70
     1
 10
0.0
 20
0.0
 30
0.0
  3
*D2
  1

  0
LINE
  5
46
330
44
100
AcDbEntity
  8
0
  6
Continuous
 62
     7
100
AcDbLine
 10
-164.0697631835938
 20
223.1141815185547
 30
0.0
 11
-122.5068969726563
 21
234.1719665527344
 31
0.0
  0
LINE
  5
47
330
44
100
AcDbEntity
  8
0
  6
Continuous
 62
     7
100
AcDbLine
 10
-287.7668050186553
 20
190.2046067730693
 30
0.0
 11
-166.9689127547821
 21
222.3428633197041
 31
0.0
  0
INSERT
  5
48
330
44
100
AcDbEntity
  8
0
  6
Continuous
 62
     7
100
AcDbBlockReference
  2
_OPEN30
 10
-290.6659545898438
 20
189.4332885742188
 30
0.0
 50
194.8984153878442
  0
INSERT
  5
49
330
44
100
AcDbEntity
  8
0
  6
Continuous
 62
     7
100
AcDbBlockReference
  2
_OPEN30
 10
-164.0697631835938
 20
223.1141815185547
 30
0.0
 50
14.89841538784346
  0
TEXT
  5
4A
330
44
100
AcDbEntity
  8
0
  6
Continuous
 62
     7
100
AcDbText
 10
-153.7591959678902
 20
226.632941214756
 30
0.0
 40
3.0
  1
%%C１３１（目皿受外径）
 50
14.89999961777487
 41
0.8440126077968535
100
AcDbText
  0
POINT
  5
4B
330
44
100
AcDbEntity
  8
DEFPOINTS
  6
Continuous
 62
     7
100
AcDbPoint
 10
-290.6659545898438
 20
189.4332885742188
 30
0.0
  0
POINT
  5
4C
330
44
100
AcDbEntity
  8
DEFPOINTS
  6
Continuous
 62
     7
100
AcDbPoint
 10
-164.0697631835938
 20
223.1141815185547
 30
0.0
  0
ENDBLK
  5
4D
330
44
100
AcDbEntity
  8
0
100
AcDbBlockEnd
  0
BLOCK
  5
4F
330
4E
100
AcDbEntity
  8
0
100
AcDbBlockBegin
  2
KOZU0001
 70
     0
 10
0.0
 20
0.0
 30
0.0
  3
KOZU0001
  1

  0
LINE
  5
50
330
4E
100
AcDbEntity
  8
0
  6
Continuous
 62
     7
100
AcDbLine
 10
0.0
 20
0.0
 30
0.0
 11
-17.41793823242188
 21
-24.02465438842773
 31
0.0
  0
LINE
  5
51
330
4E
100
AcDbEntity
  8
0
  6
Continuous
 62
     7
100
AcDbLine
 10
-17.41793823242188
 20
-24.02465438842773
 30
0.0
 11
-52.49870300292968
 21
-24.02465438842773
 31
0.0
  0
LINE
  5
52
330
4E
100
AcDbEntity
  8
0
  6
Continuous
 62
     7
100
AcDbLine
 10
0.0
 20
0.0
 30
0.0
 11
-0.9512975205491727
 21
-3.015797245737351
 31
0.0
  0
LINE
  5
53
330
4E
100
AcDbEntity
  8
0
  6
Continuous
 62
     7
100
AcDbLine
 10
0.0
 20
0.0
 30
0.0
 11
-2.570516363881748
 21
-1.841859284260378
 31
0.0
  0
TEXT
  5
54
330
4E
100
AcDbEntity
  8
0
  6
Continuous
 62
     7
100
AcDbText
 10
-50.77870261669159
 20
-23.27465438842773
 30
0.0
 40
3.0
  1
配管接続口
 41
0.8487395020950888
100
AcDbText
  0
TEXT
  5
55
330
4E
100
AcDbEntity
  8
0
  6
Continuous
 62
     7
100
AcDbText
 10
-50.77870261669159
 20
-28.53965438842774
 30
0.0
 40
3.0
  1
Ｒｃ２（５０Ａ）
 41
0.8454512278006642
100
AcDbText
  0
ENDBLK
  5
56
330
4E
100
AcDbEntity
  8
0
100
AcDbBlockEnd
  0
ENDSEC
  0
SECTION
  2
ENTITIES
  0
LINE
  5
57
330
22
100
AcDbEntity
  8
0
  6
Continuous
 62
     7
100
AcDbLine
 10
-214.2678527832031
 20
249.1509094238281
 30
0.0
 11
-214.2678527832031
 21
228.1314697265625
 31
0.0
  0
LINE
  5
58
330
22
100
AcDbEntity
  8
0
  6
Continuous
 62
     7
100
AcDbLine
 10
-186.4678649902344
 20
202.4314727783203
 30
0.0
 11
-183.2502899169922
 21
202.4314727783203
 31
0.0
  0
LINE
  5
59
330
22
100
AcDbEntity
  8
0
  6
Continuous
 62
     7
100
AcDbLine
 10
-186.4678649902344
 20
210.4314727783203
 30
0.0
 11
-183.2502899169922
 21
210.4314727783203
 31
0.0
  0
LINE
  5
5A
330
22
100
AcDbEntity
  8
0
  6
Continuous
 62
     7
100
AcDbLine
 10
-214.2678527832031
 20
184.7314758300781
 30
0.0
 11
-214.2678527832031
 21
163.7120361328125
 31
0.0
  0
LINE
  5
5B
330
22
100
AcDbEntity
  8
0
  6
Continuous
 62
     7
100
AcDbLine
 10
-208.6678619384766
 20
201.4314727783203
 30
0.0
 11
-208.6678619384766
 21
166.6411437988281
 31
0.0
  0
LINE
  5
5C
330
22
100
AcDbEntity
  8
0
  6
Continuous
 62
     7
100
AcDbLine
 10
-193.0678558349609
 20
235.79931640625
 30
0.0
 11
-193.0678558349609
 21
228.1314697265625
 31
0.0
  0
LINE
  5
5D
330
22
100
AcDbEntity
  8
0
  6
Continuous
 62
     7
100
AcDbLine
 10
-193.0678558349609
 20
219.7314758300781
 30
0.0
 11
-193.0678558349609
 21
193.1314697265625
 31
0.0
  0
LINE
  5
5E
330
22
100
AcDbEntity
  8
0
  6
Continuous
 62
     7
100
AcDbLine
 10
-193.0678558349609
 20
184.7314758300781
 30
0.0
 11
-193.0678558349609
 21
177.0636291503906
 31
0.0
  0
LINE
  5
5F
330
22
100
AcDbEntity
  8
0
  6
Continuous
 62
     7
100
AcDbLine
 10
-214.2678527832031
 20
219.7314758300781
 30
0.0
 11
-214.2678527832031
 21
193.1314697265625
 31
0.0
  0
LINE
  5
60
330
22
100
AcDbEntity
  8
0
  6
Continuous
 62
     7
100
AcDbLine
 10
-198.0678558349609
 20
238.8855895996094
 30
0.0
 11
-198.0678558349609
 21
228.1314697265625
 31
0.0
  0
LINE
  5
61
330
22
100
AcDbEntity
  8
0
  6
Continuous
 62
     7
100
AcDbLine
 10
-198.0678558349609
 20
219.7314758300781
 30
0.0
 11
-198.0678558349609
 21
193.1314697265625
 31
0.0
  0
LINE
  5
62
330
22
100
AcDbEntity
  8
0
  6
Continuous
 62
     7
100
AcDbLine
 10
-203.6678619384766
 20
244.5899658203125
 30
0.0
 11
-203.6678619384766
 21
211.4314727783203
 31
0.0
  0
LINE
  5
63
330
22
100
AcDbEntity
  8
0
  6
Continuous
 62
     7
100
AcDbLine
 10
-207.6678619384766
 20
202.4314727783203
 30
0.0
 11
-204.6678619384766
 21
202.4314727783203
 31
0.0
  0
LINE
  5
64
330
22
100
AcDbEntity
  8
0
  6
Continuous
 62
     7
100
AcDbLine
 10
-207.6678619384766
 20
210.4314727783203
 30
0.0
 11
-204.6678619384766
 21
210.4314727783203
 31
0.0
  0
LINE
  5
65
330
22
100
AcDbEntity
  8
0
  6
Continuous
 62
     7
100
AcDbLine
 10
-198.0678558349609
 20
184.7314758300781
 30
0.0
 11
-198.0678558349609
 21
173.9773559570313
 31
0.0
  0
LINE
  5
66
330
22
100
AcDbEntity
  8
0
  6
Continuous
 62
     7
100
AcDbLine
 10
-203.6678619384766
 20
201.4314727783203
 30
0.0
 11
-203.6678619384766
 21
168.2729949951172
 31
0.0
  0
LINE
  5
67
330
22
100
AcDbEntity
  8
0
  6
Continuous
 62
     7
100
AcDbLine
 10
-162.7265319824219
 20
106.2622756958008
 30
0.0
 11
-161.8678588867188
 21
105.4035949707031
 31
0.0
  0
LINE
  5
68
330
22
100
AcDbEntity
  8
0
  6
Continuous
 62
     7
100
AcDbLine
 10
-164.8478546142578
 20
106.2622756958008
 30
0.0
 11
-161.8678588867188
 21
103.2822723388672
 31
0.0
  0
LINE
  5
69
330
22
100
AcDbEntity
  8
0
  6
Continuous
 62
     7
100
AcDbLine
 10
-165.5549621582031
 20
106.2622756958008
 30
0.0
 11
-161.9614105224609
 21
102.6687240600586
 31
0.0
  0
LINE
  5
6A
330
22
100
AcDbEntity
  8
0
  6
Continuous
 62
     7
100
AcDbLine
 10
-167.6762847900391
 20
106.2622756958008
 30
0.0
 11
-163.6762847900391
 21
102.2622756958008
 31
0.0
  0
LINE
  5
6B
330
22
100
AcDbEntity
  8
0
  6
Continuous
 62
     7
100
AcDbLine
 10
-168.3833923339844
 20
106.2622756958008
 30
0.0
 11
-164.3833923339844
 21
102.2622756958008
 31
0.0
  0
LINE
  5
6C
330
22
100
AcDbEntity
  8
0
  6
Continuous
 62
     7
100
AcDbLine
 10
-170.5047149658203
 20
106.2622756958008
 30
0.0
 11
-166.5047149658203
 21
102.2622756958008
 31
0.0
  0
LINE
  5
6D
330
22
100
AcDbEntity
  8
0
  6
Continuous
 62
     7
100
AcDbLine
 10
-171.2118225097656
 20
106.2622756958008
 30
0.0
 11
-167.2118225097656
 21
102.2622756958008
 31
0.0
  0
LINE
  5
6E
330
22
100
AcDbEntity
  8
0
  6
Continuous
 62
     7
100
AcDbLine
 10
-173.3331451416016
 20
106.2622756958008
 30
0.0
 11
-169.2559509277344
 21
102.1850814819336
 31
0.0
  0
LINE
  5
6F
330
22
100
AcDbEntity
  8
0
  6
Continuous
 62
     7
100
AcDbLine
 10
-174.0402526855469
 20
106.2622756958008
 30
0.0
 11
-169.7859497070313
 21
102.0079803466797
 31
0.0
  0
LINE
  5
70
330
22
100
AcDbEntity
  8
0
  6
Continuous
 62
     7
100
AcDbLine
 10
-174.7178649902344
 20
104.8185653686523
 30
0.0
 11
-170.7506713867188
 21
100.8513870239258
 31
0.0
  0
LINE
  5
71
330
22
100
AcDbEntity
  8
0
  6
Continuous
 62
     7
100
AcDbLine
 10
-174.7178649902344
 20
104.111457824707
 30
0.0
 11
-170.8678588867188
 21
100.2614593505859
 31
0.0
  0
LINE
  5
72
330
22
100
AcDbEntity
  8
0
  6
Continuous
 62
     7
100
AcDbLine
 10
-174.3678588867188
 20
101.64013671875
 30
0.0
 11
-170.8678588867188
 21
98.14013671875001
 31
0.0
  0
LINE
  5
73
330
22
100
AcDbEntity
  8
0
  6
Continuous
 62
     7
100
AcDbLine
 10
-174.3678588867188
 20
100.9330291748047
 30
0.0
 11
-170.8678588867188
 21
97.4330291748047
 31
0.0
  0
LINE
  5
74
330
22
100
AcDbEntity
  8
0
  6
Continuous
 62
     7
100
AcDbLine
 10
-175.3184204101563
 20
99.76227569580078
 30
0.0
 11
-170.8678588867188
 21
95.31171417236327
 31
0.0
  0
LINE
  5
75
330
22
100
AcDbEntity
  8
0
  6
Continuous
 62
     7
100
AcDbLine
 10
-176.0255279541016
 20
99.76227569580078
 30
0.0
 11
-170.9022979736328
 21
94.63905334472656
 31
0.0
  0
LINE
  5
76
330
22
100
AcDbEntity
  8
0
  6
Continuous
 62
     7
100
AcDbLine
 10
-177.3678588867188
 20
98.98328399658204
 30
0.0
 11
-171.5216827392578
 21
93.13710784912109
 31
0.0
  0
LINE
  5
77
330
22
100
AcDbEntity
  8
0
  6
Continuous
 62
     7
100
AcDbLine
 10
-177.3678588867188
 20
98.27617645263671
 30
0.0
 11
-171.8588256835938
 21
92.76714324951171
 31
0.0
  0
LINE
  5
78
330
22
100
AcDbEntity
  8
0
  6
Continuous
 62
     7
100
AcDbLine
 10
-177.3678588867188
 20
96.15485382080079
 30
0.0
 11
-173.1548767089844
 21
91.9418716430664
 31
0.0
  0
LINE
  5
79
330
22
100
AcDbEntity
  8
0
  6
Continuous
 62
     7
100
AcDbLine
 10
-177.3678588867188
 20
95.44775390625
 30
0.0
 11
-173.6031646728516
 21
91.68305206298828
 31
0.0
  0
LINE
  5
7A
330
22
100
AcDbEntity
  8
0
  6
Continuous
 62
     7
100
AcDbLine
 10
-177.5971984863281
 20
93.55577087402343
 30
0.0
 11
-174.9480285644531
 21
90.90659332275391
 31
0.0
  0
LINE
  5
7B
330
22
100
AcDbEntity
  8
0
  6
Continuous
 62
     7
100
AcDbLine
 10
-177.843505859375
 20
93.09497070312501
 30
0.0
 11
-175.3963165283203
 21
90.64777374267578
 31
0.0
  0
LINE
  5
7C
330
22
100
AcDbEntity
  8
0
  6
Continuous
 62
     7
100
AcDbLine
 10
-178.9373321533203
 20
92.06746673583984
 30
0.0
 11
-176.7411651611328
 21
89.8713150024414
 31
0.0
  0
LINE
  5
7D
330
22
100
AcDbEntity
  8
0
  6
Continuous
 62
     7
100
AcDbLine
 10
-179.3856048583984
 20
91.80864715576172
 30
0.0
 11
-177.189453125
 21
89.61249542236329
 31
0.0
  0
LINE
  5
7E
330
22
100
AcDbEntity
  8
0
  6
Continuous
 62
     7
100
AcDbLine
 10
-180.73046875
 20
91.03218841552735
 30
0.0
 11
-178.5343170166016
 21
88.8360366821289
 31
0.0
  0
LINE
  5
7F
330
22
100
AcDbEntity
  8
0
  6
Continuous
 62
     7
100
AcDbLine
 10
-181.1787567138672
 20
90.77337646484377
 30
0.0
 11
-178.9826049804688
 21
88.57721710205078
 31
0.0
  0
LINE
  5
80
330
22
100
AcDbEntity
  8
0
  6
Continuous
 62
     7
100
AcDbLine
 10
-182.5236206054688
 20
89.99691772460938
 30
0.0
 11
-180.3274688720703
 21
87.80076599121093
 31
0.0
  0
LINE
  5
81
330
22
100
AcDbEntity
  8
0
  6
Continuous
 62
     7
100
AcDbLine
 10
-182.9719085693359
 20
89.73809814453124
 30
0.0
 11
-180.7757568359375
 21
87.54194641113281
 31
0.0
  0
LINE
  5
82
330
22
100
AcDbEntity
  8
0
  6
Continuous
 62
     7
100
AcDbLine
 10
-184.3167724609375
 20
88.96163940429687
 30
0.0
 11
-182.1206207275391
 21
86.76548767089844
 31
0.0
  0
LINE
  5
83
330
22
100
AcDbEntity
  8
0
  6
Continuous
 62
     7
100
AcDbLine
 10
-184.7650604248047
 20
88.70281982421875
 30
0.0
 11
-182.5689086914063
 21
86.5066680908203
 31
0.0
  0
LINE
  5
84
330
22
100
AcDbEntity
  8
0
  6
Continuous
 62
     7
100
AcDbLine
 10
-186.1099243164063
 20
87.92636108398438
 30
0.0
 11
-183.9137725830078
 21
85.73020935058593
 31
0.0
  0
LINE
  5
85
330
22
100
AcDbEntity
  8
0
  6
Continuous
 62
     7
100
AcDbLine
 10
-186.5582122802734
 20
87.66754150390625
 30
0.0
 11
-184.362060546875
 21
85.47138977050781
 31
0.0
  0
LINE
  5
86
330
22
100
AcDbEntity
  8
0
  6
Continuous
 62
     7
100
AcDbLine
 10
-187.903076171875
 20
86.89109039306641
 30
0.0
 11
-185.7069244384766
 21
84.69493865966796
 31
0.0
  0
LINE
  5
87
330
22
100
AcDbEntity
  8
0
  6
Continuous
 62
     7
100
AcDbLine
 10
-188.3513641357422
 20
86.63227081298828
 30
0.0
 11
-186.1552124023438
 21
84.43611907958985
 31
0.0
  0
LINE
  5
88
330
22
100
AcDbEntity
  8
0
  6
Continuous
 62
     7
100
AcDbLine
 10
-189.6962280273438
 20
85.8558120727539
 30
0.0
 11
-187.5000762939453
 21
83.65966033935547
 31
0.0
  0
LINE
  5
89
330
22
100
AcDbEntity
  8
0
  6
Continuous
 62
     7
100
AcDbLine
 10
-190.1445159912109
 20
85.59699249267579
 30
0.0
 11
-187.9483642578125
 21
83.40084075927734
 31
0.0
  0
LINE
  5
8A
330
22
100
AcDbEntity
  8
0
  6
Continuous
 62
     7
100
AcDbLine
 10
-191.4893798828125
 20
84.8205337524414
 30
0.0
 11
-189.2932281494141
 21
82.62438201904297
 31
0.0
  0
LINE
  5
8B
330
22
100
AcDbEntity
  8
0
  6
Continuous
 62
     7
100
AcDbLine
 10
-191.9376678466797
 20
84.56171417236328
 30
0.0
 11
-189.7415161132813
 21
82.36556243896485
 31
0.0
  0
LINE
  5
8C
330
22
100
AcDbEntity
  8
0
  6
Continuous
 62
     7
100
AcDbLine
 10
-193.2825317382813
 20
83.78525543212891
 30
0.0
 11
-191.0863800048828
 21
81.58910369873046
 31
0.0
  0
LINE
  5
8D
330
22
100
AcDbEntity
  8
0
  6
Continuous
 62
     7
100
AcDbLine
 10
-193.7308197021484
 20
83.52644348144531
 30
0.0
 11
-191.53466796875
 21
81.33028411865234
 31
0.0
  0
LINE
  5
8E
330
22
100
AcDbEntity
  8
0
  6
Continuous
 62
     7
100
AcDbLine
 10
-195.07568359375
 20
82.74998474121094
 30
0.0
 11
-191.8678588867188
 21
79.54216003417968
 31
0.0
  0
LINE
  5
8F
330
22
100
AcDbEntity
  8
0
  6
Continuous
 62
     7
100
AcDbLine
 10
-195.5239715576172
 20
82.4911651611328
 30
0.0
 11
-191.8678588867188
 21
78.83505249023437
 31
0.0
  0
LINE
  5
90
330
22
100
AcDbEntity
  8
0
  6
Continuous
 62
     7
100
AcDbLine
 10
-196.8688354492188
 20
81.71470642089843
 30
0.0
 11
-191.8678588867188
 21
76.71372985839844
 31
0.0
  0
LINE
  5
91
330
22
100
AcDbEntity
  8
0
  6
Continuous
 62
     7
100
AcDbLine
 10
-197.3171234130859
 20
81.45588684082031
 30
0.0
 11
-191.8678588867188
 21
76.00662231445312
 31
0.0
  0
LINE
  5
92
330
22
100
AcDbEntity
  8
0
  6
Continuous
 62
     7
100
AcDbLine
 10
-198.6619873046875
 20
80.67942810058594
 30
0.0
 11
-191.8678588867188
 21
73.88530731201171
 31
0.0
  0
LINE
  5
93
330
22
100
AcDbEntity
  8
0
  6
Continuous
 62
     7
100
AcDbLine
 10
-199.1102752685547
 20
80.42060852050781
 30
0.0
 11
-191.8678588867188
 21
73.1781997680664
 31
0.0
  0
LINE
  5
94
330
22
100
AcDbEntity
  8
0
  6
Continuous
 62
     7
100
AcDbLine
 10
-197.4410095214844
 20
76.6300277709961
 30
0.0
 11
-191.8678588867188
 21
71.05687713623047
 31
0.0
  0
LINE
  5
95
330
22
100
AcDbEntity
  8
0
  6
Continuous
 62
     7
100
AcDbLine
 10
-200.4551391601563
 20
79.64415740966797
 30
0.0
 11
-198.0001068115234
 21
77.18912506103515
 31
0.0
  0
LINE
  5
96
330
22
100
AcDbEntity
  8
0
  6
Continuous
 62
     7
100
AcDbLine
 10
-197.3678588867188
 20
75.84976959228516
 30
0.0
 11
-191.8678588867188
 21
70.34976959228515
 31
0.0
  0
LINE
  5
97
330
22
100
AcDbEntity
  8
0
  6
Continuous
 62
     7
100
AcDbLine
 10
-200.8559417724609
 20
79.33786010742188
 30
0.0
 11
-198.7803649902344
 21
77.26227569580078
 31
0.0
  0
LINE
  5
98
330
22
100
AcDbEntity
  8
0
  6
Continuous
 62
     7
100
AcDbLine
 10
-197.3678588867188
 20
73.72844696044921
 30
0.0
 11
-191.8678588867188
 21
68.22844696044922
 31
0.0
  0
LINE
  5
99
330
22
100
AcDbEntity
  8
0
  6
Continuous
 62
     7
100
AcDbLine
 10
-197.3678588867188
 20
73.02134704589843
 30
0.0
 11
-191.8678588867188
 21
67.52134704589844
 31
0.0
  0
LINE
  5
9A
330
22
100
AcDbEntity
  8
0
  6
Continuous
 62
     7
100
AcDbLine
 10
-197.8744049072266
 20
71.40657043457031
 30
0.0
 11
-191.8678588867188
 21
65.4000244140625
 31
0.0
  0
LINE
  5
9B
330
22
100
AcDbEntity
  8
0
  6
Continuous
 62
     7
100
AcDbLine
 10
-198.0237121582031
 20
70.84877014160156
 30
0.0
 11
-191.8678588867188
 21
64.69291687011718
 31
0.0
  0
LINE
  5
9C
330
22
100
AcDbEntity
  8
0
  6
Continuous
 62
     7
100
AcDbLine
 10
-197.9552764892578
 20
68.65901184082031
 30
0.0
 11
-191.8678588867188
 21
62.57159423828125
 31
0.0
  0
LINE
  5
9D
330
22
100
AcDbEntity
  8
0
  6
Continuous
 62
     7
100
AcDbLine
 10
-197.9324645996094
 20
67.92909240722656
 30
0.0
 11
-191.8678588867188
 21
61.8644905090332
 31
0.0
  0
LINE
  5
9E
330
22
100
AcDbEntity
  8
0
  6
Continuous
 62
     7
100
AcDbLine
 10
-197.8640289306641
 20
65.73934173583984
 30
0.0
 11
-191.8678588867188
 21
59.74316787719727
 31
0.0
  0
LINE
  5
9F
330
22
100
AcDbEntity
  8
0
  6
Continuous
 62
     7
100
AcDbLine
 10
-197.8412170410156
 20
65.00942230224609
 30
0.0
 11
-191.8678588867188
 21
59.03606033325195
 31
0.0
  0
LINE
  5
A0
330
22
100
AcDbEntity
  8
0
  6
Continuous
 62
     7
100
AcDbLine
 10
-197.7727813720703
 20
62.81967163085938
 30
0.0
 11
-192.5416259765625
 21
57.58850860595703
 31
0.0
  0
LINE
  5
A1
330
22
100
AcDbEntity
  8
0
  6
Continuous
 62
     7
100
AcDbLine
 10
-197.7499694824219
 20
62.08975219726563
 30
0.0
 11
-192.8951721191406
 21
57.23495483398438
 31
0.0
  0
LINE
  5
A2
330
22
100
AcDbEntity
  8
0
  6
Continuous
 62
     7
100
AcDbLine
 10
-197.6815490722656
 20
59.89999771118164
 30
0.0
 11
-194.0438232421875
 21
56.26227569580078
 31
0.0
  0
LINE
  5
A3
330
22
100
AcDbEntity
  8
0
  6
Continuous
 62
     7
100
AcDbLine
 10
-197.6587371826172
 20
59.17008209228516
 30
0.0
 11
-194.7509307861328
 21
56.26227569580078
 31
0.0
  0
LINE
  5
A4
330
22
100
AcDbEntity
  8
0
  6
Continuous
 62
     7
100
AcDbLine
 10
-197.5903015136719
 20
56.98032760620117
 30
0.0
 11
-196.8722534179688
 21
56.26227569580078
 31
0.0
  0
LINE
  5
A5
330
22
100
AcDbEntity
  8
0
  6
Continuous
 62
     7
100
AcDbLine
 10
-191.8678588867188
 20
58.26227569580078
 30
0.0
 11
-191.8678588867188
 21
81.13791656494141
 31
0.0
  0
LINE
  5
A6
330
22
100
AcDbEntity
  8
0
  6
Continuous
 62
     7
100
AcDbLine
 10
-187.4678649902344
 20
201.4314727783203
 30
0.0
 11
-187.4678649902344
 21
189.1528778076171
 31
0.0
  0
LINE
  5
A7
330
22
100
AcDbEntity
  8
0
  6
Continuous
 62
     7
100
AcDbLine
 10
-187.4678649902344
 20
223.7100677490234
 30
0.0
 11
-187.4678649902344
 21
211.4314727783203
 31
0.0
  0
LINE
  5
A8
330
22
100
AcDbEntity
  8
0
  6
Continuous
 62
     7
100
AcDbLine
 10
-197.0678558349609
 20
192.1314697265625
 30
0.0
 11
-194.0678558349609
 21
192.1314697265625
 31
0.0
  0
LINE
  5
A9
330
22
100
AcDbEntity
  8
0
  6
Continuous
 62
     7
100
AcDbLine
 10
-197.0678558349609
 20
227.1314697265625
 30
0.0
 11
-194.0678558349609
 21
227.1314697265625
 31
0.0
  0
LINE
  5
AA
330
22
100
AcDbEntity
  8
0
  6
Continuous
 62
     7
100
AcDbLine
 10
-208.6678619384766
 20
246.2218017578125
 30
0.0
 11
-208.6678619384766
 21
211.4314727783203
 31
0.0
  0
LINE
  5
AB
330
22
100
AcDbEntity
  8
0
  6
Continuous
 62
     7
100
AcDbLine
 10
-197.0678558349609
 20
220.7314758300781
 30
0.0
 11
-194.0678558349609
 21
220.7314758300781
 31
0.0
  0
LINE
  5
AC
330
22
100
AcDbEntity
  8
0
  6
Continuous
 62
     7
100
AcDbLine
 10
-197.0678558349609
 20
185.7314758300781
 30
0.0
 11
-194.0678558349609
 21
185.7314758300781
 31
0.0
  0
LINE
  5
AD
330
22
100
AcDbEntity
  8
0
  6
Continuous
 62
     7
100
AcDbLine
 10
-162.3678588867188
 20
106.2622756958008
 30
0.0
 11
-161.8678588867188
 21
105.7622756958008
 31
0.0
  0
LINE
  5
AE
330
22
100
AcDbEntity
  8
0
  6
Continuous
 62
     7
100
AcDbLine
 10
-161.8678588867188
 20
105.7622756958008
 30
0.0
 11
-161.8678588867188
 21
102.7622756958008
 31
0.0
  0
LINE
  5
AF
330
22
100
AcDbEntity
  8
0
  6
Continuous
 62
     7
100
AcDbLine
 10
-193.0678558349609
 20
106.2622756958008
 30
0.0
 11
-193.0678558349609
 21
100.7622756958008
 31
0.0
  0
LINE
  5
B0
330
22
100
AcDbEntity
  8
0
  6
Continuous
 62
     7
100
AcDbLine
 10
-201.1178588867188
 20
78.26227569580078
 30
0.0
 11
-201.1178588867188
 21
78.6841812133789
 31
0.0
  0
LINE
  5
B1
330
22
100
AcDbEntity
  8
0
  6
Continuous
 62
     7
100
AcDbLine
 10
-198.0366363525391
 20
71.26227569580078
 30
0.0
 11
-198.3678588867188
 21
71.26227569580078
 31
0.0
  0
LINE
  5
B2
330
22
100
AcDbEntity
  8
0
  6
Continuous
 62
     7
100
AcDbLine
 10
-197.3678588867188
 20
72.26227569580078
 30
0.0
 11
-197.3678588867188
 21
76.26227569580078
 31
0.0
  0
LINE
  5
B3
330
22
100
AcDbEntity
  8
0
  6
Continuous
 62
     7
100
AcDbLine
 10
-198.0678558349609
 20
106.2622756958008
 30
0.0
 11
-198.0678558349609
 21
100.7622756958008
 31
0.0
  0
LINE
  5
B4
330
22
100
AcDbEntity
  8
0
  6
Continuous
 62
     7
100
AcDbLine
 10
-176.8678588867188
 20
99.76227569580078
 30
0.0
 11
-174.3678588867188
 21
99.76227569580078
 31
0.0
  0
LINE
  5
B5
330
22
100
AcDbEntity
  8
0
  6
Continuous
 62
     7
100
AcDbLine
 10
-176.8678588867188
 20
99.76227569580078
 30
0.0
 11
-177.3678588867188
 21
99.26227569580078
 31
0.0
  0
LINE
  5
B6
330
22
100
AcDbEntity
  8
0
  6
Continuous
 62
     7
100
AcDbLine
 10
-174.3678588867188
 20
102.4122772216797
 30
0.0
 11
-174.3678588867188
 21
99.76227569580078
 31
0.0
  0
LINE
  5
B7
330
22
100
AcDbEntity
  8
0
  6
Continuous
 62
     7
100
AcDbLine
 10
-175.3178558349609
 20
106.2622756958008
 30
0.0
 11
-175.3178558349609
 21
99.86227416992187
 31
0.0
  0
LINE
  5
B8
330
22
100
AcDbEntity
  8
0
  6
Continuous
 62
     7
100
AcDbLine
 10
-175.3178558349609
 20
106.2622756958008
 30
0.0
 11
-174.7178649902344
 21
105.6622772216797
 31
0.0
  0
LINE
  5
B9
330
22
100
AcDbEntity
  8
0
  6
Continuous
 62
     7
100
AcDbLine
 10
-174.7178649902344
 20
105.6622772216797
 30
0.0
 11
-174.7178649902344
 21
100.462272644043
 31
0.0
  0
LINE
  5
BA
330
22
100
AcDbEntity
  8
0
  6
Continuous
 62
     7
100
AcDbLine
 10
-175.3178558349609
 20
99.86227416992187
 30
0.0
 11
-174.7178649902344
 21
100.462272644043
 31
0.0
  0
LINE
  5
BB
330
22
100
AcDbEntity
  8
0
  6
Continuous
 62
     7
100
AcDbLine
 10
-177.8678588867188
 20
100.3622741699219
 30
0.0
 11
-177.3678588867188
 21
99.86227416992187
 31
0.0
  0
LINE
  5
BC
330
22
100
AcDbEntity
  8
0
  6
Continuous
 62
     7
100
AcDbLine
 10
-177.3678588867188
 20
99.86227416992187
 30
0.0
 11
-175.3178558349609
 21
99.86227416992187
 31
0.0
  0
LINE
  5
BD
330
22
100
AcDbEntity
  8
0
  6
Continuous
 62
     7
100
AcDbLine
 10
-177.8678588867188
 20
100.7622756958008
 30
0.0
 11
-177.8678588867188
 21
100.3622741699219
 31
0.0
  0
LINE
  5
BE
330
22
100
AcDbEntity
  8
0
  6
Continuous
 62
     7
100
AcDbLine
 10
-162.3678588867188
 20
102.2622756958008
 30
0.0
 11
-161.8678588867188
 21
102.7622756958008
 31
0.0
  0
LINE
  5
BF
330
22
100
AcDbEntity
  8
0
  6
Continuous
 62
     7
100
AcDbLine
 10
-175.3178558349609
 20
105.6622772216797
 30
0.0
 11
-175.3178558349609
 21
103.3622741699219
 31
0.0
  0
LINE
  5
C0
330
22
100
AcDbEntity
  8
0
  6
Continuous
 62
     7
100
AcDbLine
 10
-197.5678558349609
 20
56.26227569580078
 30
0.0
 11
-199.1170043945313
 21
57.81142044067383
 31
0.0
  0
LINE
  5
C1
330
22
100
AcDbEntity
  8
0
  6
Continuous
 62
     7
100
AcDbLine
 10
-193.8678588867188
 20
56.26227569580078
 30
0.0
 11
-191.8678588867188
 21
58.26227569580078
 31
0.0
  0
LINE
  5
C2
330
22
100
AcDbEntity
  8
0
  6
Continuous
 62
     7
100
AcDbLine
 10
-198.0366363525391
 20
71.26227569580078
 30
0.0
 11
-197.5678558349609
 21
56.26227569580078
 31
0.0
  0
LINE
  5
C3
330
22
100
AcDbEntity
  8
0
  6
Continuous
 62
     7
100
AcDbLine
 10
-199.4918823242188
 20
69.80702209472656
 30
0.0
 11
-199.1170043945313
 21
57.81142044067383
 31
0.0
  0
LINE
  5
C4
330
22
100
AcDbEntity
  8
0
  6
Continuous
 62
     7
100
AcDbLine
 10
-235.4678649902344
 20
185.2314758300781
 30
0.0
 11
-235.4678649902344
 21
162.9740295410156
 31
0.0
  0
LINE
  5
C5
330
22
100
AcDbEntity
  8
0
  6
Continuous
 62
     7
100
AcDbLine
 10
-224.8678588867188
 20
199.2314758300781
 30
0.0
 11
-224.8678588867188
 21
162.0568237304688
 31
0.0
  0
LINE
  5
C6
330
22
100
AcDbEntity
  8
0
  6
Continuous
 62
     7
100
AcDbLine
 10
-229.8678588867189
 20
199.2314758300781
 30
0.0
 11
-229.8678588867189
 21
162.0568237304688
 31
0.0
  0
LINE
  5
C7
330
22
100
AcDbEntity
  8
0
  6
Continuous
 62
     7
100
AcDbLine
 10
-246.0678558349609
 20
201.4314727783203
 30
0.0
 11
-246.0678558349609
 21
166.6411437988281
 31
0.0
  0
LINE
  5
C8
330
22
100
AcDbEntity
  8
0
  6
Continuous
 62
     7
100
AcDbLine
 10
-240.4678649902344
 20
185.2314758300781
 30
0.0
 11
-240.4678649902344
 21
163.7120361328125
 31
0.0
  0
LINE
  5
C9
330
22
100
AcDbEntity
  8
0
  6
Continuous
 62
     7
100
AcDbLine
 10
-198.0366363525391
 20
71.26227569580078
 30
0.0
 11
-199.4918823242188
 21
69.80702209472656
 31
0.0
  0
LINE
  5
CA
330
22
100
AcDbEntity
  8
0
  6
Continuous
 62
     7
100
AcDbLine
 10
-214.2678527832031
 20
106.2622756958008
 30
0.0
 11
-214.2678527832031
 21
100.7622756958008
 31
0.0
  0
LINE
  5
CB
330
22
100
AcDbEntity
  8
0
  6
Continuous
 62
     7
100
AcDbLine
 10
-178.8678588867188
 20
92.10757446289063
 30
0.0
 11
-200.6178588867189
 21
79.55020904541015
 31
0.0
  0
LINE
  5
CC
330
22
100
AcDbEntity
  8
0
  6
Continuous
 62
     7
100
AcDbLine
 10
-172.3678588867188
 20
92.39624786376952
 30
0.0
 11
-191.8678588867188
 21
81.13791656494141
 31
0.0
  0
LINE
  5
CD
330
22
100
AcDbEntity
  8
0
  6
Continuous
 62
     7
100
AcDbLine
 10
-200.1178588867188
 20
77.26227569580078
 30
0.0
 11
-198.3678588867188
 21
77.26227569580078
 31
0.0
  0
LINE
  5
CE
330
22
100
AcDbEntity
  8
0
  6
Continuous
 62
     7
100
AcDbLine
 10
-174.7178649902344
 20
106.2622756958008
 30
0.0
 11
-174.7178649902344
 21
102.7622756958008
 31
0.0
  0
LINE
  5
CF
330
22
100
AcDbEntity
  8
0
  6
Continuous
 62
     7
100
AcDbLine
 10
-174.7178649902344
 20
102.7622756958008
 30
0.0
 11
-175.3178558349609
 21
103.3622741699219
 31
0.0
  0
LINE
  5
D0
330
22
100
AcDbEntity
  8
0
  6
Continuous
 62
     7
100
AcDbLine
 10
-174.7178649902344
 20
106.2622756958008
 30
0.0
 11
-175.3178558349609
 21
105.6622772216797
 31
0.0
  0
LINE
  5
D1
330
22
100
AcDbEntity
  8
0
  6
Continuous
 62
     7
100
AcDbLine
 10
-170.8678588867188
 20
100.2622756958008
 30
0.0
 11
-170.8678588867188
 21
94.99432373046877
 31
0.0
  0
LINE
  5
D2
330
22
100
AcDbEntity
  8
0
  6
Continuous
 62
     7
100
AcDbLine
 10
-177.3678588867188
 20
99.26227569580078
 30
0.0
 11
-177.3678588867188
 21
94.70565032958985
 31
0.0
  0
LINE
  5
D3
330
22
100
AcDbEntity
  8
0
  6
Continuous
 62
     7
100
AcDbLine
 10
-174.7178649902344
 20
102.7622756958008
 30
0.0
 11
-174.3678588867188
 21
102.4122772216797
 31
0.0
  0
LINE
  5
D4
330
22
100
AcDbEntity
  8
0
  6
Continuous
 62
     7
100
AcDbLine
 10
-168.8678588867188
 20
102.2622756958008
 30
0.0
 11
-162.3678588867188
 21
102.2622756958008
 31
0.0
  0
LINE
  5
D5
330
22
100
AcDbEntity
  8
0
  6
Continuous
 62
     7
100
AcDbLine
 10
-246.0678558349609
 20
246.2218017578125
 30
0.0
 11
-246.0678558349609
 21
211.4314727783203
 31
0.0
  0
LINE
  5
D6
330
22
100
AcDbEntity
  8
0
  6
Continuous
 62
     7
100
AcDbLine
 10
-251.0678558349609
 20
244.5899658203125
 30
0.0
 11
-251.0678558349609
 21
211.4314727783203
 31
0.0
  0
LINE
  5
D7
330
22
100
AcDbEntity
  8
0
  6
Continuous
 62
     7
100
AcDbLine
 10
-229.8678588867189
 20
250.8061218261719
 30
0.0
 11
-229.8678588867189
 21
213.6314697265625
 31
0.0
  0
LINE
  5
D8
330
22
100
AcDbEntity
  8
0
  6
Continuous
 62
     7
100
AcDbLine
 10
-224.8678588867188
 20
250.8061218261719
 30
0.0
 11
-224.8678588867188
 21
213.6314697265625
 31
0.0
  0
LINE
  5
D9
330
22
100
AcDbEntity
  8
0
  6
Continuous
 62
     7
100
AcDbLine
 10
-268.2678527832031
 20
202.4314727783203
 30
0.0
 11
-271.4854431152344
 21
202.4314727783203
 31
0.0
  0
LINE
  5
DA
330
22
100
AcDbEntity
  8
0
  6
Continuous
 62
     7
100
AcDbLine
 10
-268.2678527832031
 20
210.4314727783203
 30
0.0
 11
-271.4854431152344
 21
210.4314727783203
 31
0.0
  0
LINE
  5
DB
330
22
100
AcDbEntity
  8
0
  6
Continuous
 62
     7
100
AcDbLine
 10
-267.2678527832031
 20
223.7100677490234
 30
0.0
 11
-267.2678527832031
 21
211.4314727783203
 31
0.0
  0
LINE
  5
DC
330
22
100
AcDbEntity
  8
0
  6
Continuous
 62
     7
100
AcDbLine
 10
-267.2678527832031
 20
201.4314727783203
 30
0.0
 11
-267.2678527832031
 21
189.1528778076171
 31
0.0
  0
LINE
  5
DD
330
22
100
AcDbEntity
  8
0
  6
Continuous
 62
     7
100
AcDbLine
 10
-247.0678558349609
 20
202.4314727783203
 30
0.0
 11
-250.0678558349609
 21
202.4314727783203
 31
0.0
  0
LINE
  5
DE
330
22
100
AcDbEntity
  8
0
  6
Continuous
 62
     7
100
AcDbLine
 10
-251.0678558349609
 20
201.4314727783203
 30
0.0
 11
-251.0678558349609
 21
168.2729949951172
 31
0.0
  0
LINE
  5
DF
330
22
100
AcDbEntity
  8
0
  6
Continuous
 62
     7
100
AcDbLine
 10
-235.4678649902344
 20
249.8889312744141
 30
0.0
 11
-235.4678649902344
 21
227.6314697265625
 31
0.0
  0
LINE
  5
E0
330
22
100
AcDbEntity
  8
0
  6
Continuous
 62
     7
100
AcDbLine
 10
-256.6678466796875
 20
185.2314758300781
 30
0.0
 11
-256.6678466796875
 21
173.9773559570313
 31
0.0
  0
LINE
  5
E1
330
22
100
AcDbEntity
  8
0
  6
Continuous
 62
     7
100
AcDbLine
 10
-257.6678466796875
 20
186.2314758300781
 30
0.0
 11
-260.6678466796875
 21
186.2314758300781
 31
0.0
  0
LINE
  5
E2
330
22
100
AcDbEntity
  8
0
  6
Continuous
 62
     7
100
AcDbLine
 10
-247.0678558349609
 20
210.4314727783203
 30
0.0
 11
-250.0678558349609
 21
210.4314727783203
 31
0.0
  0
LINE
  5
E3
330
22
100
AcDbEntity
  8
0
  6
Continuous
 62
     7
100
AcDbLine
 10
-256.6678466796875
 20
238.8855895996094
 30
0.0
 11
-256.6678466796875
 21
227.6314697265625
 31
0.0
  0
LINE
  5
E4
330
22
100
AcDbEntity
  8
0
  6
Continuous
 62
     7
100
AcDbLine
 10
-257.6678466796875
 20
226.6314697265625
 30
0.0
 11
-260.6678466796875
 21
226.6314697265625
 31
0.0
  0
LINE
  5
E5
330
22
100
AcDbEntity
  8
0
  6
Continuous
 62
     7
100
AcDbLine
 10
-261.6678466796875
 20
185.2314758300781
 30
0.0
 11
-261.6678466796875
 21
177.0636291503906
 31
0.0
  0
LINE
  5
E6
330
22
100
AcDbEntity
  8
0
  6
Continuous
 62
     7
100
AcDbLine
 10
-257.6678466796875
 20
192.6314697265625
 30
0.0
 11
-260.6678466796875
 21
192.6314697265625
 31
0.0
  0
LINE
  5
E7
330
22
100
AcDbEntity
  8
0
  6
Continuous
 62
     7
100
AcDbLine
 10
-240.4678649902344
 20
249.1509094238281
 30
0.0
 11
-240.4678649902344
 21
227.6314697265625
 31
0.0
  0
LINE
  5
E8
330
22
100
AcDbEntity
  8
0
  6
Continuous
 62
     7
100
AcDbLine
 10
-228.8678588867188
 20
200.2314758300781
 30
0.0
 11
-225.8678588867188
 21
200.2314758300781
 31
0.0
  0
LINE
  5
E9
330
22
100
AcDbEntity
  8
0
  6
Continuous
 62
     7
100
AcDbLine
 10
-236.4678649902344
 20
220.2314758300781
 30
0.0
 11
-239.4678649902344
 21
220.2314758300781
 31
0.0
  0
LINE
  5
EA
330
22
100
AcDbEntity
  8
0
  6
Continuous
 62
     7
100
AcDbLine
 10
-261.6678466796875
 20
235.79931640625
 30
0.0
 11
-261.6678466796875
 21
227.6314697265625
 31
0.0
  0
LINE
  5
EB
330
22
100
AcDbEntity
  8
0
  6
Continuous
 62
     7
100
AcDbLine
 10
-235.4678649902344
 20
219.2314758300781
 30
0.0
 11
-235.4678649902344
 21
193.6314697265625
 31
0.0
  0
LINE
  5
EC
330
22
100
AcDbEntity
  8
0
  6
Continuous
 62
     7
100
AcDbLine
 10
-261.6678466796875
 20
219.2314758300781
 30
0.0
 11
-261.6678466796875
 21
193.6314697265625
 31
0.0
  0
LINE
  5
ED
330
22
100
AcDbEntity
  8
0
  6
Continuous
 62
     7
100
AcDbLine
 10
-257.6678466796875
 20
220.2314758300781
 30
0.0
 11
-260.6678466796875
 21
220.2314758300781
 31
0.0
  0
LINE
  5
EE
330
22
100
AcDbEntity
  8
0
  6
Continuous
 62
     7
100
AcDbLine
 10
-256.6678466796875
 20
219.2314758300781
 30
0.0
 11
-256.6678466796875
 21
193.6314697265625
 31
0.0
  0
LINE
  5
EF
330
22
100
AcDbEntity
  8
0
  6
Continuous
 62
     7
100
AcDbLine
 10
-228.8678588867188
 20
212.6314697265625
 30
0.0
 11
-225.8678588867188
 21
212.6314697265625
 31
0.0
  0
LINE
  5
F0
330
22
100
AcDbEntity
  8
0
  6
Continuous
 62
     7
100
AcDbLine
 10
-292.3678588867188
 20
102.2622756958008
 30
0.0
 11
-292.8678588867188
 21
102.7622756958008
 31
0.0
  0
LINE
  5
F1
330
22
100
AcDbEntity
  8
0
  6
Continuous
 62
     7
100
AcDbLine
 10
-292.8678588867188
 20
105.7622756958008
 30
0.0
 11
-292.8678588867188
 21
102.7622756958008
 31
0.0
  0
LINE
  5
F2
330
22
100
AcDbEntity
  8
0
  6
Continuous
 62
     7
100
AcDbLine
 10
-280.8678588867188
 20
93.49432373046877
 30
0.0
 11
-227.3678588867188
 21
93.49432373046877
 31
0.0
  0
LINE
  5
F3
330
22
100
AcDbEntity
  8
0
  6
Continuous
 62
     7
100
AcDbLine
 10
-285.8678588867188
 20
102.2622756958008
 30
0.0
 11
-227.3678588867188
 21
102.2622756958008
 31
0.0
  0
LINE
  5
F4
330
22
100
AcDbEntity
  8
0
  6
Continuous
 62
     7
100
AcDbLine
 10
-282.3678588867188
 20
92.39624786376952
 30
0.0
 11
-262.8678588867188
 21
81.13791656494141
 31
0.0
  0
LINE
  5
F5
330
22
100
AcDbEntity
  8
0
  6
Continuous
 62
     7
100
AcDbLine
 10
-292.3678588867188
 20
106.2622756958008
 30
0.0
 11
-227.3678588867188
 21
106.2622756958008
 31
0.0
  0
LINE
  5
F6
330
22
100
AcDbEntity
  8
0
  6
Continuous
 62
     7
100
AcDbLine
 10
-260.8678588867188
 20
56.26227569580078
 30
0.0
 11
-227.3678588867188
 21
56.26227569580078
 31
0.0
  0
LINE
  5
F7
330
22
100
AcDbEntity
  8
0
  6
Continuous
 62
     7
100
AcDbLine
 10
-260.8678588867188
 20
56.26227569580078
 30
0.0
 11
-261.3678588867188
 21
56.76227569580078
 31
0.0
  0
LINE
  5
F8
330
22
100
AcDbEntity
  8
0
  6
Continuous
 62
     7
100
AcDbLine
 10
-249.7096557617188
 20
56.26227569580078
 30
0.0
 11
-249.7096557617188
 21
78.69412994384766
 31
0.0
  0
LINE
  5
F9
330
22
100
AcDbEntity
  8
0
  6
CENTER
 62
     7
100
AcDbLine
 10
-227.3678588867188
 20
111.8014678955078
 30
0.0
 11
-227.3678588867188
 21
51.64395904541016
 31
0.0
  0
LINE
  5
FA
330
22
100
AcDbEntity
  8
0
  6
Continuous
 62
     7
100
AcDbLine
 10
-261.3678588867188
 20
56.76227569580078
 30
0.0
 11
-261.3678588867188
 21
78.53984069824218
 31
0.0
  0
LINE
  5
FB
330
22
100
AcDbEntity
  8
0
  6
Continuous
 62
     7
100
AcDbLine
 10
-253.2023773193359
 20
56.26227569580078
 30
0.0
 11
-253.2023773193359
 21
80.16323852539063
 31
0.0
  0
LINE
  5
FC
330
22
100
AcDbEntity
  8
0
  6
Continuous
 62
     7
100
AcDbLine
 10
-240.4678649902344
 20
219.2314758300781
 30
0.0
 11
-240.4678649902344
 21
193.6314697265625
 31
0.0
  0
LINE
  5
FD
330
22
100
AcDbEntity
  8
0
  6
Continuous
 62
     7
100
AcDbLine
 10
-236.4678649902344
 20
186.2314758300781
 30
0.0
 11
-239.4678649902344
 21
186.2314758300781
 31
0.0
  0
LINE
  5
FE
330
22
100
AcDbEntity
  8
0
  6
Continuous
 62
     7
100
AcDbLine
 10
-236.4678649902344
 20
226.6314697265625
 30
0.0
 11
-239.4678649902344
 21
226.6314697265625
 31
0.0
  0
LINE
  5
FF
330
22
100
AcDbEntity
  8
0
  6
Continuous
 62
     7
100
AcDbLine
 10
-236.4678649902344
 20
192.6314697265625
 30
0.0
 11
-239.4678649902344
 21
192.6314697265625
 31
0.0
  0
LINE
  5
100
330
22
100
AcDbEntity
  8
0
  6
Continuous
 62
     7
100
AcDbLine
 10
-219.2678527832031
 20
106.2622756958008
 30
0.0
 11
-219.2678527832031
 21
100.7622756958008
 31
0.0
  0
LINE
  5
101
330
22
100
AcDbEntity
  8
0
  6
CENTER
 62
     7
100
AcDbLine
 10
-300.3669738769531
 20
206.2737426757813
 30
0.0
 11
-152.566162109375
 21
206.2737426757813
 31
0.0
  0
LINE
  5
102
330
22
100
AcDbEntity
  8
0
  6
Continuous
 62
     7
100
AcDbLine
 10
-219.2678527832031
 20
184.7314758300781
 30
0.0
 11
-219.2678527832031
 21
162.9740295410156
 31
0.0
  0
LINE
  5
103
330
22
100
AcDbEntity
  8
0
  6
Continuous
 62
     7
100
AcDbLine
 10
-227.3678588867188
 20
56.26227569580078
 30
0.0
 11
-193.8678588867188
 21
56.26227569580078
 31
0.0
  0
LINE
  5
104
330
22
100
AcDbEntity
  8
0
  6
Continuous
 62
     7
100
AcDbLine
 10
-227.3678588867188
 20
57.81142044067383
 30
0.0
 11
-199.1170043945313
 21
57.81142044067383
 31
0.0
  0
LINE
  5
105
330
22
100
AcDbEntity
  8
0
  6
CENTER
 62
     7
100
AcDbLine
 10
-227.3678588867188
 20
277.6322937011719
 30
0.0
 11
-227.3678588867188
 21
135.2306518554688
 31
0.0
  0
LINE
  5
106
330
22
100
AcDbEntity
  8
0
  6
Continuous
 62
     7
100
AcDbLine
 10
-249.7096557617188
 20
78.53984069824218
 30
0.0
 11
-227.3678588867188
 21
78.53984069824218
 31
0.0
  0
LINE
  5
107
330
22
100
AcDbEntity
  8
0
  6
Continuous
 62
     7
100
AcDbLine
 10
-261.2942199707031
 20
81.13791656494141
 30
0.0
 11
-227.3678588867188
 21
81.13791656494141
 31
0.0
  0
LINE
  5
108
330
22
100
AcDbEntity
  8
0
  6
Continuous
 62
     7
100
AcDbLine
 10
-259.5202331542969
 20
78.53984069824218
 30
0.0
 11
-253.2023773193359
 21
78.53984069824218
 31
0.0
  0
LINE
  5
109
330
22
100
AcDbEntity
  8
0
  6
Continuous
 62
     7
100
AcDbLine
 10
-283.8678588867188
 20
100.2622756958008
 30
0.0
 11
-283.8678588867188
 21
94.99432373046877
 31
0.0
  0
LINE
  5
10A
330
22
100
AcDbEntity
  8
0
  6
Continuous
 62
     7
100
AcDbLine
 10
-285.8678588867188
 20
102.2622756958008
 30
0.0
 11
-292.3678588867188
 21
102.2622756958008
 31
0.0
  0
LINE
  5
10B
330
22
100
AcDbEntity
  8
0
  6
Continuous
 62
     7
100
AcDbLine
 10
-292.3678588867188
 20
106.2622756958008
 30
0.0
 11
-292.8678588867188
 21
105.7622756958008
 31
0.0
  0
LINE
  5
10C
330
22
100
AcDbEntity
  8
0
  6
Continuous
 62
     7
100
AcDbLine
 10
-292.8678588867188
 20
105.7622756958008
 30
0.0
 11
-292.3678588867188
 21
106.2622756958008
 31
0.0
  0
LINE
  5
10D
330
22
100
AcDbEntity
  8
0
  6
Continuous
 62
     7
100
AcDbLine
 10
-219.2678527832031
 20
219.7314758300781
 30
0.0
 11
-219.2678527832031
 21
193.1314697265625
 31
0.0
  0
LINE
  5
10E
330
22
100
AcDbEntity
  8
0
  6
Continuous
 62
     7
100
AcDbLine
 10
-218.2678527832031
 20
227.1314697265625
 30
0.0
 11
-215.2678527832031
 21
227.1314697265625
 31
0.0
  0
LINE
  5
10F
330
22
100
AcDbEntity
  8
0
  6
Continuous
 62
     7
100
AcDbLine
 10
-218.2678527832031
 20
185.7314758300781
 30
0.0
 11
-215.2678527832031
 21
185.7314758300781
 31
0.0
  0
LINE
  5
110
330
22
100
AcDbEntity
  8
0
  6
Continuous
 62
     7
100
AcDbLine
 10
-218.2678527832031
 20
192.1314697265625
 30
0.0
 11
-215.2678527832031
 21
192.1314697265625
 31
0.0
  0
LINE
  5
111
330
22
100
AcDbEntity
  8
0
  6
Continuous
 62
     7
100
AcDbLine
 10
-218.2678527832031
 20
220.7314758300781
 30
0.0
 11
-215.2678527832031
 21
220.7314758300781
 31
0.0
  0
LINE
  5
112
330
22
100
AcDbEntity
  8
0
  6
Continuous
 62
     7
100
AcDbLine
 10
-219.2678527832031
 20
249.8889312744141
 30
0.0
 11
-219.2678527832031
 21
228.1314697265625
 31
0.0
  0
LINE
  5
113
330
22
100
AcDbEntity
  8
0
  6
Continuous
 62
     7
100
AcDbLine
 10
-227.3678588867188
 20
99.76227569580078
 30
0.0
 11
-176.8678588867188
 21
99.76227569580078
 31
0.0
  0
LINE
  5
114
330
22
100
AcDbEntity
  8
0
  6
Continuous
 62
     7
100
AcDbLine
 10
-227.3678588867188
 20
106.2622756958008
 30
0.0
 11
-162.3678588867188
 21
106.2622756958008
 31
0.0
  0
LINE
  5
115
330
22
100
AcDbEntity
  8
0
  6
Continuous
 62
     7
100
AcDbLine
 10
-227.3678588867188
 20
104.3671951293945
 30
0.0
 11
-225.4727783203125
 21
106.2622756958008
 31
0.0
  0
LINE
  5
116
330
22
100
AcDbEntity
  8
0
  6
Continuous
 62
     7
100
AcDbLine
 10
-227.3678588867188
 20
101.5387649536133
 30
0.0
 11
-222.6443481445314
 21
106.2622756958008
 31
0.0
  0
LINE
  5
117
330
22
100
AcDbEntity
  8
0
  6
Continuous
 62
     7
100
AcDbLine
 10
-225.31591796875
 20
100.7622756958008
 30
0.0
 11
-219.81591796875
 21
106.2622756958008
 31
0.0
  0
LINE
  5
118
330
22
100
AcDbEntity
  8
0
  6
Continuous
 62
     7
100
AcDbLine
 10
-222.4875030517578
 20
100.7622756958008
 30
0.0
 11
-219.2678527832031
 21
103.9819107055664
 31
0.0
  0
LINE
  5
119
330
22
100
AcDbEntity
  8
0
  6
Continuous
 62
     7
100
AcDbLine
 10
-214.2678527832031
 20
106.1534881591797
 30
0.0
 11
-214.1590728759766
 21
106.2622756958008
 31
0.0
  0
LINE
  5
11A
330
22
100
AcDbEntity
  8
0
  6
Continuous
 62
     7
100
AcDbLine
 10
-219.6590728759766
 20
100.7622756958008
 30
0.0
 11
-219.2678527832031
 21
101.1534881591797
 31
0.0
  0
LINE
  5
11B
330
22
100
AcDbEntity
  8
0
  6
Continuous
 62
     7
100
AcDbLine
 10
-214.2678527832031
 20
103.3250579833984
 30
0.0
 11
-211.3306427001953
 21
106.2622756958008
 31
0.0
  0
LINE
  5
11C
330
22
100
AcDbEntity
  8
0
  6
Continuous
 62
     7
100
AcDbLine
 10
-214.0022125244141
 20
100.7622756958008
 30
0.0
 11
-208.5022125244141
 21
106.2622756958008
 31
0.0
  0
LINE
  5
11D
330
22
100
AcDbEntity
  8
0
  6
Continuous
 62
     7
100
AcDbLine
 10
-211.1737823486328
 20
100.7622756958008
 30
0.0
 11
-205.6737823486328
 21
106.2622756958008
 31
0.0
  0
LINE
  5
11E
330
22
100
AcDbEntity
  8
0
  6
Continuous
 62
     7
100
AcDbLine
 10
-208.3453674316406
 20
100.7622756958008
 30
0.0
 11
-202.8453674316406
 21
106.2622756958008
 31
0.0
  0
LINE
  5
11F
330
22
100
AcDbEntity
  8
0
  6
Continuous
 62
     7
100
AcDbLine
 10
-205.5169372558594
 20
100.7622756958008
 30
0.0
 11
-200.0169372558594
 21
106.2622756958008
 31
0.0
  0
LINE
  5
120
330
22
100
AcDbEntity
  8
0
  6
Continuous
 62
     7
100
AcDbLine
 10
-202.6885070800781
 20
100.7622756958008
 30
0.0
 11
-198.0678558349609
 21
105.382926940918
 31
0.0
  0
LINE
  5
121
330
22
100
AcDbEntity
  8
0
  6
Continuous
 62
     7
100
AcDbLine
 10
-199.8600769042969
 20
100.7622756958008
 30
0.0
 11
-198.0678558349609
 21
102.5544967651367
 31
0.0
  0
LINE
  5
122
330
22
100
AcDbEntity
  8
0
  6
Continuous
 62
     7
100
AcDbLine
 10
-193.0678558349609
 20
104.7260665893555
 30
0.0
 11
-191.5316467285156
 21
106.2622756958008
 31
0.0
  0
LINE
  5
123
330
22
100
AcDbEntity
  8
0
  6
Continuous
 62
     7
100
AcDbLine
 10
-193.0678558349609
 20
101.8976440429688
 30
0.0
 11
-188.7032318115234
 21
106.2622756958008
 31
0.0
  0
LINE
  5
124
330
22
100
AcDbEntity
  8
0
  6
Continuous
 62
     7
100
AcDbLine
 10
-191.3748016357422
 20
100.7622756958008
 30
0.0
 11
-185.8748016357422
 21
106.2622756958008
 31
0.0
  0
LINE
  5
125
330
22
100
AcDbEntity
  8
0
  6
Continuous
 62
     7
100
AcDbLine
 10
-188.5463714599609
 20
100.7622756958008
 30
0.0
 11
-183.0463714599609
 21
106.2622756958008
 31
0.0
  0
LINE
  5
126
330
22
100
AcDbEntity
  8
0
  6
Continuous
 62
     7
100
AcDbLine
 10
-185.7179412841797
 20
100.7622756958008
 30
0.0
 11
-180.2179412841797
 21
106.2622756958008
 31
0.0
  0
LINE
  5
127
330
22
100
AcDbEntity
  8
0
  6
Continuous
 62
     7
100
AcDbLine
 10
-182.8895111083984
 20
100.7622756958008
 30
0.0
 11
-177.3895111083984
 21
106.2622756958008
 31
0.0
  0
LINE
  5
128
330
22
100
AcDbEntity
  8
0
  6
Continuous
 62
     7
100
AcDbLine
 10
-180.0610961914063
 20
100.7622756958008
 30
0.0
 11
-175.3178558349609
 21
105.5055084228516
 31
0.0
  0
LINE
  5
129
330
22
100
AcDbEntity
  8
0
  6
Continuous
 62
     7
100
AcDbLine
 10
-177.7502593994141
 20
100.2446746826172
 30
0.0
 11
-175.3178558349609
 21
102.6770782470703
 31
0.0
  0
LINE
  5
12A
330
22
100
AcDbEntity
  8
0
  6
Continuous
 62
     7
100
AcDbLine
 10
-227.3678588867188
 20
99.86227416992187
 30
0.0
 11
-177.3678588867188
 21
99.86227416992187
 31
0.0
  0
LINE
  5
12B
330
22
100
AcDbEntity
  8
0
  6
Continuous
 62
     7
100
AcDbLine
 10
-227.3678588867188
 20
100.7622756958008
 30
0.0
 11
-177.8678588867188
 21
100.7622756958008
 31
0.0
  0
LINE
  5
12C
330
22
100
AcDbEntity
  8
0
  6
Continuous
 62
     7
100
AcDbLine
 10
-227.3678588867188
 20
106.2622756958008
 30
0.0
 11
-175.3178558349609
 21
106.2622756958008
 31
0.0
  0
LINE
  5
12D
330
22
100
AcDbEntity
  8
0
  6
Continuous
 62
     7
100
AcDbLine
 10
-227.3678588867188
 20
69.80702209472656
 30
0.0
 11
-199.4918823242188
 21
69.80702209472656
 31
0.0
  0
LINE
  5
12E
330
22
100
AcDbEntity
  8
0
  6
Continuous
 62
     7
100
AcDbLine
 10
-198.0366363525391
 20
71.26227569580078
 30
0.0
 11
-227.3678588867188
 21
71.26227569580078
 31
0.0
  0
LINE
  5
12F
330
22
100
AcDbEntity
  8
0
  6
Continuous
 62
     7
100
AcDbLine
 10
-227.3678588867188
 20
77.26227569580078
 30
0.0
 11
-200.1178588867188
 21
77.26227569580078
 31
0.0
  0
LINE
  5
130
330
22
100
AcDbEntity
  8
0
  6
Continuous
 62
     7
100
AcDbLine
 10
-200.6178588867189
 20
79.55020904541015
 30
0.0
 11
-227.3678588867188
 21
79.55020904541015
 31
0.0
  0
ARC
  5
131
330
22
100
AcDbEntity
  8
0
  6
Continuous
 62
     7
100
AcDbCircle
 10
-204.6678619384766
 20
168.2729949951172
 30
0.0
 40
1.0
100
AcDbArc
 50
300.7475515958806
 51
0.0
  0
ARC
  5
132
330
22
100
AcDbEntity
  8
0
  6
Continuous
 62
     7
100
AcDbCircle
 10
-227.3678588867188
 20
206.4314727783203
 30
0.0
 40
45.4000015258789
100
AcDbArc
 50
337.0979044475594
 51
353.5340597370382
  0
ARC
  5
133
330
22
100
AcDbEntity
  8
0
  6
Continuous
 62
     7
100
AcDbCircle
 10
-227.3678588867188
 20
206.4314727783203
 30
0.0
 40
45.4000015258789
100
AcDbArc
 50
6.465940262962566
 51
22.90209555244127
  0
ARC
  5
134
330
22
100
AcDbEntity
  8
0
  6
Continuous
 62
     7
100
AcDbCircle
 10
-183.2502899169922
 20
201.4314727783203
 30
0.0
 40
1.0
100
AcDbArc
 50
353.53420110248
 51
90.00000000000019
  0
ARC
  5
135
330
22
100
AcDbEntity
  8
0
  6
Continuous
 62
     7
100
AcDbCircle
 10
-183.2502899169922
 20
211.4314727783203
 30
0.0
 40
1.0
100
AcDbArc
 50
270.0000000000005
 51
6.465798897520718
  0
ARC
  5
136
330
22
100
AcDbEntity
  8
0
  6
Continuous
 62
     7
100
AcDbCircle
 10
-215.2678527832031
 20
163.7120361328125
 30
0.0
 40
1.0
100
AcDbArc
 50
285.8144974802116
 51
0.0
  0
ARC
  5
137
330
22
100
AcDbEntity
  8
0
  6
Continuous
 62
     7
100
AcDbCircle
 10
-227.3678588867188
 20
206.4314727783203
 30
0.0
 40
45.4000015258789
100
AcDbArc
 50
296.3397876556522
 51
300.7478726348966
  0
ARC
  5
138
330
22
100
AcDbEntity
  8
0
  6
Continuous
 62
     7
100
AcDbCircle
 10
-207.6678619384766
 20
166.6411437988281
 30
0.0
 40
1.0
100
AcDbArc
 50
180.0000000000004
 51
296.3398447581549
  0
ARC
  5
139
330
22
100
AcDbEntity
  8
0
  6
Continuous
 62
     7
100
AcDbCircle
 10
-186.4678649902344
 20
211.4314727783203
 30
0.0
 40
1.0
100
AcDbArc
 50
180.0000000000004
 51
270.0000000000005
  0
ARC
  5
13A
330
22
100
AcDbEntity
  8
0
  6
Continuous
 62
     7
100
AcDbCircle
 10
-197.0678558349609
 20
173.9773559570313
 30
0.0
 40
1.0
100
AcDbArc
 50
180.0000000000004
 51
313.0337581685637
  0
ARC
  5
13B
330
22
100
AcDbEntity
  8
0
  6
Continuous
 62
     7
100
AcDbCircle
 10
-215.2678527832031
 20
249.1509094238281
 30
0.0
 40
1.0
100
AcDbArc
 50
0.0
 51
74.18550251978913
  0
ARC
  5
13C
330
22
100
AcDbEntity
  8
0
  6
Continuous
 62
     7
100
AcDbCircle
 10
-194.0678558349609
 20
219.7314758300781
 30
0.0
 40
1.0
100
AcDbArc
 50
0.0
 51
90.00000000000019
  0
ARC
  5
13D
330
22
100
AcDbEntity
  8
0
  6
Continuous
 62
     7
100
AcDbCircle
 10
-194.0678558349609
 20
184.7314758300781
 30
0.0
 40
1.0
100
AcDbArc
 50
0.0
 51
90.00000000000019
  0
ARC
  5
13E
330
22
100
AcDbEntity
  8
0
  6
Continuous
 62
     7
100
AcDbCircle
 10
-194.0678558349609
 20
177.0636291503906
 30
0.0
 40
1.0
100
AcDbArc
 50
318.5903709931022
 51
0.0
  0
ARC
  5
13F
330
22
100
AcDbEntity
  8
0
  6
Continuous
 62
     7
100
AcDbCircle
 10
-207.6678619384766
 20
201.4314727783203
 30
0.0
 40
1.0
100
AcDbArc
 50
90.00000000000019
 51
180.0000000000004
  0
ARC
  5
140
330
22
100
AcDbEntity
  8
0
  6
Continuous
 62
     7
100
AcDbCircle
 10
-194.0678558349609
 20
228.1314697265625
 30
0.0
 40
1.0
100
AcDbArc
 50
270.0000000000005
 51
0.0
  0
ARC
  5
141
330
22
100
AcDbEntity
  8
0
  6
Continuous
 62
     7
100
AcDbCircle
 10
-204.6678619384766
 20
201.4314727783203
 30
0.0
 40
1.0
100
AcDbArc
 50
0.0
 51
90.00000000000019
  0
ARC
  5
142
330
22
100
AcDbEntity
  8
0
  6
Continuous
 62
     7
100
AcDbCircle
 10
-204.6678619384766
 20
211.4314727783203
 30
0.0
 40
1.0
100
AcDbArc
 50
270.0000000000005
 51
0.0
  0
ARC
  5
143
330
22
100
AcDbEntity
  8
0
  6
Continuous
 62
     7
100
AcDbCircle
 10
-207.6678619384766
 20
211.4314727783203
 30
0.0
 40
1.0
100
AcDbArc
 50
180.0000000000004
 51
270.0000000000005
  0
ARC
  5
144
330
22
100
AcDbEntity
  8
0
  6
Continuous
 62
     7
100
AcDbCircle
 10
-207.6678619384766
 20
246.2218017578125
 30
0.0
 40
1.0
100
AcDbArc
 50
63.66015524184589
 51
180.0000000000004
  0
ARC
  5
145
330
22
100
AcDbEntity
  8
0
  6
Continuous
 62
     7
100
AcDbCircle
 10
-227.3678588867188
 20
206.4314727783203
 30
0.0
 40
45.4000015258789
100
AcDbArc
 50
59.25212736510412
 51
63.66021234434853
  0
ARC
  5
146
330
22
100
AcDbEntity
  8
0
  6
Continuous
 62
     7
100
AcDbCircle
 10
-215.2678527832031
 20
228.1314697265625
 30
0.0
 40
1.0
100
AcDbArc
 50
270.0000000000005
 51
0.0
  0
ARC
  5
147
330
22
100
AcDbEntity
  8
0
  6
Continuous
 62
     7
100
AcDbCircle
 10
-186.4678649902344
 20
189.1528778076171
 30
0.0
 40
1.0
100
AcDbArc
 50
180.0000000000004
 51
337.0978145958784
  0
ARC
  5
148
330
22
100
AcDbEntity
  8
0
  6
Continuous
 62
     7
100
AcDbCircle
 10
-186.4678649902344
 20
201.4314727783203
 30
0.0
 40
1.0
100
AcDbArc
 50
90.00000000000019
 51
180.0000000000004
  0
ARC
  5
149
330
22
100
AcDbEntity
  8
0
  6
Continuous
 62
     7
100
AcDbCircle
 10
-186.4678649902344
 20
223.7100677490234
 30
0.0
 40
1.0
100
AcDbArc
 50
22.90218540412232
 51
180.0000000000004
  0
ARC
  5
14A
330
22
100
AcDbEntity
  8
0
  6
Continuous
 62
     7
100
AcDbCircle
 10
-197.0678558349609
 20
184.7314758300781
 30
0.0
 40
1.0
100
AcDbArc
 50
90.00000000000019
 51
180.0000000000004
  0
ARC
  5
14B
330
22
100
AcDbEntity
  8
0
  6
Continuous
 62
     7
100
AcDbCircle
 10
-197.0678558349609
 20
193.1314697265625
 30
0.0
 40
1.0
100
AcDbArc
 50
180.0000000000004
 51
270.0000000000005
  0
ARC
  5
14C
330
22
100
AcDbEntity
  8
0
  6
Continuous
 62
     7
100
AcDbCircle
 10
-194.0678558349609
 20
235.79931640625
 30
0.0
 40
1.0
100
AcDbArc
 50
0.0
 51
41.40962900689856
  0
ARC
  5
14D
330
22
100
AcDbEntity
  8
0
  6
Continuous
 62
     7
100
AcDbCircle
 10
-194.0678558349609
 20
193.1314697265625
 30
0.0
 40
1.0
100
AcDbArc
 50
270.0000000000005
 51
0.0
  0
ARC
  5
14E
330
22
100
AcDbEntity
  8
0
  6
Continuous
 62
     7
100
AcDbCircle
 10
-204.6678619384766
 20
244.5899658203125
 30
0.0
 40
1.0
100
AcDbArc
 50
0.0
 51
59.25200142916214
  0
ARC
  5
14F
330
22
100
AcDbEntity
  8
0
  6
Continuous
 62
     7
100
AcDbCircle
 10
-215.2678527832031
 20
219.7314758300781
 30
0.0
 40
1.0
100
AcDbArc
 50
0.0
 51
90.00000000000019
  0
ARC
  5
150
330
22
100
AcDbEntity
  8
0
  6
Continuous
 62
     7
100
AcDbCircle
 10
-215.2678527832031
 20
184.7314758300781
 30
0.0
 40
1.0
100
AcDbArc
 50
0.0
 51
90.00000000000019
  0
ARC
  5
151
330
22
100
AcDbEntity
  8
0
  6
Continuous
 62
     7
100
AcDbCircle
 10
-215.2678527832031
 20
193.1314697265625
 30
0.0
 40
1.0
100
AcDbArc
 50
270.0000000000005
 51
0.0
  0
ARC
  5
152
330
22
100
AcDbEntity
  8
0
  6
Continuous
 62
     7
100
AcDbCircle
 10
-197.0678558349609
 20
219.7314758300781
 30
0.0
 40
1.0
100
AcDbArc
 50
90.00000000000019
 51
180.0000000000004
  0
ARC
  5
153
330
22
100
AcDbEntity
  8
0
  6
Continuous
 62
     7
100
AcDbCircle
 10
-197.0678558349609
 20
228.1314697265625
 30
0.0
 40
1.0
100
AcDbArc
 50
180.0000000000004
 51
270.0000000000005
  0
ARC
  5
154
330
22
100
AcDbEntity
  8
0
  6
Continuous
 62
     7
100
AcDbCircle
 10
-197.0678558349609
 20
238.8855895996094
 30
0.0
 40
1.0
100
AcDbArc
 50
46.96624183143696
 51
180.0000000000004
  0
ARC
  5
155
330
22
100
AcDbEntity
  8
0
  6
Continuous
 62
     7
100
AcDbCircle
 10
-227.3678588867188
 20
206.4314727783203
 30
0.0
 40
45.4000015258789
100
AcDbArc
 50
41.40962357090978
 51
46.96598330000728
  0
ARC
  5
156
330
22
100
AcDbEntity
  8
0
  6
Continuous
 62
     7
100
AcDbCircle
 10
-227.3678588867188
 20
206.4314727783203
 30
0.0
 40
45.4000015258789
100
AcDbArc
 50
313.0340166999933
 51
318.5903764290909
  0
ARC
  5
157
330
22
100
AcDbEntity
  8
0
  6
Continuous
 62
     7
100
AcDbCircle
 10
-198.3678588867188
 20
72.26227569580078
 30
0.0
 40
1.0
100
AcDbArc
 50
270.0000000000005
 51
0.0
  0
ARC
  5
158
330
22
100
AcDbEntity
  8
0
  6
Continuous
 62
     7
100
AcDbCircle
 10
-168.8678588867188
 20
100.2622756958008
 30
0.0
 40
2.0
100
AcDbArc
 50
90.00000000000019
 51
180.0000000000004
  0
ARC
  5
159
330
22
100
AcDbEntity
  8
0
  6
Continuous
 62
     7
100
AcDbCircle
 10
-225.8678588867188
 20
162.0568237304688
 30
0.0
 40
1.0
100
AcDbArc
 50
271.9359772796185
 51
0.0
  0
ARC
  5
15A
330
22
100
AcDbEntity
  8
0
  6
Continuous
 62
     7
100
AcDbCircle
 10
-227.3678588867188
 20
206.4314727783203
 30
0.0
 40
45.4000015258789
100
AcDbArc
 50
239.2521273651048
 51
243.6602123443493
  0
ARC
  5
15B
330
22
100
AcDbEntity
  8
0
  6
Continuous
 62
     7
100
AcDbCircle
 10
-247.0678558349609
 20
166.6411437988281
 30
0.0
 40
1.0
100
AcDbArc
 50
243.6601552418466
 51
0.0
  0
ARC
  5
15C
330
22
100
AcDbEntity
  8
0
  6
Continuous
 62
     7
100
AcDbCircle
 10
-198.3678588867188
 20
76.26227569580078
 30
0.0
 40
1.0
100
AcDbArc
 50
0.0
 51
90.00000000000019
  0
ARC
  5
15D
330
22
100
AcDbEntity
  8
0
  6
Continuous
 62
     7
100
AcDbCircle
 10
-200.1178588867188
 20
78.26227569580078
 30
0.0
 40
1.0
100
AcDbArc
 50
180.0000000000004
 51
270.0000000000005
  0
ARC
  5
15E
330
22
100
AcDbEntity
  8
0
  6
Continuous
 62
     7
100
AcDbCircle
 10
-200.1178588867188
 20
78.6841812133789
 30
0.0
 40
1.0
100
AcDbArc
 50
119.9999304359993
 51
180.0000000000004
  0
ARC
  5
15F
330
22
100
AcDbEntity
  8
0
  6
Continuous
 62
     7
100
AcDbCircle
 10
-180.3678588867188
 20
94.70565032958985
 30
0.0
 40
3.0
100
AcDbArc
 50
300.0000032912053
 51
0.0
  0
ARC
  5
160
330
22
100
AcDbEntity
  8
0
  6
Continuous
 62
     7
100
AcDbCircle
 10
-173.8678588867188
 20
94.99432373046877
 30
0.0
 40
3.0
100
AcDbArc
 50
300.0000032912053
 51
0.0
  0
ARC
  5
161
330
22
100
AcDbEntity
  8
0
  6
Continuous
 62
     7
100
AcDbCircle
 10
-271.4854431152344
 20
211.4314727783203
 30
0.0
 40
1.0
100
AcDbArc
 50
173.5341026497835
 51
270.0000000000005
  0
ARC
  5
162
330
22
100
AcDbEntity
  8
0
  6
Continuous
 62
     7
100
AcDbCircle
 10
-268.2678527832031
 20
189.1528778076171
 30
0.0
 40
1.0
100
AcDbArc
 50
202.902185404123
 51
0.0
  0
ARC
  5
163
330
22
100
AcDbEntity
  8
0
  6
Continuous
 62
     7
100
AcDbCircle
 10
-268.2678527832031
 20
211.4314727783203
 30
0.0
 40
1.0
100
AcDbArc
 50
270.0000000000005
 51
0.0
  0
ARC
  5
164
330
22
100
AcDbEntity
  8
0
  6
Continuous
 62
     7
100
AcDbCircle
 10
-268.2678527832031
 20
201.4314727783203
 30
0.0
 40
1.0
100
AcDbArc
 50
0.0
 51
90.00000000000019
  0
ARC
  5
165
330
22
100
AcDbEntity
  8
0
  6
Continuous
 62
     7
100
AcDbCircle
 10
-247.0678558349609
 20
211.4314727783203
 30
0.0
 40
1.0
100
AcDbArc
 50
270.0000000000005
 51
0.0
  0
ARC
  5
166
330
22
100
AcDbEntity
  8
0
  6
Continuous
 62
     7
100
AcDbCircle
 10
-247.0678558349609
 20
201.4314727783203
 30
0.0
 40
1.0
100
AcDbArc
 50
0.0
 51
90.00000000000019
  0
ARC
  5
167
330
22
100
AcDbEntity
  8
0
  6
Continuous
 62
     7
100
AcDbCircle
 10
-236.4678649902344
 20
193.6314697265625
 30
0.0
 40
1.0
100
AcDbArc
 50
270.0000000000005
 51
0.0
  0
ARC
  5
168
330
22
100
AcDbEntity
  8
0
  6
Continuous
 62
     7
100
AcDbCircle
 10
-250.0678558349609
 20
201.4314727783203
 30
0.0
 40
1.0
100
AcDbArc
 50
90.00000000000019
 51
180.0000000000004
  0
ARC
  5
169
330
22
100
AcDbEntity
  8
0
  6
Continuous
 62
     7
100
AcDbCircle
 10
-250.0678558349609
 20
168.2729949951172
 30
0.0
 40
1.0
100
AcDbArc
 50
180.0000000000004
 51
239.2524484041208
  0
ARC
  5
16A
330
22
100
AcDbEntity
  8
0
  6
Continuous
 62
     7
100
AcDbCircle
 10
-250.0678558349609
 20
244.5899658203125
 30
0.0
 40
1.0
100
AcDbArc
 50
120.7479985708379
 51
180.0000000000004
  0
ARC
  5
16B
330
22
100
AcDbEntity
  8
0
  6
Continuous
 62
     7
100
AcDbCircle
 10
-227.3678588867188
 20
206.4314727783203
 30
0.0
 40
45.4000015258789
100
AcDbArc
 50
268.0639644298913
 51
271.9360355701099
  0
ARC
  5
16C
330
22
100
AcDbEntity
  8
0
  6
Continuous
 62
     7
100
AcDbCircle
 10
-228.8678588867188
 20
162.0568237304688
 30
0.0
 40
1.0
100
AcDbArc
 50
180.0000000000004
 51
268.064022720383
  0
ARC
  5
16D
330
22
100
AcDbEntity
  8
0
  6
Continuous
 62
     7
100
AcDbCircle
 10
-236.4678649902344
 20
162.9740295410156
 30
0.0
 40
1.0
100
AcDbArc
 50
258.1731186434639
 51
0.0
  0
ARC
  5
16E
330
22
100
AcDbEntity
  8
0
  6
Continuous
 62
     7
100
AcDbCircle
 10
-227.3678588867188
 20
206.4314727783203
 30
0.0
 40
45.4000015258789
100
AcDbArc
 50
254.1855651751176
 51
258.1731280033222
  0
ARC
  5
16F
330
22
100
AcDbEntity
  8
0
  6
Continuous
 62
     7
100
AcDbCircle
 10
-239.4678649902344
 20
163.7120361328125
 30
0.0
 40
1.0
100
AcDbArc
 50
180.0000000000004
 51
254.18550251979
  0
ARC
  5
170
330
22
100
AcDbEntity
  8
0
  6
Continuous
 62
     7
100
AcDbCircle
 10
-227.3678588867188
 20
206.4314727783203
 30
0.0
 40
45.4000015258789
100
AcDbArc
 50
186.4659402629633
 51
202.902095552442
  0
ARC
  5
171
330
22
100
AcDbEntity
  8
0
  6
Continuous
 62
     7
100
AcDbCircle
 10
-227.3678588867188
 20
206.4314727783203
 30
0.0
 40
45.4000015258789
100
AcDbArc
 50
157.0979044475587
 51
173.5340597370374
  0
ARC
  5
172
330
22
100
AcDbEntity
  8
0
  6
Continuous
 62
     7
100
AcDbCircle
 10
-268.2678527832031
 20
223.7100677490234
 30
0.0
 40
1.0
100
AcDbArc
 50
0.0
 51
157.0978145958777
  0
ARC
  5
173
330
22
100
AcDbEntity
  8
0
  6
Continuous
 62
     7
100
AcDbCircle
 10
-271.4854431152344
 20
201.4314727783203
 30
0.0
 40
1.0
100
AcDbArc
 50
90.00000000000019
 51
186.4658973502171
  0
ARC
  5
174
330
22
100
AcDbEntity
  8
0
  6
Continuous
 62
     7
100
AcDbCircle
 10
-225.8678588867188
 20
250.8061218261719
 30
0.0
 40
1.0
100
AcDbArc
 50
0.0
 51
88.06402272038228
  0
ARC
  5
175
330
22
100
AcDbEntity
  8
0
  6
Continuous
 62
     7
100
AcDbCircle
 10
-236.4678649902344
 20
249.8889312744141
 30
0.0
 40
1.0
100
AcDbArc
 50
0.0
 51
101.8270605436072
  0
ARC
  5
176
330
22
100
AcDbEntity
  8
0
  6
Continuous
 62
     7
100
AcDbCircle
 10
-227.3678588867188
 20
206.4314727783203
 30
0.0
 40
45.4000015258789
100
AcDbArc
 50
101.8268719966784
 51
105.8144348248832
  0
ARC
  5
177
330
22
100
AcDbEntity
  8
0
  6
Continuous
 62
     7
100
AcDbCircle
 10
-227.3678588867188
 20
206.4314727783203
 30
0.0
 40
45.4000015258789
100
AcDbArc
 50
221.4096363081686
 51
226.9659973758302
  0
ARC
  5
178
330
22
100
AcDbEntity
  8
0
  6
Continuous
 62
     7
100
AcDbCircle
 10
-257.6678466796875
 20
238.8855895996094
 30
0.0
 40
1.0
100
AcDbArc
 50
0.0
 51
133.0337581685631
  0
ARC
  5
179
330
22
100
AcDbEntity
  8
0
  6
Continuous
 62
     7
100
AcDbCircle
 10
-257.6678466796875
 20
227.6314697265625
 30
0.0
 40
1.0
100
AcDbArc
 50
270.0000000000005
 51
0.0
  0
ARC
  5
17A
330
22
100
AcDbEntity
  8
0
  6
Continuous
 62
     7
100
AcDbCircle
 10
-250.0678558349609
 20
211.4314727783203
 30
0.0
 40
1.0
100
AcDbArc
 50
180.0000000000004
 51
270.0000000000005
  0
ARC
  5
17B
330
22
100
AcDbEntity
  8
0
  6
Continuous
 62
     7
100
AcDbCircle
 10
-260.6678466796875
 20
235.79931640625
 30
0.0
 40
1.0
100
AcDbArc
 50
138.5903709931015
 51
180.0000000000004
  0
ARC
  5
17C
330
22
100
AcDbEntity
  8
0
  6
Continuous
 62
     7
100
AcDbCircle
 10
-227.3678588867188
 20
206.4314727783203
 30
0.0
 40
45.4000015258789
100
AcDbArc
 50
133.0340026241705
 51
138.5903636918321
  0
ARC
  5
17D
330
22
100
AcDbEntity
  8
0
  6
Continuous
 62
     7
100
AcDbCircle
 10
-257.6678466796875
 20
219.2314758300781
 30
0.0
 40
1.0
100
AcDbArc
 50
0.0
 51
90.00000000000019
  0
ARC
  5
17E
330
22
100
AcDbEntity
  8
0
  6
Continuous
 62
     7
100
AcDbCircle
 10
-257.6678466796875
 20
173.9773559570313
 30
0.0
 40
1.0
100
AcDbArc
 50
226.9662418314377
 51
0.0
  0
ARC
  5
17F
330
22
100
AcDbEntity
  8
0
  6
Continuous
 62
     7
100
AcDbCircle
 10
-260.6678466796875
 20
193.6314697265625
 30
0.0
 40
1.0
100
AcDbArc
 50
180.0000000000004
 51
270.0000000000005
  0
ARC
  5
180
330
22
100
AcDbEntity
  8
0
  6
Continuous
 62
     7
100
AcDbCircle
 10
-260.6678466796875
 20
185.2314758300781
 30
0.0
 40
1.0
100
AcDbArc
 50
90.00000000000019
 51
180.0000000000004
  0
ARC
  5
181
330
22
100
AcDbEntity
  8
0
  6
Continuous
 62
     7
100
AcDbCircle
 10
-239.4678649902344
 20
249.1509094238281
 30
0.0
 40
1.0
100
AcDbArc
 50
105.8144974802109
 51
180.0000000000004
  0
ARC
  5
182
330
22
100
AcDbEntity
  8
0
  6
Continuous
 62
     7
100
AcDbCircle
 10
-228.8678588867188
 20
199.2314758300781
 30
0.0
 40
1.0
100
AcDbArc
 50
90.00000000000019
 51
180.0000000000004
  0
ARC
  5
183
330
22
100
AcDbEntity
  8
0
  6
Continuous
 62
     7
100
AcDbCircle
 10
-236.4678649902344
 20
227.6314697265625
 30
0.0
 40
1.0
100
AcDbArc
 50
270.0000000000005
 51
0.0
  0
ARC
  5
184
330
22
100
AcDbEntity
  8
0
  6
Continuous
 62
     7
100
AcDbCircle
 10
-239.4678649902344
 20
219.2314758300781
 30
0.0
 40
1.0
100
AcDbArc
 50
90.00000000000019
 51
180.0000000000004
  0
ARC
  5
185
330
22
100
AcDbEntity
  8
0
  6
Continuous
 62
     7
100
AcDbCircle
 10
-260.6678466796875
 20
177.0636291503906
 30
0.0
 40
1.0
100
AcDbArc
 50
180.0000000000004
 51
221.4096290068993
  0
ARC
  5
186
330
22
100
AcDbEntity
  8
0
  6
Continuous
 62
     7
100
AcDbCircle
 10
-239.4678649902344
 20
185.2314758300781
 30
0.0
 40
1.0
100
AcDbArc
 50
90.00000000000019
 51
180.0000000000004
  0
ARC
  5
187
330
22
100
AcDbEntity
  8
0
  6
Continuous
 62
     7
100
AcDbCircle
 10
-260.6678466796875
 20
227.6314697265625
 30
0.0
 40
1.0
100
AcDbArc
 50
180.0000000000004
 51
270.0000000000005
  0
ARC
  5
188
330
22
100
AcDbEntity
  8
0
  6
Continuous
 62
     7
100
AcDbCircle
 10
-247.0678558349609
 20
246.2218017578125
 30
0.0
 40
1.0
100
AcDbArc
 50
0.0
 51
116.3398447581541
  0
ARC
  5
189
330
22
100
AcDbEntity
  8
0
  6
Continuous
 62
     7
100
AcDbCircle
 10
-227.3678588867188
 20
206.4314727783203
 30
0.0
 40
45.4000015258789
100
AcDbArc
 50
116.3397876556515
 51
120.7478726348959
  0
ARC
  5
18A
330
22
100
AcDbEntity
  8
0
  6
Continuous
 62
     7
100
AcDbCircle
 10
-236.4678649902344
 20
219.2314758300781
 30
0.0
 40
1.0
100
AcDbArc
 50
0.0
 51
90.00000000000019
  0
ARC
  5
18B
330
22
100
AcDbEntity
  8
0
  6
Continuous
 62
     7
100
AcDbCircle
 10
-260.6678466796875
 20
219.2314758300781
 30
0.0
 40
1.0
100
AcDbArc
 50
90.00000000000019
 51
180.0000000000004
  0
ARC
  5
18C
330
22
100
AcDbEntity
  8
0
  6
Continuous
 62
     7
100
AcDbCircle
 10
-257.6678466796875
 20
193.6314697265625
 30
0.0
 40
1.0
100
AcDbArc
 50
270.0000000000005
 51
0.0
  0
ARC
  5
18D
330
22
100
AcDbEntity
  8
0
  6
Continuous
 62
     7
100
AcDbCircle
 10
-225.8678588867188
 20
213.6314697265625
 30
0.0
 40
1.0
100
AcDbArc
 50
270.0000000000005
 51
0.0
  0
ARC
  5
18E
330
22
100
AcDbEntity
  8
0
  6
Continuous
 62
     7
100
AcDbCircle
 10
-236.4678649902344
 20
185.2314758300781
 30
0.0
 40
1.0
100
AcDbArc
 50
0.0
 51
90.00000000000019
  0
ARC
  5
18F
330
22
100
AcDbEntity
  8
0
  6
Continuous
 62
     7
100
AcDbCircle
 10
-257.6678466796875
 20
185.2314758300781
 30
0.0
 40
1.0
100
AcDbArc
 50
0.0
 51
90.00000000000019
  0
ARC
  5
190
330
22
100
AcDbEntity
  8
0
  6
Continuous
 62
     7
100
AcDbCircle
 10
-239.4678649902344
 20
193.6314697265625
 30
0.0
 40
1.0
100
AcDbArc
 50
180.0000000000004
 51
270.0000000000005
  0
ARC
  5
191
330
22
100
AcDbEntity
  8
0
  6
Continuous
 62
     7
100
AcDbCircle
 10
-250.7144012451172
 20
56.25320434570313
 30
0.0
 40
2.487993478775023
100
AcDbArc
 50
134.104966038452
 51
179.7910961534872
  0
ARC
  5
192
330
22
100
AcDbEntity
  8
0
  6
Continuous
 62
     7
100
AcDbCircle
 10
-251.8472595214844
 20
57.35470581054688
 30
0.0
 40
0.9098099470138549
100
AcDbArc
 50
48.8467080398825
 51
131.1532919601175
  0
ARC
  5
193
330
22
100
AcDbEntity
  8
0
  6
Continuous
 62
     7
100
AcDbCircle
 10
-255.3831176757813
 20
52.90525436401367
 30
0.0
 40
6.5922532081604
100
AcDbArc
 50
30.61305672669246
 51
51.15703740202881
  0
ARC
  5
194
330
22
100
AcDbEntity
  8
0
  6
Continuous
 62
     7
100
AcDbCircle
 10
-225.8678588867188
 20
199.2314758300781
 30
0.0
 40
1.0
100
AcDbArc
 50
0.0
 51
90.00000000000019
  0
ARC
  5
195
330
22
100
AcDbEntity
  8
0
  6
Continuous
 62
     7
100
AcDbCircle
 10
-228.8678588867188
 20
213.6314697265625
 30
0.0
 40
1.0
100
AcDbArc
 50
180.0000000000004
 51
270.0000000000005
  0
ARC
  5
196
330
22
100
AcDbEntity
  8
0
  6
Continuous
 62
     7
100
AcDbCircle
 10
-239.4678649902344
 20
227.6314697265625
 30
0.0
 40
1.0
100
AcDbArc
 50
180.0000000000004
 51
270.0000000000005
  0
ARC
  5
197
330
22
100
AcDbEntity
  8
0
  6
Continuous
 62
     7
100
AcDbCircle
 10
-227.3678588867188
 20
206.4314727783203
 30
0.0
 40
45.4000015258789
100
AcDbArc
 50
88.06396442989074
 51
91.93603557010929
  0
ARC
  5
198
330
22
100
AcDbEntity
  8
0
  6
Continuous
 62
     7
100
AcDbCircle
 10
-228.8678588867188
 20
250.8061218261719
 30
0.0
 40
1.0
100
AcDbArc
 50
91.93597727961771
 51
180.0000000000004
  0
CIRCLE
  5
199
330
22
100
AcDbEntity
  8
0
  6
Continuous
 62
     7
100
AcDbCircle
 10
-227.3678588867188
 20
206.2737426757813
 30
0.0
 40
52.65000152587891
  0
CIRCLE
  5
19A
330
22
100
AcDbEntity
  8
0
  6
Continuous
 62
     7
100
AcDbCircle
 10
-227.3678588867188
 20
206.2737426757813
 30
0.0
 40
52.04999923706054
  0
CIRCLE
  5
19B
330
22
100
AcDbEntity
  8
0
  6
Continuous
 62
     7
100
AcDbCircle
 10
-227.3678588867188
 20
206.2737426757813
 30
0.0
 40
65.5
  0
ARC
  5
19C
330
22
100
AcDbEntity
  8
0
  6
Continuous
 62
     7
100
AcDbCircle
 10
-252.8151092529297
 20
77.65921783447265
 30
0.0
 40
3.545835494995116
100
AcDbArc
 50
49.41940466258906
 51
78.83295550219961
  0
ARC
  5
19D
330
22
100
AcDbEntity
  8
0
  6
Continuous
 62
     7
100
AcDbCircle
 10
-253.253662109375
 20
78.00821685791015
 30
0.0
 40
3.609778881072998
100
AcDbArc
 50
10.95369446650932
 51
40.49310338473644
  0
ARC
  5
19E
330
22
100
AcDbEntity
  8
0
  6
Continuous
 62
     7
100
AcDbCircle
 10
-252.1939849853516
 20
80.01428985595703
 30
0.0
 40
1.12554121017456
100
AcDbArc
 50
86.65885421308571
 51
127.5258741591796
  0
ARC
  5
19F
330
22
100
AcDbEntity
  8
0
  6
Continuous
 62
     7
100
AcDbCircle
 10
-252.0415191650391
 20
80.10127258300782
 30
0.0
 40
1.162511467933655
100
AcDbArc
 50
136.1290364661792
 51
176.9444840454212
  0
ARC
  5
1A0
330
22
100
AcDbEntity
  8
0
  6
Continuous
 62
     7
100
AcDbCircle
 10
-264.3678588867188
 20
78.53984069824218
 30
0.0
 40
3.0
100
AcDbArc
 50
0.0
 51
59.99999670879549
  0
ARC
  5
1A1
330
22
100
AcDbEntity
  8
0
  6
Continuous
 62
     7
100
AcDbCircle
 10
-280.8678588867188
 20
94.99432373046877
 30
0.0
 40
3.0
100
AcDbArc
 50
180.0000000000004
 51
239.9999967087962
  0
ARC
  5
1A2
330
22
100
AcDbEntity
  8
0
  6
Continuous
 62
     7
100
AcDbCircle
 10
-285.8678588867188
 20
100.2622756958008
 30
0.0
 40
2.0
100
AcDbArc
 50
0.0
 51
90.00000000000019
  0
CIRCLE
  5
1A3
330
22
100
AcDbEntity
  8
0
  6
DASHED
 62
     7
100
AcDbCircle
 10
-227.3678588867188
 20
206.2737426757813
 30
0.0
 40
26.25
  0
ARC
  5
1A4
330
22
100
AcDbEntity
  8
0
  6
Continuous
 62
     7
100
AcDbCircle
 10
-218.2678527832031
 20
184.7314758300781
 30
0.0
 40
1.0
100
AcDbArc
 50
90.00000000000019
 51
180.0000000000004
  0
ARC
  5
1A5
330
22
100
AcDbEntity
  8
0
  6
Continuous
 62
     7
100
AcDbCircle
 10
-218.2678527832031
 20
249.8889312744141
 30
0.0
 40
1.0
100
AcDbArc
 50
78.17293945639281
 51
180.0000000000004
  0
ARC
  5
1A6
330
22
100
AcDbEntity
  8
0
  6
Continuous
 62
     7
100
AcDbCircle
 10
-218.2678527832031
 20
228.1314697265625
 30
0.0
 40
1.0
100
AcDbArc
 50
180.0000000000004
 51
270.0000000000005
  0
ARC
  5
1A7
330
22
100
AcDbEntity
  8
0
  6
Continuous
 62
     7
100
AcDbCircle
 10
-218.2678527832031
 20
219.7314758300781
 30
0.0
 40
1.0
100
AcDbArc
 50
90.00000000000019
 51
180.0000000000004
  0
ARC
  5
1A8
330
22
100
AcDbEntity
  8
0
  6
Continuous
 62
     7
100
AcDbCircle
 10
-218.2678527832031
 20
193.1314697265625
 30
0.0
 40
1.0
100
AcDbArc
 50
180.0000000000004
 51
270.0000000000005
  0
ARC
  5
1A9
330
22
100
AcDbEntity
  8
0
  6
Continuous
 62
     7
100
AcDbCircle
 10
-227.3678588867188
 20
206.4314727783203
 30
0.0
 40
45.4000015258789
100
AcDbArc
 50
74.18556517511679
 51
78.17312800332157
  0
ARC
  5
1AA
330
22
100
AcDbEntity
  8
0
  6
Continuous
 62
     7
100
AcDbCircle
 10
-227.3678588867188
 20
206.4314727783203
 30
0.0
 40
45.4000015258789
100
AcDbArc
 50
281.8268719966792
 51
285.8144348248839
  0
ARC
  5
1AB
330
22
100
AcDbEntity
  8
0
  6
Continuous
 62
     7
100
AcDbCircle
 10
-218.2678527832031
 20
162.9740295410156
 30
0.0
 40
1.0
100
AcDbArc
 50
180.0000000000004
 51
281.8268813565375
  0
TEXT
  5
1AC
330
22
100
AcDbEntity
  8
0
  6
Continuous
 62
     7
100
AcDbText
 10
-157.1730585098267
 20
136.4496612548828
 30
0.0
 40
7.0
  1
ＤＬ－Ｓ－５０Ｇ
 41
0.8454512837995997
100
AcDbText
  0
DIMENSION
  5
1AD
330
22
100
AcDbEntity
  8
0
  6
Continuous
 62
     7
100
AcDbDimension
  2
*D1
 10
-141.3714447021484
 20
106.2622756958008
 30
0.0
 11
-141.3714447021484
 21
81.26227569580079
 31
0.0
 71
     5
 42
-1.0
  3
DIMSTYLE1
100
AcDbAlignedDimension
 13
-193.8678588867188
 23
56.26227569580078
 33
0.0
 14
-162.3678588867188
 24
106.2622756958008
 34
0.0
 50
90.0
100
AcDbRotatedDimension
  0
INSERT
  5
1AE
330
22
100
AcDbEntity
  8
0
  6
Continuous
 62
     7
100
AcDbBlockReference
  2
KOZU0001
 10
-199.3669281005859
 20
65.80848693847656
 30
0.0
  0
DIMENSION
  5
1AF
330
22
100
AcDbEntity
  8
0
  6
Continuous
 62
     7
100
AcDbDimension
  2
*D2
 10
-290.6659584694635
 20
189.4332976337721
 30
0.0
 11
-138.0366821289062
 21
230.040283203125
 31
0.0
 70
     3
 71
     5
 42
-1.0
  3
DIMSTYLE2
100
AcDbDiametricDimension
 15
-164.069759303974
 25
223.1141877177905
 35
0.0
 40
0.0
  0
ENDSEC
  0
SECTION
  2
OBJECTS
  0
DICTIONARY
  5
C
330
0
100
AcDbDictionary
281
     1
  3
ACAD_COLOR
350
1B
  3
ACAD_GROUP
350
D
  3
ACAD_LAYOUT
350
19
  3
ACAD_MATERIAL
350
1A
  3
ACAD_MLINESTYLE
350
16
  3
ACAD_PLOTSETTINGS
350
18
  3
ACAD_PLOTSTYLENAME
350
E
  3
ACAD_TABLESTYLE
350
1C
  3
AcDbVariableDictionary
350
1BB
  0
DICTIONARY
  5
1B
102
{ACAD_REACTORS
330
C
102
}
330
C
100
AcDbDictionary
281
     1
  0
DICTIONARY
  5
D
102
{ACAD_REACTORS
330
C
102
}
330
C
100
AcDbDictionary
281
     1
  0
DICTIONARY
  5
19
102
{ACAD_REACTORS
330
C
102
}
330
C
100
AcDbDictionary
281
     1
  3
Model
350
25
  3
レイアウト1
350
21
  0
DICTIONARY
  5
1A
102
{ACAD_REACTORS
330
C
102
}
330
C
100
AcDbDictionary
281
     1
  0
DICTIONARY
  5
16
102
{ACAD_REACTORS
330
C
102
}
330
C
100
AcDbDictionary
281
     1
  3
Standard
350
17
  0
DICTIONARY
  5
18
102
{ACAD_REACTORS
330
C
102
}
330
C
100
AcDbDictionary
281
     1
  0
ACDBDICTIONARYWDFLT
  5
E
102
{ACAD_REACTORS
330
C
102
}
330
C
100
AcDbDictionary
281
     1
  3
Normal
350
F
100
AcDbDictionaryWithDefault
340
F
  0
DICTIONARY
  5
1C
102
{ACAD_REACTORS
330
C
102
}
330
C
100
AcDbDictionary
281
     1
  3
Standard
350
1D
  0
DICTIONARY
  5
1BB
102
{ACAD_REACTORS
330
C
102
}
330
C
100
AcDbDictionary
281
     1
  3
CTABLESTYLE
350
1BC
  0
LAYOUT
  5
25
102
{ACAD_REACTORS
330
19
102
}
330
19
100
AcDbPlotSettings
  1

  2
PDF reDirect v2
  4
A3
  6

 40
3.174999952316284
 41
3.174999952316284
 42
3.17498779296875
 43
3.17498779296875
 44
297.0530090332031
 45
420.1583251953125
 46
0.0
 47
0.0
 48
0.0
 49
0.0
140
0.0
141
0.0
142
1.0
143
1.0
 70
 11952
 72
     1
 73
     1
 74
     2
  7
C:\Users\ck\AppData\Roaming\Autodesk\AutoCAD 2005\R16.1\jpn\Plot Styles\black.ctb
 75
    16
147
1.0
 76
     0
 77
     2
 78
   300
148
423.0
149
2.0
100
AcDbLayout
  1
Model
 70
     1
 71
     0
 10
0.0
 20
0.0
 11
12.0
 21
9.0
 12
0.0
 22
0.0
 32
0.0
 14
0.0
 24
0.0
 34
0.0
 15
0.0
 25
0.0
 35
0.0
146
0.0
 13
0.0
 23
0.0
 33
0.0
 16
1.0
 26
0.0
 36
0.0
 17
0.0
 27
1.0
 37
0.0
 76
     0
330
22
1001
ACAD_PSEXT
1000
PDF reDirect v2
1000
PDF reDirect Pro
1000
PDF_REDIRECT_PORT:
1000
PDF reDirect provided by EXP Systems
1070
     0
  0
LAYOUT
  5
21
102
{ACAD_REACTORS
330
19
102
}
330
19
100
AcDbPlotSettings
  1

  2
PDF reDirect v2
  4

  6

 40
0.0
 41
0.0
 42
0.0
 43
0.0
 44
0.0
 45
0.0
 46
0.0
 47
0.0
 48
0.0
 49
0.0
140
0.0
141
0.0
142
1.0
143
1.0
 70
   688
 72
     0
 73
     0
 74
     5
  7
C:\Users\ck\AppData\Roaming\Autodesk\AutoCAD 2005\R16.1\jpn\Plot Styles\black.ctb
 75
    16
147
1.0
 76
     0
 77
     2
 78
   300
148
0.0
149
0.0
100
AcDbLayout
  1
レイアウト1
 70
     1
 71
     1
 10
-423.0
 20
-2.0
 11
-5.0
 21
293.0
 12
0.0
 22
0.0
 32
0.0
 14
1.000000000000000E+20
 24
1.000000000000000E+20
 34
1.000000000000000E+20
 15
-1.000000000000000E+20
 25
-1.000000000000000E+20
 35
-1.000000000000000E+20
146
0.0
 13
0.0
 23
0.0
 33
0.0
 16
1.0
 26
0.0
 36
0.0
 17
0.0
 27
1.0
 37
0.0
 76
     0
330
1E
  0
MLINESTYLE
  5
17
102
{ACAD_REACTORS
330
16
102
}
330
16
100
AcDbMlineStyle
  2
STANDARD
 70
     0
  3

 62
   256
 51
90.0
 52
90.0
 71
     2
 49
0.5
 62
   256
  6
BYLAYER
 49
-0.5
 62
   256
  6
BYLAYER
  0
ACDBPLACEHOLDER
  5
F
102
{ACAD_REACTORS
330
E
102
}
330
E
  0
TABLESTYLE
  5
1D
102
{ACAD_REACTORS
330
1C
102
}
330
1C
100
AcDbTableStyle
  3
Standard
 70
     0
 71
     0
 40
0.06
 41
0.06
280
     0
281
     0
  7
STANDARD
140
0.18
170
     2
 62
     0
 63
     7
283
     0
274
    -2
284
     1
 64
     0
275
    -2
285
     1
 65
     0
276
    -2
286
     1
 66
     0
277
    -2
287
     1
 67
     0
278
    -2
288
     1
 68
     0
279
    -2
289
     1
 69
     0
  7
STANDARD
140
0.25
170
     5
 62
     0
 63
     7
283
     0
274
    -2
284
     1
 64
     0
275
    -2
285
     1
 65
     0
276
    -2
286
     1
 66
     0
277
    -2
287
     1
 67
     0
278
    -2
288
     1
 68
     0
279
    -2
289
     1
 69
     0
  7
STANDARD
140
0.18
170
     5
 62
     0
 63
     7
283
     0
274
    -2
284
     1
 64
     0
275
    -2
285
     1
 65
     0
276
    -2
286
     1
 66
     0
277
    -2
287
     1
 67
     0
278
    -2
288
     1
 68
     0
279
    -2
289
     1
 69
     0
  0
DICTIONARYVAR
  5
1BC
102
{ACAD_REACTORS
330
1BB
102
}
330
1BB
100
DictionaryVariables
280
     0
  1
STANDARD
  0
ENDSEC
  0
EOF
