  0
SECTION
  2
HEADER
  9
$ACADVER
  1
AC1018
  9
$ACADMAINTVER
 70
    39
  9
$DWGCODEPAGE
  3
ANSI_932
  9
$INSBASE
 10
0.0
 20
0.0
 30
0.0
  9
$EXTMIN
 10
-535.6152625859427
 20
37.49661396850911
 30
-0.0015258207003583
  9
$EXTMAX
 10
-244.2389204500232
 20
526.4044660225096
 30
0.0000000349246037
  9
$LIMMIN
 10
-839.0
 20
0.0
  9
$LIMMAX
 10
0.0
 20
591.0
  9
$ORTHOMODE
 70
     0
  9
$REGENMODE
 70
     1
  9
$FILLMODE
 70
     1
  9
$QTEXTMODE
 70
     0
  9
$MIRRTEXT
 70
     0
  9
$LTSCALE
 40
1.0
  9
$ATTMODE
 70
     1
  9
$TEXTSIZE
 40
0.2
  9
$TRACEWID
 40
0.05
  9
$TEXTSTYLE
  7
STANDARD
  9
$CLAYER
  8
0
  9
$CELTYPE
  6
CONTINUOUS
  9
$CECOLOR
 62
   256
  9
$CELTSCALE
 40
1.0
  9
$DISPSILH
 70
     0
  9
$DIMSCALE
 40
1.0
  9
$DIMASZ
 40
1.0
  9
$DIMEXO
 40
2.54
  9
$DIMDLI
 40
0.38
  9
$DIMRND
 40
0.0
  9
$DIMDLE
 40
0.0
  9
$DIMEXE
 40
2.54
  9
$DIMTP
 40
0.0
  9
$DIMTM
 40
0.0
  9
$DIMTXT
 40
3.0
  9
$DIMCEN
 40
0.09
  9
$DIMTSZ
 40
0.0
  9
$DIMTOL
 70
     0
  9
$DIMLIM
 70
     0
  9
$DIMTIH
 70
     0
  9
$DIMTOH
 70
     0
  9
$DIMSE1
 70
     0
  9
$DIMSE2
 70
     0
  9
$DIMTAD
 70
     1
  9
$DIMZIN
 70
     0
  9
$DIMBLK
  1

  9
$DIMASO
 70
     1
  9
$DIMSHO
 70
     0
  9
$DIMPOST
  1

  9
$DIMAPOST
  1

  9
$DIMALT
 70
     0
  9
$DIMALTD
 70
     2
  9
$DIMALTF
 40
25.4
  9
$DIMLFAC
 40
1.0
  9
$DIMTOFL
 70
     0
  9
$DIMTVP
 40
1.0
  9
$DIMTIX
 70
     0
  9
$DIMSOXD
 70
     0
  9
$DIMSAH
 70
     1
  9
$DIMBLK1
  1

  9
$DIMBLK2
  1

  9
$DIMSTYLE
  2
DIMSTYLE1
  9
$DIMCLRD
 70
     0
  9
$DIMCLRE
 70
     0
  9
$DIMCLRT
 70
     0
  9
$DIMTFAC
 40
1.0
  9
$DIMGAP
 40
1.5
  9
$DIMJUST
 70
     0
  9
$DIMSD1
 70
     0
  9
$DIMSD2
 70
     0
  9
$DIMTOLJ
 70
     1
  9
$DIMTZIN
 70
     0
  9
$DIMALTZ
 70
     0
  9
$DIMALTTZ
 70
     0
  9
$DIMUPT
 70
     0
  9
$DIMDEC
 70
     4
  9
$DIMTDEC
 70
     4
  9
$DIMALTU
 70
     2
  9
$DIMALTTD
 70
     2
  9
$DIMTXSTY
  7
STANDARD
  9
$DIMAUNIT
 70
     0
  9
$DIMADEC
 70
     0
  9
$DIMALTRND
 40
0.0
  9
$DIMAZIN
 70
     0
  9
$DIMDSEP
 70
    46
  9
$DIMATFIT
 70
     3
  9
$DIMFRAC
 70
     0
  9
$DIMLDRBLK
  1

  9
$DIMLUNIT
 70
     2
  9
$DIMLWD
 70
    -2
  9
$DIMLWE
 70
    -2
  9
$DIMTMOVE
 70
     0
  9
$LUNITS
 70
     2
  9
$LUPREC
 70
     4
  9
$SKETCHINC
 40
0.1
  9
$FILLETRAD
 40
0.0
  9
$AUNITS
 70
     0
  9
$AUPREC
 70
     0
  9
$MENU
  1
.
  9
$ELEVATION
 40
0.0
  9
$PELEVATION
 40
0.0
  9
$THICKNESS
 40
0.0
  9
$LIMCHECK
 70
     0
  9
$CHAMFERA
 40
0.0
  9
$CHAMFERB
 40
0.0
  9
$CHAMFERC
 40
0.0
  9
$CHAMFERD
 40
0.0
  9
$SKPOLY
 70
     0
  9
$TDCREATE
 40
2457843.885988738
  9
$TDUCREATE
 40
2457843.510988738
  9
$TDUPDATE
 40
2457843.886590903
  9
$TDUUPDATE
 40
2457843.511590903
  9
$TDINDWG
 40
0.0006032060
  9
$TDUSRTIMER
 40
0.0006032060
  9
$USRTIMER
 70
     1
  9
$ANGBASE
 50
0.0
  9
$ANGDIR
 70
     0
  9
$PDMODE
 70
     0
  9
$PDSIZE
 40
0.0
  9
$PLINEWID
 40
0.0
  9
$SPLFRAME
 70
     0
  9
$SPLINETYPE
 70
     6
  9
$SPLINESEGS
 70
     8
  9
$HANDSEED
  5
29F
  9
$SURFTAB1
 70
     6
  9
$SURFTAB2
 70
     6
  9
$SURFTYPE
 70
     6
  9
$SURFU
 70
     6
  9
$SURFV
 70
     6
  9
$UCSBASE
  2

  9
$UCSNAME
  2

  9
$UCSORG
 10
0.0
 20
0.0
 30
0.0
  9
$UCSXDIR
 10
1.0
 20
0.0
 30
0.0
  9
$UCSYDIR
 10
0.0
 20
1.0
 30
0.0
  9
$UCSORTHOREF
  2

  9
$UCSORTHOVIEW
 70
     0
  9
$UCSORGTOP
 10
0.0
 20
0.0
 30
0.0
  9
$UCSORGBOTTOM
 10
0.0
 20
0.0
 30
0.0
  9
$UCSORGLEFT
 10
0.0
 20
0.0
 30
0.0
  9
$UCSORGRIGHT
 10
0.0
 20
0.0
 30
0.0
  9
$UCSORGFRONT
 10
0.0
 20
0.0
 30
0.0
  9
$UCSORGBACK
 10
0.0
 20
0.0
 30
0.0
  9
$PUCSBASE
  2

  9
$PUCSNAME
  2

  9
$PUCSORG
 10
0.0
 20
0.0
 30
0.0
  9
$PUCSXDIR
 10
1.0
 20
0.0
 30
0.0
  9
$PUCSYDIR
 10
0.0
 20
1.0
 30
0.0
  9
$PUCSORTHOREF
  2

  9
$PUCSORTHOVIEW
 70
     0
  9
$PUCSORGTOP
 10
0.0
 20
0.0
 30
0.0
  9
$PUCSORGBOTTOM
 10
0.0
 20
0.0
 30
0.0
  9
$PUCSORGLEFT
 10
0.0
 20
0.0
 30
0.0
  9
$PUCSORGRIGHT
 10
0.0
 20
0.0
 30
0.0
  9
$PUCSORGFRONT
 10
0.0
 20
0.0
 30
0.0
  9
$PUCSORGBACK
 10
0.0
 20
0.0
 30
0.0
  9
$USERI1
 70
     0
  9
$USERI2
 70
     0
  9
$USERI3
 70
     0
  9
$USERI4
 70
     0
  9
$USERI5
 70
     0
  9
$USERR1
 40
0.0
  9
$USERR2
 40
0.0
  9
$USERR3
 40
0.0
  9
$USERR4
 40
0.0
  9
$USERR5
 40
0.0
  9
$WORLDVIEW
 70
     1
  9
$SHADEDGE
 70
     3
  9
$SHADEDIF
 70
    70
  9
$TILEMODE
 70
     1
  9
$MAXACTVP
 70
    64
  9
$PINSBASE
 10
0.0
 20
0.0
 30
0.0
  9
$PLIMCHECK
 70
     0
  9
$PEXTMIN
 10
1.000000000000000E+20
 20
1.000000000000000E+20
 30
1.000000000000000E+20
  9
$PEXTMAX
 10
-1.000000000000000E+20
 20
-1.000000000000000E+20
 30
-1.000000000000000E+20
  9
$PLIMMIN
 10
-839.0
 20
0.0
  9
$PLIMMAX
 10
0.0
 20
591.0
  9
$UNITMODE
 70
     0
  9
$VISRETAIN
 70
     1
  9
$PLINEGEN
 70
     0
  9
$PSLTSCALE
 70
     1
  9
$TREEDEPTH
 70
  3020
  9
$CMLSTYLE
  2
Standard
  9
$CMLJUST
 70
     0
  9
$CMLSCALE
 40
1.0
  9
$PROXYGRAPHICS
 70
     1
  9
$MEASUREMENT
 70
     0
  9
$CELWEIGHT
370
    -1
  9
$ENDCAPS
280
     0
  9
$JOINSTYLE
280
     0
  9
$LWDISPLAY
290
     0
  9
$INSUNITS
 70
     0
  9
$HYPERLINKBASE
  1

  9
$STYLESHEET
  1

  9
$XEDIT
290
     1
  9
$CEPSNTYPE
380
     0
  9
$PSTYLEMODE
290
     1
  9
$FINGERPRINTGUID
  2
{53FDFF95-B005-463A-8889-B412B64398F5}
  9
$VERSIONGUID
  2
{BA654B46-C087-46F9-BE13-42404D2AAF1B}
  9
$EXTNAMES
290
     1
  9
$PSVPSCALE
 40
0.0
  9
$OLESTARTUP
290
     0
  9
$SORTENTS
280
   127
  9
$INDEXCTL
280
     0
  9
$HIDETEXT
280
     0
  9
$XCLIPFRAME
290
     0
  9
$HALOGAP
280
     0
  9
$OBSCOLOR
 70
   257
  9
$OBSLTYPE
280
     0
  9
$INTERSECTIONDISPLAY
280
     0
  9
$INTERSECTIONCOLOR
 70
   257
  9
$DIMASSOC
280
     1
  9
$PROJECTNAME
  1

  0
ENDSEC
  0
SECTION
  2
CLASSES
  0
CLASS
  1
ACDBDICTIONARYWDFLT
  2
AcDbDictionaryWithDefault
  3
ObjectDBX Classes
 90
        0
 91
        1
280
     0
281
     0
  0
CLASS
  1
TABLESTYLE
  2
AcDbTableStyle
  3
ObjectDBX Classes
 90
     2047
 91
        1
280
     0
281
     0
  0
CLASS
  1
DICTIONARYVAR
  2
AcDbDictionaryVar
  3
ObjectDBX Classes
 90
        0
 91
        1
280
     0
281
     0
  0
ENDSEC
  0
SECTION
  2
TABLES
  0
TABLE
  2
VPORT
  5
8
330
0
100
AcDbSymbolTable
 70
     2
  0
VPORT
  5
29E
330
8
100
AcDbSymbolTableRecord
100
AcDbViewportTableRecord
  2
*Active
 70
     0
 10
0.0
 20
0.0
 11
1.0
 21
1.0
 12
-419.5
 22
295.5
 13
0.0
 23
0.0
 14
1.0
 24
1.0
 15
0.0
 25
0.0
 16
0.0
 26
0.0
 36
1.0
 17
0.0
 27
0.0
 37
0.0
 40
595.6719367588932
 41
1.707124010554089
 42
50.0
 43
0.0
 44
0.0
 50
0.0
 51
0.0
 71
     0
 72
   100
 73
     1
 74
     1
 75
     0
 76
     0
 77
     0
 78
     0
281
     0
 65
     1
110
0.0
120
0.0
130
0.0
111
1.0
121
0.0
131
0.0
112
0.0
122
1.0
132
0.0
 79
     0
146
0.0
  0
ENDTAB
  0
TABLE
  2
LTYPE
  5
5
330
0
100
AcDbSymbolTable
 70
     6
  0
LTYPE
  5
13
330
5
100
AcDbSymbolTableRecord
100
AcDbLinetypeTableRecord
  2
ByBlock
 70
     0
  3

 72
    65
 73
     0
 40
0.0
  0
LTYPE
  5
14
330
5
100
AcDbSymbolTableRecord
100
AcDbLinetypeTableRecord
  2
ByLayer
 70
     0
  3

 72
    65
 73
     0
 40
0.0
  0
LTYPE
  5
15
330
5
100
AcDbSymbolTableRecord
100
AcDbLinetypeTableRecord
  2
CONTINUOUS
 70
     0
  3
Solid line
 72
    65
 73
     0
 40
0.0
  0
LTYPE
  5
26
330
5
100
AcDbSymbolTableRecord
100
AcDbLinetypeTableRecord
  2
DASHED
 70
     0
  3
__ __ __ __ __ __ __ __ __ __ __ __ __ __ __
 72
    65
 73
     2
 40
3.5
 49
2.0
 74
     0
 49
-1.5
 74
     0
  0
LTYPE
  5
27
330
5
100
AcDbSymbolTableRecord
100
AcDbLinetypeTableRecord
  2
CENTER
 70
     0
  3
____ _ ____ _ ____ _ ____ _ ____ _ ____ _ ____
 72
    65
 73
     4
 40
17.5
 49
13.0
 74
     0
 49
-1.5
 74
     0
 49
1.5
 74
     0
 49
-1.5
 74
     0
  0
LTYPE
  5
28
330
5
100
AcDbSymbolTableRecord
100
AcDbLinetypeTableRecord
  2
PHANTOM
 70
     0
  3
_____ _ _ _____ _ _ _____ _ _ _____ _ _ ____  
 72
    65
 73
     6
 40
15.5
 49
8.0
 74
     0
 49
-1.5
 74
     0
 49
1.5
 74
     0
 49
-1.5
 74
     0
 49
1.5
 74
     0
 49
-1.5
 74
     0
  0
LTYPE
  5
29
330
5
100
AcDbSymbolTableRecord
100
AcDbLinetypeTableRecord
  2
DOT
 70
     0
  3
. . . . . . . . . . . . . . . . . . . . . . . .
 72
    65
 73
     2
 40
0.25
 49
0.0
 74
     0
 49
-0.25
 74
     0
  0
LTYPE
  5
2A
330
5
100
AcDbSymbolTableRecord
100
AcDbLinetypeTableRecord
  2
HIDDEN
 70
     0
  3
__ __ __ __ __ __ __ __ __ __ __ __ __ __ __
 72
    65
 73
     2
 40
3.5
 49
2.0
 74
     0
 49
-1.5
 74
     0
  0
ENDTAB
  0
TABLE
  2
LAYER
  5
2
330
0
100
AcDbSymbolTable
 70
     2
  0
LAYER
  5
10
330
2
100
AcDbSymbolTableRecord
100
AcDbLayerTableRecord
  2
0
 70
     0
 62
     7
  6
CONTINUOUS
370
    -3
390
F
  0
LAYER
  5
2B
330
2
100
AcDbSymbolTableRecord
100
AcDbLayerTableRecord
  2
DEFPOINTS
 70
     0
 62
     7
  6
CONTINUOUS
290
     0
370
    -3
390
F
  0
ENDTAB
  0
TABLE
  2
STYLE
  5
3
330
0
100
AcDbSymbolTable
 70
     2
  0
STYLE
  5
11
330
3
100
AcDbSymbolTableRecord
100
AcDbTextStyleTableRecord
  2
STANDARD
 70
     0
 40
0.0
 41
1.0
 50
0.0
 71
     0
 42
0.2
  3

  4

1001
ACAD
1000
MS Gothic
1071
    32817
  0
ENDTAB
  0
TABLE
  2
VIEW
  5
6
330
0
100
AcDbSymbolTable
 70
     0
  0
ENDTAB
  0
TABLE
  2
UCS
  5
7
330
0
100
AcDbSymbolTable
 70
     0
  0
ENDTAB
  0
TABLE
  2
APPID
  5
9
330
0
100
AcDbSymbolTable
 70
     2
  0
APPID
  5
12
330
9
100
AcDbSymbolTableRecord
100
AcDbRegAppTableRecord
  2
ACAD
 70
     0
  0
APPID
  5
293
330
9
100
AcDbSymbolTableRecord
100
AcDbRegAppTableRecord
  2
ACAD_PSEXT
 70
     0
  0
ENDTAB
  0
TABLE
  2
DIMSTYLE
  5
A
330
0
100
AcDbSymbolTable
 70
    13
100
AcDbDimStyleTable
 71
     1
340
2C
  0
DIMSTYLE
105
2C
102
{ACAD_REACTORS
330
283
102
}
330
A
100
AcDbSymbolTableRecord
100
AcDbDimStyleTableRecord
  2
DIMSTYLE1
 70
     0
 41
1.0
 42
2.54
 44
2.54
 73
     0
 74
     0
 75
     1
 76
     1
 77
     1
140
3.0
145
1.0
147
1.5
172
     1
173
     1
279
     2
340
11
  0
DIMSTYLE
105
2D
102
{ACAD_REACTORS
330
285
102
}
330
A
100
AcDbSymbolTableRecord
100
AcDbDimStyleTableRecord
  2
DIMSTYLE2
 70
     0
 41
1.0
 42
2.54
 44
2.54
 73
     0
 74
     0
 75
     1
 76
     1
 77
     1
140
3.0
145
1.0
147
1.5
172
     1
173
     1
279
     2
340
11
  0
DIMSTYLE
105
2E
102
{ACAD_REACTORS
330
286
102
}
330
A
100
AcDbSymbolTableRecord
100
AcDbDimStyleTableRecord
  2
DIMSTYLE3
 70
     0
 41
1.0
 42
2.54
 44
2.54
 73
     0
 74
     0
 75
     1
 76
     1
 77
     1
140
3.0
145
1.0
147
1.5
172
     1
173
     1
279
     2
340
11
  0
DIMSTYLE
105
2F
102
{ACAD_REACTORS
330
287
102
}
330
A
100
AcDbSymbolTableRecord
100
AcDbDimStyleTableRecord
  2
DIMSTYLE4
 70
     0
 41
1.0
 42
2.54
 44
2.54
 73
     0
 74
     0
 75
     1
 76
     1
 77
     1
140
3.0
145
1.0
147
1.5
172
     1
173
     1
279
     2
340
11
  0
DIMSTYLE
105
30
102
{ACAD_REACTORS
330
288
102
}
330
A
100
AcDbSymbolTableRecord
100
AcDbDimStyleTableRecord
  2
DIMSTYLE5
 70
     0
 41
1.0
 42
2.54
 44
2.54
 73
     0
 74
     0
 75
     1
 76
     1
 77
     1
140
3.0
145
1.0
147
1.5
172
     1
173
     1
279
     2
340
11
  0
DIMSTYLE
105
31
102
{ACAD_REACTORS
330
289
102
}
330
A
100
AcDbSymbolTableRecord
100
AcDbDimStyleTableRecord
  2
DIMSTYLE6
 70
     0
 41
1.0
 42
2.54
 44
2.54
 73
     0
 74
     0
 77
     1
140
3.0
145
1.0
147
1.5
172
     1
173
     1
279
     2
340
11
  0
DIMSTYLE
105
32
102
{ACAD_REACTORS
330
28A
102
}
330
A
100
AcDbSymbolTableRecord
100
AcDbDimStyleTableRecord
  2
DIMSTYLE7
 70
     0
 41
1.0
 42
2.54
 44
2.54
 73
     0
 74
     0
 77
     1
140
3.0
145
1.0
147
1.5
172
     1
173
     1
279
     2
340
11
  0
DIMSTYLE
105
33
102
{ACAD_REACTORS
330
28B
102
}
330
A
100
AcDbSymbolTableRecord
100
AcDbDimStyleTableRecord
  2
DIMSTYLE8
 70
     0
 41
1.0
 42
2.54
 44
2.54
 73
     0
 74
     0
 77
     1
140
3.0
145
1.0
147
1.5
172
     1
173
     1
279
     2
340
11
  0
DIMSTYLE
105
34
102
{ACAD_REACTORS
330
28C
102
}
330
A
100
AcDbSymbolTableRecord
100
AcDbDimStyleTableRecord
  2
DIMSTYLE9
 70
     0
 41
1.0
 42
2.54
 44
2.54
 73
     0
 74
     0
 77
     1
140
3.0
145
1.0
147
1.5
172
     1
173
     1
279
     2
340
11
  0
DIMSTYLE
105
35
102
{ACAD_REACTORS
330
28D
102
}
330
A
100
AcDbSymbolTableRecord
100
AcDbDimStyleTableRecord
  2
DIMSTYLE10
 70
     0
 41
1.0
 42
2.54
 44
2.54
 73
     0
 74
     0
 77
     1
140
3.0
145
1.0
147
1.5
172
     1
173
     1
279
     2
340
11
  0
DIMSTYLE
105
36
102
{ACAD_REACTORS
330
28E
102
}
330
A
100
AcDbSymbolTableRecord
100
AcDbDimStyleTableRecord
  2
DIMSTYLE11
 70
     0
 41
1.0
 42
2.54
 44
2.54
 73
     0
 74
     0
 77
     1
140
3.0
145
1.0
147
1.5
172
     1
173
     1
279
     2
340
11
  0
DIMSTYLE
105
37
102
{ACAD_REACTORS
330
290
102
}
330
A
100
AcDbSymbolTableRecord
100
AcDbDimStyleTableRecord
  2
DIMSTYLE12
 70
     0
 41
1.0
 42
2.54
 44
2.54
 73
     0
 74
     0
 77
     1
140
3.0
145
1.0
147
1.5
172
     1
173
     1
279
     2
340
11
  0
ENDTAB
  0
TABLE
  2
BLOCK_RECORD
  5
1
330
0
100
AcDbSymbolTable
 70
    16
  0
BLOCK_RECORD
  5
22
330
1
100
AcDbSymbolTableRecord
100
AcDbBlockTableRecord
  2
*Model_Space
340
25
  0
BLOCK_RECORD
  5
1E
330
1
100
AcDbSymbolTableRecord
100
AcDbBlockTableRecord
  2
*Paper_Space
340
21
  0
BLOCK_RECORD
  5
3B
330
1
100
AcDbSymbolTableRecord
100
AcDbBlockTableRecord
  2
_OPEN30
340
0
102
{BLKREFS
331
45
331
46
331
4F
331
50
331
59
331
5A
331
62
331
63
331
6C
331
6D
331
75
331
76
331
82
331
84
331
8F
331
90
331
9A
331
9B
331
A5
331
A6
331
AF
331
B0
331
BB
331
BC
102
}
  0
BLOCK_RECORD
  5
41
330
1
100
AcDbSymbolTableRecord
100
AcDbBlockTableRecord
  2
*D1
340
0
  0
BLOCK_RECORD
  5
4B
330
1
100
AcDbSymbolTableRecord
100
AcDbBlockTableRecord
  2
*D2
340
0
  0
BLOCK_RECORD
  5
55
330
1
100
AcDbSymbolTableRecord
100
AcDbBlockTableRecord
  2
*D3
340
0
  0
BLOCK_RECORD
  5
5F
330
1
100
AcDbSymbolTableRecord
100
AcDbBlockTableRecord
  2
*D4
340
0
  0
BLOCK_RECORD
  5
68
330
1
100
AcDbSymbolTableRecord
100
AcDbBlockTableRecord
  2
*D5
340
0
  0
BLOCK_RECORD
  5
72
330
1
100
AcDbSymbolTableRecord
100
AcDbBlockTableRecord
  2
*D6
340
0
  0
BLOCK_RECORD
  5
7E
330
1
100
AcDbSymbolTableRecord
100
AcDbBlockTableRecord
  2
*D7
340
0
  0
BLOCK_RECORD
  5
8C
330
1
100
AcDbSymbolTableRecord
100
AcDbBlockTableRecord
  2
*D8
340
0
  0
BLOCK_RECORD
  5
97
330
1
100
AcDbSymbolTableRecord
100
AcDbBlockTableRecord
  2
*D9
340
0
  0
BLOCK_RECORD
  5
A2
330
1
100
AcDbSymbolTableRecord
100
AcDbBlockTableRecord
  2
*D10
340
0
  0
BLOCK_RECORD
  5
AC
330
1
100
AcDbSymbolTableRecord
100
AcDbBlockTableRecord
  2
*D11
340
0
  0
BLOCK_RECORD
  5
B8
330
1
100
AcDbSymbolTableRecord
100
AcDbBlockTableRecord
  2
*D12
340
0
  0
BLOCK_RECORD
  5
C4
330
1
100
AcDbSymbolTableRecord
100
AcDbBlockTableRecord
  2
KOZU0001
340
0
102
{BLKREFS
331
284
102
}
  0
BLOCK_RECORD
  5
CC
330
1
100
AcDbSymbolTableRecord
100
AcDbBlockTableRecord
  2
KOZU0002
340
0
102
{BLKREFS
331
28F
102
}
  0
ENDTAB
  0
ENDSEC
  0
SECTION
  2
BLOCKS
  0
BLOCK
  5
23
330
22
100
AcDbEntity
  8
0
100
AcDbBlockBegin
  2
*Model_Space
 70
     0
 10
0.0
 20
0.0
 30
0.0
  3
*Model_Space
  1

  0
ENDBLK
  5
24
330
22
100
AcDbEntity
  8
0
100
AcDbBlockEnd
  0
BLOCK
  5
1F
330
1E
100
AcDbEntity
 67
     1
  8
0
100
AcDbBlockBegin
  2
*Paper_Space
 70
     0
 10
0.0
 20
0.0
 30
0.0
  3
*Paper_Space
  1

  0
ENDBLK
  5
20
330
1E
100
AcDbEntity
 67
     1
  8
0
100
AcDbBlockEnd
  0
BLOCK
  5
3C
330
3B
100
AcDbEntity
  8
0
100
AcDbBlockBegin
  2
_OPEN30
 70
     0
 10
0.0
 20
0.0
 30
0.0
  3
_OPEN30
  1

  0
LINE
  5
3D
330
3B
100
AcDbEntity
  8
0
  6
ByBlock
 62
     0
100
AcDbLine
 10
0.0
 20
0.0
 30
0.0
 11
-2.999999999999993
 21
-1.000000000000017
 31
0.0
  0
LINE
  5
3E
330
3B
100
AcDbEntity
  8
0
  6
ByBlock
 62
     0
100
AcDbLine
 10
0.0
 20
0.0
 30
0.0
 11
-3.000000000000006
 21
0.9999999999999815
 31
0.0
  0
LINE
  5
3F
330
3B
100
AcDbEntity
  8
0
  6
ByBlock
 62
     0
100
AcDbLine
 10
0.0
 20
0.0
 30
0.0
 11
-3.0
 21
0.0
 31
0.0
  0
ENDBLK
  5
40
330
3B
100
AcDbEntity
  8
0
100
AcDbBlockEnd
  0
BLOCK
  5
42
330
41
100
AcDbEntity
  8
0
100
AcDbBlockBegin
  2
*D1
 70
     1
 10
0.0
 20
0.0
 30
0.0
  3
*D1
  1

  0
LINE
  5
43
330
41
100
AcDbEntity
  8
0
  6
Continuous
 62
     7
100
AcDbLine
 10
-437.1743164062499
 20
415.9341735839843
 30
0.0
 11
-443.080810546875
 21
405.6299438476562
 31
0.0
  0
LINE
  5
44
330
41
100
AcDbEntity
  8
0
  6
Continuous
 62
     7
100
AcDbLine
 10
-419.768676148783
 20
446.2993401605173
 30
0.0
 11
-435.6824041734825
 21
418.5369025152637
 31
0.0
  0
INSERT
  5
45
330
41
100
AcDbEntity
  8
0
  6
Continuous
 62
     7
100
AcDbBlockReference
  2
_OPEN30
 10
-418.2767639160156
 20
448.9020690917969
 30
0.0
 50
60.17820108304536
  0
INSERT
  5
46
330
41
100
AcDbEntity
  8
0
  6
Continuous
 62
     7
100
AcDbBlockReference
  2
_OPEN30
 10
-437.1743164062499
 20
415.9341735839843
 30
0.0
 50
240.1782010830461
  0
TEXT
  5
47
330
41
100
AcDbEntity
  8
0
  6
Continuous
 62
     7
100
AcDbText
 10
-443.7302707117961
 20
406.0019049986734
 30
0.0
 40
3.0
  1
%%C38
 50
60.20000326892843
 41
0.9498249830693319
100
AcDbText
  0
POINT
  5
48
330
41
100
AcDbEntity
  8
DEFPOINTS
  6
Continuous
 62
     7
100
AcDbPoint
 10
-418.2767639160156
 20
448.9020690917969
 30
0.0
  0
POINT
  5
49
330
41
100
AcDbEntity
  8
DEFPOINTS
  6
Continuous
 62
     7
100
AcDbPoint
 10
-437.1743164062499
 20
415.9341735839843
 30
0.0
  0
ENDBLK
  5
4A
330
41
100
AcDbEntity
  8
0
100
AcDbBlockEnd
  0
BLOCK
  5
4C
330
4B
100
AcDbEntity
  8
0
100
AcDbBlockBegin
  2
*D2
 70
     1
 10
0.0
 20
0.0
 30
0.0
  3
*D2
  1

  0
LINE
  5
4D
330
4B
100
AcDbEntity
  8
0
  6
Continuous
 62
     7
100
AcDbLine
 10
-348.5677795410156
 20
411.3587951660155
 30
0.0
 11
-318.3452453613281
 21
403.2625732421875
 31
0.0
  0
LINE
  5
4E
330
4B
100
AcDbEntity
  8
0
  6
Continuous
 62
     7
100
AcDbLine
 10
-502.1523789333531
 20
452.5021227058512
 30
0.0
 11
-351.4656020236781
 21
412.1350843253988
 31
0.0
  0
INSERT
  5
4F
330
4B
100
AcDbEntity
  8
0
  6
Continuous
 62
     7
100
AcDbBlockReference
  2
_OPEN30
 10
-505.0502014160156
 20
453.2784118652343
 30
0.0
 50
165.0033212477008
  0
INSERT
  5
50
330
4B
100
AcDbEntity
  8
0
  6
Continuous
 62
     7
100
AcDbBlockReference
  2
_OPEN30
 10
-348.5677795410156
 20
411.3587951660155
 30
0.0
 50
345.0033212477015
  0
TEXT
  5
51
330
4B
100
AcDbEntity
  8
0
  6
Continuous
 62
     7
100
AcDbText
 10
-334.7072224153479
 20
408.4227178276448
 30
0.0
 40
3.0
  1
PCD162
 50
344.999999582587
 41
1.07125000655651
100
AcDbText
  0
POINT
  5
52
330
4B
100
AcDbEntity
  8
DEFPOINTS
  6
Continuous
 62
     7
100
AcDbPoint
 10
-505.0502014160156
 20
453.2784118652343
 30
0.0
  0
POINT
  5
53
330
4B
100
AcDbEntity
  8
DEFPOINTS
  6
Continuous
 62
     7
100
AcDbPoint
 10
-348.5677795410156
 20
411.3587951660155
 30
0.0
  0
ENDBLK
  5
54
330
4B
100
AcDbEntity
  8
0
100
AcDbBlockEnd
  0
BLOCK
  5
56
330
55
100
AcDbEntity
  8
0
100
AcDbBlockBegin
  2
*D3
 70
     1
 10
0.0
 20
0.0
 30
0.0
  3
*D3
  1

  0
LINE
  5
57
330
55
100
AcDbEntity
  8
0
  6
Continuous
 62
     7
100
AcDbLine
 10
-351.9377136230469
 20
484.0418395996094
 30
0.0
 11
-322.7214660644531
 21
504.2252502441406
 31
0.0
  0
LINE
  5
58
330
55
100
AcDbEntity
  8
0
  6
Continuous
 62
     7
100
AcDbLine
 10
-499.2119836677437
 20
382.3005289321939
 30
0.0
 11
-354.4059972892877
 21
482.336678099056
 31
0.0
  0
INSERT
  5
59
330
55
100
AcDbEntity
  8
0
  6
Continuous
 62
     7
100
AcDbBlockReference
  2
_OPEN30
 10
-501.6802673339843
 20
380.5953674316406
 30
0.0
 50
214.6378344005939
  0
INSERT
  5
5A
330
55
100
AcDbEntity
  8
0
  6
Continuous
 62
     7
100
AcDbBlockReference
  2
_OPEN30
 10
-351.9377136230469
 20
484.0418395996094
 30
0.0
 50
34.63783440059312
  0
TEXT
  5
5B
330
55
100
AcDbEntity
  8
0
  6
Continuous
 62
     7
100
AcDbText
 10
-349.5969220818861
 20
486.5833809888983
 30
0.0
 40
3.0
  1
%%C１８２（防水皿外径）
 50
34.60000005214083
 41
0.8440126077968535
100
AcDbText
  0
POINT
  5
5C
330
55
100
AcDbEntity
  8
DEFPOINTS
  6
Continuous
 62
     7
100
AcDbPoint
 10
-501.6802673339843
 20
380.5953674316406
 30
0.0
  0
POINT
  5
5D
330
55
100
AcDbEntity
  8
DEFPOINTS
  6
Continuous
 62
     7
100
AcDbPoint
 10
-351.9377136230469
 20
484.0418395996094
 30
0.0
  0
ENDBLK
  5
5E
330
55
100
AcDbEntity
  8
0
100
AcDbBlockEnd
  0
BLOCK
  5
60
330
5F
100
AcDbEntity
  8
0
100
AcDbBlockBegin
  2
*D4
 70
     1
 10
0.0
 20
0.0
 30
0.0
  3
*D4
  1

  0
LINE
  5
61
330
5F
100
AcDbEntity
  8
0
  6
Continuous
 62
     7
100
AcDbLine
 10
-472.6029377928336
 20
415.3882224516944
 30
0.0
 11
-382.848142529432
 21
449.4480507416648
 31
0.0
  0
INSERT
  5
62
330
5F
100
AcDbEntity
  8
0
  6
Continuous
 62
     7
100
AcDbBlockReference
  2
_OPEN30
 10
-475.4077758789063
 20
414.3238525390625
 30
0.0
 50
200.7805727334162
  0
INSERT
  5
63
330
5F
100
AcDbEntity
  8
0
  6
Continuous
 62
     7
100
AcDbBlockReference
  2
_OPEN30
 10
-380.0433044433594
 20
450.5124206542968
 30
0.0
 50
20.78057273341549
  0
TEXT
  5
64
330
5F
100
AcDbEntity
  8
0
  6
Continuous
 62
     7
100
AcDbText
 10
-394.5677918619647
 20
445.8008710822989
 30
0.0
 40
3.0
  1
%%C102
 50
20.80000069264922
 41
1.106256216971615
100
AcDbText
  0
POINT
  5
65
330
5F
100
AcDbEntity
  8
DEFPOINTS
  6
Continuous
 62
     7
100
AcDbPoint
 10
-475.4077758789063
 20
414.3238525390625
 30
0.0
  0
POINT
  5
66
330
5F
100
AcDbEntity
  8
DEFPOINTS
  6
Continuous
 62
     7
100
AcDbPoint
 10
-380.0433044433594
 20
450.5124206542968
 30
0.0
  0
ENDBLK
  5
67
330
5F
100
AcDbEntity
  8
0
100
AcDbBlockEnd
  0
BLOCK
  5
69
330
68
100
AcDbEntity
  8
0
100
AcDbBlockBegin
  2
*D5
 70
     1
 10
0.0
 20
0.0
 30
0.0
  3
*D5
  1

  0
LINE
  5
6A
330
68
100
AcDbEntity
  8
0
  6
Continuous
 62
     7
100
AcDbLine
 10
-401.6542663574218
 20
411.2820129394531
 30
0.0
 11
-393.4979858398438
 21
404.7008056640625
 31
0.0
  0
LINE
  5
6B
330
68
100
AcDbEntity
  8
0
  6
Continuous
 62
     7
100
AcDbLine
 10
-451.4620731341348
 20
451.4713495462616
 30
0.0
 11
-403.9890071881307
 21
413.1658880025665
 31
0.0
  0
INSERT
  5
6C
330
68
100
AcDbEntity
  8
0
  6
Continuous
 62
     7
100
AcDbBlockReference
  2
_OPEN30
 10
-453.7968139648437
 20
453.355224609375
 30
0.0
 50
141.1003462636763
  0
INSERT
  5
6D
330
68
100
AcDbEntity
  8
0
  6
Continuous
 62
     7
100
AcDbBlockReference
  2
_OPEN30
 10
-401.6542663574218
 20
411.2820129394531
 30
0.0
 50
321.100346263677
  0
TEXT
  5
6E
330
68
100
AcDbEntity
  8
0
  6
Continuous
 62
     7
100
AcDbText
 10
-399.3619132302226
 20
410.396083924142
 30
0.0
 40
3.0
  1
%%C67
 50
321.0999997143643
 41
0.9498249830693319
100
AcDbText
  0
POINT
  5
6F
330
68
100
AcDbEntity
  8
DEFPOINTS
  6
Continuous
 62
     7
100
AcDbPoint
 10
-453.7968139648437
 20
453.355224609375
 30
0.0
  0
POINT
  5
70
330
68
100
AcDbEntity
  8
DEFPOINTS
  6
Continuous
 62
     7
100
AcDbPoint
 10
-401.6542663574218
 20
411.2820129394531
 30
0.0
  0
ENDBLK
  5
71
330
68
100
AcDbEntity
  8
0
100
AcDbBlockEnd
  0
BLOCK
  5
73
330
72
100
AcDbEntity
  8
0
100
AcDbBlockBegin
  2
*D6
 70
     1
 10
0.0
 20
0.0
 30
0.0
  3
*D6
  1

  0
LINE
  5
74
330
72
100
AcDbEntity
  8
0
  6
Continuous
 62
     7
100
AcDbLine
 10
-302.4336853027344
 20
108.3186111450195
 30
0.0
 11
-302.4336853027344
 21
245.318603515625
 31
0.0
  0
INSERT
  5
75
330
72
100
AcDbEntity
  8
0
  6
Continuous
 62
     7
100
AcDbBlockReference
  2
_OPEN30
 10
-302.4336853027344
 20
105.3186111450195
 30
0.0
 50
270.0000000000005
  0
INSERT
  5
76
330
72
100
AcDbEntity
  8
0
  6
Continuous
 62
     7
100
AcDbBlockReference
  2
_OPEN30
 10
-302.4336853027344
 20
248.318603515625
 30
0.0
 50
90.00000000000019
  0
LINE
  5
77
330
72
100
AcDbEntity
  8
0
  6
Continuous
 62
     7
100
AcDbLine
 10
-333.2470178222656
 20
105.3186111450195
 30
0.0
 11
-300.1476745605469
 21
105.3186111450195
 31
0.0
  0
LINE
  5
78
330
72
100
AcDbEntity
  8
0
  6
Continuous
 62
     7
100
AcDbLine
 10
-373.2470178222656
 20
248.318603515625
 30
0.0
 11
-300.1476745605469
 21
248.318603515625
 31
0.0
  0
TEXT
  5
79
330
72
100
AcDbEntity
  8
0
  6
Continuous
 62
     7
100
AcDbText
 10
-303.1836844691582
 20
157.7486027151337
 30
0.0
 40
3.0
  1
１４３　（１３５～１５０）
 50
90.00000250447815
 41
0.8434321120058422
100
AcDbText
  0
POINT
  5
7A
330
72
100
AcDbEntity
  8
DEFPOINTS
  6
Continuous
 62
     7
100
AcDbPoint
 10
-335.7870178222656
 20
105.3186111450195
 30
0.0
  0
POINT
  5
7B
330
72
100
AcDbEntity
  8
DEFPOINTS
  6
Continuous
 62
     7
100
AcDbPoint
 10
-375.7870178222656
 20
248.318603515625
 30
0.0
  0
POINT
  5
7C
330
72
100
AcDbEntity
  8
DEFPOINTS
  6
Continuous
 62
     7
100
AcDbPoint
 10
-302.4336853027344
 20
248.318603515625
 30
0.0
  0
ENDBLK
  5
7D
330
72
100
AcDbEntity
  8
0
100
AcDbBlockEnd
  0
BLOCK
  5
7F
330
7E
100
AcDbEntity
  8
0
100
AcDbBlockBegin
  2
*D7
 70
     1
 10
0.0
 20
0.0
 30
0.0
  3
*D7
  1

  0
LINE
  5
80
330
7E
100
AcDbEntity
  8
0
  6
Continuous
 62
     7
100
AcDbLine
 10
-302.4336853027344
 20
102.3186111450195
 30
0.0
 11
-302.4336853027344
 21
90.96394348144531
 31
0.0
  0
LINE
  5
81
330
7E
100
AcDbEntity
  8
0
  6
Continuous
 62
     7
100
AcDbLine
 10
-302.4336853027344
 20
105.3186111450195
 30
0.0
 11
-302.4336853027344
 21
102.3186111450195
 31
0.0
  0
INSERT
  5
82
330
7E
100
AcDbEntity
  8
0
  6
Continuous
 62
     7
100
AcDbBlockReference
  2
_OPEN30
 10
-302.4336853027344
 20
105.3186111450195
 30
0.0
 50
270.0000000000002
  0
LINE
  5
83
330
7E
100
AcDbEntity
  8
0
  6
Continuous
 62
     7
100
AcDbLine
 10
-302.4336853027344
 20
108.3186111450195
 30
0.0
 11
-302.4336853027344
 21
111.6686111450195
 31
0.0
  0
INSERT
  5
84
330
7E
100
AcDbEntity
  8
0
  6
Continuous
 62
     7
100
AcDbBlockReference
  2
_OPEN30
 10
-302.4336853027344
 20
102.3186111450195
 30
0.0
 50
90.00000000000049
  0
LINE
  5
85
330
7E
100
AcDbEntity
  8
0
  6
Continuous
 62
     7
100
AcDbLine
 10
-302.4336853027344
 20
99.31861114501952
 30
0.0
 11
-302.4336853027343
 21
95.96861114501955
 31
0.0
  0
LINE
  5
86
330
7E
100
AcDbEntity
  8
0
  6
Continuous
 62
     7
100
AcDbLine
 10
-333.2470178222656
 20
102.3186111450195
 30
0.0
 11
-300.1476745605469
 21
102.3186111450195
 31
0.0
  0
TEXT
  5
87
330
7E
100
AcDbEntity
  8
0
  6
Continuous
 62
     7
100
AcDbText
 10
-303.1836852559631
 20
90.9639430910339
 30
0.0
 40
3.0
  1
3
 50
90.00000250447815
100
AcDbText
  0
POINT
  5
88
330
7E
100
AcDbEntity
  8
DEFPOINTS
  6
Continuous
 62
     7
100
AcDbPoint
 10
-300.1476745605469
 20
105.3186111450195
 30
0.0
  0
POINT
  5
89
330
7E
100
AcDbEntity
  8
DEFPOINTS
  6
Continuous
 62
     7
100
AcDbPoint
 10
-335.7870178222656
 20
102.3186111450195
 30
0.0
  0
POINT
  5
8A
330
7E
100
AcDbEntity
  8
DEFPOINTS
  6
Continuous
 62
     7
100
AcDbPoint
 10
-302.4336853027344
 20
102.3186111450195
 30
0.0
  0
ENDBLK
  5
8B
330
7E
100
AcDbEntity
  8
0
100
AcDbBlockEnd
  0
BLOCK
  5
8D
330
8C
100
AcDbEntity
  8
0
100
AcDbBlockBegin
  2
*D8
 70
     1
 10
0.0
 20
0.0
 30
0.0
  3
*D8
  1

  0
LINE
  5
8E
330
8C
100
AcDbEntity
  8
0
  6
Continuous
 62
     7
100
AcDbLine
 10
-314.7689208984375
 20
108.3186111450195
 30
0.0
 11
-314.7689208984375
 21
132.318603515625
 31
0.0
  0
INSERT
  5
8F
330
8C
100
AcDbEntity
  8
0
  6
Continuous
 62
     7
100
AcDbBlockReference
  2
_OPEN30
 10
-314.7689208984375
 20
105.3186111450195
 30
0.0
 50
270.0000000000005
  0
INSERT
  5
90
330
8C
100
AcDbEntity
  8
0
  6
Continuous
 62
     7
100
AcDbBlockReference
  2
_OPEN30
 10
-314.7689208984375
 20
135.318603515625
 30
0.0
 50
90.00000000000019
  0
LINE
  5
91
330
8C
100
AcDbEntity
  8
0
  6
Continuous
 62
     7
100
AcDbLine
 10
-382.7470178222656
 20
135.318603515625
 30
0.0
 11
-312.48291015625
 21
135.318603515625
 31
0.0
  0
TEXT
  5
92
330
8C
100
AcDbEntity
  8
0
  6
Continuous
 62
     7
100
AcDbText
 10
-315.5189207860992
 20
117.7486110001793
 30
0.0
 40
3.0
  1
30
 50
90.00000250447815
 41
1.101428593908038
100
AcDbText
  0
POINT
  5
93
330
8C
100
AcDbEntity
  8
DEFPOINTS
  6
Continuous
 62
     7
100
AcDbPoint
 10
-300.1476745605469
 20
105.3186111450195
 30
0.0
  0
POINT
  5
94
330
8C
100
AcDbEntity
  8
DEFPOINTS
  6
Continuous
 62
     7
100
AcDbPoint
 10
-385.2870178222656
 20
135.318603515625
 30
0.0
  0
POINT
  5
95
330
8C
100
AcDbEntity
  8
DEFPOINTS
  6
Continuous
 62
     7
100
AcDbPoint
 10
-314.7689208984375
 20
135.318603515625
 30
0.0
  0
ENDBLK
  5
96
330
8C
100
AcDbEntity
  8
0
100
AcDbBlockEnd
  0
BLOCK
  5
98
330
97
100
AcDbEntity
  8
0
100
AcDbBlockBegin
  2
*D9
 70
     1
 10
0.0
 20
0.0
 30
0.0
  3
*D9
  1

  0
LINE
  5
99
330
97
100
AcDbEntity
  8
0
  6
Continuous
 62
     7
100
AcDbLine
 10
-314.7689208984375
 20
245.318603515625
 30
0.0
 11
-314.7689208984375
 21
197.318603515625
 31
0.0
  0
INSERT
  5
9A
330
97
100
AcDbEntity
  8
0
  6
Continuous
 62
     7
100
AcDbBlockReference
  2
_OPEN30
 10
-314.7689208984375
 20
248.318603515625
 30
0.0
 50
90.00000000000019
  0
INSERT
  5
9B
330
97
100
AcDbEntity
  8
0
  6
Continuous
 62
     7
100
AcDbBlockReference
  2
_OPEN30
 10
-314.7689208984375
 20
194.318603515625
 30
0.0
 50
270.0000000000005
  0
LINE
  5
9C
330
97
100
AcDbEntity
  8
0
  6
Continuous
 62
     7
100
AcDbLine
 10
-376.7470178222656
 20
194.318603515625
 30
0.0
 11
-312.48291015625
 21
194.318603515625
 31
0.0
  0
TEXT
  5
9D
330
97
100
AcDbEntity
  8
0
  6
Continuous
 62
     7
100
AcDbText
 10
-315.5189207860992
 20
218.7486033707847
 30
0.0
 40
3.0
  1
54
 50
90.00000250447815
 41
1.028000020980834
100
AcDbText
  0
POINT
  5
9E
330
97
100
AcDbEntity
  8
DEFPOINTS
  6
Continuous
 62
     7
100
AcDbPoint
 10
-300.1476745605469
 20
248.318603515625
 30
0.0
  0
POINT
  5
9F
330
97
100
AcDbEntity
  8
DEFPOINTS
  6
Continuous
 62
     7
100
AcDbPoint
 10
-379.2870178222656
 20
194.318603515625
 30
0.0
  0
POINT
  5
A0
330
97
100
AcDbEntity
  8
DEFPOINTS
  6
Continuous
 62
     7
100
AcDbPoint
 10
-314.7689208984375
 20
194.318603515625
 30
0.0
  0
ENDBLK
  5
A1
330
97
100
AcDbEntity
  8
0
100
AcDbBlockEnd
  0
BLOCK
  5
A3
330
A2
100
AcDbEntity
  8
0
100
AcDbBlockBegin
  2
*D10
 70
     1
 10
0.0
 20
0.0
 30
0.0
  3
*D10
  1

  0
LINE
  5
A4
330
A2
100
AcDbEntity
  8
0
  6
Continuous
 62
     7
100
AcDbLine
 10
-401.8214416503906
 20
115.3186111450195
 30
0.0
 11
-401.8214416503906
 21
209.318603515625
 31
0.0
  0
INSERT
  5
A5
330
A2
100
AcDbEntity
  8
0
  6
Continuous
 62
     7
100
AcDbBlockReference
  2
_OPEN30
 10
-401.8214416503906
 20
112.3186111450195
 30
0.0
 50
270.0000000000005
  0
INSERT
  5
A6
330
A2
100
AcDbEntity
  8
0
  6
Continuous
 62
     7
100
AcDbBlockReference
  2
_OPEN30
 10
-401.8214416503906
 20
212.318603515625
 30
0.0
 50
90.00000000000019
  0
TEXT
  5
A7
330
A2
100
AcDbEntity
  8
0
  6
Continuous
 62
     7
100
AcDbText
 10
-402.5714414724852
 20
158.2486033111801
 30
0.0
 40
3.0
  1
100
 50
90.00000250447815
 41
1.320000017011488
100
AcDbText
  0
POINT
  5
A8
330
A2
100
AcDbEntity
  8
DEFPOINTS
  6
Continuous
 62
     7
100
AcDbPoint
 10
-390.6720275878906
 20
112.3186111450195
 30
0.0
  0
POINT
  5
A9
330
A2
100
AcDbEntity
  8
DEFPOINTS
  6
Continuous
 62
     7
100
AcDbPoint
 10
-404.2399597167968
 20
212.318603515625
 30
0.0
  0
POINT
  5
AA
330
A2
100
AcDbEntity
  8
DEFPOINTS
  6
Continuous
 62
     7
100
AcDbPoint
 10
-401.8214416503906
 20
212.318603515625
 30
0.0
  0
ENDBLK
  5
AB
330
A2
100
AcDbEntity
  8
0
100
AcDbBlockEnd
  0
BLOCK
  5
AD
330
AC
100
AcDbEntity
  8
0
100
AcDbBlockBegin
  2
*D11
 70
     1
 10
0.0
 20
0.0
 30
0.0
  3
*D11
  1

  0
LINE
  5
AE
330
AC
100
AcDbEntity
  8
0
  6
Continuous
 62
     7
100
AcDbLine
 10
-465.2870178222656
 20
39.80548477172852
 30
0.0
 11
-388.2870178222656
 21
39.80548477172849
 31
0.0
  0
INSERT
  5
AF
330
AC
100
AcDbEntity
  8
0
  6
Continuous
 62
     7
100
AcDbBlockReference
  2
_OPEN30
 10
-468.2870178222656
 20
39.80548477172852
 30
0.0
 50
180.0000000000004
  0
INSERT
  5
B0
330
AC
100
AcDbEntity
  8
0
  6
Continuous
 62
     7
100
AcDbBlockReference
  2
_OPEN30
 10
-385.2870178222656
 20
39.80548477172852
 30
0.0
  0
LINE
  5
B1
330
AC
100
AcDbEntity
  8
0
  6
Continuous
 62
     7
100
AcDbLine
 10
-468.2870178222656
 20
59.77861114501953
 30
0.0
 11
-468.2870178222656
 21
37.51948547363281
 31
0.0
  0
LINE
  5
B2
330
AC
100
AcDbEntity
  8
0
  6
Continuous
 62
     7
100
AcDbLine
 10
-385.2870178222656
 20
59.77861114501953
 30
0.0
 11
-385.2870178222656
 21
37.51948547363281
 31
0.0
  0
TEXT
  5
B3
330
AC
100
AcDbEntity
  8
0
  6
Continuous
 62
     7
100
AcDbText
 10
-430.857017993927
 20
40.55548477172852
 30
0.0
 40
3.0
  1
%%C83
 41
0.9498249830693319
100
AcDbText
  0
POINT
  5
B4
330
AC
100
AcDbEntity
  8
DEFPOINTS
  6
Continuous
 62
     7
100
AcDbPoint
 10
-468.2870178222656
 20
62.31861114501953
 30
0.0
  0
POINT
  5
B5
330
AC
100
AcDbEntity
  8
DEFPOINTS
  6
Continuous
 62
     7
100
AcDbPoint
 10
-385.2870178222656
 20
62.31861114501953
 30
0.0
  0
POINT
  5
B6
330
AC
100
AcDbEntity
  8
DEFPOINTS
  6
Continuous
 62
     7
100
AcDbPoint
 10
-385.2870178222656
 20
39.80548477172852
 30
0.0
  0
ENDBLK
  5
B7
330
AC
100
AcDbEntity
  8
0
100
AcDbBlockEnd
  0
BLOCK
  5
B9
330
B8
100
AcDbEntity
  8
0
100
AcDbBlockBegin
  2
*D12
 70
     1
 10
0.0
 20
0.0
 30
0.0
  3
*D12
  1

  0
LINE
  5
BA
330
B8
100
AcDbEntity
  8
0
  6
Continuous
 62
     7
100
AcDbLine
 10
-531.4981689453125
 20
65.31861114501953
 30
0.0
 11
-531.4981689453125
 21
132.318603515625
 31
0.0
  0
INSERT
  5
BB
330
B8
100
AcDbEntity
  8
0
  6
Continuous
 62
     7
100
AcDbBlockReference
  2
_OPEN30
 10
-531.4981689453125
 20
62.31861114501953
 30
0.0
 50
270.0000000000005
  0
INSERT
  5
BC
330
B8
100
AcDbEntity
  8
0
  6
Continuous
 62
     7
100
AcDbBlockReference
  2
_OPEN30
 10
-531.4981689453125
 20
135.318603515625
 30
0.0
 50
90.00000000000019
  0
LINE
  5
BD
330
B8
100
AcDbEntity
  8
0
  6
Continuous
 62
     7
100
AcDbLine
 10
-470.8270178222656
 20
62.31861114501953
 30
0.0
 11
-533.7841796874999
 21
62.31861114501953
 31
0.0
  0
LINE
  5
BE
330
B8
100
AcDbEntity
  8
0
  6
Continuous
 62
     7
100
AcDbLine
 10
-470.8270178222656
 20
135.318603515625
 30
0.0
 11
-533.7841796874999
 21
135.318603515625
 31
0.0
  0
TEXT
  5
BF
330
B8
100
AcDbEntity
  8
0
  6
Continuous
 62
     7
100
AcDbText
 10
-532.2481688329742
 20
96.24861100017923
 30
0.0
 40
3.0
  1
73
 50
90.00000250447815
 41
1.028000020980834
100
AcDbText
  0
POINT
  5
C0
330
B8
100
AcDbEntity
  8
DEFPOINTS
  6
Continuous
 62
     7
100
AcDbPoint
 10
-468.2870178222656
 20
62.31861114501953
 30
0.0
  0
POINT
  5
C1
330
B8
100
AcDbEntity
  8
DEFPOINTS
  6
Continuous
 62
     7
100
AcDbPoint
 10
-468.2870178222656
 20
135.318603515625
 30
0.0
  0
POINT
  5
C2
330
B8
100
AcDbEntity
  8
DEFPOINTS
  6
Continuous
 62
     7
100
AcDbPoint
 10
-531.4981689453125
 20
135.318603515625
 30
0.0
  0
ENDBLK
  5
C3
330
B8
100
AcDbEntity
  8
0
100
AcDbBlockEnd
  0
BLOCK
  5
C5
330
C4
100
AcDbEntity
  8
0
100
AcDbBlockBegin
  2
KOZU0001
 70
     0
 10
0.0
 20
0.0
 30
0.0
  3
KOZU0001
  1

  0
LINE
  5
C6
330
C4
100
AcDbEntity
  8
0
  6
Continuous
 62
     7
100
AcDbLine
 10
0.0
 20
0.0
 30
0.0
 11
13.1790771484375
 21
19.25119018554688
 31
0.0
  0
LINE
  5
C7
330
C4
100
AcDbEntity
  8
0
  6
Continuous
 62
     7
100
AcDbLine
 10
13.1790771484375
 20
19.25119018554688
 30
0.0
 11
35.72930908203125
 21
19.25119018554688
 31
0.0
  0
LINE
  5
C8
330
C4
100
AcDbEntity
  8
0
  6
Continuous
 62
     7
100
AcDbLine
 10
0.0
 20
0.0
 30
0.0
 11
0.8695199971039556
 21
3.040384017626118
 31
0.0
  0
LINE
  5
C9
330
C4
100
AcDbEntity
  8
0
  6
Continuous
 62
     7
100
AcDbLine
 10
0.0
 20
0.0
 30
0.0
 11
2.519846408258834
 21
1.910595215838521
 31
0.0
  0
TEXT
  5
CA
330
C4
100
AcDbEntity
  8
0
  6
Continuous
 62
     7
100
AcDbText
 10
16.86930775642395
 20
20.00119018554688
 30
0.0
 40
3.0
  1
３－Ｍ５皿穴
 41
0.8472565548642696
100
AcDbText
  0
ENDBLK
  5
CB
330
C4
100
AcDbEntity
  8
0
100
AcDbBlockEnd
  0
BLOCK
  5
CD
330
CC
100
AcDbEntity
  8
0
100
AcDbBlockBegin
  2
KOZU0002
 70
     0
 10
0.0
 20
0.0
 30
0.0
  3
KOZU0002
  1

  0
LINE
  5
CE
330
CC
100
AcDbEntity
  8
0
  6
Continuous
 62
     7
100
AcDbLine
 10
0.0
 20
0.0
 30
0.0
 11
28.77133178710938
 21
-20.80649185180664
 31
0.0
  0
LINE
  5
CF
330
CC
100
AcDbEntity
  8
0
  6
Continuous
 62
     7
100
AcDbLine
 10
28.77133178710938
 20
-20.80649185180664
 30
0.0
 11
68.13418579101564
 21
-20.80649185180664
 31
0.0
  0
LINE
  5
D0
330
CC
100
AcDbEntity
  8
0
  6
Continuous
 62
     7
100
AcDbLine
 10
0.0
 20
0.0
 30
0.0
 11
3.016940364277051
 21
-0.9476659951669972
 31
0.0
  0
LINE
  5
D1
330
CC
100
AcDbEntity
  8
0
  6
Continuous
 62
     7
100
AcDbLine
 10
0.0
 20
0.0
 30
0.0
 11
1.844952694321443
 21
-2.568297014699827
 31
0.0
  0
TEXT
  5
D2
330
CC
100
AcDbEntity
  8
0
  6
Continuous
 62
     7
100
AcDbText
 10
31.27418446540833
 20
-20.05649185180664
 30
0.0
 40
3.0
  1
配管接続口
 41
0.8487395020950888
100
AcDbText
  0
TEXT
  5
D3
330
CC
100
AcDbEntity
  8
0
  6
Continuous
 62
     7
100
AcDbText
 10
31.27418446540833
 20
-25.32149185180664
 30
0.0
 40
3.0
  1
Ｒｃ２　１／２（６５Ａ）
 41
0.8436974815103043
100
AcDbText
  0
ENDBLK
  5
D4
330
CC
100
AcDbEntity
  8
0
100
AcDbBlockEnd
  0
ENDSEC
  0
SECTION
  2
ENTITIES
  0
LINE
  5
D5
330
22
100
AcDbEntity
  8
0
  6
CENTER
 62
     7
100
AcDbLine
 10
-471.6139526367188
 20
509.9230651855468
 30
0.0
 11
-462.1771545410156
 21
493.5780944824219
 31
0.0
  0
LINE
  5
D6
330
22
100
AcDbEntity
  8
0
  6
CENTER
 62
     7
100
AcDbLine
 10
-470.8333740234374
 20
356.066162109375
 30
0.0
 11
-462.7771301269531
 21
370.0199584960938
 31
0.0
  0
LINE
  5
D7
330
22
100
AcDbEntity
  8
0
  6
CENTER
 62
     7
100
AcDbLine
 10
-524.37353515625
 20
432.318603515625
 30
0.0
 11
-330.8179931640625
 21
432.318603515625
 31
0.0
  0
LINE
  5
D8
330
22
100
AcDbEntity
  8
0
  6
Continuous
 62
     7
100
AcDbLine
 10
-435.3252563476563
 20
435.4826660156249
 30
0.0
 11
-431.3264770507813
 21
435.888427734375
 31
0.0
  0
LINE
  5
D9
330
22
100
AcDbEntity
  8
0
  6
Continuous
 62
     7
100
AcDbLine
 10
-421.3255310058594
 20
429.3186035156249
 30
0.0
 11
-423.8255310058593
 21
429.3186035156249
 31
0.0
  0
LINE
  5
DA
330
22
100
AcDbEntity
  8
0
  6
Continuous
 62
     7
100
AcDbLine
 10
-424.0803527832031
 20
435.6312561035156
 30
0.0
 11
-420.4322204589844
 21
435.5232849121093
 31
0.0
  0
LINE
  5
DB
330
22
100
AcDbEntity
  8
0
  6
CENTER
 62
     7
100
AcDbLine
 10
-426.8089904785155
 20
526.376953125
 30
0.0
 11
-426.8089904785155
 21
336.7168884277344
 31
0.0
  0
LINE
  5
DC
330
22
100
AcDbEntity
  8
0
  6
Continuous
 62
     7
100
AcDbLine
 10
-435.140380859375
 20
429.47607421875
 30
0.0
 11
-431.8255310058593
 21
429.3186035156249
 31
0.0
  0
LINE
  5
DD
330
22
100
AcDbEntity
  8
0
  6
Continuous
 62
     7
100
AcDbLine
 10
-339.5076293945313
 20
105.3186111450195
 30
0.0
 11
-336.5076293945313
 21
102.3186111450195
 31
0.0
  0
LINE
  5
DE
330
22
100
AcDbEntity
  8
0
  6
Continuous
 62
     7
100
AcDbLine
 10
-341.9153442382813
 20
104.190788269043
 30
0.0
 11
-340.0431823730469
 21
102.3186111450195
 31
0.0
  0
LINE
  5
DF
330
22
100
AcDbEntity
  8
0
  6
Continuous
 62
     7
100
AcDbLine
 10
-336.67919921875
 20
105.3186111450195
 30
0.0
 11
-335.7870178222656
 21
104.4264221191406
 31
0.0
  0
LINE
  5
E0
330
22
100
AcDbEntity
  8
0
  6
Continuous
 62
     7
100
AcDbLine
 10
-426.7870178222656
 20
217.4270324707031
 30
0.0
 11
-417.8954467773437
 21
226.318603515625
 31
0.0
  0
LINE
  5
E1
330
22
100
AcDbEntity
  8
0
  6
Continuous
 62
     7
100
AcDbLine
 10
-415.7007446289062
 20
228.5133209228516
 30
0.0
 11
-411.3619995117188
 21
232.85205078125
 31
0.0
  0
LINE
  5
E2
330
22
100
AcDbEntity
  8
0
  6
Continuous
 62
     7
100
AcDbLine
 10
-426.7870178222656
 20
220.2554626464844
 30
0.0
 11
-420.7238769531249
 21
226.318603515625
 31
0.0
  0
LINE
  5
E3
330
22
100
AcDbEntity
  8
0
  6
Continuous
 62
     7
100
AcDbLine
 10
-415.7007446289062
 20
231.3417510986328
 30
0.0
 11
-409.0669555664063
 21
237.9755401611328
 31
0.0
  0
LINE
  5
E4
330
22
100
AcDbEntity
  8
0
  6
Continuous
 62
     7
100
AcDbLine
 10
-426.7870178222656
 20
223.0838775634766
 30
0.0
 11
-423.5523071289063
 21
226.318603515625
 31
0.0
  0
LINE
  5
E5
330
22
100
AcDbEntity
  8
0
  6
Continuous
 62
     7
100
AcDbLine
 10
-415.7007446289062
 20
234.1701812744141
 30
0.0
 11
-409.0523071289062
 21
240.818603515625
 31
0.0
  0
LINE
  5
E6
330
22
100
AcDbEntity
  8
0
  6
Continuous
 62
     7
100
AcDbLine
 10
-426.7870178222656
 20
225.9123077392578
 30
0.0
 11
-426.3807373046875
 21
226.318603515625
 31
0.0
  0
LINE
  5
E7
330
22
100
AcDbEntity
  8
0
  6
Continuous
 62
     7
100
AcDbLine
 10
-415.7007446289062
 20
236.9986114501953
 30
0.0
 11
-411.3619995117188
 21
241.3373413085938
 31
0.0
  0
LINE
  5
E8
330
22
100
AcDbEntity
  8
0
  6
Continuous
 62
     7
100
AcDbLine
 10
-406.3807373046874
 20
246.318603515625
 30
0.0
 11
-406.2870178222656
 21
246.4123077392578
 31
0.0
  0
LINE
  5
E9
330
22
100
AcDbEntity
  8
0
  6
Continuous
 62
     7
100
AcDbLine
 10
-415.7007446289062
 20
239.8270263671875
 30
0.0
 11
-411.3619995117188
 21
244.1657562255859
 31
0.0
  0
LINE
  5
EA
330
22
100
AcDbEntity
  8
0
  6
Continuous
 62
     7
100
AcDbLine
 10
-411.2091674804688
 20
244.318603515625
 30
0.0
 11
-407.2091674804688
 21
248.318603515625
 31
0.0
  0
LINE
  5
EB
330
22
100
AcDbEntity
  8
0
  6
Continuous
 62
     7
100
AcDbLine
 10
-415.7007446289062
 20
242.6554565429688
 30
0.0
 11
-410.0375671386719
 21
248.318603515625
 31
0.0
  0
LINE
  5
EC
330
22
100
AcDbEntity
  8
0
  6
Continuous
 62
     7
100
AcDbLine
 10
-416.8659973144531
 20
244.318603515625
 30
0.0
 11
-412.8659973144531
 21
248.318603515625
 31
0.0
  0
LINE
  5
ED
330
22
100
AcDbEntity
  8
0
  6
Continuous
 62
     7
100
AcDbLine
 10
-417.3870239257813
 20
246.6260223388672
 30
0.0
 11
-415.6944274902343
 21
248.318603515625
 31
0.0
  0
LINE
  5
EE
330
22
100
AcDbEntity
  8
0
  6
Continuous
 62
     7
100
AcDbLine
 10
-405.2399597167968
 20
214.3626861572266
 30
0.0
 11
-405.2399597167968
 21
210.3626861572266
 31
0.0
  0
LINE
  5
EF
330
22
100
AcDbEntity
  8
0
  6
Continuous
 62
     7
100
AcDbLine
 10
-406.2870178222656
 20
246.318603515625
 30
0.0
 11
-408.2870178222655
 21
246.318603515625
 31
0.0
  0
LINE
  5
F0
330
22
100
AcDbEntity
  8
0
  6
Continuous
 62
     7
100
AcDbLine
 10
-406.2870178222656
 20
248.318603515625
 30
0.0
 11
-406.2870178222656
 21
246.318603515625
 31
0.0
  0
LINE
  5
F1
330
22
100
AcDbEntity
  8
0
  6
Continuous
 62
     7
100
AcDbLine
 10
-395.3390808105469
 20
233.318603515625
 30
0.0
 11
-394.6380310058594
 21
234.0196838378906
 31
0.0
  0
LINE
  5
F2
330
22
100
AcDbEntity
  8
0
  6
Continuous
 62
     7
100
AcDbLine
 10
-396.7532958984375
 20
233.318603515625
 30
0.0
 11
-394.50244140625
 21
235.5694885253906
 31
0.0
  0
LINE
  5
F3
330
22
100
AcDbEntity
  8
0
  6
Continuous
 62
     7
100
AcDbLine
 10
-398.1675109863281
 20
233.318603515625
 30
0.0
 11
-394.3668212890625
 21
237.1192932128906
 31
0.0
  0
LINE
  5
F4
330
22
100
AcDbEntity
  8
0
  6
Continuous
 62
     7
100
AcDbLine
 10
-400.9959411621093
 20
233.318603515625
 30
0.0
 11
-394.0956420898438
 21
240.2189025878906
 31
0.0
  0
LINE
  5
F5
330
22
100
AcDbEntity
  8
0
  6
Continuous
 62
     7
100
AcDbLine
 10
-402.41015625
 20
233.318603515625
 30
0.0
 11
-393.9600524902344
 21
241.7687072753906
 31
0.0
  0
LINE
  5
F6
330
22
100
AcDbEntity
  8
0
  6
Continuous
 62
     7
100
AcDbLine
 10
-403.8243713378906
 20
233.318603515625
 30
0.0
 11
-395.0243835449219
 21
242.1186065673828
 31
0.0
  0
LINE
  5
F7
330
22
100
AcDbEntity
  8
0
  6
Continuous
 62
     7
100
AcDbLine
 10
-406.6528015136718
 20
233.318603515625
 30
0.0
 11
-396.2870178222656
 21
243.6843872070313
 31
0.0
  0
LINE
  5
F8
330
22
100
AcDbEntity
  8
0
  6
Continuous
 62
     7
100
AcDbLine
 10
-394.6528015136719
 20
245.318603515625
 30
0.0
 11
-393.5532836914063
 21
246.4181213378906
 31
0.0
  0
LINE
  5
F9
330
22
100
AcDbEntity
  8
0
  6
Continuous
 62
     7
100
AcDbLine
 10
-408.0670166015624
 20
233.318603515625
 30
0.0
 11
-396.2870178222656
 21
245.0986022949219
 31
0.0
  0
LINE
  5
FA
330
22
100
AcDbEntity
  8
0
  6
Continuous
 62
     7
100
AcDbLine
 10
-396.0670166015625
 20
245.318603515625
 30
0.0
 11
-393.4176940917969
 21
247.9679260253906
 31
0.0
  0
LINE
  5
FB
330
22
100
AcDbEntity
  8
0
  6
Continuous
 62
     7
100
AcDbLine
 10
-409.4737243652343
 20
233.3261260986328
 30
0.0
 11
-394.4812316894531
 21
248.318603515625
 31
0.0
  0
LINE
  5
FC
330
22
100
AcDbEntity
  8
0
  6
Continuous
 62
     7
100
AcDbLine
 10
-409.1477355957031
 20
236.4805297851563
 30
0.0
 11
-397.3096618652344
 21
248.318603515625
 31
0.0
  0
LINE
  5
FD
330
22
100
AcDbEntity
  8
0
  6
Continuous
 62
     7
100
AcDbLine
 10
-409.0121459960938
 20
238.0303192138672
 30
0.0
 11
-398.723876953125
 21
248.318603515625
 31
0.0
  0
LINE
  5
FE
330
22
100
AcDbEntity
  8
0
  6
Continuous
 62
     7
100
AcDbLine
 10
-408.8765563964844
 20
239.5801239013672
 30
0.0
 11
-400.1380920410156
 21
248.318603515625
 31
0.0
  0
LINE
  5
FF
330
22
100
AcDbEntity
  8
0
  6
Continuous
 62
     7
100
AcDbLine
 10
-408.660186767578
 20
242.6249389648438
 30
0.0
 11
-402.9665222167968
 21
248.318603515625
 31
0.0
  0
LINE
  5
100
330
22
100
AcDbEntity
  8
0
  6
Continuous
 62
     7
100
AcDbLine
 10
-408.5009460449218
 20
244.1983795166016
 30
0.0
 11
-406.3807373046874
 21
246.318603515625
 31
0.0
  0
LINE
  5
101
330
22
100
AcDbEntity
  8
0
  6
Continuous
 62
     7
100
AcDbLine
 10
-406.18701171875
 20
246.5123138427734
 30
0.0
 11
-404.3807373046875
 21
248.318603515625
 31
0.0
  0
LINE
  5
102
330
22
100
AcDbEntity
  8
0
  6
Continuous
 62
     7
100
AcDbLine
 10
-408.3341979980469
 20
245.7793426513672
 30
0.0
 11
-407.7949523925781
 21
246.318603515625
 31
0.0
  0
LINE
  5
103
330
22
100
AcDbEntity
  8
0
  6
Continuous
 62
     7
100
AcDbLine
 10
-406.18701171875
 20
247.9265289306641
 30
0.0
 11
-405.7949523925781
 21
248.318603515625
 31
0.0
  0
LINE
  5
104
330
22
100
AcDbEntity
  8
0
  6
Continuous
 62
     7
100
AcDbLine
 10
-390.5526123046875
 20
100.3186111450195
 30
0.0
 11
-426.7870178222656
 21
100.3186111450195
 31
0.0
  0
LINE
  5
105
330
22
100
AcDbEntity
  8
0
  6
Continuous
 62
     7
100
AcDbLine
 10
-388.6526184082031
 20
102.2186126708984
 30
0.0
 11
-426.7870178222656
 21
102.2186126708984
 31
0.0
  0
LINE
  5
106
330
22
100
AcDbEntity
  8
0
  6
Continuous
 62
     7
100
AcDbLine
 10
-390.6126708984375
 20
64.21083831787109
 30
0.0
 11
-426.7870178222656
 21
64.21083831787109
 31
0.0
  0
LINE
  5
107
330
22
100
AcDbEntity
  8
0
  6
Continuous
 62
     7
100
AcDbLine
 10
-389.4257202148438
 20
87.05635833740235
 30
0.0
 11
-426.7870178222656
 21
87.05635833740235
 31
0.0
  0
LINE
  5
108
330
22
100
AcDbEntity
  8
0
  6
Continuous
 62
     7
100
AcDbLine
 10
-390.6720275878906
 20
112.3186111450195
 30
0.0
 11
-426.7870178222656
 21
112.3186111450195
 31
0.0
  0
LINE
  5
109
330
22
100
AcDbEntity
  8
0
  6
Continuous
 62
     7
100
AcDbLine
 10
-411.3619995117188
 20
223.318603515625
 30
0.0
 11
-390.0933227539063
 21
223.318603515625
 31
0.0
  0
LINE
  5
10A
330
22
100
AcDbEntity
  8
0
  6
Continuous
 62
     7
100
AcDbLine
 10
-394.599365234375
 20
233.318603515625
 30
0.0
 11
-411.3619995117188
 21
233.318603515625
 31
0.0
  0
LINE
  5
10B
330
22
100
AcDbEntity
  8
0
  6
Continuous
 62
     7
100
AcDbLine
 10
-404.2399597167968
 20
214.3626861572266
 30
0.0
 11
-404.2399597167968
 21
210.3626861572266
 31
0.0
  0
LINE
  5
10C
330
22
100
AcDbEntity
  8
0
  6
Continuous
 62
     7
100
AcDbLine
 10
-391.0488586425781
 20
212.318603515625
 30
0.0
 11
-404.2399597167968
 21
212.318603515625
 31
0.0
  0
LINE
  5
10D
330
22
100
AcDbEntity
  8
0
  6
Continuous
 62
     7
100
AcDbLine
 10
-391.548583984375
 20
221.8633575439453
 30
0.0
 11
-411.3619995117188
 21
221.8633575439453
 31
0.0
  0
LINE
  5
10E
330
22
100
AcDbEntity
  8
0
  6
Continuous
 62
     7
100
AcDbLine
 10
-477.7870178222656
 20
248.318603515625
 30
0.0
 11
-477.7870178222656
 21
238.318603515625
 31
0.0
  0
LINE
  5
10F
330
22
100
AcDbEntity
  8
0
  6
Continuous
 62
     7
100
AcDbLine
 10
-415.7007446289062
 20
244.318603515625
 30
0.0
 11
-426.8870239257813
 21
244.318603515625
 31
0.0
  0
LINE
  5
110
330
22
100
AcDbEntity
  8
0
  6
Continuous
 62
     7
100
AcDbLine
 10
-411.3619995117188
 20
240.818603515625
 30
0.0
 11
-408.7682189941406
 21
240.818603515625
 31
0.0
  0
LINE
  5
111
330
22
100
AcDbEntity
  8
0
  6
Continuous
 62
     7
100
AcDbLine
 10
-408.4620056152344
 20
244.318603515625
 30
0.0
 11
-411.3619995117188
 21
244.318603515625
 31
0.0
  0
LINE
  5
112
330
22
100
AcDbEntity
  8
0
  6
Continuous
 62
     7
100
AcDbLine
 10
-415.7007446289062
 20
234.318603515625
 30
0.0
 11
-415.7007446289062
 21
226.318603515625
 31
0.0
  0
LINE
  5
113
330
22
100
AcDbEntity
  8
0
  6
Continuous
 62
     7
100
AcDbLine
 10
-411.3619995117188
 20
244.318603515625
 30
0.0
 11
-411.3619995117188
 21
240.818603515625
 31
0.0
  0
LINE
  5
114
330
22
100
AcDbEntity
  8
0
  6
Continuous
 62
     7
100
AcDbLine
 10
-421.8870239257813
 20
248.318603515625
 30
0.0
 11
-421.8870239257813
 21
244.318603515625
 31
0.0
  0
LINE
  5
115
330
22
100
AcDbEntity
  8
0
  6
Continuous
 62
     7
100
AcDbLine
 10
-417.3870239257813
 20
248.318603515625
 30
0.0
 11
-417.3870239257813
 21
244.318603515625
 31
0.0
  0
LINE
  5
116
330
22
100
AcDbEntity
  8
0
  6
Continuous
 62
     7
100
AcDbLine
 10
-408.3370361328125
 20
246.318603515625
 30
0.0
 11
-409.4743652343749
 21
233.318603515625
 31
0.0
  0
LINE
  5
117
330
22
100
AcDbEntity
  8
0
  6
Continuous
 62
     7
100
AcDbLine
 10
-409.1618957519531
 20
236.318603515625
 30
0.0
 11
-409.3619995117188
 21
236.318603515625
 31
0.0
  0
LINE
  5
118
330
22
100
AcDbEntity
  8
0
  6
Continuous
 62
     7
100
AcDbLine
 10
-415.7007446289062
 20
244.318603515625
 30
0.0
 11
-415.7007446289062
 21
226.1919708251953
 31
0.0
  0
LINE
  5
119
330
22
100
AcDbEntity
  8
0
  6
Continuous
 62
     7
100
AcDbLine
 10
-408.7682189941406
 20
240.818603515625
 30
0.0
 11
-409.1618957519531
 21
236.318603515625
 31
0.0
  0
LINE
  5
11A
330
22
100
AcDbEntity
  8
0
  6
Continuous
 62
     7
100
AcDbLine
 10
-477.7870178222656
 20
248.318603515625
 30
0.0
 11
-375.7870178222656
 21
248.318603515625
 31
0.0
  0
LINE
  5
11B
330
22
100
AcDbEntity
  8
0
  6
Continuous
 62
     7
100
AcDbLine
 10
-408.2870178222655
 20
246.318603515625
 30
0.0
 11
-408.4620056152344
 21
244.318603515625
 31
0.0
  0
LINE
  5
11C
330
22
100
AcDbEntity
  8
0
  6
Continuous
 62
     7
100
AcDbLine
 10
-411.3619995117188
 20
214.3626861572266
 30
0.0
 11
-404.2399597167968
 21
214.3626861572266
 31
0.0
  0
LINE
  5
11D
330
22
100
AcDbEntity
  8
0
  6
Continuous
 62
     7
100
AcDbLine
 10
-426.7870178222656
 20
102.3186111450195
 30
0.0
 11
-517.7870483398439
 21
102.3186111450195
 31
0.0
  0
LINE
  5
11E
330
22
100
AcDbEntity
  8
0
  6
Continuous
 62
     7
100
AcDbLine
 10
-426.7870178222656
 20
105.3186111450195
 30
0.0
 11
-517.7870483398439
 21
105.3186111450195
 31
0.0
  0
LINE
  5
11F
330
22
100
AcDbEntity
  8
0
  6
Continuous
 62
     7
100
AcDbLine
 10
-474.2870178222656
 20
194.318603515625
 30
0.0
 11
-426.8544006347656
 21
194.318603515625
 31
0.0
  0
LINE
  5
120
330
22
100
AcDbEntity
  8
0
  6
Continuous
 62
     7
100
AcDbLine
 10
-517.7870483398439
 20
102.3186111450195
 30
0.0
 11
-517.7870483398439
 21
105.3186111450195
 31
0.0
  0
LINE
  5
121
330
22
100
AcDbEntity
  8
0
  6
Continuous
 62
     7
100
AcDbLine
 10
-426.8870239257813
 20
226.318603515625
 30
0.0
 11
-415.5971069335937
 21
226.318603515625
 31
0.0
  0
LINE
  5
122
330
22
100
AcDbEntity
  8
0
  6
Continuous
 62
     7
100
AcDbLine
 10
-426.7870178222656
 20
135.318603515625
 30
0.0
 11
-468.2870178222656
 21
135.318603515625
 31
0.0
  0
LINE
  5
123
330
22
100
AcDbEntity
  8
0
  6
Continuous
 62
     7
100
AcDbLine
 10
-463.4083251953125
 20
184.0135955810547
 30
0.0
 11
-426.7870178222656
 21
184.0135955810547
 31
0.0
  0
LINE
  5
124
330
22
100
AcDbEntity
  8
0
  6
Continuous
 62
     7
100
AcDbLine
 10
-462.9020080566406
 20
170.2836151123047
 30
0.0
 11
-426.7870178222656
 21
170.2836151123047
 31
0.0
  0
LINE
  5
125
330
22
100
AcDbEntity
  8
0
  6
Continuous
 62
     7
100
AcDbLine
 10
-476.2870178222656
 20
238.318603515625
 30
0.0
 11
-426.7870178222656
 21
238.318603515625
 31
0.0
  0
LINE
  5
126
330
22
100
AcDbEntity
  8
0
  6
Continuous
 62
     7
100
AcDbLine
 10
-474.2870178222656
 20
194.318603515625
 30
0.0
 11
-474.2870178222656
 21
236.318603515625
 31
0.0
  0
LINE
  5
127
330
22
100
AcDbEntity
  8
0
  6
Continuous
 62
     7
100
AcDbLine
 10
-411.3619995117188
 20
234.318603515625
 30
0.0
 11
-411.3619995117188
 21
213.318603515625
 31
0.0
  0
LINE
  5
128
330
22
100
AcDbEntity
  8
0
  6
Continuous
 62
     7
100
AcDbLine
 10
-411.2399597167969
 20
214.3626861572266
 30
0.0
 11
-411.2399597167969
 21
210.3626861572266
 31
0.0
  0
LINE
  5
129
330
22
100
AcDbEntity
  8
0
  6
Continuous
 62
     7
100
AcDbLine
 10
-468.2870178222656
 20
135.318603515625
 30
0.0
 11
-468.2870178222656
 21
105.3186111450195
 31
0.0
  0
LINE
  5
12A
330
22
100
AcDbEntity
  8
0
  6
Continuous
 62
     7
100
AcDbLine
 10
-462.9020080566406
 20
135.318603515625
 30
0.0
 11
-462.9020080566406
 21
170.2836151123047
 31
0.0
  0
LINE
  5
12B
330
22
100
AcDbEntity
  8
0
  6
Continuous
 62
     7
100
AcDbLine
 10
-464.3770141601563
 20
135.318603515625
 30
0.0
 11
-464.3770141601563
 21
171.7586059570313
 31
0.0
  0
LINE
  5
12C
330
22
100
AcDbEntity
  8
0
  6
Continuous
 62
     7
100
AcDbLine
 10
-464.9370117187499
 20
172.318603515625
 30
0.0
 11
-462.9020080566406
 21
170.2836151123047
 31
0.0
  0
LINE
  5
12D
330
22
100
AcDbEntity
  8
0
  6
Continuous
 62
     7
100
AcDbLine
 10
-464.9370117187499
 20
182.318603515625
 30
0.0
 11
-464.9370117187499
 21
172.318603515625
 31
0.0
  0
LINE
  5
12E
330
22
100
AcDbEntity
  8
0
  6
Continuous
 62
     7
100
AcDbLine
 10
-464.9370117187499
 20
182.318603515625
 30
0.0
 11
-463.4083251953125
 21
184.0135955810547
 31
0.0
  0
LINE
  5
12F
330
22
100
AcDbEntity
  8
0
  6
Continuous
 62
     7
100
AcDbLine
 10
-464.5626220703125
 20
194.318603515625
 30
0.0
 11
-464.9370117187499
 21
182.318603515625
 31
0.0
  0
LINE
  5
130
330
22
100
AcDbEntity
  8
0
  6
Continuous
 62
     7
100
AcDbLine
 10
-463.0868225097656
 20
194.318603515625
 30
0.0
 11
-463.4083251953125
 21
184.0135955810547
 31
0.0
  0
LINE
  5
131
330
22
100
AcDbEntity
  8
0
  6
Continuous
 62
     7
100
AcDbLine
 10
-468.2870178222656
 20
102.3186111450195
 30
0.0
 11
-468.2870178222656
 21
62.31861114501953
 31
0.0
  0
LINE
  5
132
330
22
100
AcDbEntity
  8
0
  6
Continuous
 62
     7
100
AcDbLine
 10
-477.7870178222656
 20
238.318603515625
 30
0.0
 11
-476.2870178222656
 21
238.318603515625
 31
0.0
  0
LINE
  5
133
330
22
100
AcDbEntity
  8
0
  6
Continuous
 62
     7
100
AcDbLine
 10
-351.5026245117188
 20
105.3186111450195
 30
0.0
 11
-352.5026245117188
 21
104.3186111450195
 31
0.0
  0
LINE
  5
134
330
22
100
AcDbEntity
  8
0
  6
Continuous
 62
     7
100
AcDbLine
 10
-350.7870178222656
 20
105.3191146850586
 30
0.0
 11
-348.5370178222656
 21
103.0691146850586
 31
0.0
  0
LINE
  5
135
330
22
100
AcDbEntity
  8
0
  6
CENTER
 62
     7
100
AcDbLine
 10
-345.7870178222656
 20
106.5013961791992
 30
0.0
 11
-345.7870178222656
 21
101.0716857910155
 31
0.0
  0
LINE
  5
136
330
22
100
AcDbEntity
  8
0
  6
Continuous
 62
     7
100
AcDbLine
 10
-340.7870178222656
 20
105.3191146850586
 30
0.0
 11
-343.0370178222656
 21
103.0691146850586
 31
0.0
  0
LINE
  5
137
330
22
100
AcDbEntity
  8
0
  6
Continuous
 62
     7
100
AcDbLine
 10
-343.0370178222656
 20
102.3191146850586
 30
0.0
 11
-343.0370178222656
 21
103.0691146850586
 31
0.0
  0
LINE
  5
138
330
22
100
AcDbEntity
  8
0
  6
CENTER
 62
     7
100
AcDbLine
 10
-426.8870239257813
 20
260.4373779296875
 30
0.0
 11
-426.7870178222656
 21
57.8212776184082
 31
0.0
  0
LINE
  5
139
330
22
100
AcDbEntity
  8
0
  6
Continuous
 62
     7
100
AcDbLine
 10
-389.197021484375
 20
113.7936096191406
 30
0.0
 11
-389.197021484375
 21
171.7586059570313
 31
0.0
  0
LINE
  5
13A
330
22
100
AcDbEntity
  8
0
  6
Continuous
 62
     7
100
AcDbLine
 10
-390.5526123046875
 20
133.4186096191406
 30
0.0
 11
-390.5526123046875
 21
100.3186111450195
 31
0.0
  0
LINE
  5
13B
330
22
100
AcDbEntity
  8
0
  6
Continuous
 62
     7
100
AcDbLine
 10
-388.6526184082031
 20
135.318603515625
 30
0.0
 11
-388.6526184082031
 21
102.2186126708984
 31
0.0
  0
LINE
  5
13C
330
22
100
AcDbEntity
  8
0
  6
Continuous
 62
     7
100
AcDbLine
 10
-388.1109924316406
 20
62.31861114501953
 30
0.0
 11
-385.2870178222656
 21
65.142578125
 31
0.0
  0
LINE
  5
13D
330
22
100
AcDbEntity
  8
0
  6
Continuous
 62
     7
100
AcDbLine
 10
-388.721923828125
 20
64.53611755371094
 30
0.0
 11
-385.2870178222656
 21
67.97100830078125
 31
0.0
  0
LINE
  5
13E
330
22
100
AcDbEntity
  8
0
  6
Continuous
 62
     7
100
AcDbLine
 10
-388.8076171875
 20
67.27882385253906
 30
0.0
 11
-385.2870178222656
 21
70.79943084716797
 31
0.0
  0
LINE
  5
13F
330
22
100
AcDbEntity
  8
0
  6
Continuous
 62
     7
100
AcDbLine
 10
-388.8933410644531
 20
70.02153778076172
 30
0.0
 11
-385.2870178222656
 21
73.62786102294922
 31
0.0
  0
LINE
  5
140
330
22
100
AcDbEntity
  8
0
  6
Continuous
 62
     7
100
AcDbLine
 10
-388.9790649414063
 20
72.76425170898438
 30
0.0
 11
-385.2870178222656
 21
76.45629119873047
 31
0.0
  0
LINE
  5
141
330
22
100
AcDbEntity
  8
0
  6
Continuous
 62
     7
100
AcDbLine
 10
-389.0647583007813
 20
75.50696563720703
 30
0.0
 11
-385.2870178222656
 21
79.28471374511719
 31
0.0
  0
LINE
  5
142
330
22
100
AcDbEntity
  8
0
  6
Continuous
 62
     7
100
AcDbLine
 10
-389.1504821777344
 20
78.24967956542969
 30
0.0
 11
-385.2870178222656
 21
82.11314392089844
 31
0.0
  0
LINE
  5
143
330
22
100
AcDbEntity
  8
0
  6
Continuous
 62
     7
100
AcDbLine
 10
-389.2362060546875
 20
80.99239349365234
 30
0.0
 11
-385.2870178222656
 21
84.94156646728516
 31
0.0
  0
LINE
  5
144
330
22
100
AcDbEntity
  8
0
  6
Continuous
 62
     7
100
AcDbLine
 10
-389.3218994140625
 20
83.735107421875
 30
0.0
 11
-385.2870178222656
 21
87.76999664306641
 31
0.0
  0
LINE
  5
145
330
22
100
AcDbEntity
  8
0
  6
Continuous
 62
     7
100
AcDbLine
 10
-389.4076232910156
 20
86.47782135009766
 30
0.0
 11
-385.2870178222656
 21
90.59842681884765
 31
0.0
  0
LINE
  5
146
330
22
100
AcDbEntity
  8
0
  6
Continuous
 62
     7
100
AcDbLine
 10
-390.5416259765625
 20
88.17226409912109
 30
0.0
 11
-385.2870178222656
 21
93.42684936523438
 31
0.0
  0
LINE
  5
147
330
22
100
AcDbEntity
  8
0
  6
Continuous
 62
     7
100
AcDbLine
 10
-391.3879699707031
 20
90.1543426513672
 30
0.0
 11
-385.2870178222656
 21
96.25527954101563
 31
0.0
  0
LINE
  5
148
330
22
100
AcDbEntity
  8
0
  6
Continuous
 62
     7
100
AcDbLine
 10
-391.3879699707031
 20
92.98276519775392
 30
0.0
 11
-385.2870178222656
 21
99.08370208740235
 31
0.0
  0
LINE
  5
149
330
22
100
AcDbEntity
  8
0
  6
Continuous
 62
     7
100
AcDbLine
 10
-391.3879699707031
 20
95.81119537353515
 30
0.0
 11
-385.2870178222656
 21
101.9121322631836
 31
0.0
  0
LINE
  5
14A
330
22
100
AcDbEntity
  8
0
  6
Continuous
 62
     7
100
AcDbLine
 10
-391.3879699707031
 20
98.6396255493164
 30
0.0
 11
-385.2870178222656
 21
104.7405624389648
 31
0.0
  0
LINE
  5
14B
330
22
100
AcDbEntity
  8
0
  6
Continuous
 62
     7
100
AcDbLine
 10
-388.6526184082031
 20
104.2033920288086
 30
0.0
 11
-385.2870178222656
 21
107.5689849853516
 31
0.0
  0
LINE
  5
14C
330
22
100
AcDbEntity
  8
0
  6
Continuous
 62
     7
100
AcDbLine
 10
-388.6526184082031
 20
107.0318222045898
 30
0.0
 11
-385.2870178222656
 21
110.3974151611328
 31
0.0
  0
LINE
  5
14D
330
22
100
AcDbEntity
  8
0
  6
Continuous
 62
     7
100
AcDbLine
 10
-388.6526184082031
 20
109.8602523803711
 30
0.0
 11
-385.2870178222656
 21
113.2258377075195
 31
0.0
  0
LINE
  5
14E
330
22
100
AcDbEntity
  8
0
  6
Continuous
 62
     7
100
AcDbLine
 10
-388.6526184082031
 20
112.6886749267578
 30
0.0
 11
-385.2870178222656
 21
116.0542678833008
 31
0.0
  0
LINE
  5
14F
330
22
100
AcDbEntity
  8
0
  6
Continuous
 62
     7
100
AcDbLine
 10
-388.6526184082031
 20
115.5171051025391
 30
0.0
 11
-385.2870178222656
 21
118.882698059082
 31
0.0
  0
LINE
  5
150
330
22
100
AcDbEntity
  8
0
  6
Continuous
 62
     7
100
AcDbLine
 10
-388.6526184082031
 20
118.3455276489258
 30
0.0
 11
-385.2870178222656
 21
121.7111206054688
 31
0.0
  0
LINE
  5
151
330
22
100
AcDbEntity
  8
0
  6
Continuous
 62
     7
100
AcDbLine
 10
-388.6526184082031
 20
121.173957824707
 30
0.0
 11
-385.2870178222656
 21
124.53955078125
 31
0.0
  0
LINE
  5
152
330
22
100
AcDbEntity
  8
0
  6
Continuous
 62
     7
100
AcDbLine
 10
-388.6526184082031
 20
124.0023880004883
 30
0.0
 11
-385.2870178222656
 21
127.3679733276367
 31
0.0
  0
LINE
  5
153
330
22
100
AcDbEntity
  8
0
  6
Continuous
 62
     7
100
AcDbLine
 10
-388.6526184082031
 20
126.830810546875
 30
0.0
 11
-385.2870178222656
 21
130.1964111328125
 31
0.0
  0
LINE
  5
154
330
22
100
AcDbEntity
  8
0
  6
Continuous
 62
     7
100
AcDbLine
 10
-388.6526184082031
 20
135.3160858154297
 30
0.0
 11
-388.6500854492188
 21
135.318603515625
 31
0.0
  0
LINE
  5
155
330
22
100
AcDbEntity
  8
0
  6
Continuous
 62
     7
100
AcDbLine
 10
-388.6526184082031
 20
132.4876708984375
 30
0.0
 11
-385.8216857910156
 21
135.318603515625
 31
0.0
  0
LINE
  5
156
330
22
100
AcDbEntity
  8
0
  6
Continuous
 62
     7
100
AcDbLine
 10
-388.6526184082031
 20
129.6592407226563
 30
0.0
 11
-385.2870178222656
 21
133.0248260498047
 31
0.0
  0
LINE
  5
157
330
22
100
AcDbEntity
  8
0
  6
Continuous
 62
     7
100
AcDbLine
 10
-389.0114440917969
 20
194.318603515625
 30
0.0
 11
-379.2870178222656
 21
194.318603515625
 31
0.0
  0
LINE
  5
158
330
22
100
AcDbEntity
  8
0
  6
Continuous
 62
     7
100
AcDbLine
 10
-393.929443359375
 20
242.1186065673828
 30
0.0
 11
-394.6993408203125
 21
233.318603515625
 31
0.0
  0
LINE
  5
159
330
22
100
AcDbEntity
  8
0
  6
Continuous
 62
     7
100
AcDbLine
 10
-393.3870239257813
 20
248.318603515625
 30
0.0
 11
-393.6494750976563
 21
245.318603515625
 31
0.0
  0
LINE
  5
15A
330
22
100
AcDbEntity
  8
0
  6
Continuous
 62
     7
100
AcDbLine
 10
-396.2870178222656
 20
245.318603515625
 30
0.0
 11
-393.6494750976563
 21
245.318603515625
 31
0.0
  0
LINE
  5
15B
330
22
100
AcDbEntity
  8
0
  6
Continuous
 62
     7
100
AcDbLine
 10
-396.2870178222656
 20
242.1186065673828
 30
0.0
 11
-393.929443359375
 21
242.1186065673828
 31
0.0
  0
LINE
  5
15C
330
22
100
AcDbEntity
  8
0
  6
Continuous
 62
     7
100
AcDbLine
 10
-390.5526123046875
 20
100.3186111450195
 30
0.0
 11
-388.6526184082031
 21
102.2186126708984
 31
0.0
  0
LINE
  5
15D
330
22
100
AcDbEntity
  8
0
  6
Continuous
 62
     7
100
AcDbLine
 10
-391.3879699707031
 20
89.01860809326171
 30
0.0
 11
-391.3879699707031
 21
100.3186111450195
 31
0.0
  0
LINE
  5
15E
330
22
100
AcDbEntity
  8
0
  6
Continuous
 62
     7
100
AcDbLine
 10
-388.6526184082031
 20
135.318603515625
 30
0.0
 11
-390.5526123046875
 21
133.4186096191406
 31
0.0
  0
LINE
  5
15F
330
22
100
AcDbEntity
  8
0
  6
Continuous
 62
     7
100
AcDbLine
 10
-389.4257202148438
 20
87.05635833740235
 30
0.0
 11
-388.6526184082031
 21
62.31861114501953
 31
0.0
  0
LINE
  5
160
330
22
100
AcDbEntity
  8
0
  6
Continuous
 62
     7
100
AcDbLine
 10
-390.6720275878906
 20
112.3186111450195
 30
0.0
 11
-389.197021484375
 21
113.7936096191406
 31
0.0
  0
LINE
  5
161
330
22
100
AcDbEntity
  8
0
  6
Continuous
 62
     7
100
AcDbLine
 10
-398.7870178222656
 20
223.318603515625
 30
0.0
 11
-398.7870178222656
 21
233.318603515625
 31
0.0
  0
LINE
  5
162
330
22
100
AcDbEntity
  8
0
  6
Continuous
 62
     7
100
AcDbLine
 10
-396.2870178222656
 20
242.1186065673828
 30
0.0
 11
-396.2870178222656
 21
245.318603515625
 31
0.0
  0
LINE
  5
163
330
22
100
AcDbEntity
  8
0
  6
Continuous
 62
     7
100
AcDbLine
 10
-393.2870178222657
 20
248.318603515625
 30
0.0
 11
-394.599365234375
 21
233.318603515625
 31
0.0
  0
LINE
  5
164
330
22
100
AcDbEntity
  8
0
  6
Continuous
 62
     7
100
AcDbLine
 10
-391.0488586425781
 20
212.318603515625
 30
0.0
 11
-389.5255126953125
 21
210.7952880859375
 31
0.0
  0
LINE
  5
165
330
22
100
AcDbEntity
  8
0
  6
Continuous
 62
     7
100
AcDbLine
 10
-390.0933227539063
 20
223.318603515625
 30
0.0
 11
-391.548583984375
 21
221.8633575439453
 31
0.0
  0
LINE
  5
166
330
22
100
AcDbEntity
  8
0
  6
Continuous
 62
     7
100
AcDbLine
 10
-352.5026245117188
 20
104.3186111450195
 30
0.0
 11
-353.5026245117188
 21
105.3186111450195
 31
0.0
  0
LINE
  5
167
330
22
100
AcDbEntity
  8
0
  6
Continuous
 62
     7
100
AcDbLine
 10
-348.5370178222656
 20
102.3191146850586
 30
0.0
 11
-348.5370178222656
 21
103.0691146850586
 31
0.0
  0
LINE
  5
168
330
22
100
AcDbEntity
  8
0
  6
Continuous
 62
     7
100
AcDbLine
 10
-335.7870178222656
 20
105.3186111450195
 30
0.0
 11
-335.7870178222656
 21
102.3186111450195
 31
0.0
  0
LINE
  5
169
330
22
100
AcDbEntity
  8
0
  6
Continuous
 62
     7
100
AcDbLine
 10
-369.0870361328125
 20
104.3186111450195
 30
0.0
 11
-370.0870361328125
 21
105.3186111450195
 31
0.0
  0
LINE
  5
16A
330
22
100
AcDbEntity
  8
0
  6
Continuous
 62
     7
100
AcDbLine
 10
-368.0870361328125
 20
105.3186111450195
 30
0.0
 11
-369.0870361328125
 21
104.3186111450195
 31
0.0
  0
LINE
  5
16B
330
22
100
AcDbEntity
  8
0
  6
Continuous
 62
     7
100
AcDbLine
 10
-389.2097473144531
 20
195.0461120605469
 30
0.0
 11
-388.4822692871094
 21
194.318603515625
 31
0.0
  0
LINE
  5
16C
330
22
100
AcDbEntity
  8
0
  6
Continuous
 62
     7
100
AcDbLine
 10
-389.2781982421875
 20
197.2358551025391
 30
0.0
 11
-386.3609313964844
 21
194.318603515625
 31
0.0
  0
LINE
  5
16D
330
22
100
AcDbEntity
  8
0
  6
Continuous
 62
     7
100
AcDbLine
 10
-389.3009948730469
 20
197.9657745361328
 30
0.0
 11
-385.6538391113281
 21
194.318603515625
 31
0.0
  0
LINE
  5
16E
330
22
100
AcDbEntity
  8
0
  6
Continuous
 62
     7
100
AcDbLine
 10
-389.3694458007813
 20
200.1555328369141
 30
0.0
 11
-383.5325012207031
 21
194.318603515625
 31
0.0
  0
LINE
  5
16F
330
22
100
AcDbEntity
  8
0
  6
Continuous
 62
     7
100
AcDbLine
 10
-389.3922424316406
 20
200.8854522705078
 30
0.0
 11
-382.8254089355469
 21
194.318603515625
 31
0.0
  0
LINE
  5
170
330
22
100
AcDbEntity
  8
0
  6
Continuous
 62
     7
100
AcDbLine
 10
-389.460693359375
 20
203.0752105712891
 30
0.0
 11
-380.7040710449219
 21
194.318603515625
 31
0.0
  0
LINE
  5
171
330
22
100
AcDbEntity
  8
0
  6
Continuous
 62
     7
100
AcDbLine
 10
-389.4834899902344
 20
203.8051300048828
 30
0.0
 11
-379.9969787597656
 21
194.318603515625
 31
0.0
  0
LINE
  5
172
330
22
100
AcDbEntity
  8
0
  6
Continuous
 62
     7
100
AcDbLine
 10
-389.5519104003906
 20
205.994873046875
 30
0.0
 11
-379.2870178222656
 21
195.72998046875
 31
0.0
  0
LINE
  5
173
330
22
100
AcDbEntity
  8
0
  6
Continuous
 62
     7
100
AcDbLine
 10
-389.5747375488281
 20
206.7247924804688
 30
0.0
 11
-379.2870178222656
 21
196.4370880126953
 31
0.0
  0
LINE
  5
174
330
22
100
AcDbEntity
  8
0
  6
Continuous
 62
     7
100
AcDbLine
 10
-389.6431579589844
 20
208.91455078125
 30
0.0
 11
-379.2870178222656
 21
198.5583953857421
 31
0.0
  0
LINE
  5
175
330
22
100
AcDbEntity
  8
0
  6
Continuous
 62
     7
100
AcDbLine
 10
-389.6659851074219
 20
209.6444702148438
 30
0.0
 11
-379.2870178222656
 21
199.2655029296875
 31
0.0
  0
LINE
  5
176
330
22
100
AcDbEntity
  8
0
  6
Continuous
 62
     7
100
AcDbLine
 10
-389.7344055175781
 20
211.8342132568359
 30
0.0
 11
-379.2870178222656
 21
201.3868255615234
 31
0.0
  0
LINE
  5
177
330
22
100
AcDbEntity
  8
0
  6
Continuous
 62
     7
100
AcDbLine
 10
-389.7572326660156
 20
212.5641326904297
 30
0.0
 11
-379.2870178222656
 21
202.0939331054688
 31
0.0
  0
LINE
  5
178
330
22
100
AcDbEntity
  8
0
  6
Continuous
 62
     7
100
AcDbLine
 10
-398.7870178222656
 20
223.7152557373047
 30
0.0
 11
-398.390380859375
 21
223.318603515625
 31
0.0
  0
LINE
  5
179
330
22
100
AcDbEntity
  8
0
  6
Continuous
 62
     7
100
AcDbLine
 10
-389.8256530761719
 20
214.7538909912109
 30
0.0
 11
-379.2870178222656
 21
204.2152557373047
 31
0.0
  0
LINE
  5
17A
330
22
100
AcDbEntity
  8
0
  6
Continuous
 62
     7
100
AcDbLine
 10
-398.7870178222656
 20
224.42236328125
 30
0.0
 11
-397.6832580566406
 21
223.318603515625
 31
0.0
  0
LINE
  5
17B
330
22
100
AcDbEntity
  8
0
  6
Continuous
 62
     7
100
AcDbLine
 10
-389.8484802246094
 20
215.4838104248047
 30
0.0
 11
-379.2870178222656
 21
204.92236328125
 31
0.0
  0
LINE
  5
17C
330
22
100
AcDbEntity
  8
0
  6
Continuous
 62
     7
100
AcDbLine
 10
-398.7870178222656
 20
226.5436859130859
 30
0.0
 11
-395.5619506835938
 21
223.318603515625
 31
0.0
  0
LINE
  5
17D
330
22
100
AcDbEntity
  8
0
  6
Continuous
 62
     7
100
AcDbLine
 10
-389.9169006347656
 20
217.6735687255859
 30
0.0
 11
-379.2870178222656
 21
207.0436859130859
 31
0.0
  0
LINE
  5
17E
330
22
100
AcDbEntity
  8
0
  6
Continuous
 62
     7
100
AcDbLine
 10
-398.7870178222656
 20
227.2507934570313
 30
0.0
 11
-394.8548278808594
 21
223.318603515625
 31
0.0
  0
LINE
  5
17F
330
22
100
AcDbEntity
  8
0
  6
Continuous
 62
     7
100
AcDbLine
 10
-389.9397277832031
 20
218.4034729003906
 30
0.0
 11
-379.2870178222656
 21
207.7507934570313
 31
0.0
  0
LINE
  5
180
330
22
100
AcDbEntity
  8
0
  6
Continuous
 62
     7
100
AcDbLine
 10
-398.7870178222656
 20
229.3721160888672
 30
0.0
 11
-392.7335205078125
 21
223.318603515625
 31
0.0
  0
LINE
  5
181
330
22
100
AcDbEntity
  8
0
  6
Continuous
 62
     7
100
AcDbLine
 10
-390.0081481933594
 20
220.5932312011719
 30
0.0
 11
-379.2870178222656
 21
209.8721160888672
 31
0.0
  0
LINE
  5
182
330
22
100
AcDbEntity
  8
0
  6
Continuous
 62
     7
100
AcDbLine
 10
-398.7870178222656
 20
230.0792236328125
 30
0.0
 11
-392.0264282226563
 21
223.318603515625
 31
0.0
  0
LINE
  5
183
330
22
100
AcDbEntity
  8
0
  6
Continuous
 62
     7
100
AcDbLine
 10
-390.0309448242188
 20
221.3231506347656
 30
0.0
 11
-379.2870178222656
 21
210.5792236328125
 31
0.0
  0
LINE
  5
184
330
22
100
AcDbEntity
  8
0
  6
Continuous
 62
     7
100
AcDbLine
 10
-398.7870178222656
 20
232.2005310058594
 30
0.0
 11
-379.2870178222656
 21
212.7005310058594
 31
0.0
  0
LINE
  5
185
330
22
100
AcDbEntity
  8
0
  6
Continuous
 62
     7
100
AcDbLine
 10
-398.7870178222656
 20
232.9076385498047
 30
0.0
 11
-379.2870178222656
 21
213.4076385498047
 31
0.0
  0
LINE
  5
186
330
22
100
AcDbEntity
  8
0
  6
Continuous
 62
     7
100
AcDbLine
 10
-397.07666015625
 20
233.318603515625
 30
0.0
 11
-379.2870178222656
 21
215.5289611816406
 31
0.0
  0
LINE
  5
187
330
22
100
AcDbEntity
  8
0
  6
Continuous
 62
     7
100
AcDbLine
 10
-396.3695678710938
 20
233.318603515625
 30
0.0
 11
-379.2870178222656
 21
216.2360687255859
 31
0.0
  0
LINE
  5
188
330
22
100
AcDbEntity
  8
0
  6
Continuous
 62
     7
100
AcDbLine
 10
-394.5711059570313
 20
233.6414794921875
 30
0.0
 11
-379.2870178222656
 21
218.3573913574219
 31
0.0
  0
LINE
  5
189
330
22
100
AcDbEntity
  8
0
  6
Continuous
 62
     7
100
AcDbLine
 10
-394.5142211914063
 20
234.2916870117188
 30
0.0
 11
-379.2870178222656
 21
219.0644989013672
 31
0.0
  0
LINE
  5
18A
330
22
100
AcDbEntity
  8
0
  6
Continuous
 62
     7
100
AcDbLine
 10
-394.3435668945313
 20
236.2423553466797
 30
0.0
 11
-379.2870178222656
 21
221.1858215332031
 31
0.0
  0
LINE
  5
18B
330
22
100
AcDbEntity
  8
0
  6
Continuous
 62
     7
100
AcDbLine
 10
-394.2866821289063
 20
236.892578125
 30
0.0
 11
-379.2870178222656
 21
221.8929290771484
 31
0.0
  0
LINE
  5
18C
330
22
100
AcDbEntity
  8
0
  6
Continuous
 62
     7
100
AcDbLine
 10
-394.1159973144531
 20
238.8432312011719
 30
0.0
 11
-379.2870178222656
 21
224.0142517089844
 31
0.0
  0
LINE
  5
18D
330
22
100
AcDbEntity
  8
0
  6
Continuous
 62
     7
100
AcDbLine
 10
-394.0591125488282
 20
239.4934539794922
 30
0.0
 11
-379.2870178222656
 21
224.7213592529297
 31
0.0
  0
LINE
  5
18E
330
22
100
AcDbEntity
  8
0
  6
Continuous
 62
     7
100
AcDbLine
 10
-393.8884582519531
 20
241.4441070556641
 30
0.0
 11
-379.2870178222656
 21
226.8426666259766
 31
0.0
  0
LINE
  5
18F
330
22
100
AcDbEntity
  8
0
  6
Continuous
 62
     7
100
AcDbLine
 10
-393.8315734863281
 20
242.0943298339844
 30
0.0
 11
-379.2870178222656
 21
227.5497741699219
 31
0.0
  0
LINE
  5
190
330
22
100
AcDbEntity
  8
0
  6
Continuous
 62
     7
100
AcDbLine
 10
-393.6609191894531
 20
244.0449981689453
 30
0.0
 11
-379.2870178222656
 21
229.6710968017578
 31
0.0
  0
LINE
  5
191
330
22
100
AcDbEntity
  8
0
  6
Continuous
 62
     7
100
AcDbLine
 10
-393.6040344238281
 20
244.6952056884766
 30
0.0
 11
-379.2870178222656
 21
230.3782043457031
 31
0.0
  0
LINE
  5
192
330
22
100
AcDbEntity
  8
0
  6
Continuous
 62
     7
100
AcDbLine
 10
-393.4333801269531
 20
246.6458740234375
 30
0.0
 11
-379.2870178222656
 21
232.4995269775391
 31
0.0
  0
LINE
  5
193
330
22
100
AcDbEntity
  8
0
  6
Continuous
 62
     7
100
AcDbLine
 10
-393.3764953613281
 20
247.2960968017578
 30
0.0
 11
-379.2870178222656
 21
233.2066345214844
 31
0.0
  0
LINE
  5
194
330
22
100
AcDbEntity
  8
0
  6
Continuous
 62
     7
100
AcDbLine
 10
-392.2776794433594
 20
248.318603515625
 30
0.0
 11
-379.2870178222656
 21
235.3279571533203
 31
0.0
  0
LINE
  5
195
330
22
100
AcDbEntity
  8
0
  6
Continuous
 62
     7
100
AcDbLine
 10
-391.570556640625
 20
248.318603515625
 30
0.0
 11
-379.2870178222656
 21
236.0350646972656
 31
0.0
  0
LINE
  5
196
330
22
100
AcDbEntity
  8
0
  6
Continuous
 62
     7
100
AcDbLine
 10
-389.4492492675781
 20
248.318603515625
 30
0.0
 11
-378.7662048339844
 21
237.6355743408203
 31
0.0
  0
LINE
  5
197
330
22
100
AcDbEntity
  8
0
  6
Continuous
 62
     7
100
AcDbLine
 10
-388.7421569824219
 20
248.318603515625
 30
0.0
 11
-378.3746032714844
 21
237.9510650634766
 31
0.0
  0
LINE
  5
198
330
22
100
AcDbEntity
  8
0
  6
Continuous
 62
     7
100
AcDbLine
 10
-386.6208190917969
 20
248.318603515625
 30
0.0
 11
-376.6208190917969
 21
238.318603515625
 31
0.0
  0
LINE
  5
199
330
22
100
AcDbEntity
  8
0
  6
Continuous
 62
     7
100
AcDbLine
 10
-385.9137268066406
 20
248.318603515625
 30
0.0
 11
-375.9137268066406
 21
238.318603515625
 31
0.0
  0
LINE
  5
19A
330
22
100
AcDbEntity
  8
0
  6
Continuous
 62
     7
100
AcDbLine
 10
-383.7923889160156
 20
248.318603515625
 30
0.0
 11
-375.7870178222656
 21
240.313232421875
 31
0.0
  0
LINE
  5
19B
330
22
100
AcDbEntity
  8
0
  6
Continuous
 62
     7
100
AcDbLine
 10
-383.0852966308594
 20
248.318603515625
 30
0.0
 11
-375.7870178222656
 21
241.0203399658203
 31
0.0
  0
LINE
  5
19C
330
22
100
AcDbEntity
  8
0
  6
Continuous
 62
     7
100
AcDbLine
 10
-380.9639587402344
 20
248.318603515625
 30
0.0
 11
-375.7870178222656
 21
243.1416625976563
 31
0.0
  0
LINE
  5
19D
330
22
100
AcDbEntity
  8
0
  6
Continuous
 62
     7
100
AcDbLine
 10
-380.2568664550781
 20
248.318603515625
 30
0.0
 11
-375.7870178222656
 21
243.8487701416016
 31
0.0
  0
LINE
  5
19E
330
22
100
AcDbEntity
  8
0
  6
Continuous
 62
     7
100
AcDbLine
 10
-378.1355285644531
 20
248.318603515625
 30
0.0
 11
-375.7870178222656
 21
245.9700927734375
 31
0.0
  0
LINE
  5
19F
330
22
100
AcDbEntity
  8
0
  6
Continuous
 62
     7
100
AcDbLine
 10
-377.4284362792969
 20
248.318603515625
 30
0.0
 11
-375.7870178222656
 21
246.6772003173828
 31
0.0
  0
LINE
  5
1A0
330
22
100
AcDbEntity
  8
0
  6
Continuous
 62
     7
100
AcDbLine
 10
-375.7870178222656
 20
248.318603515625
 30
0.0
 11
-375.7870178222656
 21
238.318603515625
 31
0.0
  0
LINE
  5
1A1
330
22
100
AcDbEntity
  8
0
  6
Continuous
 62
     7
100
AcDbLine
 10
-377.2870178222656
 20
238.318603515625
 30
0.0
 11
-375.7870178222656
 21
238.318603515625
 31
0.0
  0
LINE
  5
1A2
330
22
100
AcDbEntity
  8
0
  6
Continuous
 62
     7
100
AcDbLine
 10
-391.3879699707031
 20
89.01860809326171
 30
0.0
 11
-390.6126708984375
 21
64.21083831787109
 31
0.0
  0
LINE
  5
1A3
330
22
100
AcDbEntity
  8
0
  6
Continuous
 62
     7
100
AcDbLine
 10
-389.18701171875
 20
194.318603515625
 30
0.0
 11
-390.7361755371094
 21
195.8677520751953
 31
0.0
  0
LINE
  5
1A4
330
22
100
AcDbEntity
  8
0
  6
Continuous
 62
     7
100
AcDbLine
 10
-389.18701171875
 20
194.318603515625
 30
0.0
 11
-390.0933227539063
 21
223.318603515625
 31
0.0
  0
LINE
  5
1A5
330
22
100
AcDbEntity
  8
0
  6
Continuous
 62
     7
100
AcDbLine
 10
-385.2870178222656
 20
135.318603515625
 30
0.0
 11
-389.197021484375
 21
135.318603515625
 31
0.0
  0
LINE
  5
1A6
330
22
100
AcDbEntity
  8
0
  6
Continuous
 62
     7
100
AcDbLine
 10
-388.6370239257813
 20
182.318603515625
 30
0.0
 11
-390.1657104492188
 21
184.0135955810547
 31
0.0
  0
LINE
  5
1A7
330
22
100
AcDbEntity
  8
0
  6
Continuous
 62
     7
100
AcDbLine
 10
-388.6370239257813
 20
182.318603515625
 30
0.0
 11
-388.6370239257813
 21
172.318603515625
 31
0.0
  0
LINE
  5
1A8
330
22
100
AcDbEntity
  8
0
  6
Continuous
 62
     7
100
AcDbLine
 10
-388.6370239257813
 20
172.318603515625
 30
0.0
 11
-390.6720275878906
 21
170.2836151123047
 31
0.0
  0
LINE
  5
1A9
330
22
100
AcDbEntity
  8
0
  6
Continuous
 62
     7
100
AcDbLine
 10
-388.6526184082031
 20
62.31861114501953
 30
0.0
 11
-390.6126708984375
 21
64.21083831787109
 31
0.0
  0
LINE
  5
1AA
330
22
100
AcDbEntity
  8
0
  6
Continuous
 62
     7
100
AcDbLine
 10
-391.3879699707031
 20
89.01860809326171
 30
0.0
 11
-389.4257202148438
 21
87.05635833740235
 31
0.0
  0
LINE
  5
1AB
330
22
100
AcDbEntity
  8
0
  6
Continuous
 62
     7
100
AcDbLine
 10
-389.5255126953125
 20
210.7952880859375
 30
0.0
 11
-388.6370239257813
 21
182.318603515625
 31
0.0
  0
LINE
  5
1AC
330
22
100
AcDbEntity
  8
0
  6
Continuous
 62
     7
100
AcDbLine
 10
-391.0488586425781
 20
212.318603515625
 30
0.0
 11
-390.1657104492188
 21
184.0135955810547
 31
0.0
  0
LINE
  5
1AD
330
22
100
AcDbEntity
  8
0
  6
Continuous
 62
     7
100
AcDbLine
 10
-396.2870178222656
 20
212.318603515625
 30
0.0
 11
-396.2870178222656
 21
112.3186111450195
 31
0.0
  0
LINE
  5
1AE
330
22
100
AcDbEntity
  8
0
  6
Continuous
 62
     7
100
AcDbLine
 10
-392.5953979492188
 20
112.3186111450195
 30
0.0
 11
-390.6720275878906
 21
114.2419967651367
 31
0.0
  0
LINE
  5
1AF
330
22
100
AcDbEntity
  8
0
  6
Continuous
 62
     7
100
AcDbLine
 10
-396.2870178222656
 20
112.8696365356445
 30
0.0
 11
-390.6720275878906
 21
118.4846343994141
 31
0.0
  0
LINE
  5
1B0
330
22
100
AcDbEntity
  8
0
  6
Continuous
 62
     7
100
AcDbLine
 10
-396.2870178222656
 20
117.1122741699219
 30
0.0
 11
-390.6720275878906
 21
122.7272796630859
 31
0.0
  0
LINE
  5
1B1
330
22
100
AcDbEntity
  8
0
  6
Continuous
 62
     7
100
AcDbLine
 10
-396.2870178222656
 20
121.3549194335938
 30
0.0
 11
-390.6720275878906
 21
126.9699172973633
 31
0.0
  0
LINE
  5
1B2
330
22
100
AcDbEntity
  8
0
  6
Continuous
 62
     7
100
AcDbLine
 10
-396.2870178222656
 20
125.5975570678711
 30
0.0
 11
-390.6720275878906
 21
131.2125549316406
 31
0.0
  0
LINE
  5
1B3
330
22
100
AcDbEntity
  8
0
  6
Continuous
 62
     7
100
AcDbLine
 10
-396.2870178222656
 20
129.8401947021484
 30
0.0
 11
-390.6720275878906
 21
135.4552001953125
 31
0.0
  0
LINE
  5
1B4
330
22
100
AcDbEntity
  8
0
  6
Continuous
 62
     7
100
AcDbLine
 10
-396.2870178222656
 20
134.0828399658203
 30
0.0
 11
-390.6720275878906
 21
139.6978454589844
 31
0.0
  0
LINE
  5
1B5
330
22
100
AcDbEntity
  8
0
  6
Continuous
 62
     7
100
AcDbLine
 10
-396.2870178222656
 20
138.3254852294922
 30
0.0
 11
-390.6720275878906
 21
143.9404754638672
 31
0.0
  0
LINE
  5
1B6
330
22
100
AcDbEntity
  8
0
  6
Continuous
 62
     7
100
AcDbLine
 10
-396.2870178222656
 20
142.568115234375
 30
0.0
 11
-390.6720275878906
 21
148.1831207275391
 31
0.0
  0
LINE
  5
1B7
330
22
100
AcDbEntity
  8
0
  6
Continuous
 62
     7
100
AcDbLine
 10
-396.2870178222656
 20
146.8107604980469
 30
0.0
 11
-390.6720275878906
 21
152.4257659912109
 31
0.0
  0
LINE
  5
1B8
330
22
100
AcDbEntity
  8
0
  6
Continuous
 62
     7
100
AcDbLine
 10
-396.2870178222656
 20
151.0534057617188
 30
0.0
 11
-390.6720275878906
 21
156.6683959960938
 31
0.0
  0
LINE
  5
1B9
330
22
100
AcDbEntity
  8
0
  6
Continuous
 62
     7
100
AcDbLine
 10
-396.2870178222656
 20
155.2960357666016
 30
0.0
 11
-390.6720275878906
 21
160.9110412597656
 31
0.0
  0
LINE
  5
1BA
330
22
100
AcDbEntity
  8
0
  6
Continuous
 62
     7
100
AcDbLine
 10
-396.2870178222656
 20
159.5386810302734
 30
0.0
 11
-390.6720275878906
 21
165.1536865234375
 31
0.0
  0
LINE
  5
1BB
330
22
100
AcDbEntity
  8
0
  6
Continuous
 62
     7
100
AcDbLine
 10
-396.2870178222656
 20
163.7813262939453
 30
0.0
 11
-390.6720275878906
 21
169.3963165283203
 31
0.0
  0
LINE
  5
1BC
330
22
100
AcDbEntity
  8
0
  6
Continuous
 62
     7
100
AcDbLine
 10
-396.2870178222656
 20
168.0239715576172
 30
0.0
 11
-388.6370239257813
 21
175.6739654541016
 31
0.0
  0
LINE
  5
1BD
330
22
100
AcDbEntity
  8
0
  6
Continuous
 62
     7
100
AcDbLine
 10
-396.2870178222656
 20
172.2666015625
 30
0.0
 11
-388.6370239257813
 21
179.9166107177734
 31
0.0
  0
LINE
  5
1BE
330
22
100
AcDbEntity
  8
0
  6
Continuous
 62
     7
100
AcDbLine
 10
-396.2870178222656
 20
176.5092468261719
 30
0.0
 11
-389.5098571777344
 21
183.2864074707031
 31
0.0
  0
LINE
  5
1BF
330
22
100
AcDbEntity
  8
0
  6
Continuous
 62
     7
100
AcDbLine
 10
-396.2870178222656
 20
180.7518920898438
 30
0.0
 11
-390.2522277832031
 21
186.7866668701172
 31
0.0
  0
LINE
  5
1C0
330
22
100
AcDbEntity
  8
0
  6
Continuous
 62
     7
100
AcDbLine
 10
-396.2870178222656
 20
184.9945220947266
 30
0.0
 11
-390.380615234375
 21
190.9009399414063
 31
0.0
  0
LINE
  5
1C1
330
22
100
AcDbEntity
  8
0
  6
Continuous
 62
     7
100
AcDbLine
 10
-396.2870178222656
 20
189.2371673583984
 30
0.0
 11
-390.5089721679688
 21
195.0152130126953
 31
0.0
  0
LINE
  5
1C2
330
22
100
AcDbEntity
  8
0
  6
Continuous
 62
     7
100
AcDbLine
 10
-396.2870178222656
 20
193.4798126220703
 30
0.0
 11
-390.8320007324219
 21
198.934814453125
 31
0.0
  0
LINE
  5
1C3
330
22
100
AcDbEntity
  8
0
  6
Continuous
 62
     7
100
AcDbLine
 10
-396.2870178222656
 20
197.7224426269531
 30
0.0
 11
-390.9605712890625
 21
203.0488891601563
 31
0.0
  0
LINE
  5
1C4
330
22
100
AcDbEntity
  8
0
  6
Continuous
 62
     7
100
AcDbLine
 10
-396.2870178222656
 20
201.965087890625
 30
0.0
 11
-391.0891418457031
 21
207.1629638671875
 31
0.0
  0
LINE
  5
1C5
330
22
100
AcDbEntity
  8
0
  6
Continuous
 62
     7
100
AcDbLine
 10
-396.2870178222656
 20
206.2077331542969
 30
0.0
 11
-391.2177124023438
 21
211.2770233154297
 31
0.0
  0
LINE
  5
1C6
330
22
100
AcDbEntity
  8
0
  6
Continuous
 62
     7
100
AcDbLine
 10
-396.2870178222656
 20
210.4503784179688
 30
0.0
 11
-394.4187927246094
 21
212.318603515625
 31
0.0
  0
LINE
  5
1C7
330
22
100
AcDbEntity
  8
0
  6
Continuous
 62
     7
100
AcDbLine
 10
-394.7167358398438
 20
112.3186111450195
 30
0.0
 11
-390.6720275878906
 21
116.3633117675781
 31
0.0
  0
LINE
  5
1C8
330
22
100
AcDbEntity
  8
0
  6
Continuous
 62
     7
100
AcDbLine
 10
-396.2870178222656
 20
114.9909591674805
 30
0.0
 11
-390.6720275878906
 21
120.60595703125
 31
0.0
  0
LINE
  5
1C9
330
22
100
AcDbEntity
  8
0
  6
Continuous
 62
     7
100
AcDbLine
 10
-396.2870178222656
 20
119.2335968017578
 30
0.0
 11
-390.6720275878906
 21
124.8485946655273
 31
0.0
  0
LINE
  5
1CA
330
22
100
AcDbEntity
  8
0
  6
Continuous
 62
     7
100
AcDbLine
 10
-396.2870178222656
 20
123.4762344360352
 30
0.0
 11
-390.6720275878906
 21
129.0912322998047
 31
0.0
  0
LINE
  5
1CB
330
22
100
AcDbEntity
  8
0
  6
Continuous
 62
     7
100
AcDbLine
 10
-396.2870178222656
 20
127.718879699707
 30
0.0
 11
-390.6720275878906
 21
133.3338775634766
 31
0.0
  0
LINE
  5
1CC
330
22
100
AcDbEntity
  8
0
  6
Continuous
 62
     7
100
AcDbLine
 10
-396.2870178222656
 20
131.9615173339844
 30
0.0
 11
-390.6720275878906
 21
137.5765228271484
 31
0.0
  0
LINE
  5
1CD
330
22
100
AcDbEntity
  8
0
  6
Continuous
 62
     7
100
AcDbLine
 10
-396.2870178222656
 20
136.2041625976563
 30
0.0
 11
-390.6720275878906
 21
141.8191528320313
 31
0.0
  0
LINE
  5
1CE
330
22
100
AcDbEntity
  8
0
  6
Continuous
 62
     7
100
AcDbLine
 10
-396.2870178222656
 20
140.4467926025391
 30
0.0
 11
-390.6720275878906
 21
146.0617980957031
 31
0.0
  0
LINE
  5
1CF
330
22
100
AcDbEntity
  8
0
  6
Continuous
 62
     7
100
AcDbLine
 10
-396.2870178222656
 20
144.6894378662109
 30
0.0
 11
-390.6720275878906
 21
150.304443359375
 31
0.0
  0
LINE
  5
1D0
330
22
100
AcDbEntity
  8
0
  6
Continuous
 62
     7
100
AcDbLine
 10
-356.4782104492188
 20
105.3186111450195
 30
0.0
 11
-353.4782104492188
 21
102.3186111450195
 31
0.0
  0
LINE
  5
1D1
330
22
100
AcDbEntity
  8
0
  6
Continuous
 62
     7
100
AcDbLine
 10
-396.2870178222656
 20
148.9320831298828
 30
0.0
 11
-390.6720275878906
 21
154.5470886230469
 31
0.0
  0
LINE
  5
1D2
330
22
100
AcDbEntity
  8
0
  6
Continuous
 62
     7
100
AcDbLine
 10
-396.2870178222656
 20
153.1747283935547
 30
0.0
 11
-390.6720275878906
 21
158.7897186279297
 31
0.0
  0
LINE
  5
1D3
330
22
100
AcDbEntity
  8
0
  6
Continuous
 62
     7
100
AcDbLine
 10
-396.2870178222656
 20
157.4173583984375
 30
0.0
 11
-390.6720275878906
 21
163.0323638916016
 31
0.0
  0
LINE
  5
1D4
330
22
100
AcDbEntity
  8
0
  6
Continuous
 62
     7
100
AcDbLine
 10
-362.1350402832031
 20
105.3186111450195
 30
0.0
 11
-359.1350402832031
 21
102.3186111450195
 31
0.0
  0
LINE
  5
1D5
330
22
100
AcDbEntity
  8
0
  6
Continuous
 62
     7
100
AcDbLine
 10
-396.2870178222656
 20
161.6600036621094
 30
0.0
 11
-390.6720275878906
 21
167.2750091552734
 31
0.0
  0
LINE
  5
1D6
330
22
100
AcDbEntity
  8
0
  6
Continuous
 62
     7
100
AcDbLine
 10
-396.2870178222656
 20
165.9026489257813
 30
0.0
 11
-388.6370239257813
 21
173.5526428222656
 31
0.0
  0
LINE
  5
1D7
330
22
100
AcDbEntity
  8
0
  6
Continuous
 62
     7
100
AcDbLine
 10
-396.2870178222656
 20
170.1452789306641
 30
0.0
 11
-388.6370239257813
 21
177.7952880859375
 31
0.0
  0
LINE
  5
1D8
330
22
100
AcDbEntity
  8
0
  6
Continuous
 62
     7
100
AcDbLine
 10
-396.2870178222656
 20
174.3879241943359
 30
0.0
 11
-388.6370239257813
 21
182.0379180908203
 31
0.0
  0
LINE
  5
1D9
330
22
100
AcDbEntity
  8
0
  6
Continuous
 62
     7
100
AcDbLine
 10
-396.2870178222656
 20
178.6305694580078
 30
0.0
 11
-390.1880493164063
 21
184.7295379638672
 31
0.0
  0
LINE
  5
1DA
330
22
100
AcDbEntity
  8
0
  6
Continuous
 62
     7
100
AcDbLine
 10
-396.2870178222656
 20
182.8731994628906
 30
0.0
 11
-390.31640625
 21
188.8438110351563
 31
0.0
  0
LINE
  5
1DB
330
22
100
AcDbEntity
  8
0
  6
Continuous
 62
     7
100
AcDbLine
 10
-396.2870178222656
 20
187.1158447265625
 30
0.0
 11
-390.4447937011719
 21
192.9580841064453
 31
0.0
  0
LINE
  5
1DC
330
22
100
AcDbEntity
  8
0
  6
Continuous
 62
     7
100
AcDbLine
 10
-396.2870178222656
 20
191.3584899902344
 30
0.0
 11
-390.7677307128906
 21
196.8777770996094
 31
0.0
  0
LINE
  5
1DD
330
22
100
AcDbEntity
  8
0
  6
Continuous
 62
     7
100
AcDbLine
 10
-396.2870178222656
 20
195.6011352539063
 30
0.0
 11
-390.8963012695313
 21
200.9918518066406
 31
0.0
  0
LINE
  5
1DE
330
22
100
AcDbEntity
  8
0
  6
Continuous
 62
     7
100
AcDbLine
 10
-396.2870178222656
 20
199.8437652587891
 30
0.0
 11
-391.0248718261719
 21
205.1059265136719
 31
0.0
  0
LINE
  5
1DF
330
22
100
AcDbEntity
  8
0
  6
Continuous
 62
     7
100
AcDbLine
 10
-396.2870178222656
 20
204.0864105224609
 30
0.0
 11
-391.1534423828125
 21
209.2199859619141
 31
0.0
  0
LINE
  5
1E0
330
22
100
AcDbEntity
  8
0
  6
Continuous
 62
     7
100
AcDbLine
 10
-396.2870178222656
 20
208.3290557861328
 30
0.0
 11
-392.2974548339844
 21
212.318603515625
 31
0.0
  0
LINE
  5
1E1
330
22
100
AcDbEntity
  8
0
  6
Continuous
 62
     7
100
AcDbLine
 10
-379.2870178222656
 20
194.318603515625
 30
0.0
 11
-379.2870178222656
 21
236.318603515625
 31
0.0
  0
LINE
  5
1E2
330
22
100
AcDbEntity
  8
0
  6
Continuous
 62
     7
100
AcDbLine
 10
-390.7361755371094
 20
195.8677520751953
 30
0.0
 11
-391.548583984375
 21
221.8633575439453
 31
0.0
  0
LINE
  5
1E3
330
22
100
AcDbEntity
  8
0
  6
Continuous
 62
     7
100
AcDbLine
 10
-385.2870178222656
 20
135.318603515625
 30
0.0
 11
-385.2870178222656
 21
62.31861114501953
 31
0.0
  0
LINE
  5
1E4
330
22
100
AcDbEntity
  8
0
  6
Continuous
 62
     7
100
AcDbLine
 10
-390.6720275878906
 20
112.3186111450195
 30
0.0
 11
-390.6720275878906
 21
170.2836151123047
 31
0.0
  0
LINE
  5
1E5
330
22
100
AcDbEntity
  8
0
  6
Continuous
 62
     7
100
AcDbLine
 10
-385.2870178222656
 20
103.0147323608398
 30
0.0
 11
-384.5909118652344
 21
102.3186111450195
 31
0.0
  0
LINE
  5
1E6
330
22
100
AcDbEntity
  8
0
  6
Continuous
 62
     7
100
AcDbLine
 10
-385.2870178222656
 20
105.1360549926758
 30
0.0
 11
-382.4695739746094
 21
102.3186111450195
 31
0.0
  0
LINE
  5
1E7
330
22
100
AcDbEntity
  8
0
  6
Continuous
 62
     7
100
AcDbLine
 10
-384.7624816894531
 20
105.3186111450195
 30
0.0
 11
-381.7624816894531
 21
102.3186111450195
 31
0.0
  0
LINE
  5
1E8
330
22
100
AcDbEntity
  8
0
  6
Continuous
 62
     7
100
AcDbLine
 10
-382.6411437988281
 20
105.3186111450195
 30
0.0
 11
-379.6411437988281
 21
102.3186111450195
 31
0.0
  0
LINE
  5
1E9
330
22
100
AcDbEntity
  8
0
  6
Continuous
 62
     7
100
AcDbLine
 10
-381.9340515136719
 20
105.3186111450195
 30
0.0
 11
-378.9340515136719
 21
102.3186111450195
 31
0.0
  0
LINE
  5
1EA
330
22
100
AcDbEntity
  8
0
  6
Continuous
 62
     7
100
AcDbLine
 10
-379.8127136230469
 20
105.3186111450195
 30
0.0
 11
-376.8127136230469
 21
102.3186111450195
 31
0.0
  0
LINE
  5
1EB
330
22
100
AcDbEntity
  8
0
  6
Continuous
 62
     7
100
AcDbLine
 10
-379.1056213378906
 20
105.3186111450195
 30
0.0
 11
-376.1056213378906
 21
102.3186111450195
 31
0.0
  0
LINE
  5
1EC
330
22
100
AcDbEntity
  8
0
  6
Continuous
 62
     7
100
AcDbLine
 10
-376.9842834472656
 20
105.3186111450195
 30
0.0
 11
-373.9842834472656
 21
102.3186111450195
 31
0.0
  0
LINE
  5
1ED
330
22
100
AcDbEntity
  8
0
  6
Continuous
 62
     7
100
AcDbLine
 10
-376.2771911621094
 20
105.3186111450195
 30
0.0
 11
-373.2771911621094
 21
102.3186111450195
 31
0.0
  0
LINE
  5
1EE
330
22
100
AcDbEntity
  8
0
  6
Continuous
 62
     7
100
AcDbLine
 10
-360.0137329101563
 20
105.3186111450195
 30
0.0
 11
-357.0137329101563
 21
102.3186111450195
 31
0.0
  0
LINE
  5
1EF
330
22
100
AcDbEntity
  8
0
  6
Continuous
 62
     7
100
AcDbLine
 10
-357.185302734375
 20
105.3186111450195
 30
0.0
 11
-354.185302734375
 21
102.3186111450195
 31
0.0
  0
LINE
  5
1F0
330
22
100
AcDbEntity
  8
0
  6
Continuous
 62
     7
100
AcDbLine
 10
-359.306640625
 20
105.3186111450195
 30
0.0
 11
-356.306640625
 21
102.3186111450195
 31
0.0
  0
LINE
  5
1F1
330
22
100
AcDbEntity
  8
0
  6
Continuous
 62
     7
100
AcDbLine
 10
-337.3863220214844
 20
105.3186111450195
 30
0.0
 11
-335.7870178222656
 21
103.7193145751953
 31
0.0
  0
LINE
  5
1F2
330
22
100
AcDbEntity
  8
0
  6
Continuous
 62
     7
100
AcDbLine
 10
-342.9760131835938
 20
103.130126953125
 30
0.0
 11
-342.1644897460938
 21
102.3186111450195
 31
0.0
  0
LINE
  5
1F3
330
22
100
AcDbEntity
  8
0
  6
Continuous
 62
     7
100
AcDbLine
 10
-353.6497802734375
 20
105.3186111450195
 30
0.0
 11
-350.6497802734375
 21
102.3186111450195
 31
0.0
  0
LINE
  5
1F4
330
22
100
AcDbEntity
  8
0
  6
Continuous
 62
     7
100
AcDbLine
 10
-374.1558837890625
 20
105.3186111450195
 30
0.0
 11
-371.1558837890625
 21
102.3186111450195
 31
0.0
  0
LINE
  5
1F5
330
22
100
AcDbEntity
  8
0
  6
Continuous
 62
     7
100
AcDbLine
 10
-371.3274536132813
 20
105.3186111450195
 30
0.0
 11
-368.3274536132813
 21
102.3186111450195
 31
0.0
  0
LINE
  5
1F6
330
22
100
AcDbEntity
  8
0
  6
Continuous
 62
     7
100
AcDbLine
 10
-370.6203308105469
 20
105.3186111450195
 30
0.0
 11
-367.6203308105469
 21
102.3186111450195
 31
0.0
  0
LINE
  5
1F7
330
22
100
AcDbEntity
  8
0
  6
Continuous
 62
     7
100
AcDbLine
 10
-368.2930297851563
 20
105.1126098632813
 30
0.0
 11
-365.4990234375
 21
102.3186111450195
 31
0.0
  0
LINE
  5
1F8
330
22
100
AcDbEntity
  8
0
  6
Continuous
 62
     7
100
AcDbLine
 10
-364.9634704589844
 20
105.3186111450195
 30
0.0
 11
-361.9634704589844
 21
102.3186111450195
 31
0.0
  0
LINE
  5
1F9
330
22
100
AcDbEntity
  8
0
  6
Continuous
 62
     7
100
AcDbLine
 10
-365.6705932617188
 20
105.3186111450195
 30
0.0
 11
-362.6705932617188
 21
102.3186111450195
 31
0.0
  0
LINE
  5
1FA
330
22
100
AcDbEntity
  8
0
  6
Continuous
 62
     7
100
AcDbLine
 10
-367.7919006347656
 20
105.3186111450195
 30
0.0
 11
-364.7919006347656
 21
102.3186111450195
 31
0.0
  0
LINE
  5
1FB
330
22
100
AcDbEntity
  8
0
  6
Continuous
 62
     7
100
AcDbLine
 10
-362.8421630859375
 20
105.3186111450195
 30
0.0
 11
-359.8421630859375
 21
102.3186111450195
 31
0.0
  0
LINE
  5
1FC
330
22
100
AcDbEntity
  8
0
  6
Continuous
 62
     7
100
AcDbLine
 10
-425.3660888671874
 20
210.3626861572266
 30
0.0
 11
-411.3619995117188
 21
224.3667755126953
 31
0.0
  0
LINE
  5
1FD
330
22
100
AcDbEntity
  8
0
  6
Continuous
 62
     7
100
AcDbLine
 10
-419.709228515625
 20
210.3626861572266
 30
0.0
 11
-411.3619995117188
 21
218.7099151611328
 31
0.0
  0
LINE
  5
1FE
330
22
100
AcDbEntity
  8
0
  6
Continuous
 62
     7
100
AcDbLine
 10
-416.8807983398438
 20
210.3626861572266
 30
0.0
 11
-411.3619995117188
 21
215.8814849853516
 31
0.0
  0
LINE
  5
1FF
330
22
100
AcDbEntity
  8
0
  6
Continuous
 62
     7
100
AcDbLine
 10
-422.5376586914062
 20
210.3626861572266
 30
0.0
 11
-411.3619995117188
 21
221.5383453369141
 31
0.0
  0
LINE
  5
200
330
22
100
AcDbEntity
  8
0
  6
Continuous
 62
     7
100
AcDbLine
 10
-354.3568725585938
 20
105.3186111450195
 30
0.0
 11
-351.3568725585938
 21
102.3186111450195
 31
0.0
  0
LINE
  5
201
330
22
100
AcDbEntity
  8
0
  6
Continuous
 62
     7
100
AcDbLine
 10
-426.7870178222656
 20
214.5986022949219
 30
0.0
 11
-411.3619995117188
 21
230.0236206054688
 31
0.0
  0
LINE
  5
202
330
22
100
AcDbEntity
  8
0
  6
Continuous
 62
     7
100
AcDbLine
 10
-335.7870178222656
 20
102.3186111450195
 30
0.0
 11
-385.2870178222656
 21
102.3186111450195
 31
0.0
  0
LINE
  5
203
330
22
100
AcDbEntity
  8
0
  6
Continuous
 62
     7
100
AcDbLine
 10
-341.5617980957031
 20
104.5443420410156
 30
0.0
 11
-339.3360595703125
 21
102.3186111450195
 31
0.0
  0
LINE
  5
204
330
22
100
AcDbEntity
  8
0
  6
Continuous
 62
     7
100
AcDbLine
 10
-335.7870178222656
 20
105.3186111450195
 30
0.0
 11
-385.2870178222656
 21
105.3186111450195
 31
0.0
  0
LINE
  5
205
330
22
100
AcDbEntity
  8
0
  6
Continuous
 62
     7
100
AcDbLine
 10
-350.8213500976563
 20
105.3186111450195
 30
0.0
 11
-348.5370178222656
 21
103.0342864990234
 31
0.0
  0
LINE
  5
206
330
22
100
AcDbEntity
  8
0
  6
Continuous
 62
     7
100
AcDbLine
 10
-340.2147521972656
 20
105.3186111450195
 30
0.0
 11
-337.2147521972656
 21
102.3186111450195
 31
0.0
  0
LINE
  5
207
330
22
100
AcDbEntity
  8
0
  6
Continuous
 62
     7
100
AcDbLine
 10
-351.5155334472656
 20
105.3056945800781
 30
0.0
 11
-348.6375122070313
 21
102.4276580810547
 31
0.0
  0
LINE
  5
208
330
22
100
AcDbEntity
  8
0
  6
Continuous
 62
     7
100
AcDbLine
 10
-426.7870178222656
 20
211.7701721191406
 30
0.0
 11
-411.3619995117188
 21
227.1952056884766
 31
0.0
  0
LINE
  5
209
330
22
100
AcDbEntity
  8
0
  6
Continuous
 62
     7
100
AcDbLine
 10
-414.0523681640624
 20
210.3626861572266
 30
0.0
 11
-411.2399597167969
 21
213.1750946044922
 31
0.0
  0
LINE
  5
20A
330
22
100
AcDbEntity
  8
0
  6
Continuous
 62
     7
100
AcDbLine
 10
-405.2399597167968
 20
213.5182495117188
 30
0.0
 11
-404.3955078125
 21
214.3626861572266
 31
0.0
  0
LINE
  5
20B
330
22
100
AcDbEntity
  8
0
  6
Continuous
 62
     7
100
AcDbLine
 10
-405.2399597167968
 20
210.6898193359375
 30
0.0
 11
-404.2399597167968
 21
211.6898193359375
 31
0.0
  0
LINE
  5
20C
330
22
100
AcDbEntity
  8
0
  6
Continuous
 62
     7
100
AcDbLine
 10
-425.1974487304687
 20
210.3626861572266
 30
0.0
 11
-426.7870178222656
 21
211.9522552490234
 31
0.0
  0
LINE
  5
20D
330
22
100
AcDbEntity
  8
0
  6
Continuous
 62
     7
100
AcDbLine
 10
-422.3690185546875
 20
210.3626861572266
 30
0.0
 11
-426.7870178222656
 21
214.7806854248047
 31
0.0
  0
LINE
  5
20E
330
22
100
AcDbEntity
  8
0
  6
Continuous
 62
     7
100
AcDbLine
 10
-419.5406188964843
 20
210.3626861572266
 30
0.0
 11
-426.7870178222656
 21
217.6091156005859
 31
0.0
  0
LINE
  5
20F
330
22
100
AcDbEntity
  8
0
  6
Continuous
 62
     7
100
AcDbLine
 10
-416.7121887207031
 20
210.3626861572266
 30
0.0
 11
-426.7870178222656
 21
220.4375305175781
 31
0.0
  0
LINE
  5
210
330
22
100
AcDbEntity
  8
0
  6
Continuous
 62
     7
100
AcDbLine
 10
-413.8837585449218
 20
210.3626861572266
 30
0.0
 11
-426.7870178222656
 21
223.2659606933594
 31
0.0
  0
LINE
  5
211
330
22
100
AcDbEntity
  8
0
  6
Continuous
 62
     7
100
AcDbLine
 10
-411.2399597167969
 20
210.5473327636719
 30
0.0
 11
-426.7870178222656
 21
226.0943908691406
 31
0.0
  0
LINE
  5
212
330
22
100
AcDbEntity
  8
0
  6
Continuous
 62
     7
100
AcDbLine
 10
-411.3619995117188
 20
213.497802734375
 30
0.0
 11
-424.1828002929688
 21
226.318603515625
 31
0.0
  0
LINE
  5
213
330
22
100
AcDbEntity
  8
0
  6
Continuous
 62
     7
100
AcDbLine
 10
-411.3619995117188
 20
216.3262176513672
 30
0.0
 11
-421.3544006347656
 21
226.318603515625
 31
0.0
  0
LINE
  5
214
330
22
100
AcDbEntity
  8
0
  6
Continuous
 62
     7
100
AcDbLine
 10
-411.3619995117188
 20
219.1546478271484
 30
0.0
 11
-418.5259704589843
 21
226.318603515625
 31
0.0
  0
LINE
  5
215
330
22
100
AcDbEntity
  8
0
  6
Continuous
 62
     7
100
AcDbLine
 10
-404.2399597167968
 20
212.0326080322266
 30
0.0
 11
-405.2399597167968
 21
213.0326080322266
 31
0.0
  0
LINE
  5
216
330
22
100
AcDbEntity
  8
0
  6
Continuous
 62
     7
100
AcDbLine
 10
-411.3619995117188
 20
221.9830780029297
 30
0.0
 11
-415.7007446289062
 21
226.3218078613281
 31
0.0
  0
LINE
  5
217
330
22
100
AcDbEntity
  8
0
  6
Continuous
 62
     7
100
AcDbLine
 10
-411.3619995117188
 20
224.8115081787109
 30
0.0
 11
-415.7007446289062
 21
229.1502380371094
 31
0.0
  0
LINE
  5
218
330
22
100
AcDbEntity
  8
0
  6
Continuous
 62
     7
100
AcDbLine
 10
-411.3619995117188
 20
227.6399383544922
 30
0.0
 11
-415.7007446289062
 21
231.9786682128906
 31
0.0
  0
LINE
  5
219
330
22
100
AcDbEntity
  8
0
  6
Continuous
 62
     7
100
AcDbLine
 10
-411.3619995117188
 20
230.4683532714844
 30
0.0
 11
-415.7007446289062
 21
234.8070831298828
 31
0.0
  0
LINE
  5
21A
330
22
100
AcDbEntity
  8
0
  6
Continuous
 62
     7
100
AcDbLine
 10
-411.3619995117188
 20
233.2967834472656
 30
0.0
 11
-415.7007446289062
 21
237.6355133056641
 31
0.0
  0
LINE
  5
21B
330
22
100
AcDbEntity
  8
0
  6
Continuous
 62
     7
100
AcDbLine
 10
-410.8633728027343
 20
235.6266021728516
 30
0.0
 11
-415.7007446289062
 21
240.4639434814453
 31
0.0
  0
LINE
  5
21C
330
22
100
AcDbEntity
  8
0
  6
Continuous
 62
     7
100
AcDbLine
 10
-416.7269592285156
 20
244.318603515625
 30
0.0
 11
-417.3870239257813
 21
244.9786682128906
 31
0.0
  0
LINE
  5
21D
330
22
100
AcDbEntity
  8
0
  6
Continuous
 62
     7
100
AcDbLine
 10
-409.172882080078
 20
236.7645416259766
 30
0.0
 11
-415.7007446289062
 21
243.2923736572266
 31
0.0
  0
LINE
  5
21E
330
22
100
AcDbEntity
  8
0
  6
Continuous
 62
     7
100
AcDbLine
 10
-411.3619995117188
 20
241.7820739746094
 30
0.0
 11
-417.3870239257813
 21
247.8070831298828
 31
0.0
  0
LINE
  5
21F
330
22
100
AcDbEntity
  8
0
  6
Continuous
 62
     7
100
AcDbLine
 10
-408.9453430175781
 20
239.3654174804688
 30
0.0
 11
-410.3985290527344
 21
240.818603515625
 31
0.0
  0
LINE
  5
220
330
22
100
AcDbEntity
  8
0
  6
Continuous
 62
     7
100
AcDbLine
 10
-411.0701293945313
 20
244.318603515625
 30
0.0
 11
-415.0701293945313
 21
248.318603515625
 31
0.0
  0
LINE
  5
221
330
22
100
AcDbEntity
  8
0
  6
Continuous
 62
     7
100
AcDbLine
 10
-408.4902648925781
 20
244.5671691894531
 30
0.0
 11
-412.24169921875
 21
248.318603515625
 31
0.0
  0
LINE
  5
222
330
22
100
AcDbEntity
  8
0
  6
Continuous
 62
     7
100
AcDbLine
 10
-407.4132690429688
 20
246.318603515625
 30
0.0
 11
-409.4132690429687
 21
248.318603515625
 31
0.0
  0
LINE
  5
223
330
22
100
AcDbEntity
  8
0
  6
Continuous
 62
     7
100
AcDbLine
 10
-406.2870178222656
 20
248.0207977294922
 30
0.0
 11
-406.5848388671875
 21
248.318603515625
 31
0.0
  0
LINE
  5
224
330
22
100
AcDbEntity
  8
0
  6
Continuous
 62
     7
100
AcDbLine
 10
-385.2870178222656
 20
62.31861114501953
 30
0.0
 11
-468.2870178222656
 21
62.31861114501953
 31
0.0
  0
LINE
  5
225
330
22
100
AcDbEntity
  8
0
  6
Continuous
 62
     7
100
AcDbLine
 10
-426.7870178222656
 20
248.318603515625
 30
0.0
 11
-406.2870178222656
 21
248.318603515625
 31
0.0
  0
LINE
  5
226
330
22
100
AcDbEntity
  8
0
  6
Continuous
 62
     7
100
AcDbLine
 10
-404.2399597167968
 20
210.3626861572266
 30
0.0
 11
-426.7399597167968
 21
210.3626861572266
 31
0.0
  0
LINE
  5
227
330
22
100
AcDbEntity
  8
0
  6
Continuous
 62
     7
100
AcDbLine
 10
-406.18701171875
 20
248.318603515625
 30
0.0
 11
-406.18701171875
 21
246.318603515625
 31
0.0
  0
CIRCLE
  5
228
330
22
100
AcDbEntity
  8
0
  6
Continuous
 62
     7
100
AcDbCircle
 10
-427.7255249023438
 20
432.318603515625
 30
0.0
 40
33.25
  0
CIRCLE
  5
229
330
22
100
AcDbEntity
  8
0
  6
Continuous
 62
     7
100
AcDbCircle
 10
-427.7255249023438
 20
432.318603515625
 30
0.0
 40
33.5
  0
CIRCLE
  5
22A
330
22
100
AcDbEntity
  8
0
  6
Continuous
 62
     7
100
AcDbCircle
 10
-427.7255249023438
 20
432.4181213378905
 30
0.0
 40
51.0
  0
CIRCLE
  5
22B
330
22
100
AcDbEntity
  8
0
  6
Continuous
 62
     7
100
AcDbCircle
 10
-426.8089904785155
 20
432.318603515625
 30
0.0
 40
74.0
  0
CIRCLE
  5
22C
330
22
100
AcDbEntity
  8
0
  6
Continuous
 62
     7
100
AcDbCircle
 10
-426.8089904785155
 20
432.318603515625
 30
0.0
 40
91.0
  0
CIRCLE
  5
22D
330
22
100
AcDbEntity
  8
0
  6
CENTER
 62
     7
100
AcDbCircle
 10
-426.8089904785155
 20
432.318603515625
 30
0.0
 40
81.0
  0
CIRCLE
  5
22E
330
22
100
AcDbEntity
  8
0
  6
Continuous
 62
     7
100
AcDbCircle
 10
-426.8089904785155
 20
432.318603515625
 30
0.0
 40
57.5
  0
CIRCLE
  5
22F
330
22
100
AcDbEntity
  8
0
  6
Continuous
 62
     7
100
AcDbCircle
 10
-467.308837890625
 20
502.4668884277343
 30
0.0
 40
5.0
  0
ARC
  5
230
330
22
100
AcDbEntity
  8
0
  6
Continuous
 62
     7
100
AcDbCircle
 10
-434.130859375
 20
432.5132751464844
 30
0.0
 40
3.200591087341308
100
AcDbArc
 50
111.9117845361452
 51
251.6139423290696
  0
ARC
  5
231
330
22
100
AcDbEntity
  8
0
  6
Continuous
 62
     7
100
AcDbCircle
 10
-427.8255310058593
 20
432.318603515625
 30
0.0
 40
5.0
100
AcDbArc
 50
216.8698976458447
 51
323.1301023541567
  0
ARC
  5
232
330
22
100
AcDbEntity
  8
0
  6
Continuous
 62
     7
100
AcDbCircle
 10
-427.8255310058593
 20
432.318603515625
 30
0.0
 40
5.0
100
AcDbArc
 50
41.49312373339864
 51
90.00000000000019
  0
ARC
  5
233
330
22
100
AcDbEntity
  8
0
  6
Continuous
 62
     7
100
AcDbCircle
 10
-427.8255310058593
 20
432.318603515625
 30
0.0
 40
5.0
100
AcDbArc
 50
90.00000000000019
 51
134.441884873551
  0
CIRCLE
  5
234
330
22
100
AcDbEntity
  8
0
  6
Continuous
 62
     7
100
AcDbCircle
 10
-467.3091125488281
 20
362.1707763671875
 30
0.0
 40
5.0
  0
CIRCLE
  5
235
330
22
100
AcDbEntity
  8
0
  6
Continuous
 62
     7
100
AcDbCircle
 10
-467.3091125488281
 20
362.1707763671875
 30
0.0
 40
2.75
  0
CIRCLE
  5
236
330
22
100
AcDbEntity
  8
0
  6
Continuous
 62
     7
100
AcDbCircle
 10
-467.308837890625
 20
502.4668884277343
 30
0.0
 40
2.75
  0
CIRCLE
  5
237
330
22
100
AcDbEntity
  8
0
  6
Continuous
 62
     7
100
AcDbCircle
 10
-427.7255249023438
 20
432.4181213378905
 30
0.0
 40
19.0
  0
ARC
  5
238
330
22
100
AcDbEntity
  8
0
  6
Continuous
 62
     7
100
AcDbCircle
 10
-421.5202026367188
 20
432.5132751464844
 30
0.0
 40
3.200591087341308
100
AcDbArc
 50
273.4870838543173
 51
70.12737230108554
  0
ARC
  5
239
330
22
100
AcDbEntity
  8
0
  6
Continuous
 62
     7
100
AcDbCircle
 10
-427.8255310058593
 20
432.318603515625
 30
0.0
 40
18.5
100
AcDbArc
 50
270.0000000000005
 51
90.00000000000019
  0
ARC
  5
23A
330
22
100
AcDbEntity
  8
0
  6
Continuous
 62
     7
100
AcDbCircle
 10
-427.8255310058593
 20
432.318603515625
 30
0.0
 40
18.5
100
AcDbArc
 50
90.00000000000019
 51
270.0000000000005
  0
CIRCLE
  5
23B
330
22
100
AcDbEntity
  8
0
  6
Continuous
 62
     7
100
AcDbCircle
 10
-345.8089904785156
 20
432.318603515625
 30
0.0
 40
5.0
  0
CIRCLE
  5
23C
330
22
100
AcDbEntity
  8
0
  6
Continuous
 62
     7
100
AcDbCircle
 10
-345.8089904785156
 20
432.318603515625
 30
0.0
 40
2.75
  0
ARC
  5
23D
330
22
100
AcDbEntity
  8
0
  6
Continuous
 62
     7
100
AcDbCircle
 10
-409.3619995117188
 20
234.318603515625
 30
0.0
 40
2.0
100
AcDbArc
 50
90.00000000000019
 51
180.0000000000004
  0
ARC
  5
23E
330
22
100
AcDbEntity
  8
0
  6
Continuous
 62
     7
100
AcDbCircle
 10
-476.2870178222656
 20
236.318603515625
 30
0.0
 40
2.0
100
AcDbArc
 50
0.0
 51
90.00000000000019
  0
ARC
  5
23F
330
22
100
AcDbEntity
  8
0
  6
Continuous
 62
     7
100
AcDbCircle
 10
-377.2870178222656
 20
236.318603515625
 30
0.0
 40
2.0
100
AcDbArc
 50
90.00000000000019
 51
180.0000000000004
  0
LWPOLYLINE
  5
240
330
22
100
AcDbEntity
  8
0
  6
Continuous
 62
     7
100
AcDbPolyline
 90
       16
 70
     1
 43
0.0
 10
-410.0650939941406
 20
244.318603515625
 42
0.0984914033571643
 10
-410.5613940327968
 20
244.1853926975198
 42
0.0984914033571643
 10
-410.9821368895388
 20
243.8060403827015
 42
0.0984914033571643
 10
-411.2632682784708
 20
243.2382995222639
 42
0.0984914033571643
 10
-411.3619884940907
 20
242.568603515625
 42
0.0984914033571643
 10
-411.2632682784708
 20
241.8989075089861
 42
0.0984914033571643
 10
-410.9821368895388
 20
241.3311666485485
 42
0.0984914033571643
 10
-410.5613940327968
 20
240.9518143337303
 42
0.0984914033571643
 10
-410.0650939941406
 20
240.818603515625
 42
0.0984914033571643
 10
-409.5687939554844
 20
240.9518143337303
 42
0.0984914033571643
 10
-409.1480510987423
 20
241.3311666485485
 42
0.0984914033571643
 10
-408.8669197098104
 20
241.8989075089861
 42
0.0984914033571643
 10
-408.7681994941905
 20
242.568603515625
 42
0.0984914033571643
 10
-408.8669197098104
 20
243.2382995222639
 42
0.0984914033571643
 10
-409.1480510987423
 20
243.8060403827015
 42
0.0984914033571643
 10
-409.5687939554844
 20
244.1853926975198
 42
0.0984914033571643
  0
LWPOLYLINE
  5
252
330
22
100
AcDbEntity
  8
0
  6
Continuous
 62
     7
100
AcDbPolyline
 90
       16
 70
     1
 43
0.0
 10
-394.96826171875
 20
245.3186126708984
 42
0.0984914033571643
 10
-395.4729320025755
 20
245.1968199229165
 42
0.0984914033571643
 10
-395.900770810536
 20
244.8499835207969
 42
0.0984914033571643
 10
-396.1866435624881
 20
244.3309061626826
 42
0.0984914033571643
 10
-396.28702872339
 20
243.7186126708984
 42
0.0984914033571643
 10
-396.1866435624881
 20
243.1063191791143
 42
0.0984914033571643
 10
-395.900770810536
 20
242.587241821
 42
0.0984914033571643
 10
-395.4729320025755
 20
242.2404054188804
 42
0.0984914033571643
 10
-394.96826171875
 20
242.1186126708984
 42
0.0984914033571643
 10
-394.4635914349245
 20
242.2404054188804
 42
0.0984914033571643
 10
-394.035752626964
 20
242.587241821
 42
0.0984914033571643
 10
-393.7498798750119
 20
243.1063191791143
 42
0.0984914033571643
 10
-393.64949471411
 20
243.7186126708984
 42
0.0984914033571643
 10
-393.7498798750119
 20
244.3309061626826
 42
0.0984914033571643
 10
-394.035752626964
 20
244.8499835207969
 42
0.0984914033571643
 10
-394.4635914349245
 20
245.1968199229165
 42
0.0984914033571643
  0
TEXT
  5
264
330
22
100
AcDbEntity
  8
0
  6
Continuous
 62
     7
100
AcDbText
 10
-313.4524164199829
 20
331.4979858398438
 30
0.0
 40
7.0
  1
ＤＬ－ＨＳＰ－６５
 41
0.8448610808647003
100
AcDbText
  0
SOLID
  5
265
330
22
100
AcDbEntity
  8
0
  6
Continuous
 62
     7
100
AcDbTrace
 10
-409.8121032714844
 20
240.8522338867189
 30
0.0
 11
-410.318115234375
 21
240.8522338867189
 31
0.0
 12
-409.5688171386719
 22
240.9518280029297
 32
0.0
 13
-410.5614013671875
 23
240.9518280029297
 33
0.0
  0
SOLID
  5
266
330
22
100
AcDbEntity
  8
0
  6
Continuous
 62
     7
100
AcDbTrace
 10
-409.5688171386719
 20
240.9518280029297
 30
0.0
 11
-410.5614013671875
 21
240.9518280029297
 31
0.0
 12
-409.3446044921875
 22
241.1135406494141
 32
0.0
 13
-410.7856140136719
 23
241.1135406494141
 33
0.0
  0
SOLID
  5
267
330
22
100
AcDbEntity
  8
0
  6
Continuous
 62
     7
100
AcDbTrace
 10
-409.3446044921875
 20
241.1135406494141
 30
0.0
 11
-410.7856140136719
 21
241.1135406494141
 31
0.0
 12
-409.1480712890625
 22
241.3311767578125
 32
0.0
 13
-410.9821472167968
 23
241.3311767578125
 33
0.0
  0
SOLID
  5
268
330
22
100
AcDbEntity
  8
0
  6
Continuous
 62
     7
100
AcDbTrace
 10
-409.1480712890625
 20
241.3311767578125
 30
0.0
 11
-410.9821472167968
 21
241.3311767578125
 31
0.0
 12
-408.9867858886718
 22
241.5963592529297
 32
0.0
 13
-411.1434326171875
 23
241.5963592529297
 33
0.0
  0
SOLID
  5
269
330
22
100
AcDbEntity
  8
0
  6
Continuous
 62
     7
100
AcDbTrace
 10
-408.9867858886718
 20
241.5963592529297
 30
0.0
 11
-411.1434326171875
 21
241.5963592529297
 31
0.0
 12
-408.8669433593749
 22
241.8989105224609
 32
0.0
 13
-411.2632751464843
 23
241.8989105224609
 33
0.0
  0
SOLID
  5
26A
330
22
100
AcDbEntity
  8
0
  6
Continuous
 62
     7
100
AcDbTrace
 10
-408.8669433593749
 20
241.8989105224609
 30
0.0
 11
-411.2632751464843
 21
241.8989105224609
 31
0.0
 12
-408.7931213378906
 22
242.2272033691406
 32
0.0
 13
-411.3370666503906
 23
242.2272033691406
 33
0.0
  0
SOLID
  5
26B
330
22
100
AcDbEntity
  8
0
  6
Continuous
 62
     7
100
AcDbTrace
 10
-408.7931213378906
 20
242.2272033691406
 30
0.0
 11
-411.3370666503906
 21
242.2272033691406
 31
0.0
 12
-408.7682189941406
 22
242.568603515625
 32
0.0
 13
-411.3619995117188
 23
242.568603515625
 33
0.0
  0
SOLID
  5
26C
330
22
100
AcDbEntity
  8
0
  6
Continuous
 62
     7
100
AcDbTrace
 10
-408.7682189941406
 20
242.568603515625
 30
0.0
 11
-411.3619995117188
 21
242.568603515625
 31
0.0
 12
-408.7931213378906
 22
242.9100189208984
 32
0.0
 13
-411.3370666503906
 23
242.9100189208984
 33
0.0
  0
SOLID
  5
26D
330
22
100
AcDbEntity
  8
0
  6
Continuous
 62
     7
100
AcDbTrace
 10
-408.7931213378906
 20
242.9100189208984
 30
0.0
 11
-411.3370666503906
 21
242.9100189208984
 31
0.0
 12
-408.8669433593749
 22
243.2383117675781
 32
0.0
 13
-411.2632751464843
 23
243.2383117675781
 33
0.0
  0
SOLID
  5
26E
330
22
100
AcDbEntity
  8
0
  6
Continuous
 62
     7
100
AcDbTrace
 10
-408.8669433593749
 20
243.2383117675781
 30
0.0
 11
-411.2632751464843
 21
243.2383117675781
 31
0.0
 12
-408.9867858886718
 22
243.5408630371094
 32
0.0
 13
-411.1434326171875
 23
243.5408630371094
 33
0.0
  0
SOLID
  5
26F
330
22
100
AcDbEntity
  8
0
  6
Continuous
 62
     7
100
AcDbTrace
 10
-408.9867858886718
 20
243.5408630371094
 30
0.0
 11
-411.1434326171875
 21
243.5408630371094
 31
0.0
 12
-409.1480712890625
 22
243.8060455322266
 32
0.0
 13
-410.9821472167968
 23
243.8060455322266
 33
0.0
  0
SOLID
  5
270
330
22
100
AcDbEntity
  8
0
  6
Continuous
 62
     7
100
AcDbTrace
 10
-409.1480712890625
 20
243.8060455322266
 30
0.0
 11
-410.9821472167968
 21
243.8060455322266
 31
0.0
 12
-409.3446044921875
 22
244.023681640625
 32
0.0
 13
-410.7856140136719
 23
244.023681640625
 33
0.0
  0
SOLID
  5
271
330
22
100
AcDbEntity
  8
0
  6
Continuous
 62
     7
100
AcDbTrace
 10
-409.3446044921875
 20
244.023681640625
 30
0.0
 11
-410.7856140136719
 21
244.023681640625
 31
0.0
 12
-409.5688171386719
 22
244.1853942871094
 32
0.0
 13
-410.5614013671875
 23
244.1853942871094
 33
0.0
  0
SOLID
  5
272
330
22
100
AcDbEntity
  8
0
  6
Continuous
 62
     7
100
AcDbTrace
 10
-409.5688171386719
 20
244.1853942871094
 30
0.0
 11
-410.5614013671875
 21
244.1853942871094
 31
0.0
 12
-409.8121032714844
 22
244.2849884033203
 32
0.0
 13
-410.318115234375
 23
244.2849884033203
 33
0.0
  0
SOLID
  5
273
330
22
100
AcDbEntity
  8
0
  6
Continuous
 62
     7
100
AcDbTrace
 10
-410.0650939941406
 20
240.818603515625
 30
0.0
 11
-410.318115234375
 21
240.8522338867189
 31
0.0
 12
-409.8121032714844
 22
240.8522338867189
 32
0.0
 13
-409.8121032714844
 23
240.8522338867189
 33
0.0
  0
SOLID
  5
274
330
22
100
AcDbEntity
  8
0
  6
Continuous
 62
     7
100
AcDbTrace
 10
-409.8121032714844
 20
244.2849884033203
 30
0.0
 11
-410.318115234375
 21
244.2849884033203
 31
0.0
 12
-410.0650939941406
 22
244.318603515625
 32
0.0
 13
-410.0650939941406
 23
244.318603515625
 33
0.0
  0
SOLID
  5
275
330
22
100
AcDbEntity
  8
0
  6
Continuous
 62
     7
100
AcDbTrace
 10
-394.6748046875
 20
242.1587219238281
 30
0.0
 11
-395.26171875
 21
242.1587219238281
 31
0.0
 12
-394.3960571289063
 22
242.2770538330078
 32
0.0
 13
-395.5404357910156
 23
242.2770538330078
 33
0.0
  0
SOLID
  5
276
330
22
100
AcDbEntity
  8
0
  6
Continuous
 62
     7
100
AcDbTrace
 10
-394.3960571289063
 20
242.2770538330078
 30
0.0
 11
-395.5404357910156
 21
242.2770538330078
 31
0.0
 12
-394.1460266113281
 22
242.4676818847656
 32
0.0
 13
-395.7904968261719
 23
242.4676818847656
 33
0.0
  0
SOLID
  5
277
330
22
100
AcDbEntity
  8
0
  6
Continuous
 62
     7
100
AcDbTrace
 10
-394.1460266113281
 20
242.4676818847656
 30
0.0
 11
-395.7904968261719
 21
242.4676818847656
 31
0.0
 12
-393.9371948242188
 22
242.7210235595703
 32
0.0
 13
-395.9992980957031
 23
242.7210235595703
 33
0.0
  0
SOLID
  5
278
330
22
100
AcDbEntity
  8
0
  6
Continuous
 62
     7
100
AcDbTrace
 10
-393.9371948242188
 20
242.7210235595703
 30
0.0
 11
-395.9992980957031
 21
242.7210235595703
 31
0.0
 12
-393.7800903320313
 22
243.0243988037109
 32
0.0
 13
-396.1564331054688
 23
243.0243988037109
 33
0.0
  0
SOLID
  5
279
330
22
100
AcDbEntity
  8
0
  6
Continuous
 62
     7
100
AcDbTrace
 10
-393.7800903320313
 20
243.0243988037109
 30
0.0
 11
-396.1564331054688
 21
243.0243988037109
 31
0.0
 12
-393.6825561523438
 22
243.3625793457031
 32
0.0
 13
-396.2539672851563
 23
243.3625793457031
 33
0.0
  0
SOLID
  5
27A
330
22
100
AcDbEntity
  8
0
  6
Continuous
 62
     7
100
AcDbTrace
 10
-393.6825561523438
 20
243.3625793457031
 30
0.0
 11
-396.2539672851563
 21
243.3625793457031
 31
0.0
 12
-393.6494750976563
 22
243.7186126708984
 32
0.0
 13
-396.2870178222656
 23
243.7186126708984
 33
0.0
  0
SOLID
  5
27B
330
22
100
AcDbEntity
  8
0
  6
Continuous
 62
     7
100
AcDbTrace
 10
-393.6494750976563
 20
243.7186126708984
 30
0.0
 11
-396.2870178222656
 21
243.7186126708984
 31
0.0
 12
-393.6825561523438
 22
244.0746459960938
 32
0.0
 13
-396.2539672851563
 23
244.0746459960938
 33
0.0
  0
SOLID
  5
27C
330
22
100
AcDbEntity
  8
0
  6
Continuous
 62
     7
100
AcDbTrace
 10
-393.6825561523438
 20
244.0746459960938
 30
0.0
 11
-396.2539672851563
 21
244.0746459960938
 31
0.0
 12
-393.7800903320313
 22
244.4128265380859
 32
0.0
 13
-396.1564331054688
 23
244.4128265380859
 33
0.0
  0
SOLID
  5
27D
330
22
100
AcDbEntity
  8
0
  6
Continuous
 62
     7
100
AcDbTrace
 10
-393.7800903320313
 20
244.4128265380859
 30
0.0
 11
-396.1564331054688
 21
244.4128265380859
 31
0.0
 12
-393.9371948242188
 22
244.7161865234375
 32
0.0
 13
-395.9992980957031
 23
244.7161865234375
 33
0.0
  0
SOLID
  5
27E
330
22
100
AcDbEntity
  8
0
  6
Continuous
 62
     7
100
AcDbTrace
 10
-393.9371948242188
 20
244.7161865234375
 30
0.0
 11
-395.9992980957031
 21
244.7161865234375
 31
0.0
 12
-394.1460266113281
 22
244.9695434570313
 32
0.0
 13
-395.7904968261719
 23
244.9695434570313
 33
0.0
  0
SOLID
  5
27F
330
22
100
AcDbEntity
  8
0
  6
Continuous
 62
     7
100
AcDbTrace
 10
-394.1460266113281
 20
244.9695434570313
 30
0.0
 11
-395.7904968261719
 21
244.9695434570313
 31
0.0
 12
-394.3960571289063
 22
245.16015625
 32
0.0
 13
-395.5404357910156
 23
245.16015625
 33
0.0
  0
SOLID
  5
280
330
22
100
AcDbEntity
  8
0
  6
Continuous
 62
     7
100
AcDbTrace
 10
-394.3960571289063
 20
245.16015625
 30
0.0
 11
-395.5404357910156
 21
245.16015625
 31
0.0
 12
-394.6748046875
 22
245.2784881591797
 32
0.0
 13
-395.26171875
 23
245.2784881591797
 33
0.0
  0
SOLID
  5
281
330
22
100
AcDbEntity
  8
0
  6
Continuous
 62
     7
100
AcDbTrace
 10
-394.96826171875
 20
242.1186065673828
 30
0.0
 11
-395.26171875
 21
242.1587219238281
 31
0.0
 12
-394.6748046875
 22
242.1587219238281
 32
0.0
 13
-394.6748046875
 23
242.1587219238281
 33
0.0
  0
SOLID
  5
282
330
22
100
AcDbEntity
  8
0
  6
Continuous
 62
     7
100
AcDbTrace
 10
-394.6748046875
 20
245.2784881591797
 30
0.0
 11
-395.26171875
 21
245.2784881591797
 31
0.0
 12
-394.96826171875
 22
245.318603515625
 32
0.0
 13
-394.96826171875
 23
245.318603515625
 33
0.0
  0
DIMENSION
  5
283
330
22
100
AcDbEntity
  8
0
  6
Continuous
 62
     7
100
AcDbDimension
  2
*D1
 10
-418.2767539111221
 20
448.9020749521013
 30
0.0
 11
-441.0567626953125
 21
409.1609802246093
 31
0.0
 70
     3
 71
     5
 42
-1.0
  3
DIMSTYLE1
100
AcDbDiametricDimension
 15
-437.1742958935653
 25
415.9341677236799
 35
0.0
 40
0.0
  0
INSERT
  5
284
330
22
100
AcDbEntity
  8
0
  6
Continuous
 62
     7
100
AcDbBlockReference
  2
KOZU0001
 10
-342.4254150390625
 20
435.9998168945312
 30
0.0
  0
DIMENSION
  5
285
330
22
100
AcDbEntity
  8
0
  6
Continuous
 62
     7
100
AcDbDimension
  2
*D2
 10
-505.0501998313538
 20
453.2784021550523
 30
0.0
 11
-326.6233520507813
 21
405.4801940917968
 31
0.0
 70
     3
 71
     5
 42
-1.0
  3
DIMSTYLE2
100
AcDbDiametricDimension
 15
-348.5677811256774
 25
411.3588048761976
 35
0.0
 40
0.0
  0
DIMENSION
  5
286
330
22
100
AcDbEntity
  8
0
  6
Continuous
 62
     7
100
AcDbDimension
  2
*D3
 10
-501.6802634306849
 20
380.5953738550387
 30
0.0
 11
-335.9432373046875
 21
495.0912780761719
 31
0.0
 70
     3
 71
     5
 42
-1.0
  3
DIMSTYLE3
100
AcDbDiametricDimension
 15
-351.9377175263463
 25
484.0418331762113
 35
0.0
 40
0.0
  0
DIMENSION
  5
287
330
22
100
AcDbEntity
  8
0
  6
Continuous
 62
     7
100
AcDbDimension
  2
*D4
 10
-475.4077725278589
 20
414.3238332507883
 30
0.0
 11
-389.094482421875
 21
447.0776977539062
 31
0.0
 70
     3
 71
     5
 42
-1.0
  3
DIMSTYLE4
100
AcDbDiametricDimension
 15
-380.0432772768285
 25
450.5124094249928
 35
0.0
 40
0.0
  0
DIMENSION
  5
288
330
22
100
AcDbEntity
  8
0
  6
Continuous
 62
     7
100
AcDbDimension
  2
*D5
 10
-453.7968006770213
 20
453.3552044644643
 30
0.0
 11
-396.6654357910156
 21
407.2565917968749
 31
0.0
 70
     3
 71
     5
 42
-1.0
  3
DIMSTYLE5
100
AcDbDiametricDimension
 15
-401.6542491276661
 25
411.2820025667856
 35
0.0
 40
0.0
  0
DIMENSION
  5
289
330
22
100
AcDbEntity
  8
0
  6
Continuous
 62
     7
100
AcDbDimension
  2
*D6
 10
-302.4336853027344
 20
248.318603515625
 30
0.0
 11
-302.4336853027344
 21
176.818603515625
 31
0.0
 71
     5
 42
-1.0
  3
DIMSTYLE6
100
AcDbAlignedDimension
 13
-335.7870178222656
 23
105.3186111450195
 33
0.0
 14
-375.7870178222656
 24
248.318603515625
 34
0.0
 50
90.0
100
AcDbRotatedDimension
  0
DIMENSION
  5
28A
330
22
100
AcDbEntity
  8
0
  6
Continuous
 62
     7
100
AcDbDimension
  2
*D7
 10
-302.4336853027344
 20
102.3186111450195
 30
0.0
 11
-302.4336853027344
 21
92.03394317626951
 31
0.0
 71
     5
 42
-1.0
  3
DIMSTYLE7
100
AcDbAlignedDimension
 13
-300.1476745605469
 23
105.3186111450195
 33
0.0
 14
-335.7870178222656
 24
102.3186111450195
 34
0.0
 50
90.0
100
AcDbRotatedDimension
  0
DIMENSION
  5
28B
330
22
100
AcDbEntity
  8
0
  6
Continuous
 62
     7
100
AcDbDimension
  2
*D8
 10
-314.7689208984375
 20
135.318603515625
 30
0.0
 11
-314.7689208984375
 21
120.3186111450195
 31
0.0
 71
     5
 42
-1.0
  3
DIMSTYLE8
100
AcDbAlignedDimension
 13
-300.1476745605469
 23
105.3186111450195
 33
0.0
 14
-385.2870178222656
 24
135.318603515625
 34
0.0
 50
90.0
100
AcDbRotatedDimension
  0
DIMENSION
  5
28C
330
22
100
AcDbEntity
  8
0
  6
Continuous
 62
     7
100
AcDbDimension
  2
*D9
 10
-314.7689208984375
 20
194.318603515625
 30
0.0
 11
-314.7689208984375
 21
221.318603515625
 31
0.0
 71
     5
 42
-1.0
  3
DIMSTYLE9
100
AcDbAlignedDimension
 13
-300.1476745605469
 23
248.318603515625
 33
0.0
 14
-379.2870178222656
 24
194.318603515625
 34
0.0
 50
90.0
100
AcDbRotatedDimension
  0
DIMENSION
  5
28D
330
22
100
AcDbEntity
  8
0
  6
Continuous
 62
     7
100
AcDbDimension
  2
*D10
 10
-401.8214416503906
 20
212.318603515625
 30
0.0
 11
-401.8214416503906
 21
162.318603515625
 31
0.0
 71
     5
 42
-1.0
  3
DIMSTYLE10
100
AcDbAlignedDimension
 13
-390.6720275878906
 23
112.3186111450195
 33
0.0
 14
-404.2399597167968
 24
212.318603515625
 34
0.0
 50
90.0
100
AcDbRotatedDimension
  0
DIMENSION
  5
28E
330
22
100
AcDbEntity
  8
0
  6
Continuous
 62
     7
100
AcDbDimension
  2
*D11
 10
-385.2870178222656
 20
39.80548477172852
 30
0.0
 11
-426.7870178222656
 21
39.80548477172852
 31
0.0
 71
     5
 42
-1.0
  3
DIMSTYLE11
100
AcDbAlignedDimension
 13
-468.2870178222656
 23
62.31861114501953
 33
0.0
 14
-385.2870178222656
 24
62.31861114501953
 34
0.0
100
AcDbRotatedDimension
  0
INSERT
  5
28F
330
22
100
AcDbEntity
  8
0
  6
Continuous
 62
     7
100
AcDbBlockReference
  2
KOZU0002
 10
-389.1164855957031
 20
77.16126251220703
 30
0.0
  0
DIMENSION
  5
290
330
22
100
AcDbEntity
  8
0
  6
Continuous
 62
     7
100
AcDbDimension
  2
*D12
 10
-531.4981689453125
 20
135.318603515625
 30
0.0
 11
-531.4981689453125
 21
98.81861114501951
 31
0.0
 71
     5
 42
-1.0
  3
DIMSTYLE12
100
AcDbAlignedDimension
 13
-468.2870178222656
 23
62.31861114501953
 33
0.0
 14
-468.2870178222656
 24
135.318603515625
 34
0.0
 50
90.0
100
AcDbRotatedDimension
  0
ENDSEC
  0
SECTION
  2
OBJECTS
  0
DICTIONARY
  5
C
330
0
100
AcDbDictionary
281
     1
  3
ACAD_COLOR
350
1B
  3
ACAD_GROUP
350
D
  3
ACAD_LAYOUT
350
19
  3
ACAD_MATERIAL
350
1A
  3
ACAD_MLINESTYLE
350
16
  3
ACAD_PLOTSETTINGS
350
18
  3
ACAD_PLOTSTYLENAME
350
E
  3
ACAD_TABLESTYLE
350
1C
  3
AcDbVariableDictionary
350
29C
  0
DICTIONARY
  5
1B
102
{ACAD_REACTORS
330
C
102
}
330
C
100
AcDbDictionary
281
     1
  0
DICTIONARY
  5
D
102
{ACAD_REACTORS
330
C
102
}
330
C
100
AcDbDictionary
281
     1
  0
DICTIONARY
  5
19
102
{ACAD_REACTORS
330
C
102
}
330
C
100
AcDbDictionary
281
     1
  3
Model
350
25
  3
レイアウト1
350
21
  0
DICTIONARY
  5
1A
102
{ACAD_REACTORS
330
C
102
}
330
C
100
AcDbDictionary
281
     1
  0
DICTIONARY
  5
16
102
{ACAD_REACTORS
330
C
102
}
330
C
100
AcDbDictionary
281
     1
  3
Standard
350
17
  0
DICTIONARY
  5
18
102
{ACAD_REACTORS
330
C
102
}
330
C
100
AcDbDictionary
281
     1
  0
ACDBDICTIONARYWDFLT
  5
E
102
{ACAD_REACTORS
330
C
102
}
330
C
100
AcDbDictionary
281
     1
  3
Normal
350
F
100
AcDbDictionaryWithDefault
340
F
  0
DICTIONARY
  5
1C
102
{ACAD_REACTORS
330
C
102
}
330
C
100
AcDbDictionary
281
     1
  3
Standard
350
1D
  0
DICTIONARY
  5
29C
102
{ACAD_REACTORS
330
C
102
}
330
C
100
AcDbDictionary
281
     1
  3
CTABLESTYLE
350
29D
  0
LAYOUT
  5
25
102
{ACAD_REACTORS
330
19
102
}
330
19
100
AcDbPlotSettings
  1

  2
PDF reDirect v2
  4
User120
  6

 40
3.174999952316284
 41
3.174999952316284
 42
3.17498779296875
 43
3.17498779296875
 44
594.0
 45
841.0
 46
0.0
 47
0.0
 48
0.0
 49
0.0
140
0.0
141
0.0
142
1.0
143
1.0
 70
 11952
 72
     1
 73
     1
 74
     2
  7
C:\Users\ck\AppData\Roaming\Autodesk\AutoCAD 2005\R16.1\jpn\Plot Styles\black.ctb
 75
    16
147
1.0
 76
     0
 77
     2
 78
   300
148
839.0
149
0.0
100
AcDbLayout
  1
Model
 70
     1
 71
     0
 10
0.0
 20
0.0
 11
12.0
 21
9.0
 12
0.0
 22
0.0
 32
0.0
 14
0.0
 24
0.0
 34
0.0
 15
0.0
 25
0.0
 35
0.0
146
0.0
 13
0.0
 23
0.0
 33
0.0
 16
1.0
 26
0.0
 36
0.0
 17
0.0
 27
1.0
 37
0.0
 76
     0
330
22
1001
ACAD_PSEXT
1000
PDF reDirect v2
1000
PDF reDirect Pro
1000
PDF_REDIRECT_PORT:
1000
PDF reDirect provided by EXP Systems
1070
     0
  0
LAYOUT
  5
21
102
{ACAD_REACTORS
330
19
102
}
330
19
100
AcDbPlotSettings
  1

  2
PDF reDirect v2
  4

  6

 40
0.0
 41
0.0
 42
0.0
 43
0.0
 44
0.0
 45
0.0
 46
0.0
 47
0.0
 48
0.0
 49
0.0
140
0.0
141
0.0
142
1.0
143
1.0
 70
   688
 72
     0
 73
     0
 74
     5
  7
C:\Users\ck\AppData\Roaming\Autodesk\AutoCAD 2005\R16.1\jpn\Plot Styles\black.ctb
 75
    16
147
1.0
 76
     0
 77
     2
 78
   300
148
0.0
149
0.0
100
AcDbLayout
  1
レイアウト1
 70
     1
 71
     1
 10
-839.0
 20
0.0
 11
0.0
 21
591.0
 12
0.0
 22
0.0
 32
0.0
 14
1.000000000000000E+20
 24
1.000000000000000E+20
 34
1.000000000000000E+20
 15
-1.000000000000000E+20
 25
-1.000000000000000E+20
 35
-1.000000000000000E+20
146
0.0
 13
0.0
 23
0.0
 33
0.0
 16
1.0
 26
0.0
 36
0.0
 17
0.0
 27
1.0
 37
0.0
 76
     0
330
1E
  0
MLINESTYLE
  5
17
102
{ACAD_REACTORS
330
16
102
}
330
16
100
AcDbMlineStyle
  2
STANDARD
 70
     0
  3

 62
   256
 51
90.0
 52
90.0
 71
     2
 49
0.5
 62
   256
  6
BYLAYER
 49
-0.5
 62
   256
  6
BYLAYER
  0
ACDBPLACEHOLDER
  5
F
102
{ACAD_REACTORS
330
E
102
}
330
E
  0
TABLESTYLE
  5
1D
102
{ACAD_REACTORS
330
1C
102
}
330
1C
100
AcDbTableStyle
  3
Standard
 70
     0
 71
     0
 40
0.06
 41
0.06
280
     0
281
     0
  7
STANDARD
140
0.18
170
     2
 62
     0
 63
     7
283
     0
274
    -2
284
     1
 64
     0
275
    -2
285
     1
 65
     0
276
    -2
286
     1
 66
     0
277
    -2
287
     1
 67
     0
278
    -2
288
     1
 68
     0
279
    -2
289
     1
 69
     0
  7
STANDARD
140
0.25
170
     5
 62
     0
 63
     7
283
     0
274
    -2
284
     1
 64
     0
275
    -2
285
     1
 65
     0
276
    -2
286
     1
 66
     0
277
    -2
287
     1
 67
     0
278
    -2
288
     1
 68
     0
279
    -2
289
     1
 69
     0
  7
STANDARD
140
0.18
170
     5
 62
     0
 63
     7
283
     0
274
    -2
284
     1
 64
     0
275
    -2
285
     1
 65
     0
276
    -2
286
     1
 66
     0
277
    -2
287
     1
 67
     0
278
    -2
288
     1
 68
     0
279
    -2
289
     1
 69
     0
  0
DICTIONARYVAR
  5
29D
102
{ACAD_REACTORS
330
29C
102
}
330
29C
100
DictionaryVariables
280
     0
  1
STANDARD
  0
ENDSEC
  0
EOF
