  0
SECTION
  2
HEADER
  9
$ACADVER
  1
AC1018
  9
$ACADMAINTVER
 70
    39
  9
$DWGCODEPAGE
  3
ANSI_932
  9
$INSBASE
 10
0.0
 20
0.0
 30
0.0
  9
$EXTMIN
 10
-438.860105865239
 20
8.597779303553807
 30
-0.0015258207003583
  9
$EXTMAX
 10
-139.3190905807062
 20
401.0468149183398
 30
0.0000000349246037
  9
$LIMMIN
 10
-592.0
 20
0.0
  9
$LIMMAX
 10
0.0
 20
418.0
  9
$ORTHOMODE
 70
     0
  9
$REGENMODE
 70
     1
  9
$FILLMODE
 70
     1
  9
$QTEXTMODE
 70
     0
  9
$MIRRTEXT
 70
     0
  9
$LTSCALE
 40
1.0
  9
$ATTMODE
 70
     1
  9
$TEXTSIZE
 40
0.2
  9
$TRACEWID
 40
0.05
  9
$TEXTSTYLE
  7
STANDARD
  9
$CLAYER
  8
0
  9
$CELTYPE
  6
CONTINUOUS
  9
$CECOLOR
 62
   256
  9
$CELTSCALE
 40
1.0
  9
$DISPSILH
 70
     0
  9
$DIMSCALE
 40
1.0
  9
$DIMASZ
 40
1.0
  9
$DIMEXO
 40
2.54
  9
$DIMDLI
 40
0.38
  9
$DIMRND
 40
0.0
  9
$DIMDLE
 40
0.0
  9
$DIMEXE
 40
2.54
  9
$DIMTP
 40
0.0
  9
$DIMTM
 40
0.0
  9
$DIMTXT
 40
3.0
  9
$DIMCEN
 40
0.09
  9
$DIMTSZ
 40
0.0
  9
$DIMTOL
 70
     0
  9
$DIMLIM
 70
     0
  9
$DIMTIH
 70
     0
  9
$DIMTOH
 70
     0
  9
$DIMSE1
 70
     0
  9
$DIMSE2
 70
     0
  9
$DIMTAD
 70
     1
  9
$DIMZIN
 70
     0
  9
$DIMBLK
  1

  9
$DIMASO
 70
     1
  9
$DIMSHO
 70
     0
  9
$DIMPOST
  1

  9
$DIMAPOST
  1

  9
$DIMALT
 70
     0
  9
$DIMALTD
 70
     2
  9
$DIMALTF
 40
25.4
  9
$DIMLFAC
 40
1.0
  9
$DIMTOFL
 70
     0
  9
$DIMTVP
 40
1.0
  9
$DIMTIX
 70
     0
  9
$DIMSOXD
 70
     0
  9
$DIMSAH
 70
     1
  9
$DIMBLK1
  1

  9
$DIMBLK2
  1

  9
$DIMSTYLE
  2
DIMSTYLE1
  9
$DIMCLRD
 70
     0
  9
$DIMCLRE
 70
     0
  9
$DIMCLRT
 70
     0
  9
$DIMTFAC
 40
1.0
  9
$DIMGAP
 40
1.5
  9
$DIMJUST
 70
     0
  9
$DIMSD1
 70
     0
  9
$DIMSD2
 70
     0
  9
$DIMTOLJ
 70
     1
  9
$DIMTZIN
 70
     0
  9
$DIMALTZ
 70
     0
  9
$DIMALTTZ
 70
     0
  9
$DIMUPT
 70
     0
  9
$DIMDEC
 70
     4
  9
$DIMTDEC
 70
     4
  9
$DIMALTU
 70
     2
  9
$DIMALTTD
 70
     2
  9
$DIMTXSTY
  7
STANDARD
  9
$DIMAUNIT
 70
     0
  9
$DIMADEC
 70
     0
  9
$DIMALTRND
 40
0.0
  9
$DIMAZIN
 70
     0
  9
$DIMDSEP
 70
    46
  9
$DIMATFIT
 70
     3
  9
$DIMFRAC
 70
     0
  9
$DIMLDRBLK
  1

  9
$DIMLUNIT
 70
     2
  9
$DIMLWD
 70
    -2
  9
$DIMLWE
 70
    -2
  9
$DIMTMOVE
 70
     0
  9
$LUNITS
 70
     2
  9
$LUPREC
 70
     4
  9
$SKETCHINC
 40
0.1
  9
$FILLETRAD
 40
0.0
  9
$AUNITS
 70
     0
  9
$AUPREC
 70
     0
  9
$MENU
  1
.
  9
$ELEVATION
 40
0.0
  9
$PELEVATION
 40
0.0
  9
$THICKNESS
 40
0.0
  9
$LIMCHECK
 70
     0
  9
$CHAMFERA
 40
0.0
  9
$CHAMFERB
 40
0.0
  9
$CHAMFERC
 40
0.0
  9
$CHAMFERD
 40
0.0
  9
$SKPOLY
 70
     0
  9
$TDCREATE
 40
2457843.869647442
  9
$TDUCREATE
 40
2457843.494647442
  9
$TDUPDATE
 40
2457843.870134456
  9
$TDUUPDATE
 40
2457843.495134456
  9
$TDINDWG
 40
0.0004882870
  9
$TDUSRTIMER
 40
0.0004882870
  9
$USRTIMER
 70
     1
  9
$ANGBASE
 50
0.0
  9
$ANGDIR
 70
     0
  9
$PDMODE
 70
     0
  9
$PDSIZE
 40
0.0
  9
$PLINEWID
 40
0.0
  9
$SPLFRAME
 70
     0
  9
$SPLINETYPE
 70
     6
  9
$SPLINESEGS
 70
     8
  9
$HANDSEED
  5
254
  9
$SURFTAB1
 70
     6
  9
$SURFTAB2
 70
     6
  9
$SURFTYPE
 70
     6
  9
$SURFU
 70
     6
  9
$SURFV
 70
     6
  9
$UCSBASE
  2

  9
$UCSNAME
  2

  9
$UCSORG
 10
0.0
 20
0.0
 30
0.0
  9
$UCSXDIR
 10
1.0
 20
0.0
 30
0.0
  9
$UCSYDIR
 10
0.0
 20
1.0
 30
0.0
  9
$UCSORTHOREF
  2

  9
$UCSORTHOVIEW
 70
     0
  9
$UCSORGTOP
 10
0.0
 20
0.0
 30
0.0
  9
$UCSORGBOTTOM
 10
0.0
 20
0.0
 30
0.0
  9
$UCSORGLEFT
 10
0.0
 20
0.0
 30
0.0
  9
$UCSORGRIGHT
 10
0.0
 20
0.0
 30
0.0
  9
$UCSORGFRONT
 10
0.0
 20
0.0
 30
0.0
  9
$UCSORGBACK
 10
0.0
 20
0.0
 30
0.0
  9
$PUCSBASE
  2

  9
$PUCSNAME
  2

  9
$PUCSORG
 10
0.0
 20
0.0
 30
0.0
  9
$PUCSXDIR
 10
1.0
 20
0.0
 30
0.0
  9
$PUCSYDIR
 10
0.0
 20
1.0
 30
0.0
  9
$PUCSORTHOREF
  2

  9
$PUCSORTHOVIEW
 70
     0
  9
$PUCSORGTOP
 10
0.0
 20
0.0
 30
0.0
  9
$PUCSORGBOTTOM
 10
0.0
 20
0.0
 30
0.0
  9
$PUCSORGLEFT
 10
0.0
 20
0.0
 30
0.0
  9
$PUCSORGRIGHT
 10
0.0
 20
0.0
 30
0.0
  9
$PUCSORGFRONT
 10
0.0
 20
0.0
 30
0.0
  9
$PUCSORGBACK
 10
0.0
 20
0.0
 30
0.0
  9
$USERI1
 70
     0
  9
$USERI2
 70
     0
  9
$USERI3
 70
     0
  9
$USERI4
 70
     0
  9
$USERI5
 70
     0
  9
$USERR1
 40
0.0
  9
$USERR2
 40
0.0
  9
$USERR3
 40
0.0
  9
$USERR4
 40
0.0
  9
$USERR5
 40
0.0
  9
$WORLDVIEW
 70
     1
  9
$SHADEDGE
 70
     3
  9
$SHADEDIF
 70
    70
  9
$TILEMODE
 70
     1
  9
$MAXACTVP
 70
    64
  9
$PINSBASE
 10
0.0
 20
0.0
 30
0.0
  9
$PLIMCHECK
 70
     0
  9
$PEXTMIN
 10
1.000000000000000E+20
 20
1.000000000000000E+20
 30
1.000000000000000E+20
  9
$PEXTMAX
 10
-1.000000000000000E+20
 20
-1.000000000000000E+20
 30
-1.000000000000000E+20
  9
$PLIMMIN
 10
-592.0
 20
0.0
  9
$PLIMMAX
 10
0.0
 20
418.0
  9
$UNITMODE
 70
     0
  9
$VISRETAIN
 70
     1
  9
$PLINEGEN
 70
     0
  9
$PSLTSCALE
 70
     1
  9
$TREEDEPTH
 70
  3020
  9
$CMLSTYLE
  2
Standard
  9
$CMLJUST
 70
     0
  9
$CMLSCALE
 40
1.0
  9
$PROXYGRAPHICS
 70
     1
  9
$MEASUREMENT
 70
     0
  9
$CELWEIGHT
370
    -1
  9
$ENDCAPS
280
     0
  9
$JOINSTYLE
280
     0
  9
$LWDISPLAY
290
     0
  9
$INSUNITS
 70
     0
  9
$HYPERLINKBASE
  1

  9
$STYLESHEET
  1

  9
$XEDIT
290
     1
  9
$CEPSNTYPE
380
     0
  9
$PSTYLEMODE
290
     1
  9
$FINGERPRINTGUID
  2
{72A04A3E-CE32-4896-88BF-7BD0B9BDC034}
  9
$VERSIONGUID
  2
{265AECFB-AD7C-4296-8976-D5C3D724BFBF}
  9
$EXTNAMES
290
     1
  9
$PSVPSCALE
 40
0.0
  9
$OLESTARTUP
290
     0
  9
$SORTENTS
280
   127
  9
$INDEXCTL
280
     0
  9
$HIDETEXT
280
     0
  9
$XCLIPFRAME
290
     0
  9
$HALOGAP
280
     0
  9
$OBSCOLOR
 70
   257
  9
$OBSLTYPE
280
     0
  9
$INTERSECTIONDISPLAY
280
     0
  9
$INTERSECTIONCOLOR
 70
   257
  9
$DIMASSOC
280
     1
  9
$PROJECTNAME
  1

  0
ENDSEC
  0
SECTION
  2
CLASSES
  0
CLASS
  1
ACDBDICTIONARYWDFLT
  2
AcDbDictionaryWithDefault
  3
ObjectDBX Classes
 90
        0
 91
        1
280
     0
281
     0
  0
CLASS
  1
TABLESTYLE
  2
AcDbTableStyle
  3
ObjectDBX Classes
 90
     2047
 91
        1
280
     0
281
     0
  0
CLASS
  1
DICTIONARYVAR
  2
AcDbDictionaryVar
  3
ObjectDBX Classes
 90
        0
 91
        1
280
     0
281
     0
  0
ENDSEC
  0
SECTION
  2
TABLES
  0
TABLE
  2
VPORT
  5
8
330
0
100
AcDbSymbolTable
 70
     2
  0
VPORT
  5
253
330
8
100
AcDbSymbolTableRecord
100
AcDbViewportTableRecord
  2
*Active
 70
     0
 10
0.0
 20
0.0
 11
1.0
 21
1.0
 12
-296.0
 22
209.0
 13
0.0
 23
0.0
 14
1.0
 24
1.0
 15
0.0
 25
0.0
 16
0.0
 26
0.0
 36
1.0
 17
0.0
 27
0.0
 37
0.0
 40
421.1155279503105
 41
1.639303482587064
 42
50.0
 43
0.0
 44
0.0
 50
0.0
 51
0.0
 71
     0
 72
   100
 73
     1
 74
     1
 75
     0
 76
     0
 77
     0
 78
     0
281
     0
 65
     1
110
0.0
120
0.0
130
0.0
111
1.0
121
0.0
131
0.0
112
0.0
122
1.0
132
0.0
 79
     0
146
0.0
  0
ENDTAB
  0
TABLE
  2
LTYPE
  5
5
330
0
100
AcDbSymbolTable
 70
     6
  0
LTYPE
  5
13
330
5
100
AcDbSymbolTableRecord
100
AcDbLinetypeTableRecord
  2
ByBlock
 70
     0
  3

 72
    65
 73
     0
 40
0.0
  0
LTYPE
  5
14
330
5
100
AcDbSymbolTableRecord
100
AcDbLinetypeTableRecord
  2
ByLayer
 70
     0
  3

 72
    65
 73
     0
 40
0.0
  0
LTYPE
  5
15
330
5
100
AcDbSymbolTableRecord
100
AcDbLinetypeTableRecord
  2
CONTINUOUS
 70
     0
  3
Solid line
 72
    65
 73
     0
 40
0.0
  0
LTYPE
  5
26
330
5
100
AcDbSymbolTableRecord
100
AcDbLinetypeTableRecord
  2
DASHED
 70
     0
  3
__ __ __ __ __ __ __ __ __ __ __ __ __ __ __
 72
    65
 73
     2
 40
3.5
 49
2.0
 74
     0
 49
-1.5
 74
     0
  0
LTYPE
  5
27
330
5
100
AcDbSymbolTableRecord
100
AcDbLinetypeTableRecord
  2
CENTER
 70
     0
  3
____ _ ____ _ ____ _ ____ _ ____ _ ____ _ ____
 72
    65
 73
     4
 40
17.5
 49
13.0
 74
     0
 49
-1.5
 74
     0
 49
1.5
 74
     0
 49
-1.5
 74
     0
  0
LTYPE
  5
28
330
5
100
AcDbSymbolTableRecord
100
AcDbLinetypeTableRecord
  2
PHANTOM
 70
     0
  3
_____ _ _ _____ _ _ _____ _ _ _____ _ _ ____  
 72
    65
 73
     6
 40
15.5
 49
8.0
 74
     0
 49
-1.5
 74
     0
 49
1.5
 74
     0
 49
-1.5
 74
     0
 49
1.5
 74
     0
 49
-1.5
 74
     0
  0
LTYPE
  5
29
330
5
100
AcDbSymbolTableRecord
100
AcDbLinetypeTableRecord
  2
DOT
 70
     0
  3
. . . . . . . . . . . . . . . . . . . . . . . .
 72
    65
 73
     2
 40
0.25
 49
0.0
 74
     0
 49
-0.25
 74
     0
  0
LTYPE
  5
2A
330
5
100
AcDbSymbolTableRecord
100
AcDbLinetypeTableRecord
  2
HIDDEN
 70
     0
  3
__ __ __ __ __ __ __ __ __ __ __ __ __ __ __
 72
    65
 73
     2
 40
3.5
 49
2.0
 74
     0
 49
-1.5
 74
     0
  0
ENDTAB
  0
TABLE
  2
LAYER
  5
2
330
0
100
AcDbSymbolTable
 70
     2
  0
LAYER
  5
10
330
2
100
AcDbSymbolTableRecord
100
AcDbLayerTableRecord
  2
0
 70
     0
 62
     7
  6
CONTINUOUS
370
    -3
390
F
  0
LAYER
  5
2B
330
2
100
AcDbSymbolTableRecord
100
AcDbLayerTableRecord
  2
DEFPOINTS
 70
     0
 62
     7
  6
CONTINUOUS
290
     0
370
    -3
390
F
  0
ENDTAB
  0
TABLE
  2
STYLE
  5
3
330
0
100
AcDbSymbolTable
 70
     2
  0
STYLE
  5
11
330
3
100
AcDbSymbolTableRecord
100
AcDbTextStyleTableRecord
  2
STANDARD
 70
     0
 40
0.0
 41
1.0
 50
0.0
 71
     0
 42
0.2
  3

  4

1001
ACAD
1000
MS Gothic
1071
    32817
  0
ENDTAB
  0
TABLE
  2
VIEW
  5
6
330
0
100
AcDbSymbolTable
 70
     0
  0
ENDTAB
  0
TABLE
  2
UCS
  5
7
330
0
100
AcDbSymbolTable
 70
     0
  0
ENDTAB
  0
TABLE
  2
APPID
  5
9
330
0
100
AcDbSymbolTable
 70
     2
  0
APPID
  5
12
330
9
100
AcDbSymbolTableRecord
100
AcDbRegAppTableRecord
  2
ACAD
 70
     0
  0
APPID
  5
248
330
9
100
AcDbSymbolTableRecord
100
AcDbRegAppTableRecord
  2
ACAD_PSEXT
 70
     0
  0
ENDTAB
  0
TABLE
  2
DIMSTYLE
  5
A
330
0
100
AcDbSymbolTable
 70
    12
100
AcDbDimStyleTable
 71
     1
340
2C
  0
DIMSTYLE
105
2C
102
{ACAD_REACTORS
330
239
102
}
330
A
100
AcDbSymbolTableRecord
100
AcDbDimStyleTableRecord
  2
DIMSTYLE1
 70
     0
 41
1.0
 42
2.54
 44
2.54
 73
     0
 74
     0
 75
     1
 76
     1
 77
     1
140
3.0
145
1.0
147
1.5
172
     1
173
     1
279
     2
340
11
  0
DIMSTYLE
105
2D
102
{ACAD_REACTORS
330
23B
102
}
330
A
100
AcDbSymbolTableRecord
100
AcDbDimStyleTableRecord
  2
DIMSTYLE2
 70
     0
 41
1.0
 42
2.54
 44
2.54
 73
     0
 74
     0
 75
     1
 76
     1
 77
     1
140
3.0
145
1.0
147
1.5
172
     1
173
     1
279
     2
340
11
  0
DIMSTYLE
105
2E
102
{ACAD_REACTORS
330
23C
102
}
330
A
100
AcDbSymbolTableRecord
100
AcDbDimStyleTableRecord
  2
DIMSTYLE3
 70
     0
 41
1.0
 42
2.54
 44
2.54
 73
     0
 74
     0
 75
     1
 76
     1
 77
     1
140
3.0
145
1.0
147
1.5
172
     1
173
     1
279
     2
340
11
  0
DIMSTYLE
105
2F
102
{ACAD_REACTORS
330
23D
102
}
330
A
100
AcDbSymbolTableRecord
100
AcDbDimStyleTableRecord
  2
DIMSTYLE4
 70
     0
 41
1.0
 42
2.54
 44
2.54
 73
     0
 74
     0
 75
     1
 76
     1
 77
     1
140
3.0
145
1.0
147
1.5
172
     1
173
     1
279
     2
340
11
  0
DIMSTYLE
105
30
102
{ACAD_REACTORS
330
23E
102
}
330
A
100
AcDbSymbolTableRecord
100
AcDbDimStyleTableRecord
  2
DIMSTYLE5
 70
     0
 41
1.0
 42
2.54
 44
2.54
 73
     0
 74
     0
 77
     1
140
3.0
145
1.0
147
1.5
172
     1
173
     1
279
     2
340
11
  0
DIMSTYLE
105
31
102
{ACAD_REACTORS
330
240
102
}
330
A
100
AcDbSymbolTableRecord
100
AcDbDimStyleTableRecord
  2
DIMSTYLE6
 70
     0
 41
1.0
 42
2.54
 44
2.54
 73
     0
 74
     0
 77
     1
140
3.0
145
1.0
147
1.5
172
     1
173
     1
279
     2
340
11
  0
DIMSTYLE
105
32
102
{ACAD_REACTORS
330
241
102
}
330
A
100
AcDbSymbolTableRecord
100
AcDbDimStyleTableRecord
  2
DIMSTYLE7
 70
     0
 41
1.0
 42
2.54
 44
2.54
 73
     0
 74
     0
 77
     1
140
3.0
145
1.0
147
1.5
172
     1
173
     1
279
     2
340
11
  0
DIMSTYLE
105
33
102
{ACAD_REACTORS
330
242
102
}
330
A
100
AcDbSymbolTableRecord
100
AcDbDimStyleTableRecord
  2
DIMSTYLE8
 70
     0
 41
1.0
 42
2.54
 44
2.54
 73
     0
 74
     0
 77
     1
140
3.0
145
1.0
147
1.5
172
     1
173
     1
279
     2
340
11
  0
DIMSTYLE
105
34
102
{ACAD_REACTORS
330
243
102
}
330
A
100
AcDbSymbolTableRecord
100
AcDbDimStyleTableRecord
  2
DIMSTYLE9
 70
     0
 41
1.0
 42
2.54
 44
2.54
 73
     0
 74
     0
 77
     1
140
3.0
145
1.0
147
1.5
172
     1
173
     1
279
     2
340
11
  0
DIMSTYLE
105
35
102
{ACAD_REACTORS
330
244
102
}
330
A
100
AcDbSymbolTableRecord
100
AcDbDimStyleTableRecord
  2
DIMSTYLE10
 70
     0
 41
1.0
 42
2.54
 44
2.54
 73
     0
 74
     0
 77
     1
140
3.0
145
1.0
147
1.5
172
     1
173
     1
279
     2
340
11
  0
DIMSTYLE
105
36
102
{ACAD_REACTORS
330
245
102
}
330
A
100
AcDbSymbolTableRecord
100
AcDbDimStyleTableRecord
  2
DIMSTYLE11
 70
     0
 41
1.0
 42
2.54
 44
2.54
 73
     0
 74
     0
 77
     1
140
3.0
145
1.0
147
1.5
172
     1
173
     1
279
     2
340
11
  0
ENDTAB
  0
TABLE
  2
BLOCK_RECORD
  5
1
330
0
100
AcDbSymbolTable
 70
    15
  0
BLOCK_RECORD
  5
22
330
1
100
AcDbSymbolTableRecord
100
AcDbBlockTableRecord
  2
*Model_Space
340
25
  0
BLOCK_RECORD
  5
1E
330
1
100
AcDbSymbolTableRecord
100
AcDbBlockTableRecord
  2
*Paper_Space
340
21
  0
BLOCK_RECORD
  5
3A
330
1
100
AcDbSymbolTableRecord
100
AcDbBlockTableRecord
  2
_OPEN30
340
0
102
{BLKREFS
331
44
331
45
331
4E
331
4F
331
57
331
58
331
61
331
62
331
6A
331
6B
331
76
331
77
331
82
331
83
331
8F
331
91
331
9C
331
9D
331
A7
331
A8
331
B2
331
B3
102
}
  0
BLOCK_RECORD
  5
40
330
1
100
AcDbSymbolTableRecord
100
AcDbBlockTableRecord
  2
*D1
340
0
  0
BLOCK_RECORD
  5
4A
330
1
100
AcDbSymbolTableRecord
100
AcDbBlockTableRecord
  2
*D2
340
0
  0
BLOCK_RECORD
  5
54
330
1
100
AcDbSymbolTableRecord
100
AcDbBlockTableRecord
  2
*D3
340
0
  0
BLOCK_RECORD
  5
5D
330
1
100
AcDbSymbolTableRecord
100
AcDbBlockTableRecord
  2
*D4
340
0
  0
BLOCK_RECORD
  5
67
330
1
100
AcDbSymbolTableRecord
100
AcDbBlockTableRecord
  2
*D5
340
0
  0
BLOCK_RECORD
  5
73
330
1
100
AcDbSymbolTableRecord
100
AcDbBlockTableRecord
  2
*D6
340
0
  0
BLOCK_RECORD
  5
7F
330
1
100
AcDbSymbolTableRecord
100
AcDbBlockTableRecord
  2
*D7
340
0
  0
BLOCK_RECORD
  5
8B
330
1
100
AcDbSymbolTableRecord
100
AcDbBlockTableRecord
  2
*D8
340
0
  0
BLOCK_RECORD
  5
99
330
1
100
AcDbSymbolTableRecord
100
AcDbBlockTableRecord
  2
*D9
340
0
  0
BLOCK_RECORD
  5
A4
330
1
100
AcDbSymbolTableRecord
100
AcDbBlockTableRecord
  2
*D10
340
0
  0
BLOCK_RECORD
  5
AF
330
1
100
AcDbSymbolTableRecord
100
AcDbBlockTableRecord
  2
*D11
340
0
  0
BLOCK_RECORD
  5
B9
330
1
100
AcDbSymbolTableRecord
100
AcDbBlockTableRecord
  2
KOZU0001
340
0
102
{BLKREFS
331
23A
102
}
  0
BLOCK_RECORD
  5
C1
330
1
100
AcDbSymbolTableRecord
100
AcDbBlockTableRecord
  2
KOZU0002
340
0
102
{BLKREFS
331
23F
102
}
  0
ENDTAB
  0
ENDSEC
  0
SECTION
  2
BLOCKS
  0
BLOCK
  5
23
330
22
100
AcDbEntity
  8
0
100
AcDbBlockBegin
  2
*Model_Space
 70
     0
 10
0.0
 20
0.0
 30
0.0
  3
*Model_Space
  1

  0
ENDBLK
  5
24
330
22
100
AcDbEntity
  8
0
100
AcDbBlockEnd
  0
BLOCK
  5
1F
330
1E
100
AcDbEntity
 67
     1
  8
0
100
AcDbBlockBegin
  2
*Paper_Space
 70
     0
 10
0.0
 20
0.0
 30
0.0
  3
*Paper_Space
  1

  0
ENDBLK
  5
20
330
1E
100
AcDbEntity
 67
     1
  8
0
100
AcDbBlockEnd
  0
BLOCK
  5
3B
330
3A
100
AcDbEntity
  8
0
100
AcDbBlockBegin
  2
_OPEN30
 70
     0
 10
0.0
 20
0.0
 30
0.0
  3
_OPEN30
  1

  0
LINE
  5
3C
330
3A
100
AcDbEntity
  8
0
  6
ByBlock
 62
     0
100
AcDbLine
 10
0.0
 20
0.0
 30
0.0
 11
-2.999999999999993
 21
-1.000000000000017
 31
0.0
  0
LINE
  5
3D
330
3A
100
AcDbEntity
  8
0
  6
ByBlock
 62
     0
100
AcDbLine
 10
0.0
 20
0.0
 30
0.0
 11
-3.000000000000006
 21
0.9999999999999815
 31
0.0
  0
LINE
  5
3E
330
3A
100
AcDbEntity
  8
0
  6
ByBlock
 62
     0
100
AcDbLine
 10
0.0
 20
0.0
 30
0.0
 11
-3.0
 21
0.0
 31
0.0
  0
ENDBLK
  5
3F
330
3A
100
AcDbEntity
  8
0
100
AcDbBlockEnd
  0
BLOCK
  5
41
330
40
100
AcDbEntity
  8
0
100
AcDbBlockBegin
  2
*D1
 70
     1
 10
0.0
 20
0.0
 30
0.0
  3
*D1
  1

  0
LINE
  5
42
330
40
100
AcDbEntity
  8
0
  6
Continuous
 62
     7
100
AcDbLine
 10
-267.2519836425781
 20
295.1383056640625
 30
0.0
 11
-235.5900726318359
 21
286.6564636230469
 31
0.0
  0
LINE
  5
43
330
40
100
AcDbEntity
  8
0
  6
Continuous
 62
     7
100
AcDbLine
 10
-405.3815353199953
 20
332.1414053336964
 30
0.0
 11
-270.149806232739
 21
295.914594422163
 31
0.0
  0
INSERT
  5
44
330
40
100
AcDbEntity
  8
0
  6
Continuous
 62
     7
100
AcDbBlockReference
  2
_OPEN30
 10
-408.2793579101562
 20
332.9176940917969
 30
0.0
 50
165.0033291818668
  0
INSERT
  5
45
330
40
100
AcDbEntity
  8
0
  6
Continuous
 62
     7
100
AcDbBlockReference
  2
_OPEN30
 10
-267.2519836425781
 20
295.1383056640625
 30
0.0
 50
345.0033291818675
  0
TEXT
  5
46
330
40
100
AcDbEntity
  8
0
  6
Continuous
 62
     7
100
AcDbText
 10
-251.9520649446447
 20
291.8166082085042
 30
0.0
 40
3.0
  1
PCD146
 50
344.999999582587
 41
1.07125000655651
100
AcDbText
  0
POINT
  5
47
330
40
100
AcDbEntity
  8
DEFPOINTS
  6
Continuous
 62
     7
100
AcDbPoint
 10
-408.2793579101562
 20
332.9176940917969
 30
0.0
  0
POINT
  5
48
330
40
100
AcDbEntity
  8
DEFPOINTS
  6
Continuous
 62
     7
100
AcDbPoint
 10
-267.2519836425781
 20
295.1383056640625
 30
0.0
  0
ENDBLK
  5
49
330
40
100
AcDbEntity
  8
0
100
AcDbBlockEnd
  0
BLOCK
  5
4B
330
4A
100
AcDbEntity
  8
0
100
AcDbBlockBegin
  2
*D2
 70
     1
 10
0.0
 20
0.0
 30
0.0
  3
*D2
  1

  0
LINE
  5
4C
330
4A
100
AcDbEntity
  8
0
  6
Continuous
 62
     7
100
AcDbLine
 10
-317.1421203613281
 20
297.2715148925781
 30
0.0
 11
-307.9518432617188
 21
289.85595703125
 31
0.0
  0
LINE
  5
4D
330
4A
100
AcDbEntity
  8
0
  6
Continuous
 62
     7
100
AcDbLine
 10
-356.0544794110981
 20
328.6694098051593
 30
0.0
 11
-319.4768621416363
 21
299.1553887788251
 31
0.0
  0
INSERT
  5
4E
330
4A
100
AcDbEntity
  8
0
  6
Continuous
 62
     7
100
AcDbBlockReference
  2
_OPEN30
 10
-358.3892211914063
 20
330.5532836914063
 30
0.0
 50
141.100375144597
  0
INSERT
  5
4F
330
4A
100
AcDbEntity
  8
0
  6
Continuous
 62
     7
100
AcDbBlockReference
  2
_OPEN30
 10
-317.1421203613281
 20
297.2715148925781
 30
0.0
 50
321.1003751445977
  0
TEXT
  5
50
330
4A
100
AcDbEntity
  8
0
  6
Continuous
 62
     7
100
AcDbText
 10
-313.8158011696757
 20
295.5512658089077
 30
0.0
 40
3.0
  1
%%C53
 50
321.0999997143643
 41
0.9498249830693319
100
AcDbText
  0
POINT
  5
51
330
4A
100
AcDbEntity
  8
DEFPOINTS
  6
Continuous
 62
     7
100
AcDbPoint
 10
-358.3892211914063
 20
330.5532836914063
 30
0.0
  0
POINT
  5
52
330
4A
100
AcDbEntity
  8
DEFPOINTS
  6
Continuous
 62
     7
100
AcDbPoint
 10
-317.1421203613281
 20
297.2715148925781
 30
0.0
  0
ENDBLK
  5
53
330
4A
100
AcDbEntity
  8
0
100
AcDbBlockEnd
  0
BLOCK
  5
55
330
54
100
AcDbEntity
  8
0
100
AcDbBlockBegin
  2
*D3
 70
     1
 10
0.0
 20
0.0
 30
0.0
  3
*D3
  1

  0
LINE
  5
56
330
54
100
AcDbEntity
  8
0
  6
Continuous
 62
     7
100
AcDbLine
 10
-375.6309834860408
 20
299.5434044389968
 30
0.0
 11
-299.9003580666936
 21
328.2813941449875
 31
0.0
  0
INSERT
  5
57
330
54
100
AcDbEntity
  8
0
  6
Continuous
 62
     7
100
AcDbBlockReference
  2
_OPEN30
 10
-378.4358215332031
 20
298.4790344238281
 30
0.0
 50
200.7805748279836
  0
INSERT
  5
58
330
54
100
AcDbEntity
  8
0
  6
Continuous
 62
     7
100
AcDbBlockReference
  2
_OPEN30
 10
-297.0955200195313
 20
329.3457641601563
 30
0.0
 50
20.78057482798287
  0
TEXT
  5
59
330
54
100
AcDbEntity
  8
0
  6
Continuous
 62
     7
100
AcDbText
 10
-311.1433365012151
 20
324.8156787808257
 30
0.0
 40
3.0
  1
%%C87
 50
20.80000069264922
 41
0.9498249830693319
100
AcDbText
  0
POINT
  5
5A
330
54
100
AcDbEntity
  8
DEFPOINTS
  6
Continuous
 62
     7
100
AcDbPoint
 10
-378.4358215332031
 20
298.4790344238281
 30
0.0
  0
POINT
  5
5B
330
54
100
AcDbEntity
  8
DEFPOINTS
  6
Continuous
 62
     7
100
AcDbPoint
 10
-297.0955200195313
 20
329.3457641601563
 30
0.0
  0
ENDBLK
  5
5C
330
54
100
AcDbEntity
  8
0
100
AcDbBlockEnd
  0
BLOCK
  5
5E
330
5D
100
AcDbEntity
  8
0
100
AcDbBlockBegin
  2
*D4
 70
     1
 10
0.0
 20
0.0
 30
0.0
  3
*D4
  1

  0
LINE
  5
5F
330
5D
100
AcDbEntity
  8
0
  6
Continuous
 62
     7
100
AcDbLine
 10
-269.4765014648438
 20
361.2041320800781
 30
0.0
 11
-238.7002105712891
 21
382.4652709960938
 31
0.0
  0
LINE
  5
60
330
5D
100
AcDbEntity
  8
0
  6
Continuous
 62
     7
100
AcDbLine
 10
-403.5865868578562
 20
268.5570290585459
 30
0.0
 11
-271.9447852124563
 21
359.4989706973134
 31
0.0
  0
INSERT
  5
61
330
5D
100
AcDbEntity
  8
0
  6
Continuous
 62
     7
100
AcDbBlockReference
  2
_OPEN30
 10
-406.0548706054688
 20
266.8518676757813
 30
0.0
 50
214.6378316663891
  0
INSERT
  5
62
330
5D
100
AcDbEntity
  8
0
  6
Continuous
 62
     7
100
AcDbBlockReference
  2
_OPEN30
 10
-269.4765014648438
 20
361.2041320800781
 30
0.0
 50
34.63783166638834
  0
TEXT
  5
63
330
5D
100
AcDbEntity
  8
0
  6
Continuous
 62
     7
100
AcDbText
 10
-265.5756665887221
 20
364.8234017408514
 30
0.0
 40
3.0
  1
%%C１６６（防水皿外径）
 50
34.60000005214083
 41
0.8440126077968535
100
AcDbText
  0
POINT
  5
64
330
5D
100
AcDbEntity
  8
DEFPOINTS
  6
Continuous
 62
     7
100
AcDbPoint
 10
-406.0548706054688
 20
266.8518676757813
 30
0.0
  0
POINT
  5
65
330
5D
100
AcDbEntity
  8
DEFPOINTS
  6
Continuous
 62
     7
100
AcDbPoint
 10
-269.4765014648438
 20
361.2041320800781
 30
0.0
  0
ENDBLK
  5
66
330
5D
100
AcDbEntity
  8
0
100
AcDbBlockEnd
  0
BLOCK
  5
68
330
67
100
AcDbEntity
  8
0
100
AcDbBlockBegin
  2
*D5
 70
     1
 10
0.0
 20
0.0
 30
0.0
  3
*D5
  1

  0
LINE
  5
69
330
67
100
AcDbEntity
  8
0
  6
Continuous
 62
     7
100
AcDbLine
 10
-367.7656860351563
 20
10.88651466369629
 30
0.0
 11
-307.7656860351563
 21
10.88651466369627
 31
0.0
  0
INSERT
  5
6A
330
67
100
AcDbEntity
  8
0
  6
Continuous
 62
     7
100
AcDbBlockReference
  2
_OPEN30
 10
-370.7656860351563
 20
10.88651466369629
 30
0.0
 50
180.0000000000004
  0
INSERT
  5
6B
330
67
100
AcDbEntity
  8
0
  6
Continuous
 62
     7
100
AcDbBlockReference
  2
_OPEN30
 10
-304.7656860351563
 20
10.88651466369629
 30
0.0
  0
LINE
  5
6C
330
67
100
AcDbEntity
  8
0
  6
Continuous
 62
     7
100
AcDbLine
 10
-370.7656860351563
 20
18.48799034118652
 30
0.0
 11
-370.7656860351563
 21
8.600514411926269
 31
0.0
  0
LINE
  5
6D
330
67
100
AcDbEntity
  8
0
  6
Continuous
 62
     7
100
AcDbLine
 10
-304.7656860351563
 20
18.48799034118652
 30
0.0
 11
-304.7656860351563
 21
8.600514411926269
 31
0.0
  0
TEXT
  5
6E
330
67
100
AcDbEntity
  8
0
  6
Continuous
 62
     7
100
AcDbText
 10
-341.8356862068176
 20
11.63651466369629
 30
0.0
 40
3.0
  1
%%C66
 41
0.9498249830693319
100
AcDbText
  0
POINT
  5
6F
330
67
100
AcDbEntity
  8
DEFPOINTS
  6
Continuous
 62
     7
100
AcDbPoint
 10
-370.7656860351563
 20
21.02799034118652
 30
0.0
  0
POINT
  5
70
330
67
100
AcDbEntity
  8
DEFPOINTS
  6
Continuous
 62
     7
100
AcDbPoint
 10
-304.7656860351563
 20
21.02799034118652
 30
0.0
  0
POINT
  5
71
330
67
100
AcDbEntity
  8
DEFPOINTS
  6
Continuous
 62
     7
100
AcDbPoint
 10
-304.7656860351563
 20
10.88651466369629
 30
0.0
  0
ENDBLK
  5
72
330
67
100
AcDbEntity
  8
0
100
AcDbBlockEnd
  0
BLOCK
  5
74
330
73
100
AcDbEntity
  8
0
100
AcDbBlockBegin
  2
*D6
 70
     1
 10
0.0
 20
0.0
 30
0.0
  3
*D6
  1

  0
LINE
  5
75
330
73
100
AcDbEntity
  8
0
  6
Continuous
 62
     7
100
AcDbLine
 10
-434.7383728027343
 20
24.02799034118652
 30
0.0
 11
-434.7383728027343
 21
82.02799224853515
 31
0.0
  0
INSERT
  5
76
330
73
100
AcDbEntity
  8
0
  6
Continuous
 62
     7
100
AcDbBlockReference
  2
_OPEN30
 10
-434.7383728027343
 20
21.02799034118652
 30
0.0
 50
270.0000000000005
  0
INSERT
  5
77
330
73
100
AcDbEntity
  8
0
  6
Continuous
 62
     7
100
AcDbBlockReference
  2
_OPEN30
 10
-434.7383728027343
 20
85.02799224853516
 30
0.0
 50
90.00000000000019
  0
LINE
  5
78
330
73
100
AcDbEntity
  8
0
  6
Continuous
 62
     7
100
AcDbLine
 10
-373.3056860351563
 20
21.02799034118651
 30
0.0
 11
-437.0243530273437
 21
21.02799034118652
 31
0.0
  0
LINE
  5
79
330
73
100
AcDbEntity
  8
0
  6
Continuous
 62
     7
100
AcDbLine
 10
-373.3056860351563
 20
85.02799224853514
 30
0.0
 11
-437.0243530273437
 21
85.02799224853516
 31
0.0
  0
TEXT
  5
7A
330
73
100
AcDbEntity
  8
0
  6
Continuous
 62
     7
100
AcDbText
 10
-435.4883726903961
 20
50.45799210369488
 30
0.0
 40
3.0
  1
64
 50
90.00000250447815
 41
1.028000020980834
100
AcDbText
  0
POINT
  5
7B
330
73
100
AcDbEntity
  8
DEFPOINTS
  6
Continuous
 62
     7
100
AcDbPoint
 10
-370.7656860351563
 20
21.02799034118652
 30
0.0
  0
POINT
  5
7C
330
73
100
AcDbEntity
  8
DEFPOINTS
  6
Continuous
 62
     7
100
AcDbPoint
 10
-370.7656860351563
 20
85.02799224853516
 30
0.0
  0
POINT
  5
7D
330
73
100
AcDbEntity
  8
DEFPOINTS
  6
Continuous
 62
     7
100
AcDbPoint
 10
-434.7383728027343
 20
85.02799224853516
 30
0.0
  0
ENDBLK
  5
7E
330
73
100
AcDbEntity
  8
0
100
AcDbBlockEnd
  0
BLOCK
  5
80
330
7F
100
AcDbEntity
  8
0
100
AcDbBlockBegin
  2
*D7
 70
     1
 10
0.0
 20
0.0
 30
0.0
  3
*D7
  1

  0
LINE
  5
81
330
7F
100
AcDbEntity
  8
0
  6
Continuous
 62
     7
100
AcDbLine
 10
-222.5872802734375
 20
63.02799224853515
 30
0.0
 11
-222.5872802734375
 21
194.0279846191406
 31
0.0
  0
INSERT
  5
82
330
7F
100
AcDbEntity
  8
0
  6
Continuous
 62
     7
100
AcDbBlockReference
  2
_OPEN30
 10
-222.5872802734375
 20
60.02799224853515
 30
0.0
 50
270.0000000000005
  0
INSERT
  5
83
330
7F
100
AcDbEntity
  8
0
  6
Continuous
 62
     7
100
AcDbBlockReference
  2
_OPEN30
 10
-222.5872802734375
 20
197.0279846191406
 30
0.0
 50
90.00000000000019
  0
LINE
  5
84
330
7F
100
AcDbEntity
  8
0
  6
Continuous
 62
     7
100
AcDbLine
 10
-252.2256860351563
 20
60.02799224853515
 30
0.0
 11
-220.30126953125
 21
60.02799224853515
 31
0.0
  0
LINE
  5
85
330
7F
100
AcDbEntity
  8
0
  6
Continuous
 62
     7
100
AcDbLine
 10
-291.7256860351562
 20
197.0279846191406
 30
0.0
 11
-220.30126953125
 21
197.0279846191406
 31
0.0
  0
TEXT
  5
86
330
7F
100
AcDbEntity
  8
0
  6
Continuous
 62
     7
100
AcDbText
 10
-223.3372794398613
 20
109.4579838186493
 30
0.0
 40
3.0
  1
１３７　（１３４～１４９）
 50
90.00000250447815
 41
0.8434321120058422
100
AcDbText
  0
POINT
  5
87
330
7F
100
AcDbEntity
  8
DEFPOINTS
  6
Continuous
 62
     7
100
AcDbPoint
 10
-254.7656860351563
 20
60.02799224853515
 30
0.0
  0
POINT
  5
88
330
7F
100
AcDbEntity
  8
DEFPOINTS
  6
Continuous
 62
     7
100
AcDbPoint
 10
-294.2656860351563
 20
197.0279846191406
 30
0.0
  0
POINT
  5
89
330
7F
100
AcDbEntity
  8
DEFPOINTS
  6
Continuous
 62
     7
100
AcDbPoint
 10
-222.5872802734375
 20
197.0279846191406
 30
0.0
  0
ENDBLK
  5
8A
330
7F
100
AcDbEntity
  8
0
100
AcDbBlockEnd
  0
BLOCK
  5
8C
330
8B
100
AcDbEntity
  8
0
100
AcDbBlockBegin
  2
*D8
 70
     1
 10
0.0
 20
0.0
 30
0.0
  3
*D8
  1

  0
LINE
  5
8D
330
8B
100
AcDbEntity
  8
0
  6
Continuous
 62
     7
100
AcDbLine
 10
-222.5872802734375
 20
57.02799224853515
 30
0.0
 11
-222.5872802734375
 21
48.50296020507813
 31
0.0
  0
LINE
  5
8E
330
8B
100
AcDbEntity
  8
0
  6
Continuous
 62
     7
100
AcDbLine
 10
-222.5872802734375
 20
60.02799224853515
 30
0.0
 11
-222.5872802734375
 21
57.02799224853515
 31
0.0
  0
INSERT
  5
8F
330
8B
100
AcDbEntity
  8
0
  6
Continuous
 62
     7
100
AcDbBlockReference
  2
_OPEN30
 10
-222.5872802734375
 20
60.02799224853515
 30
0.0
 50
270.0000000000002
  0
LINE
  5
90
330
8B
100
AcDbEntity
  8
0
  6
Continuous
 62
     7
100
AcDbLine
 10
-222.5872802734375
 20
63.02799224853515
 30
0.0
 11
-222.5872802734375
 21
66.37799224853515
 31
0.0
  0
INSERT
  5
91
330
8B
100
AcDbEntity
  8
0
  6
Continuous
 62
     7
100
AcDbBlockReference
  2
_OPEN30
 10
-222.5872802734375
 20
57.02799224853515
 30
0.0
 50
90.00000000000049
  0
LINE
  5
92
330
8B
100
AcDbEntity
  8
0
  6
Continuous
 62
     7
100
AcDbLine
 10
-222.5872802734375
 20
54.02799224853516
 30
0.0
 11
-222.5872802734374
 21
50.67799224853516
 31
0.0
  0
LINE
  5
93
330
8B
100
AcDbEntity
  8
0
  6
Continuous
 62
     7
100
AcDbLine
 10
-252.2256860351563
 20
57.02799224853515
 30
0.0
 11
-220.30126953125
 21
57.02799224853515
 31
0.0
  0
TEXT
  5
94
330
8B
100
AcDbEntity
  8
0
  6
Continuous
 62
     7
100
AcDbText
 10
-223.3372802266663
 20
48.50295981466672
 30
0.0
 40
3.0
  1
3
 50
90.00000250447815
100
AcDbText
  0
POINT
  5
95
330
8B
100
AcDbEntity
  8
DEFPOINTS
  6
Continuous
 62
     7
100
AcDbPoint
 10
-220.30126953125
 20
60.02799224853515
 30
0.0
  0
POINT
  5
96
330
8B
100
AcDbEntity
  8
DEFPOINTS
  6
Continuous
 62
     7
100
AcDbPoint
 10
-254.7656860351563
 20
57.02799224853515
 30
0.0
  0
POINT
  5
97
330
8B
100
AcDbEntity
  8
DEFPOINTS
  6
Continuous
 62
     7
100
AcDbPoint
 10
-222.5872802734375
 20
57.02799224853515
 30
0.0
  0
ENDBLK
  5
98
330
8B
100
AcDbEntity
  8
0
100
AcDbBlockEnd
  0
BLOCK
  5
9A
330
99
100
AcDbEntity
  8
0
100
AcDbBlockBegin
  2
*D9
 70
     1
 10
0.0
 20
0.0
 30
0.0
  3
*D9
  1

  0
LINE
  5
9B
330
99
100
AcDbEntity
  8
0
  6
Continuous
 62
     7
100
AcDbLine
 10
-233.9832763671875
 20
194.0279846191406
 30
0.0
 11
-233.9832763671875
 21
150.0279846191406
 31
0.0
  0
INSERT
  5
9C
330
99
100
AcDbEntity
  8
0
  6
Continuous
 62
     7
100
AcDbBlockReference
  2
_OPEN30
 10
-233.9832763671875
 20
197.0279846191406
 30
0.0
 50
90.00000000000019
  0
INSERT
  5
9D
330
99
100
AcDbEntity
  8
0
  6
Continuous
 62
     7
100
AcDbBlockReference
  2
_OPEN30
 10
-233.9832763671875
 20
147.0279846191406
 30
0.0
 50
270.0000000000005
  0
LINE
  5
9E
330
99
100
AcDbEntity
  8
0
  6
Continuous
 62
     7
100
AcDbLine
 10
-295.2256860351562
 20
147.0279846191406
 30
0.0
 11
-231.697265625
 21
147.0279846191406
 31
0.0
  0
TEXT
  5
9F
330
99
100
AcDbEntity
  8
0
  6
Continuous
 62
     7
100
AcDbText
 10
-234.7332762548492
 20
169.4579844743004
 30
0.0
 40
3.0
  1
50
 50
90.00000250447815
 41
1.101428593908038
100
AcDbText
  0
POINT
  5
A0
330
99
100
AcDbEntity
  8
DEFPOINTS
  6
Continuous
 62
     7
100
AcDbPoint
 10
-220.30126953125
 20
197.0279846191406
 30
0.0
  0
POINT
  5
A1
330
99
100
AcDbEntity
  8
DEFPOINTS
  6
Continuous
 62
     7
100
AcDbPoint
 10
-297.7656860351563
 20
147.0279846191406
 30
0.0
  0
POINT
  5
A2
330
99
100
AcDbEntity
  8
DEFPOINTS
  6
Continuous
 62
     7
100
AcDbPoint
 10
-233.9832763671875
 20
147.0279846191406
 30
0.0
  0
ENDBLK
  5
A3
330
99
100
AcDbEntity
  8
0
100
AcDbBlockEnd
  0
BLOCK
  5
A5
330
A4
100
AcDbEntity
  8
0
100
AcDbBlockBegin
  2
*D10
 70
     1
 10
0.0
 20
0.0
 30
0.0
  3
*D10
  1

  0
LINE
  5
A6
330
A4
100
AcDbEntity
  8
0
  6
Continuous
 62
     7
100
AcDbLine
 10
-233.9832763671875
 20
63.02799224853515
 30
0.0
 11
-233.9832763671875
 21
82.02799224853515
 31
0.0
  0
INSERT
  5
A7
330
A4
100
AcDbEntity
  8
0
  6
Continuous
 62
     7
100
AcDbBlockReference
  2
_OPEN30
 10
-233.9832763671875
 20
60.02799224853515
 30
0.0
 50
270.0000000000005
  0
INSERT
  5
A8
330
A4
100
AcDbEntity
  8
0
  6
Continuous
 62
     7
100
AcDbBlockReference
  2
_OPEN30
 10
-233.9832763671875
 20
85.02799224853516
 30
0.0
 50
90.00000000000019
  0
LINE
  5
A9
330
A4
100
AcDbEntity
  8
0
  6
Continuous
 62
     7
100
AcDbLine
 10
-302.2256860351562
 20
85.02799224853516
 30
0.0
 11
-231.697265625
 21
85.02799224853516
 31
0.0
  0
TEXT
  5
AA
330
A4
100
AcDbEntity
  8
0
  6
Continuous
 62
     7
100
AcDbText
 10
-234.7332762548492
 20
69.95799210369489
 30
0.0
 40
3.0
  1
25
 50
90.00000250447815
 41
1.028000020980834
100
AcDbText
  0
POINT
  5
AB
330
A4
100
AcDbEntity
  8
DEFPOINTS
  6
Continuous
 62
     7
100
AcDbPoint
 10
-220.30126953125
 20
60.02799224853515
 30
0.0
  0
POINT
  5
AC
330
A4
100
AcDbEntity
  8
DEFPOINTS
  6
Continuous
 62
     7
100
AcDbPoint
 10
-304.7656860351563
 20
85.02799224853516
 30
0.0
  0
POINT
  5
AD
330
A4
100
AcDbEntity
  8
DEFPOINTS
  6
Continuous
 62
     7
100
AcDbPoint
 10
-233.9832763671875
 20
85.02799224853516
 30
0.0
  0
ENDBLK
  5
AE
330
A4
100
AcDbEntity
  8
0
100
AcDbBlockEnd
  0
BLOCK
  5
B0
330
AF
100
AcDbEntity
  8
0
100
AcDbBlockBegin
  2
*D11
 70
     1
 10
0.0
 20
0.0
 30
0.0
  3
*D11
  1

  0
LINE
  5
B1
330
AF
100
AcDbEntity
  8
0
  6
Continuous
 62
     7
100
AcDbLine
 10
-324.9007568359375
 20
68.02799224853515
 30
0.0
 11
-324.9007568359375
 21
162.0279846191406
 31
0.0
  0
INSERT
  5
B2
330
AF
100
AcDbEntity
  8
0
  6
Continuous
 62
     7
100
AcDbBlockReference
  2
_OPEN30
 10
-324.9007568359375
 20
65.02799224853515
 30
0.0
 50
270.0000000000005
  0
INSERT
  5
B3
330
AF
100
AcDbEntity
  8
0
  6
Continuous
 62
     7
100
AcDbBlockReference
  2
_OPEN30
 10
-324.9007568359375
 20
165.0279846191406
 30
0.0
 50
90.00000000000019
  0
TEXT
  5
B4
330
AF
100
AcDbEntity
  8
0
  6
Continuous
 62
     7
100
AcDbText
 10
-325.6507566580322
 20
110.9579920440902
 30
0.0
 40
3.0
  1
100
 50
90.00000250447815
 41
1.320000017011488
100
AcDbText
  0
POINT
  5
B5
330
AF
100
AcDbEntity
  8
DEFPOINTS
  6
Continuous
 62
     7
100
AcDbPoint
 10
-337.7656860351563
 20
65.02799224853515
 30
0.0
  0
POINT
  5
B6
330
AF
100
AcDbEntity
  8
DEFPOINTS
  6
Continuous
 62
     7
100
AcDbPoint
 10
-337.7656860351563
 20
165.0279846191406
 30
0.0
  0
POINT
  5
B7
330
AF
100
AcDbEntity
  8
DEFPOINTS
  6
Continuous
 62
     7
100
AcDbPoint
 10
-324.9007568359375
 20
165.0279846191406
 30
0.0
  0
ENDBLK
  5
B8
330
AF
100
AcDbEntity
  8
0
100
AcDbBlockEnd
  0
BLOCK
  5
BA
330
B9
100
AcDbEntity
  8
0
100
AcDbBlockBegin
  2
KOZU0001
 70
     0
 10
0.0
 20
0.0
 30
0.0
  3
KOZU0001
  1

  0
LINE
  5
BB
330
B9
100
AcDbEntity
  8
0
  6
Continuous
 62
     7
100
AcDbLine
 10
0.0
 20
0.0
 30
0.0
 11
13.15669250488281
 21
20.99420166015625
 31
0.0
  0
LINE
  5
BC
330
B9
100
AcDbEntity
  8
0
  6
Continuous
 62
     7
100
AcDbLine
 10
13.15669250488281
 20
20.99420166015625
 30
0.0
 11
35.86555480957031
 21
20.99420166015625
 31
0.0
  0
LINE
  5
BD
330
B9
100
AcDbEntity
  8
0
  6
Continuous
 62
     7
100
AcDbLine
 10
0.0
 20
0.0
 30
0.0
 11
0.7457136882259629
 21
3.073094709766106
 31
0.0
  0
LINE
  5
BE
330
B9
100
AcDbEntity
  8
0
  6
Continuous
 62
     7
100
AcDbLine
 10
0.0
 20
0.0
 30
0.0
 11
2.440427776440434
 21
2.011047554877308
 31
0.0
  0
TEXT
  5
BF
330
B9
100
AcDbEntity
  8
0
  6
Continuous
 62
     7
100
AcDbText
 10
17.00555348396301
 20
21.74420166015625
 30
0.0
 40
3.0
  1
３－Ｍ５皿穴
 41
0.8472565548642696
100
AcDbText
  0
ENDBLK
  5
C0
330
B9
100
AcDbEntity
  8
0
100
AcDbBlockEnd
  0
BLOCK
  5
C2
330
C1
100
AcDbEntity
  8
0
100
AcDbBlockBegin
  2
KOZU0002
 70
     0
 10
0.0
 20
0.0
 30
0.0
  3
KOZU0002
  1

  0
LINE
  5
C3
330
C1
100
AcDbEntity
  8
0
  6
Continuous
 62
     7
100
AcDbLine
 10
0.0
 20
0.0
 30
0.0
 11
14.441162109375
 21
-11.85338401794434
 31
0.0
  0
LINE
  5
C4
330
C1
100
AcDbEntity
  8
0
  6
Continuous
 62
     7
100
AcDbLine
 10
14.441162109375
 20
-11.85338401794434
 30
0.0
 11
41.5927734375
 21
-11.85338401794434
 31
0.0
  0
LINE
  5
C5
330
C1
100
AcDbEntity
  8
0
  6
Continuous
 62
     7
100
AcDbLine
 10
0.0
 20
0.0
 30
0.0
 11
2.953339130240344
 21
-1.13039284401097
 31
0.0
  0
LINE
  5
C6
330
C1
100
AcDbEntity
  8
0
  6
Continuous
 62
     7
100
AcDbLine
 10
0.0
 20
0.0
 30
0.0
 11
1.684435597785693
 21
-2.676317753352981
 31
0.0
  0
TEXT
  5
C7
330
C1
100
AcDbEntity
  8
0
  6
Continuous
 62
     7
100
AcDbText
 10
16.7327721118927
 20
-11.10338401794434
 30
0.0
 40
3.0
  1
配管接続口
 41
0.8487395020950888
100
AcDbText
  0
TEXT
  5
C8
330
C1
100
AcDbEntity
  8
0
  6
Continuous
 62
     7
100
AcDbText
 10
16.7327721118927
 20
-16.36838401794434
 30
0.0
 40
3.0
  1
Ｒｃ２（５０Ａ）
 41
0.8454512278006642
100
AcDbText
  0
ENDBLK
  5
C9
330
C1
100
AcDbEntity
  8
0
100
AcDbBlockEnd
  0
ENDSEC
  0
SECTION
  2
ENTITIES
  0
POINT
  5
CA
330
22
100
AcDbEntity
  8
0
  6
Continuous
 62
     7
100
AcDbPoint
 10
-337.7656860351563
 20
197.0279846191406
 30
0.0
  0
LINE
  5
CB
330
22
100
AcDbEntity
  8
0
  6
CENTER
 62
     7
100
AcDbLine
 10
-378.7408752441406
 20
243.0568695068359
 30
0.0
 11
-369.6572265625
 21
258.7902221679688
 31
0.0
  0
LINE
  5
CC
330
22
100
AcDbEntity
  8
0
  6
CENTER
 62
     7
100
AcDbLine
 10
-378.7408752441406
 20
384.9991149902344
 30
0.0
 11
-369.2371520996094
 21
368.5381469726563
 31
0.0
  0
LINE
  5
CD
330
22
100
AcDbEntity
  8
0
  6
Continuous
 62
     7
100
AcDbLine
 10
-334.0204772949219
 20
317.2250366210938
 30
0.0
 11
-330.3723754882813
 21
317.1170654296875
 31
0.0
  0
LINE
  5
CE
330
22
100
AcDbEntity
  8
0
  6
CENTER
 62
     7
100
AcDbLine
 10
-337.7656860351563
 20
401.0437622070313
 30
0.0
 11
-337.7656860351563
 21
227.364990234375
 31
0.0
  0
LINE
  5
CF
330
22
100
AcDbEntity
  8
0
  6
Continuous
 62
     7
100
AcDbLine
 10
-331.2656860351563
 20
310.9123840332031
 30
0.0
 11
-333.7656860351563
 21
310.9123840332031
 31
0.0
  0
LINE
  5
D0
330
22
100
AcDbEntity
  8
0
  6
Continuous
 62
     7
100
AcDbLine
 10
-345.265380859375
 20
317.0764465332031
 30
0.0
 11
-341.2666015625
 21
317.4822082519531
 31
0.0
  0
LINE
  5
D1
330
22
100
AcDbEntity
  8
0
  6
Continuous
 62
     7
100
AcDbLine
 10
-345.0805358886719
 20
311.0698547363281
 30
0.0
 11
-341.7656860351563
 21
310.9123840332031
 31
0.0
  0
LINE
  5
D2
330
22
100
AcDbEntity
  8
0
  6
CENTER
 62
     7
100
AcDbLine
 10
-428.3087463378906
 20
314.0279846191406
 30
0.0
 11
-245.7178192138672
 21
314.0279846191406
 31
0.0
  0
LINE
  5
D3
330
22
100
AcDbEntity
  8
0
  6
Continuous
 62
     7
100
AcDbLine
 10
-287.065673828125
 20
60.02799224853515
 30
0.0
 11
-288.065673828125
 21
59.02799224853516
 31
0.0
  0
LINE
  5
D4
330
22
100
AcDbEntity
  8
0
  6
Continuous
 62
     7
100
AcDbLine
 10
-297.7656860351563
 20
147.0279846191406
 30
0.0
 11
-297.7656860351563
 21
185.0279846191406
 31
0.0
  0
LINE
  5
D5
330
22
100
AcDbEntity
  8
0
  6
Continuous
 62
     7
100
AcDbLine
 10
-271.4812622070313
 20
59.02799224853516
 30
0.0
 11
-272.4812622070313
 21
60.02799224853515
 31
0.0
  0
LINE
  5
D6
330
22
100
AcDbEntity
  8
0
  6
Continuous
 62
     7
100
AcDbLine
 10
-270.4812622070313
 20
60.02799224853515
 30
0.0
 11
-271.4812622070313
 21
59.02799224853516
 31
0.0
  0
LINE
  5
D7
330
22
100
AcDbEntity
  8
0
  6
Continuous
 62
     7
100
AcDbLine
 10
-269.7656860351563
 20
60.02799224853515
 30
0.0
 11
-267.5156860351563
 21
57.77799224853516
 31
0.0
  0
LINE
  5
D8
330
22
100
AcDbEntity
  8
0
  6
Continuous
 62
     7
100
AcDbLine
 10
-267.5156860351563
 20
57.02799224853515
 30
0.0
 11
-267.5156860351563
 21
57.77799224853516
 31
0.0
  0
LINE
  5
D9
330
22
100
AcDbEntity
  8
0
  6
CENTER
 62
     7
100
AcDbLine
 10
-264.7656860351563
 20
61.21026611328125
 30
0.0
 11
-264.7656860351563
 21
55.78055572509765
 31
0.0
  0
LINE
  5
DA
330
22
100
AcDbEntity
  8
0
  6
Continuous
 62
     7
100
AcDbLine
 10
-259.7656860351563
 20
60.02799224853515
 30
0.0
 11
-262.0156860351563
 21
57.77799224853516
 31
0.0
  0
LINE
  5
DB
330
22
100
AcDbEntity
  8
0
  6
Continuous
 62
     7
100
AcDbLine
 10
-262.0156860351563
 20
57.02799224853515
 30
0.0
 11
-262.0156860351563
 21
57.77799224853516
 31
0.0
  0
LINE
  5
DC
330
22
100
AcDbEntity
  8
0
  6
Continuous
 62
     7
100
AcDbLine
 10
-254.7656860351563
 20
60.02799224853515
 30
0.0
 11
-254.7656860351563
 21
57.02799224853515
 31
0.0
  0
LINE
  5
DD
330
22
100
AcDbEntity
  8
0
  6
Continuous
 62
     7
100
AcDbLine
 10
-288.065673828125
 20
59.02799224853516
 30
0.0
 11
-289.065673828125
 21
60.02799224853515
 31
0.0
  0
LINE
  5
DE
330
22
100
AcDbEntity
  8
0
  6
Continuous
 62
     7
100
AcDbLine
 10
-295.7656860351563
 20
187.0279846191406
 30
0.0
 11
-294.2656860351563
 21
187.0279846191406
 31
0.0
  0
LINE
  5
DF
330
22
100
AcDbEntity
  8
0
  6
Continuous
 62
     7
100
AcDbLine
 10
-381.2656860351563
 20
187.0279846191406
 30
0.0
 11
-379.7656860351563
 21
187.0279846191406
 31
0.0
  0
LINE
  5
E0
330
22
100
AcDbEntity
  8
0
  6
Continuous
 62
     7
100
AcDbLine
 10
-370.7656860351563
 20
57.02799224853515
 30
0.0
 11
-370.7656860351563
 21
21.02799034118652
 31
0.0
  0
LINE
  5
E1
330
22
100
AcDbEntity
  8
0
  6
Continuous
 62
     7
100
AcDbLine
 10
-370.7656860351563
 20
85.02799224853516
 30
0.0
 11
-370.7656860351563
 21
60.02799224853515
 31
0.0
  0
LINE
  5
E2
330
22
100
AcDbEntity
  8
0
  6
Continuous
 62
     7
100
AcDbLine
 10
-420.7656860351563
 20
57.02799224853515
 30
0.0
 11
-420.7656860351563
 21
60.02799224853515
 31
0.0
  0
LINE
  5
E3
330
22
100
AcDbEntity
  8
0
  6
Continuous
 62
     7
100
AcDbLine
 10
-377.7656860351563
 20
147.0279846191406
 30
0.0
 11
-377.7656860351563
 21
185.0279846191406
 31
0.0
  0
LINE
  5
E4
330
22
100
AcDbEntity
  8
0
  6
Continuous
 62
     7
100
AcDbLine
 10
-373.6156921386719
 20
147.0279846191406
 30
0.0
 11
-337.7656860351563
 21
147.0279846191406
 31
0.0
  0
LINE
  5
E5
330
22
100
AcDbEntity
  8
0
  6
Continuous
 62
     7
100
AcDbLine
 10
-366.1156921386719
 20
123.5779876708984
 30
0.0
 11
-337.7656860351563
 21
123.5779876708984
 31
0.0
  0
LINE
  5
E6
330
22
100
AcDbEntity
  8
0
  6
Continuous
 62
     7
100
AcDbLine
 10
-366.2681579589844
 20
144.2484741210938
 30
0.0
 11
-337.7656860351563
 21
144.2484741210938
 31
0.0
  0
LINE
  5
E7
330
22
100
AcDbEntity
  8
0
  6
Continuous
 62
     7
100
AcDbLine
 10
-337.7656860351563
 20
57.02799224853515
 30
0.0
 11
-420.7656860351563
 21
57.02799224853515
 31
0.0
  0
LINE
  5
E8
330
22
100
AcDbEntity
  8
0
  6
Continuous
 62
     7
100
AcDbLine
 10
-337.7656860351563
 20
60.02799224853515
 30
0.0
 11
-420.7656860351563
 21
60.02799224853515
 31
0.0
  0
LINE
  5
E9
330
22
100
AcDbEntity
  8
0
  6
Continuous
 62
     7
100
AcDbLine
 10
-379.7656860351563
 20
187.0279846191406
 30
0.0
 11
-337.7656860351563
 21
187.0279846191406
 31
0.0
  0
LINE
  5
EA
330
22
100
AcDbEntity
  8
0
  6
Continuous
 62
     7
100
AcDbLine
 10
-337.7656860351563
 20
85.02799224853516
 30
0.0
 11
-370.7656860351563
 21
85.02799224853516
 31
0.0
  0
LINE
  5
EB
330
22
100
AcDbEntity
  8
0
  6
Continuous
 62
     7
100
AcDbLine
 10
-377.7656860351563
 20
147.0279846191406
 30
0.0
 11
-337.7656860351563
 21
147.0279846191406
 31
0.0
  0
LINE
  5
EC
330
22
100
AcDbEntity
  8
0
  6
Continuous
 62
     7
100
AcDbLine
 10
-314.2656860351563
 20
194.0279846191406
 30
0.0
 11
-311.5781555175781
 21
194.0279846191406
 31
0.0
  0
LINE
  5
ED
330
22
100
AcDbEntity
  8
0
  6
Continuous
 62
     7
100
AcDbLine
 10
-314.2656860351563
 20
190.8279876708984
 30
0.0
 11
-314.2656860351563
 21
194.0279846191406
 31
0.0
  0
LINE
  5
EE
330
22
100
AcDbEntity
  8
0
  6
Continuous
 62
     7
100
AcDbLine
 10
-314.2656860351563
 20
190.8279876708984
 30
0.0
 11
-311.8581237792969
 21
190.8279876708984
 31
0.0
  0
LINE
  5
EF
330
22
100
AcDbEntity
  8
0
  6
Continuous
 62
     7
100
AcDbLine
 10
-326.6793823242188
 20
193.0279846191406
 30
0.0
 11
-337.8656921386719
 21
193.0279846191406
 31
0.0
  0
LINE
  5
F0
330
22
100
AcDbEntity
  8
0
  6
Continuous
 62
     7
100
AcDbLine
 10
-311.824462890625
 20
191.2125396728516
 30
0.0
 11
-312.3655395507813
 21
185.0279846191406
 31
0.0
  0
LINE
  5
F1
330
22
100
AcDbEntity
  8
0
  6
Continuous
 62
     7
100
AcDbLine
 10
-326.6793823242188
 20
193.0279846191406
 30
0.0
 11
-326.6793823242188
 21
185.0279846191406
 31
0.0
  0
LINE
  5
F2
330
22
100
AcDbEntity
  8
0
  6
Continuous
 62
     7
100
AcDbLine
 10
-311.315673828125
 20
197.0279846191406
 30
0.0
 11
-311.6307678222656
 21
193.4266815185547
 31
0.0
  0
LINE
  5
F3
330
22
100
AcDbEntity
  8
0
  6
Continuous
 62
     7
100
AcDbLine
 10
-311.065673828125
 20
197.0279846191406
 30
0.0
 11
-312.1155395507813
 21
185.0279846191406
 31
0.0
  0
LINE
  5
F4
330
22
100
AcDbEntity
  8
0
  6
Continuous
 62
     7
100
AcDbLine
 10
-328.3656921386719
 20
197.0279846191406
 30
0.0
 11
-328.3656921386719
 21
193.0279846191406
 31
0.0
  0
LINE
  5
F5
330
22
100
AcDbEntity
  8
0
  6
Continuous
 62
     7
100
AcDbLine
 10
-332.8656921386719
 20
197.0279846191406
 30
0.0
 11
-332.8656921386719
 21
193.0279846191406
 31
0.0
  0
LINE
  5
F6
330
22
100
AcDbEntity
  8
0
  6
Continuous
 62
     7
100
AcDbLine
 10
-328.3656921386719
 20
194.5916748046875
 30
0.0
 11
-325.9293518066406
 21
197.0279846191406
 31
0.0
  0
LINE
  5
F7
330
22
100
AcDbEntity
  8
0
  6
Continuous
 62
     7
100
AcDbLine
 10
-327.1009216308594
 20
193.0279846191406
 30
0.0
 11
-323.1009216308594
 21
197.0279846191406
 31
0.0
  0
LINE
  5
F8
330
22
100
AcDbEntity
  8
0
  6
Continuous
 62
     7
100
AcDbLine
 10
-337.7656860351563
 20
182.3632354736328
 30
0.0
 11
-335.1009216308594
 21
185.0279846191406
 31
0.0
  0
LINE
  5
F9
330
22
100
AcDbEntity
  8
0
  6
Continuous
 62
     7
100
AcDbLine
 10
-326.6793823242188
 20
190.6211090087891
 30
0.0
 11
-320.2724914550781
 21
197.0279846191406
 31
0.0
  0
LINE
  5
FA
330
22
100
AcDbEntity
  8
0
  6
Continuous
 62
     7
100
AcDbLine
 10
-337.7656860351563
 20
179.5348205566406
 30
0.0
 11
-332.2724914550781
 21
185.0279846191406
 31
0.0
  0
LINE
  5
FB
330
22
100
AcDbEntity
  8
0
  6
Continuous
 62
     7
100
AcDbLine
 10
-326.6793823242188
 20
187.7926788330078
 30
0.0
 11
-317.4440612792969
 21
197.0279846191406
 31
0.0
  0
LINE
  5
FC
330
22
100
AcDbEntity
  8
0
  6
Continuous
 62
     7
100
AcDbLine
 10
-337.7656860351563
 20
176.7063903808594
 30
0.0
 11
-329.4440612792969
 21
185.0279846191406
 31
0.0
  0
LINE
  5
FD
330
22
100
AcDbEntity
  8
0
  6
Continuous
 62
     7
100
AcDbLine
 10
-337.7656860351563
 20
173.8779602050781
 30
0.0
 11
-314.6156616210938
 21
197.0279846191406
 31
0.0
  0
LINE
  5
FE
330
22
100
AcDbEntity
  8
0
  6
Continuous
 62
     7
100
AcDbLine
 10
-337.7656860351563
 20
171.0495300292969
 30
0.0
 11
-311.7872314453125
 21
197.0279846191406
 31
0.0
  0
LINE
  5
FF
330
22
100
AcDbEntity
  8
0
  6
Continuous
 62
     7
100
AcDbLine
 10
-311.9588012695313
 20
194.0279846191406
 30
0.0
 11
-311.5416564941406
 21
194.4451293945313
 31
0.0
  0
LINE
  5
100
330
22
100
AcDbEntity
  8
0
  6
Continuous
 62
     7
100
AcDbLine
 10
-320.9588012695313
 20
185.0279846191406
 30
0.0
 11
-314.2656860351563
 21
191.7210998535156
 31
0.0
  0
LINE
  5
101
330
22
100
AcDbEntity
  8
0
  6
Continuous
 62
     7
100
AcDbLine
 10
-337.4588012695313
 20
168.5279846191406
 30
0.0
 11
-322.2656860351563
 21
183.7210998535156
 31
0.0
  0
LINE
  5
102
330
22
100
AcDbEntity
  8
0
  6
Continuous
 62
     7
100
AcDbLine
 10
-318.13037109375
 20
185.0279846191406
 30
0.0
 11
-312.3303527832031
 21
190.8279876708984
 31
0.0
  0
LINE
  5
103
330
22
100
AcDbEntity
  8
0
  6
Continuous
 62
     7
100
AcDbLine
 10
-334.63037109375
 20
168.5279846191406
 30
0.0
 11
-322.2656860351563
 21
180.8926849365234
 31
0.0
  0
LINE
  5
104
330
22
100
AcDbEntity
  8
0
  6
Continuous
 62
     7
100
AcDbLine
 10
-315.3019409179688
 20
185.0279846191406
 30
0.0
 11
-312.0840148925781
 21
188.2459259033203
 31
0.0
  0
LINE
  5
105
330
22
100
AcDbEntity
  8
0
  6
Continuous
 62
     7
100
AcDbLine
 10
-331.8019409179688
 20
168.5279846191406
 30
0.0
 11
-322.2656860351563
 21
178.0642547607422
 31
0.0
  0
LINE
  5
106
330
22
100
AcDbEntity
  8
0
  6
Continuous
 62
     7
100
AcDbLine
 10
-312.4735107421875
 20
185.0279846191406
 30
0.0
 11
-312.3551940917969
 21
185.1463165283203
 31
0.0
  0
LINE
  5
107
330
22
100
AcDbEntity
  8
0
  6
Continuous
 62
     7
100
AcDbLine
 10
-328.9735107421875
 20
168.5279846191406
 30
0.0
 11
-322.2656860351563
 21
175.2358245849609
 31
0.0
  0
LINE
  5
108
330
22
100
AcDbEntity
  8
0
  6
Continuous
 62
     7
100
AcDbLine
 10
-326.1450805664063
 20
168.5279846191406
 30
0.0
 11
-322.2656860351563
 21
172.4073944091797
 31
0.0
  0
LINE
  5
109
330
22
100
AcDbEntity
  8
0
  6
Continuous
 62
     7
100
AcDbLine
 10
-323.316650390625
 20
168.5279846191406
 30
0.0
 11
-322.2656860351563
 21
169.5789642333984
 31
0.0
  0
LINE
  5
10A
330
22
100
AcDbEntity
  8
0
  6
Continuous
 62
     7
100
AcDbLine
 10
-337.0823059082031
 20
168.5279846191406
 30
0.0
 11
-337.7656860351563
 21
169.2113800048828
 31
0.0
  0
LINE
  5
10B
330
22
100
AcDbEntity
  8
0
  6
Continuous
 62
     7
100
AcDbLine
 10
-334.2538757324219
 20
168.5279846191406
 30
0.0
 11
-337.7656860351563
 21
172.0398101806641
 31
0.0
  0
LINE
  5
10C
330
22
100
AcDbEntity
  8
0
  6
Continuous
 62
     7
100
AcDbLine
 10
-331.4254455566406
 20
168.5279846191406
 30
0.0
 11
-337.7656860351563
 21
174.8682250976563
 31
0.0
  0
LINE
  5
10D
330
22
100
AcDbEntity
  8
0
  6
Continuous
 62
     7
100
AcDbLine
 10
-328.5970153808594
 20
168.5279846191406
 30
0.0
 11
-337.7656860351563
 21
177.6966552734375
 31
0.0
  0
LINE
  5
10E
330
22
100
AcDbEntity
  8
0
  6
Continuous
 62
     7
100
AcDbLine
 10
-325.7685852050781
 20
168.5279846191406
 30
0.0
 11
-337.7656860351563
 21
180.5250854492188
 31
0.0
  0
LINE
  5
10F
330
22
100
AcDbEntity
  8
0
  6
Continuous
 62
     7
100
AcDbLine
 10
-322.9401550292969
 20
168.5279846191406
 30
0.0
 11
-337.7656860351563
 21
183.353515625
 31
0.0
  0
LINE
  5
110
330
22
100
AcDbEntity
  8
0
  6
Continuous
 62
     7
100
AcDbLine
 10
-322.2656860351563
 20
170.6819458007813
 30
0.0
 11
-336.6117248535156
 21
185.0279846191406
 31
0.0
  0
LINE
  5
111
330
22
100
AcDbEntity
  8
0
  6
Continuous
 62
     7
100
AcDbLine
 10
-322.2656860351563
 20
173.5103607177734
 30
0.0
 11
-333.7832946777344
 21
185.0279846191406
 31
0.0
  0
LINE
  5
112
330
22
100
AcDbEntity
  8
0
  6
Continuous
 62
     7
100
AcDbLine
 10
-322.2656860351563
 20
176.3387908935547
 30
0.0
 11
-330.9548645019531
 21
185.0279846191406
 31
0.0
  0
LINE
  5
113
330
22
100
AcDbEntity
  8
0
  6
Continuous
 62
     7
100
AcDbLine
 10
-322.2656860351563
 20
179.1672210693359
 30
0.0
 11
-328.12646484375
 21
185.0279846191406
 31
0.0
  0
LINE
  5
114
330
22
100
AcDbEntity
  8
0
  6
Continuous
 62
     7
100
AcDbLine
 10
-322.2656860351563
 20
181.9956512451172
 30
0.0
 11
-326.6793823242188
 21
186.4093627929688
 31
0.0
  0
LINE
  5
115
330
22
100
AcDbEntity
  8
0
  6
Continuous
 62
     7
100
AcDbLine
 10
-322.2656860351563
 20
184.8240814208984
 30
0.0
 11
-326.6793823242188
 21
189.2377777099609
 31
0.0
  0
LINE
  5
116
330
22
100
AcDbEntity
  8
0
  6
Continuous
 62
     7
100
AcDbLine
 10
-327.6411743164063
 20
193.0279846191406
 30
0.0
 11
-328.3656921386719
 21
193.7525024414063
 31
0.0
  0
LINE
  5
117
330
22
100
AcDbEntity
  8
0
  6
Continuous
 62
     7
100
AcDbLine
 10
-319.6411743164063
 20
185.0279846191406
 30
0.0
 11
-326.6793823242188
 21
192.0662078857422
 31
0.0
  0
LINE
  5
118
330
22
100
AcDbEntity
  8
0
  6
Continuous
 62
     7
100
AcDbLine
 10
-316.812744140625
 20
185.0279846191406
 30
0.0
 11
-328.3656921386719
 21
196.5809326171875
 31
0.0
  0
LINE
  5
119
330
22
100
AcDbEntity
  8
0
  6
Continuous
 62
     7
100
AcDbLine
 10
-313.9843139648438
 20
185.0279846191406
 30
0.0
 11
-325.9843139648438
 21
197.0279846191406
 31
0.0
  0
LINE
  5
11A
330
22
100
AcDbEntity
  8
0
  6
Continuous
 62
     7
100
AcDbLine
 10
-312.2682189941406
 20
186.1403350830078
 30
0.0
 11
-323.1558837890625
 21
197.0279846191406
 31
0.0
  0
LINE
  5
11B
330
22
100
AcDbEntity
  8
0
  6
Continuous
 62
     7
100
AcDbLine
 10
-314.2656860351563
 20
190.9662170410156
 30
0.0
 11
-320.3274536132813
 21
197.0279846191406
 31
0.0
  0
LINE
  5
11C
330
22
100
AcDbEntity
  8
0
  6
Continuous
 62
     7
100
AcDbLine
 10
-312.0406799316406
 20
188.7412109375
 30
0.0
 11
-314.1274719238281
 21
190.8279876708984
 31
0.0
  0
LINE
  5
11D
330
22
100
AcDbEntity
  8
0
  6
Continuous
 62
     7
100
AcDbLine
 10
-314.2656860351563
 20
193.7946319580078
 30
0.0
 11
-317.4990234375
 21
197.0279846191406
 31
0.0
  0
LINE
  5
11E
330
22
100
AcDbEntity
  8
0
  6
Continuous
 62
     7
100
AcDbLine
 10
-311.6705932617188
 20
194.0279846191406
 30
0.0
 11
-314.6705932617188
 21
197.0279846191406
 31
0.0
  0
LINE
  5
11F
330
22
100
AcDbEntity
  8
0
  6
Continuous
 62
     7
100
AcDbLine
 10
-311.3580322265625
 20
196.5438537597656
 30
0.0
 11
-311.8421936035156
 21
197.0279846191406
 31
0.0
  0
LINE
  5
120
330
22
100
AcDbEntity
  8
0
  6
CENTER
 62
     7
100
AcDbLine
 10
-337.7656860351563
 20
207.2049407958984
 30
0.0
 11
-337.7656860351563
 21
15.35867023468018
 31
0.0
  0
LINE
  5
121
330
22
100
AcDbEntity
  8
0
  6
Continuous
 62
     7
100
AcDbLine
 10
-381.2656860351563
 20
187.0279846191406
 30
0.0
 11
-381.2656860351563
 21
197.0279846191406
 31
0.0
  0
LINE
  5
122
330
22
100
AcDbEntity
  8
0
  6
Continuous
 62
     7
100
AcDbLine
 10
-294.2656860351563
 20
187.0279846191406
 30
0.0
 11
-294.2656860351563
 21
197.0279846191406
 31
0.0
  0
LINE
  5
123
330
22
100
AcDbEntity
  8
0
  6
Continuous
 62
     7
100
AcDbLine
 10
-322.2656860351563
 20
185.0279846191406
 30
0.0
 11
-312.3655395507813
 21
185.0279846191406
 31
0.0
  0
LINE
  5
124
330
22
100
AcDbEntity
  8
0
  6
Continuous
 62
     7
100
AcDbLine
 10
-312.3655395507813
 20
185.0279846191406
 30
0.0
 11
-312.1155395507813
 21
185.0279846191406
 31
0.0
  0
LINE
  5
125
330
22
100
AcDbEntity
  8
0
  6
Continuous
 62
     7
100
AcDbLine
 10
-322.2656860351563
 20
168.5279846191406
 30
0.0
 11
-322.2656860351563
 21
185.0279846191406
 31
0.0
  0
LINE
  5
126
330
22
100
AcDbEntity
  8
0
  6
Continuous
 62
     7
100
AcDbLine
 10
-316.2656860351563
 20
172.0279846191406
 30
0.0
 11
-316.2656860351563
 21
185.0279846191406
 31
0.0
  0
LINE
  5
127
330
22
100
AcDbEntity
  8
0
  6
Continuous
 62
     7
100
AcDbLine
 10
-337.7656860351563
 20
168.5279846191406
 30
0.0
 11
-322.2656860351563
 21
168.5279846191406
 31
0.0
  0
LINE
  5
128
330
22
100
AcDbEntity
  8
0
  6
Continuous
 62
     7
100
AcDbLine
 10
-337.7656860351563
 20
185.0279846191406
 30
0.0
 11
-326.6793823242188
 21
185.0279846191406
 31
0.0
  0
LINE
  5
129
330
22
100
AcDbEntity
  8
0
  6
Continuous
 62
     7
100
AcDbLine
 10
-367.565673828125
 20
125.0279922485352
 30
0.0
 11
-367.7656860351563
 21
125.2279891967773
 31
0.0
  0
LINE
  5
12A
330
22
100
AcDbEntity
  8
0
  6
Continuous
 62
     7
100
AcDbLine
 10
-367.565673828125
 20
125.0279922485352
 30
0.0
 11
-366.1156921386719
 21
123.5779876708984
 31
0.0
  0
LINE
  5
12B
330
22
100
AcDbEntity
  8
0
  6
Continuous
 62
     7
100
AcDbLine
 10
-367.6320190429688
 20
147.0279846191406
 30
0.0
 11
-367.7656860351563
 21
142.7509613037109
 31
0.0
  0
LINE
  5
12C
330
22
100
AcDbEntity
  8
0
  6
Continuous
 62
     7
100
AcDbLine
 10
-366.1813049316406
 20
147.0279846191406
 30
0.0
 11
-366.2681579589844
 21
144.2484741210938
 31
0.0
  0
LINE
  5
12D
330
22
100
AcDbEntity
  8
0
  6
Continuous
 62
     7
100
AcDbLine
 10
-366.1156921386719
 20
85.02799224853516
 30
0.0
 11
-366.1156921386719
 21
123.5779876708984
 31
0.0
  0
LINE
  5
12E
330
22
100
AcDbEntity
  8
0
  6
Continuous
 62
     7
100
AcDbLine
 10
-314.7656860351563
 20
65.02799224853515
 30
0.0
 11
-314.7656860351563
 21
165.0279846191406
 31
0.0
  0
LINE
  5
12F
330
22
100
AcDbEntity
  8
0
  6
Continuous
 62
     7
100
AcDbLine
 10
-367.7656860351563
 20
125.2279891967773
 30
0.0
 11
-367.7656860351563
 21
142.7509613037109
 31
0.0
  0
LINE
  5
130
330
22
100
AcDbEntity
  8
0
  6
Continuous
 62
     7
100
AcDbLine
 10
-367.565673828125
 20
85.02799224853516
 30
0.0
 11
-367.565673828125
 21
125.0279922485352
 31
0.0
  0
LINE
  5
131
330
22
100
AcDbEntity
  8
0
  6
Continuous
 62
     7
100
AcDbLine
 10
-310.1282043457031
 20
43.8279914855957
 30
0.0
 11
-308.6307067871094
 21
42.33048248291015
 31
0.0
  0
LINE
  5
132
330
22
100
AcDbEntity
  8
0
  6
Continuous
 62
     7
100
AcDbLine
 10
-309.5312805175781
 20
55.02799224853515
 30
0.0
 11
-307.6312866210938
 21
56.9279899597168
 31
0.0
  0
LINE
  5
133
330
22
100
AcDbEntity
  8
0
  6
Continuous
 62
     7
100
AcDbLine
 10
-308.6307067871094
 20
42.33048248291015
 30
0.0
 11
-307.9649658203125
 21
21.02799034118652
 31
0.0
  0
LINE
  5
134
330
22
100
AcDbEntity
  8
0
  6
Continuous
 62
     7
100
AcDbLine
 10
-310.1282043457031
 20
43.8279914855957
 30
0.0
 11
-309.4624938964844
 21
22.52549743652344
 31
0.0
  0
LINE
  5
135
330
22
100
AcDbEntity
  8
0
  6
Continuous
 62
     7
100
AcDbLine
 10
-314.7656860351563
 20
161.5226287841797
 30
0.0
 11
-311.2603149414063
 21
165.0279846191406
 31
0.0
  0
LINE
  5
136
330
22
100
AcDbEntity
  8
0
  6
Continuous
 62
     7
100
AcDbLine
 10
-314.7656860351563
 20
157.2799835205078
 30
0.0
 11
-309.8248596191406
 21
162.2208099365234
 31
0.0
  0
LINE
  5
137
330
22
100
AcDbEntity
  8
0
  6
Continuous
 62
     7
100
AcDbLine
 10
-314.7656860351563
 20
153.0373382568359
 30
0.0
 11
-309.6962890625
 21
158.1067352294922
 31
0.0
  0
LINE
  5
138
330
22
100
AcDbEntity
  8
0
  6
Continuous
 62
     7
100
AcDbLine
 10
-314.7656860351563
 20
148.7946929931641
 30
0.0
 11
-309.5677185058594
 21
153.99267578125
 31
0.0
  0
LINE
  5
139
330
22
100
AcDbEntity
  8
0
  6
Continuous
 62
     7
100
AcDbLine
 10
-314.7656860351563
 20
144.5520629882813
 30
0.0
 11
-309.4391479492188
 21
149.8786010742188
 31
0.0
  0
LINE
  5
13A
330
22
100
AcDbEntity
  8
0
  6
Continuous
 62
     7
100
AcDbLine
 10
-314.7656860351563
 20
140.3094177246094
 30
0.0
 11
-309.3105773925781
 21
145.7645263671875
 31
0.0
  0
LINE
  5
13B
330
22
100
AcDbEntity
  8
0
  6
Continuous
 62
     7
100
AcDbLine
 10
-314.7656860351563
 20
136.0667724609375
 30
0.0
 11
-307.923583984375
 21
142.9088745117188
 31
0.0
  0
LINE
  5
13C
330
22
100
AcDbEntity
  8
0
  6
Continuous
 62
     7
100
AcDbLine
 10
-314.7656860351563
 20
131.8241424560547
 30
0.0
 11
-307.7656860351563
 21
138.8241424560547
 31
0.0
  0
LINE
  5
13D
330
22
100
AcDbEntity
  8
0
  6
Continuous
 62
     7
100
AcDbLine
 10
-314.7656860351563
 20
127.5814971923828
 30
0.0
 11
-307.7656860351563
 21
134.5814971923828
 31
0.0
  0
LINE
  5
13E
330
22
100
AcDbEntity
  8
0
  6
Continuous
 62
     7
100
AcDbLine
 10
-314.7656860351563
 20
123.3388519287109
 30
0.0
 11
-307.7656860351563
 21
130.3388519287109
 31
0.0
  0
LINE
  5
13F
330
22
100
AcDbEntity
  8
0
  6
Continuous
 62
     7
100
AcDbLine
 10
-314.7656860351563
 20
119.0962142944336
 30
0.0
 11
-307.7656860351563
 21
126.0962142944336
 31
0.0
  0
LINE
  5
140
330
22
100
AcDbEntity
  8
0
  6
Continuous
 62
     7
100
AcDbLine
 10
-314.7656860351563
 20
114.8535766601563
 30
0.0
 11
-309.4156799316406
 21
120.2035751342773
 31
0.0
  0
LINE
  5
141
330
22
100
AcDbEntity
  8
0
  6
Continuous
 62
     7
100
AcDbLine
 10
-314.7656860351563
 20
110.6109313964844
 30
0.0
 11
-309.4156799316406
 21
115.9609298706055
 31
0.0
  0
LINE
  5
142
330
22
100
AcDbEntity
  8
0
  6
Continuous
 62
     7
100
AcDbLine
 10
-314.7656860351563
 20
106.368293762207
 30
0.0
 11
-309.4156799316406
 21
111.718292236328
 31
0.0
  0
LINE
  5
143
330
22
100
AcDbEntity
  8
0
  6
Continuous
 62
     7
100
AcDbLine
 10
-314.7656860351563
 20
102.1256484985352
 30
0.0
 11
-309.4156799316406
 21
107.4756546020508
 31
0.0
  0
LINE
  5
144
330
22
100
AcDbEntity
  8
0
  6
Continuous
 62
     7
100
AcDbLine
 10
-314.7656860351563
 20
97.8830108642578
 30
0.0
 11
-309.4156799316406
 21
103.2330093383789
 31
0.0
  0
LINE
  5
145
330
22
100
AcDbEntity
  8
0
  6
Continuous
 62
     7
100
AcDbLine
 10
-314.7656860351563
 20
93.64037322998049
 30
0.0
 11
-309.4156799316406
 21
98.99037170410156
 31
0.0
  0
LINE
  5
146
330
22
100
AcDbEntity
  8
0
  6
Continuous
 62
     7
100
AcDbLine
 10
-314.7656860351563
 20
89.3977279663086
 30
0.0
 11
-309.4156799316406
 21
94.74772644042969
 31
0.0
  0
LINE
  5
147
330
22
100
AcDbEntity
  8
0
  6
Continuous
 62
     7
100
AcDbLine
 10
-314.7656860351563
 20
85.15509033203125
 30
0.0
 11
-309.4156799316406
 21
90.50508880615234
 31
0.0
  0
LINE
  5
148
330
22
100
AcDbEntity
  8
0
  6
Continuous
 62
     7
100
AcDbLine
 10
-314.7656860351563
 20
80.91244506835938
 30
0.0
 11
-309.4156799316406
 21
86.26245117187499
 31
0.0
  0
LINE
  5
149
330
22
100
AcDbEntity
  8
0
  6
Continuous
 62
     7
100
AcDbLine
 10
-314.7656860351563
 20
76.66980743408203
 30
0.0
 11
-309.4156799316406
 21
82.01980590820312
 31
0.0
  0
LINE
  5
14A
330
22
100
AcDbEntity
  8
0
  6
Continuous
 62
     7
100
AcDbLine
 10
-314.7656860351563
 20
72.42716979980468
 30
0.0
 11
-309.4156799316406
 21
77.77716827392578
 31
0.0
  0
LINE
  5
14B
330
22
100
AcDbEntity
  8
0
  6
Continuous
 62
     7
100
AcDbLine
 10
-314.7656860351563
 20
68.18452453613281
 30
0.0
 11
-309.4156799316406
 21
73.53452301025391
 31
0.0
  0
LINE
  5
14C
330
22
100
AcDbEntity
  8
0
  6
Continuous
 62
     7
100
AcDbLine
 10
-313.6795654296875
 20
65.02799224853515
 30
0.0
 11
-309.4156799316406
 21
69.29188537597656
 31
0.0
  0
LINE
  5
14D
330
22
100
AcDbEntity
  8
0
  6
Continuous
 62
     7
100
AcDbLine
 10
-309.4369201660156
 20
65.02799224853515
 30
0.0
 11
-309.4156799316406
 21
65.04924774169921
 31
0.0
  0
LINE
  5
14E
330
22
100
AcDbEntity
  8
0
  6
Continuous
 62
     7
100
AcDbLine
 10
-314.7656860351563
 20
163.6439361572266
 30
0.0
 11
-313.3816223144531
 21
165.0279846191406
 31
0.0
  0
LINE
  5
14F
330
22
100
AcDbEntity
  8
0
  6
Continuous
 62
     7
100
AcDbLine
 10
-314.7656860351563
 20
159.4013061523438
 30
0.0
 11
-309.8891296386719
 21
164.2778472900391
 31
0.0
  0
LINE
  5
150
330
22
100
AcDbEntity
  8
0
  6
Continuous
 62
     7
100
AcDbLine
 10
-314.7656860351563
 20
155.1586608886719
 30
0.0
 11
-309.7605590820313
 21
160.1637725830078
 31
0.0
  0
LINE
  5
151
330
22
100
AcDbEntity
  8
0
  6
Continuous
 62
     7
100
AcDbLine
 10
-314.7656860351563
 20
150.916015625
 30
0.0
 11
-309.6319885253906
 21
156.0496978759766
 31
0.0
  0
LINE
  5
152
330
22
100
AcDbEntity
  8
0
  6
Continuous
 62
     7
100
AcDbLine
 10
-314.7656860351563
 20
146.6733856201171
 30
0.0
 11
-309.50341796875
 21
151.9356384277344
 31
0.0
  0
LINE
  5
153
330
22
100
AcDbEntity
  8
0
  6
Continuous
 62
     7
100
AcDbLine
 10
-314.7656860351563
 20
142.4307403564453
 30
0.0
 11
-309.3748474121094
 21
147.8215637207031
 31
0.0
  0
LINE
  5
154
330
22
100
AcDbEntity
  8
0
  6
Continuous
 62
     7
100
AcDbLine
 10
-314.7656860351563
 20
138.1880950927734
 30
0.0
 11
-308.9842529296875
 21
143.9695281982421
 31
0.0
  0
LINE
  5
155
330
22
100
AcDbEntity
  8
0
  6
Continuous
 62
     7
100
AcDbLine
 10
-314.7656860351563
 20
133.9454498291016
 30
0.0
 11
-307.7656860351563
 21
140.9454498291016
 31
0.0
  0
LINE
  5
156
330
22
100
AcDbEntity
  8
0
  6
Continuous
 62
     7
100
AcDbLine
 10
-314.7656860351563
 20
129.7028198242188
 30
0.0
 11
-307.7656860351563
 21
136.7028198242188
 31
0.0
  0
LINE
  5
157
330
22
100
AcDbEntity
  8
0
  6
Continuous
 62
     7
100
AcDbLine
 10
-314.7656860351563
 20
125.4601745605469
 30
0.0
 11
-307.7656860351563
 21
132.4601745605469
 31
0.0
  0
LINE
  5
158
330
22
100
AcDbEntity
  8
0
  6
Continuous
 62
     7
100
AcDbLine
 10
-314.7656860351563
 20
121.2175369262695
 30
0.0
 11
-307.7656860351563
 21
128.217529296875
 31
0.0
  0
LINE
  5
159
330
22
100
AcDbEntity
  8
0
  6
Continuous
 62
     7
100
AcDbLine
 10
-314.7656860351563
 20
116.9748916625977
 30
0.0
 11
-309.4156799316406
 21
122.3248977661133
 31
0.0
  0
LINE
  5
15A
330
22
100
AcDbEntity
  8
0
  6
Continuous
 62
     7
100
AcDbLine
 10
-314.7656860351563
 20
112.7322540283203
 30
0.0
 11
-309.4156799316406
 21
118.0822525024414
 31
0.0
  0
LINE
  5
15B
330
22
100
AcDbEntity
  8
0
  6
Continuous
 62
     7
100
AcDbLine
 10
-314.7656860351563
 20
108.489616394043
 30
0.0
 11
-309.4156799316406
 21
113.8396148681641
 31
0.0
  0
LINE
  5
15C
330
22
100
AcDbEntity
  8
0
  6
Continuous
 62
     7
100
AcDbLine
 10
-314.7656860351563
 20
104.2469711303711
 30
0.0
 11
-309.4156799316406
 21
109.5969696044922
 31
0.0
  0
LINE
  5
15D
330
22
100
AcDbEntity
  8
0
  6
Continuous
 62
     7
100
AcDbLine
 10
-314.7656860351563
 20
100.0043334960938
 30
0.0
 11
-309.4156799316406
 21
105.3543319702148
 31
0.0
  0
LINE
  5
15E
330
22
100
AcDbEntity
  8
0
  6
Continuous
 62
     7
100
AcDbLine
 10
-314.7656860351563
 20
95.76168823242188
 30
0.0
 11
-309.4156799316406
 21
101.1116943359375
 31
0.0
  0
LINE
  5
15F
330
22
100
AcDbEntity
  8
0
  6
Continuous
 62
     7
100
AcDbLine
 10
-314.7656860351563
 20
91.51905059814451
 30
0.0
 11
-309.4156799316406
 21
96.86904907226564
 31
0.0
  0
LINE
  5
160
330
22
100
AcDbEntity
  8
0
  6
Continuous
 62
     7
100
AcDbLine
 10
-314.7656860351563
 20
87.27641296386719
 30
0.0
 11
-309.4156799316406
 21
92.62641143798829
 31
0.0
  0
LINE
  5
161
330
22
100
AcDbEntity
  8
0
  6
Continuous
 62
     7
100
AcDbLine
 10
-314.7656860351563
 20
83.0337677001953
 30
0.0
 11
-309.4156799316406
 21
88.3837661743164
 31
0.0
  0
LINE
  5
162
330
22
100
AcDbEntity
  8
0
  6
Continuous
 62
     7
100
AcDbLine
 10
-314.7656860351563
 20
78.79113006591797
 30
0.0
 11
-309.4156799316406
 21
84.14112854003906
 31
0.0
  0
LINE
  5
163
330
22
100
AcDbEntity
  8
0
  6
Continuous
 62
     7
100
AcDbLine
 10
-314.7656860351563
 20
74.54848480224609
 30
0.0
 11
-309.4156799316406
 21
79.89849090576171
 31
0.0
  0
LINE
  5
164
330
22
100
AcDbEntity
  8
0
  6
Continuous
 62
     7
100
AcDbLine
 10
-314.7656860351563
 20
70.30584716796875
 30
0.0
 11
-309.4156799316406
 21
75.65584564208984
 31
0.0
  0
LINE
  5
165
330
22
100
AcDbEntity
  8
0
  6
Continuous
 62
     7
100
AcDbLine
 10
-314.7656860351563
 20
66.06320953369141
 30
0.0
 11
-309.4156799316406
 21
71.4132080078125
 31
0.0
  0
LINE
  5
166
330
22
100
AcDbEntity
  8
0
  6
Continuous
 62
     7
100
AcDbLine
 10
-311.5582580566406
 20
65.02799224853515
 30
0.0
 11
-309.4156799316406
 21
67.17056274414064
 31
0.0
  0
LINE
  5
167
330
22
100
AcDbEntity
  8
0
  6
Continuous
 62
     7
100
AcDbLine
 10
-309.5312805175781
 20
55.02799224853515
 30
0.0
 11
-337.7656860351563
 21
55.02799224853515
 31
0.0
  0
LINE
  5
168
330
22
100
AcDbEntity
  8
0
  6
Continuous
 62
     7
100
AcDbLine
 10
-307.9649658203125
 20
21.02799034118652
 30
0.0
 11
-309.4624938964844
 21
22.52549743652344
 31
0.0
  0
LINE
  5
169
330
22
100
AcDbEntity
  8
0
  6
Continuous
 62
     7
100
AcDbLine
 10
-309.4156799316406
 20
65.02799224853515
 30
0.0
 11
-307.9656677246094
 21
66.47798919677734
 31
0.0
  0
LINE
  5
16A
330
22
100
AcDbEntity
  8
0
  6
Continuous
 62
     7
100
AcDbLine
 10
-309.4156799316406
 20
65.02799224853515
 30
0.0
 11
-309.4156799316406
 21
123.5779876708984
 31
0.0
  0
LINE
  5
16B
330
22
100
AcDbEntity
  8
0
  6
Continuous
 62
     7
100
AcDbLine
 10
-307.9656677246094
 20
66.47798919677734
 30
0.0
 11
-307.9656677246094
 21
125.0279922485352
 31
0.0
  0
LINE
  5
16C
330
22
100
AcDbEntity
  8
0
  6
Continuous
 62
     7
100
AcDbLine
 10
-307.9656677246094
 20
125.0279922485352
 30
0.0
 11
-309.4156799316406
 21
123.5779876708984
 31
0.0
  0
LINE
  5
16D
330
22
100
AcDbEntity
  8
0
  6
Continuous
 62
     7
100
AcDbLine
 10
-304.7656860351563
 20
85.02799224853516
 30
0.0
 11
-307.9656677246094
 21
85.02799224853516
 31
0.0
  0
LINE
  5
16E
330
22
100
AcDbEntity
  8
0
  6
Continuous
 62
     7
100
AcDbLine
 10
-307.6312866210938
 20
85.02799224853516
 30
0.0
 11
-309.5312805175781
 21
83.12799072265624
 31
0.0
  0
LINE
  5
16F
330
22
100
AcDbEntity
  8
0
  6
Continuous
 62
     7
100
AcDbLine
 10
-307.6312866210938
 20
83.20805358886719
 30
0.0
 11
-305.8113403320313
 21
85.02799224853516
 31
0.0
  0
LINE
  5
170
330
22
100
AcDbEntity
  8
0
  6
Continuous
 62
     7
100
AcDbLine
 10
-307.6312866210938
 20
80.37962341308594
 30
0.0
 11
-304.7656860351563
 21
83.2452163696289
 31
0.0
  0
LINE
  5
171
330
22
100
AcDbEntity
  8
0
  6
Continuous
 62
     7
100
AcDbLine
 10
-307.6312866210938
 20
77.55120086669922
 30
0.0
 11
-304.7656860351563
 21
80.41679382324218
 31
0.0
  0
LINE
  5
172
330
22
100
AcDbEntity
  8
0
  6
Continuous
 62
     7
100
AcDbLine
 10
-307.6312866210938
 20
74.72277069091797
 30
0.0
 11
-304.7656860351563
 21
77.58836364746094
 31
0.0
  0
LINE
  5
173
330
22
100
AcDbEntity
  8
0
  6
Continuous
 62
     7
100
AcDbLine
 10
-307.6312866210938
 20
71.89434051513671
 30
0.0
 11
-304.7656860351563
 21
74.75993347167968
 31
0.0
  0
LINE
  5
174
330
22
100
AcDbEntity
  8
0
  6
Continuous
 62
     7
100
AcDbLine
 10
-307.6312866210938
 20
69.06591796875
 30
0.0
 11
-304.7656860351563
 21
71.93151092529297
 31
0.0
  0
LINE
  5
175
330
22
100
AcDbEntity
  8
0
  6
Continuous
 62
     7
100
AcDbLine
 10
-307.6312866210938
 20
66.23748779296875
 30
0.0
 11
-304.7656860351563
 21
69.10308074951172
 31
0.0
  0
LINE
  5
176
330
22
100
AcDbEntity
  8
0
  6
Continuous
 62
     7
100
AcDbLine
 10
-307.6312866210938
 20
63.40906143188477
 30
0.0
 11
-304.7656860351563
 21
66.274658203125
 31
0.0
  0
LINE
  5
177
330
22
100
AcDbEntity
  8
0
  6
Continuous
 62
     7
100
AcDbLine
 10
-307.6312866210938
 20
60.58063507080078
 30
0.0
 11
-304.7656860351563
 21
63.44622802734375
 31
0.0
  0
LINE
  5
178
330
22
100
AcDbEntity
  8
0
  6
Continuous
 62
     7
100
AcDbLine
 10
-307.6312866210938
 20
57.75220870971679
 30
0.0
 11
-304.7656860351563
 21
60.61780166625977
 31
0.0
  0
LINE
  5
179
330
22
100
AcDbEntity
  8
0
  6
Continuous
 62
     7
100
AcDbLine
 10
-310.1282043457031
 20
52.42683792114258
 30
0.0
 11
-304.7656860351563
 21
57.78937530517578
 31
0.0
  0
LINE
  5
17A
330
22
100
AcDbEntity
  8
0
  6
Continuous
 62
     7
100
AcDbLine
 10
-309.8245544433594
 20
49.9020767211914
 30
0.0
 11
-304.7656860351563
 21
54.96094512939453
 31
0.0
  0
LINE
  5
17B
330
22
100
AcDbEntity
  8
0
  6
Continuous
 62
     7
100
AcDbLine
 10
-309.4393310546875
 20
47.45887756347656
 30
0.0
 11
-304.7656860351563
 21
52.13251876831055
 31
0.0
  0
LINE
  5
17C
330
22
100
AcDbEntity
  8
0
  6
Continuous
 62
     7
100
AcDbLine
 10
-309.0541076660156
 20
45.01567840576171
 30
0.0
 11
-304.7656860351563
 21
49.30409240722656
 31
0.0
  0
LINE
  5
17D
330
22
100
AcDbEntity
  8
0
  6
Continuous
 62
     7
100
AcDbLine
 10
-308.6688537597656
 20
42.57247924804688
 30
0.0
 11
-304.7656860351563
 21
46.47566604614257
 31
0.0
  0
LINE
  5
17E
330
22
100
AcDbEntity
  8
0
  6
Continuous
 62
     7
100
AcDbLine
 10
-308.5534973144531
 20
39.85943222045898
 30
0.0
 11
-304.7656860351563
 21
43.64723968505859
 31
0.0
  0
LINE
  5
17F
330
22
100
AcDbEntity
  8
0
  6
Continuous
 62
     7
100
AcDbLine
 10
-308.4677734375
 20
37.1167221069336
 30
0.0
 11
-304.7656860351563
 21
40.81880950927734
 31
0.0
  0
LINE
  5
180
330
22
100
AcDbEntity
  8
0
  6
Continuous
 62
     7
100
AcDbLine
 10
-308.3820495605469
 20
34.37400817871095
 30
0.0
 11
-304.7656860351563
 21
37.99038314819336
 31
0.0
  0
LINE
  5
181
330
22
100
AcDbEntity
  8
0
  6
Continuous
 62
     7
100
AcDbLine
 10
-308.2963562011719
 20
31.63129425048828
 30
0.0
 11
-304.7656860351563
 21
35.16195678710938
 31
0.0
  0
LINE
  5
182
330
22
100
AcDbEntity
  8
0
  6
Continuous
 62
     7
100
AcDbLine
 10
-308.2106323242188
 20
28.88858222961426
 30
0.0
 11
-304.7656860351563
 21
32.33353042602539
 31
0.0
  0
LINE
  5
183
330
22
100
AcDbEntity
  8
0
  6
Continuous
 62
     7
100
AcDbLine
 10
-308.1249084472656
 20
26.1458683013916
 30
0.0
 11
-304.7656860351563
 21
29.50510215759277
 31
0.0
  0
LINE
  5
184
330
22
100
AcDbEntity
  8
0
  6
Continuous
 62
     7
100
AcDbLine
 10
-308.0391845703125
 20
23.40315628051758
 30
0.0
 11
-304.7656860351563
 21
26.67667579650879
 31
0.0
  0
LINE
  5
185
330
22
100
AcDbEntity
  8
0
  6
Continuous
 62
     7
100
AcDbLine
 10
-307.5859375
 20
21.02799034118652
 30
0.0
 11
-304.7656860351563
 21
23.84824752807617
 31
0.0
  0
LINE
  5
186
330
22
100
AcDbEntity
  8
0
  6
Continuous
 62
     7
100
AcDbLine
 10
-304.7656860351563
 20
21.02799034118652
 30
0.0
 11
-370.7656860351563
 21
21.02799034118652
 31
0.0
  0
LINE
  5
187
330
22
100
AcDbEntity
  8
0
  6
Continuous
 62
     7
100
AcDbLine
 10
-295.0391845703125
 20
197.0279846191406
 30
0.0
 11
-294.2656860351563
 21
196.2545013427734
 31
0.0
  0
LINE
  5
188
330
22
100
AcDbEntity
  8
0
  6
Continuous
 62
     7
100
AcDbLine
 10
-295.7462768554688
 20
197.0279846191406
 30
0.0
 11
-294.2656860351563
 21
195.5473937988281
 31
0.0
  0
LINE
  5
189
330
22
100
AcDbEntity
  8
0
  6
Continuous
 62
     7
100
AcDbLine
 10
-297.8676147460938
 20
197.0279846191406
 30
0.0
 11
-294.2656860351563
 21
193.4260711669922
 31
0.0
  0
LINE
  5
18A
330
22
100
AcDbEntity
  8
0
  6
Continuous
 62
     7
100
AcDbLine
 10
-298.57470703125
 20
197.0279846191406
 30
0.0
 11
-294.2656860351563
 21
192.7189636230469
 31
0.0
  0
LINE
  5
18B
330
22
100
AcDbEntity
  8
0
  6
Continuous
 62
     7
100
AcDbLine
 10
-300.6960144042969
 20
197.0279846191406
 30
0.0
 11
-294.2656860351563
 21
190.5976409912109
 31
0.0
  0
LINE
  5
18C
330
22
100
AcDbEntity
  8
0
  6
Continuous
 62
     7
100
AcDbLine
 10
-301.4031372070313
 20
197.0279846191406
 30
0.0
 11
-294.2656860351563
 21
189.8905334472656
 31
0.0
  0
LINE
  5
18D
330
22
100
AcDbEntity
  8
0
  6
Continuous
 62
     7
100
AcDbLine
 10
-303.5244445800781
 20
197.0279846191406
 30
0.0
 11
-294.2656860351563
 21
187.7692108154297
 31
0.0
  0
LINE
  5
18E
330
22
100
AcDbEntity
  8
0
  6
Continuous
 62
     7
100
AcDbLine
 10
-304.2315673828125
 20
197.0279846191406
 30
0.0
 11
-294.2656860351563
 21
187.0621032714844
 31
0.0
  0
LINE
  5
18F
330
22
100
AcDbEntity
  8
0
  6
Continuous
 62
     7
100
AcDbLine
 10
-306.3528747558594
 20
197.0279846191406
 30
0.0
 11
-296.2775268554688
 21
186.9526519775391
 31
0.0
  0
LINE
  5
190
330
22
100
AcDbEntity
  8
0
  6
Continuous
 62
     7
100
AcDbLine
 10
-307.0599975585938
 20
197.0279846191406
 30
0.0
 11
-296.7765197753906
 21
186.7445373535156
 31
0.0
  0
LINE
  5
191
330
22
100
AcDbEntity
  8
0
  6
Continuous
 62
     7
100
AcDbLine
 10
-309.1813049316406
 20
197.0279846191406
 30
0.0
 11
-297.6910095214844
 21
185.5376739501953
 31
0.0
  0
LINE
  5
192
330
22
100
AcDbEntity
  8
0
  6
Continuous
 62
     7
100
AcDbLine
 10
-309.888427734375
 20
197.0279846191406
 30
0.0
 11
-297.7656860351563
 21
184.9052581787109
 31
0.0
  0
LINE
  5
193
330
22
100
AcDbEntity
  8
0
  6
Continuous
 62
     7
100
AcDbLine
 10
-311.1416320800781
 20
196.1598815917969
 30
0.0
 11
-297.7656860351563
 21
182.783935546875
 31
0.0
  0
LINE
  5
194
330
22
100
AcDbEntity
  8
0
  6
Continuous
 62
     7
100
AcDbLine
 10
-311.1985168457031
 20
195.5096588134766
 30
0.0
 11
-297.7656860351563
 21
182.0768280029296
 31
0.0
  0
LINE
  5
195
330
22
100
AcDbEntity
  8
0
  6
Continuous
 62
     7
100
AcDbLine
 10
-311.3691711425781
 20
193.5590057373047
 30
0.0
 11
-297.7656860351563
 21
179.9555053710938
 31
0.0
  0
LINE
  5
196
330
22
100
AcDbEntity
  8
0
  6
Continuous
 62
     7
100
AcDbLine
 10
-311.4260559082031
 20
192.9087829589844
 30
0.0
 11
-297.7656860351563
 21
179.2483978271484
 31
0.0
  0
LINE
  5
197
330
22
100
AcDbEntity
  8
0
  6
Continuous
 62
     7
100
AcDbLine
 10
-311.5967102050781
 20
190.9581298828125
 30
0.0
 11
-297.7656860351563
 21
177.1270751953125
 31
0.0
  0
LINE
  5
198
330
22
100
AcDbEntity
  8
0
  6
Continuous
 62
     7
100
AcDbLine
 10
-311.6536254882813
 20
190.3079071044922
 30
0.0
 11
-297.7656860351563
 21
176.4199676513672
 31
0.0
  0
LINE
  5
199
330
22
100
AcDbEntity
  8
0
  6
Continuous
 62
     7
100
AcDbLine
 10
-311.8242797851563
 20
188.3572387695313
 30
0.0
 11
-297.7656860351563
 21
174.2986450195313
 31
0.0
  0
LINE
  5
19A
330
22
100
AcDbEntity
  8
0
  6
Continuous
 62
     7
100
AcDbLine
 10
-311.8811645507813
 20
187.70703125
 30
0.0
 11
-297.7656860351563
 21
173.591552734375
 31
0.0
  0
LINE
  5
19B
330
22
100
AcDbEntity
  8
0
  6
Continuous
 62
     7
100
AcDbLine
 10
-312.0518188476563
 20
185.7563629150391
 30
0.0
 11
-297.7656860351563
 21
171.4702301025391
 31
0.0
  0
LINE
  5
19C
330
22
100
AcDbEntity
  8
0
  6
Continuous
 62
     7
100
AcDbLine
 10
-312.1087036132813
 20
185.1061401367188
 30
0.0
 11
-297.7656860351563
 21
170.7631225585938
 31
0.0
  0
LINE
  5
19D
330
22
100
AcDbEntity
  8
0
  6
Continuous
 62
     7
100
AcDbLine
 10
-314.1518859863281
 20
185.0279846191406
 30
0.0
 11
-297.7656860351563
 21
168.6417999267578
 31
0.0
  0
LINE
  5
19E
330
22
100
AcDbEntity
  8
0
  6
Continuous
 62
     7
100
AcDbLine
 10
-314.8589782714844
 20
185.0279846191406
 30
0.0
 11
-297.7656860351563
 21
167.9346923828125
 31
0.0
  0
LINE
  5
19F
330
22
100
AcDbEntity
  8
0
  6
Continuous
 62
     7
100
AcDbLine
 10
-316.2656860351563
 20
184.3133697509766
 30
0.0
 11
-297.7656860351563
 21
165.8133697509766
 31
0.0
  0
LINE
  5
1A0
330
22
100
AcDbEntity
  8
0
  6
Continuous
 62
     7
100
AcDbLine
 10
-316.2656860351563
 20
183.6062622070313
 30
0.0
 11
-297.7656860351563
 21
165.1062622070313
 31
0.0
  0
LINE
  5
1A1
330
22
100
AcDbEntity
  8
0
  6
Continuous
 62
     7
100
AcDbLine
 10
-316.2656860351563
 20
181.4849395751953
 30
0.0
 11
-297.7656860351563
 21
162.9849395751953
 31
0.0
  0
LINE
  5
1A2
330
22
100
AcDbEntity
  8
0
  6
Continuous
 62
     7
100
AcDbLine
 10
-316.2656860351563
 20
180.77783203125
 30
0.0
 11
-297.7656860351563
 21
162.27783203125
 31
0.0
  0
LINE
  5
1A3
330
22
100
AcDbEntity
  8
0
  6
Continuous
 62
     7
100
AcDbLine
 10
-308.71826171875
 20
171.1090850830078
 30
0.0
 11
-297.7656860351563
 21
160.1565093994141
 31
0.0
  0
LINE
  5
1A4
330
22
100
AcDbEntity
  8
0
  6
Continuous
 62
     7
100
AcDbLine
 10
-316.2656860351563
 20
178.6565093994141
 30
0.0
 11
-309.6371459960938
 21
172.0279846191406
 31
0.0
  0
LINE
  5
1A5
330
22
100
AcDbEntity
  8
0
  6
Continuous
 62
     7
100
AcDbLine
 10
-308.6954345703125
 20
170.3791656494141
 30
0.0
 11
-297.7656860351563
 21
159.4494171142578
 31
0.0
  0
LINE
  5
1A6
330
22
100
AcDbEntity
  8
0
  6
Continuous
 62
     7
100
AcDbLine
 10
-316.2656860351563
 20
177.9494171142578
 30
0.0
 11
-310.3442687988281
 21
172.0279846191406
 31
0.0
  0
LINE
  5
1A7
330
22
100
AcDbEntity
  8
0
  6
Continuous
 62
     7
100
AcDbLine
 10
-308.6270141601563
 20
168.1894226074219
 30
0.0
 11
-297.7656860351563
 21
157.3280944824219
 31
0.0
  0
LINE
  5
1A8
330
22
100
AcDbEntity
  8
0
  6
Continuous
 62
     7
100
AcDbLine
 10
-316.2656860351563
 20
175.8280944824219
 30
0.0
 11
-312.465576171875
 21
172.0279846191406
 31
0.0
  0
LINE
  5
1A9
330
22
100
AcDbEntity
  8
0
  6
Continuous
 62
     7
100
AcDbLine
 10
-308.6041870117188
 20
167.4595031738281
 30
0.0
 11
-297.7656860351563
 21
156.6209869384766
 31
0.0
  0
LINE
  5
1AA
330
22
100
AcDbEntity
  8
0
  6
Continuous
 62
     7
100
AcDbLine
 10
-316.2656860351563
 20
175.1209869384766
 30
0.0
 11
-313.1726989746094
 21
172.0279846191406
 31
0.0
  0
LINE
  5
1AB
330
22
100
AcDbEntity
  8
0
  6
Continuous
 62
     7
100
AcDbLine
 10
-308.5357666015625
 20
165.2697448730469
 30
0.0
 11
-297.7656860351563
 21
154.4996643066406
 31
0.0
  0
LINE
  5
1AC
330
22
100
AcDbEntity
  8
0
  6
Continuous
 62
     7
100
AcDbLine
 10
-316.2656860351563
 20
172.9996643066406
 30
0.0
 11
-315.2940063476563
 21
172.0279846191406
 31
0.0
  0
LINE
  5
1AD
330
22
100
AcDbEntity
  8
0
  6
Continuous
 62
     7
100
AcDbLine
 10
-308.512939453125
 20
164.5398254394531
 30
0.0
 11
-297.7656860351563
 21
153.7925567626953
 31
0.0
  0
LINE
  5
1AE
330
22
100
AcDbEntity
  8
0
  6
Continuous
 62
     7
100
AcDbLine
 10
-316.2656860351563
 20
172.2925567626953
 30
0.0
 11
-316.0011291503906
 21
172.0279846191406
 31
0.0
  0
LINE
  5
1AF
330
22
100
AcDbEntity
  8
0
  6
Continuous
 62
     7
100
AcDbLine
 10
-308.4445190429688
 20
162.3500671386719
 30
0.0
 11
-297.7656860351563
 21
151.6712341308594
 31
0.0
  0
LINE
  5
1B0
330
22
100
AcDbEntity
  8
0
  6
Continuous
 62
     7
100
AcDbLine
 10
-308.4217224121094
 20
161.6201629638672
 30
0.0
 11
-297.7656860351563
 21
150.9641265869141
 31
0.0
  0
LINE
  5
1B1
330
22
100
AcDbEntity
  8
0
  6
Continuous
 62
     7
100
AcDbLine
 10
-308.353271484375
 20
159.4304046630859
 30
0.0
 11
-297.7656860351563
 21
148.8428039550781
 31
0.0
  0
LINE
  5
1B2
330
22
100
AcDbEntity
  8
0
  6
Continuous
 62
     7
100
AcDbLine
 10
-308.3304748535156
 20
158.7004852294922
 30
0.0
 11
-297.7656860351563
 21
148.1356964111328
 31
0.0
  0
LINE
  5
1B3
330
22
100
AcDbEntity
  8
0
  6
Continuous
 62
     7
100
AcDbLine
 10
-308.2620239257813
 20
156.5107269287109
 30
0.0
 11
-298.779296875
 21
147.0279846191406
 31
0.0
  0
LINE
  5
1B4
330
22
100
AcDbEntity
  8
0
  6
Continuous
 62
     7
100
AcDbLine
 10
-308.2392272949219
 20
155.7808074951172
 30
0.0
 11
-299.4863891601563
 21
147.0279846191406
 31
0.0
  0
LINE
  5
1B5
330
22
100
AcDbEntity
  8
0
  6
Continuous
 62
     7
100
AcDbLine
 10
-308.1707763671875
 20
153.591064453125
 30
0.0
 11
-301.6077270507813
 21
147.0279846191406
 31
0.0
  0
LINE
  5
1B6
330
22
100
AcDbEntity
  8
0
  6
Continuous
 62
     7
100
AcDbLine
 10
-308.1479797363281
 20
152.8611450195313
 30
0.0
 11
-302.3148193359375
 21
147.0279846191406
 31
0.0
  0
LINE
  5
1B7
330
22
100
AcDbEntity
  8
0
  6
Continuous
 62
     7
100
AcDbLine
 10
-308.0795288085938
 20
150.67138671875
 30
0.0
 11
-304.4361572265625
 21
147.0279846191406
 31
0.0
  0
LINE
  5
1B8
330
22
100
AcDbEntity
  8
0
  6
Continuous
 62
     7
100
AcDbLine
 10
-308.0567321777344
 20
149.9414672851563
 30
0.0
 11
-305.1432495117188
 21
147.0279846191406
 31
0.0
  0
LINE
  5
1B9
330
22
100
AcDbEntity
  8
0
  6
Continuous
 62
     7
100
AcDbLine
 10
-307.9883117675781
 20
147.7517242431641
 30
0.0
 11
-307.2645568847656
 21
147.0279846191406
 31
0.0
  0
LINE
  5
1BA
330
22
100
AcDbEntity
  8
0
  6
Continuous
 62
     7
100
AcDbLine
 10
-381.2656860351563
 20
197.0279846191406
 30
0.0
 11
-294.2656860351563
 21
197.0279846191406
 31
0.0
  0
LINE
  5
1BB
330
22
100
AcDbEntity
  8
0
  6
Continuous
 62
     7
100
AcDbLine
 10
-254.7656860351563
 20
57.02799224853515
 30
0.0
 11
-304.7656860351563
 21
57.02799224853515
 31
0.0
  0
LINE
  5
1BC
330
22
100
AcDbEntity
  8
0
  6
Continuous
 62
     7
100
AcDbLine
 10
-256.1484680175781
 20
60.02799224853515
 30
0.0
 11
-254.7656860351563
 21
58.64521408081055
 31
0.0
  0
LINE
  5
1BD
330
22
100
AcDbEntity
  8
0
  6
Continuous
 62
     7
100
AcDbLine
 10
-256.8555603027344
 20
60.02799224853515
 30
0.0
 11
-254.7656860351563
 21
57.93810653686523
 31
0.0
  0
LINE
  5
1BE
330
22
100
AcDbEntity
  8
0
  6
Continuous
 62
     7
100
AcDbLine
 10
-258.9768676757813
 20
60.02799224853515
 30
0.0
 11
-255.9768829345703
 21
57.02799224853515
 31
0.0
  0
LINE
  5
1BF
330
22
100
AcDbEntity
  8
0
  6
Continuous
 62
     7
100
AcDbLine
 10
-259.6839904785156
 20
60.02799224853515
 30
0.0
 11
-256.6839904785156
 21
57.02799224853515
 31
0.0
  0
LINE
  5
1C0
330
22
100
AcDbEntity
  8
0
  6
Continuous
 62
     7
100
AcDbLine
 10
-260.7854919433594
 20
59.00817489624023
 30
0.0
 11
-258.8052978515625
 21
57.02799224853515
 31
0.0
  0
LINE
  5
1C1
330
22
100
AcDbEntity
  8
0
  6
Continuous
 62
     7
100
AcDbLine
 10
-261.1390380859375
 20
58.65462112426758
 30
0.0
 11
-259.5124206542969
 21
57.02799224853515
 31
0.0
  0
LINE
  5
1C2
330
22
100
AcDbEntity
  8
0
  6
Continuous
 62
     7
100
AcDbLine
 10
-262.0156860351563
 20
57.40993499755859
 30
0.0
 11
-261.6337280273438
 21
57.02799224853515
 31
0.0
  0
LINE
  5
1C3
330
22
100
AcDbEntity
  8
0
  6
Continuous
 62
     7
100
AcDbLine
 10
-270.2905883789063
 20
60.02799224853515
 30
0.0
 11
-267.5156860351563
 21
57.25307846069336
 31
0.0
  0
LINE
  5
1C4
330
22
100
AcDbEntity
  8
0
  6
Continuous
 62
     7
100
AcDbLine
 10
-270.7394714355469
 20
59.76977920532227
 30
0.0
 11
-267.9977111816405
 21
57.02799224853515
 31
0.0
  0
LINE
  5
1C5
330
22
100
AcDbEntity
  8
0
  6
Continuous
 62
     7
100
AcDbLine
 10
-273.1190185546875
 20
60.02799224853515
 30
0.0
 11
-270.1190185546875
 21
57.02799224853515
 31
0.0
  0
LINE
  5
1C6
330
22
100
AcDbEntity
  8
0
  6
Continuous
 62
     7
100
AcDbLine
 10
-273.8261108398438
 20
60.02799224853515
 30
0.0
 11
-270.8261108398438
 21
57.02799224853515
 31
0.0
  0
LINE
  5
1C7
330
22
100
AcDbEntity
  8
0
  6
Continuous
 62
     7
100
AcDbLine
 10
-275.9474487304688
 20
60.02799224853515
 30
0.0
 11
-272.9474487304688
 21
57.02799224853515
 31
0.0
  0
LINE
  5
1C8
330
22
100
AcDbEntity
  8
0
  6
Continuous
 62
     7
100
AcDbLine
 10
-276.654541015625
 20
60.02799224853515
 30
0.0
 11
-273.654541015625
 21
57.02799224853515
 31
0.0
  0
LINE
  5
1C9
330
22
100
AcDbEntity
  8
0
  6
Continuous
 62
     7
100
AcDbLine
 10
-278.77587890625
 20
60.02799224853515
 30
0.0
 11
-275.77587890625
 21
57.02799224853515
 31
0.0
  0
LINE
  5
1CA
330
22
100
AcDbEntity
  8
0
  6
Continuous
 62
     7
100
AcDbLine
 10
-279.4829711914063
 20
60.02799224853515
 30
0.0
 11
-276.4829711914063
 21
57.02799224853515
 31
0.0
  0
LINE
  5
1CB
330
22
100
AcDbEntity
  8
0
  6
Continuous
 62
     7
100
AcDbLine
 10
-281.6043090820313
 20
60.02799224853515
 30
0.0
 11
-278.6043090820313
 21
57.02799224853515
 31
0.0
  0
LINE
  5
1CC
330
22
100
AcDbEntity
  8
0
  6
Continuous
 62
     7
100
AcDbLine
 10
-282.3114013671875
 20
60.02799224853515
 30
0.0
 11
-279.3114013671875
 21
57.02799224853515
 31
0.0
  0
LINE
  5
1CD
330
22
100
AcDbEntity
  8
0
  6
Continuous
 62
     7
100
AcDbLine
 10
-284.4327392578125
 20
60.02799224853515
 30
0.0
 11
-281.4327392578125
 21
57.02799224853515
 31
0.0
  0
LINE
  5
1CE
330
22
100
AcDbEntity
  8
0
  6
Continuous
 62
     7
100
AcDbLine
 10
-285.1398315429688
 20
60.02799224853515
 30
0.0
 11
-282.1398315429688
 21
57.02799224853515
 31
0.0
  0
LINE
  5
1CF
330
22
100
AcDbEntity
  8
0
  6
Continuous
 62
     7
100
AcDbLine
 10
-287.1634216308594
 20
59.93025207519531
 30
0.0
 11
-284.2611389160156
 21
57.02799224853515
 31
0.0
  0
LINE
  5
1D0
330
22
100
AcDbEntity
  8
0
  6
Continuous
 62
     7
100
AcDbLine
 10
-287.5169677734375
 20
59.57669830322266
 30
0.0
 11
-284.96826171875
 21
57.02799224853515
 31
0.0
  0
LINE
  5
1D1
330
22
100
AcDbEntity
  8
0
  6
Continuous
 62
     7
100
AcDbLine
 10
-290.0895690917969
 20
60.02799224853515
 30
0.0
 11
-287.0895690917969
 21
57.02799224853515
 31
0.0
  0
LINE
  5
1D2
330
22
100
AcDbEntity
  8
0
  6
Continuous
 62
     7
100
AcDbLine
 10
-290.7966918945313
 20
60.02799224853515
 30
0.0
 11
-287.7966918945313
 21
57.02799224853515
 31
0.0
  0
LINE
  5
1D3
330
22
100
AcDbEntity
  8
0
  6
Continuous
 62
     7
100
AcDbLine
 10
-292.9179992675781
 20
60.02799224853515
 30
0.0
 11
-289.9179992675781
 21
57.02799224853515
 31
0.0
  0
LINE
  5
1D4
330
22
100
AcDbEntity
  8
0
  6
Continuous
 62
     7
100
AcDbLine
 10
-293.6251220703125
 20
60.02799224853515
 30
0.0
 11
-290.6251220703125
 21
57.02799224853515
 31
0.0
  0
LINE
  5
1D5
330
22
100
AcDbEntity
  8
0
  6
Continuous
 62
     7
100
AcDbLine
 10
-295.7464294433594
 20
60.02799224853515
 30
0.0
 11
-292.7464294433594
 21
57.02799224853515
 31
0.0
  0
LINE
  5
1D6
330
22
100
AcDbEntity
  8
0
  6
Continuous
 62
     7
100
AcDbLine
 10
-296.4535522460938
 20
60.02799224853515
 30
0.0
 11
-293.4535522460938
 21
57.02799224853515
 31
0.0
  0
LINE
  5
1D7
330
22
100
AcDbEntity
  8
0
  6
Continuous
 62
     7
100
AcDbLine
 10
-298.5748596191406
 20
60.02799224853515
 30
0.0
 11
-295.5748596191406
 21
57.02799224853515
 31
0.0
  0
LINE
  5
1D8
330
22
100
AcDbEntity
  8
0
  6
Continuous
 62
     7
100
AcDbLine
 10
-299.281982421875
 20
60.02799224853515
 30
0.0
 11
-296.281982421875
 21
57.02799224853515
 31
0.0
  0
LINE
  5
1D9
330
22
100
AcDbEntity
  8
0
  6
Continuous
 62
     7
100
AcDbLine
 10
-301.4032897949219
 20
60.02799224853515
 30
0.0
 11
-298.4032897949219
 21
57.02799224853515
 31
0.0
  0
LINE
  5
1DA
330
22
100
AcDbEntity
  8
0
  6
Continuous
 62
     7
100
AcDbLine
 10
-302.1103820800781
 20
60.02799224853515
 30
0.0
 11
-299.1103820800781
 21
57.02799224853515
 31
0.0
  0
LINE
  5
1DB
330
22
100
AcDbEntity
  8
0
  6
Continuous
 62
     7
100
AcDbLine
 10
-304.2317199707031
 20
60.02799224853515
 30
0.0
 11
-301.2317199707031
 21
57.02799224853515
 31
0.0
  0
LINE
  5
1DC
330
22
100
AcDbEntity
  8
0
  6
Continuous
 62
     7
100
AcDbLine
 10
-304.7656860351563
 20
59.8548469543457
 30
0.0
 11
-301.9388122558594
 21
57.02799224853515
 31
0.0
  0
LINE
  5
1DD
330
22
100
AcDbEntity
  8
0
  6
Continuous
 62
     7
100
AcDbLine
 10
-304.7656860351563
 20
57.73352813720703
 30
0.0
 11
-304.0601501464844
 21
57.02799224853515
 31
0.0
  0
LINE
  5
1DE
330
22
100
AcDbEntity
  8
0
  6
Continuous
 62
     7
100
AcDbLine
 10
-254.7656860351563
 20
60.02799224853515
 30
0.0
 11
-304.7656860351563
 21
60.02799224853515
 31
0.0
  0
LINE
  5
1DF
330
22
100
AcDbEntity
  8
0
  6
Continuous
 62
     7
100
AcDbLine
 10
-307.9656677246094
 20
147.0279846191406
 30
0.0
 11
-297.7656860351563
 21
147.0279846191406
 31
0.0
  0
LINE
  5
1E0
330
22
100
AcDbEntity
  8
0
  6
Continuous
 62
     7
100
AcDbLine
 10
-308.6307067871094
 20
42.33048248291015
 30
0.0
 11
-337.7656860351563
 21
42.33048248291015
 31
0.0
  0
LINE
  5
1E1
330
22
100
AcDbEntity
  8
0
  6
Continuous
 62
     7
100
AcDbLine
 10
-309.4624938964844
 20
22.52549743652344
 30
0.0
 11
-337.7656860351563
 21
22.52549743652344
 31
0.0
  0
LINE
  5
1E2
330
22
100
AcDbEntity
  8
0
  6
Continuous
 62
     7
100
AcDbLine
 10
-307.6312866210938
 20
56.9279899597168
 30
0.0
 11
-337.7656860351563
 21
56.9279899597168
 31
0.0
  0
LINE
  5
1E3
330
22
100
AcDbEntity
  8
0
  6
Continuous
 62
     7
100
AcDbLine
 10
-307.9656677246094
 20
147.0279846191406
 30
0.0
 11
-309.4724731445313
 21
148.5347747802734
 31
0.0
  0
LINE
  5
1E4
330
22
100
AcDbEntity
  8
0
  6
Continuous
 62
     7
100
AcDbLine
 10
-307.9656677246094
 20
125.0279922485352
 30
0.0
 11
-307.7656860351563
 21
125.2279891967773
 31
0.0
  0
LINE
  5
1E5
330
22
100
AcDbEntity
  8
0
  6
Continuous
 62
     7
100
AcDbLine
 10
-307.7656860351563
 20
142.7509613037109
 30
0.0
 11
-309.26318359375
 21
144.2484741210938
 31
0.0
  0
LINE
  5
1E6
330
22
100
AcDbEntity
  8
0
  6
Continuous
 62
     7
100
AcDbLine
 10
-307.7656860351563
 20
125.2279891967773
 30
0.0
 11
-307.7656860351563
 21
142.7509613037109
 31
0.0
  0
LINE
  5
1E7
330
22
100
AcDbEntity
  8
0
  6
Continuous
 62
     7
100
AcDbLine
 10
-337.7656860351563
 20
65.02799224853515
 30
0.0
 11
-309.4156799316406
 21
65.02799224853515
 31
0.0
  0
LINE
  5
1E8
330
22
100
AcDbEntity
  8
0
  6
Continuous
 62
     7
100
AcDbLine
 10
-322.2656860351563
 20
172.0279846191406
 30
0.0
 11
-308.7469787597656
 21
172.0279846191406
 31
0.0
  0
LINE
  5
1E9
330
22
100
AcDbEntity
  8
0
  6
Continuous
 62
     7
100
AcDbLine
 10
-310.1624450683594
 20
170.6125183105469
 30
0.0
 11
-322.2656860351563
 21
170.6125183105469
 31
0.0
  0
LINE
  5
1EA
330
22
100
AcDbEntity
  8
0
  6
Continuous
 62
     7
100
AcDbLine
 10
-337.7656860351563
 20
165.0279846191406
 30
0.0
 11
-309.9125671386719
 21
165.0279846191406
 31
0.0
  0
LINE
  5
1EB
330
22
100
AcDbEntity
  8
0
  6
Continuous
 62
     7
100
AcDbLine
 10
-308.7469787597656
 20
172.0279846191406
 30
0.0
 11
-310.1624450683594
 21
170.6125183105469
 31
0.0
  0
LINE
  5
1EC
330
22
100
AcDbEntity
  8
0
  6
Continuous
 62
     7
100
AcDbLine
 10
-309.9125671386719
 20
165.0279846191406
 30
0.0
 11
-308.4150695800781
 21
163.5304870605469
 31
0.0
  0
LINE
  5
1ED
330
22
100
AcDbEntity
  8
0
  6
Continuous
 62
     7
100
AcDbLine
 10
-307.6312866210938
 20
85.02799224853516
 30
0.0
 11
-307.6312866210938
 21
56.9279899597168
 31
0.0
  0
LINE
  5
1EE
330
22
100
AcDbEntity
  8
0
  6
Continuous
 62
     7
100
AcDbLine
 10
-309.5312805175781
 20
83.12799072265624
 30
0.0
 11
-309.5312805175781
 21
55.02799224853515
 31
0.0
  0
LINE
  5
1EF
330
22
100
AcDbEntity
  8
0
  6
Continuous
 62
     7
100
AcDbLine
 10
-310.1282043457031
 20
43.13103103637695
 30
0.0
 11
-310.1282043457031
 21
55.02799224853515
 31
0.0
  0
LINE
  5
1F0
330
22
100
AcDbEntity
  8
0
  6
Continuous
 62
     7
100
AcDbLine
 10
-304.7656860351563
 20
85.02799224853516
 30
0.0
 11
-304.7656860351563
 21
21.02799034118652
 31
0.0
  0
LINE
  5
1F1
330
22
100
AcDbEntity
  8
0
  6
Continuous
 62
     7
100
AcDbLine
 10
-310.1624450683594
 20
170.6125183105469
 30
0.0
 11
-309.4724731445313
 21
148.5347747802734
 31
0.0
  0
LINE
  5
1F2
330
22
100
AcDbEntity
  8
0
  6
Continuous
 62
     7
100
AcDbLine
 10
-308.7469787597656
 20
172.0279846191406
 30
0.0
 11
-307.9656677246094
 21
147.0279846191406
 31
0.0
  0
LINE
  5
1F3
330
22
100
AcDbEntity
  8
0
  6
Continuous
 62
     7
100
AcDbLine
 10
-309.9125671386719
 20
165.0279846191406
 30
0.0
 11
-309.26318359375
 21
144.2484741210938
 31
0.0
  0
LINE
  5
1F4
330
22
100
AcDbEntity
  8
0
  6
Continuous
 62
     7
100
AcDbLine
 10
-308.4150695800781
 20
163.5304870605469
 30
0.0
 11
-307.7656860351563
 21
142.7509613037109
 31
0.0
  0
CIRCLE
  5
1F5
330
22
100
AcDbEntity
  8
0
  6
Continuous
 62
     7
100
AcDbCircle
 10
-264.7656860351563
 20
314.0279846191406
 30
0.0
 40
5.0
  0
CIRCLE
  5
1F6
330
22
100
AcDbEntity
  8
0
  6
Continuous
 62
     7
100
AcDbCircle
 10
-264.7656860351563
 20
314.0279846191406
 30
0.0
 40
2.75
  0
ARC
  5
1F7
330
22
100
AcDbEntity
  8
0
  6
Continuous
 62
     7
100
AcDbCircle
 10
-337.7656860351563
 20
313.9123840332031
 30
0.0
 40
5.0
100
AcDbArc
 50
90.00000000000019
 51
134.441635197597
  0
ARC
  5
1F8
330
22
100
AcDbEntity
  8
0
  6
Continuous
 62
     7
100
AcDbCircle
 10
-344.0710144042969
 20
314.1070556640625
 30
0.0
 40
3.200591087341308
100
AcDbArc
 50
111.911277688175
 51
251.6139423290696
  0
ARC
  5
1F9
330
22
100
AcDbEntity
  8
0
  6
Continuous
 62
     7
100
AcDbCircle
 10
-337.7656860351563
 20
313.9123840332031
 30
0.0
 40
5.0
100
AcDbArc
 50
41.4928920440201
 51
90.00000000000019
  0
ARC
  5
1FA
330
22
100
AcDbEntity
  8
0
  6
Continuous
 62
     7
100
AcDbCircle
 10
-337.7656860351563
 20
313.9123840332031
 30
0.0
 40
5.0
100
AcDbArc
 50
216.8698976458447
 51
323.1301023541567
  0
CIRCLE
  5
1FB
330
22
100
AcDbEntity
  8
0
  6
Continuous
 62
     7
100
AcDbCircle
 10
-374.2657470703125
 20
250.8082580566406
 30
0.0
 40
2.75
  0
CIRCLE
  5
1FC
330
22
100
AcDbEntity
  8
0
  6
Continuous
 62
     7
100
AcDbCircle
 10
-374.2657470703125
 20
250.8082580566406
 30
0.0
 40
5.0
  0
CIRCLE
  5
1FD
330
22
100
AcDbEntity
  8
0
  6
Continuous
 62
     7
100
AcDbCircle
 10
-374.265625
 20
377.2479553222656
 30
0.0
 40
2.75
  0
CIRCLE
  5
1FE
330
22
100
AcDbEntity
  8
0
  6
Continuous
 62
     7
100
AcDbCircle
 10
-374.265625
 20
377.2479553222656
 30
0.0
 40
5.0
  0
CIRCLE
  5
1FF
330
22
100
AcDbEntity
  8
0
  6
Continuous
 62
     7
100
AcDbCircle
 10
-337.7656860351563
 20
313.9123840332031
 30
0.0
 40
26.75
  0
CIRCLE
  5
200
330
22
100
AcDbEntity
  8
0
  6
Continuous
 62
     7
100
AcDbCircle
 10
-337.7656860351563
 20
313.9123840332031
 30
0.0
 40
26.5
  0
ARC
  5
201
330
22
100
AcDbEntity
  8
0
  6
Continuous
 62
     7
100
AcDbCircle
 10
-331.4603576660156
 20
314.1070556640625
 30
0.0
 40
3.200591087341308
100
AcDbArc
 50
273.4870838543173
 51
70.12737230108554
  0
CIRCLE
  5
202
330
22
100
AcDbEntity
  8
0
  6
Continuous
 62
     7
100
AcDbCircle
 10
-337.7656860351563
 20
314.0279846191406
 30
0.0
 40
83.0
  0
CIRCLE
  5
203
330
22
100
AcDbEntity
  8
0
  6
CENTER
 62
     7
100
AcDbCircle
 10
-337.7656860351563
 20
314.0279846191406
 30
0.0
 40
73.0
  0
CIRCLE
  5
204
330
22
100
AcDbEntity
  8
0
  6
Continuous
 62
     7
100
AcDbCircle
 10
-337.7656860351563
 20
313.9123840332031
 30
0.0
 40
66.40000152587891
  0
CIRCLE
  5
205
330
22
100
AcDbEntity
  8
0
  6
Continuous
 62
     7
100
AcDbCircle
 10
-337.7656860351563
 20
314.0279846191406
 30
0.0
 40
49.70000076293946
  0
CIRCLE
  5
206
330
22
100
AcDbEntity
  8
0
  6
Continuous
 62
     7
100
AcDbCircle
 10
-337.7656860351563
 20
313.9123840332031
 30
0.0
 40
43.5
  0
ARC
  5
207
330
22
100
AcDbEntity
  8
0
  6
Continuous
 62
     7
100
AcDbCircle
 10
-295.7656860351563
 20
185.0279846191406
 30
0.0
 40
2.0
100
AcDbArc
 50
90.00000000000019
 51
180.0000000000004
  0
ARC
  5
208
330
22
100
AcDbEntity
  8
0
  6
Continuous
 62
     7
100
AcDbCircle
 10
-379.7656860351563
 20
185.0279846191406
 30
0.0
 40
2.0
100
AcDbArc
 50
0.0
 51
90.00000000000019
  0
LWPOLYLINE
  5
209
330
22
100
AcDbEntity
  8
0
  6
Continuous
 62
     7
100
AcDbPolyline
 90
       17
 70
     0
 43
0.0
 10
-311.415483692444
 20
193.0288723762989
 42
0.0833862120990778
 10
-311.6721662019624
 20
193.4803171733205
 42
0.0833862120990778
 10
-312.0511077522558
 20
193.8162999700339
 42
0.0833862120990778
 10
-312.5107304886055
 20
193.9999563901286
 42
0.0833862120990778
 10
-313.0006041339872
 20
194.0111354632322
 42
0.0833862120990778
 10
-313.4669792506778
 20
193.8486106100027
 42
0.0833862120990778
 10
-313.8586846835714
 20
193.5302142236693
 42
0.0833862120990778
 10
-314.1327421116874
 20
193.0908810815974
 42
0.0833862120990778
 10
-314.2590816735342
 20
192.5788152657621
 42
0.0833862120990778
 10
-314.2238412630862
 20
192.0502011615406
 42
0.0833862120990778
 10
-314.0308874942438
 20
191.5630388494482
 42
0.0833862120990778
 10
-313.7013914519993
 20
191.1707802769446
 42
0.0833862120990778
 10
-313.2715057793241
 20
190.9164644560543
 42
0.0833862120990778
 10
-312.7883979721823
 20
190.8279951789201
 42
0.0833862120990778
 10
-312.305075113601
 20
190.9150793851713
 42
0.0833862120990778
 10
-311.8745678822712
 20
191.1681621065735
 42
0.0833862120990778
 10
-311.5441119722088
 20
191.5594748479216
 42
-1.0
  0
TEXT
  5
21C
330
22
100
AcDbEntity
  8
0
  6
Continuous
 62
     7
100
AcDbText
 10
-208.488823890686
 20
250.3350677490234
 30
0.0
 40
7.0
  1
ＤＬ－ＨＳＰ－５０
 41
0.8448610808647003
100
AcDbText
  0
SOLID
  5
21D
330
22
100
AcDbEntity
  8
0
  6
Continuous
 62
     7
100
AcDbTrace
 10
-312.5200500488281
 20
194.0018310546875
 30
0.0
 11
-313.0198059082031
 21
194.0018310546875
 31
0.0
 12
-312.8090209960938
 22
194.0278015136719
 32
0.0
 13
-312.8090209960938
 23
194.0278015136719
 33
0.0
  0
SOLID
  5
21E
330
22
100
AcDbEntity
  8
0
  6
Continuous
 62
     7
100
AcDbTrace
 10
-312.7638549804688
 20
190.8281707763672
 30
0.0
 11
-313.0528564453125
 21
190.8541564941406
 31
0.0
 12
-312.5531005859375
 22
190.8541564941406
 32
0.0
 13
-312.5531005859375
 23
190.8541564941406
 33
0.0
  0
SOLID
  5
21F
330
22
100
AcDbEntity
  8
0
  6
Continuous
 62
     7
100
AcDbTrace
 10
-312.4893188476563
 20
193.9922943115234
 30
0.0
 11
-313.0971374511719
 21
193.9922943115234
 31
0.0
 12
-312.5200500488281
 22
194.0018310546875
 32
0.0
 13
-313.0198059082031
 23
194.0018310546875
 33
0.0
  0
SOLID
  5
220
330
22
100
AcDbEntity
  8
0
  6
Continuous
 62
     7
100
AcDbTrace
 10
-312.2413024902344
 20
193.9153747558594
 30
0.0
 11
-313.3193359375
 21
193.9153747558594
 31
0.0
 12
-312.4893188476563
 22
193.9922943115234
 32
0.0
 13
-313.0971374511719
 23
193.9922943115234
 33
0.0
  0
SOLID
  5
221
330
22
100
AcDbEntity
  8
0
  6
Continuous
 62
     7
100
AcDbTrace
 10
-312.2077331542969
 20
193.8966827392578
 30
0.0
 11
-313.3733215332031
 21
193.8966827392578
 31
0.0
 12
-312.2413024902344
 22
193.9153747558594
 32
0.0
 13
-313.3193359375
 23
193.9153747558594
 33
0.0
  0
SOLID
  5
222
330
22
100
AcDbEntity
  8
0
  6
Continuous
 62
     7
100
AcDbTrace
 10
-311.9835205078125
 20
193.7717590332031
 30
0.0
 11
-313.5816650390625
 21
193.7717590332031
 31
0.0
 12
-312.2077331542969
 22
193.8966827392578
 32
0.0
 13
-313.3733215332031
 23
193.8966827392578
 33
0.0
  0
SOLID
  5
223
330
22
100
AcDbEntity
  8
0
  6
Continuous
 62
     7
100
AcDbTrace
 10
-311.9519653320313
 20
193.7446136474609
 30
0.0
 11
-313.626953125
 21
193.7446136474609
 31
0.0
 12
-311.9835205078125
 22
193.7717590332031
 32
0.0
 13
-313.5816650390625
 23
193.7717590332031
 33
0.0
  0
SOLID
  5
224
330
22
100
AcDbEntity
  8
0
  6
Continuous
 62
     7
100
AcDbTrace
 10
-311.7565612792969
 20
193.5765075683594
 30
0.0
 11
-313.810546875
 21
193.5765075683594
 31
0.0
 12
-311.9519653320313
 22
193.7446136474609
 32
0.0
 13
-313.626953125
 23
193.7446136474609
 33
0.0
  0
SOLID
  5
225
330
22
100
AcDbEntity
  8
0
  6
Continuous
 62
     7
100
AcDbTrace
 10
-311.7295227050781
 20
193.5419616699219
 30
0.0
 11
-313.8482666015625
 21
193.5419616699219
 31
0.0
 12
-311.7565612792969
 22
193.5765075683594
 32
0.0
 13
-313.810546875
 23
193.5765075683594
 33
0.0
  0
SOLID
  5
226
330
22
100
AcDbEntity
  8
0
  6
Continuous
 62
     7
100
AcDbTrace
 10
-311.5692138671875
 20
193.3371124267578
 30
0.0
 11
-313.9989013671875
 21
193.3371124267578
 31
0.0
 12
-311.7295227050781
 22
193.5419616699219
 32
0.0
 13
-313.8482666015625
 23
193.5419616699219
 33
0.0
  0
SOLID
  5
227
330
22
100
AcDbEntity
  8
0
  6
Continuous
 62
     7
100
AcDbTrace
 10
-311.5484008789063
 20
193.2964935302734
 30
0.0
 11
-314.0287780761719
 21
193.2964935302734
 31
0.0
 12
-311.5692138671875
 22
193.3371124267578
 32
0.0
 13
-313.9989013671875
 23
193.3371124267578
 33
0.0
  0
SOLID
  5
228
330
22
100
AcDbEntity
  8
0
  6
Continuous
 62
     7
100
AcDbTrace
 10
-311.4286193847656
 20
193.0627746582031
 30
0.0
 11
-314.1400756835938
 21
193.0627746582031
 31
0.0
 12
-311.5484008789063
 22
193.2964935302734
 32
0.0
 13
-314.0287780761719
 23
193.2964935302734
 33
0.0
  0
SOLID
  5
229
330
22
100
AcDbEntity
  8
0
  6
Continuous
 62
     7
100
AcDbTrace
 10
-311.4155578613281
 20
193.0290069580078
 30
0.0
 11
-314.1561584472656
 21
193.0290069580078
 31
0.0
 12
-311.4286193847656
 22
193.0627746582031
 32
0.0
 13
-314.1400756835938
 23
193.0627746582031
 33
0.0
  0
SOLID
  5
22A
330
22
100
AcDbEntity
  8
0
  6
Continuous
 62
     7
100
AcDbTrace
 10
-311.4165344238281
 20
193.0176391601563
 30
0.0
 11
-314.1615600585938
 21
193.0176391601563
 31
0.0
 12
-311.4155578613281
 22
193.0290069580078
 32
0.0
 13
-314.1561584472656
 23
193.0290069580078
 33
0.0
  0
SOLID
  5
22B
330
22
100
AcDbEntity
  8
0
  6
Continuous
 62
     7
100
AcDbTrace
 10
-311.4429321289063
 20
192.7161407470703
 30
0.0
 11
-314.2414855957031
 21
192.7161407470703
 31
0.0
 12
-311.4165344238281
 22
193.0176391601563
 32
0.0
 13
-314.1615600585938
 23
193.0176391601563
 33
0.0
  0
SOLID
  5
22C
330
22
100
AcDbEntity
  8
0
  6
Continuous
 62
     7
100
AcDbTrace
 10
-311.4702758789063
 20
192.403564453125
 30
0.0
 11
-314.2655029296875
 21
192.403564453125
 31
0.0
 12
-311.4429321289063
 22
192.7161407470703
 32
0.0
 13
-314.2414855957031
 23
192.7161407470703
 33
0.0
  0
SOLID
  5
22D
330
22
100
AcDbEntity
  8
0
  6
Continuous
 62
     7
100
AcDbTrace
 10
-311.4975280761719
 20
192.0919189453125
 30
0.0
 11
-314.2326965332031
 21
192.0919189453125
 31
0.0
 12
-311.4702758789063
 22
192.403564453125
 32
0.0
 13
-314.2655029296875
 23
192.403564453125
 33
0.0
  0
SOLID
  5
22E
330
22
100
AcDbEntity
  8
0
  6
Continuous
 62
     7
100
AcDbTrace
 10
-311.5236511230469
 20
191.7931976318359
 30
0.0
 11
-314.144287109375
 21
191.7931976318359
 31
0.0
 12
-311.4975280761719
 22
192.0919189453125
 32
0.0
 13
-314.2326965332031
 23
192.0919189453125
 33
0.0
  0
SOLID
  5
22F
330
22
100
AcDbEntity
  8
0
  6
Continuous
 62
     7
100
AcDbTrace
 10
-311.5440979003906
 20
191.5594940185547
 30
0.0
 11
-314.0245056152344
 21
191.5594940185547
 31
0.0
 12
-311.5236511230469
 22
191.7931976318359
 32
0.0
 13
-314.144287109375
 23
191.7931976318359
 33
0.0
  0
SOLID
  5
230
330
22
100
AcDbEntity
  8
0
  6
Continuous
 62
     7
100
AcDbTrace
 10
-311.573974609375
 20
191.5188751220703
 30
0.0
 11
-314.0036926269531
 21
191.5188751220703
 31
0.0
 12
-311.5440979003906
 22
191.5594940185547
 32
0.0
 13
-314.0245056152344
 23
191.5594940185547
 33
0.0
  0
SOLID
  5
231
330
22
100
AcDbEntity
  8
0
  6
Continuous
 62
     7
100
AcDbTrace
 10
-311.7246398925781
 20
191.3140258789063
 30
0.0
 11
-313.8433837890625
 21
191.3140258789063
 31
0.0
 12
-311.573974609375
 22
191.5188751220703
 32
0.0
 13
-314.0036926269531
 23
191.5188751220703
 33
0.0
  0
SOLID
  5
232
330
22
100
AcDbEntity
  8
0
  6
Continuous
 62
     7
100
AcDbTrace
 10
-311.7623596191406
 20
191.2794799804688
 30
0.0
 11
-313.8163452148438
 21
191.2794799804688
 31
0.0
 12
-311.7246398925781
 22
191.3140258789063
 32
0.0
 13
-313.8433837890625
 23
191.3140258789063
 33
0.0
  0
SOLID
  5
233
330
22
100
AcDbEntity
  8
0
  6
Continuous
 62
     7
100
AcDbTrace
 10
-311.9459533691406
 20
191.1113586425781
 30
0.0
 11
-313.6209411621094
 21
191.1113586425781
 31
0.0
 12
-311.7623596191406
 22
191.2794799804688
 32
0.0
 13
-313.8163452148438
 23
191.2794799804688
 33
0.0
  0
SOLID
  5
234
330
22
100
AcDbEntity
  8
0
  6
Continuous
 62
     7
100
AcDbTrace
 10
-311.9912109375
 20
191.084228515625
 30
0.0
 11
-313.5893859863281
 21
191.084228515625
 31
0.0
 12
-311.9459533691406
 22
191.1113586425781
 32
0.0
 13
-313.6209411621094
 23
191.1113586425781
 33
0.0
  0
SOLID
  5
235
330
22
100
AcDbEntity
  8
0
  6
Continuous
 62
     7
100
AcDbTrace
 10
-312.1995849609375
 20
190.9593048095703
 30
0.0
 11
-313.3651428222656
 21
190.9593048095703
 31
0.0
 12
-311.9912109375
 22
191.084228515625
 32
0.0
 13
-313.5893859863281
 23
191.084228515625
 33
0.0
  0
SOLID
  5
236
330
22
100
AcDbEntity
  8
0
  6
Continuous
 62
     7
100
AcDbTrace
 10
-312.2535705566406
 20
190.9406127929688
 30
0.0
 11
-313.3316040039063
 21
190.9406127929688
 31
0.0
 12
-312.1995849609375
 22
190.9593048095703
 32
0.0
 13
-313.3651428222656
 23
190.9593048095703
 33
0.0
  0
SOLID
  5
237
330
22
100
AcDbEntity
  8
0
  6
Continuous
 62
     7
100
AcDbTrace
 10
-312.4757385253906
 20
190.8636779785156
 30
0.0
 11
-313.0835876464844
 21
190.8636779785156
 31
0.0
 12
-312.2535705566406
 22
190.9406127929688
 32
0.0
 13
-313.3316040039063
 23
190.9406127929688
 33
0.0
  0
SOLID
  5
238
330
22
100
AcDbEntity
  8
0
  6
Continuous
 62
     7
100
AcDbTrace
 10
-312.5531005859375
 20
190.8541564941406
 30
0.0
 11
-313.0528564453125
 21
190.8541564941406
 31
0.0
 12
-312.4757385253906
 22
190.8636779785156
 32
0.0
 13
-313.0835876464844
 23
190.8636779785156
 33
0.0
  0
DIMENSION
  5
239
330
22
100
AcDbEntity
  8
0
  6
Continuous
 62
     7
100
AcDbDimension
  2
*D1
 10
-408.2793685383313
 20
332.9176796892419
 30
0.0
 11
-243.8681945800781
 21
288.8740844726563
 31
0.0
 70
     3
 71
     5
 42
-1.0
  3
DIMSTYLE1
100
AcDbDiametricDimension
 15
-267.2520035319811
 25
295.1382895490393
 35
0.0
 40
0.0
  0
INSERT
  5
23A
330
22
100
AcDbEntity
  8
0
  6
Continuous
 62
     7
100
AcDbBlockReference
  2
KOZU0001
 10
-261.4731140136719
 20
317.7908325195313
 30
0.0
  0
DIMENSION
  5
23B
330
22
100
AcDbEntity
  8
0
  6
Continuous
 62
     7
100
AcDbDimension
  2
*D2
 10
-358.3892325434833
 20
330.553277321091
 30
0.0
 11
-311.1193237304688
 21
292.4117736816406
 31
0.0
 70
     3
 71
     5
 42
-1.0
  3
DIMSTYLE2
100
AcDbDiametricDimension
 15
-317.1421395268292
 25
297.2714907453153
 35
0.0
 40
0.0
  0
DIMENSION
  5
23C
330
22
100
AcDbEntity
  8
0
  6
Continuous
 62
     7
100
AcDbDimension
  2
*D3
 10
-378.4358384216251
 20
298.4790206647923
 30
0.0
 11
-307.072265625
 21
325.5598449707031
 31
0.0
 70
     3
 71
     5
 42
-1.0
  3
DIMSTYLE3
100
AcDbDiametricDimension
 15
-297.0955336486873
 25
329.3457474016138
 35
0.0
 40
0.0
  0
DIMENSION
  5
23D
330
22
100
AcDbEntity
  8
0
  6
Continuous
 62
     7
100
AcDbDimension
  2
*D4
 10
-406.0548690574646
 20
266.8518520715729
 30
0.0
 11
-251.9219818115234
 21
373.331298828125
 31
0.0
 70
     3
 71
     5
 42
-1.0
  3
DIMSTYLE4
100
AcDbDiametricDimension
 15
-269.476503012848
 25
361.2041171667083
 35
0.0
 40
0.0
  0
DIMENSION
  5
23E
330
22
100
AcDbEntity
  8
0
  6
Continuous
 62
     7
100
AcDbDimension
  2
*D5
 10
-304.7656860351563
 20
10.88651466369629
 30
0.0
 11
-337.7656860351563
 21
10.88651466369629
 31
0.0
 71
     5
 42
-1.0
  3
DIMSTYLE5
100
AcDbAlignedDimension
 13
-370.7656860351563
 23
21.02799034118652
 33
0.0
 14
-304.7656860351563
 24
21.02799034118652
 34
0.0
100
AcDbRotatedDimension
  0
INSERT
  5
23F
330
22
100
AcDbEntity
  8
0
  6
Continuous
 62
     7
100
AcDbBlockReference
  2
KOZU0002
 10
-308.4087829589844
 20
35.22965240478516
 30
0.0
  0
DIMENSION
  5
240
330
22
100
AcDbEntity
  8
0
  6
Continuous
 62
     7
100
AcDbDimension
  2
*D6
 10
-434.7383728027343
 20
85.02799224853516
 30
0.0
 11
-434.7383728027343
 21
53.02799224853515
 31
0.0
 71
     5
 42
-1.0
  3
DIMSTYLE6
100
AcDbAlignedDimension
 13
-370.7656860351563
 23
21.02799034118652
 33
0.0
 14
-370.7656860351563
 24
85.02799224853516
 34
0.0
 50
90.0
100
AcDbRotatedDimension
  0
DIMENSION
  5
241
330
22
100
AcDbEntity
  8
0
  6
Continuous
 62
     7
100
AcDbDimension
  2
*D7
 10
-222.5872802734375
 20
197.0279846191406
 30
0.0
 11
-222.5872802734375
 21
128.5279846191406
 31
0.0
 71
     5
 42
-1.0
  3
DIMSTYLE7
100
AcDbAlignedDimension
 13
-254.7656860351563
 23
60.02799224853515
 33
0.0
 14
-294.2656860351563
 24
197.0279846191406
 34
0.0
 50
90.0
100
AcDbRotatedDimension
  0
DIMENSION
  5
242
330
22
100
AcDbEntity
  8
0
  6
Continuous
 62
     7
100
AcDbDimension
  2
*D8
 10
-222.5872802734375
 20
57.02799224853515
 30
0.0
 11
-222.5872802734375
 21
49.57295989990234
 31
0.0
 71
     5
 42
-1.0
  3
DIMSTYLE8
100
AcDbAlignedDimension
 13
-220.30126953125
 23
60.02799224853515
 33
0.0
 14
-254.7656860351563
 24
57.02799224853515
 34
0.0
 50
90.0
100
AcDbRotatedDimension
  0
DIMENSION
  5
243
330
22
100
AcDbEntity
  8
0
  6
Continuous
 62
     7
100
AcDbDimension
  2
*D9
 10
-233.9832763671875
 20
147.0279846191406
 30
0.0
 11
-233.9832763671875
 21
172.0279846191406
 31
0.0
 71
     5
 42
-1.0
  3
DIMSTYLE9
100
AcDbAlignedDimension
 13
-220.30126953125
 23
197.0279846191406
 33
0.0
 14
-297.7656860351563
 24
147.0279846191406
 34
0.0
 50
90.0
100
AcDbRotatedDimension
  0
DIMENSION
  5
244
330
22
100
AcDbEntity
  8
0
  6
Continuous
 62
     7
100
AcDbDimension
  2
*D10
 10
-233.9832763671875
 20
85.02799224853516
 30
0.0
 11
-233.9832763671875
 21
72.52799224853515
 31
0.0
 71
     5
 42
-1.0
  3
DIMSTYLE10
100
AcDbAlignedDimension
 13
-220.30126953125
 23
60.02799224853515
 33
0.0
 14
-304.7656860351563
 24
85.02799224853516
 34
0.0
 50
90.0
100
AcDbRotatedDimension
  0
DIMENSION
  5
245
330
22
100
AcDbEntity
  8
0
  6
Continuous
 62
     7
100
AcDbDimension
  2
*D11
 10
-324.9007568359375
 20
165.0279846191406
 30
0.0
 11
-324.9007568359375
 21
115.0279922485352
 31
0.0
 71
     5
 42
-1.0
  3
DIMSTYLE11
100
AcDbAlignedDimension
 13
-337.7656860351563
 23
65.02799224853515
 33
0.0
 14
-337.7656860351563
 24
165.0279846191406
 34
0.0
 50
90.0
100
AcDbRotatedDimension
  0
ENDSEC
  0
SECTION
  2
OBJECTS
  0
DICTIONARY
  5
C
330
0
100
AcDbDictionary
281
     1
  3
ACAD_COLOR
350
1B
  3
ACAD_GROUP
350
D
  3
ACAD_LAYOUT
350
19
  3
ACAD_MATERIAL
350
1A
  3
ACAD_MLINESTYLE
350
16
  3
ACAD_PLOTSETTINGS
350
18
  3
ACAD_PLOTSTYLENAME
350
E
  3
ACAD_TABLESTYLE
350
1C
  3
AcDbVariableDictionary
350
251
  0
DICTIONARY
  5
1B
102
{ACAD_REACTORS
330
C
102
}
330
C
100
AcDbDictionary
281
     1
  0
DICTIONARY
  5
D
102
{ACAD_REACTORS
330
C
102
}
330
C
100
AcDbDictionary
281
     1
  0
DICTIONARY
  5
19
102
{ACAD_REACTORS
330
C
102
}
330
C
100
AcDbDictionary
281
     1
  3
Model
350
25
  3
レイアウト1
350
21
  0
DICTIONARY
  5
1A
102
{ACAD_REACTORS
330
C
102
}
330
C
100
AcDbDictionary
281
     1
  0
DICTIONARY
  5
16
102
{ACAD_REACTORS
330
C
102
}
330
C
100
AcDbDictionary
281
     1
  3
Standard
350
17
  0
DICTIONARY
  5
18
102
{ACAD_REACTORS
330
C
102
}
330
C
100
AcDbDictionary
281
     1
  0
ACDBDICTIONARYWDFLT
  5
E
102
{ACAD_REACTORS
330
C
102
}
330
C
100
AcDbDictionary
281
     1
  3
Normal
350
F
100
AcDbDictionaryWithDefault
340
F
  0
DICTIONARY
  5
1C
102
{ACAD_REACTORS
330
C
102
}
330
C
100
AcDbDictionary
281
     1
  3
Standard
350
1D
  0
DICTIONARY
  5
251
102
{ACAD_REACTORS
330
C
102
}
330
C
100
AcDbDictionary
281
     1
  3
CTABLESTYLE
350
252
  0
LAYOUT
  5
25
102
{ACAD_REACTORS
330
19
102
}
330
19
100
AcDbPlotSettings
  1

  2
PDF reDirect v2
  4
User66
  6

 40
3.174999952316284
 41
3.174999952316284
 42
3.17498779296875
 43
3.17498779296875
 44
420.0
 45
594.0
 46
0.0
 47
0.0
 48
0.0
 49
0.0
140
0.0
141
0.0
142
1.0
143
1.0
 70
 11952
 72
     1
 73
     1
 74
     2
  7
C:\Users\ck\AppData\Roaming\Autodesk\AutoCAD 2005\R16.1\jpn\Plot Styles\black.ctb
 75
    16
147
1.0
 76
     0
 77
     2
 78
   300
148
592.0
149
0.0
100
AcDbLayout
  1
Model
 70
     1
 71
     0
 10
0.0
 20
0.0
 11
12.0
 21
9.0
 12
0.0
 22
0.0
 32
0.0
 14
0.0
 24
0.0
 34
0.0
 15
0.0
 25
0.0
 35
0.0
146
0.0
 13
0.0
 23
0.0
 33
0.0
 16
1.0
 26
0.0
 36
0.0
 17
0.0
 27
1.0
 37
0.0
 76
     0
330
22
1001
ACAD_PSEXT
1000
PDF reDirect v2
1000
PDF reDirect Pro
1000
PDF_REDIRECT_PORT:
1000
PDF reDirect provided by EXP Systems
1070
     0
  0
LAYOUT
  5
21
102
{ACAD_REACTORS
330
19
102
}
330
19
100
AcDbPlotSettings
  1

  2
PDF reDirect v2
  4

  6

 40
0.0
 41
0.0
 42
0.0
 43
0.0
 44
0.0
 45
0.0
 46
0.0
 47
0.0
 48
0.0
 49
0.0
140
0.0
141
0.0
142
1.0
143
1.0
 70
   688
 72
     0
 73
     0
 74
     5
  7
C:\Users\ck\AppData\Roaming\Autodesk\AutoCAD 2005\R16.1\jpn\Plot Styles\black.ctb
 75
    16
147
1.0
 76
     0
 77
     2
 78
   300
148
0.0
149
0.0
100
AcDbLayout
  1
レイアウト1
 70
     1
 71
     1
 10
-592.0
 20
0.0
 11
0.0
 21
418.0
 12
0.0
 22
0.0
 32
0.0
 14
1.000000000000000E+20
 24
1.000000000000000E+20
 34
1.000000000000000E+20
 15
-1.000000000000000E+20
 25
-1.000000000000000E+20
 35
-1.000000000000000E+20
146
0.0
 13
0.0
 23
0.0
 33
0.0
 16
1.0
 26
0.0
 36
0.0
 17
0.0
 27
1.0
 37
0.0
 76
     0
330
1E
  0
MLINESTYLE
  5
17
102
{ACAD_REACTORS
330
16
102
}
330
16
100
AcDbMlineStyle
  2
STANDARD
 70
     0
  3

 62
   256
 51
90.0
 52
90.0
 71
     2
 49
0.5
 62
   256
  6
BYLAYER
 49
-0.5
 62
   256
  6
BYLAYER
  0
ACDBPLACEHOLDER
  5
F
102
{ACAD_REACTORS
330
E
102
}
330
E
  0
TABLESTYLE
  5
1D
102
{ACAD_REACTORS
330
1C
102
}
330
1C
100
AcDbTableStyle
  3
Standard
 70
     0
 71
     0
 40
0.06
 41
0.06
280
     0
281
     0
  7
STANDARD
140
0.18
170
     2
 62
     0
 63
     7
283
     0
274
    -2
284
     1
 64
     0
275
    -2
285
     1
 65
     0
276
    -2
286
     1
 66
     0
277
    -2
287
     1
 67
     0
278
    -2
288
     1
 68
     0
279
    -2
289
     1
 69
     0
  7
STANDARD
140
0.25
170
     5
 62
     0
 63
     7
283
     0
274
    -2
284
     1
 64
     0
275
    -2
285
     1
 65
     0
276
    -2
286
     1
 66
     0
277
    -2
287
     1
 67
     0
278
    -2
288
     1
 68
     0
279
    -2
289
     1
 69
     0
  7
STANDARD
140
0.18
170
     5
 62
     0
 63
     7
283
     0
274
    -2
284
     1
 64
     0
275
    -2
285
     1
 65
     0
276
    -2
286
     1
 66
     0
277
    -2
287
     1
 67
     0
278
    -2
288
     1
 68
     0
279
    -2
289
     1
 69
     0
  0
DICTIONARYVAR
  5
252
102
{ACAD_REACTORS
330
251
102
}
330
251
100
DictionaryVariables
280
     0
  1
STANDARD
  0
ENDSEC
  0
EOF
