  0
SECTION
  2
HEADER
  9
$ACADVER
  1
AC1018
  9
$ACADMAINTVER
 70
    39
  9
$DWGCODEPAGE
  3
ANSI_932
  9
$INSBASE
 10
0.0
 20
0.0
 30
0.0
  9
$EXTMIN
 10
-377.1536854968332
 20
25.26913524008023
 30
-0.0015258207003583
  9
$EXTMAX
 10
-104.7418814671014
 20
283.4886633955043
 30
0.0000000349246037
  9
$LIMMIN
 10
-423.0
 20
-2.0
  9
$LIMMAX
 10
-5.0
 20
293.0
  9
$ORTHOMODE
 70
     0
  9
$REGENMODE
 70
     1
  9
$FILLMODE
 70
     1
  9
$QTEXTMODE
 70
     0
  9
$MIRRTEXT
 70
     0
  9
$LTSCALE
 40
1.0
  9
$ATTMODE
 70
     1
  9
$TEXTSIZE
 40
0.2
  9
$TRACEWID
 40
0.05
  9
$TEXTSTYLE
  7
STANDARD
  9
$CLAYER
  8
0
  9
$CELTYPE
  6
CONTINUOUS
  9
$CECOLOR
 62
   256
  9
$CELTSCALE
 40
1.0
  9
$DISPSILH
 70
     0
  9
$DIMSCALE
 40
1.0
  9
$DIMASZ
 40
1.0
  9
$DIMEXO
 40
2.54
  9
$DIMDLI
 40
0.38
  9
$DIMRND
 40
0.0
  9
$DIMDLE
 40
0.0
  9
$DIMEXE
 40
2.54
  9
$DIMTP
 40
0.0
  9
$DIMTM
 40
0.0
  9
$DIMTXT
 40
3.0
  9
$DIMCEN
 40
0.09
  9
$DIMTSZ
 40
0.0
  9
$DIMTOL
 70
     0
  9
$DIMLIM
 70
     0
  9
$DIMTIH
 70
     0
  9
$DIMTOH
 70
     0
  9
$DIMSE1
 70
     0
  9
$DIMSE2
 70
     0
  9
$DIMTAD
 70
     1
  9
$DIMZIN
 70
     0
  9
$DIMBLK
  1

  9
$DIMASO
 70
     1
  9
$DIMSHO
 70
     0
  9
$DIMPOST
  1

  9
$DIMAPOST
  1

  9
$DIMALT
 70
     0
  9
$DIMALTD
 70
     2
  9
$DIMALTF
 40
25.4
  9
$DIMLFAC
 40
1.0
  9
$DIMTOFL
 70
     0
  9
$DIMTVP
 40
1.0
  9
$DIMTIX
 70
     0
  9
$DIMSOXD
 70
     0
  9
$DIMSAH
 70
     1
  9
$DIMBLK1
  1

  9
$DIMBLK2
  1

  9
$DIMSTYLE
  2
DIMSTYLE1
  9
$DIMCLRD
 70
     0
  9
$DIMCLRE
 70
     0
  9
$DIMCLRT
 70
     0
  9
$DIMTFAC
 40
1.0
  9
$DIMGAP
 40
1.5
  9
$DIMJUST
 70
     0
  9
$DIMSD1
 70
     0
  9
$DIMSD2
 70
     0
  9
$DIMTOLJ
 70
     1
  9
$DIMTZIN
 70
     0
  9
$DIMALTZ
 70
     0
  9
$DIMALTTZ
 70
     0
  9
$DIMUPT
 70
     0
  9
$DIMDEC
 70
     4
  9
$DIMTDEC
 70
     4
  9
$DIMALTU
 70
     2
  9
$DIMALTTD
 70
     2
  9
$DIMTXSTY
  7
STANDARD
  9
$DIMAUNIT
 70
     0
  9
$DIMADEC
 70
     0
  9
$DIMALTRND
 40
0.0
  9
$DIMAZIN
 70
     0
  9
$DIMDSEP
 70
    46
  9
$DIMATFIT
 70
     3
  9
$DIMFRAC
 70
     0
  9
$DIMLDRBLK
  1

  9
$DIMLUNIT
 70
     2
  9
$DIMLWD
 70
    -2
  9
$DIMLWE
 70
    -2
  9
$DIMTMOVE
 70
     0
  9
$LUNITS
 70
     2
  9
$LUPREC
 70
     4
  9
$SKETCHINC
 40
0.1
  9
$FILLETRAD
 40
0.0
  9
$AUNITS
 70
     0
  9
$AUPREC
 70
     0
  9
$MENU
  1
.
  9
$ELEVATION
 40
0.0
  9
$PELEVATION
 40
0.0
  9
$THICKNESS
 40
0.0
  9
$LIMCHECK
 70
     0
  9
$CHAMFERA
 40
0.0
  9
$CHAMFERB
 40
0.0
  9
$CHAMFERC
 40
0.0
  9
$CHAMFERD
 40
0.0
  9
$SKPOLY
 70
     0
  9
$TDCREATE
 40
2457843.793733600
  9
$TDUCREATE
 40
2457843.418733600
  9
$TDUPDATE
 40
2457843.794257523
  9
$TDUUPDATE
 40
2457843.419257523
  9
$TDINDWG
 40
0.0005261227
  9
$TDUSRTIMER
 40
0.0005261227
  9
$USRTIMER
 70
     1
  9
$ANGBASE
 50
0.0
  9
$ANGDIR
 70
     0
  9
$PDMODE
 70
     0
  9
$PDSIZE
 40
0.0
  9
$PLINEWID
 40
0.0
  9
$SPLFRAME
 70
     0
  9
$SPLINETYPE
 70
     6
  9
$SPLINESEGS
 70
     8
  9
$HANDSEED
  5
177
  9
$SURFTAB1
 70
     6
  9
$SURFTAB2
 70
     6
  9
$SURFTYPE
 70
     6
  9
$SURFU
 70
     6
  9
$SURFV
 70
     6
  9
$UCSBASE
  2

  9
$UCSNAME
  2

  9
$UCSORG
 10
0.0
 20
0.0
 30
0.0
  9
$UCSXDIR
 10
1.0
 20
0.0
 30
0.0
  9
$UCSYDIR
 10
0.0
 20
1.0
 30
0.0
  9
$UCSORTHOREF
  2

  9
$UCSORTHOVIEW
 70
     0
  9
$UCSORGTOP
 10
0.0
 20
0.0
 30
0.0
  9
$UCSORGBOTTOM
 10
0.0
 20
0.0
 30
0.0
  9
$UCSORGLEFT
 10
0.0
 20
0.0
 30
0.0
  9
$UCSORGRIGHT
 10
0.0
 20
0.0
 30
0.0
  9
$UCSORGFRONT
 10
0.0
 20
0.0
 30
0.0
  9
$UCSORGBACK
 10
0.0
 20
0.0
 30
0.0
  9
$PUCSBASE
  2

  9
$PUCSNAME
  2

  9
$PUCSORG
 10
0.0
 20
0.0
 30
0.0
  9
$PUCSXDIR
 10
1.0
 20
0.0
 30
0.0
  9
$PUCSYDIR
 10
0.0
 20
1.0
 30
0.0
  9
$PUCSORTHOREF
  2

  9
$PUCSORTHOVIEW
 70
     0
  9
$PUCSORGTOP
 10
0.0
 20
0.0
 30
0.0
  9
$PUCSORGBOTTOM
 10
0.0
 20
0.0
 30
0.0
  9
$PUCSORGLEFT
 10
0.0
 20
0.0
 30
0.0
  9
$PUCSORGRIGHT
 10
0.0
 20
0.0
 30
0.0
  9
$PUCSORGFRONT
 10
0.0
 20
0.0
 30
0.0
  9
$PUCSORGBACK
 10
0.0
 20
0.0
 30
0.0
  9
$USERI1
 70
     0
  9
$USERI2
 70
     0
  9
$USERI3
 70
     0
  9
$USERI4
 70
     0
  9
$USERI5
 70
     0
  9
$USERR1
 40
0.0
  9
$USERR2
 40
0.0
  9
$USERR3
 40
0.0
  9
$USERR4
 40
0.0
  9
$USERR5
 40
0.0
  9
$WORLDVIEW
 70
     1
  9
$SHADEDGE
 70
     3
  9
$SHADEDIF
 70
    70
  9
$TILEMODE
 70
     1
  9
$MAXACTVP
 70
    64
  9
$PINSBASE
 10
0.0
 20
0.0
 30
0.0
  9
$PLIMCHECK
 70
     0
  9
$PEXTMIN
 10
1.000000000000000E+20
 20
1.000000000000000E+20
 30
1.000000000000000E+20
  9
$PEXTMAX
 10
-1.000000000000000E+20
 20
-1.000000000000000E+20
 30
-1.000000000000000E+20
  9
$PLIMMIN
 10
-423.0
 20
-2.0
  9
$PLIMMAX
 10
-5.0
 20
293.0
  9
$UNITMODE
 70
     0
  9
$VISRETAIN
 70
     1
  9
$PLINEGEN
 70
     0
  9
$PSLTSCALE
 70
     1
  9
$TREEDEPTH
 70
  3020
  9
$CMLSTYLE
  2
Standard
  9
$CMLJUST
 70
     0
  9
$CMLSCALE
 40
1.0
  9
$PROXYGRAPHICS
 70
     1
  9
$MEASUREMENT
 70
     0
  9
$CELWEIGHT
370
    -1
  9
$ENDCAPS
280
     0
  9
$JOINSTYLE
280
     0
  9
$LWDISPLAY
290
     0
  9
$INSUNITS
 70
     0
  9
$HYPERLINKBASE
  1

  9
$STYLESHEET
  1

  9
$XEDIT
290
     1
  9
$CEPSNTYPE
380
     0
  9
$PSTYLEMODE
290
     1
  9
$FINGERPRINTGUID
  2
{EF06910E-2C95-404D-94A2-CF0C4EF44FD9}
  9
$VERSIONGUID
  2
{B437C3B5-A80F-454E-8481-156F21C4D693}
  9
$EXTNAMES
290
     1
  9
$PSVPSCALE
 40
0.0
  9
$OLESTARTUP
290
     0
  9
$SORTENTS
280
   127
  9
$INDEXCTL
280
     0
  9
$HIDETEXT
280
     0
  9
$XCLIPFRAME
290
     0
  9
$HALOGAP
280
     0
  9
$OBSCOLOR
 70
   257
  9
$OBSLTYPE
280
     0
  9
$INTERSECTIONDISPLAY
280
     0
  9
$INTERSECTIONCOLOR
 70
   257
  9
$DIMASSOC
280
     1
  9
$PROJECTNAME
  1

  0
ENDSEC
  0
SECTION
  2
CLASSES
  0
CLASS
  1
ACDBDICTIONARYWDFLT
  2
AcDbDictionaryWithDefault
  3
ObjectDBX Classes
 90
        0
 91
        1
280
     0
281
     0
  0
CLASS
  1
TABLESTYLE
  2
AcDbTableStyle
  3
ObjectDBX Classes
 90
     2047
 91
        1
280
     0
281
     0
  0
CLASS
  1
DICTIONARYVAR
  2
AcDbDictionaryVar
  3
ObjectDBX Classes
 90
        0
 91
        1
280
     0
281
     0
  0
ENDSEC
  0
SECTION
  2
TABLES
  0
TABLE
  2
VPORT
  5
8
330
0
100
AcDbSymbolTable
 70
     2
  0
VPORT
  5
176
330
8
100
AcDbSymbolTableRecord
100
AcDbViewportTableRecord
  2
*Active
 70
     0
 10
0.0
 20
0.0
 11
1.0
 21
1.0
 12
-214.0
 22
145.5
 13
0.0
 23
0.0
 14
1.0
 24
1.0
 15
0.0
 25
0.0
 16
0.0
 26
0.0
 36
1.0
 17
0.0
 27
0.0
 37
0.0
 40
297.1987577639752
 41
1.639303482587064
 42
50.0
 43
0.0
 44
0.0
 50
0.0
 51
0.0
 71
     0
 72
   100
 73
     1
 74
     1
 75
     0
 76
     0
 77
     0
 78
     0
281
     0
 65
     1
110
0.0
120
0.0
130
0.0
111
1.0
121
0.0
131
0.0
112
0.0
122
1.0
132
0.0
 79
     0
146
0.0
  0
ENDTAB
  0
TABLE
  2
LTYPE
  5
5
330
0
100
AcDbSymbolTable
 70
     6
  0
LTYPE
  5
13
330
5
100
AcDbSymbolTableRecord
100
AcDbLinetypeTableRecord
  2
ByBlock
 70
     0
  3

 72
    65
 73
     0
 40
0.0
  0
LTYPE
  5
14
330
5
100
AcDbSymbolTableRecord
100
AcDbLinetypeTableRecord
  2
ByLayer
 70
     0
  3

 72
    65
 73
     0
 40
0.0
  0
LTYPE
  5
15
330
5
100
AcDbSymbolTableRecord
100
AcDbLinetypeTableRecord
  2
CONTINUOUS
 70
     0
  3
Solid line
 72
    65
 73
     0
 40
0.0
  0
LTYPE
  5
26
330
5
100
AcDbSymbolTableRecord
100
AcDbLinetypeTableRecord
  2
DASHED
 70
     0
  3
__ __ __ __ __ __ __ __ __ __ __ __ __ __ __
 72
    65
 73
     2
 40
3.5
 49
2.0
 74
     0
 49
-1.5
 74
     0
  0
LTYPE
  5
27
330
5
100
AcDbSymbolTableRecord
100
AcDbLinetypeTableRecord
  2
CENTER
 70
     0
  3
____ _ ____ _ ____ _ ____ _ ____ _ ____ _ ____
 72
    65
 73
     4
 40
17.5
 49
13.0
 74
     0
 49
-1.5
 74
     0
 49
1.5
 74
     0
 49
-1.5
 74
     0
  0
LTYPE
  5
28
330
5
100
AcDbSymbolTableRecord
100
AcDbLinetypeTableRecord
  2
PHANTOM
 70
     0
  3
_____ _ _ _____ _ _ _____ _ _ _____ _ _ ____  
 72
    65
 73
     6
 40
15.5
 49
8.0
 74
     0
 49
-1.5
 74
     0
 49
1.5
 74
     0
 49
-1.5
 74
     0
 49
1.5
 74
     0
 49
-1.5
 74
     0
  0
LTYPE
  5
29
330
5
100
AcDbSymbolTableRecord
100
AcDbLinetypeTableRecord
  2
DOT
 70
     0
  3
. . . . . . . . . . . . . . . . . . . . . . . .
 72
    65
 73
     2
 40
0.25
 49
0.0
 74
     0
 49
-0.25
 74
     0
  0
LTYPE
  5
2A
330
5
100
AcDbSymbolTableRecord
100
AcDbLinetypeTableRecord
  2
HIDDEN
 70
     0
  3
__ __ __ __ __ __ __ __ __ __ __ __ __ __ __
 72
    65
 73
     2
 40
3.5
 49
2.0
 74
     0
 49
-1.5
 74
     0
  0
ENDTAB
  0
TABLE
  2
LAYER
  5
2
330
0
100
AcDbSymbolTable
 70
     3
  0
LAYER
  5
10
330
2
100
AcDbSymbolTableRecord
100
AcDbLayerTableRecord
  2
0
 70
     0
 62
     7
  6
CONTINUOUS
370
    -3
390
F
  0
LAYER
  5
2B
330
2
100
AcDbSymbolTableRecord
100
AcDbLayerTableRecord
  2
1
 70
     0
 62
     7
  6
CONTINUOUS
370
    -3
390
F
  0
LAYER
  5
2C
330
2
100
AcDbSymbolTableRecord
100
AcDbLayerTableRecord
  2
DEFPOINTS
 70
     0
 62
     7
  6
CONTINUOUS
290
     0
370
    -3
390
F
  0
ENDTAB
  0
TABLE
  2
STYLE
  5
3
330
0
100
AcDbSymbolTable
 70
     2
  0
STYLE
  5
11
330
3
100
AcDbSymbolTableRecord
100
AcDbTextStyleTableRecord
  2
STANDARD
 70
     0
 40
0.0
 41
1.0
 50
0.0
 71
     0
 42
0.2
  3

  4

1001
ACAD
1000
MS Gothic
1071
    32817
  0
ENDTAB
  0
TABLE
  2
VIEW
  5
6
330
0
100
AcDbSymbolTable
 70
     0
  0
ENDTAB
  0
TABLE
  2
UCS
  5
7
330
0
100
AcDbSymbolTable
 70
     0
  0
ENDTAB
  0
TABLE
  2
APPID
  5
9
330
0
100
AcDbSymbolTable
 70
     2
  0
APPID
  5
12
330
9
100
AcDbSymbolTableRecord
100
AcDbRegAppTableRecord
  2
ACAD
 70
     0
  0
APPID
  5
16B
330
9
100
AcDbSymbolTableRecord
100
AcDbRegAppTableRecord
  2
ACAD_PSEXT
 70
     0
  0
ENDTAB
  0
TABLE
  2
DIMSTYLE
  5
A
330
0
100
AcDbSymbolTable
 70
     5
100
AcDbDimStyleTable
 71
     1
340
2D
  0
DIMSTYLE
105
2D
102
{ACAD_REACTORS
330
164
102
}
330
A
100
AcDbSymbolTableRecord
100
AcDbDimStyleTableRecord
  2
DIMSTYLE1
 70
     0
 41
1.0
 42
2.54
 44
2.54
 73
     0
 74
     0
 75
     1
 76
     1
 77
     1
140
3.0
145
1.0
147
1.5
172
     1
173
     1
279
     2
340
11
  0
DIMSTYLE
105
2E
102
{ACAD_REACTORS
330
165
102
}
330
A
100
AcDbSymbolTableRecord
100
AcDbDimStyleTableRecord
  2
DIMSTYLE2
 70
     0
 41
1.0
 42
2.54
 44
2.54
 73
     0
 74
     0
 75
     1
 76
     1
 77
     1
140
3.0
145
1.0
147
1.5
172
     1
173
     1
279
     2
340
11
  0
DIMSTYLE
105
2F
102
{ACAD_REACTORS
330
166
102
}
330
A
100
AcDbSymbolTableRecord
100
AcDbDimStyleTableRecord
  2
DIMSTYLE3
 70
     0
 41
1.0
 42
2.54
 44
2.54
 73
     0
 74
     0
 75
     1
 76
     1
 77
     1
140
3.0
145
1.0
147
1.5
172
     1
173
     1
279
     2
340
11
  0
DIMSTYLE
105
30
102
{ACAD_REACTORS
330
167
102
}
330
A
100
AcDbSymbolTableRecord
100
AcDbDimStyleTableRecord
  2
DIMSTYLE4
 70
     0
 41
1.0
 42
2.54
 44
2.54
 73
     0
 74
     0
 77
     1
140
3.0
145
1.0
147
1.5
172
     1
173
     1
279
     2
340
11
  0
ENDTAB
  0
TABLE
  2
BLOCK_RECORD
  5
1
330
0
100
AcDbSymbolTable
 70
     7
  0
BLOCK_RECORD
  5
22
330
1
100
AcDbSymbolTableRecord
100
AcDbBlockTableRecord
  2
*Model_Space
340
25
  0
BLOCK_RECORD
  5
1E
330
1
100
AcDbSymbolTableRecord
100
AcDbBlockTableRecord
  2
*Paper_Space
340
21
  0
BLOCK_RECORD
  5
34
330
1
100
AcDbSymbolTableRecord
100
AcDbBlockTableRecord
  2
_OPEN30
340
0
102
{BLKREFS
331
3E
331
3F
331
48
331
49
331
52
331
53
331
5B
331
5C
102
}
  0
BLOCK_RECORD
  5
3A
330
1
100
AcDbSymbolTableRecord
100
AcDbBlockTableRecord
  2
*D1
340
0
  0
BLOCK_RECORD
  5
44
330
1
100
AcDbSymbolTableRecord
100
AcDbBlockTableRecord
  2
*D2
340
0
  0
BLOCK_RECORD
  5
4E
330
1
100
AcDbSymbolTableRecord
100
AcDbBlockTableRecord
  2
*D3
340
0
  0
BLOCK_RECORD
  5
58
330
1
100
AcDbSymbolTableRecord
100
AcDbBlockTableRecord
  2
*D4
340
0
  0
BLOCK_RECORD
  5
64
330
1
100
AcDbSymbolTableRecord
100
AcDbBlockTableRecord
  2
KOZU0001
340
0
102
{BLKREFS
331
168
102
}
  0
ENDTAB
  0
ENDSEC
  0
SECTION
  2
BLOCKS
  0
BLOCK
  5
23
330
22
100
AcDbEntity
  8
0
100
AcDbBlockBegin
  2
*Model_Space
 70
     0
 10
0.0
 20
0.0
 30
0.0
  3
*Model_Space
  1

  0
ENDBLK
  5
24
330
22
100
AcDbEntity
  8
0
100
AcDbBlockEnd
  0
BLOCK
  5
1F
330
1E
100
AcDbEntity
 67
     1
  8
0
100
AcDbBlockBegin
  2
*Paper_Space
 70
     0
 10
0.0
 20
0.0
 30
0.0
  3
*Paper_Space
  1

  0
ENDBLK
  5
20
330
1E
100
AcDbEntity
 67
     1
  8
0
100
AcDbBlockEnd
  0
BLOCK
  5
35
330
34
100
AcDbEntity
  8
0
100
AcDbBlockBegin
  2
_OPEN30
 70
     0
 10
0.0
 20
0.0
 30
0.0
  3
_OPEN30
  1

  0
LINE
  5
36
330
34
100
AcDbEntity
  8
0
  6
ByBlock
 62
     0
100
AcDbLine
 10
0.0
 20
0.0
 30
0.0
 11
-2.999999999999993
 21
-1.000000000000017
 31
0.0
  0
LINE
  5
37
330
34
100
AcDbEntity
  8
0
  6
ByBlock
 62
     0
100
AcDbLine
 10
0.0
 20
0.0
 30
0.0
 11
-3.000000000000006
 21
0.9999999999999815
 31
0.0
  0
LINE
  5
38
330
34
100
AcDbEntity
  8
0
  6
ByBlock
 62
     0
100
AcDbLine
 10
0.0
 20
0.0
 30
0.0
 11
-3.0
 21
0.0
 31
0.0
  0
ENDBLK
  5
39
330
34
100
AcDbEntity
  8
0
100
AcDbBlockEnd
  0
BLOCK
  5
3B
330
3A
100
AcDbEntity
  8
0
100
AcDbBlockBegin
  2
*D1
 70
     1
 10
0.0
 20
0.0
 30
0.0
  3
*D1
  1

  0
LINE
  5
3C
330
3A
100
AcDbEntity
  8
0
  6
Continuous
 62
     7
100
AcDbLine
 10
-244.8556213378906
 20
200.6119537353516
 30
0.0
 11
-225.9975433349609
 21
191.0066223144531
 31
0.0
  0
LINE
  5
3D
330
3A
100
AcDbEntity
  8
0
  6
Continuous
 62
     7
100
AcDbLine
 10
-276.0430680739573
 20
216.4972585057933
 30
0.0
 11
-247.5288313401051
 21
201.9735514307301
 31
0.0
  0
INSERT
  5
3E
330
3A
100
AcDbEntity
  8
0
  6
Continuous
 62
     7
100
AcDbBlockReference
  2
_OPEN30
 10
-278.7162780761719
 20
217.8588562011719
 30
0.0
 50
153.0080121446588
  0
INSERT
  5
3F
330
3A
100
AcDbEntity
  8
0
  6
Continuous
 62
     7
100
AcDbBlockReference
  2
_OPEN30
 10
-244.8556213378906
 20
200.6119537353516
 30
0.0
 50
333.0080121446595
  0
TEXT
  5
40
330
3A
100
AcDbEntity
  8
0
  6
Continuous
 62
     7
100
AcDbText
 10
-232.9100950827798
 20
195.3698476664627
 30
0.0
 40
3.0
  1
%%C38
 50
332.9999992486565
 41
0.9498249830693319
100
AcDbText
  0
POINT
  5
41
330
3A
100
AcDbEntity
  8
DEFPOINTS
  6
Continuous
 62
     7
100
AcDbPoint
 10
-278.7162780761719
 20
217.8588562011719
 30
0.0
  0
POINT
  5
42
330
3A
100
AcDbEntity
  8
DEFPOINTS
  6
Continuous
 62
     7
100
AcDbPoint
 10
-244.8556213378906
 20
200.6119537353516
 30
0.0
  0
ENDBLK
  5
43
330
3A
100
AcDbEntity
  8
0
100
AcDbBlockEnd
  0
BLOCK
  5
45
330
44
100
AcDbEntity
  8
0
100
AcDbBlockBegin
  2
*D2
 70
     1
 10
0.0
 20
0.0
 30
0.0
  3
*D2
  1

  0
LINE
  5
46
330
44
100
AcDbEntity
  8
0
  6
Continuous
 62
     7
100
AcDbLine
 10
-196.8781433105469
 20
242.5421295166016
 30
0.0
 11
-169.4885864257813
 21
256.6387634277344
 31
0.0
  0
LINE
  5
47
330
44
100
AcDbEntity
  8
0
  6
Continuous
 62
     7
100
AcDbLine
 10
-324.0263120952614
 20
177.1025040044554
 30
0.0
 11
-199.5455873188012
 21
241.1692702875368
 31
0.0
  0
INSERT
  5
48
330
44
100
AcDbEntity
  8
0
  6
Continuous
 62
     7
100
AcDbBlockReference
  2
_OPEN30
 10
-326.6937561035156
 20
175.7296447753906
 30
0.0
 50
207.2336202072883
  0
INSERT
  5
49
330
44
100
AcDbEntity
  8
0
  6
Continuous
 62
     7
100
AcDbBlockReference
  2
_OPEN30
 10
-196.8781433105469
 20
242.5421295166016
 30
0.0
 50
27.23362020728757
  0
TEXT
  5
4A
330
44
100
AcDbEntity
  8
0
  6
Continuous
 62
     7
100
AcDbText
 10
-179.7380196797152
 20
252.2108551523006
 30
0.0
 40
3.0
  1
%%C146
 50
27.20000064307246
 41
1.053926216168795
100
AcDbText
  0
POINT
  5
4B
330
44
100
AcDbEntity
  8
DEFPOINTS
  6
Continuous
 62
     7
100
AcDbPoint
 10
-326.6937561035156
 20
175.7296447753906
 30
0.0
  0
POINT
  5
4C
330
44
100
AcDbEntity
  8
DEFPOINTS
  6
Continuous
 62
     7
100
AcDbPoint
 10
-196.8781433105469
 20
242.5421295166016
 30
0.0
  0
ENDBLK
  5
4D
330
44
100
AcDbEntity
  8
0
100
AcDbBlockEnd
  0
BLOCK
  5
4F
330
4E
100
AcDbEntity
  8
0
100
AcDbBlockBegin
  2
*D3
 70
     1
 10
0.0
 20
0.0
 30
0.0
  3
*D3
  1

  0
LINE
  5
50
330
4E
100
AcDbEntity
  8
0
  6
Continuous
 62
     7
100
AcDbLine
 10
-214.0960083007813
 20
217.9630432128906
 30
0.0
 11
-174.3410034179688
 21
225.3214874267578
 31
0.0
  0
LINE
  5
51
330
4E
100
AcDbEntity
  8
0
  6
Continuous
 62
     7
100
AcDbLine
 10
-306.5259973260076
 20
200.8547408260881
 30
0.0
 11
-217.0459020880549
 21
217.4170334659041
 31
0.0
  0
INSERT
  5
52
330
4E
100
AcDbEntity
  8
0
  6
Continuous
 62
     7
100
AcDbBlockReference
  2
_OPEN30
 10
-309.4758911132813
 20
200.3087310791016
 30
0.0
 50
190.4864651865666
  0
INSERT
  5
53
330
4E
100
AcDbEntity
  8
0
  6
Continuous
 62
     7
100
AcDbBlockReference
  2
_OPEN30
 10
-214.0960083007813
 20
217.9630432128906
 30
0.0
 50
10.48646518656587
  0
TEXT
  5
54
330
4E
100
AcDbEntity
  8
0
  6
Continuous
 62
     7
100
AcDbText
 10
-182.4815571235837
 20
224.5764767924618
 30
0.0
 40
3.0
  1
%%C97
 50
10.50000029218912
 41
0.9498249830693319
100
AcDbText
  0
POINT
  5
55
330
4E
100
AcDbEntity
  8
DEFPOINTS
  6
Continuous
 62
     7
100
AcDbPoint
 10
-309.4758911132813
 20
200.3087310791016
 30
0.0
  0
POINT
  5
56
330
4E
100
AcDbEntity
  8
DEFPOINTS
  6
Continuous
 62
     7
100
AcDbPoint
 10
-214.0960083007813
 20
217.9630432128906
 30
0.0
  0
ENDBLK
  5
57
330
4E
100
AcDbEntity
  8
0
100
AcDbBlockEnd
  0
BLOCK
  5
59
330
58
100
AcDbEntity
  8
0
100
AcDbBlockBegin
  2
*D4
 70
     1
 10
0.0
 20
0.0
 30
0.0
  3
*D4
  1

  0
LINE
  5
5A
330
58
100
AcDbEntity
  8
0
  6
Continuous
 62
     7
100
AcDbLine
 10
-373.0423889160156
 20
49.13588714599609
 30
0.0
 11
-373.0423889160156
 21
106.1358871459961
 31
0.0
  0
INSERT
  5
5B
330
58
100
AcDbEntity
  8
0
  6
Continuous
 62
     7
100
AcDbBlockReference
  2
_OPEN30
 10
-373.0423889160156
 20
46.13588714599609
 30
0.0
 50
270.0000000000005
  0
INSERT
  5
5C
330
58
100
AcDbEntity
  8
0
  6
Continuous
 62
     7
100
AcDbBlockReference
  2
_OPEN30
 10
-373.0423889160156
 20
109.1358871459961
 30
0.0
 50
90.00000000000019
  0
LINE
  5
5D
330
58
100
AcDbEntity
  8
0
  6
Continuous
 62
     7
100
AcDbLine
 10
-333.8259497070313
 20
46.13588714599607
 30
0.0
 11
-375.3283996582031
 21
46.13588714599609
 31
0.0
  0
LINE
  5
5E
330
58
100
AcDbEntity
  8
0
  6
Continuous
 62
     7
100
AcDbLine
 10
-336.8259497070313
 20
109.1358871459961
 30
0.0
 11
-375.3283996582031
 21
109.1358871459961
 31
0.0
  0
TEXT
  5
5F
330
58
100
AcDbEntity
  8
0
  6
Continuous
 62
     7
100
AcDbText
 10
-373.7923888036773
 20
75.06588700115582
 30
0.0
 40
3.0
  1
63
 50
90.00000250447815
 41
1.028000020980834
100
AcDbText
  0
POINT
  5
60
330
58
100
AcDbEntity
  8
DEFPOINTS
  6
Continuous
 62
     7
100
AcDbPoint
 10
-331.2859497070313
 20
46.13588714599609
 30
0.0
  0
POINT
  5
61
330
58
100
AcDbEntity
  8
DEFPOINTS
  6
Continuous
 62
     7
100
AcDbPoint
 10
-334.2859497070313
 20
109.1358871459961
 30
0.0
  0
POINT
  5
62
330
58
100
AcDbEntity
  8
DEFPOINTS
  6
Continuous
 62
     7
100
AcDbPoint
 10
-373.0423889160156
 20
109.1358871459961
 30
0.0
  0
ENDBLK
  5
63
330
58
100
AcDbEntity
  8
0
100
AcDbBlockEnd
  0
BLOCK
  5
65
330
64
100
AcDbEntity
  8
0
100
AcDbBlockBegin
  2
KOZU0001
 70
     0
 10
0.0
 20
0.0
 30
0.0
  3
KOZU0001
  1

  0
LINE
  5
66
330
64
100
AcDbEntity
  8
0
  6
Continuous
 62
     7
100
AcDbLine
 10
0.0
 20
0.0
 30
0.0
 11
-19.17378234863281
 21
-31.32991218566895
 31
0.0
  0
LINE
  5
67
330
64
100
AcDbEntity
  8
0
  6
Continuous
 62
     7
100
AcDbLine
 10
-19.17378234863281
 20
-31.32991218566895
 30
0.0
 11
-53.71455383300781
 21
-31.32991218566895
 31
0.0
  0
LINE
  5
68
330
64
100
AcDbEntity
  8
0
  6
Continuous
 62
     7
100
AcDbLine
 10
0.0
 20
0.0
 30
0.0
 11
-0.7130525793479143
 21
-3.080836902383066
 31
0.0
  0
LINE
  5
69
330
64
100
AcDbEntity
  8
0
  6
Continuous
 62
     7
100
AcDbLine
 10
0.0
 20
0.0
 30
0.0
 11
-2.418944204908171
 21
-2.036837974297704
 31
0.0
  0
TEXT
  5
6A
330
64
100
AcDbEntity
  8
0
  6
Continuous
 62
     7
100
AcDbText
 10
-51.994553565979
 20
-30.57991218566895
 30
0.0
 40
3.0
  1
配管接続口
 41
0.8487395020950888
100
AcDbText
  0
TEXT
  5
6B
330
64
100
AcDbEntity
  8
0
  6
Continuous
 62
     7
100
AcDbText
 10
-51.994553565979
 20
-35.84491218566896
 30
0.0
 40
3.0
  1
Ｒｃ４（１００Ａ）
 41
0.8448610247221777
100
AcDbText
  0
ENDBLK
  5
6C
330
64
100
AcDbEntity
  8
0
100
AcDbBlockEnd
  0
ENDSEC
  0
SECTION
  2
ENTITIES
  0
LINE
  5
6D
330
22
100
AcDbEntity
  8
0
  6
Continuous
 62
     7
100
AcDbLine
 10
-269.2856750488281
 20
212.2999420166016
 30
0.0
 11
-265.2868957519531
 21
212.7056884765625
 31
0.0
  0
LINE
  5
6E
330
22
100
AcDbEntity
  8
0
  6
Continuous
 62
     7
100
AcDbLine
 10
-269.1007995605469
 20
206.2933349609375
 30
0.0
 11
-265.7859497070313
 21
206.1358947753906
 31
0.0
  0
LINE
  5
6F
330
22
100
AcDbEntity
  8
0
  6
Continuous
 62
     7
100
AcDbLine
 10
-255.2859497070314
 20
206.1358947753906
 30
0.0
 11
-257.7859497070313
 21
206.1358947753906
 31
0.0
  0
LINE
  5
70
330
22
100
AcDbEntity
  8
0
  6
Continuous
 62
     7
100
AcDbLine
 10
-258.040771484375
 20
212.4485321044922
 30
0.0
 11
-254.3926391601563
 21
212.3405456542969
 31
0.0
  0
LINE
  5
71
330
22
100
AcDbEntity
  8
0
  6
CENTER
 62
     7
100
AcDbLine
 10
-340.10205078125
 20
209.1358947753906
 30
0.0
 11
-183.5807647705078
 21
209.1358947753906
 31
0.0
  0
LINE
  5
72
330
22
100
AcDbEntity
  8
0
  6
CENTER
 62
     7
100
AcDbLine
 10
-261.7859497070313
 20
283.4792175292969
 30
0.0
 11
-261.7859497070313
 21
133.3463439941406
 31
0.0
  0
LINE
  5
73
330
22
100
AcDbEntity
  8
0
  6
Continuous
 62
     7
100
AcDbLine
 10
-207.9287719726564
 20
82.68063354492188
 30
0.0
 11
-206.8350982666016
 21
47.68503189086914
 31
0.0
  0
LINE
  5
74
330
22
100
AcDbEntity
  8
0
  6
Continuous
 62
     7
100
AcDbLine
 10
-206.4735107421875
 20
84.1358871459961
 30
0.0
 11
-207.9287719726564
 21
82.68063354492188
 31
0.0
  0
LINE
  5
75
330
22
100
AcDbEntity
  8
0
  6
Continuous
 62
     7
100
AcDbLine
 10
-205.2859497070314
 20
46.13588714599609
 30
0.0
 11
-206.8350982666016
 21
47.68503189086914
 31
0.0
  0
LINE
  5
76
330
22
100
AcDbEntity
  8
0
  6
Continuous
 62
     7
100
AcDbLine
 10
-192.2859497070313
 20
46.13588714599609
 30
0.0
 11
-192.2859497070313
 21
97.13588714599609
 31
0.0
  0
LINE
  5
77
330
22
100
AcDbEntity
  8
0
  6
Continuous
 62
     7
100
AcDbLine
 10
-188.7859497070313
 20
99.13588714599608
 30
0.0
 11
-188.7859497070313
 21
108.6358871459961
 31
0.0
  0
LINE
  5
78
330
22
100
AcDbEntity
  8
0
  6
Continuous
 62
     7
100
AcDbLine
 10
-189.2859497070313
 20
109.1358871459961
 30
0.0
 11
-188.7859497070313
 21
108.6358871459961
 31
0.0
  0
LINE
  5
79
330
22
100
AcDbEntity
  8
0
  6
Continuous
 62
     7
100
AcDbLine
 10
-188.7859497070313
 20
99.13588714599608
 30
0.0
 11
-190.2859497070313
 21
99.13588714599608
 31
0.0
  0
LINE
  5
7A
330
22
100
AcDbEntity
  8
0
  6
Continuous
 62
     7
100
AcDbLine
 10
-243.2859497070313
 20
107.1358871459961
 30
0.0
 11
-243.4609375
 21
105.1358871459961
 31
0.0
  0
LINE
  5
7B
330
22
100
AcDbEntity
  8
0
  6
Continuous
 62
     7
100
AcDbLine
 10
-243.4609375
 20
105.1358871459961
 30
0.0
 11
-246.3609313964844
 21
105.1358871459961
 31
0.0
  0
LINE
  5
7C
330
22
100
AcDbEntity
  8
0
  6
Continuous
 62
     7
100
AcDbLine
 10
-246.3609313964844
 20
101.6358871459961
 30
0.0
 11
-243.7671356201172
 21
101.6358871459961
 31
0.0
  0
LINE
  5
7D
330
22
100
AcDbEntity
  8
0
  6
Continuous
 62
     7
100
AcDbLine
 10
-243.7671356201172
 20
101.6358871459961
 30
0.0
 11
-244.1608428955078
 21
97.13588714599609
 31
0.0
  0
LINE
  5
7E
330
22
100
AcDbEntity
  8
0
  6
Continuous
 62
     7
100
AcDbLine
 10
-216.2859497070313
 20
102.9358901977539
 30
0.0
 11
-213.8783874511719
 21
102.9358901977539
 31
0.0
  0
LINE
  5
7F
330
22
100
AcDbEntity
  8
0
  6
Continuous
 62
     7
100
AcDbLine
 10
-213.8783874511719
 20
102.9358901977539
 30
0.0
 11
-214.6482849121094
 21
94.13588714599608
 31
0.0
  0
LINE
  5
80
330
22
100
AcDbEntity
  8
0
  6
Continuous
 62
     7
100
AcDbLine
 10
-218.7859497070313
 20
94.13588714599608
 30
0.0
 11
-218.7859497070313
 21
84.1358871459961
 31
0.0
  0
LINE
  5
81
330
22
100
AcDbEntity
  8
0
  6
Continuous
 62
     7
100
AcDbLine
 10
-213.3359527587891
 20
109.1358871459961
 30
0.0
 11
-213.5984191894531
 21
106.1358871459961
 31
0.0
  0
LINE
  5
82
330
22
100
AcDbEntity
  8
0
  6
Continuous
 62
     7
100
AcDbLine
 10
-213.5984191894531
 20
106.1358871459961
 30
0.0
 11
-216.2859497070313
 21
106.1358871459961
 31
0.0
  0
LINE
  5
83
330
22
100
AcDbEntity
  8
0
  6
Continuous
 62
     7
100
AcDbLine
 10
-216.2859497070313
 20
106.1358871459961
 30
0.0
 11
-216.2859497070313
 21
102.9358901977539
 31
0.0
  0
LINE
  5
84
330
22
100
AcDbEntity
  8
0
  6
Continuous
 62
     7
100
AcDbLine
 10
-213.2859497070313
 20
109.1358871459961
 30
0.0
 11
-214.5982818603516
 21
94.13588714599608
 31
0.0
  0
LINE
  5
85
330
22
100
AcDbEntity
  8
0
  6
Continuous
 62
     7
100
AcDbLine
 10
-213.4761657714844
 20
106.9617080688477
 30
0.0
 11
-211.3019866943359
 21
109.1358871459961
 31
0.0
  0
LINE
  5
86
330
22
100
AcDbEntity
  8
0
  6
Continuous
 62
     7
100
AcDbLine
 10
-213.7473449707031
 20
103.8620986938477
 30
0.0
 11
-208.4735717773438
 21
109.1358871459961
 31
0.0
  0
LINE
  5
87
330
22
100
AcDbEntity
  8
0
  6
Continuous
 62
     7
100
AcDbLine
 10
-214.0185394287109
 20
100.7624969482422
 30
0.0
 11
-205.6451416015625
 21
109.1358871459961
 31
0.0
  0
LINE
  5
88
330
22
100
AcDbEntity
  8
0
  6
Continuous
 62
     7
100
AcDbLine
 10
-214.2897186279297
 20
97.6628875732422
 30
0.0
 11
-202.8167114257813
 21
109.1358871459961
 31
0.0
  0
LINE
  5
89
330
22
100
AcDbEntity
  8
0
  6
Continuous
 62
     7
100
AcDbLine
 10
-218.7859497070313
 20
93.16664123535156
 30
0.0
 11
-217.8167114257814
 21
94.13588714599608
 31
0.0
  0
LINE
  5
8A
330
22
100
AcDbEntity
  8
0
  6
Continuous
 62
     7
100
AcDbLine
 10
-214.5608978271484
 20
94.5632781982422
 30
0.0
 11
-199.98828125
 21
109.1358871459961
 31
0.0
  0
LINE
  5
8B
330
22
100
AcDbEntity
  8
0
  6
Continuous
 62
     7
100
AcDbLine
 10
-218.7859497070313
 20
90.33821868896485
 30
0.0
 11
-214.98828125
 21
94.13588714599608
 31
0.0
  0
LINE
  5
8C
330
22
100
AcDbEntity
  8
0
  6
Continuous
 62
     7
100
AcDbLine
 10
-218.7859497070313
 20
87.50978851318359
 30
0.0
 11
-197.1598510742188
 21
109.1358871459961
 31
0.0
  0
LINE
  5
8D
330
22
100
AcDbEntity
  8
0
  6
Continuous
 62
     7
100
AcDbLine
 10
-218.7859497070313
 20
84.68136596679688
 30
0.0
 11
-194.3314361572266
 21
109.1358871459961
 31
0.0
  0
LINE
  5
8E
330
22
100
AcDbEntity
  8
0
  6
Continuous
 62
     7
100
AcDbLine
 10
-216.5030059814453
 20
84.1358871459961
 30
0.0
 11
-191.5030059814453
 21
109.1358871459961
 31
0.0
  0
LINE
  5
8F
330
22
100
AcDbEntity
  8
0
  6
Continuous
 62
     7
100
AcDbLine
 10
-213.6745758056641
 20
84.1358871459961
 30
0.0
 11
-188.9802703857422
 21
108.8302001953125
 31
0.0
  0
LINE
  5
90
330
22
100
AcDbEntity
  8
0
  6
Continuous
 62
     7
100
AcDbLine
 10
-210.8461456298828
 20
84.1358871459961
 30
0.0
 11
-188.7859497070313
 21
106.1960830688477
 31
0.0
  0
LINE
  5
91
330
22
100
AcDbEntity
  8
0
  6
Continuous
 62
     7
100
AcDbLine
 10
-208.0177154541016
 20
84.1358871459961
 30
0.0
 11
-188.7859497070313
 21
103.3676528930664
 31
0.0
  0
LINE
  5
92
330
22
100
AcDbEntity
  8
0
  6
Continuous
 62
     7
100
AcDbLine
 10
-190.1893005371094
 20
99.13588714599608
 30
0.0
 11
-188.7859497070313
 21
100.5392303466797
 31
0.0
  0
LINE
  5
93
330
22
100
AcDbEntity
  8
0
  6
Continuous
 62
     7
100
AcDbLine
 10
-206.4346008300781
 20
82.89058685302734
 30
0.0
 11
-192.2859497070313
 21
97.03923034667969
 31
0.0
  0
LINE
  5
94
330
22
100
AcDbEntity
  8
0
  6
Continuous
 62
     7
100
AcDbLine
 10
-206.348876953125
 20
80.14787292480468
 30
0.0
 11
-192.2859497070313
 21
94.21080017089844
 31
0.0
  0
LINE
  5
95
330
22
100
AcDbEntity
  8
0
  6
Continuous
 62
     7
100
AcDbLine
 10
-206.2631683349609
 20
77.40515899658203
 30
0.0
 11
-192.2859497070313
 21
91.3823699951172
 31
0.0
  0
LINE
  5
96
330
22
100
AcDbEntity
  8
0
  6
Continuous
 62
     7
100
AcDbLine
 10
-206.1774597167969
 20
74.66244506835938
 30
0.0
 11
-192.2859497070313
 21
88.55394744873047
 31
0.0
  0
LINE
  5
97
330
22
100
AcDbEntity
  8
0
  6
Continuous
 62
     7
100
AcDbLine
 10
-206.0917358398438
 20
71.91973114013672
 30
0.0
 11
-192.2859497070313
 21
85.72551727294921
 31
0.0
  0
LINE
  5
98
330
22
100
AcDbEntity
  8
0
  6
Continuous
 62
     7
100
AcDbLine
 10
-206.0060272216797
 20
69.17701721191406
 30
0.0
 11
-192.2859497070313
 21
82.8970947265625
 31
0.0
  0
LINE
  5
99
330
22
100
AcDbEntity
  8
0
  6
Continuous
 62
     7
100
AcDbLine
 10
-205.9203186035156
 20
66.43430328369141
 30
0.0
 11
-192.2859497070313
 21
80.06866455078125
 31
0.0
  0
LINE
  5
9A
330
22
100
AcDbEntity
  8
0
  6
Continuous
 62
     7
100
AcDbLine
 10
-205.8345947265625
 20
63.69159317016602
 30
0.0
 11
-192.2859497070313
 21
77.240234375
 31
0.0
  0
LINE
  5
9B
330
22
100
AcDbEntity
  8
0
  6
Continuous
 62
     7
100
AcDbLine
 10
-205.7488861083984
 20
60.94887924194336
 30
0.0
 11
-192.2859497070313
 21
74.41181182861328
 31
0.0
  0
LINE
  5
9C
330
22
100
AcDbEntity
  8
0
  6
Continuous
 62
     7
100
AcDbLine
 10
-205.6631774902344
 20
58.20616912841797
 30
0.0
 11
-192.2859497070313
 21
71.58338165283203
 31
0.0
  0
LINE
  5
9D
330
22
100
AcDbEntity
  8
0
  6
Continuous
 62
     7
100
AcDbLine
 10
-205.5774536132813
 20
55.46345520019531
 30
0.0
 11
-192.2859497070313
 21
68.75495910644531
 31
0.0
  0
LINE
  5
9E
330
22
100
AcDbEntity
  8
0
  6
Continuous
 62
     7
100
AcDbLine
 10
-205.4917449951172
 20
52.72074127197265
 30
0.0
 11
-192.2859497070313
 21
65.92652893066406
 31
0.0
  0
LINE
  5
9F
330
22
100
AcDbEntity
  8
0
  6
Continuous
 62
     7
100
AcDbLine
 10
-205.4060211181641
 20
49.97802734375
 30
0.0
 11
-192.2859497070313
 21
63.09810256958008
 31
0.0
  0
LINE
  5
A0
330
22
100
AcDbEntity
  8
0
  6
Continuous
 62
     7
100
AcDbLine
 10
-205.3203125
 20
47.2353172302246
 30
0.0
 11
-192.2859497070313
 21
60.26967239379882
 31
0.0
  0
LINE
  5
A1
330
22
100
AcDbEntity
  8
0
  6
Continuous
 62
     7
100
AcDbLine
 10
-203.59130859375
 20
46.13588714599609
 30
0.0
 11
-192.2859497070313
 21
57.44124603271484
 31
0.0
  0
LINE
  5
A2
330
22
100
AcDbEntity
  8
0
  6
Continuous
 62
     7
100
AcDbLine
 10
-200.7628936767578
 20
46.13588714599609
 30
0.0
 11
-192.2859497070313
 21
54.61281967163086
 31
0.0
  0
LINE
  5
A3
330
22
100
AcDbEntity
  8
0
  6
Continuous
 62
     7
100
AcDbLine
 10
-197.9344635009766
 20
46.13588714599609
 30
0.0
 11
-192.2859497070313
 21
51.78439331054688
 31
0.0
  0
LINE
  5
A4
330
22
100
AcDbEntity
  8
0
  6
Continuous
 62
     7
100
AcDbLine
 10
-195.1060333251953
 20
46.13588714599609
 30
0.0
 11
-192.2859497070313
 21
48.95596694946289
 31
0.0
  0
LINE
  5
A5
330
22
100
AcDbEntity
  8
0
  6
Continuous
 62
     7
100
AcDbLine
 10
-206.4735107421875
 20
84.1358871459961
 30
0.0
 11
-205.2859497070314
 21
46.13588714599609
 31
0.0
  0
LINE
  5
A6
330
22
100
AcDbEntity
  8
0
  6
CENTER
 62
     7
100
AcDbLine
 10
-261.7859497070313
 20
116.8449783325195
 30
0.0
 11
-261.7859497070313
 21
36.89479064941406
 31
0.0
  0
LINE
  5
A7
330
22
100
AcDbEntity
  8
0
  6
Continuous
 62
     7
100
AcDbLine
 10
-331.2859497070313
 20
46.13588714599609
 30
0.0
 11
-261.7859497070313
 21
46.13588714599609
 31
0.0
  0
LINE
  5
A8
330
22
100
AcDbEntity
  8
0
  6
Continuous
 62
     7
100
AcDbLine
 10
-331.2859497070313
 20
97.13588714599609
 30
0.0
 11
-331.2859497070313
 21
46.13588714599609
 31
0.0
  0
LINE
  5
A9
330
22
100
AcDbEntity
  8
0
  6
Continuous
 62
     7
100
AcDbLine
 10
-244.1608428955078
 20
97.13588714599609
 30
0.0
 11
-244.3609313964844
 21
97.13588714599609
 31
0.0
  0
LINE
  5
AA
330
22
100
AcDbEntity
  8
0
  6
Continuous
 62
     7
100
AcDbLine
 10
-256.8859558105469
 20
109.1358871459961
 30
0.0
 11
-256.8859558105469
 21
105.1358871459961
 31
0.0
  0
LINE
  5
AB
330
22
100
AcDbEntity
  8
0
  6
Continuous
 62
     7
100
AcDbLine
 10
-333.2859497070313
 20
99.13588714599608
 30
0.0
 11
-261.7859497070313
 21
99.13588714599608
 31
0.0
  0
LINE
  5
AC
330
22
100
AcDbEntity
  8
0
  6
Continuous
 62
     7
100
AcDbLine
 10
-334.2859497070313
 20
109.1358871459961
 30
0.0
 11
-334.7859497070313
 21
108.6358871459961
 31
0.0
  0
LINE
  5
AD
330
22
100
AcDbEntity
  8
0
  6
Continuous
 62
     7
100
AcDbLine
 10
-334.7859497070313
 20
99.13588714599608
 30
0.0
 11
-334.7859497070313
 21
108.6358871459961
 31
0.0
  0
LINE
  5
AE
330
22
100
AcDbEntity
  8
0
  6
Continuous
 62
     7
100
AcDbLine
 10
-261.7859497070313
 20
109.1358871459961
 30
0.0
 11
-334.2859497070313
 21
109.1358871459961
 31
0.0
  0
LINE
  5
AF
330
22
100
AcDbEntity
  8
0
  6
Continuous
 62
     7
100
AcDbLine
 10
-334.7859497070313
 20
99.13588714599608
 30
0.0
 11
-333.2859497070313
 21
99.13588714599608
 31
0.0
  0
LINE
  5
B0
330
22
100
AcDbEntity
  8
0
  6
Continuous
 62
     7
100
AcDbLine
 10
-246.3609313964844
 20
95.13588714599608
 30
0.0
 11
-246.3609313964844
 21
74.13588714599609
 31
0.0
  0
LINE
  5
B1
330
22
100
AcDbEntity
  8
0
  6
Continuous
 62
     7
100
AcDbLine
 10
-250.6996612548828
 20
105.1358871459961
 30
0.0
 11
-261.8859558105469
 21
105.1358871459961
 31
0.0
  0
LINE
  5
B2
330
22
100
AcDbEntity
  8
0
  6
Continuous
 62
     7
100
AcDbLine
 10
-261.7859497070313
 20
109.1358871459961
 30
0.0
 11
-241.2859497070313
 21
109.1358871459961
 31
0.0
  0
LINE
  5
B3
330
22
100
AcDbEntity
  8
0
  6
Continuous
 62
     7
100
AcDbLine
 10
-250.6996612548828
 20
105.1358871459961
 30
0.0
 11
-250.6996612548828
 21
87.00924682617188
 31
0.0
  0
LINE
  5
B4
330
22
100
AcDbEntity
  8
0
  6
Continuous
 62
     7
100
AcDbLine
 10
-252.3859558105469
 20
109.1358871459961
 30
0.0
 11
-252.3859558105469
 21
105.1358871459961
 31
0.0
  0
LINE
  5
B5
330
22
100
AcDbEntity
  8
0
  6
Continuous
 62
     7
100
AcDbLine
 10
-250.6996612548828
 20
95.13588714599608
 30
0.0
 11
-250.6996612548828
 21
87.13588714599609
 31
0.0
  0
LINE
  5
B6
330
22
100
AcDbEntity
  8
0
  6
Continuous
 62
     7
100
AcDbLine
 10
-261.8859558105469
 20
87.13588714599609
 30
0.0
 11
-250.5960540771484
 21
87.13588714599609
 31
0.0
  0
LINE
  5
B7
330
22
100
AcDbEntity
  8
0
  6
Continuous
 62
     7
100
AcDbLine
 10
-239.2388916015625
 20
71.17996978759766
 30
0.0
 11
-261.7388916015625
 21
71.17996978759766
 31
0.0
  0
LINE
  5
B8
330
22
100
AcDbEntity
  8
0
  6
Continuous
 62
     7
100
AcDbLine
 10
-252.3859558105469
 20
107.3271865844727
 30
0.0
 11
-250.5772552490234
 21
109.1358871459961
 31
0.0
  0
LINE
  5
B9
330
22
100
AcDbEntity
  8
0
  6
Continuous
 62
     7
100
AcDbLine
 10
-251.7488250732422
 20
105.1358871459961
 30
0.0
 11
-247.7488250732422
 21
109.1358871459961
 31
0.0
  0
LINE
  5
BA
330
22
100
AcDbEntity
  8
0
  6
Continuous
 62
     7
100
AcDbLine
 10
-250.6996612548828
 20
103.3566284179688
 30
0.0
 11
-244.9203948974609
 21
109.1358871459961
 31
0.0
  0
LINE
  5
BB
330
22
100
AcDbEntity
  8
0
  6
Continuous
 62
     7
100
AcDbLine
 10
-246.0919799804688
 20
105.1358871459961
 30
0.0
 11
-242.0919799804688
 21
109.1358871459961
 31
0.0
  0
LINE
  5
BC
330
22
100
AcDbEntity
  8
0
  6
Continuous
 62
     7
100
AcDbLine
 10
-250.6996612548828
 20
100.5281982421875
 30
0.0
 11
-246.3609313964844
 21
104.8669281005859
 31
0.0
  0
LINE
  5
BD
330
22
100
AcDbEntity
  8
0
  6
Continuous
 62
     7
100
AcDbLine
 10
-250.6996612548828
 20
97.69977569580078
 30
0.0
 11
-246.3609313964844
 21
102.0385055541992
 31
0.0
  0
LINE
  5
BE
330
22
100
AcDbEntity
  8
0
  6
Continuous
 62
     7
100
AcDbLine
 10
-261.7859497070313
 20
86.6134796142578
 30
0.0
 11
-261.2635498046875
 21
87.13588714599609
 31
0.0
  0
LINE
  5
BF
330
22
100
AcDbEntity
  8
0
  6
Continuous
 62
     7
100
AcDbLine
 10
-250.6996612548828
 20
94.87134552001952
 30
0.0
 11
-243.9351196289063
 21
101.6358871459961
 31
0.0
  0
LINE
  5
C0
330
22
100
AcDbEntity
  8
0
  6
Continuous
 62
     7
100
AcDbLine
 10
-261.7859497070313
 20
83.78504943847657
 30
0.0
 11
-258.4351196289063
 21
87.13588714599609
 31
0.0
  0
LINE
  5
C1
330
22
100
AcDbEntity
  8
0
  6
Continuous
 62
     7
100
AcDbLine
 10
-250.6996612548828
 20
92.04291534423829
 30
0.0
 11
-244.0770111083984
 21
98.66556549072265
 31
0.0
  0
LINE
  5
C2
330
22
100
AcDbEntity
  8
0
  6
Continuous
 62
     7
100
AcDbLine
 10
-261.7859497070313
 20
80.95662689208984
 30
0.0
 11
-255.606689453125
 21
87.13588714599609
 31
0.0
  0
LINE
  5
C3
330
22
100
AcDbEntity
  8
0
  6
Continuous
 62
     7
100
AcDbLine
 10
-250.6996612548828
 20
89.21449279785155
 30
0.0
 11
-246.3609313964844
 21
93.55322265625
 31
0.0
  0
LINE
  5
C4
330
22
100
AcDbEntity
  8
0
  6
Continuous
 62
     7
100
AcDbLine
 10
-261.7859497070313
 20
78.12819671630859
 30
0.0
 11
-252.7782592773438
 21
87.13588714599609
 31
0.0
  0
LINE
  5
C5
330
22
100
AcDbEntity
  8
0
  6
Continuous
 62
     7
100
AcDbLine
 10
-261.7859497070313
 20
75.29977416992188
 30
0.0
 11
-246.3609313964844
 21
90.72479248046876
 31
0.0
  0
LINE
  5
C6
330
22
100
AcDbEntity
  8
0
  6
Continuous
 62
     7
100
AcDbLine
 10
-261.7859497070313
 20
72.47134399414062
 30
0.0
 11
-246.3609313964844
 21
87.89636993408203
 31
0.0
  0
LINE
  5
C7
330
22
100
AcDbEntity
  8
0
  6
Continuous
 62
     7
100
AcDbLine
 10
-260.2489013671875
 20
71.17996978759766
 30
0.0
 11
-246.3609313964844
 21
85.06793975830078
 31
0.0
  0
LINE
  5
C8
330
22
100
AcDbEntity
  8
0
  6
Continuous
 62
     7
100
AcDbLine
 10
-257.4204711914063
 20
71.17996978759766
 30
0.0
 11
-246.3609313964844
 21
82.23950958251952
 31
0.0
  0
LINE
  5
C9
330
22
100
AcDbEntity
  8
0
  6
Continuous
 62
     7
100
AcDbLine
 10
-254.592041015625
 20
71.17996978759766
 30
0.0
 11
-246.3609313964844
 21
79.41108703613281
 31
0.0
  0
LINE
  5
CA
330
22
100
AcDbEntity
  8
0
  6
Continuous
 62
     7
100
AcDbLine
 10
-251.7636260986328
 20
71.17996978759766
 30
0.0
 11
-246.3609313964844
 21
76.58265686035156
 31
0.0
  0
LINE
  5
CB
330
22
100
AcDbEntity
  8
0
  6
Continuous
 62
     7
100
AcDbLine
 10
-248.9351959228516
 20
71.17996978759766
 30
0.0
 11
-246.2388916015625
 21
73.87626647949218
 31
0.0
  0
LINE
  5
CC
330
22
100
AcDbEntity
  8
0
  6
Continuous
 62
     7
100
AcDbLine
 10
-240.2388916015625
 20
74.21941375732422
 30
0.0
 11
-239.2783355712891
 21
75.17996978759765
 31
0.0
  0
LINE
  5
CD
330
22
100
AcDbEntity
  8
0
  6
Continuous
 62
     7
100
AcDbLine
 10
-240.2388916015625
 20
71.3909912109375
 30
0.0
 11
-239.2388916015625
 21
72.3909912109375
 31
0.0
  0
LINE
  5
CE
330
22
100
AcDbEntity
  8
0
  6
Continuous
 62
     7
100
AcDbLine
 10
-259.0187683105469
 20
71.17996978759766
 30
0.0
 11
-261.7859497070313
 21
73.94715881347656
 31
0.0
  0
LINE
  5
CF
330
22
100
AcDbEntity
  8
0
  6
Continuous
 62
     7
100
AcDbLine
 10
-256.1903381347656
 20
71.17996978759766
 30
0.0
 11
-261.7859497070313
 21
76.77558135986328
 31
0.0
  0
LINE
  5
D0
330
22
100
AcDbEntity
  8
0
  6
Continuous
 62
     7
100
AcDbLine
 10
-253.3619232177734
 20
71.17996978759766
 30
0.0
 11
-261.7859497070313
 21
79.60401153564453
 31
0.0
  0
LINE
  5
D1
330
22
100
AcDbEntity
  8
0
  6
Continuous
 62
     7
100
AcDbLine
 10
-250.5334930419922
 20
71.17996978759766
 30
0.0
 11
-261.7859497070313
 21
82.43243408203126
 31
0.0
  0
LINE
  5
D2
330
22
100
AcDbEntity
  8
0
  6
Continuous
 62
     7
100
AcDbLine
 10
-247.7050628662109
 20
71.17996978759766
 30
0.0
 11
-261.7859497070313
 21
85.26086425781249
 31
0.0
  0
LINE
  5
D3
330
22
100
AcDbEntity
  8
0
  6
Continuous
 62
     7
100
AcDbLine
 10
-246.2388916015625
 20
72.54222869873046
 30
0.0
 11
-260.8325500488281
 21
87.13588714599609
 31
0.0
  0
LINE
  5
D4
330
22
100
AcDbEntity
  8
0
  6
Continuous
 62
     7
100
AcDbLine
 10
-246.3609313964844
 20
75.49269866943359
 30
0.0
 11
-258.0041198730469
 21
87.13588714599609
 31
0.0
  0
LINE
  5
D5
330
22
100
AcDbEntity
  8
0
  6
Continuous
 62
     7
100
AcDbLine
 10
-246.3609313964844
 20
78.32112121582031
 30
0.0
 11
-255.1756896972656
 21
87.13588714599609
 31
0.0
  0
LINE
  5
D6
330
22
100
AcDbEntity
  8
0
  6
Continuous
 62
     7
100
AcDbLine
 10
-239.2388916015625
 20
71.19908905029297
 30
0.0
 11
-240.2388916015625
 21
72.19908905029297
 31
0.0
  0
LINE
  5
D7
330
22
100
AcDbEntity
  8
0
  6
Continuous
 62
     7
100
AcDbLine
 10
-246.3609313964844
 20
81.14955139160157
 30
0.0
 11
-252.3472747802734
 21
87.13588714599609
 31
0.0
  0
LINE
  5
D8
330
22
100
AcDbEntity
  8
0
  6
Continuous
 62
     7
100
AcDbLine
 10
-239.2388916015625
 20
74.02751159667968
 30
0.0
 11
-240.2388916015625
 21
75.02751159667969
 31
0.0
  0
LINE
  5
D9
330
22
100
AcDbEntity
  8
0
  6
Continuous
 62
     7
100
AcDbLine
 10
-246.3609313964844
 20
83.97797393798828
 30
0.0
 11
-250.6996612548828
 21
88.31671142578125
 31
0.0
  0
LINE
  5
DA
330
22
100
AcDbEntity
  8
0
  6
Continuous
 62
     7
100
AcDbLine
 10
-246.3609313964844
 20
86.80640411376954
 30
0.0
 11
-250.6996612548828
 21
91.14513397216795
 31
0.0
  0
LINE
  5
DB
330
22
100
AcDbEntity
  8
0
  6
Continuous
 62
     7
100
AcDbLine
 10
-246.3609313964844
 20
89.63483428955077
 30
0.0
 11
-250.6996612548828
 21
93.97356414794922
 31
0.0
  0
LINE
  5
DC
330
22
100
AcDbEntity
  8
0
  6
Continuous
 62
     7
100
AcDbLine
 10
-246.3609313964844
 20
92.46325683593751
 30
0.0
 11
-250.6996612548828
 21
96.80198669433593
 31
0.0
  0
LINE
  5
DD
330
22
100
AcDbEntity
  8
0
  6
Continuous
 62
     7
100
AcDbLine
 10
-246.3469696044922
 20
95.27771759033205
 30
0.0
 11
-250.6996612548828
 21
99.6304168701172
 31
0.0
  0
LINE
  5
DE
330
22
100
AcDbEntity
  8
0
  6
Continuous
 62
     7
100
AcDbLine
 10
-245.1902770996094
 20
96.94945526123049
 30
0.0
 11
-250.6996612548828
 21
102.4588470458984
 31
0.0
  0
LINE
  5
DF
330
22
100
AcDbEntity
  8
0
  6
Continuous
 62
     7
100
AcDbLine
 10
-244.0770874023439
 20
98.66469573974608
 30
0.0
 11
-252.3859558105469
 21
106.9735641479492
 31
0.0
  0
LINE
  5
E0
330
22
100
AcDbEntity
  8
0
  6
Continuous
 62
     7
100
AcDbLine
 10
-246.3609313964844
 20
103.776969909668
 30
0.0
 11
-251.7198486328125
 21
109.1358871459961
 31
0.0
  0
LINE
  5
E1
330
22
100
AcDbEntity
  8
0
  6
Continuous
 62
     7
100
AcDbLine
 10
-243.8495483398438
 20
101.2655792236328
 30
0.0
 11
-244.2198486328125
 21
101.6358871459961
 31
0.0
  0
LINE
  5
E2
330
22
100
AcDbEntity
  8
0
  6
Continuous
 62
     7
100
AcDbLine
 10
-244.8914184570313
 20
105.1358871459961
 30
0.0
 11
-248.8914184570313
 21
109.1358871459961
 31
0.0
  0
LINE
  5
E3
330
22
100
AcDbEntity
  8
0
  6
Continuous
 62
     7
100
AcDbLine
 10
-243.3944396972656
 20
106.4673385620117
 30
0.0
 11
-246.0630035400391
 21
109.1358871459961
 31
0.0
  0
LINE
  5
E4
330
22
100
AcDbEntity
  8
0
  6
Continuous
 62
     7
100
AcDbLine
 10
-241.2859497070313
 20
107.1872711181641
 30
0.0
 11
-243.2345733642578
 21
109.1358871459961
 31
0.0
  0
LINE
  5
E5
330
22
100
AcDbEntity
  8
0
  6
Continuous
 62
     7
100
AcDbLine
 10
-241.2859497070313
 20
109.1358871459961
 30
0.0
 11
-241.2859497070313
 21
107.1358871459961
 31
0.0
  0
LINE
  5
E6
330
22
100
AcDbEntity
  8
0
  6
Continuous
 62
     7
100
AcDbLine
 10
-241.2859497070313
 20
107.1358871459961
 30
0.0
 11
-243.2859497070313
 21
107.1358871459961
 31
0.0
  0
LINE
  5
E7
330
22
100
AcDbEntity
  8
0
  6
Continuous
 62
     7
100
AcDbLine
 10
-261.7859497070313
 20
109.1358871459961
 30
0.0
 11
-213.3359527587891
 21
109.1358871459961
 31
0.0
  0
LINE
  5
E8
330
22
100
AcDbEntity
  8
0
  6
Continuous
 62
     7
100
AcDbLine
 10
-214.6482849121094
 20
94.13588714599608
 30
0.0
 11
-246.3609313964844
 21
94.13588714599608
 31
0.0
  0
LINE
  5
E9
330
22
100
AcDbEntity
  8
0
  6
Continuous
 62
     7
100
AcDbLine
 10
-214.5982818603516
 20
94.13588714599608
 30
0.0
 11
-246.3609313964844
 21
94.13588714599608
 31
0.0
  0
LINE
  5
EA
330
22
100
AcDbEntity
  8
0
  6
Continuous
 62
     7
100
AcDbLine
 10
-206.4735107421875
 20
84.1358871459961
 30
0.0
 11
-246.3609313964844
 21
84.1358871459961
 31
0.0
  0
LINE
  5
EB
330
22
100
AcDbEntity
  8
0
  6
Continuous
 62
     7
100
AcDbLine
 10
-207.9287719726564
 20
82.68063354492188
 30
0.0
 11
-246.3609313964844
 21
82.68063354492188
 31
0.0
  0
LINE
  5
EC
330
22
100
AcDbEntity
  8
0
  6
Continuous
 62
     7
100
AcDbLine
 10
-206.8350982666016
 20
47.68503189086914
 30
0.0
 11
-261.7859497070313
 21
47.68503189086914
 31
0.0
  0
LINE
  5
ED
330
22
100
AcDbEntity
  8
0
  6
Continuous
 62
     7
100
AcDbLine
 10
-192.2859497070313
 20
46.13588714599609
 30
0.0
 11
-261.7859497070313
 21
46.13588714599609
 31
0.0
  0
LINE
  5
EE
330
22
100
AcDbEntity
  8
0
  6
Continuous
 62
     7
100
AcDbLine
 10
-241.1859588623047
 20
108.6276931762695
 30
0.0
 11
-240.6777648925781
 21
109.1358871459961
 31
0.0
  0
LINE
  5
EF
330
22
100
AcDbEntity
  8
0
  6
Continuous
 62
     7
100
AcDbLine
 10
-243.3442687988281
 20
106.4693832397461
 30
0.0
 11
-242.6777648925781
 21
107.1358871459961
 31
0.0
  0
LINE
  5
F0
330
22
100
AcDbEntity
  8
0
  6
Continuous
 62
     7
100
AcDbLine
 10
-241.1859588623047
 20
107.2134780883789
 30
0.0
 11
-239.2635498046875
 21
109.1358871459961
 31
0.0
  0
LINE
  5
F1
330
22
100
AcDbEntity
  8
0
  6
Continuous
 62
     7
100
AcDbLine
 10
-243.5346527099609
 20
104.8647842407227
 30
0.0
 11
-241.2635498046875
 21
107.1358871459961
 31
0.0
  0
LINE
  5
F2
330
22
100
AcDbEntity
  8
0
  6
Continuous
 62
     7
100
AcDbLine
 10
-243.6702423095703
 20
103.3149795532227
 30
0.0
 11
-237.8493347167969
 21
109.1358871459961
 31
0.0
  0
LINE
  5
F3
330
22
100
AcDbEntity
  8
0
  6
Continuous
 62
     7
100
AcDbLine
 10
-243.8866271972656
 20
100.2701644897461
 30
0.0
 11
-235.0209045410156
 21
109.1358871459961
 31
0.0
  0
LINE
  5
F4
330
22
100
AcDbEntity
  8
0
  6
Continuous
 62
     7
100
AcDbLine
 10
-244.022216796875
 20
98.72035980224609
 30
0.0
 11
-233.606689453125
 21
109.1358871459961
 31
0.0
  0
LINE
  5
F5
330
22
100
AcDbEntity
  8
0
  6
Continuous
 62
     7
100
AcDbLine
 10
-244.1578063964844
 20
97.17055511474608
 30
0.0
 11
-232.1924743652344
 21
109.1358871459961
 31
0.0
  0
LINE
  5
F6
330
22
100
AcDbEntity
  8
0
  6
Continuous
 62
     7
100
AcDbLine
 10
-244.2126007080078
 20
97.1157684326172
 30
0.0
 11
-244.1924743652344
 21
97.13588714599609
 31
0.0
  0
LINE
  5
F7
330
22
100
AcDbEntity
  8
0
  6
Continuous
 62
     7
100
AcDbLine
 10
-244.3640594482422
 20
94.13588714599608
 30
0.0
 11
-229.3640594482422
 21
109.1358871459961
 31
0.0
  0
LINE
  5
F8
330
22
100
AcDbEntity
  8
0
  6
Continuous
 62
     7
100
AcDbLine
 10
-242.9498443603516
 20
94.13588714599608
 30
0.0
 11
-227.9498443603516
 21
109.1358871459961
 31
0.0
  0
LINE
  5
F9
330
22
100
AcDbEntity
  8
0
  6
Continuous
 62
     7
100
AcDbLine
 10
-241.5356292724609
 20
94.13588714599608
 30
0.0
 11
-226.5356292724609
 21
109.1358871459961
 31
0.0
  0
LINE
  5
FA
330
22
100
AcDbEntity
  8
0
  6
Continuous
 62
     7
100
AcDbLine
 10
-238.7071990966797
 20
94.13588714599608
 30
0.0
 11
-223.7071990966797
 21
109.1358871459961
 31
0.0
  0
LINE
  5
FB
330
22
100
AcDbEntity
  8
0
  6
Continuous
 62
     7
100
AcDbLine
 10
-237.2929840087891
 20
94.13588714599608
 30
0.0
 11
-222.2929840087891
 21
109.1358871459961
 31
0.0
  0
LINE
  5
FC
330
22
100
AcDbEntity
  8
0
  6
Continuous
 62
     7
100
AcDbLine
 10
-235.8787689208984
 20
94.13588714599608
 30
0.0
 11
-220.8787689208984
 21
109.1358871459961
 31
0.0
  0
LINE
  5
FD
330
22
100
AcDbEntity
  8
0
  6
Continuous
 62
     7
100
AcDbLine
 10
-233.0503387451172
 20
94.13588714599608
 30
0.0
 11
-218.0503387451172
 21
109.1358871459961
 31
0.0
  0
LINE
  5
FE
330
22
100
AcDbEntity
  8
0
  6
Continuous
 62
     7
100
AcDbLine
 10
-231.6361236572266
 20
94.13588714599608
 30
0.0
 11
-216.6361236572266
 21
109.1358871459961
 31
0.0
  0
LINE
  5
FF
330
22
100
AcDbEntity
  8
0
  6
Continuous
 62
     7
100
AcDbLine
 10
-230.221923828125
 20
94.13588714599608
 30
0.0
 11
-215.221923828125
 21
109.1358871459961
 31
0.0
  0
LINE
  5
100
330
22
100
AcDbEntity
  8
0
  6
Continuous
 62
     7
100
AcDbLine
 10
-215.3934936523438
 20
106.1358871459961
 30
0.0
 11
-213.4263153076172
 21
108.1030654907227
 31
0.0
  0
LINE
  5
101
330
22
100
AcDbEntity
  8
0
  6
Continuous
 62
     7
100
AcDbLine
 10
-227.3934936523438
 20
94.13588714599608
 30
0.0
 11
-216.2859497070313
 21
105.2434234619141
 31
0.0
  0
LINE
  5
102
330
22
100
AcDbEntity
  8
0
  6
Continuous
 62
     7
100
AcDbLine
 10
-213.9792785644531
 20
106.1358871459961
 30
0.0
 11
-213.5619049072266
 21
106.5532608032227
 31
0.0
  0
LINE
  5
103
330
22
100
AcDbEntity
  8
0
  6
Continuous
 62
     7
100
AcDbLine
 10
-225.9792785644531
 20
94.13588714599608
 30
0.0
 11
-216.2859497070313
 21
103.8292083740234
 31
0.0
  0
LINE
  5
104
330
22
100
AcDbEntity
  8
0
  6
Continuous
 62
     7
100
AcDbLine
 10
-224.5650634765625
 20
94.13588714599608
 30
0.0
 11
-215.7650604248047
 21
102.9358901977539
 31
0.0
  0
LINE
  5
105
330
22
100
AcDbEntity
  8
0
  6
Continuous
 62
     7
100
AcDbLine
 10
-221.7366333007813
 20
94.13588714599608
 30
0.0
 11
-213.9686737060547
 21
101.9038467407227
 31
0.0
  0
LINE
  5
106
330
22
100
AcDbEntity
  8
0
  6
Continuous
 62
     7
100
AcDbLine
 10
-220.3224182128906
 20
94.13588714599608
 30
0.0
 11
-214.1042633056641
 21
100.3540420532227
 31
0.0
  0
LINE
  5
107
330
22
100
AcDbEntity
  8
0
  6
Continuous
 62
     7
100
AcDbLine
 10
-218.908203125
 20
94.13588714599608
 30
0.0
 11
-214.2398529052734
 21
98.80423736572266
 31
0.0
  0
LINE
  5
108
330
22
100
AcDbEntity
  8
0
  6
Continuous
 62
     7
100
AcDbLine
 10
-216.0797882080078
 20
94.13588714599608
 30
0.0
 11
-214.5110321044922
 21
95.70462799072265
 31
0.0
  0
LINE
  5
109
330
22
100
AcDbEntity
  8
0
  6
Continuous
 62
     7
100
AcDbLine
 10
-214.6655731201172
 20
94.13588714599608
 30
0.0
 11
-214.6466217041016
 21
94.1548309326172
 31
0.0
  0
LINE
  5
10A
330
22
100
AcDbEntity
  8
0
  6
Continuous
 62
     7
100
AcDbLine
 10
-261.7859497070313
 20
109.1358871459961
 30
0.0
 11
-189.2859497070313
 21
109.1358871459961
 31
0.0
  0
LINE
  5
10B
330
22
100
AcDbEntity
  8
0
  6
Continuous
 62
     7
100
AcDbLine
 10
-246.3609313964844
 20
105.1358871459961
 30
0.0
 11
-246.3609313964844
 21
101.6358871459961
 31
0.0
  0
LINE
  5
10C
330
22
100
AcDbEntity
  8
0
  6
Continuous
 62
     7
100
AcDbLine
 10
-240.2388916015625
 20
75.17996978759765
 30
0.0
 11
-240.2388916015625
 21
71.17996978759766
 31
0.0
  0
LINE
  5
10D
330
22
100
AcDbEntity
  8
0
  6
Continuous
 62
     7
100
AcDbLine
 10
-239.2388916015625
 20
75.17996978759765
 30
0.0
 11
-239.2388916015625
 21
71.17996978759766
 31
0.0
  0
LINE
  5
10E
330
22
100
AcDbEntity
  8
0
  6
Continuous
 62
     7
100
AcDbLine
 10
-246.3609313964844
 20
75.17996978759765
 30
0.0
 11
-239.2388916015625
 21
75.17996978759765
 31
0.0
  0
LINE
  5
10F
330
22
100
AcDbEntity
  8
0
  6
Continuous
 62
     7
100
AcDbLine
 10
-246.2388916015625
 20
75.17996978759765
 30
0.0
 11
-246.2388916015625
 21
71.17996978759766
 31
0.0
  0
LINE
  5
110
330
22
100
AcDbEntity
  8
0
  6
Continuous
 62
     7
100
AcDbLine
 10
-243.3359527587891
 20
107.1358871459961
 30
0.0
 11
-244.4733123779297
 21
94.13588714599608
 31
0.0
  0
LINE
  5
111
330
22
100
AcDbEntity
  8
0
  6
Continuous
 62
     7
100
AcDbLine
 10
-241.1859588623047
 20
109.1358871459961
 30
0.0
 11
-241.1859588623047
 21
107.1358871459961
 31
0.0
  0
CIRCLE
  5
112
330
22
100
AcDbEntity
  8
0
  6
Continuous
 62
     7
100
AcDbCircle
 10
-261.7859497070313
 20
209.1358947753906
 30
0.0
 40
18.5
  0
CIRCLE
  5
113
330
22
100
AcDbEntity
  8
0
  6
Continuous
 62
     7
100
AcDbCircle
 10
-261.6859436035156
 20
209.2354125976563
 30
0.0
 40
19.0
  0
ARC
  5
114
330
22
100
AcDbEntity
  8
0
  6
Continuous
 62
     7
100
AcDbCircle
 10
-255.4806213378906
 20
209.3305511474609
 30
0.0
 40
3.200591087341308
100
AcDbArc
 50
273.4871004687429
 51
70.12727944665609
  0
ARC
  5
115
330
22
100
AcDbEntity
  8
0
  6
Continuous
 62
     7
100
AcDbCircle
 10
-261.7859497070313
 20
209.1358947753906
 30
0.0
 40
5.0
100
AcDbArc
 50
41.4928617905997
 51
90.00000000000019
  0
ARC
  5
116
330
22
100
AcDbEntity
  8
0
  6
Continuous
 62
     7
100
AcDbCircle
 10
-261.7859497070313
 20
209.1358947753906
 30
0.0
 40
5.0
100
AcDbArc
 50
216.8698976458447
 51
323.1301023541567
  0
ARC
  5
117
330
22
100
AcDbEntity
  8
0
  6
Continuous
 62
     7
100
AcDbCircle
 10
-268.0912780761719
 20
209.3305511474609
 30
0.0
 40
3.200591087341308
100
AcDbArc
 50
111.9117845361452
 51
251.6140284876378
  0
ARC
  5
118
330
22
100
AcDbEntity
  8
0
  6
Continuous
 62
     7
100
AcDbCircle
 10
-261.7859497070313
 20
209.1358947753906
 30
0.0
 40
5.0
100
AcDbArc
 50
90.00000000000019
 51
134.4421297321388
  0
CIRCLE
  5
119
330
22
100
AcDbEntity
  8
0
  6
Continuous
 62
     7
100
AcDbCircle
 10
-261.7859497070313
 20
209.1358947753906
 30
0.0
 40
73.0
  0
CIRCLE
  5
11A
330
22
100
AcDbEntity
  8
0
  6
Continuous
 62
     7
100
AcDbCircle
 10
-261.7859497070313
 20
209.1358947753906
 30
0.0
 40
48.25
  0
CIRCLE
  5
11B
330
22
100
AcDbEntity
  8
0
  6
Continuous
 62
     7
100
AcDbCircle
 10
-261.7859497070313
 20
209.1358947753906
 30
0.0
 40
48.5
  0
ARC
  5
11C
330
22
100
AcDbEntity
  8
0
  6
Continuous
 62
     7
100
AcDbCircle
 10
-190.2859497070313
 20
97.13588714599609
 30
0.0
 40
2.0
100
AcDbArc
 50
90.00000000000019
 51
180.0000000000004
  0
ARC
  5
11D
330
22
100
AcDbEntity
  8
0
  6
Continuous
 62
     7
100
AcDbCircle
 10
-333.2859497070313
 20
97.13588714599609
 30
0.0
 40
2.0
100
AcDbArc
 50
0.0
 51
90.00000000000019
  0
ARC
  5
11E
330
22
100
AcDbEntity
  8
0
  6
Continuous
 62
     7
100
AcDbCircle
 10
-244.3609313964844
 20
95.13588714599608
 30
0.0
 40
2.0
100
AcDbArc
 50
90.00000000000019
 51
180.0000000000004
  0
LWPOLYLINE
  5
11F
330
22
100
AcDbEntity
  8
0
  6
Continuous
 62
     7
100
AcDbPolyline
 90
       16
 70
     1
 43
0.0
 10
-214.9577026367188
 20
106.135888671875
 42
0.0984914033571643
 10
-215.4660007187655
 20
106.0140959238931
 42
0.0984914033571643
 10
-215.8969150255543
 20
105.6672595217735
 42
0.0984914033571643
 10
-216.1848427601243
 20
105.1481821636591
 42
0.0984914033571643
 10
-216.2859495349588
 20
104.535888671875
 42
0.0984914033571643
 10
-216.1848427601243
 20
103.9235951800907
 42
0.0984914033571643
 10
-215.8969150255543
 20
103.4045178219765
 42
0.0984914033571643
 10
-215.4660007187655
 20
103.0576814198569
 42
0.0984914033571643
 10
-214.9577026367186
 20
102.935888671875
 42
0.0984914033571643
 10
-214.449404554672
 20
103.0576814198569
 42
0.0984914033571643
 10
-214.0184902478832
 20
103.4045178219765
 42
0.0984914033571643
 10
-213.7305625133132
 20
103.9235951800909
 42
0.0984914033571643
 10
-213.6294557384787
 20
104.535888671875
 42
0.0984914033571643
 10
-213.7305625133132
 20
105.1481821636592
 42
0.0984914033571643
 10
-214.0184902478833
 20
105.6672595217735
 42
0.0984914033571643
 10
-214.449404554672
 20
106.0140959238931
 42
0.0984914033571643
  0
LWPOLYLINE
  5
131
330
22
100
AcDbEntity
  8
0
  6
Continuous
 62
     7
100
AcDbPolyline
 90
       16
 70
     1
 43
0.0
 10
-245.0640411376953
 20
105.1358871459961
 42
0.0984914033571643
 10
-245.5603411763516
 20
105.0026763278908
 42
0.0984914033571643
 10
-245.9810840330935
 20
104.6233240130725
 42
0.0984914033571643
 10
-246.2622154220256
 20
104.055583152635
 42
0.0984914033571643
 10
-246.3609356376453
 20
103.3858871459961
 42
0.0984914033571643
 10
-246.2622154220256
 20
102.7161911393572
 42
0.0984914033571643
 10
-245.9810840330935
 20
102.1484502789196
 42
0.0984914033571643
 10
-245.5603411763516
 20
101.7690979641013
 42
0.0984914033571643
 10
-245.0640411376953
 20
101.6358871459961
 42
0.0984914033571643
 10
-244.567741099039
 20
101.7690979641014
 42
0.0984914033571643
 10
-244.1469982422971
 20
102.1484502789197
 42
0.0984914033571643
 10
-243.8658668533651
 20
102.7161911393572
 42
0.0984914033571643
 10
-243.7671466377453
 20
103.3858871459961
 42
0.0984914033571643
 10
-243.8658668533651
 20
104.055583152635
 42
0.0984914033571643
 10
-244.1469982422971
 20
104.6233240130726
 42
0.0984914033571643
 10
-244.5677410990391
 20
105.0026763278909
 42
0.0984914033571643
  0
TEXT
  5
143
330
22
100
AcDbEntity
  8
0
  6
Continuous
 62
     7
100
AcDbText
 10
-189.2243585586548
 20
155.6248016357422
 30
0.0
 40
7.0
  1
ＤＬ－ＨＳＰ－１００Ｇ
 41
0.8440126641457824
100
AcDbText
  0
SOLID
  5
144
330
22
100
AcDbEntity
  8
0
  6
Continuous
 62
     7
100
AcDbTrace
 10
-214.6985778808594
 20
106.1051406860352
 30
0.0
 11
-215.2168426513672
 21
106.1051406860352
 31
0.0
 12
-214.9577026367188
 22
106.1358871459961
 32
0.0
 13
-214.9577026367188
 23
106.1358871459961
 33
0.0
  0
SOLID
  5
145
330
22
100
AcDbEntity
  8
0
  6
Continuous
 62
     7
100
AcDbTrace
 10
-214.9577026367188
 20
102.9358901977539
 30
0.0
 11
-215.2168426513672
 21
102.9666290283203
 31
0.0
 12
-214.6985778808594
 22
102.9666290283203
 32
0.0
 13
-214.6985778808594
 23
102.9666290283203
 33
0.0
  0
SOLID
  5
146
330
22
100
AcDbEntity
  8
0
  6
Continuous
 62
     7
100
AcDbTrace
 10
-214.4494171142578
 20
106.0140914916992
 30
0.0
 11
-215.4660034179688
 21
106.0140914916992
 31
0.0
 12
-214.6985778808594
 22
106.1051406860352
 32
0.0
 13
-215.2168426513672
 23
106.1051406860352
 33
0.0
  0
SOLID
  5
147
330
22
100
AcDbEntity
  8
0
  6
Continuous
 62
     7
100
AcDbTrace
 10
-214.2197723388672
 20
105.8662414550781
 30
0.0
 11
-215.6956481933594
 21
105.8662414550781
 31
0.0
 12
-214.4494171142578
 22
106.0140914916992
 32
0.0
 13
-215.4660034179688
 23
106.0140914916992
 33
0.0
  0
SOLID
  5
148
330
22
100
AcDbEntity
  8
0
  6
Continuous
 62
     7
100
AcDbTrace
 10
-214.0184936523438
 20
105.6672592163086
 30
0.0
 11
-215.8969268798828
 21
105.6672592163086
 31
0.0
 12
-214.2197723388672
 22
105.8662414550781
 32
0.0
 13
-215.6956481933594
 23
105.8662414550781
 33
0.0
  0
SOLID
  5
149
330
22
100
AcDbEntity
  8
0
  6
Continuous
 62
     7
100
AcDbTrace
 10
-213.8533172607422
 20
105.4247970581055
 30
0.0
 11
-216.0621032714844
 21
105.4247970581055
 31
0.0
 12
-214.0184936523438
 22
105.6672592163086
 32
0.0
 13
-215.8969268798828
 23
105.6672592163086
 33
0.0
  0
SOLID
  5
14A
330
22
100
AcDbEntity
  8
0
  6
Continuous
 62
     7
100
AcDbTrace
 10
-213.7305603027344
 20
105.1481781005859
 30
0.0
 11
-216.1848449707031
 21
105.1481781005859
 31
0.0
 12
-213.8533172607422
 22
105.4247970581055
 32
0.0
 13
-216.0621032714844
 23
105.4247970581055
 33
0.0
  0
SOLID
  5
14B
330
22
100
AcDbEntity
  8
0
  6
Continuous
 62
     7
100
AcDbTrace
 10
-213.6549835205078
 20
104.848030090332
 30
0.0
 11
-216.2604370117188
 21
104.848030090332
 31
0.0
 12
-213.7305603027344
 22
105.1481781005859
 32
0.0
 13
-216.1848449707031
 23
105.1481781005859
 33
0.0
  0
SOLID
  5
14C
330
22
100
AcDbEntity
  8
0
  6
Continuous
 62
     7
100
AcDbTrace
 10
-213.6294555664064
 20
104.535888671875
 30
0.0
 11
-216.2859497070313
 21
104.535888671875
 31
0.0
 12
-213.6549835205078
 22
104.848030090332
 32
0.0
 13
-216.2604370117188
 23
104.848030090332
 33
0.0
  0
SOLID
  5
14D
330
22
100
AcDbEntity
  8
0
  6
Continuous
 62
     7
100
AcDbTrace
 10
-213.6549835205078
 20
104.2237396240234
 30
0.0
 11
-216.2604370117188
 21
104.2237396240234
 31
0.0
 12
-213.6294555664064
 22
104.535888671875
 32
0.0
 13
-216.2859497070313
 23
104.535888671875
 33
0.0
  0
SOLID
  5
14E
330
22
100
AcDbEntity
  8
0
  6
Continuous
 62
     7
100
AcDbTrace
 10
-213.7305603027344
 20
103.9235916137695
 30
0.0
 11
-216.1848449707031
 21
103.9235916137695
 31
0.0
 12
-213.6549835205078
 22
104.2237396240234
 32
0.0
 13
-216.2604370117188
 23
104.2237396240234
 33
0.0
  0
SOLID
  5
14F
330
22
100
AcDbEntity
  8
0
  6
Continuous
 62
     7
100
AcDbTrace
 10
-213.8533172607422
 20
103.64697265625
 30
0.0
 11
-216.0621032714844
 21
103.64697265625
 31
0.0
 12
-213.7305603027344
 22
103.9235916137695
 32
0.0
 13
-216.1848449707031
 23
103.9235916137695
 33
0.0
  0
SOLID
  5
150
330
22
100
AcDbEntity
  8
0
  6
Continuous
 62
     7
100
AcDbTrace
 10
-214.0184936523438
 20
103.4045181274414
 30
0.0
 11
-215.8969268798828
 21
103.4045181274414
 31
0.0
 12
-213.8533172607422
 22
103.64697265625
 32
0.0
 13
-216.0621032714844
 23
103.64697265625
 33
0.0
  0
SOLID
  5
151
330
22
100
AcDbEntity
  8
0
  6
Continuous
 62
     7
100
AcDbTrace
 10
-214.2197723388672
 20
103.2055358886719
 30
0.0
 11
-215.6956481933594
 21
103.2055358886719
 31
0.0
 12
-214.0184936523438
 22
103.4045181274414
 32
0.0
 13
-215.8969268798828
 23
103.4045181274414
 33
0.0
  0
SOLID
  5
152
330
22
100
AcDbEntity
  8
0
  6
Continuous
 62
     7
100
AcDbTrace
 10
-214.4494171142578
 20
103.0576782226563
 30
0.0
 11
-215.4660034179688
 21
103.0576782226563
 31
0.0
 12
-214.2197723388672
 22
103.2055358886719
 32
0.0
 13
-215.6956481933594
 23
103.2055358886719
 33
0.0
  0
SOLID
  5
153
330
22
100
AcDbEntity
  8
0
  6
Continuous
 62
     7
100
AcDbTrace
 10
-214.6985778808594
 20
102.9666290283203
 30
0.0
 11
-215.2168426513672
 21
102.9666290283203
 31
0.0
 12
-214.4494171142578
 22
103.0576782226563
 32
0.0
 13
-215.4660034179688
 23
103.0576782226563
 33
0.0
  0
SOLID
  5
154
330
22
100
AcDbEntity
  8
0
  6
Continuous
 62
     7
100
AcDbTrace
 10
-244.8110198974609
 20
105.1022644042969
 30
0.0
 11
-245.3170471191406
 21
105.1022644042969
 31
0.0
 12
-245.0640411376953
 22
105.1358871459961
 32
0.0
 13
-245.0640411376953
 23
105.1358871459961
 33
0.0
  0
SOLID
  5
155
330
22
100
AcDbEntity
  8
0
  6
Continuous
 62
     7
100
AcDbTrace
 10
-245.0640411376953
 20
101.6358871459961
 30
0.0
 11
-245.3170471191406
 21
101.6695098876953
 31
0.0
 12
-244.8110198974609
 22
101.6695098876953
 32
0.0
 13
-244.8110198974609
 23
101.6695098876953
 33
0.0
  0
SOLID
  5
156
330
22
100
AcDbEntity
  8
0
  6
Continuous
 62
     7
100
AcDbTrace
 10
-244.5677337646484
 20
105.0026779174805
 30
0.0
 11
-245.5603332519531
 21
105.0026779174805
 31
0.0
 12
-244.8110198974609
 22
105.1022644042969
 32
0.0
 13
-245.3170471191406
 23
105.1022644042969
 33
0.0
  0
SOLID
  5
157
330
22
100
AcDbEntity
  8
0
  6
Continuous
 62
     7
100
AcDbTrace
 10
-244.3435211181641
 20
104.8409576416016
 30
0.0
 11
-245.7845458984375
 21
104.8409576416016
 31
0.0
 12
-244.5677337646484
 22
105.0026779174805
 32
0.0
 13
-245.5603332519531
 23
105.0026779174805
 33
0.0
  0
SOLID
  5
158
330
22
100
AcDbEntity
  8
0
  6
Continuous
 62
     7
100
AcDbTrace
 10
-244.1469879150391
 20
104.6233215332031
 30
0.0
 11
-245.9810791015625
 21
104.6233215332031
 31
0.0
 12
-244.3435211181641
 22
104.8409576416016
 32
0.0
 13
-245.7845458984375
 23
104.8409576416016
 33
0.0
  0
SOLID
  5
159
330
22
100
AcDbEntity
  8
0
  6
Continuous
 62
     7
100
AcDbTrace
 10
-243.9857025146484
 20
104.3581390380859
 30
0.0
 11
-246.1423645019531
 21
104.3581390380859
 31
0.0
 12
-244.1469879150391
 22
104.6233215332031
 32
0.0
 13
-245.9810791015625
 23
104.6233215332031
 33
0.0
  0
SOLID
  5
15A
330
22
100
AcDbEntity
  8
0
  6
Continuous
 62
     7
100
AcDbTrace
 10
-243.8658599853516
 20
104.0555801391602
 30
0.0
 11
-246.26220703125
 21
104.0555801391602
 31
0.0
 12
-243.9857025146484
 22
104.3581390380859
 32
0.0
 13
-246.1423645019531
 23
104.3581390380859
 33
0.0
  0
SOLID
  5
15B
330
22
100
AcDbEntity
  8
0
  6
Continuous
 62
     7
100
AcDbTrace
 10
-243.7920684814453
 20
103.727294921875
 30
0.0
 11
-246.3360137939453
 21
103.727294921875
 31
0.0
 12
-243.8658599853516
 22
104.0555801391602
 32
0.0
 13
-246.26220703125
 23
104.0555801391602
 33
0.0
  0
SOLID
  5
15C
330
22
100
AcDbEntity
  8
0
  6
Continuous
 62
     7
100
AcDbTrace
 10
-243.7671356201172
 20
103.3858871459961
 30
0.0
 11
-246.3609313964844
 21
103.3858871459961
 31
0.0
 12
-243.7920684814453
 22
103.727294921875
 32
0.0
 13
-246.3360137939453
 23
103.727294921875
 33
0.0
  0
SOLID
  5
15D
330
22
100
AcDbEntity
  8
0
  6
Continuous
 62
     7
100
AcDbTrace
 10
-243.7920684814453
 20
103.0444793701172
 30
0.0
 11
-246.3360137939453
 21
103.0444793701172
 31
0.0
 12
-243.7671356201172
 22
103.3858871459961
 32
0.0
 13
-246.3609313964844
 23
103.3858871459961
 33
0.0
  0
SOLID
  5
15E
330
22
100
AcDbEntity
  8
0
  6
Continuous
 62
     7
100
AcDbTrace
 10
-243.8658599853516
 20
102.716194152832
 30
0.0
 11
-246.26220703125
 21
102.716194152832
 31
0.0
 12
-243.7920684814453
 22
103.0444793701172
 32
0.0
 13
-246.3360137939453
 23
103.0444793701172
 33
0.0
  0
SOLID
  5
15F
330
22
100
AcDbEntity
  8
0
  6
Continuous
 62
     7
100
AcDbTrace
 10
-243.9857025146484
 20
102.4136428833008
 30
0.0
 11
-246.1423645019531
 21
102.4136428833008
 31
0.0
 12
-243.8658599853516
 22
102.716194152832
 32
0.0
 13
-246.26220703125
 23
102.716194152832
 33
0.0
  0
SOLID
  5
160
330
22
100
AcDbEntity
  8
0
  6
Continuous
 62
     7
100
AcDbTrace
 10
-244.1469879150391
 20
102.1484527587891
 30
0.0
 11
-245.9810791015625
 21
102.1484527587891
 31
0.0
 12
-243.9857025146484
 22
102.4136428833008
 32
0.0
 13
-246.1423645019531
 23
102.4136428833008
 33
0.0
  0
SOLID
  5
161
330
22
100
AcDbEntity
  8
0
  6
Continuous
 62
     7
100
AcDbTrace
 10
-244.3435211181641
 20
101.9308166503906
 30
0.0
 11
-245.7845458984375
 21
101.9308166503906
 31
0.0
 12
-244.1469879150391
 22
102.1484527587891
 32
0.0
 13
-245.9810791015625
 23
102.1484527587891
 33
0.0
  0
SOLID
  5
162
330
22
100
AcDbEntity
  8
0
  6
Continuous
 62
     7
100
AcDbTrace
 10
-244.5677337646484
 20
101.7690963745117
 30
0.0
 11
-245.5603332519531
 21
101.7690963745117
 31
0.0
 12
-244.3435211181641
 22
101.9308166503906
 32
0.0
 13
-245.7845458984375
 23
101.9308166503906
 33
0.0
  0
SOLID
  5
163
330
22
100
AcDbEntity
  8
0
  6
Continuous
 62
     7
100
AcDbTrace
 10
-244.8110198974609
 20
101.6695098876953
 30
0.0
 11
-245.3170471191406
 21
101.6695098876953
 31
0.0
 12
-244.5677337646484
 22
101.7690963745117
 32
0.0
 13
-245.5603332519531
 23
101.7690963745117
 33
0.0
  0
DIMENSION
  5
164
330
22
100
AcDbEntity
  8
0
  6
Continuous
 62
     7
100
AcDbDimension
  2
*D1
 10
-278.7162826418762
 20
217.8588589339714
 30
0.0
 11
-229.6241912841797
 21
192.8538513183594
 31
0.0
 70
     3
 71
     5
 42
-1.0
  3
DIMSTYLE1
100
AcDbDiametricDimension
 15
-244.8556167721864
 25
200.6119662613411
 35
0.0
 40
0.0
  0
DIMENSION
  5
165
330
22
100
AcDbEntity
  8
0
  6
Continuous
 62
     7
100
AcDbDimension
  2
*D2
 10
-326.693754708482
 20
175.7296550903609
 30
0.0
 11
-174.4411468505859
 21
254.0898284912109
 31
0.0
 70
     3
 71
     5
 42
-1.0
  3
DIMSTYLE2
100
AcDbDiametricDimension
 15
-196.8781447055806
 25
242.5421344604204
 35
0.0
 40
0.0
  0
DIMENSION
  5
166
330
22
100
AcDbEntity
  8
0
  6
Continuous
 62
     7
100
AcDbDimension
  2
*D3
 10
-309.475899626816
 20
200.3087391379038
 30
0.0
 11
-178.3430328369141
 21
224.5807342529297
 31
0.0
 70
     3
 71
     5
 42
-1.0
  3
DIMSTYLE3
100
AcDbDiametricDimension
 15
-214.0959997872464
 25
217.9630504128775
 35
0.0
 40
0.0
  0
DIMENSION
  5
167
330
22
100
AcDbEntity
  8
0
  6
Continuous
 62
     7
100
AcDbDimension
  2
*D4
 10
-373.0423889160156
 20
109.1358871459961
 30
0.0
 11
-373.0423889160156
 21
77.6358871459961
 31
0.0
 71
     5
 42
-1.0
  3
DIMSTYLE4
100
AcDbAlignedDimension
 13
-331.2859497070313
 23
46.13588714599609
 33
0.0
 14
-334.2859497070313
 24
109.1358871459961
 34
0.0
 50
90.0
100
AcDbRotatedDimension
  0
INSERT
  5
168
330
22
100
AcDbEntity
  8
0
  6
Continuous
 62
     7
100
AcDbBlockReference
  2
KOZU0001
 10
-207.2725677490234
 20
61.68327331542968
 30
0.0
  0
ENDSEC
  0
SECTION
  2
OBJECTS
  0
DICTIONARY
  5
C
330
0
100
AcDbDictionary
281
     1
  3
ACAD_COLOR
350
1B
  3
ACAD_GROUP
350
D
  3
ACAD_LAYOUT
350
19
  3
ACAD_MATERIAL
350
1A
  3
ACAD_MLINESTYLE
350
16
  3
ACAD_PLOTSETTINGS
350
18
  3
ACAD_PLOTSTYLENAME
350
E
  3
ACAD_TABLESTYLE
350
1C
  3
AcDbVariableDictionary
350
174
  0
DICTIONARY
  5
1B
102
{ACAD_REACTORS
330
C
102
}
330
C
100
AcDbDictionary
281
     1
  0
DICTIONARY
  5
D
102
{ACAD_REACTORS
330
C
102
}
330
C
100
AcDbDictionary
281
     1
  0
DICTIONARY
  5
19
102
{ACAD_REACTORS
330
C
102
}
330
C
100
AcDbDictionary
281
     1
  3
Model
350
25
  3
レイアウト1
350
21
  0
DICTIONARY
  5
1A
102
{ACAD_REACTORS
330
C
102
}
330
C
100
AcDbDictionary
281
     1
  0
DICTIONARY
  5
16
102
{ACAD_REACTORS
330
C
102
}
330
C
100
AcDbDictionary
281
     1
  3
Standard
350
17
  0
DICTIONARY
  5
18
102
{ACAD_REACTORS
330
C
102
}
330
C
100
AcDbDictionary
281
     1
  0
ACDBDICTIONARYWDFLT
  5
E
102
{ACAD_REACTORS
330
C
102
}
330
C
100
AcDbDictionary
281
     1
  3
Normal
350
F
100
AcDbDictionaryWithDefault
340
F
  0
DICTIONARY
  5
1C
102
{ACAD_REACTORS
330
C
102
}
330
C
100
AcDbDictionary
281
     1
  3
Standard
350
1D
  0
DICTIONARY
  5
174
102
{ACAD_REACTORS
330
C
102
}
330
C
100
AcDbDictionary
281
     1
  3
CTABLESTYLE
350
175
  0
LAYOUT
  5
25
102
{ACAD_REACTORS
330
19
102
}
330
19
100
AcDbPlotSettings
  1

  2
PDF reDirect v2
  4
A3
  6

 40
3.174999952316284
 41
3.174999952316284
 42
3.17498779296875
 43
3.17498779296875
 44
297.0530090332031
 45
420.1583251953125
 46
0.0
 47
0.0
 48
0.0
 49
0.0
140
0.0
141
0.0
142
1.0
143
1.0
 70
 11952
 72
     1
 73
     1
 74
     2
  7
C:\Users\ck\AppData\Roaming\Autodesk\AutoCAD 2005\R16.1\jpn\Plot Styles\black.ctb
 75
    16
147
1.0
 76
     0
 77
     2
 78
   300
148
423.0
149
2.0
100
AcDbLayout
  1
Model
 70
     1
 71
     0
 10
0.0
 20
0.0
 11
12.0
 21
9.0
 12
0.0
 22
0.0
 32
0.0
 14
0.0
 24
0.0
 34
0.0
 15
0.0
 25
0.0
 35
0.0
146
0.0
 13
0.0
 23
0.0
 33
0.0
 16
1.0
 26
0.0
 36
0.0
 17
0.0
 27
1.0
 37
0.0
 76
     0
330
22
1001
ACAD_PSEXT
1000
PDF reDirect v2
1000
PDF reDirect Pro
1000
PDF_REDIRECT_PORT:
1000
PDF reDirect provided by EXP Systems
1070
     0
  0
LAYOUT
  5
21
102
{ACAD_REACTORS
330
19
102
}
330
19
100
AcDbPlotSettings
  1

  2
PDF reDirect v2
  4

  6

 40
0.0
 41
0.0
 42
0.0
 43
0.0
 44
0.0
 45
0.0
 46
0.0
 47
0.0
 48
0.0
 49
0.0
140
0.0
141
0.0
142
1.0
143
1.0
 70
   688
 72
     0
 73
     0
 74
     5
  7
C:\Users\ck\AppData\Roaming\Autodesk\AutoCAD 2005\R16.1\jpn\Plot Styles\black.ctb
 75
    16
147
1.0
 76
     0
 77
     2
 78
   300
148
0.0
149
0.0
100
AcDbLayout
  1
レイアウト1
 70
     1
 71
     1
 10
-423.0
 20
-2.0
 11
-5.0
 21
293.0
 12
0.0
 22
0.0
 32
0.0
 14
1.000000000000000E+20
 24
1.000000000000000E+20
 34
1.000000000000000E+20
 15
-1.000000000000000E+20
 25
-1.000000000000000E+20
 35
-1.000000000000000E+20
146
0.0
 13
0.0
 23
0.0
 33
0.0
 16
1.0
 26
0.0
 36
0.0
 17
0.0
 27
1.0
 37
0.0
 76
     0
330
1E
  0
MLINESTYLE
  5
17
102
{ACAD_REACTORS
330
16
102
}
330
16
100
AcDbMlineStyle
  2
STANDARD
 70
     0
  3

 62
   256
 51
90.0
 52
90.0
 71
     2
 49
0.5
 62
   256
  6
BYLAYER
 49
-0.5
 62
   256
  6
BYLAYER
  0
ACDBPLACEHOLDER
  5
F
102
{ACAD_REACTORS
330
E
102
}
330
E
  0
TABLESTYLE
  5
1D
102
{ACAD_REACTORS
330
1C
102
}
330
1C
100
AcDbTableStyle
  3
Standard
 70
     0
 71
     0
 40
0.06
 41
0.06
280
     0
281
     0
  7
STANDARD
140
0.18
170
     2
 62
     0
 63
     7
283
     0
274
    -2
284
     1
 64
     0
275
    -2
285
     1
 65
     0
276
    -2
286
     1
 66
     0
277
    -2
287
     1
 67
     0
278
    -2
288
     1
 68
     0
279
    -2
289
     1
 69
     0
  7
STANDARD
140
0.25
170
     5
 62
     0
 63
     7
283
     0
274
    -2
284
     1
 64
     0
275
    -2
285
     1
 65
     0
276
    -2
286
     1
 66
     0
277
    -2
287
     1
 67
     0
278
    -2
288
     1
 68
     0
279
    -2
289
     1
 69
     0
  7
STANDARD
140
0.18
170
     5
 62
     0
 63
     7
283
     0
274
    -2
284
     1
 64
     0
275
    -2
285
     1
 65
     0
276
    -2
286
     1
 66
     0
277
    -2
287
     1
 67
     0
278
    -2
288
     1
 68
     0
279
    -2
289
     1
 69
     0
  0
DICTIONARYVAR
  5
175
102
{ACAD_REACTORS
330
174
102
}
330
174
100
DictionaryVariables
280
     0
  1
STANDARD
  0
ENDSEC
  0
EOF
