  0
SECTION
  2
HEADER
  9
$ACADVER
  1
AC1018
  9
$ACADMAINTVER
 70
    39
  9
$DWGCODEPAGE
  3
ANSI_932
  9
$INSBASE
 10
0.0
 20
0.0
 30
0.0
  9
$EXTMIN
 10
-562.0516487251173
 20
25.23220965735641
 30
-0.0015258207003583
  9
$EXTMAX
 10
-264.658308291177
 20
561.8449873040021
 30
0.0000000349246037
  9
$LIMMIN
 10
-839.0
 20
0.0
  9
$LIMMAX
 10
0.0
 20
591.0
  9
$ORTHOMODE
 70
     0
  9
$REGENMODE
 70
     1
  9
$FILLMODE
 70
     1
  9
$QTEXTMODE
 70
     0
  9
$MIRRTEXT
 70
     0
  9
$LTSCALE
 40
1.0
  9
$ATTMODE
 70
     1
  9
$TEXTSIZE
 40
0.2
  9
$TRACEWID
 40
0.05
  9
$TEXTSTYLE
  7
STANDARD
  9
$CLAYER
  8
0
  9
$CELTYPE
  6
CONTINUOUS
  9
$CECOLOR
 62
   256
  9
$CELTSCALE
 40
1.0
  9
$DISPSILH
 70
     0
  9
$DIMSCALE
 40
1.0
  9
$DIMASZ
 40
1.0
  9
$DIMEXO
 40
2.54
  9
$DIMDLI
 40
0.38
  9
$DIMRND
 40
0.0
  9
$DIMDLE
 40
0.0
  9
$DIMEXE
 40
2.54
  9
$DIMTP
 40
0.0
  9
$DIMTM
 40
0.0
  9
$DIMTXT
 40
3.0
  9
$DIMCEN
 40
0.09
  9
$DIMTSZ
 40
0.0
  9
$DIMTOL
 70
     0
  9
$DIMLIM
 70
     0
  9
$DIMTIH
 70
     0
  9
$DIMTOH
 70
     0
  9
$DIMSE1
 70
     0
  9
$DIMSE2
 70
     0
  9
$DIMTAD
 70
     1
  9
$DIMZIN
 70
     0
  9
$DIMBLK
  1

  9
$DIMASO
 70
     1
  9
$DIMSHO
 70
     0
  9
$DIMPOST
  1

  9
$DIMAPOST
  1

  9
$DIMALT
 70
     0
  9
$DIMALTD
 70
     2
  9
$DIMALTF
 40
25.4
  9
$DIMLFAC
 40
1.0
  9
$DIMTOFL
 70
     0
  9
$DIMTVP
 40
1.0
  9
$DIMTIX
 70
     0
  9
$DIMSOXD
 70
     0
  9
$DIMSAH
 70
     1
  9
$DIMBLK1
  1

  9
$DIMBLK2
  1

  9
$DIMSTYLE
  2
DIMSTYLE1
  9
$DIMCLRD
 70
     0
  9
$DIMCLRE
 70
     0
  9
$DIMCLRT
 70
     0
  9
$DIMTFAC
 40
1.0
  9
$DIMGAP
 40
1.5
  9
$DIMJUST
 70
     0
  9
$DIMSD1
 70
     0
  9
$DIMSD2
 70
     0
  9
$DIMTOLJ
 70
     1
  9
$DIMTZIN
 70
     0
  9
$DIMALTZ
 70
     0
  9
$DIMALTTZ
 70
     0
  9
$DIMUPT
 70
     0
  9
$DIMDEC
 70
     4
  9
$DIMTDEC
 70
     4
  9
$DIMALTU
 70
     2
  9
$DIMALTTD
 70
     2
  9
$DIMTXSTY
  7
STANDARD
  9
$DIMAUNIT
 70
     0
  9
$DIMADEC
 70
     0
  9
$DIMALTRND
 40
0.0
  9
$DIMAZIN
 70
     0
  9
$DIMDSEP
 70
    46
  9
$DIMATFIT
 70
     3
  9
$DIMFRAC
 70
     0
  9
$DIMLDRBLK
  1

  9
$DIMLUNIT
 70
     2
  9
$DIMLWD
 70
    -2
  9
$DIMLWE
 70
    -2
  9
$DIMTMOVE
 70
     0
  9
$LUNITS
 70
     2
  9
$LUPREC
 70
     4
  9
$SKETCHINC
 40
0.1
  9
$FILLETRAD
 40
0.0
  9
$AUNITS
 70
     0
  9
$AUPREC
 70
     0
  9
$MENU
  1
.
  9
$ELEVATION
 40
0.0
  9
$PELEVATION
 40
0.0
  9
$THICKNESS
 40
0.0
  9
$LIMCHECK
 70
     0
  9
$CHAMFERA
 40
0.0
  9
$CHAMFERB
 40
0.0
  9
$CHAMFERC
 40
0.0
  9
$CHAMFERD
 40
0.0
  9
$SKPOLY
 70
     0
  9
$TDCREATE
 40
2457843.948709745
  9
$TDUCREATE
 40
2457843.573709745
  9
$TDUPDATE
 40
2457843.949217315
  9
$TDUUPDATE
 40
2457843.574217315
  9
$TDINDWG
 40
0.0005088426
  9
$TDUSRTIMER
 40
0.0005088426
  9
$USRTIMER
 70
     1
  9
$ANGBASE
 50
0.0
  9
$ANGDIR
 70
     0
  9
$PDMODE
 70
     0
  9
$PDSIZE
 40
0.0
  9
$PLINEWID
 40
0.0
  9
$SPLFRAME
 70
     0
  9
$SPLINETYPE
 70
     6
  9
$SPLINESEGS
 70
     8
  9
$HANDSEED
  5
2A1
  9
$SURFTAB1
 70
     6
  9
$SURFTAB2
 70
     6
  9
$SURFTYPE
 70
     6
  9
$SURFU
 70
     6
  9
$SURFV
 70
     6
  9
$UCSBASE
  2

  9
$UCSNAME
  2

  9
$UCSORG
 10
0.0
 20
0.0
 30
0.0
  9
$UCSXDIR
 10
1.0
 20
0.0
 30
0.0
  9
$UCSYDIR
 10
0.0
 20
1.0
 30
0.0
  9
$UCSORTHOREF
  2

  9
$UCSORTHOVIEW
 70
     0
  9
$UCSORGTOP
 10
0.0
 20
0.0
 30
0.0
  9
$UCSORGBOTTOM
 10
0.0
 20
0.0
 30
0.0
  9
$UCSORGLEFT
 10
0.0
 20
0.0
 30
0.0
  9
$UCSORGRIGHT
 10
0.0
 20
0.0
 30
0.0
  9
$UCSORGFRONT
 10
0.0
 20
0.0
 30
0.0
  9
$UCSORGBACK
 10
0.0
 20
0.0
 30
0.0
  9
$PUCSBASE
  2

  9
$PUCSNAME
  2

  9
$PUCSORG
 10
0.0
 20
0.0
 30
0.0
  9
$PUCSXDIR
 10
1.0
 20
0.0
 30
0.0
  9
$PUCSYDIR
 10
0.0
 20
1.0
 30
0.0
  9
$PUCSORTHOREF
  2

  9
$PUCSORTHOVIEW
 70
     0
  9
$PUCSORGTOP
 10
0.0
 20
0.0
 30
0.0
  9
$PUCSORGBOTTOM
 10
0.0
 20
0.0
 30
0.0
  9
$PUCSORGLEFT
 10
0.0
 20
0.0
 30
0.0
  9
$PUCSORGRIGHT
 10
0.0
 20
0.0
 30
0.0
  9
$PUCSORGFRONT
 10
0.0
 20
0.0
 30
0.0
  9
$PUCSORGBACK
 10
0.0
 20
0.0
 30
0.0
  9
$USERI1
 70
     0
  9
$USERI2
 70
     0
  9
$USERI3
 70
     0
  9
$USERI4
 70
     0
  9
$USERI5
 70
     0
  9
$USERR1
 40
0.0
  9
$USERR2
 40
0.0
  9
$USERR3
 40
0.0
  9
$USERR4
 40
0.0
  9
$USERR5
 40
0.0
  9
$WORLDVIEW
 70
     1
  9
$SHADEDGE
 70
     3
  9
$SHADEDIF
 70
    70
  9
$TILEMODE
 70
     1
  9
$MAXACTVP
 70
    64
  9
$PINSBASE
 10
0.0
 20
0.0
 30
0.0
  9
$PLIMCHECK
 70
     0
  9
$PEXTMIN
 10
1.000000000000000E+20
 20
1.000000000000000E+20
 30
1.000000000000000E+20
  9
$PEXTMAX
 10
-1.000000000000000E+20
 20
-1.000000000000000E+20
 30
-1.000000000000000E+20
  9
$PLIMMIN
 10
-839.0
 20
0.0
  9
$PLIMMAX
 10
0.0
 20
591.0
  9
$UNITMODE
 70
     0
  9
$VISRETAIN
 70
     1
  9
$PLINEGEN
 70
     0
  9
$PSLTSCALE
 70
     1
  9
$TREEDEPTH
 70
  3020
  9
$CMLSTYLE
  2
Standard
  9
$CMLJUST
 70
     0
  9
$CMLSCALE
 40
1.0
  9
$PROXYGRAPHICS
 70
     1
  9
$MEASUREMENT
 70
     0
  9
$CELWEIGHT
370
    -1
  9
$ENDCAPS
280
     0
  9
$JOINSTYLE
280
     0
  9
$LWDISPLAY
290
     0
  9
$INSUNITS
 70
     0
  9
$HYPERLINKBASE
  1

  9
$STYLESHEET
  1

  9
$XEDIT
290
     1
  9
$CEPSNTYPE
380
     0
  9
$PSTYLEMODE
290
     1
  9
$FINGERPRINTGUID
  2
{E33340E7-DFC4-4BD9-8448-49F505A5EF90}
  9
$VERSIONGUID
  2
{DC7CD221-2C2E-44CD-8AC3-7ABFC3706AF0}
  9
$EXTNAMES
290
     1
  9
$PSVPSCALE
 40
0.0
  9
$OLESTARTUP
290
     0
  9
$SORTENTS
280
   127
  9
$INDEXCTL
280
     0
  9
$HIDETEXT
280
     0
  9
$XCLIPFRAME
290
     0
  9
$HALOGAP
280
     0
  9
$OBSCOLOR
 70
   257
  9
$OBSLTYPE
280
     0
  9
$INTERSECTIONDISPLAY
280
     0
  9
$INTERSECTIONCOLOR
 70
   257
  9
$DIMASSOC
280
     1
  9
$PROJECTNAME
  1

  0
ENDSEC
  0
SECTION
  2
CLASSES
  0
CLASS
  1
ACDBDICTIONARYWDFLT
  2
AcDbDictionaryWithDefault
  3
ObjectDBX Classes
 90
        0
 91
        1
280
     0
281
     0
  0
CLASS
  1
TABLESTYLE
  2
AcDbTableStyle
  3
ObjectDBX Classes
 90
     2047
 91
        1
280
     0
281
     0
  0
CLASS
  1
DICTIONARYVAR
  2
AcDbDictionaryVar
  3
ObjectDBX Classes
 90
        0
 91
        1
280
     0
281
     0
  0
ENDSEC
  0
SECTION
  2
TABLES
  0
TABLE
  2
VPORT
  5
8
330
0
100
AcDbSymbolTable
 70
     2
  0
VPORT
  5
2A0
330
8
100
AcDbSymbolTableRecord
100
AcDbViewportTableRecord
  2
*Active
 70
     0
 10
0.0
 20
0.0
 11
1.0
 21
1.0
 12
-419.5
 22
295.5
 13
0.0
 23
0.0
 14
1.0
 24
1.0
 15
0.0
 25
0.0
 16
0.0
 26
0.0
 36
1.0
 17
0.0
 27
0.0
 37
0.0
 40
595.6719367588932
 41
1.707124010554089
 42
50.0
 43
0.0
 44
0.0
 50
0.0
 51
0.0
 71
     0
 72
   100
 73
     1
 74
     1
 75
     0
 76
     0
 77
     0
 78
     0
281
     0
 65
     1
110
0.0
120
0.0
130
0.0
111
1.0
121
0.0
131
0.0
112
0.0
122
1.0
132
0.0
 79
     0
146
0.0
  0
ENDTAB
  0
TABLE
  2
LTYPE
  5
5
330
0
100
AcDbSymbolTable
 70
     6
  0
LTYPE
  5
13
330
5
100
AcDbSymbolTableRecord
100
AcDbLinetypeTableRecord
  2
ByBlock
 70
     0
  3

 72
    65
 73
     0
 40
0.0
  0
LTYPE
  5
14
330
5
100
AcDbSymbolTableRecord
100
AcDbLinetypeTableRecord
  2
ByLayer
 70
     0
  3

 72
    65
 73
     0
 40
0.0
  0
LTYPE
  5
15
330
5
100
AcDbSymbolTableRecord
100
AcDbLinetypeTableRecord
  2
CONTINUOUS
 70
     0
  3
Solid line
 72
    65
 73
     0
 40
0.0
  0
LTYPE
  5
26
330
5
100
AcDbSymbolTableRecord
100
AcDbLinetypeTableRecord
  2
DASHED
 70
     0
  3
__ __ __ __ __ __ __ __ __ __ __ __ __ __ __
 72
    65
 73
     2
 40
3.5
 49
2.0
 74
     0
 49
-1.5
 74
     0
  0
LTYPE
  5
27
330
5
100
AcDbSymbolTableRecord
100
AcDbLinetypeTableRecord
  2
CENTER
 70
     0
  3
____ _ ____ _ ____ _ ____ _ ____ _ ____ _ ____
 72
    65
 73
     4
 40
17.5
 49
13.0
 74
     0
 49
-1.5
 74
     0
 49
1.5
 74
     0
 49
-1.5
 74
     0
  0
LTYPE
  5
28
330
5
100
AcDbSymbolTableRecord
100
AcDbLinetypeTableRecord
  2
PHANTOM
 70
     0
  3
_____ _ _ _____ _ _ _____ _ _ _____ _ _ ____  
 72
    65
 73
     6
 40
15.5
 49
8.0
 74
     0
 49
-1.5
 74
     0
 49
1.5
 74
     0
 49
-1.5
 74
     0
 49
1.5
 74
     0
 49
-1.5
 74
     0
  0
LTYPE
  5
29
330
5
100
AcDbSymbolTableRecord
100
AcDbLinetypeTableRecord
  2
DOT
 70
     0
  3
. . . . . . . . . . . . . . . . . . . . . . . .
 72
    65
 73
     2
 40
0.25
 49
0.0
 74
     0
 49
-0.25
 74
     0
  0
LTYPE
  5
2A
330
5
100
AcDbSymbolTableRecord
100
AcDbLinetypeTableRecord
  2
HIDDEN
 70
     0
  3
__ __ __ __ __ __ __ __ __ __ __ __ __ __ __
 72
    65
 73
     2
 40
3.5
 49
2.0
 74
     0
 49
-1.5
 74
     0
  0
ENDTAB
  0
TABLE
  2
LAYER
  5
2
330
0
100
AcDbSymbolTable
 70
     2
  0
LAYER
  5
10
330
2
100
AcDbSymbolTableRecord
100
AcDbLayerTableRecord
  2
0
 70
     0
 62
     7
  6
CONTINUOUS
370
    -3
390
F
  0
LAYER
  5
2B
330
2
100
AcDbSymbolTableRecord
100
AcDbLayerTableRecord
  2
DEFPOINTS
 70
     0
 62
     7
  6
CONTINUOUS
290
     0
370
    -3
390
F
  0
ENDTAB
  0
TABLE
  2
STYLE
  5
3
330
0
100
AcDbSymbolTable
 70
     2
  0
STYLE
  5
11
330
3
100
AcDbSymbolTableRecord
100
AcDbTextStyleTableRecord
  2
STANDARD
 70
     0
 40
0.0
 41
1.0
 50
0.0
 71
     0
 42
0.2
  3

  4

1001
ACAD
1000
MS Gothic
1071
    32817
  0
ENDTAB
  0
TABLE
  2
VIEW
  5
6
330
0
100
AcDbSymbolTable
 70
     0
  0
ENDTAB
  0
TABLE
  2
UCS
  5
7
330
0
100
AcDbSymbolTable
 70
     0
  0
ENDTAB
  0
TABLE
  2
APPID
  5
9
330
0
100
AcDbSymbolTable
 70
     2
  0
APPID
  5
12
330
9
100
AcDbSymbolTableRecord
100
AcDbRegAppTableRecord
  2
ACAD
 70
     0
  0
APPID
  5
295
330
9
100
AcDbSymbolTableRecord
100
AcDbRegAppTableRecord
  2
ACAD_PSEXT
 70
     0
  0
ENDTAB
  0
TABLE
  2
DIMSTYLE
  5
A
330
0
100
AcDbSymbolTable
 70
    13
100
AcDbDimStyleTable
 71
     1
340
2C
  0
DIMSTYLE
105
2C
102
{ACAD_REACTORS
330
285
102
}
330
A
100
AcDbSymbolTableRecord
100
AcDbDimStyleTableRecord
  2
DIMSTYLE1
 70
     0
 41
1.0
 42
2.54
 44
2.54
 73
     0
 74
     0
 75
     1
 76
     1
 77
     1
140
3.0
145
1.0
147
1.5
172
     1
173
     1
279
     2
340
11
  0
DIMSTYLE
105
2D
102
{ACAD_REACTORS
330
287
102
}
330
A
100
AcDbSymbolTableRecord
100
AcDbDimStyleTableRecord
  2
DIMSTYLE2
 70
     0
 41
1.0
 42
2.54
 44
2.54
 73
     0
 74
     0
 75
     1
 76
     1
 77
     1
140
3.0
145
1.0
147
1.5
172
     1
173
     1
279
     2
340
11
  0
DIMSTYLE
105
2E
102
{ACAD_REACTORS
330
288
102
}
330
A
100
AcDbSymbolTableRecord
100
AcDbDimStyleTableRecord
  2
DIMSTYLE3
 70
     0
 41
1.0
 42
2.54
 44
2.54
 73
     0
 74
     0
 75
     1
 76
     1
 77
     1
140
3.0
145
1.0
147
1.5
172
     1
173
     1
279
     2
340
11
  0
DIMSTYLE
105
2F
102
{ACAD_REACTORS
330
289
102
}
330
A
100
AcDbSymbolTableRecord
100
AcDbDimStyleTableRecord
  2
DIMSTYLE4
 70
     0
 41
1.0
 42
2.54
 44
2.54
 73
     0
 74
     0
 75
     1
 76
     1
 77
     1
140
3.0
145
1.0
147
1.5
172
     1
173
     1
279
     2
340
11
  0
DIMSTYLE
105
30
102
{ACAD_REACTORS
330
28A
102
}
330
A
100
AcDbSymbolTableRecord
100
AcDbDimStyleTableRecord
  2
DIMSTYLE5
 70
     0
 41
1.0
 42
2.54
 44
2.54
 73
     0
 74
     0
 75
     1
 76
     1
 77
     1
140
3.0
145
1.0
147
1.5
172
     1
173
     1
279
     2
340
11
  0
DIMSTYLE
105
31
102
{ACAD_REACTORS
330
28B
102
}
330
A
100
AcDbSymbolTableRecord
100
AcDbDimStyleTableRecord
  2
DIMSTYLE6
 70
     0
 41
1.0
 42
2.54
 44
2.54
 73
     0
 74
     0
 77
     1
140
3.0
145
1.0
147
1.5
172
     1
173
     1
279
     2
340
11
  0
DIMSTYLE
105
32
102
{ACAD_REACTORS
330
28C
102
}
330
A
100
AcDbSymbolTableRecord
100
AcDbDimStyleTableRecord
  2
DIMSTYLE7
 70
     0
 41
1.0
 42
2.54
 44
2.54
 73
     0
 74
     0
 77
     1
140
3.0
145
1.0
147
1.5
172
     1
173
     1
279
     2
340
11
  0
DIMSTYLE
105
33
102
{ACAD_REACTORS
330
28D
102
}
330
A
100
AcDbSymbolTableRecord
100
AcDbDimStyleTableRecord
  2
DIMSTYLE8
 70
     0
 41
1.0
 42
2.54
 44
2.54
 73
     0
 74
     0
 77
     1
140
3.0
145
1.0
147
1.5
172
     1
173
     1
279
     2
340
11
  0
DIMSTYLE
105
34
102
{ACAD_REACTORS
330
28E
102
}
330
A
100
AcDbSymbolTableRecord
100
AcDbDimStyleTableRecord
  2
DIMSTYLE9
 70
     0
 41
1.0
 42
2.54
 44
2.54
 73
     0
 74
     0
 77
     1
140
3.0
145
1.0
147
1.5
172
     1
173
     1
279
     2
340
11
  0
DIMSTYLE
105
35
102
{ACAD_REACTORS
330
28F
102
}
330
A
100
AcDbSymbolTableRecord
100
AcDbDimStyleTableRecord
  2
DIMSTYLE10
 70
     0
 41
1.0
 42
2.54
 44
2.54
 73
     0
 74
     0
 77
     1
140
3.0
145
1.0
147
1.5
172
     1
173
     1
279
     2
340
11
  0
DIMSTYLE
105
36
102
{ACAD_REACTORS
330
291
102
}
330
A
100
AcDbSymbolTableRecord
100
AcDbDimStyleTableRecord
  2
DIMSTYLE11
 70
     0
 41
1.0
 42
2.54
 44
2.54
 73
     0
 74
     0
 77
     1
140
3.0
145
1.0
147
1.5
172
     1
173
     1
279
     2
340
11
  0
DIMSTYLE
105
37
102
{ACAD_REACTORS
330
292
102
}
330
A
100
AcDbSymbolTableRecord
100
AcDbDimStyleTableRecord
  2
DIMSTYLE12
 70
     0
 41
1.0
 42
2.54
 44
2.54
 73
     0
 74
     0
 77
     1
140
3.0
145
1.0
147
1.5
172
     1
173
     1
279
     2
340
11
  0
ENDTAB
  0
TABLE
  2
BLOCK_RECORD
  5
1
330
0
100
AcDbSymbolTable
 70
    16
  0
BLOCK_RECORD
  5
22
330
1
100
AcDbSymbolTableRecord
100
AcDbBlockTableRecord
  2
*Model_Space
340
25
  0
BLOCK_RECORD
  5
1E
330
1
100
AcDbSymbolTableRecord
100
AcDbBlockTableRecord
  2
*Paper_Space
340
21
  0
BLOCK_RECORD
  5
3B
330
1
100
AcDbSymbolTableRecord
100
AcDbBlockTableRecord
  2
_OPEN30
340
0
102
{BLKREFS
331
45
331
46
331
4F
331
50
331
59
331
5A
331
62
331
63
331
6B
331
6C
331
74
331
75
331
80
331
81
331
8B
331
8C
331
96
331
98
331
A3
331
A4
331
AE
331
AF
331
BA
331
BB
102
}
  0
BLOCK_RECORD
  5
41
330
1
100
AcDbSymbolTableRecord
100
AcDbBlockTableRecord
  2
*D1
340
0
  0
BLOCK_RECORD
  5
4B
330
1
100
AcDbSymbolTableRecord
100
AcDbBlockTableRecord
  2
*D2
340
0
  0
BLOCK_RECORD
  5
55
330
1
100
AcDbSymbolTableRecord
100
AcDbBlockTableRecord
  2
*D3
340
0
  0
BLOCK_RECORD
  5
5F
330
1
100
AcDbSymbolTableRecord
100
AcDbBlockTableRecord
  2
*D4
340
0
  0
BLOCK_RECORD
  5
68
330
1
100
AcDbSymbolTableRecord
100
AcDbBlockTableRecord
  2
*D5
340
0
  0
BLOCK_RECORD
  5
71
330
1
100
AcDbSymbolTableRecord
100
AcDbBlockTableRecord
  2
*D6
340
0
  0
BLOCK_RECORD
  5
7D
330
1
100
AcDbSymbolTableRecord
100
AcDbBlockTableRecord
  2
*D7
340
0
  0
BLOCK_RECORD
  5
88
330
1
100
AcDbSymbolTableRecord
100
AcDbBlockTableRecord
  2
*D8
340
0
  0
BLOCK_RECORD
  5
92
330
1
100
AcDbSymbolTableRecord
100
AcDbBlockTableRecord
  2
*D9
340
0
  0
BLOCK_RECORD
  5
A0
330
1
100
AcDbSymbolTableRecord
100
AcDbBlockTableRecord
  2
*D10
340
0
  0
BLOCK_RECORD
  5
AB
330
1
100
AcDbSymbolTableRecord
100
AcDbBlockTableRecord
  2
*D11
340
0
  0
BLOCK_RECORD
  5
B7
330
1
100
AcDbSymbolTableRecord
100
AcDbBlockTableRecord
  2
*D12
340
0
  0
BLOCK_RECORD
  5
C3
330
1
100
AcDbSymbolTableRecord
100
AcDbBlockTableRecord
  2
KOZU0001
340
0
102
{BLKREFS
331
286
102
}
  0
BLOCK_RECORD
  5
CB
330
1
100
AcDbSymbolTableRecord
100
AcDbBlockTableRecord
  2
KOZU0002
340
0
102
{BLKREFS
331
290
102
}
  0
ENDTAB
  0
ENDSEC
  0
SECTION
  2
BLOCKS
  0
BLOCK
  5
23
330
22
100
AcDbEntity
  8
0
100
AcDbBlockBegin
  2
*Model_Space
 70
     0
 10
0.0
 20
0.0
 30
0.0
  3
*Model_Space
  1

  0
ENDBLK
  5
24
330
22
100
AcDbEntity
  8
0
100
AcDbBlockEnd
  0
BLOCK
  5
1F
330
1E
100
AcDbEntity
 67
     1
  8
0
100
AcDbBlockBegin
  2
*Paper_Space
 70
     0
 10
0.0
 20
0.0
 30
0.0
  3
*Paper_Space
  1

  0
ENDBLK
  5
20
330
1E
100
AcDbEntity
 67
     1
  8
0
100
AcDbBlockEnd
  0
BLOCK
  5
3C
330
3B
100
AcDbEntity
  8
0
100
AcDbBlockBegin
  2
_OPEN30
 70
     0
 10
0.0
 20
0.0
 30
0.0
  3
_OPEN30
  1

  0
LINE
  5
3D
330
3B
100
AcDbEntity
  8
0
  6
ByBlock
 62
     0
100
AcDbLine
 10
0.0
 20
0.0
 30
0.0
 11
-2.999999999999993
 21
-1.000000000000017
 31
0.0
  0
LINE
  5
3E
330
3B
100
AcDbEntity
  8
0
  6
ByBlock
 62
     0
100
AcDbLine
 10
0.0
 20
0.0
 30
0.0
 11
-3.000000000000006
 21
0.9999999999999815
 31
0.0
  0
LINE
  5
3F
330
3B
100
AcDbEntity
  8
0
  6
ByBlock
 62
     0
100
AcDbLine
 10
0.0
 20
0.0
 30
0.0
 11
-3.0
 21
0.0
 31
0.0
  0
ENDBLK
  5
40
330
3B
100
AcDbEntity
  8
0
100
AcDbBlockEnd
  0
BLOCK
  5
42
330
41
100
AcDbEntity
  8
0
100
AcDbBlockBegin
  2
*D1
 70
     1
 10
0.0
 20
0.0
 30
0.0
  3
*D1
  1

  0
LINE
  5
43
330
41
100
AcDbEntity
  8
0
  6
Continuous
 62
     7
100
AcDbLine
 10
-437.1743164062499
 20
415.9341735839843
 30
0.0
 11
-443.080810546875
 21
405.6299438476562
 31
0.0
  0
LINE
  5
44
330
41
100
AcDbEntity
  8
0
  6
Continuous
 62
     7
100
AcDbLine
 10
-419.768676148783
 20
446.2993401605173
 30
0.0
 11
-435.6824041734825
 21
418.5369025152637
 31
0.0
  0
INSERT
  5
45
330
41
100
AcDbEntity
  8
0
  6
Continuous
 62
     7
100
AcDbBlockReference
  2
_OPEN30
 10
-418.2767639160156
 20
448.9020690917969
 30
0.0
 50
60.17820108304536
  0
INSERT
  5
46
330
41
100
AcDbEntity
  8
0
  6
Continuous
 62
     7
100
AcDbBlockReference
  2
_OPEN30
 10
-437.1743164062499
 20
415.9341735839843
 30
0.0
 50
240.1782010830461
  0
TEXT
  5
47
330
41
100
AcDbEntity
  8
0
  6
Continuous
 62
     7
100
AcDbText
 10
-443.7302707117961
 20
406.0019049986734
 30
0.0
 40
3.0
  1
%%C38
 50
60.20000326892843
 41
0.9498249830693319
100
AcDbText
  0
POINT
  5
48
330
41
100
AcDbEntity
  8
DEFPOINTS
  6
Continuous
 62
     7
100
AcDbPoint
 10
-418.2767639160156
 20
448.9020690917969
 30
0.0
  0
POINT
  5
49
330
41
100
AcDbEntity
  8
DEFPOINTS
  6
Continuous
 62
     7
100
AcDbPoint
 10
-437.1743164062499
 20
415.9341735839843
 30
0.0
  0
ENDBLK
  5
4A
330
41
100
AcDbEntity
  8
0
100
AcDbBlockEnd
  0
BLOCK
  5
4C
330
4B
100
AcDbEntity
  8
0
100
AcDbBlockBegin
  2
*D2
 70
     1
 10
0.0
 20
0.0
 30
0.0
  3
*D2
  1

  0
LINE
  5
4D
330
4B
100
AcDbEntity
  8
0
  6
Continuous
 62
     7
100
AcDbLine
 10
-329.2489624023438
 20
406.1835632324219
 30
0.0
 11
-298.4914245605469
 21
397.9440002441407
 31
0.0
  0
LINE
  5
4E
330
4B
100
AcDbEntity
  8
0
  6
Continuous
 62
     7
100
AcDbLine
 10
-521.4711959678807
 20
457.6773855457848
 30
0.0
 11
-332.1467849891505
 21
406.9598520030432
 31
0.0
  0
INSERT
  5
4F
330
4B
100
AcDbEntity
  8
0
  6
Continuous
 62
     7
100
AcDbBlockReference
  2
_OPEN30
 10
-524.3690185546874
 20
458.4536743164063
 30
0.0
 50
165.0033289343048
  0
INSERT
  5
50
330
4B
100
AcDbEntity
  8
0
  6
Continuous
 62
     7
100
AcDbBlockReference
  2
_OPEN30
 10
-329.2489624023438
 20
406.1835632324219
 30
0.0
 50
345.0033289343057
  0
TEXT
  5
51
330
4B
100
AcDbEntity
  8
0
  6
Continuous
 62
     7
100
AcDbText
 10
-314.8534016145666
 20
403.1041448295978
 30
0.0
 40
3.0
  1
PCD202
 50
344.999999582587
 41
1.038787885145707
100
AcDbText
  0
POINT
  5
52
330
4B
100
AcDbEntity
  8
DEFPOINTS
  6
Continuous
 62
     7
100
AcDbPoint
 10
-524.3690185546874
 20
458.4536743164063
 30
0.0
  0
POINT
  5
53
330
4B
100
AcDbEntity
  8
DEFPOINTS
  6
Continuous
 62
     7
100
AcDbPoint
 10
-329.2489624023438
 20
406.1835632324219
 30
0.0
  0
ENDBLK
  5
54
330
4B
100
AcDbEntity
  8
0
100
AcDbBlockEnd
  0
BLOCK
  5
56
330
55
100
AcDbEntity
  8
0
100
AcDbBlockBegin
  2
*D3
 70
     1
 10
0.0
 20
0.0
 30
0.0
  3
*D3
  1

  0
LINE
  5
57
330
55
100
AcDbEntity
  8
0
  6
Continuous
 62
     7
100
AcDbLine
 10
-335.4824829101563
 20
495.4095764160156
 30
0.0
 11
-303.9287109375
 21
517.2078247070313
 31
0.0
  0
LINE
  5
58
330
55
100
AcDbEntity
  8
0
  6
Continuous
 62
     7
100
AcDbLine
 10
-515.667214243462
 20
370.9327919172259
 30
0.0
 11
-337.9507667135692
 21
493.704415114024
 31
0.0
  0
INSERT
  5
59
330
55
100
AcDbEntity
  8
0
  6
Continuous
 62
     7
100
AcDbBlockReference
  2
_OPEN30
 10
-518.135498046875
 20
369.2276306152344
 30
0.0
 50
214.6378297914181
  0
INSERT
  5
5A
330
55
100
AcDbEntity
  8
0
  6
Continuous
 62
     7
100
AcDbBlockReference
  2
_OPEN30
 10
-335.4824829101563
 20
495.4095764160156
 30
0.0
 50
34.63782979141742
  0
TEXT
  5
5B
330
55
100
AcDbEntity
  8
0
  6
Continuous
 62
     7
100
AcDbText
 10
-330.8041974725111
 20
499.5659554517888
 30
0.0
 40
3.0
  1
%%C２２２（防水皿外径）
 50
34.60000005214083
 41
0.8440126077968535
100
AcDbText
  0
POINT
  5
5C
330
55
100
AcDbEntity
  8
DEFPOINTS
  6
Continuous
 62
     7
100
AcDbPoint
 10
-518.135498046875
 20
369.2276306152344
 30
0.0
  0
POINT
  5
5D
330
55
100
AcDbEntity
  8
DEFPOINTS
  6
Continuous
 62
     7
100
AcDbPoint
 10
-335.4824829101563
 20
495.4095764160156
 30
0.0
  0
ENDBLK
  5
5E
330
55
100
AcDbEntity
  8
0
100
AcDbBlockEnd
  0
BLOCK
  5
60
330
5F
100
AcDbEntity
  8
0
100
AcDbBlockBegin
  2
*D4
 70
     1
 10
0.0
 20
0.0
 30
0.0
  3
*D4
  1

  0
LINE
  5
61
330
5F
100
AcDbEntity
  8
0
  6
Continuous
 62
     7
100
AcDbLine
 10
-493.1700949196655
 20
409.647792321958
 30
0.0
 11
-360.6478677268187
 21
454.7904095823388
 31
0.0
  0
INSERT
  5
62
330
5F
100
AcDbEntity
  8
0
  6
Continuous
 62
     7
100
AcDbBlockReference
  2
_OPEN30
 10
-496.0098571777344
 20
408.6804504394531
 30
0.0
 50
198.8109916026679
  0
INSERT
  5
63
330
5F
100
AcDbEntity
  8
0
  6
Continuous
 62
     7
100
AcDbBlockReference
  2
_OPEN30
 10
-357.80810546875
 20
455.7577514648437
 30
0.0
 50
18.81099160266717
  0
TEXT
  5
64
330
5F
100
AcDbEntity
  8
0
  6
Continuous
 62
     7
100
AcDbText
 10
-374.8610629675204
 20
450.7422374494096
 30
0.0
 40
3.0
  1
%%C146
 50
18.80000006781172
 41
1.053926216168795
100
AcDbText
  0
POINT
  5
65
330
5F
100
AcDbEntity
  8
DEFPOINTS
  6
Continuous
 62
     7
100
AcDbPoint
 10
-496.0098571777344
 20
408.6804504394531
 30
0.0
  0
POINT
  5
66
330
5F
100
AcDbEntity
  8
DEFPOINTS
  6
Continuous
 62
     7
100
AcDbPoint
 10
-357.80810546875
 20
455.7577514648437
 30
0.0
  0
ENDBLK
  5
67
330
5F
100
AcDbEntity
  8
0
100
AcDbBlockEnd
  0
BLOCK
  5
69
330
68
100
AcDbEntity
  8
0
100
AcDbBlockBegin
  2
*D5
 70
     1
 10
0.0
 20
0.0
 30
0.0
  3
*D5
  1

  0
LINE
  5
6A
330
68
100
AcDbEntity
  8
0
  6
Continuous
 62
     7
100
AcDbLine
 10
-464.115804396117
 20
458.4088529826825
 30
0.0
 11
-389.7021887679455
 21
406.0293184040363
 31
0.0
  0
INSERT
  5
6B
330
68
100
AcDbEntity
  8
0
  6
Continuous
 62
     7
100
AcDbBlockReference
  2
_OPEN30
 10
-466.5690002441406
 20
460.1356506347656
 30
0.0
 50
144.8583934399646
  0
INSERT
  5
6C
330
68
100
AcDbEntity
  8
0
  6
Continuous
 62
     7
100
AcDbBlockReference
  2
_OPEN30
 10
-387.2489929199219
 20
404.3025207519531
 30
0.0
 50
324.8583934399653
  0
TEXT
  5
6D
330
68
100
AcDbEntity
  8
0
  6
Continuous
 62
     7
100
AcDbText
 10
-403.8382517490512
 20
416.8932148494155
 30
0.0
 40
3.0
  1
%%C97
 50
324.8999993647629
 41
0.9498249830693319
100
AcDbText
  0
POINT
  5
6E
330
68
100
AcDbEntity
  8
DEFPOINTS
  6
Continuous
 62
     7
100
AcDbPoint
 10
-466.5690002441406
 20
460.1356506347656
 30
0.0
  0
POINT
  5
6F
330
68
100
AcDbEntity
  8
DEFPOINTS
  6
Continuous
 62
     7
100
AcDbPoint
 10
-387.2489929199219
 20
404.3025207519531
 30
0.0
  0
ENDBLK
  5
70
330
68
100
AcDbEntity
  8
0
100
AcDbBlockEnd
  0
BLOCK
  5
72
330
71
100
AcDbEntity
  8
0
100
AcDbBlockBegin
  2
*D6
 70
     1
 10
0.0
 20
0.0
 30
0.0
  3
*D6
  1

  0
LINE
  5
73
330
71
100
AcDbEntity
  8
0
  6
Continuous
 62
     7
100
AcDbLine
 10
-288.6829223632813
 20
108.3186111450195
 30
0.0
 11
-288.6829223632813
 21
253.318603515625
 31
0.0
  0
INSERT
  5
74
330
71
100
AcDbEntity
  8
0
  6
Continuous
 62
     7
100
AcDbBlockReference
  2
_OPEN30
 10
-288.6829223632813
 20
105.3186111450195
 30
0.0
 50
270.0000000000005
  0
INSERT
  5
75
330
71
100
AcDbEntity
  8
0
  6
Continuous
 62
     7
100
AcDbBlockReference
  2
_OPEN30
 10
-288.6829223632813
 20
256.318603515625
 30
0.0
 50
90.00000000000019
  0
LINE
  5
76
330
71
100
AcDbEntity
  8
0
  6
Continuous
 62
     7
100
AcDbLine
 10
-313.2689904785156
 20
105.3186111450195
 30
0.0
 11
-286.3969116210938
 21
105.3186111450195
 31
0.0
  0
LINE
  5
77
330
71
100
AcDbEntity
  8
0
  6
Continuous
 62
     7
100
AcDbLine
 10
-351.7689904785156
 20
256.318603515625
 30
0.0
 11
-286.3969116210938
 21
256.318603515625
 31
0.0
  0
TEXT
  5
78
330
71
100
AcDbEntity
  8
0
  6
Continuous
 62
     7
100
AcDbText
 10
-289.432921529705
 20
161.7486027151337
 30
0.0
 40
3.0
  1
１５１　（１３８～１６３）
 50
90.00000250447815
 41
0.8434321120058422
100
AcDbText
  0
POINT
  5
79
330
71
100
AcDbEntity
  8
DEFPOINTS
  6
Continuous
 62
     7
100
AcDbPoint
 10
-315.8089904785156
 20
105.3186111450195
 30
0.0
  0
POINT
  5
7A
330
71
100
AcDbEntity
  8
DEFPOINTS
  6
Continuous
 62
     7
100
AcDbPoint
 10
-354.3089904785156
 20
256.318603515625
 30
0.0
  0
POINT
  5
7B
330
71
100
AcDbEntity
  8
DEFPOINTS
  6
Continuous
 62
     7
100
AcDbPoint
 10
-288.6829223632813
 20
256.318603515625
 30
0.0
  0
ENDBLK
  5
7C
330
71
100
AcDbEntity
  8
0
100
AcDbBlockEnd
  0
BLOCK
  5
7E
330
7D
100
AcDbEntity
  8
0
100
AcDbBlockBegin
  2
*D7
 70
     1
 10
0.0
 20
0.0
 30
0.0
  3
*D7
  1

  0
LINE
  5
7F
330
7D
100
AcDbEntity
  8
0
  6
Continuous
 62
     7
100
AcDbLine
 10
-303.3586120605469
 20
253.318603515625
 30
0.0
 11
-303.3586120605469
 21
196.318603515625
 31
0.0
  0
INSERT
  5
80
330
7D
100
AcDbEntity
  8
0
  6
Continuous
 62
     7
100
AcDbBlockReference
  2
_OPEN30
 10
-303.3586120605469
 20
256.318603515625
 30
0.0
 50
90.00000000000019
  0
INSERT
  5
81
330
7D
100
AcDbEntity
  8
0
  6
Continuous
 62
     7
100
AcDbBlockReference
  2
_OPEN30
 10
-303.3586120605469
 20
193.318603515625
 30
0.0
 50
270.0000000000005
  0
LINE
  5
82
330
7D
100
AcDbEntity
  8
0
  6
Continuous
 62
     7
100
AcDbLine
 10
-354.7689904785156
 20
193.318603515625
 30
0.0
 11
-301.0726013183594
 21
193.318603515625
 31
0.0
  0
TEXT
  5
83
330
7D
100
AcDbEntity
  8
0
  6
Continuous
 62
     7
100
AcDbText
 10
-304.1086119482086
 20
222.2486033707847
 30
0.0
 40
3.0
  1
63
 50
90.00000250447815
 41
1.028000020980834
100
AcDbText
  0
POINT
  5
84
330
7D
100
AcDbEntity
  8
DEFPOINTS
  6
Continuous
 62
     7
100
AcDbPoint
 10
-286.3969116210938
 20
256.318603515625
 30
0.0
  0
POINT
  5
85
330
7D
100
AcDbEntity
  8
DEFPOINTS
  6
Continuous
 62
     7
100
AcDbPoint
 10
-357.3089904785156
 20
193.318603515625
 30
0.0
  0
POINT
  5
86
330
7D
100
AcDbEntity
  8
DEFPOINTS
  6
Continuous
 62
     7
100
AcDbPoint
 10
-303.3586120605469
 20
193.318603515625
 30
0.0
  0
ENDBLK
  5
87
330
7D
100
AcDbEntity
  8
0
100
AcDbBlockEnd
  0
BLOCK
  5
89
330
88
100
AcDbEntity
  8
0
100
AcDbBlockBegin
  2
*D8
 70
     1
 10
0.0
 20
0.0
 30
0.0
  3
*D8
  1

  0
LINE
  5
8A
330
88
100
AcDbEntity
  8
0
  6
Continuous
 62
     7
100
AcDbLine
 10
-392.4502258300781
 20
121.3186111450195
 30
0.0
 11
-392.4502258300781
 21
215.318603515625
 31
0.0
  0
INSERT
  5
8B
330
88
100
AcDbEntity
  8
0
  6
Continuous
 62
     7
100
AcDbBlockReference
  2
_OPEN30
 10
-392.4502258300781
 20
118.3186111450195
 30
0.0
 50
270.0000000000005
  0
INSERT
  5
8C
330
88
100
AcDbEntity
  8
0
  6
Continuous
 62
     7
100
AcDbBlockReference
  2
_OPEN30
 10
-392.4502258300781
 20
218.318603515625
 30
0.0
 50
90.00000000000019
  0
TEXT
  5
8D
330
88
100
AcDbEntity
  8
0
  6
Continuous
 62
     7
100
AcDbText
 10
-393.2002256521728
 20
164.2486033111801
 30
0.0
 40
3.0
  1
100
 50
90.00000250447815
 41
1.320000017011488
100
AcDbText
  0
POINT
  5
8E
330
88
100
AcDbEntity
  8
DEFPOINTS
  6
Continuous
 62
     7
100
AcDbPoint
 10
-371.8089904785156
 20
118.3186111450195
 30
0.0
  0
POINT
  5
8F
330
88
100
AcDbEntity
  8
DEFPOINTS
  6
Continuous
 62
     7
100
AcDbPoint
 10
-372.603515625
 20
218.318603515625
 30
0.0
  0
POINT
  5
90
330
88
100
AcDbEntity
  8
DEFPOINTS
  6
Continuous
 62
     7
100
AcDbPoint
 10
-392.4502258300781
 20
218.318603515625
 30
0.0
  0
ENDBLK
  5
91
330
88
100
AcDbEntity
  8
0
100
AcDbBlockEnd
  0
BLOCK
  5
93
330
92
100
AcDbEntity
  8
0
100
AcDbBlockBegin
  2
*D9
 70
     1
 10
0.0
 20
0.0
 30
0.0
  3
*D9
  1

  0
LINE
  5
94
330
92
100
AcDbEntity
  8
0
  6
Continuous
 62
     7
100
AcDbLine
 10
-288.6829223632813
 20
102.3186111450195
 30
0.0
 11
-288.6829223632813
 21
93.49134826660156
 31
0.0
  0
LINE
  5
95
330
92
100
AcDbEntity
  8
0
  6
Continuous
 62
     7
100
AcDbLine
 10
-288.6829223632813
 20
105.3186111450195
 30
0.0
 11
-288.6829223632813
 21
102.3186111450195
 31
0.0
  0
INSERT
  5
96
330
92
100
AcDbEntity
  8
0
  6
Continuous
 62
     7
100
AcDbBlockReference
  2
_OPEN30
 10
-288.6829223632813
 20
105.3186111450195
 30
0.0
 50
270.0000000000002
  0
LINE
  5
97
330
92
100
AcDbEntity
  8
0
  6
Continuous
 62
     7
100
AcDbLine
 10
-288.6829223632813
 20
108.3186111450195
 30
0.0
 11
-288.6829223632813
 21
111.6686111450195
 31
0.0
  0
INSERT
  5
98
330
92
100
AcDbEntity
  8
0
  6
Continuous
 62
     7
100
AcDbBlockReference
  2
_OPEN30
 10
-288.6829223632813
 20
102.3186111450195
 30
0.0
 50
90.00000000000049
  0
LINE
  5
99
330
92
100
AcDbEntity
  8
0
  6
Continuous
 62
     7
100
AcDbLine
 10
-288.6829223632813
 20
99.31861114501952
 30
0.0
 11
-288.6829223632812
 21
95.96861114501955
 31
0.0
  0
LINE
  5
9A
330
92
100
AcDbEntity
  8
0
  6
Continuous
 62
     7
100
AcDbLine
 10
-313.2689904785156
 20
102.3186111450195
 30
0.0
 11
-286.3969116210938
 21
102.3186111450195
 31
0.0
  0
TEXT
  5
9B
330
92
100
AcDbEntity
  8
0
  6
Continuous
 62
     7
100
AcDbText
 10
-289.4329223165101
 20
93.49134787619014
 30
0.0
 40
3.0
  1
3
 50
90.00000250447815
100
AcDbText
  0
POINT
  5
9C
330
92
100
AcDbEntity
  8
DEFPOINTS
  6
Continuous
 62
     7
100
AcDbPoint
 10
-286.3969116210938
 20
105.3186111450195
 30
0.0
  0
POINT
  5
9D
330
92
100
AcDbEntity
  8
DEFPOINTS
  6
Continuous
 62
     7
100
AcDbPoint
 10
-315.8089904785156
 20
102.3186111450195
 30
0.0
  0
POINT
  5
9E
330
92
100
AcDbEntity
  8
DEFPOINTS
  6
Continuous
 62
     7
100
AcDbPoint
 10
-288.6829223632813
 20
102.3186111450195
 30
0.0
  0
ENDBLK
  5
9F
330
92
100
AcDbEntity
  8
0
100
AcDbBlockEnd
  0
BLOCK
  5
A1
330
A0
100
AcDbEntity
  8
0
100
AcDbBlockBegin
  2
*D10
 70
     1
 10
0.0
 20
0.0
 30
0.0
  3
*D10
  1

  0
LINE
  5
A2
330
A0
100
AcDbEntity
  8
0
  6
Continuous
 62
     7
100
AcDbLine
 10
-303.3586120605469
 20
108.3186111450195
 30
0.0
 11
-303.3586120605469
 21
140.318603515625
 31
0.0
  0
INSERT
  5
A3
330
A0
100
AcDbEntity
  8
0
  6
Continuous
 62
     7
100
AcDbBlockReference
  2
_OPEN30
 10
-303.3586120605469
 20
105.3186111450195
 30
0.0
 50
270.0000000000005
  0
INSERT
  5
A4
330
A0
100
AcDbEntity
  8
0
  6
Continuous
 62
     7
100
AcDbBlockReference
  2
_OPEN30
 10
-303.3586120605469
 20
143.318603515625
 30
0.0
 50
90.00000000000019
  0
LINE
  5
A5
330
A0
100
AcDbEntity
  8
0
  6
Continuous
 62
     7
100
AcDbLine
 10
-361.7689904785156
 20
143.318603515625
 30
0.0
 11
-301.0726013183594
 21
143.318603515625
 31
0.0
  0
TEXT
  5
A6
330
A0
100
AcDbEntity
  8
0
  6
Continuous
 62
     7
100
AcDbText
 10
-304.1086119482086
 20
121.7486110001793
 30
0.0
 40
3.0
  1
38
 50
90.00000250447815
 41
1.028000020980834
100
AcDbText
  0
POINT
  5
A7
330
A0
100
AcDbEntity
  8
DEFPOINTS
  6
Continuous
 62
     7
100
AcDbPoint
 10
-315.8089904785156
 20
105.3186111450195
 30
0.0
  0
POINT
  5
A8
330
A0
100
AcDbEntity
  8
DEFPOINTS
  6
Continuous
 62
     7
100
AcDbPoint
 10
-364.3089904785156
 20
143.318603515625
 30
0.0
  0
POINT
  5
A9
330
A0
100
AcDbEntity
  8
DEFPOINTS
  6
Continuous
 62
     7
100
AcDbPoint
 10
-303.3586120605469
 20
143.318603515625
 30
0.0
  0
ENDBLK
  5
AA
330
A0
100
AcDbEntity
  8
0
100
AcDbBlockEnd
  0
BLOCK
  5
AC
330
AB
100
AcDbEntity
  8
0
100
AcDbBlockBegin
  2
*D11
 70
     1
 10
0.0
 20
0.0
 30
0.0
  3
*D11
  1

  0
LINE
  5
AD
330
AB
100
AcDbEntity
  8
0
  6
Continuous
 62
     7
100
AcDbLine
 10
-486.3089904785156
 20
27.53972625732422
 30
0.0
 11
-367.3089904785156
 21
27.5397262573242
 31
0.0
  0
INSERT
  5
AE
330
AB
100
AcDbEntity
  8
0
  6
Continuous
 62
     7
100
AcDbBlockReference
  2
_OPEN30
 10
-489.3089904785155
 20
27.53972625732422
 30
0.0
 50
180.0000000000004
  0
INSERT
  5
AF
330
AB
100
AcDbEntity
  8
0
  6
Continuous
 62
     7
100
AcDbBlockReference
  2
_OPEN30
 10
-364.3089904785156
 20
27.53972625732422
 30
0.0
  0
LINE
  5
B0
330
AB
100
AcDbEntity
  8
0
  6
Continuous
 62
     7
100
AcDbLine
 10
-489.3089904785155
 20
47.77861114501953
 30
0.0
 11
-489.3089904785155
 21
25.25372695922852
 31
0.0
  0
LINE
  5
B1
330
AB
100
AcDbEntity
  8
0
  6
Continuous
 62
     7
100
AcDbLine
 10
-364.3089904785156
 20
47.77861114501953
 30
0.0
 11
-364.3089904785156
 21
25.25372695922852
 31
0.0
  0
TEXT
  5
B2
330
AB
100
AcDbEntity
  8
0
  6
Continuous
 62
     7
100
AcDbText
 10
-432.3789907097816
 20
28.28972625732422
 30
0.0
 40
3.0
  1
%%C125
 41
1.053926216168795
100
AcDbText
  0
POINT
  5
B3
330
AB
100
AcDbEntity
  8
DEFPOINTS
  6
Continuous
 62
     7
100
AcDbPoint
 10
-489.3089904785155
 20
50.31861114501953
 30
0.0
  0
POINT
  5
B4
330
AB
100
AcDbEntity
  8
DEFPOINTS
  6
Continuous
 62
     7
100
AcDbPoint
 10
-364.3089904785156
 20
50.31861114501953
 30
0.0
  0
POINT
  5
B5
330
AB
100
AcDbEntity
  8
DEFPOINTS
  6
Continuous
 62
     7
100
AcDbPoint
 10
-364.3089904785156
 20
27.53972625732422
 30
0.0
  0
ENDBLK
  5
B6
330
AB
100
AcDbEntity
  8
0
100
AcDbBlockEnd
  0
BLOCK
  5
B8
330
B7
100
AcDbEntity
  8
0
100
AcDbBlockBegin
  2
*D12
 70
     1
 10
0.0
 20
0.0
 30
0.0
  3
*D12
  1

  0
LINE
  5
B9
330
B7
100
AcDbEntity
  8
0
  6
Continuous
 62
     7
100
AcDbLine
 10
-557.9205932617188
 20
53.31861114501953
 30
0.0
 11
-557.9205932617188
 21
140.318603515625
 31
0.0
  0
INSERT
  5
BA
330
B7
100
AcDbEntity
  8
0
  6
Continuous
 62
     7
100
AcDbBlockReference
  2
_OPEN30
 10
-557.9205932617188
 20
50.31861114501953
 30
0.0
 50
270.0000000000005
  0
INSERT
  5
BB
330
B7
100
AcDbEntity
  8
0
  6
Continuous
 62
     7
100
AcDbBlockReference
  2
_OPEN30
 10
-557.9205932617188
 20
143.318603515625
 30
0.0
 50
90.00000000000019
  0
LINE
  5
BC
330
B7
100
AcDbEntity
  8
0
  6
Continuous
 62
     7
100
AcDbLine
 10
-491.8489904785157
 20
50.31861114501952
 30
0.0
 11
-560.2066040039063
 21
50.31861114501953
 31
0.0
  0
LINE
  5
BD
330
B7
100
AcDbEntity
  8
0
  6
Continuous
 62
     7
100
AcDbLine
 10
-491.8489904785157
 20
143.318603515625
 30
0.0
 11
-560.2066040039063
 21
143.318603515625
 31
0.0
  0
TEXT
  5
BE
330
B7
100
AcDbEntity
  8
0
  6
Continuous
 62
     7
100
AcDbText
 10
-558.6705931493805
 20
94.24861100017924
 30
0.0
 40
3.0
  1
93
 50
90.00000250447815
 41
1.028000020980834
100
AcDbText
  0
POINT
  5
BF
330
B7
100
AcDbEntity
  8
DEFPOINTS
  6
Continuous
 62
     7
100
AcDbPoint
 10
-489.3089904785155
 20
50.31861114501953
 30
0.0
  0
POINT
  5
C0
330
B7
100
AcDbEntity
  8
DEFPOINTS
  6
Continuous
 62
     7
100
AcDbPoint
 10
-489.3089904785155
 20
143.318603515625
 30
0.0
  0
POINT
  5
C1
330
B7
100
AcDbEntity
  8
DEFPOINTS
  6
Continuous
 62
     7
100
AcDbPoint
 10
-557.9205932617188
 20
143.318603515625
 30
0.0
  0
ENDBLK
  5
C2
330
B7
100
AcDbEntity
  8
0
100
AcDbBlockEnd
  0
BLOCK
  5
C4
330
C3
100
AcDbEntity
  8
0
100
AcDbBlockBegin
  2
KOZU0001
 70
     0
 10
0.0
 20
0.0
 30
0.0
  3
KOZU0001
  1

  0
LINE
  5
C5
330
C3
100
AcDbEntity
  8
0
  6
Continuous
 62
     7
100
AcDbLine
 10
0.0
 20
0.0
 30
0.0
 11
13.01736450195313
 21
17.40530395507813
 31
0.0
  0
LINE
  5
C6
330
C3
100
AcDbEntity
  8
0
  6
Continuous
 62
     7
100
AcDbLine
 10
13.01736450195313
 20
17.40530395507813
 30
0.0
 11
35.06228637695314
 21
17.40530395507813
 31
0.0
  0
LINE
  5
C7
330
C3
100
AcDbEntity
  8
0
  6
Continuous
 62
     7
100
AcDbLine
 10
0.0
 20
0.0
 30
0.0
 11
0.9959561380772024
 21
3.001344927032936
 31
0.0
  0
LINE
  5
C8
330
C3
100
AcDbEntity
  8
0
  6
Continuous
 62
     7
100
AcDbLine
 10
0.0
 20
0.0
 30
0.0
 11
2.597571866681523
 21
1.803502258780028
 31
0.0
  0
TEXT
  5
C9
330
C3
100
AcDbEntity
  8
0
  6
Continuous
 62
     7
100
AcDbText
 10
16.20228505134583
 20
18.15530395507813
 30
0.0
 40
3.0
  1
３－Ｍ５皿穴
 41
0.8472565548642696
100
AcDbText
  0
ENDBLK
  5
CA
330
C3
100
AcDbEntity
  8
0
100
AcDbBlockEnd
  0
BLOCK
  5
CC
330
CB
100
AcDbEntity
  8
0
100
AcDbBlockBegin
  2
KOZU0002
 70
     0
 10
0.0
 20
0.0
 30
0.0
  3
KOZU0002
  1

  0
LINE
  5
CD
330
CB
100
AcDbEntity
  8
0
  6
Continuous
 62
     7
100
AcDbLine
 10
0.0
 20
0.0
 30
0.0
 11
19.8614501953125
 21
-13.306396484375
 31
0.0
  0
LINE
  5
CE
330
CB
100
AcDbEntity
  8
0
  6
Continuous
 62
     7
100
AcDbLine
 10
19.8614501953125
 20
-13.306396484375
 30
0.0
 11
54.64501953125
 21
-13.306396484375
 31
0.0
  0
LINE
  5
CF
330
CB
100
AcDbEntity
  8
0
  6
Continuous
 62
     7
100
AcDbLine
 10
0.0
 20
0.0
 30
0.0
 11
3.04894841991975
 21
-0.8389955498504502
 31
0.0
  0
LINE
  5
D0
330
CB
100
AcDbEntity
  8
0
  6
Continuous
 62
     7
100
AcDbLine
 10
0.0
 20
0.0
 30
0.0
 11
1.93576140602553
 21
-2.500565491832209
 31
0.0
  0
TEXT
  5
D1
330
CB
100
AcDbEntity
  8
0
  6
Continuous
 62
     7
100
AcDbText
 10
26.7850182056427
 20
-12.556396484375
 30
0.0
 40
3.0
  1
配管接続口
 41
0.8487395020950888
100
AcDbText
  0
TEXT
  5
D2
330
CB
100
AcDbEntity
  8
0
  6
Continuous
 62
     7
100
AcDbText
 10
26.7850182056427
 20
-17.821396484375
 30
0.0
 40
3.0
  1
Ｒｃ４（１００Ａ）
 41
0.8448610247221777
100
AcDbText
  0
ENDBLK
  5
D3
330
CB
100
AcDbEntity
  8
0
100
AcDbBlockEnd
  0
ENDSEC
  0
SECTION
  2
ENTITIES
  0
LINE
  5
D4
330
22
100
AcDbEntity
  8
0
  6
CENTER
 62
     7
100
AcDbLine
 10
-481.4754333496093
 20
527.0036621093749
 30
0.0
 11
-471.7048034667969
 21
510.0804443359375
 31
0.0
  0
LINE
  5
D5
330
22
100
AcDbEntity
  8
0
  6
CENTER
 62
     7
100
AcDbLine
 10
-482.030517578125
 20
336.6720886230469
 30
0.0
 11
-472.2090759277343
 21
353.683349609375
 31
0.0
  0
LINE
  5
D6
330
22
100
AcDbEntity
  8
0
  6
Continuous
 62
     7
100
AcDbLine
 10
-434.2238464355468
 20
429.3765563964844
 30
0.0
 11
-430.9089965820312
 21
429.2190856933594
 31
0.0
  0
LINE
  5
D7
330
22
100
AcDbEntity
  8
0
  6
Continuous
 62
     7
100
AcDbLine
 10
-434.40869140625
 20
435.3831481933593
 30
0.0
 11
-430.409912109375
 21
435.7888793945313
 31
0.0
  0
LINE
  5
D8
330
22
100
AcDbEntity
  8
0
  6
CENTER
 62
     7
100
AcDbLine
 10
-426.8089904785155
 20
561.8027954101563
 30
0.0
 11
-426.8089904785155
 21
304.0076599121094
 31
0.0
  0
LINE
  5
D9
330
22
100
AcDbEntity
  8
0
  6
Continuous
 62
     7
100
AcDbLine
 10
-420.4089965820313
 20
429.2190856933594
 30
0.0
 11
-422.9089965820312
 21
429.2190856933594
 31
0.0
  0
LINE
  5
DA
330
22
100
AcDbEntity
  8
0
  6
Continuous
 62
     7
100
AcDbLine
 10
-423.1637878417968
 20
435.53173828125
 30
0.0
 11
-419.5156555175781
 21
435.4237365722656
 31
0.0
  0
LINE
  5
DB
330
22
100
AcDbEntity
  8
0
  6
CENTER
 62
     7
100
AcDbLine
 10
-554.1309814453125
 20
432.318603515625
 30
0.0
 11
-294.2022094726563
 21
432.318603515625
 31
0.0
  0
LINE
  5
DC
330
22
100
AcDbEntity
  8
0
  6
Continuous
 62
     7
100
AcDbLine
 10
-332.8752136230469
 20
105.3186111450195
 30
0.0
 11
-333.8752136230469
 21
104.3186111450195
 31
0.0
  0
LINE
  5
DD
330
22
100
AcDbEntity
  8
0
  6
Continuous
 62
     7
100
AcDbLine
 10
-350.4596252441406
 20
104.3186111450195
 30
0.0
 11
-351.4596252441406
 21
105.3186111450195
 31
0.0
  0
LINE
  5
DE
330
22
100
AcDbEntity
  8
0
  6
Continuous
 62
     7
100
AcDbLine
 10
-315.8089904785156
 20
105.3186111450195
 30
0.0
 11
-315.8089904785156
 21
102.3186111450195
 31
0.0
  0
LINE
  5
DF
330
22
100
AcDbEntity
  8
0
  6
Continuous
 62
     7
100
AcDbLine
 10
-323.0589904785156
 20
102.3191146850586
 30
0.0
 11
-323.0589904785156
 21
103.0691146850586
 31
0.0
  0
LINE
  5
E0
330
22
100
AcDbEntity
  8
0
  6
Continuous
 62
     7
100
AcDbLine
 10
-328.5589904785156
 20
102.3191146850586
 30
0.0
 11
-328.5589904785156
 21
103.0691146850586
 31
0.0
  0
LINE
  5
E1
330
22
100
AcDbEntity
  8
0
  6
Continuous
 62
     7
100
AcDbLine
 10
-320.8089904785156
 20
105.3191146850586
 30
0.0
 11
-323.0589904785156
 21
103.0691146850586
 31
0.0
  0
LINE
  5
E2
330
22
100
AcDbEntity
  8
0
  6
CENTER
 62
     7
100
AcDbLine
 10
-325.8089904785156
 20
106.5013961791992
 30
0.0
 11
-325.8089904785156
 21
101.0716857910155
 31
0.0
  0
LINE
  5
E3
330
22
100
AcDbEntity
  8
0
  6
Continuous
 62
     7
100
AcDbLine
 10
-316.4086608886719
 20
105.3186111450195
 30
0.0
 11
-315.8089904785156
 21
104.7189407348633
 31
0.0
  0
LINE
  5
E4
330
22
100
AcDbEntity
  8
0
  6
Continuous
 62
     7
100
AcDbLine
 10
-318.5299682617188
 20
105.3186111450195
 30
0.0
 11
-315.8089904785156
 21
102.5976257324219
 31
0.0
  0
LINE
  5
E5
330
22
100
AcDbEntity
  8
0
  6
Continuous
 62
     7
100
AcDbLine
 10
-319.2370910644531
 20
105.3186111450195
 30
0.0
 11
-316.2370910644531
 21
102.3186111450195
 31
0.0
  0
LINE
  5
E6
330
22
100
AcDbEntity
  8
0
  6
Continuous
 62
     7
100
AcDbLine
 10
-321.0839538574219
 20
105.0441589355469
 30
0.0
 11
-318.3583984375
 21
102.3186111450195
 31
0.0
  0
LINE
  5
E7
330
22
100
AcDbEntity
  8
0
  6
Continuous
 62
     7
100
AcDbLine
 10
-321.4375
 20
104.6906051635742
 30
0.0
 11
-319.0654907226563
 21
102.3186111450195
 31
0.0
  0
LINE
  5
E8
330
22
100
AcDbEntity
  8
0
  6
Continuous
 62
     7
100
AcDbLine
 10
-322.4981689453125
 20
103.6299438476563
 30
0.0
 11
-321.1868286132813
 21
102.3186111450195
 31
0.0
  0
LINE
  5
E9
330
22
100
AcDbEntity
  8
0
  6
Continuous
 62
     7
100
AcDbLine
 10
-322.8517150878906
 20
103.2763900756836
 30
0.0
 11
-321.8939208984375
 21
102.3186111450195
 31
0.0
  0
LINE
  5
EA
330
22
100
AcDbEntity
  8
0
  6
Continuous
 62
     7
100
AcDbLine
 10
-332.672119140625
 20
105.3186111450195
 30
0.0
 11
-329.672119140625
 21
102.3186111450195
 31
0.0
  0
LINE
  5
EB
330
22
100
AcDbEntity
  8
0
  6
Continuous
 62
     7
100
AcDbLine
 10
-333.1272277832031
 20
105.0666198730469
 30
0.0
 11
-330.3792114257813
 21
102.3186111450195
 31
0.0
  0
LINE
  5
EC
330
22
100
AcDbEntity
  8
0
  6
Continuous
 62
     7
100
AcDbLine
 10
-335.5005187988281
 20
105.3186111450195
 30
0.0
 11
-332.5005187988281
 21
102.3186111450195
 31
0.0
  0
LINE
  5
ED
330
22
100
AcDbEntity
  8
0
  6
Continuous
 62
     7
100
AcDbLine
 10
-336.2076416015625
 20
105.3186111450195
 30
0.0
 11
-333.2076416015625
 21
102.3186111450195
 31
0.0
  0
LINE
  5
EE
330
22
100
AcDbEntity
  8
0
  6
Continuous
 62
     7
100
AcDbLine
 10
-338.3289489746094
 20
105.3186111450195
 30
0.0
 11
-335.3289489746094
 21
102.3186111450195
 31
0.0
  0
LINE
  5
EF
330
22
100
AcDbEntity
  8
0
  6
Continuous
 62
     7
100
AcDbLine
 10
-339.0360717773438
 20
105.3186111450195
 30
0.0
 11
-336.0360717773438
 21
102.3186111450195
 31
0.0
  0
LINE
  5
F0
330
22
100
AcDbEntity
  8
0
  6
Continuous
 62
     7
100
AcDbLine
 10
-341.1573791503906
 20
105.3186111450195
 30
0.0
 11
-338.1573791503906
 21
102.3186111450195
 31
0.0
  0
LINE
  5
F1
330
22
100
AcDbEntity
  8
0
  6
Continuous
 62
     7
100
AcDbLine
 10
-341.864501953125
 20
105.3186111450195
 30
0.0
 11
-338.864501953125
 21
102.3186111450195
 31
0.0
  0
LINE
  5
F2
330
22
100
AcDbEntity
  8
0
  6
Continuous
 62
     7
100
AcDbLine
 10
-343.9858093261719
 20
105.3186111450195
 30
0.0
 11
-340.9858093261719
 21
102.3186111450195
 31
0.0
  0
LINE
  5
F3
330
22
100
AcDbEntity
  8
0
  6
Continuous
 62
     7
100
AcDbLine
 10
-344.6929321289063
 20
105.3186111450195
 30
0.0
 11
-341.6929321289063
 21
102.3186111450195
 31
0.0
  0
LINE
  5
F4
330
22
100
AcDbEntity
  8
0
  6
Continuous
 62
     7
100
AcDbLine
 10
-346.8142395019531
 20
105.3186111450195
 30
0.0
 11
-343.8142395019531
 21
102.3186111450195
 31
0.0
  0
LINE
  5
F5
330
22
100
AcDbEntity
  8
0
  6
Continuous
 62
     7
100
AcDbLine
 10
-347.5213623046875
 20
105.3186111450195
 30
0.0
 11
-344.5213623046875
 21
102.3186111450195
 31
0.0
  0
LINE
  5
F6
330
22
100
AcDbEntity
  8
0
  6
Continuous
 62
     7
100
AcDbLine
 10
-349.5511474609375
 20
105.2270965576172
 30
0.0
 11
-346.6426696777344
 21
102.3186111450195
 31
0.0
  0
LINE
  5
F7
330
22
100
AcDbEntity
  8
0
  6
Continuous
 62
     7
100
AcDbLine
 10
-349.9046936035156
 20
104.8735427856445
 30
0.0
 11
-347.3497619628906
 21
102.3186111450195
 31
0.0
  0
LINE
  5
F8
330
22
100
AcDbEntity
  8
0
  6
Continuous
 62
     7
100
AcDbLine
 10
-352.4710998535156
 20
105.3186111450195
 30
0.0
 11
-349.4710998535156
 21
102.3186111450195
 31
0.0
  0
LINE
  5
F9
330
22
100
AcDbEntity
  8
0
  6
Continuous
 62
     7
100
AcDbLine
 10
-353.1781921386719
 20
105.3186111450195
 30
0.0
 11
-350.1781921386719
 21
102.3186111450195
 31
0.0
  0
LINE
  5
FA
330
22
100
AcDbEntity
  8
0
  6
Continuous
 62
     7
100
AcDbLine
 10
-355.2995300292969
 20
105.3186111450195
 30
0.0
 11
-352.2995300292969
 21
102.3186111450195
 31
0.0
  0
LINE
  5
FB
330
22
100
AcDbEntity
  8
0
  6
Continuous
 62
     7
100
AcDbLine
 10
-356.0066223144531
 20
105.3186111450195
 30
0.0
 11
-353.0066223144531
 21
102.3186111450195
 31
0.0
  0
LINE
  5
FC
330
22
100
AcDbEntity
  8
0
  6
Continuous
 62
     7
100
AcDbLine
 10
-358.1279602050781
 20
105.3186111450195
 30
0.0
 11
-355.1279602050781
 21
102.3186111450195
 31
0.0
  0
LINE
  5
FD
330
22
100
AcDbEntity
  8
0
  6
Continuous
 62
     7
100
AcDbLine
 10
-358.8350524902344
 20
105.3186111450195
 30
0.0
 11
-355.8350524902344
 21
102.3186111450195
 31
0.0
  0
LINE
  5
FE
330
22
100
AcDbEntity
  8
0
  6
Continuous
 62
     7
100
AcDbLine
 10
-360.9563903808594
 20
105.3186111450195
 30
0.0
 11
-357.9563903808594
 21
102.3186111450195
 31
0.0
  0
LINE
  5
FF
330
22
100
AcDbEntity
  8
0
  6
Continuous
 62
     7
100
AcDbLine
 10
-361.6634826660156
 20
105.3186111450195
 30
0.0
 11
-358.6634826660156
 21
102.3186111450195
 31
0.0
  0
LINE
  5
100
330
22
100
AcDbEntity
  8
0
  6
Continuous
 62
     7
100
AcDbLine
 10
-363.7847900390625
 20
105.3186111450195
 30
0.0
 11
-360.7847900390625
 21
102.3186111450195
 31
0.0
  0
LINE
  5
101
330
22
100
AcDbEntity
  8
0
  6
Continuous
 62
     7
100
AcDbLine
 10
-364.3089904785156
 20
105.1356811523438
 30
0.0
 11
-361.4919128417969
 21
102.3186111450195
 31
0.0
  0
LINE
  5
102
330
22
100
AcDbEntity
  8
0
  6
Continuous
 62
     7
100
AcDbLine
 10
-364.3089904785156
 20
103.0143661499023
 30
0.0
 11
-363.6132202148438
 21
102.3186111450195
 31
0.0
  0
LINE
  5
103
330
22
100
AcDbEntity
  8
0
  6
Continuous
 62
     7
100
AcDbLine
 10
-378.3589782714844
 20
256.318603515625
 30
0.0
 11
-378.6214599609375
 21
253.318603515625
 31
0.0
  0
LINE
  5
104
330
22
100
AcDbEntity
  8
0
  6
Continuous
 62
     7
100
AcDbLine
 10
-378.6214599609375
 20
253.318603515625
 30
0.0
 11
-381.3089904785156
 21
253.318603515625
 31
0.0
  0
LINE
  5
105
330
22
100
AcDbEntity
  8
0
  6
Continuous
 62
     7
100
AcDbLine
 10
-381.3089904785156
 20
253.318603515625
 30
0.0
 11
-381.3089904785156
 21
250.1186065673828
 31
0.0
  0
LINE
  5
106
330
22
100
AcDbEntity
  8
0
  6
Continuous
 62
     7
100
AcDbLine
 10
-377.3089904785156
 20
218.318603515625
 30
0.0
 11
-377.3089904785156
 21
118.3186111450195
 31
0.0
  0
LINE
  5
107
330
22
100
AcDbEntity
  8
0
  6
Continuous
 62
     7
100
AcDbLine
 10
-411.3839721679688
 20
242.318603515625
 30
0.0
 11
-411.3839721679688
 21
221.318603515625
 31
0.0
  0
LINE
  5
108
330
22
100
AcDbEntity
  8
0
  6
Continuous
 62
     7
100
AcDbLine
 10
-364.3089904785156
 20
143.318603515625
 30
0.0
 11
-364.3089904785156
 21
50.31861114501953
 31
0.0
  0
LINE
  5
109
330
22
100
AcDbEntity
  8
0
  6
Continuous
 62
     7
100
AcDbLine
 10
-371.9252319335938
 20
141.4186096191406
 30
0.0
 11
-371.9252319335938
 21
98.31861114501952
 31
0.0
  0
LINE
  5
10A
330
22
100
AcDbEntity
  8
0
  6
Continuous
 62
     7
100
AcDbLine
 10
-370.3089904785156
 20
143.318603515625
 30
0.0
 11
-370.3089904785156
 21
99.93485260009766
 31
0.0
  0
LINE
  5
10B
330
22
100
AcDbEntity
  8
0
  6
Continuous
 62
     7
100
AcDbLine
 10
-370.3089904785156
 20
143.3121032714844
 30
0.0
 11
-370.3024597167969
 21
143.318603515625
 31
0.0
  0
LINE
  5
10C
330
22
100
AcDbEntity
  8
0
  6
Continuous
 62
     7
100
AcDbLine
 10
-370.3089904785156
 20
140.4836730957031
 30
0.0
 11
-367.4740600585938
 21
143.318603515625
 31
0.0
  0
LINE
  5
10D
330
22
100
AcDbEntity
  8
0
  6
Continuous
 62
     7
100
AcDbLine
 10
-370.3089904785156
 20
137.6552429199219
 30
0.0
 11
-364.6456298828125
 21
143.318603515625
 31
0.0
  0
LINE
  5
10E
330
22
100
AcDbEntity
  8
0
  6
Continuous
 62
     7
100
AcDbLine
 10
-370.3089904785156
 20
134.8268127441406
 30
0.0
 11
-364.3089904785156
 21
140.8268127441406
 31
0.0
  0
LINE
  5
10F
330
22
100
AcDbEntity
  8
0
  6
Continuous
 62
     7
100
AcDbLine
 10
-370.3089904785156
 20
131.9983978271484
 30
0.0
 11
-364.3089904785156
 21
137.9983978271484
 31
0.0
  0
LINE
  5
110
330
22
100
AcDbEntity
  8
0
  6
Continuous
 62
     7
100
AcDbLine
 10
-370.3089904785156
 20
129.1699676513672
 30
0.0
 11
-364.3089904785156
 21
135.1699676513672
 31
0.0
  0
LINE
  5
111
330
22
100
AcDbEntity
  8
0
  6
Continuous
 62
     7
100
AcDbLine
 10
-370.3089904785156
 20
126.3415374755859
 30
0.0
 11
-364.3089904785156
 21
132.3415374755859
 31
0.0
  0
LINE
  5
112
330
22
100
AcDbEntity
  8
0
  6
Continuous
 62
     7
100
AcDbLine
 10
-370.3089904785156
 20
123.5131072998047
 30
0.0
 11
-364.3089904785156
 21
129.5131072998047
 31
0.0
  0
LINE
  5
113
330
22
100
AcDbEntity
  8
0
  6
Continuous
 62
     7
100
AcDbLine
 10
-370.3089904785156
 20
120.684684753418
 30
0.0
 11
-364.3089904785156
 21
126.684684753418
 31
0.0
  0
LINE
  5
114
330
22
100
AcDbEntity
  8
0
  6
Continuous
 62
     7
100
AcDbLine
 10
-370.3089904785156
 20
117.8562545776367
 30
0.0
 11
-364.3089904785156
 21
123.8562545776367
 31
0.0
  0
LINE
  5
115
330
22
100
AcDbEntity
  8
0
  6
Continuous
 62
     7
100
AcDbLine
 10
-370.3089904785156
 20
115.02783203125
 30
0.0
 11
-364.3089904785156
 21
121.02783203125
 31
0.0
  0
LINE
  5
116
330
22
100
AcDbEntity
  8
0
  6
Continuous
 62
     7
100
AcDbLine
 10
-370.3089904785156
 20
112.1994018554688
 30
0.0
 11
-364.3089904785156
 21
118.1994018554688
 31
0.0
  0
LINE
  5
117
330
22
100
AcDbEntity
  8
0
  6
Continuous
 62
     7
100
AcDbLine
 10
-370.3089904785156
 20
109.3709716796875
 30
0.0
 11
-364.3089904785156
 21
115.3709716796875
 31
0.0
  0
LINE
  5
118
330
22
100
AcDbEntity
  8
0
  6
Continuous
 62
     7
100
AcDbLine
 10
-370.3089904785156
 20
106.5425491333008
 30
0.0
 11
-364.3089904785156
 21
112.5425491333008
 31
0.0
  0
LINE
  5
119
330
22
100
AcDbEntity
  8
0
  6
Continuous
 62
     7
100
AcDbLine
 10
-370.3089904785156
 20
103.7141189575195
 30
0.0
 11
-364.3089904785156
 21
109.7141189575195
 31
0.0
  0
LINE
  5
11A
330
22
100
AcDbEntity
  8
0
  6
Continuous
 62
     7
100
AcDbLine
 10
-370.3089904785156
 20
100.8856964111328
 30
0.0
 11
-364.3089904785156
 21
106.8856964111328
 31
0.0
  0
LINE
  5
11B
330
22
100
AcDbEntity
  8
0
  6
Continuous
 62
     7
100
AcDbLine
 10
-373.0448303222656
 20
98.14985656738279
 30
0.0
 11
-372.8760681152344
 21
98.31861114501952
 31
0.0
  0
LINE
  5
11C
330
22
100
AcDbEntity
  8
0
  6
Continuous
 62
     7
100
AcDbLine
 10
-373.0448303222656
 20
95.32142639160156
 30
0.0
 11
-364.3089904785156
 21
104.0572662353516
 31
0.0
  0
LINE
  5
11D
330
22
100
AcDbEntity
  8
0
  6
Continuous
 62
     7
100
AcDbLine
 10
-373.0448303222656
 20
92.49300384521484
 30
0.0
 11
-364.3089904785156
 21
101.2288360595703
 31
0.0
  0
LINE
  5
11E
330
22
100
AcDbEntity
  8
0
  6
Continuous
 62
     7
100
AcDbLine
 10
-373.0448303222656
 20
89.66457366943359
 30
0.0
 11
-364.3089904785156
 21
98.4004135131836
 31
0.0
  0
LINE
  5
11F
330
22
100
AcDbEntity
  8
0
  6
Continuous
 62
     7
100
AcDbLine
 10
-373.0448303222656
 20
86.83614349365234
 30
0.0
 11
-364.3089904785156
 21
95.57198333740235
 31
0.0
  0
LINE
  5
120
330
22
100
AcDbEntity
  8
0
  6
Continuous
 62
     7
100
AcDbLine
 10
-371.9893798828125
 20
85.06316375732422
 30
0.0
 11
-364.3089904785156
 21
92.74356079101563
 31
0.0
  0
LINE
  5
121
330
22
100
AcDbEntity
  8
0
  6
Continuous
 62
     7
100
AcDbLine
 10
-371.3271179199219
 20
82.89700317382813
 30
0.0
 11
-364.3089904785156
 21
89.91513061523438
 31
0.0
  0
LINE
  5
122
330
22
100
AcDbEntity
  8
0
  6
Continuous
 62
     7
100
AcDbLine
 10
-371.2413940429688
 20
80.15428924560547
 30
0.0
 11
-364.3089904785156
 21
87.08670043945312
 31
0.0
  0
LINE
  5
123
330
22
100
AcDbEntity
  8
0
  6
Continuous
 62
     7
100
AcDbLine
 10
-371.1556701660156
 20
77.41157531738281
 30
0.0
 11
-364.3089904785156
 21
84.25827789306641
 31
0.0
  0
LINE
  5
124
330
22
100
AcDbEntity
  8
0
  6
Continuous
 62
     7
100
AcDbLine
 10
-371.0699768066406
 20
74.66886138916016
 30
0.0
 11
-364.3089904785156
 21
81.42984771728515
 31
0.0
  0
LINE
  5
125
330
22
100
AcDbEntity
  8
0
  6
Continuous
 62
     7
100
AcDbLine
 10
-370.9842529296875
 20
71.92615509033203
 30
0.0
 11
-364.3089904785156
 21
78.60142517089844
 31
0.0
  0
LINE
  5
126
330
22
100
AcDbEntity
  8
0
  6
Continuous
 62
     7
100
AcDbLine
 10
-370.8985290527344
 20
69.18344116210938
 30
0.0
 11
-364.3089904785156
 21
75.77299499511719
 31
0.0
  0
LINE
  5
127
330
22
100
AcDbEntity
  8
0
  6
Continuous
 62
     7
100
AcDbLine
 10
-370.8128356933594
 20
66.44072723388672
 30
0.0
 11
-364.3089904785156
 21
72.94456481933593
 31
0.0
  0
LINE
  5
128
330
22
100
AcDbEntity
  8
0
  6
Continuous
 62
     7
100
AcDbLine
 10
-370.7271118164063
 20
63.69801330566406
 30
0.0
 11
-364.3089904785156
 21
70.11614227294922
 31
0.0
  0
LINE
  5
129
330
22
100
AcDbEntity
  8
0
  6
Continuous
 62
     7
100
AcDbLine
 10
-370.6413879394531
 20
60.9552993774414
 30
0.0
 11
-364.3089904785156
 21
67.28771209716796
 31
0.0
  0
LINE
  5
12A
330
22
100
AcDbEntity
  8
0
  6
Continuous
 62
     7
100
AcDbLine
 10
-370.5556945800781
 20
58.21258544921875
 30
0.0
 11
-364.3089904785156
 21
64.45928955078125
 31
0.0
  0
LINE
  5
12B
330
22
100
AcDbEntity
  8
0
  6
Continuous
 62
     7
100
AcDbLine
 10
-370.469970703125
 20
55.46987533569335
 30
0.0
 11
-364.3089904785156
 21
61.630859375
 31
0.0
  0
LINE
  5
12C
330
22
100
AcDbEntity
  8
0
  6
Continuous
 62
     7
100
AcDbLine
 10
-370.3842468261719
 20
52.7271614074707
 30
0.0
 11
-364.3089904785156
 21
58.80243301391602
 31
0.0
  0
LINE
  5
12D
330
22
100
AcDbEntity
  8
0
  6
Continuous
 62
     7
100
AcDbLine
 10
-369.9643859863281
 20
50.31861114501953
 30
0.0
 11
-364.3089904785156
 21
55.97400283813477
 31
0.0
  0
LINE
  5
12E
330
22
100
AcDbEntity
  8
0
  6
Continuous
 62
     7
100
AcDbLine
 10
-367.1359558105469
 20
50.31861114501953
 30
0.0
 11
-364.3089904785156
 21
53.14557647705078
 31
0.0
  0
LINE
  5
12F
330
22
100
AcDbEntity
  8
0
  6
Continuous
 62
     7
100
AcDbLine
 10
-370.3089904785156
 20
119.8186111450195
 30
0.0
 11
-370.3089904785156
 21
166.818603515625
 31
0.0
  0
LINE
  5
130
330
22
100
AcDbEntity
  8
0
  6
Continuous
 62
     7
100
AcDbLine
 10
-371.8089904785156
 20
118.3186111450195
 30
0.0
 11
-371.8089904785156
 21
165.318603515625
 31
0.0
  0
LINE
  5
131
330
22
100
AcDbEntity
  8
0
  6
Continuous
 62
     7
100
AcDbLine
 10
-330.8089904785156
 20
105.3191146850586
 30
0.0
 11
-328.5589904785156
 21
103.0691146850586
 31
0.0
  0
LINE
  5
132
330
22
100
AcDbEntity
  8
0
  6
Continuous
 62
     7
100
AcDbLine
 10
-373.0448303222656
 20
98.31861114501952
 30
0.0
 11
-371.9252319335938
 21
98.31861114501952
 31
0.0
  0
LINE
  5
133
330
22
100
AcDbEntity
  8
0
  6
Continuous
 62
     7
100
AcDbLine
 10
-369.6589965820313
 20
180.0623779296875
 30
0.0
 11
-369.6589965820313
 21
167.4686126708984
 31
0.0
  0
LINE
  5
134
330
22
100
AcDbEntity
  8
0
  6
Continuous
 62
     7
100
AcDbLine
 10
-373.0448303222656
 20
86.11860656738281
 30
0.0
 11
-371.3756103515625
 21
84.44940948486328
 31
0.0
  0
LINE
  5
135
330
22
100
AcDbEntity
  8
0
  6
Continuous
 62
     7
100
AcDbLine
 10
-373.0448303222656
 20
86.11860656738281
 30
0.0
 11
-373.0448303222656
 21
98.31861114501952
 31
0.0
  0
LINE
  5
136
330
22
100
AcDbEntity
  8
0
  6
Continuous
 62
     7
100
AcDbLine
 10
-370.3089904785156
 20
193.318603515625
 30
0.0
 11
-371.8581237792969
 21
194.8677520751953
 31
0.0
  0
LINE
  5
137
330
22
100
AcDbEntity
  8
0
  6
Continuous
 62
     7
100
AcDbLine
 10
-370.3089904785156
 20
50.31861114501953
 30
0.0
 11
-371.97509765625
 21
51.88873291015625
 31
0.0
  0
LINE
  5
138
330
22
100
AcDbEntity
  8
0
  6
Continuous
 62
     7
100
AcDbLine
 10
-373.0448303222656
 20
86.11860656738281
 30
0.0
 11
-371.97509765625
 21
51.88873291015625
 31
0.0
  0
LINE
  5
139
330
22
100
AcDbEntity
  8
0
  6
Continuous
 62
     7
100
AcDbLine
 10
-371.3756103515625
 20
84.44940948486328
 30
0.0
 11
-370.3089904785156
 21
50.31861114501953
 31
0.0
  0
LINE
  5
13A
330
22
100
AcDbEntity
  8
0
  6
Continuous
 62
     7
100
AcDbLine
 10
-371.8089904785156
 20
118.3186111450195
 30
0.0
 11
-370.3089904785156
 21
119.8186111450195
 31
0.0
  0
LINE
  5
13B
330
22
100
AcDbEntity
  8
0
  6
Continuous
 62
     7
100
AcDbLine
 10
-371.0543518066406
 20
216.7694702148438
 30
0.0
 11
-369.9152221679688
 21
180.318603515625
 31
0.0
  0
LINE
  5
13C
330
22
100
AcDbEntity
  8
0
  6
Continuous
 62
     7
100
AcDbLine
 10
-372.603515625
 20
218.318603515625
 30
0.0
 11
-371.46435546875
 21
181.8677520751953
 31
0.0
  0
LINE
  5
13D
330
22
100
AcDbEntity
  8
0
  6
Continuous
 62
     7
100
AcDbLine
 10
-373.7083435058594
 20
218.318603515625
 30
0.0
 11
-372.56787109375
 21
217.1781158447266
 31
0.0
  0
LINE
  5
13E
330
22
100
AcDbEntity
  8
0
  6
Continuous
 62
     7
100
AcDbLine
 10
-377.3089904785156
 20
217.6765899658203
 30
0.0
 11
-372.4309997558594
 21
212.7986145019531
 31
0.0
  0
LINE
  5
13F
330
22
100
AcDbEntity
  8
0
  6
Continuous
 62
     7
100
AcDbLine
 10
-377.3089904785156
 20
213.4339599609375
 30
0.0
 11
-372.2941284179688
 21
208.4190979003906
 31
0.0
  0
LINE
  5
140
330
22
100
AcDbEntity
  8
0
  6
Continuous
 62
     7
100
AcDbLine
 10
-377.3089904785156
 20
209.1913146972656
 30
0.0
 11
-372.1572570800781
 21
204.0395965576172
 31
0.0
  0
LINE
  5
141
330
22
100
AcDbEntity
  8
0
  6
Continuous
 62
     7
100
AcDbLine
 10
-377.3089904785156
 20
204.9486694335938
 30
0.0
 11
-372.0203857421875
 21
199.6600952148438
 31
0.0
  0
LINE
  5
142
330
22
100
AcDbEntity
  8
0
  6
Continuous
 62
     7
100
AcDbLine
 10
-377.3089904785156
 20
200.7060394287109
 30
0.0
 11
-371.883544921875
 21
195.2805786132813
 31
0.0
  0
LINE
  5
143
330
22
100
AcDbEntity
  8
0
  6
Continuous
 62
     7
100
AcDbLine
 10
-377.3089904785156
 20
196.463394165039
 30
0.0
 11
-371.7466735839844
 21
190.9010772705078
 31
0.0
  0
LINE
  5
144
330
22
100
AcDbEntity
  8
0
  6
Continuous
 62
     7
100
AcDbLine
 10
-377.3089904785156
 20
192.2207489013672
 30
0.0
 11
-371.6098022460938
 21
186.5215606689453
 31
0.0
  0
LINE
  5
145
330
22
100
AcDbEntity
  8
0
  6
Continuous
 62
     7
100
AcDbLine
 10
-377.3089904785156
 20
187.9781188964844
 30
0.0
 11
-371.4729309082031
 21
182.1420593261719
 31
0.0
  0
LINE
  5
146
330
22
100
AcDbEntity
  8
0
  6
Continuous
 62
     7
100
AcDbLine
 10
-377.3089904785156
 20
183.7354736328125
 30
0.0
 11
-369.6589965820313
 21
176.0854644775391
 31
0.0
  0
LINE
  5
147
330
22
100
AcDbEntity
  8
0
  6
Continuous
 62
     7
100
AcDbLine
 10
-377.3089904785156
 20
179.4928283691406
 30
0.0
 11
-369.6589965820313
 21
171.8428344726563
 31
0.0
  0
LINE
  5
148
330
22
100
AcDbEntity
  8
0
  6
Continuous
 62
     7
100
AcDbLine
 10
-377.3089904785156
 20
175.2501831054688
 30
0.0
 11
-369.6589965820313
 21
167.6001892089844
 31
0.0
  0
LINE
  5
149
330
22
100
AcDbEntity
  8
0
  6
Continuous
 62
     7
100
AcDbLine
 10
-377.3089904785156
 20
171.0075531005859
 30
0.0
 11
-371.7145080566406
 21
165.4130859375
 31
0.0
  0
LINE
  5
14A
330
22
100
AcDbEntity
  8
0
  6
Continuous
 62
     7
100
AcDbLine
 10
-377.3089904785156
 20
166.7649078369141
 30
0.0
 11
-371.8089904785156
 21
161.2649078369141
 31
0.0
  0
LINE
  5
14B
330
22
100
AcDbEntity
  8
0
  6
Continuous
 62
     7
100
AcDbLine
 10
-377.3089904785156
 20
162.5222625732422
 30
0.0
 11
-371.8089904785156
 21
157.0222625732422
 31
0.0
  0
LINE
  5
14C
330
22
100
AcDbEntity
  8
0
  6
Continuous
 62
     7
100
AcDbLine
 10
-377.3089904785156
 20
158.2796325683594
 30
0.0
 11
-371.8089904785156
 21
152.7796325683594
 31
0.0
  0
LINE
  5
14D
330
22
100
AcDbEntity
  8
0
  6
Continuous
 62
     7
100
AcDbLine
 10
-377.3089904785156
 20
154.0369873046875
 30
0.0
 11
-371.8089904785156
 21
148.5369873046875
 31
0.0
  0
LINE
  5
14E
330
22
100
AcDbEntity
  8
0
  6
Continuous
 62
     7
100
AcDbLine
 10
-377.3089904785156
 20
149.7943420410156
 30
0.0
 11
-371.8089904785156
 21
144.2943420410156
 31
0.0
  0
LINE
  5
14F
330
22
100
AcDbEntity
  8
0
  6
Continuous
 62
     7
100
AcDbLine
 10
-377.3089904785156
 20
145.5517120361328
 30
0.0
 11
-371.8089904785156
 21
140.0517120361327
 31
0.0
  0
LINE
  5
150
330
22
100
AcDbEntity
  8
0
  6
Continuous
 62
     7
100
AcDbLine
 10
-377.3089904785156
 20
141.3090667724609
 30
0.0
 11
-371.8089904785156
 21
135.8090667724609
 31
0.0
  0
LINE
  5
151
330
22
100
AcDbEntity
  8
0
  6
Continuous
 62
     7
100
AcDbLine
 10
-377.3089904785156
 20
137.0664215087891
 30
0.0
 11
-371.8089904785156
 21
131.5664215087891
 31
0.0
  0
LINE
  5
152
330
22
100
AcDbEntity
  8
0
  6
Continuous
 62
     7
100
AcDbLine
 10
-377.3089904785156
 20
132.8237762451172
 30
0.0
 11
-371.8089904785156
 21
127.3237838745117
 31
0.0
  0
LINE
  5
153
330
22
100
AcDbEntity
  8
0
  6
Continuous
 62
     7
100
AcDbLine
 10
-377.3089904785156
 20
128.5811462402344
 30
0.0
 11
-371.8089904785156
 21
123.0811386108398
 31
0.0
  0
LINE
  5
154
330
22
100
AcDbEntity
  8
0
  6
Continuous
 62
     7
100
AcDbLine
 10
-377.3089904785156
 20
124.3385009765625
 30
0.0
 11
-371.8089904785156
 21
118.8385009765625
 31
0.0
  0
LINE
  5
155
330
22
100
AcDbEntity
  8
0
  6
Continuous
 62
     7
100
AcDbLine
 10
-377.3089904785156
 20
120.0958633422852
 30
0.0
 11
-375.53173828125
 21
118.3186111450195
 31
0.0
  0
LINE
  5
156
330
22
100
AcDbEntity
  8
0
  6
Continuous
 62
     7
100
AcDbLine
 10
-375.8296813964844
 20
218.318603515625
 30
0.0
 11
-372.4994201660156
 21
214.9883575439453
 31
0.0
  0
LINE
  5
157
330
22
100
AcDbEntity
  8
0
  6
Continuous
 62
     7
100
AcDbLine
 10
-377.3089904785156
 20
215.5552825927734
 30
0.0
 11
-372.3625793457031
 21
210.6088562011719
 31
0.0
  0
LINE
  5
158
330
22
100
AcDbEntity
  8
0
  6
Continuous
 62
     7
100
AcDbLine
 10
-377.3089904785156
 20
211.3126373291016
 30
0.0
 11
-372.2257080078125
 21
206.2293548583984
 31
0.0
  0
LINE
  5
159
330
22
100
AcDbEntity
  8
0
  6
Continuous
 62
     7
100
AcDbLine
 10
-377.3089904785156
 20
207.0699920654297
 30
0.0
 11
-372.0888366699219
 21
201.8498382568359
 31
0.0
  0
LINE
  5
15A
330
22
100
AcDbEntity
  8
0
  6
Continuous
 62
     7
100
AcDbLine
 10
-377.3089904785156
 20
202.8273468017578
 30
0.0
 11
-371.9519653320313
 21
197.4703369140625
 31
0.0
  0
LINE
  5
15B
330
22
100
AcDbEntity
  8
0
  6
Continuous
 62
     7
100
AcDbLine
 10
-377.3089904785156
 20
198.584716796875
 30
0.0
 11
-371.8150939941406
 21
193.0908203125
 31
0.0
  0
LINE
  5
15C
330
22
100
AcDbEntity
  8
0
  6
Continuous
 62
     7
100
AcDbLine
 10
-377.3089904785156
 20
194.3420715332031
 30
0.0
 11
-371.67822265625
 21
188.7113189697266
 31
0.0
  0
LINE
  5
15D
330
22
100
AcDbEntity
  8
0
  6
Continuous
 62
     7
100
AcDbLine
 10
-377.3089904785156
 20
190.0994262695313
 30
0.0
 11
-371.5413513183594
 21
184.3318176269531
 31
0.0
  0
LINE
  5
15E
330
22
100
AcDbEntity
  8
0
  6
Continuous
 62
     7
100
AcDbLine
 10
-377.3089904785156
 20
185.8567962646484
 30
0.0
 11
-369.6589965820313
 21
178.206787109375
 31
0.0
  0
LINE
  5
15F
330
22
100
AcDbEntity
  8
0
  6
Continuous
 62
     7
100
AcDbLine
 10
-377.3089904785156
 20
181.6141510009766
 30
0.0
 11
-369.6589965820313
 21
173.9641571044922
 31
0.0
  0
LINE
  5
160
330
22
100
AcDbEntity
  8
0
  6
Continuous
 62
     7
100
AcDbLine
 10
-377.3089904785156
 20
177.3715057373047
 30
0.0
 11
-369.6589965820313
 21
169.7215118408203
 31
0.0
  0
LINE
  5
161
330
22
100
AcDbEntity
  8
0
  6
Continuous
 62
     7
100
AcDbLine
 10
-377.3089904785156
 20
173.1288757324219
 30
0.0
 11
-370.6538696289063
 21
166.4737396240234
 31
0.0
  0
LINE
  5
162
330
22
100
AcDbEntity
  8
0
  6
Continuous
 62
     7
100
AcDbLine
 10
-377.3089904785156
 20
168.88623046875
 30
0.0
 11
-371.8089904785156
 21
163.38623046875
 31
0.0
  0
LINE
  5
163
330
22
100
AcDbEntity
  8
0
  6
Continuous
 62
     7
100
AcDbLine
 10
-377.3089904785156
 20
164.6435852050781
 30
0.0
 11
-371.8089904785156
 21
159.1435852050781
 31
0.0
  0
LINE
  5
164
330
22
100
AcDbEntity
  8
0
  6
Continuous
 62
     7
100
AcDbLine
 10
-377.3089904785156
 20
160.4009399414063
 30
0.0
 11
-371.8089904785156
 21
154.9009399414063
 31
0.0
  0
LINE
  5
165
330
22
100
AcDbEntity
  8
0
  6
Continuous
 62
     7
100
AcDbLine
 10
-377.3089904785156
 20
156.1583099365234
 30
0.0
 11
-371.8089904785156
 21
150.6583099365234
 31
0.0
  0
LINE
  5
166
330
22
100
AcDbEntity
  8
0
  6
Continuous
 62
     7
100
AcDbLine
 10
-377.3089904785156
 20
151.9156646728516
 30
0.0
 11
-371.8089904785156
 21
146.4156646728516
 31
0.0
  0
LINE
  5
167
330
22
100
AcDbEntity
  8
0
  6
Continuous
 62
     7
100
AcDbLine
 10
-377.3089904785156
 20
147.6730194091797
 30
0.0
 11
-371.8089904785156
 21
142.1730194091797
 31
0.0
  0
LINE
  5
168
330
22
100
AcDbEntity
  8
0
  6
Continuous
 62
     7
100
AcDbLine
 10
-377.3089904785156
 20
143.4303894042969
 30
0.0
 11
-371.8089904785156
 21
137.9303894042969
 31
0.0
  0
LINE
  5
169
330
22
100
AcDbEntity
  8
0
  6
Continuous
 62
     7
100
AcDbLine
 10
-377.3089904785156
 20
139.187744140625
 30
0.0
 11
-371.8089904785156
 21
133.687744140625
 31
0.0
  0
LINE
  5
16A
330
22
100
AcDbEntity
  8
0
  6
Continuous
 62
     7
100
AcDbLine
 10
-377.3089904785156
 20
134.9450988769531
 30
0.0
 11
-371.8089904785156
 21
129.4450988769531
 31
0.0
  0
LINE
  5
16B
330
22
100
AcDbEntity
  8
0
  6
Continuous
 62
     7
100
AcDbLine
 10
-377.3089904785156
 20
130.7024688720703
 30
0.0
 11
-371.8089904785156
 21
125.2024612426758
 31
0.0
  0
LINE
  5
16C
330
22
100
AcDbEntity
  8
0
  6
Continuous
 62
     7
100
AcDbLine
 10
-377.3089904785156
 20
126.4598236083984
 30
0.0
 11
-371.8089904785156
 21
120.9598236083984
 31
0.0
  0
LINE
  5
16D
330
22
100
AcDbEntity
  8
0
  6
Continuous
 62
     7
100
AcDbLine
 10
-377.3089904785156
 20
122.2171783447266
 30
0.0
 11
-373.410400390625
 21
118.3186111450195
 31
0.0
  0
LINE
  5
16E
330
22
100
AcDbEntity
  8
0
  6
Continuous
 62
     7
100
AcDbLine
 10
-371.4965515136719
 20
231.318603515625
 30
0.0
 11
-372.9517822265625
 21
229.8633575439453
 31
0.0
  0
LINE
  5
16F
330
22
100
AcDbEntity
  8
0
  6
Continuous
 62
     7
100
AcDbLine
 10
-411.2619323730468
 20
222.3626861572266
 30
0.0
 11
-411.2619323730468
 21
218.3626861572266
 31
0.0
  0
LINE
  5
170
330
22
100
AcDbEntity
  8
0
  6
Continuous
 62
     7
100
AcDbLine
 10
-415.7226867675781
 20
252.318603515625
 30
0.0
 11
-415.7226867675781
 21
234.1919708251953
 31
0.0
  0
LINE
  5
171
330
22
100
AcDbEntity
  8
0
  6
Continuous
 62
     7
100
AcDbLine
 10
-371.9252319335938
 20
141.4186096191406
 30
0.0
 11
-370.3089904785156
 21
143.318603515625
 31
0.0
  0
LINE
  5
172
330
22
100
AcDbEntity
  8
0
  6
Continuous
 62
     7
100
AcDbLine
 10
-364.3089904785156
 20
143.318603515625
 30
0.0
 11
-370.3089904785156
 21
143.318603515625
 31
0.0
  0
LINE
  5
173
330
22
100
AcDbEntity
  8
0
  6
Continuous
 62
     7
100
AcDbLine
 10
-371.8089904785156
 20
165.318603515625
 30
0.0
 11
-369.6589965820313
 21
167.4686126708984
 31
0.0
  0
LINE
  5
174
330
22
100
AcDbEntity
  8
0
  6
Continuous
 62
     7
100
AcDbLine
 10
-371.9252319335938
 20
98.31861114501952
 30
0.0
 11
-370.3089904785156
 21
99.93485260009766
 31
0.0
  0
LINE
  5
175
330
22
100
AcDbEntity
  8
0
  6
Continuous
 62
     7
100
AcDbLine
 10
-369.6589965820313
 20
180.0623779296875
 30
0.0
 11
-371.46435546875
 21
181.8677520751953
 31
0.0
  0
LINE
  5
176
330
22
100
AcDbEntity
  8
0
  6
Continuous
 62
     7
100
AcDbLine
 10
-406.3089904785156
 20
254.318603515625
 30
0.0
 11
-408.3089904785156
 21
254.318603515625
 31
0.0
  0
LINE
  5
177
330
22
100
AcDbEntity
  8
0
  6
Continuous
 62
     7
100
AcDbLine
 10
-408.3089904785156
 20
254.318603515625
 30
0.0
 11
-408.4839477539063
 21
252.318603515625
 31
0.0
  0
LINE
  5
178
330
22
100
AcDbEntity
  8
0
  6
Continuous
 62
     7
100
AcDbLine
 10
-408.4839477539063
 20
252.318603515625
 30
0.0
 11
-411.3839721679688
 21
252.318603515625
 31
0.0
  0
LINE
  5
179
330
22
100
AcDbEntity
  8
0
  6
Continuous
 62
     7
100
AcDbLine
 10
-411.3839721679688
 20
248.818603515625
 30
0.0
 11
-408.7901611328125
 21
248.818603515625
 31
0.0
  0
LINE
  5
17A
330
22
100
AcDbEntity
  8
0
  6
Continuous
 62
     7
100
AcDbLine
 10
-357.3089904785156
 20
193.318603515625
 30
0.0
 11
-357.3089904785156
 21
244.318603515625
 31
0.0
  0
LINE
  5
17B
330
22
100
AcDbEntity
  8
0
  6
Continuous
 62
     7
100
AcDbLine
 10
-371.4965515136719
 20
231.318603515625
 30
0.0
 11
-370.3089904785156
 21
193.318603515625
 31
0.0
  0
LINE
  5
17C
330
22
100
AcDbEntity
  8
0
  6
Continuous
 62
     7
100
AcDbLine
 10
-372.9517822265625
 20
229.8633575439453
 30
0.0
 11
-371.8581237792969
 21
194.8677520751953
 31
0.0
  0
LINE
  5
17D
330
22
100
AcDbEntity
  8
0
  6
Continuous
 62
     7
100
AcDbLine
 10
-353.8089904785156
 20
246.318603515625
 30
0.0
 11
-355.3089904785156
 21
246.318603515625
 31
0.0
  0
LINE
  5
17E
330
22
100
AcDbEntity
  8
0
  6
Continuous
 62
     7
100
AcDbLine
 10
-354.3089904785156
 20
256.318603515625
 30
0.0
 11
-353.8089904785156
 21
255.818603515625
 31
0.0
  0
LINE
  5
17F
330
22
100
AcDbEntity
  8
0
  6
Continuous
 62
     7
100
AcDbLine
 10
-353.8089904785156
 20
246.318603515625
 30
0.0
 11
-353.8089904785156
 21
255.818603515625
 31
0.0
  0
LINE
  5
180
330
22
100
AcDbEntity
  8
0
  6
Continuous
 62
     7
100
AcDbLine
 10
-378.4990234375
 20
254.1465911865234
 30
0.0
 11
-376.3269958496094
 21
256.318603515625
 31
0.0
  0
LINE
  5
181
330
22
100
AcDbEntity
  8
0
  6
Continuous
 62
     7
100
AcDbLine
 10
-378.7702026367188
 20
251.0469818115234
 30
0.0
 11
-373.4985656738281
 21
256.318603515625
 31
0.0
  0
LINE
  5
182
330
22
100
AcDbEntity
  8
0
  6
Continuous
 62
     7
100
AcDbLine
 10
-379.0413818359375
 20
247.9473724365234
 30
0.0
 11
-370.6701354980469
 21
256.318603515625
 31
0.0
  0
LINE
  5
183
330
22
100
AcDbEntity
  8
0
  6
Continuous
 62
     7
100
AcDbLine
 10
-379.3125610351563
 20
244.8477783203125
 30
0.0
 11
-367.8417053222656
 21
256.318603515625
 31
0.0
  0
LINE
  5
184
330
22
100
AcDbEntity
  8
0
  6
Continuous
 62
     7
100
AcDbLine
 10
-383.8089904785156
 20
240.3513336181641
 30
0.0
 11
-382.8417053222656
 21
241.318603515625
 31
0.0
  0
LINE
  5
185
330
22
100
AcDbEntity
  8
0
  6
Continuous
 62
     7
100
AcDbLine
 10
-379.583740234375
 20
241.7481689453125
 30
0.0
 11
-365.0132751464844
 21
256.318603515625
 31
0.0
  0
LINE
  5
186
330
22
100
AcDbEntity
  8
0
  6
Continuous
 62
     7
100
AcDbLine
 10
-383.8089904785156
 20
237.5229187011719
 30
0.0
 11
-380.0132751464844
 21
241.318603515625
 31
0.0
  0
LINE
  5
187
330
22
100
AcDbEntity
  8
0
  6
Continuous
 62
     7
100
AcDbLine
 10
-383.8089904785156
 20
234.6944885253906
 30
0.0
 11
-362.1848754882813
 21
256.318603515625
 31
0.0
  0
LINE
  5
188
330
22
100
AcDbEntity
  8
0
  6
Continuous
 62
     7
100
AcDbLine
 10
-383.8089904785156
 20
231.8660583496094
 30
0.0
 11
-359.3564453125
 21
256.318603515625
 31
0.0
  0
LINE
  5
189
330
22
100
AcDbEntity
  8
0
  6
Continuous
 62
     7
100
AcDbLine
 10
-381.5280151367188
 20
231.318603515625
 30
0.0
 11
-356.5280151367188
 21
256.318603515625
 31
0.0
  0
LINE
  5
18A
330
22
100
AcDbEntity
  8
0
  6
Continuous
 62
     7
100
AcDbLine
 10
-378.6995849609375
 20
231.318603515625
 30
0.0
 11
-354.0042724609375
 21
256.013916015625
 31
0.0
  0
LINE
  5
18B
330
22
100
AcDbEntity
  8
0
  6
Continuous
 62
     7
100
AcDbLine
 10
-375.8711547851563
 20
231.318603515625
 30
0.0
 11
-353.8089904785156
 21
253.3807830810547
 31
0.0
  0
LINE
  5
18C
330
22
100
AcDbEntity
  8
0
  6
Continuous
 62
     7
100
AcDbLine
 10
-373.042724609375
 20
231.318603515625
 30
0.0
 11
-353.8089904785156
 21
250.5523529052734
 31
0.0
  0
LINE
  5
18D
330
22
100
AcDbEntity
  8
0
  6
Continuous
 62
     7
100
AcDbLine
 10
-355.2142944335938
 20
246.318603515625
 30
0.0
 11
-353.8089904785156
 21
247.7239227294922
 31
0.0
  0
LINE
  5
18E
330
22
100
AcDbEntity
  8
0
  6
Continuous
 62
     7
100
AcDbLine
 10
-371.4576721191406
 20
230.0752258300781
 30
0.0
 11
-357.3089904785156
 21
244.2239227294922
 31
0.0
  0
LINE
  5
18F
330
22
100
AcDbEntity
  8
0
  6
Continuous
 62
     7
100
AcDbLine
 10
-371.3719787597656
 20
227.3325042724609
 30
0.0
 11
-357.3089904785156
 21
241.3954925537109
 31
0.0
  0
LINE
  5
190
330
22
100
AcDbEntity
  8
0
  6
Continuous
 62
     7
100
AcDbLine
 10
-371.2862548828125
 20
224.5897979736328
 30
0.0
 11
-357.3089904785156
 21
238.5670623779297
 31
0.0
  0
LINE
  5
191
330
22
100
AcDbEntity
  8
0
  6
Continuous
 62
     7
100
AcDbLine
 10
-371.2005310058594
 20
221.8470764160156
 30
0.0
 11
-357.3089904785156
 21
235.7386474609375
 31
0.0
  0
LINE
  5
192
330
22
100
AcDbEntity
  8
0
  6
Continuous
 62
     7
100
AcDbLine
 10
-371.1148376464844
 20
219.1043701171875
 30
0.0
 11
-357.3089904785156
 21
232.9102172851563
 31
0.0
  0
LINE
  5
193
330
22
100
AcDbEntity
  8
0
  6
Continuous
 62
     7
100
AcDbLine
 10
-371.0291137695313
 20
216.3616638183594
 30
0.0
 11
-357.3089904785156
 21
230.081787109375
 31
0.0
  0
LINE
  5
194
330
22
100
AcDbEntity
  8
0
  6
Continuous
 62
     7
100
AcDbLine
 10
-370.9433898925781
 20
213.6189422607422
 30
0.0
 11
-357.3089904785156
 21
227.2533569335938
 31
0.0
  0
LINE
  5
195
330
22
100
AcDbEntity
  8
0
  6
Continuous
 62
     7
100
AcDbLine
 10
-370.8576965332031
 20
210.8762359619141
 30
0.0
 11
-357.3089904785156
 21
224.4249267578125
 31
0.0
  0
LINE
  5
196
330
22
100
AcDbEntity
  8
0
  6
Continuous
 62
     7
100
AcDbLine
 10
-370.77197265625
 20
208.1335144042969
 30
0.0
 11
-357.3089904785156
 21
221.5965118408203
 31
0.0
  0
LINE
  5
197
330
22
100
AcDbEntity
  8
0
  6
Continuous
 62
     7
100
AcDbLine
 10
-370.6862487792969
 20
205.3908081054689
 30
0.0
 11
-357.3089904785156
 21
218.7680816650391
 31
0.0
  0
LINE
  5
198
330
22
100
AcDbEntity
  8
0
  6
Continuous
 62
     7
100
AcDbLine
 10
-370.6005554199219
 20
202.6480865478516
 30
0.0
 11
-357.3089904785156
 21
215.9396514892578
 31
0.0
  0
LINE
  5
199
330
22
100
AcDbEntity
  8
0
  6
Continuous
 62
     7
100
AcDbLine
 10
-370.5148315429688
 20
199.9053802490234
 30
0.0
 11
-357.3089904785156
 21
213.1112213134766
 31
0.0
  0
LINE
  5
19A
330
22
100
AcDbEntity
  8
0
  6
Continuous
 62
     7
100
AcDbLine
 10
-370.4291076660156
 20
197.1626586914063
 30
0.0
 11
-357.3089904785156
 21
210.2827911376953
 31
0.0
  0
LINE
  5
19B
330
22
100
AcDbEntity
  8
0
  6
Continuous
 62
     7
100
AcDbLine
 10
-370.3434143066406
 20
194.4199523925781
 30
0.0
 11
-357.3089904785156
 21
207.4543762207031
 31
0.0
  0
LINE
  5
19C
330
22
100
AcDbEntity
  8
0
  6
Continuous
 62
     7
100
AcDbLine
 10
-368.6163330078125
 20
193.318603515625
 30
0.0
 11
-357.3089904785156
 21
204.6259460449219
 31
0.0
  0
LINE
  5
19D
330
22
100
AcDbEntity
  8
0
  6
Continuous
 62
     7
100
AcDbLine
 10
-365.7879028320313
 20
193.318603515625
 30
0.0
 11
-357.3089904785156
 21
201.7975158691406
 31
0.0
  0
LINE
  5
19E
330
22
100
AcDbEntity
  8
0
  6
Continuous
 62
     7
100
AcDbLine
 10
-362.95947265625
 20
193.318603515625
 30
0.0
 11
-357.3089904785156
 21
198.9690856933594
 31
0.0
  0
LINE
  5
19F
330
22
100
AcDbEntity
  8
0
  6
Continuous
 62
     7
100
AcDbLine
 10
-360.1310424804688
 20
193.318603515625
 30
0.0
 11
-357.3089904785156
 21
196.1406555175781
 31
0.0
  0
LINE
  5
1A0
330
22
100
AcDbEntity
  8
0
  6
Continuous
 62
     7
100
AcDbLine
 10
-379.6713256835938
 20
241.318603515625
 30
0.0
 11
-411.3839721679688
 21
241.318603515625
 31
0.0
  0
LINE
  5
1A1
330
22
100
AcDbEntity
  8
0
  6
Continuous
 62
     7
100
AcDbLine
 10
-379.6213073730469
 20
241.318603515625
 30
0.0
 11
-411.3839721679688
 21
241.318603515625
 31
0.0
  0
LINE
  5
1A2
330
22
100
AcDbEntity
  8
0
  6
Continuous
 62
     7
100
AcDbLine
 10
-406.2089843749999
 20
254.8184967041016
 30
0.0
 11
-404.7088623046875
 21
256.318603515625
 31
0.0
  0
LINE
  5
1A3
330
22
100
AcDbEntity
  8
0
  6
Continuous
 62
     7
100
AcDbLine
 10
-408.3268127441406
 20
254.1148834228516
 30
0.0
 11
-408.123077392578
 21
254.318603515625
 31
0.0
  0
LINE
  5
1A4
330
22
100
AcDbEntity
  8
0
  6
Continuous
 62
     7
100
AcDbLine
 10
-406.2089843749999
 20
256.2326965332031
 30
0.0
 11
-406.1230773925781
 21
256.318603515625
 31
0.0
  0
LINE
  5
1A5
330
22
100
AcDbEntity
  8
0
  6
Continuous
 62
     7
100
AcDbLine
 10
-408.4624023437499
 20
252.5650787353516
 30
0.0
 11
-406.7088623046875
 21
254.318603515625
 31
0.0
  0
LINE
  5
1A6
330
22
100
AcDbEntity
  8
0
  6
Continuous
 62
     7
100
AcDbLine
 10
-408.788360595703
 20
249.4106750488281
 30
0.0
 11
-401.8804321289063
 21
256.318603515625
 31
0.0
  0
LINE
  5
1A7
330
22
100
AcDbEntity
  8
0
  6
Continuous
 62
     7
100
AcDbLine
 10
-408.8691711425781
 20
247.9156646728516
 30
0.0
 11
-400.4662170410155
 21
256.318603515625
 31
0.0
  0
LINE
  5
1A8
330
22
100
AcDbEntity
  8
0
  6
Continuous
 62
     7
100
AcDbLine
 10
-409.0047607421874
 20
246.3658599853516
 30
0.0
 11
-399.052001953125
 21
256.318603515625
 31
0.0
  0
LINE
  5
1A9
330
22
100
AcDbEntity
  8
0
  6
Continuous
 62
     7
100
AcDbLine
 10
-409.3307495117188
 20
243.2114562988281
 30
0.0
 11
-396.2235717773438
 21
256.318603515625
 31
0.0
  0
LINE
  5
1AA
330
22
100
AcDbEntity
  8
0
  6
Continuous
 62
     7
100
AcDbLine
 10
-409.4663391113281
 20
241.6616516113281
 30
0.0
 11
-394.8093566894531
 21
256.318603515625
 31
0.0
  0
LINE
  5
1AB
330
22
100
AcDbEntity
  8
0
  6
Continuous
 62
     7
100
AcDbLine
 10
-408.3951721191406
 20
241.318603515625
 30
0.0
 11
-393.3951721191406
 21
256.318603515625
 31
0.0
  0
LINE
  5
1AC
330
22
100
AcDbEntity
  8
0
  6
Continuous
 62
     7
100
AcDbLine
 10
-405.5667419433594
 20
241.318603515625
 30
0.0
 11
-390.5667419433594
 21
256.318603515625
 31
0.0
  0
LINE
  5
1AD
330
22
100
AcDbEntity
  8
0
  6
Continuous
 62
     7
100
AcDbLine
 10
-404.1525268554687
 20
241.318603515625
 30
0.0
 11
-389.1525268554688
 21
256.318603515625
 31
0.0
  0
LINE
  5
1AE
330
22
100
AcDbEntity
  8
0
  6
Continuous
 62
     7
100
AcDbLine
 10
-402.7383117675781
 20
241.318603515625
 30
0.0
 11
-387.7383117675781
 21
256.318603515625
 31
0.0
  0
LINE
  5
1AF
330
22
100
AcDbEntity
  8
0
  6
Continuous
 62
     7
100
AcDbLine
 10
-399.9098815917969
 20
241.318603515625
 30
0.0
 11
-384.9098815917969
 21
256.318603515625
 31
0.0
  0
LINE
  5
1B0
330
22
100
AcDbEntity
  8
0
  6
Continuous
 62
     7
100
AcDbLine
 10
-398.4956665039063
 20
241.318603515625
 30
0.0
 11
-383.4956665039063
 21
256.318603515625
 31
0.0
  0
LINE
  5
1B1
330
22
100
AcDbEntity
  8
0
  6
Continuous
 62
     7
100
AcDbLine
 10
-397.0814514160156
 20
241.318603515625
 30
0.0
 11
-382.0814514160156
 21
256.318603515625
 31
0.0
  0
LINE
  5
1B2
330
22
100
AcDbEntity
  8
0
  6
Continuous
 62
     7
100
AcDbLine
 10
-394.2530212402344
 20
241.318603515625
 30
0.0
 11
-379.2530212402344
 21
256.318603515625
 31
0.0
  0
LINE
  5
1B3
330
22
100
AcDbEntity
  8
0
  6
Continuous
 62
     7
100
AcDbLine
 10
-380.8388061523438
 20
253.318603515625
 30
0.0
 11
-378.4088439941406
 21
255.7485656738281
 31
0.0
  0
LINE
  5
1B4
330
22
100
AcDbEntity
  8
0
  6
Continuous
 62
     7
100
AcDbLine
 10
-392.8388061523438
 20
241.318603515625
 30
0.0
 11
-381.3089904785156
 21
252.8484344482422
 31
0.0
  0
LINE
  5
1B5
330
22
100
AcDbEntity
  8
0
  6
Continuous
 62
     7
100
AcDbLine
 10
-379.4245910644531
 20
253.318603515625
 30
0.0
 11
-378.54443359375
 21
254.1987609863281
 31
0.0
  0
LINE
  5
1B6
330
22
100
AcDbEntity
  8
0
  6
Continuous
 62
     7
100
AcDbLine
 10
-391.4245910644531
 20
241.318603515625
 30
0.0
 11
-381.3089904785156
 21
251.4342193603516
 31
0.0
  0
LINE
  5
1B7
330
22
100
AcDbEntity
  8
0
  6
Continuous
 62
     7
100
AcDbLine
 10
-388.5961608886719
 20
241.318603515625
 30
0.0
 11
-379.7961730957031
 21
250.1186065673828
 31
0.0
  0
LINE
  5
1B8
330
22
100
AcDbEntity
  8
0
  6
Continuous
 62
     7
100
AcDbLine
 10
-387.1819458007813
 20
241.318603515625
 30
0.0
 11
-378.9512329101563
 21
249.5493469238281
 31
0.0
  0
LINE
  5
1B9
330
22
100
AcDbEntity
  8
0
  6
Continuous
 62
     7
100
AcDbLine
 10
-385.7677307128906
 20
241.318603515625
 30
0.0
 11
-379.0868225097656
 21
247.9995422363281
 31
0.0
  0
LINE
  5
1BA
330
22
100
AcDbEntity
  8
0
  6
Continuous
 62
     7
100
AcDbLine
 10
-382.9393005371094
 20
241.318603515625
 30
0.0
 11
-379.3580017089844
 21
244.8999328613281
 31
0.0
  0
LINE
  5
1BB
330
22
100
AcDbEntity
  8
0
  6
Continuous
 62
     7
100
AcDbLine
 10
-381.5250854492188
 20
241.318603515625
 30
0.0
 11
-379.4935913085938
 21
243.3501281738281
 31
0.0
  0
LINE
  5
1BC
330
22
100
AcDbEntity
  8
0
  6
Continuous
 62
     7
100
AcDbLine
 10
-380.1109008789063
 20
241.318603515625
 30
0.0
 11
-379.6291809082031
 21
241.8003234863281
 31
0.0
  0
LINE
  5
1BD
330
22
100
AcDbEntity
  8
0
  6
Continuous
 62
     7
100
AcDbLine
 10
-381.3089904785156
 20
250.1186065673828
 30
0.0
 11
-378.9014282226563
 21
250.1186065673828
 31
0.0
  0
LINE
  5
1BE
330
22
100
AcDbEntity
  8
0
  6
Continuous
 62
     7
100
AcDbLine
 10
-378.9014282226563
 20
250.1186065673828
 30
0.0
 11
-379.6713256835938
 21
241.318603515625
 31
0.0
  0
LINE
  5
1BF
330
22
100
AcDbEntity
  8
0
  6
Continuous
 62
     7
100
AcDbLine
 10
-383.8089904785156
 20
241.318603515625
 30
0.0
 11
-383.8089904785156
 21
231.318603515625
 31
0.0
  0
LINE
  5
1C0
330
22
100
AcDbEntity
  8
0
  6
Continuous
 62
     7
100
AcDbLine
 10
-415.7226867675781
 20
242.318603515625
 30
0.0
 11
-415.7226867675781
 21
234.318603515625
 31
0.0
  0
LINE
  5
1C1
330
22
100
AcDbEntity
  8
0
  6
Continuous
 62
     7
100
AcDbLine
 10
-406.3089904785156
 20
256.318603515625
 30
0.0
 11
-406.3089904785156
 21
254.318603515625
 31
0.0
  0
LINE
  5
1C2
330
22
100
AcDbEntity
  8
0
  6
Continuous
 62
     7
100
AcDbLine
 10
-378.3089904785156
 20
256.318603515625
 30
0.0
 11
-379.6213073730469
 21
241.318603515625
 31
0.0
  0
LINE
  5
1C3
330
22
100
AcDbEntity
  8
0
  6
Continuous
 62
     7
100
AcDbLine
 10
-357.3089904785156
 20
193.318603515625
 30
0.0
 11
-370.3214721679688
 21
193.318603515625
 31
0.0
  0
LINE
  5
1C4
330
22
100
AcDbEntity
  8
0
  6
Continuous
 62
     7
100
AcDbLine
 10
-372.603515625
 20
218.318603515625
 30
0.0
 11
-371.0543518066406
 21
216.7694702148438
 31
0.0
  0
LINE
  5
1C5
330
22
100
AcDbEntity
  8
0
  6
Continuous
 62
     7
100
AcDbLine
 10
-408.7901611328125
 20
248.818603515625
 30
0.0
 11
-409.1838684082031
 21
244.318603515625
 31
0.0
  0
LINE
  5
1C6
330
22
100
AcDbEntity
  8
0
  6
Continuous
 62
     7
100
AcDbLine
 10
-409.1838684082031
 20
244.318603515625
 30
0.0
 11
-409.3839721679688
 21
244.318603515625
 31
0.0
  0
LINE
  5
1C7
330
22
100
AcDbEntity
  8
0
  6
Continuous
 62
     7
100
AcDbLine
 10
-408.3589782714843
 20
254.318603515625
 30
0.0
 11
-409.496337890625
 21
241.318603515625
 31
0.0
  0
LINE
  5
1C8
330
22
100
AcDbEntity
  8
0
  6
Continuous
 62
     7
100
AcDbLine
 10
-406.2089843749999
 20
256.318603515625
 30
0.0
 11
-406.2089843749999
 21
254.318603515625
 31
0.0
  0
LINE
  5
1C9
330
22
100
AcDbEntity
  8
0
  6
Continuous
 62
     7
100
AcDbLine
 10
-411.3839721679688
 20
252.318603515625
 30
0.0
 11
-411.3839721679688
 21
248.818603515625
 31
0.0
  0
LINE
  5
1CA
330
22
100
AcDbEntity
  8
0
  6
Continuous
 62
     7
100
AcDbLine
 10
-405.2619323730469
 20
222.3626861572266
 30
0.0
 11
-405.2619323730469
 21
218.3626861572266
 31
0.0
  0
LINE
  5
1CB
330
22
100
AcDbEntity
  8
0
  6
Continuous
 62
     7
100
AcDbLine
 10
-404.2619323730468
 20
222.3626861572266
 30
0.0
 11
-404.2619323730468
 21
218.3626861572266
 31
0.0
  0
LINE
  5
1CC
330
22
100
AcDbEntity
  8
0
  6
Continuous
 62
     7
100
AcDbLine
 10
-411.3839721679688
 20
222.3626861572266
 30
0.0
 11
-404.2619323730468
 21
222.3626861572266
 31
0.0
  0
LINE
  5
1CD
330
22
100
AcDbEntity
  8
0
  6
Continuous
 62
     7
100
AcDbLine
 10
-315.8089904785156
 20
105.3186111450195
 30
0.0
 11
-364.3089904785156
 21
105.3186111450195
 31
0.0
  0
LINE
  5
1CE
330
22
100
AcDbEntity
  8
0
  6
Continuous
 62
     7
100
AcDbLine
 10
-315.8089904785156
 20
102.3186111450195
 30
0.0
 11
-364.3089904785156
 21
102.3186111450195
 31
0.0
  0
LINE
  5
1CF
330
22
100
AcDbEntity
  8
0
  6
Continuous
 62
     7
100
AcDbLine
 10
-333.8752136230469
 20
104.3186111450195
 30
0.0
 11
-334.8752136230469
 21
105.3186111450195
 31
0.0
  0
LINE
  5
1D0
330
22
100
AcDbEntity
  8
0
  6
Continuous
 62
     7
100
AcDbLine
 10
-349.4596252441406
 20
105.3186111450195
 30
0.0
 11
-350.4596252441406
 21
104.3186111450195
 31
0.0
  0
LINE
  5
1D1
330
22
100
AcDbEntity
  8
0
  6
Continuous
 62
     7
100
AcDbLine
 10
-371.4965515136719
 20
231.318603515625
 30
0.0
 11
-411.3839721679688
 21
231.318603515625
 31
0.0
  0
LINE
  5
1D2
330
22
100
AcDbEntity
  8
0
  6
Continuous
 62
     7
100
AcDbLine
 10
-372.9517822265625
 20
229.8633575439453
 30
0.0
 11
-411.3839721679688
 21
229.8633575439453
 31
0.0
  0
LINE
  5
1D3
330
22
100
AcDbEntity
  8
0
  6
Continuous
 62
     7
100
AcDbLine
 10
-498.3089904785156
 20
246.318603515625
 30
0.0
 11
-426.8089904785155
 21
246.318603515625
 31
0.0
  0
LINE
  5
1D4
330
22
100
AcDbEntity
  8
0
  6
Continuous
 62
     7
100
AcDbLine
 10
-426.8089904785155
 20
256.318603515625
 30
0.0
 11
-499.3089904785156
 21
256.318603515625
 31
0.0
  0
LINE
  5
1D5
330
22
100
AcDbEntity
  8
0
  6
Continuous
 62
     7
100
AcDbLine
 10
-496.3089904785156
 20
193.318603515625
 30
0.0
 11
-426.8089904785155
 21
193.318603515625
 31
0.0
  0
LINE
  5
1D6
330
22
100
AcDbEntity
  8
0
  6
Continuous
 62
     7
100
AcDbLine
 10
-426.8089904785155
 20
102.3186111450195
 30
0.0
 11
-537.8089599609374
 21
102.3186111450195
 31
0.0
  0
LINE
  5
1D7
330
22
100
AcDbEntity
  8
0
  6
Continuous
 62
     7
100
AcDbLine
 10
-426.8089904785155
 20
105.3186111450195
 30
0.0
 11
-537.8089599609374
 21
105.3186111450195
 31
0.0
  0
LINE
  5
1D8
330
22
100
AcDbEntity
  8
0
  6
Continuous
 62
     7
100
AcDbLine
 10
-426.8089904785155
 20
143.318603515625
 30
0.0
 11
-489.3089904785155
 21
143.318603515625
 31
0.0
  0
LINE
  5
1D9
330
22
100
AcDbEntity
  8
0
  6
Continuous
 62
     7
100
AcDbLine
 10
-499.3089904785156
 20
256.318603515625
 30
0.0
 11
-499.8089904785156
 21
255.818603515625
 31
0.0
  0
LINE
  5
1DA
330
22
100
AcDbEntity
  8
0
  6
Continuous
 62
     7
100
AcDbLine
 10
-499.8089904785156
 20
246.318603515625
 30
0.0
 11
-499.8089904785156
 21
255.818603515625
 31
0.0
  0
LINE
  5
1DB
330
22
100
AcDbEntity
  8
0
  6
Continuous
 62
     7
100
AcDbLine
 10
-489.3089904785155
 20
143.318603515625
 30
0.0
 11
-489.3089904785155
 21
105.3186111450195
 31
0.0
  0
LINE
  5
1DC
330
22
100
AcDbEntity
  8
0
  6
Continuous
 62
     7
100
AcDbLine
 10
-489.3089904785155
 20
102.3186111450195
 30
0.0
 11
-489.3089904785155
 21
50.31861114501953
 31
0.0
  0
LINE
  5
1DD
330
22
100
AcDbEntity
  8
0
  6
Continuous
 62
     7
100
AcDbLine
 10
-481.7957458496094
 20
193.318603515625
 30
0.0
 11
-482.1535949707031
 21
181.8677520751953
 31
0.0
  0
LINE
  5
1DE
330
22
100
AcDbEntity
  8
0
  6
Continuous
 62
     7
100
AcDbLine
 10
-483.2964782714843
 20
193.318603515625
 30
0.0
 11
-483.7027587890625
 21
180.318603515625
 31
0.0
  0
LINE
  5
1DF
330
22
100
AcDbEntity
  8
0
  6
Continuous
 62
     7
100
AcDbLine
 10
-426.8089904785155
 20
218.318603515625
 30
0.0
 11
-372.603515625
 21
218.318603515625
 31
0.0
  0
LINE
  5
1E0
330
22
100
AcDbEntity
  8
0
  6
Continuous
 62
     7
100
AcDbLine
 10
-415.7226867675781
 20
252.318603515625
 30
0.0
 11
-426.9089965820312
 21
252.318603515625
 31
0.0
  0
LINE
  5
1E1
330
22
100
AcDbEntity
  8
0
  6
Continuous
 62
     7
100
AcDbLine
 10
-426.8089904785155
 20
256.318603515625
 30
0.0
 11
-406.3089904785156
 21
256.318603515625
 31
0.0
  0
LINE
  5
1E2
330
22
100
AcDbEntity
  8
0
  6
Continuous
 62
     7
100
AcDbLine
 10
-417.4089965820312
 20
256.318603515625
 30
0.0
 11
-417.4089965820312
 21
252.318603515625
 31
0.0
  0
LINE
  5
1E3
330
22
100
AcDbEntity
  8
0
  6
Continuous
 62
     7
100
AcDbLine
 10
-373.0448303222656
 20
98.31861114501952
 30
0.0
 11
-426.8089904785155
 21
98.31861114501952
 31
0.0
  0
LINE
  5
1E4
330
22
100
AcDbEntity
  8
0
  6
Continuous
 62
     7
100
AcDbLine
 10
-421.9089965820312
 20
256.318603515625
 30
0.0
 11
-421.9089965820312
 21
252.318603515625
 31
0.0
  0
LINE
  5
1E5
330
22
100
AcDbEntity
  8
0
  6
Continuous
 62
     7
100
AcDbLine
 10
-426.8089904785155
 20
118.3186111450195
 30
0.0
 11
-371.8089904785156
 21
118.3186111450195
 31
0.0
  0
LINE
  5
1E6
330
22
100
AcDbEntity
  8
0
  6
Continuous
 62
     7
100
AcDbLine
 10
-370.3089904785156
 20
99.93485260009766
 30
0.0
 11
-426.8089904785155
 21
99.93485260009766
 31
0.0
  0
LINE
  5
1E7
330
22
100
AcDbEntity
  8
0
  6
Continuous
 62
     7
100
AcDbLine
 10
-371.3756103515625
 20
84.44940948486328
 30
0.0
 11
-426.8089904785155
 21
84.44940948486328
 31
0.0
  0
LINE
  5
1E8
330
22
100
AcDbEntity
  8
0
  6
Continuous
 62
     7
100
AcDbLine
 10
-371.97509765625
 20
51.88873291015625
 30
0.0
 11
-426.8089904785155
 21
51.88873291015625
 31
0.0
  0
LINE
  5
1E9
330
22
100
AcDbEntity
  8
0
  6
Continuous
 62
     7
100
AcDbLine
 10
-426.8089904785155
 20
256.318603515625
 30
0.0
 11
-354.3089904785156
 21
256.318603515625
 31
0.0
  0
LINE
  5
1EA
330
22
100
AcDbEntity
  8
0
  6
Continuous
 62
     7
100
AcDbLine
 10
-364.3089904785156
 20
50.31861114501953
 30
0.0
 11
-489.3089904785155
 21
50.31861114501953
 31
0.0
  0
LINE
  5
1EB
330
22
100
AcDbEntity
  8
0
  6
CENTER
 62
     7
100
AcDbLine
 10
-426.8089904785155
 20
272.9305725097656
 30
0.0
 11
-426.8089904785155
 21
41.16755676269531
 31
0.0
  0
LINE
  5
1EC
330
22
100
AcDbEntity
  8
0
  6
Continuous
 62
     7
100
AcDbLine
 10
-496.3089904785156
 20
244.318603515625
 30
0.0
 11
-496.3089904785156
 21
193.318603515625
 31
0.0
  0
LINE
  5
1ED
330
22
100
AcDbEntity
  8
0
  6
Continuous
 62
     7
100
AcDbLine
 10
-483.9589843749999
 20
180.0623779296875
 30
0.0
 11
-482.1535949707031
 21
181.8677520751953
 31
0.0
  0
LINE
  5
1EE
330
22
100
AcDbEntity
  8
0
  6
Continuous
 62
     7
100
AcDbLine
 10
-483.9589843749999
 20
180.0623779296875
 30
0.0
 11
-483.9589843749999
 21
167.4686126708984
 31
0.0
  0
LINE
  5
1EF
330
22
100
AcDbEntity
  8
0
  6
Continuous
 62
     7
100
AcDbLine
 10
-481.8089904785156
 20
143.318603515625
 30
0.0
 11
-481.8089904785156
 21
165.318603515625
 31
0.0
  0
LINE
  5
1F0
330
22
100
AcDbEntity
  8
0
  6
Continuous
 62
     7
100
AcDbLine
 10
-481.8089904785156
 20
165.318603515625
 30
0.0
 11
-483.9589843749999
 21
167.4686126708984
 31
0.0
  0
LINE
  5
1F1
330
22
100
AcDbEntity
  8
0
  6
Continuous
 62
     7
100
AcDbLine
 10
-483.3089904785156
 20
143.318603515625
 30
0.0
 11
-483.3089904785156
 21
166.818603515625
 31
0.0
  0
LINE
  5
1F2
330
22
100
AcDbEntity
  8
0
  6
Continuous
 62
     7
100
AcDbLine
 10
-537.8089599609374
 20
102.3186111450195
 30
0.0
 11
-537.8089599609374
 21
105.3186111450195
 31
0.0
  0
LINE
  5
1F3
330
22
100
AcDbEntity
  8
0
  6
Continuous
 62
     7
100
AcDbLine
 10
-499.8089904785156
 20
246.318603515625
 30
0.0
 11
-498.3089904785156
 21
246.318603515625
 31
0.0
  0
LINE
  5
1F4
330
22
100
AcDbEntity
  8
0
  6
Continuous
 62
     7
100
AcDbLine
 10
-482.1535949707031
 20
181.8677520751953
 30
0.0
 11
-426.8089904785155
 21
181.8677520751953
 31
0.0
  0
LINE
  5
1F5
330
22
100
AcDbEntity
  8
0
  6
Continuous
 62
     7
100
AcDbLine
 10
-481.8089904785156
 20
165.318603515625
 30
0.0
 11
-426.8089904785155
 21
165.318603515625
 31
0.0
  0
LINE
  5
1F6
330
22
100
AcDbEntity
  8
0
  6
Continuous
 62
     7
100
AcDbLine
 10
-426.8089904785155
 20
256.318603515625
 30
0.0
 11
-378.3589782714844
 21
256.318603515625
 31
0.0
  0
LINE
  5
1F7
330
22
100
AcDbEntity
  8
0
  6
Continuous
 62
     7
100
AcDbLine
 10
-426.9089965820312
 20
234.318603515625
 30
0.0
 11
-415.6190795898438
 21
234.318603515625
 31
0.0
  0
LINE
  5
1F8
330
22
100
AcDbEntity
  8
0
  6
Continuous
 62
     7
100
AcDbLine
 10
-404.2619323730468
 20
218.3626861572266
 30
0.0
 11
-426.7619323730468
 21
218.3626861572266
 31
0.0
  0
LINE
  5
1F9
330
22
100
AcDbEntity
  8
0
  6
Continuous
 62
     7
100
AcDbLine
 10
-417.4089965820312
 20
253.5179901123047
 30
0.0
 11
-414.6083679199218
 21
256.318603515625
 31
0.0
  0
LINE
  5
1FA
330
22
100
AcDbEntity
  8
0
  6
Continuous
 62
     7
100
AcDbLine
 10
-415.7799377441405
 20
252.318603515625
 30
0.0
 11
-411.7799377441405
 21
256.318603515625
 31
0.0
  0
LINE
  5
1FB
330
22
100
AcDbEntity
  8
0
  6
Continuous
 62
     7
100
AcDbLine
 10
-415.7226867675781
 20
249.5474243164063
 30
0.0
 11
-408.9515075683594
 21
256.318603515625
 31
0.0
  0
LINE
  5
1FC
330
22
100
AcDbEntity
  8
0
  6
Continuous
 62
     7
100
AcDbLine
 10
-408.123077392578
 20
254.318603515625
 30
0.0
 11
-406.3089904785156
 21
256.1326904296875
 31
0.0
  0
LINE
  5
1FD
330
22
100
AcDbEntity
  8
0
  6
Continuous
 62
     7
100
AcDbLine
 10
-410.1230773925781
 20
252.318603515625
 30
0.0
 11
-408.381591796875
 21
254.0600891113281
 31
0.0
  0
LINE
  5
1FE
330
22
100
AcDbEntity
  8
0
  6
Continuous
 62
     7
100
AcDbLine
 10
-415.7226867675781
 20
246.718994140625
 30
0.0
 11
-411.3839721679688
 21
251.0577239990234
 31
0.0
  0
LINE
  5
1FF
330
22
100
AcDbEntity
  8
0
  6
Continuous
 62
     7
100
AcDbLine
 10
-415.7226867675781
 20
243.8905639648438
 30
0.0
 11
-410.7946472167968
 21
248.818603515625
 31
0.0
  0
LINE
  5
200
330
22
100
AcDbEntity
  8
0
  6
Continuous
 62
     7
100
AcDbLine
 10
-426.8089904785155
 20
232.8042755126953
 30
0.0
 11
-425.2946472167968
 21
234.318603515625
 31
0.0
  0
LINE
  5
201
330
22
100
AcDbEntity
  8
0
  6
Continuous
 62
     7
100
AcDbLine
 10
-415.7226867675781
 20
241.0621490478516
 30
0.0
 11
-408.9239501953125
 21
247.8608703613281
 31
0.0
  0
LINE
  5
202
330
22
100
AcDbEntity
  8
0
  6
Continuous
 62
     7
100
AcDbLine
 10
-426.8089904785155
 20
229.9758453369141
 30
0.0
 11
-422.4662170410156
 21
234.318603515625
 31
0.0
  0
LINE
  5
203
330
22
100
AcDbEntity
  8
0
  6
Continuous
 62
     7
100
AcDbLine
 10
-409.66552734375
 20
244.2908782958984
 30
0.0
 11
-409.1951293945313
 21
244.7612609863281
 31
0.0
  0
LINE
  5
204
330
22
100
AcDbEntity
  8
0
  6
Continuous
 62
     7
100
AcDbLine
 10
-415.7226867675781
 20
238.2337188720703
 30
0.0
 11
-411.3562316894531
 21
242.6001739501953
 31
0.0
  0
LINE
  5
205
330
22
100
AcDbEntity
  8
0
  6
Continuous
 62
     7
100
AcDbLine
 10
-426.8089904785155
 20
227.1474304199219
 30
0.0
 11
-419.6377868652343
 21
234.318603515625
 31
0.0
  0
LINE
  5
206
330
22
100
AcDbEntity
  8
0
  6
Continuous
 62
     7
100
AcDbLine
 10
-415.7226867675781
 20
235.4052886962891
 30
0.0
 11
-411.3839721679688
 21
239.7440185546875
 31
0.0
  0
LINE
  5
207
330
22
100
AcDbEntity
  8
0
  6
Continuous
 62
     7
100
AcDbLine
 10
-426.8089904785155
 20
224.3190002441406
 30
0.0
 11
-416.8093566894531
 21
234.318603515625
 31
0.0
  0
LINE
  5
208
330
22
100
AcDbEntity
  8
0
  6
Continuous
 62
     7
100
AcDbLine
 10
-426.8089904785155
 20
221.4905700683594
 30
0.0
 11
-411.3839721679688
 21
236.9155883789063
 31
0.0
  0
LINE
  5
209
330
22
100
AcDbEntity
  8
0
  6
Continuous
 62
     7
100
AcDbLine
 10
-426.8089904785155
 20
218.6621398925781
 30
0.0
 11
-411.3839721679688
 21
234.087158203125
 31
0.0
  0
LINE
  5
20A
330
22
100
AcDbEntity
  8
0
  6
Continuous
 62
     7
100
AcDbLine
 10
-424.2799987792968
 20
218.3626861572266
 30
0.0
 11
-411.3839721679688
 21
231.2587432861328
 31
0.0
  0
LINE
  5
20B
330
22
100
AcDbEntity
  8
0
  6
Continuous
 62
     7
100
AcDbLine
 10
-421.4515686035156
 20
218.3626861572266
 30
0.0
 11
-411.3839721679688
 21
228.4303131103516
 31
0.0
  0
LINE
  5
20C
330
22
100
AcDbEntity
  8
0
  6
Continuous
 62
     7
100
AcDbLine
 10
-418.6231384277343
 20
218.3626861572266
 30
0.0
 11
-411.3839721679688
 21
225.6018829345703
 31
0.0
  0
LINE
  5
20D
330
22
100
AcDbEntity
  8
0
  6
Continuous
 62
     7
100
AcDbLine
 10
-415.7947387695313
 20
218.3626861572266
 30
0.0
 11
-411.3839721679688
 21
222.7734527587891
 31
0.0
  0
LINE
  5
20E
330
22
100
AcDbEntity
  8
0
  6
Continuous
 62
     7
100
AcDbLine
 10
-412.9663085937499
 20
218.3626861572266
 30
0.0
 11
-411.2619323730468
 21
220.0670623779297
 31
0.0
  0
LINE
  5
20F
330
22
100
AcDbEntity
  8
0
  6
Continuous
 62
     7
100
AcDbLine
 10
-405.2619323730469
 20
220.4102172851563
 30
0.0
 11
-404.2619323730468
 21
221.4102172851563
 31
0.0
  0
LINE
  5
210
330
22
100
AcDbEntity
  8
0
  6
Continuous
 62
     7
100
AcDbLine
 10
-404.4810180664063
 20
218.3626861572266
 30
0.0
 11
-404.2619323730468
 21
218.581787109375
 31
0.0
  0
LINE
  5
211
330
22
100
AcDbEntity
  8
0
  6
Continuous
 62
     7
100
AcDbLine
 10
-424.6641235351563
 20
218.3626861572266
 30
0.0
 11
-426.8089904785155
 21
220.5075531005859
 31
0.0
  0
LINE
  5
212
330
22
100
AcDbEntity
  8
0
  6
Continuous
 62
     7
100
AcDbLine
 10
-421.8356933593749
 20
218.3626861572266
 30
0.0
 11
-426.8089904785155
 21
223.3359832763672
 31
0.0
  0
LINE
  5
213
330
22
100
AcDbEntity
  8
0
  6
Continuous
 62
     7
100
AcDbLine
 10
-419.0072631835938
 20
218.3626861572266
 30
0.0
 11
-426.8089904785155
 21
226.1643981933594
 31
0.0
  0
LINE
  5
214
330
22
100
AcDbEntity
  8
0
  6
Continuous
 62
     7
100
AcDbLine
 10
-416.1788330078125
 20
218.3626861572266
 30
0.0
 11
-426.8089904785155
 21
228.9928283691406
 31
0.0
  0
LINE
  5
215
330
22
100
AcDbEntity
  8
0
  6
Continuous
 62
     7
100
AcDbLine
 10
-413.3504333496094
 20
218.3626861572266
 30
0.0
 11
-426.8089904785155
 21
231.8212585449219
 31
0.0
  0
LINE
  5
216
330
22
100
AcDbEntity
  8
0
  6
Continuous
 62
     7
100
AcDbLine
 10
-411.2619323730468
 20
219.1026306152344
 30
0.0
 11
-426.4779052734374
 21
234.318603515625
 31
0.0
  0
LINE
  5
217
330
22
100
AcDbEntity
  8
0
  6
Continuous
 62
     7
100
AcDbLine
 10
-411.3839721679688
 20
222.0530853271484
 30
0.0
 11
-423.6494750976563
 21
234.318603515625
 31
0.0
  0
LINE
  5
218
330
22
100
AcDbEntity
  8
0
  6
Continuous
 62
     7
100
AcDbLine
 10
-411.3839721679688
 20
224.8815155029297
 30
0.0
 11
-420.821044921875
 21
234.318603515625
 31
0.0
  0
LINE
  5
219
330
22
100
AcDbEntity
  8
0
  6
Continuous
 62
     7
100
AcDbLine
 10
-404.8651428222656
 20
218.3626861572266
 30
0.0
 11
-405.2619323730469
 21
218.7594757080078
 31
0.0
  0
LINE
  5
21A
330
22
100
AcDbEntity
  8
0
  6
Continuous
 62
     7
100
AcDbLine
 10
-411.3839721679688
 20
227.7099456787109
 30
0.0
 11
-417.9926147460937
 21
234.318603515625
 31
0.0
  0
LINE
  5
21B
330
22
100
AcDbEntity
  8
0
  6
Continuous
 62
     7
100
AcDbLine
 10
-404.2619323730468
 20
220.5879058837891
 30
0.0
 11
-405.2619323730469
 21
221.5879058837891
 31
0.0
  0
LINE
  5
21C
330
22
100
AcDbEntity
  8
0
  6
Continuous
 62
     7
100
AcDbLine
 10
-411.3839721679688
 20
230.5383758544922
 30
0.0
 11
-415.7226867675781
 21
234.8771057128906
 31
0.0
  0
LINE
  5
21D
330
22
100
AcDbEntity
  8
0
  6
Continuous
 62
     7
100
AcDbLine
 10
-411.3839721679688
 20
233.3667907714844
 30
0.0
 11
-415.7226867675781
 21
237.7055206298828
 31
0.0
  0
LINE
  5
21E
330
22
100
AcDbEntity
  8
0
  6
Continuous
 62
     7
100
AcDbLine
 10
-411.3839721679688
 20
236.1952209472656
 30
0.0
 11
-415.7226867675781
 21
240.5339508056641
 31
0.0
  0
LINE
  5
21F
330
22
100
AcDbEntity
  8
0
  6
Continuous
 62
     7
100
AcDbLine
 10
-411.3839721679688
 20
239.0236511230469
 30
0.0
 11
-415.7226867675781
 21
243.3623809814453
 31
0.0
  0
LINE
  5
220
330
22
100
AcDbEntity
  8
0
  6
Continuous
 62
     7
100
AcDbLine
 10
-411.3839721679688
 20
241.8520812988281
 30
0.0
 11
-415.7226867675781
 21
246.1908111572266
 31
0.0
  0
LINE
  5
221
330
22
100
AcDbEntity
  8
0
  6
Continuous
 62
     7
100
AcDbLine
 10
-410.5993957519531
 20
243.8959503173828
 30
0.0
 11
-415.7226867675781
 21
249.0192413330078
 31
0.0
  0
LINE
  5
222
330
22
100
AcDbEntity
  8
0
  6
Continuous
 62
     7
100
AcDbLine
 10
-416.1936340332031
 20
252.318603515625
 30
0.0
 11
-417.4089965820312
 21
253.5339508056641
 31
0.0
  0
LINE
  5
223
330
22
100
AcDbEntity
  8
0
  6
Continuous
 62
     7
100
AcDbLine
 10
-409.1501770019531
 20
245.2751617431641
 30
0.0
 11
-415.7226867675781
 21
251.84765625
 31
0.0
  0
LINE
  5
224
330
22
100
AcDbEntity
  8
0
  6
Continuous
 62
     7
100
AcDbLine
 10
-411.3839721679688
 20
250.3373565673828
 30
0.0
 11
-417.3652038574219
 21
256.318603515625
 31
0.0
  0
LINE
  5
225
330
22
100
AcDbEntity
  8
0
  6
Continuous
 62
     7
100
AcDbLine
 10
-408.922637939453
 20
247.8760375976563
 30
0.0
 11
-409.8652038574218
 21
248.818603515625
 31
0.0
  0
LINE
  5
226
330
22
100
AcDbEntity
  8
0
  6
Continuous
 62
     7
100
AcDbLine
 10
-410.5367736816406
 20
252.318603515625
 30
0.0
 11
-414.5367736816406
 21
256.318603515625
 31
0.0
  0
LINE
  5
227
330
22
100
AcDbEntity
  8
0
  6
Continuous
 62
     7
100
AcDbLine
 10
-408.467529296875
 20
253.0777893066406
 30
0.0
 11
-411.7083435058593
 21
256.318603515625
 31
0.0
  0
LINE
  5
228
330
22
100
AcDbEntity
  8
0
  6
Continuous
 62
     7
100
AcDbLine
 10
-406.8799438476562
 20
254.318603515625
 30
0.0
 11
-408.8799438476563
 21
256.318603515625
 31
0.0
  0
CIRCLE
  5
229
330
22
100
AcDbEntity
  8
0
  6
Continuous
 62
     7
100
AcDbCircle
 10
-325.8089904785156
 20
432.318603515625
 30
0.0
 40
5.0
  0
CIRCLE
  5
22A
330
22
100
AcDbEntity
  8
0
  6
Continuous
 62
     7
100
AcDbCircle
 10
-325.8089904785156
 20
432.318603515625
 30
0.0
 40
2.75
  0
ARC
  5
22B
330
22
100
AcDbEntity
  8
0
  6
Continuous
 62
     7
100
AcDbCircle
 10
-426.9089965820312
 20
432.2190856933594
 30
0.0
 40
5.0
100
AcDbArc
 50
90.00000000000019
 51
134.4418800561433
  0
ARC
  5
22C
330
22
100
AcDbEntity
  8
0
  6
Continuous
 62
     7
100
AcDbCircle
 10
-433.2143249511719
 20
432.4137573242188
 30
0.0
 40
3.200591087341308
100
AcDbArc
 50
111.911277688175
 51
251.6139423290696
  0
CIRCLE
  5
22D
330
22
100
AcDbEntity
  8
0
  6
Continuous
 62
     7
100
AcDbCircle
 10
-477.3094177246093
 20
519.7864379882814
 30
0.0
 40
2.75
  0
CIRCLE
  5
22E
330
22
100
AcDbEntity
  8
0
  6
Continuous
 62
     7
100
AcDbCircle
 10
-477.3094177246093
 20
519.7864379882814
 30
0.0
 40
5.0
  0
CIRCLE
  5
22F
330
22
100
AcDbEntity
  8
0
  6
Continuous
 62
     7
100
AcDbCircle
 10
-477.3085632324218
 20
344.8493041992188
 30
0.0
 40
2.75
  0
CIRCLE
  5
230
330
22
100
AcDbEntity
  8
0
  6
Continuous
 62
     7
100
AcDbCircle
 10
-477.3085632324218
 20
344.8493041992188
 30
0.0
 40
5.0
  0
ARC
  5
231
330
22
100
AcDbEntity
  8
0
  6
Continuous
 62
     7
100
AcDbCircle
 10
-426.9089965820312
 20
432.2190856933594
 30
0.0
 40
5.0
100
AcDbArc
 50
41.4928920440201
 51
90.00000000000019
  0
ARC
  5
232
330
22
100
AcDbEntity
  8
0
  6
Continuous
 62
     7
100
AcDbCircle
 10
-426.9089965820312
 20
432.2190856933594
 30
0.0
 40
5.0
100
AcDbArc
 50
216.8698976458447
 51
323.1301023541567
  0
ARC
  5
233
330
22
100
AcDbEntity
  8
0
  6
Continuous
 62
     7
100
AcDbCircle
 10
-420.6036376953124
 20
432.4137573242188
 30
0.0
 40
3.200591087341308
100
AcDbArc
 50
273.486538552341
 51
70.12737230108554
  0
CIRCLE
  5
234
330
22
100
AcDbEntity
  8
0
  6
Continuous
 62
     7
100
AcDbCircle
 10
-426.8089904785155
 20
432.318603515625
 30
0.0
 40
78.25
  0
CIRCLE
  5
235
330
22
100
AcDbEntity
  8
0
  6
Continuous
 62
     7
100
AcDbCircle
 10
-426.9089965820312
 20
432.2190856933594
 30
0.0
 40
73.0
  0
CIRCLE
  5
236
330
22
100
AcDbEntity
  8
0
  6
Continuous
 62
     7
100
AcDbCircle
 10
-426.9089965820312
 20
432.2190856933594
 30
0.0
 40
48.5
  0
CIRCLE
  5
237
330
22
100
AcDbEntity
  8
0
  6
Continuous
 62
     7
100
AcDbCircle
 10
-426.9089965820312
 20
432.2190856933594
 30
0.0
 40
48.25
  0
CIRCLE
  5
238
330
22
100
AcDbEntity
  8
0
  6
Continuous
 62
     7
100
AcDbCircle
 10
-426.8089904785155
 20
432.318603515625
 30
0.0
 40
19.0
  0
CIRCLE
  5
239
330
22
100
AcDbEntity
  8
0
  6
Continuous
 62
     7
100
AcDbCircle
 10
-426.9089965820312
 20
432.2190856933594
 30
0.0
 40
18.5
  0
CIRCLE
  5
23A
330
22
100
AcDbEntity
  8
0
  6
CENTER
 62
     7
100
AcDbCircle
 10
-426.8089904785155
 20
432.318603515625
 30
0.0
 40
101.0
  0
CIRCLE
  5
23B
330
22
100
AcDbEntity
  8
0
  6
Continuous
 62
     7
100
AcDbCircle
 10
-426.8089904785155
 20
432.318603515625
 30
0.0
 40
111.0
  0
CIRCLE
  5
23C
330
22
100
AcDbEntity
  8
0
  6
Continuous
 62
     7
100
AcDbCircle
 10
-426.8089904785155
 20
432.318603515625
 30
0.0
 40
94.25
  0
ARC
  5
23D
330
22
100
AcDbEntity
  8
0
  6
Continuous
 62
     7
100
AcDbCircle
 10
-409.3839721679688
 20
242.318603515625
 30
0.0
 40
2.0
100
AcDbArc
 50
90.00000000000019
 51
180.0000000000004
  0
ARC
  5
23E
330
22
100
AcDbEntity
  8
0
  6
Continuous
 62
     7
100
AcDbCircle
 10
-355.3089904785156
 20
244.318603515625
 30
0.0
 40
2.0
100
AcDbArc
 50
90.00000000000019
 51
180.0000000000004
  0
ARC
  5
23F
330
22
100
AcDbEntity
  8
0
  6
Continuous
 62
     7
100
AcDbCircle
 10
-498.3089904785156
 20
244.318603515625
 30
0.0
 40
2.0
100
AcDbArc
 50
0.0
 51
90.00000000000019
  0
LWPOLYLINE
  5
240
330
22
100
AcDbEntity
  8
0
  6
Continuous
 62
     7
100
AcDbPolyline
 90
       16
 70
     1
 43
0.0
 10
-379.9807434082031
 20
253.3186126708985
 42
0.0984914033571643
 10
-380.4890414902498
 20
253.1968199229165
 42
0.0984914033571643
 10
-380.9199557970387
 20
252.8499835207969
 42
0.0984914033571643
 10
-381.2078835316087
 20
252.3309061626826
 42
0.0984914033571643
 10
-381.3089903064431
 20
251.7186126708984
 42
0.0984914033571643
 10
-381.2078835316087
 20
251.1063191791143
 42
0.0984914033571643
 10
-380.9199557970387
 20
250.587241821
 42
0.0984914033571643
 10
-380.4890414902498
 20
250.2404054188804
 42
0.0984914033571643
 10
-379.9807434082031
 20
250.1186126708984
 42
0.0984914033571643
 10
-379.4724453261563
 20
250.2404054188804
 42
0.0984914033571643
 10
-379.0415310193676
 20
250.587241821
 42
0.0984914033571643
 10
-378.7536032847976
 20
251.1063191791143
 42
0.0984914033571643
 10
-378.6524965099632
 20
251.7186126708984
 42
0.0984914033571643
 10
-378.7536032847976
 20
252.3309061626826
 42
0.0984914033571643
 10
-379.0415310193676
 20
252.8499835207969
 42
0.0984914033571643
 10
-379.4724453261563
 20
253.1968199229165
 42
0.0984914033571643
  0
LWPOLYLINE
  5
252
330
22
100
AcDbEntity
  8
0
  6
Continuous
 62
     7
100
AcDbPolyline
 90
       16
 70
     1
 43
0.0
 10
-410.0870666503906
 20
252.318603515625
 42
0.0984914033571643
 10
-410.5833666890468
 20
252.1853926975198
 42
0.0984914033571643
 10
-411.0041095457888
 20
251.8060403827015
 42
0.0984914033571643
 10
-411.2852409347208
 20
251.2382995222639
 42
0.0984914033571643
 10
-411.3839611503406
 20
250.568603515625
 42
0.0984914033571643
 10
-411.2852409347208
 20
249.8989075089861
 42
0.0984914033571643
 10
-411.0041095457888
 20
249.3311666485485
 42
0.0984914033571643
 10
-410.5833666890468
 20
248.9518143337303
 42
0.0984914033571643
 10
-410.0870666503906
 20
248.818603515625
 42
0.0984914033571643
 10
-409.5907666117343
 20
248.9518143337303
 42
0.0984914033571643
 10
-409.1700237549924
 20
249.3311666485485
 42
0.0984914033571643
 10
-408.8888923660603
 20
249.8989075089861
 42
0.0984914033571643
 10
-408.7901721504406
 20
250.568603515625
 42
0.0984914033571643
 10
-408.8888923660603
 20
251.2382995222639
 42
0.0984914033571643
 10
-409.1700237549924
 20
251.8060403827015
 42
0.0984914033571643
 10
-409.5907666117343
 20
252.1853926975198
 42
0.0984914033571643
  0
TEXT
  5
264
330
22
100
AcDbEntity
  8
0
  6
Continuous
 62
     7
100
AcDbText
 10
-313.4524164199829
 20
331.4979858398438
 30
0.0
 40
7.0
  1
DL-HSP-100
 41
1.072638112134205
100
AcDbText
  0
SOLID
  5
265
330
22
100
AcDbEntity
  8
0
  6
Continuous
 62
     7
100
AcDbTrace
 10
-379.7216186523438
 20
253.2878723144531
 30
0.0
 11
-380.2398681640625
 21
253.2878723144531
 31
0.0
 12
-379.9807434082031
 22
253.318603515625
 32
0.0
 13
-379.9807434082031
 23
253.318603515625
 33
0.0
  0
SOLID
  5
266
330
22
100
AcDbEntity
  8
0
  6
Continuous
 62
     7
100
AcDbTrace
 10
-379.9807434082031
 20
250.1186065673828
 30
0.0
 11
-380.2398681640625
 21
250.1493530273438
 31
0.0
 12
-379.7216186523438
 22
250.1493530273438
 32
0.0
 13
-379.7216186523438
 23
250.1493530273438
 33
0.0
  0
SOLID
  5
267
330
22
100
AcDbEntity
  8
0
  6
Continuous
 62
     7
100
AcDbTrace
 10
-379.4724426269531
 20
253.1968231201172
 30
0.0
 11
-380.4890441894531
 21
253.1968231201172
 31
0.0
 12
-379.7216186523438
 22
253.2878723144531
 32
0.0
 13
-380.2398681640625
 23
253.2878723144531
 33
0.0
  0
SOLID
  5
268
330
22
100
AcDbEntity
  8
0
  6
Continuous
 62
     7
100
AcDbTrace
 10
-379.2427978515625
 20
253.0489654541016
 30
0.0
 11
-380.7186584472656
 21
253.0489654541016
 31
0.0
 12
-379.4724426269531
 22
253.1968231201172
 32
0.0
 13
-380.4890441894531
 23
253.1968231201172
 33
0.0
  0
SOLID
  5
269
330
22
100
AcDbEntity
  8
0
  6
Continuous
 62
     7
100
AcDbTrace
 10
-379.0415344238281
 20
252.8499755859375
 30
0.0
 11
-380.9199523925781
 21
252.8499755859375
 31
0.0
 12
-379.2427978515625
 22
253.0489654541016
 32
0.0
 13
-380.7186584472656
 23
253.0489654541016
 33
0.0
  0
SOLID
  5
26A
330
22
100
AcDbEntity
  8
0
  6
Continuous
 62
     7
100
AcDbTrace
 10
-378.8763427734375
 20
252.6075286865234
 30
0.0
 11
-381.0851440429688
 21
252.6075286865234
 31
0.0
 12
-379.0415344238281
 22
252.8499755859375
 32
0.0
 13
-380.9199523925781
 23
252.8499755859375
 33
0.0
  0
SOLID
  5
26B
330
22
100
AcDbEntity
  8
0
  6
Continuous
 62
     7
100
AcDbTrace
 10
-378.7536010742188
 20
252.3309020996094
 30
0.0
 11
-381.2078857421875
 21
252.3309020996094
 31
0.0
 12
-378.8763427734375
 22
252.6075286865234
 32
0.0
 13
-381.0851440429688
 23
252.6075286865234
 33
0.0
  0
SOLID
  5
26C
330
22
100
AcDbEntity
  8
0
  6
Continuous
 62
     7
100
AcDbTrace
 10
-378.6780090332031
 20
252.03076171875
 30
0.0
 11
-381.283447265625
 21
252.03076171875
 31
0.0
 12
-378.7536010742188
 22
252.3309020996094
 32
0.0
 13
-381.2078857421875
 23
252.3309020996094
 33
0.0
  0
SOLID
  5
26D
330
22
100
AcDbEntity
  8
0
  6
Continuous
 62
     7
100
AcDbTrace
 10
-378.6524963378906
 20
251.7186126708984
 30
0.0
 11
-381.3089904785156
 21
251.7186126708984
 31
0.0
 12
-378.6780090332031
 22
252.03076171875
 32
0.0
 13
-381.283447265625
 23
252.03076171875
 33
0.0
  0
SOLID
  5
26E
330
22
100
AcDbEntity
  8
0
  6
Continuous
 62
     7
100
AcDbTrace
 10
-378.6780090332031
 20
251.4064636230469
 30
0.0
 11
-381.283447265625
 21
251.4064636230469
 31
0.0
 12
-378.6524963378906
 22
251.7186126708984
 32
0.0
 13
-381.3089904785156
 23
251.7186126708984
 33
0.0
  0
SOLID
  5
26F
330
22
100
AcDbEntity
  8
0
  6
Continuous
 62
     7
100
AcDbTrace
 10
-378.7536010742188
 20
251.1063232421875
 30
0.0
 11
-381.2078857421875
 21
251.1063232421875
 31
0.0
 12
-378.6780090332031
 22
251.4064636230469
 32
0.0
 13
-381.283447265625
 23
251.4064636230469
 33
0.0
  0
SOLID
  5
270
330
22
100
AcDbEntity
  8
0
  6
Continuous
 62
     7
100
AcDbTrace
 10
-378.8763427734375
 20
250.8296966552734
 30
0.0
 11
-381.0851440429688
 21
250.8296966552734
 31
0.0
 12
-378.7536010742188
 22
251.1063232421875
 32
0.0
 13
-381.2078857421875
 23
251.1063232421875
 33
0.0
  0
SOLID
  5
271
330
22
100
AcDbEntity
  8
0
  6
Continuous
 62
     7
100
AcDbTrace
 10
-379.0415344238281
 20
250.5872344970703
 30
0.0
 11
-380.9199523925781
 21
250.5872344970703
 31
0.0
 12
-378.8763427734375
 22
250.8296966552734
 32
0.0
 13
-381.0851440429688
 23
250.8296966552734
 33
0.0
  0
SOLID
  5
272
330
22
100
AcDbEntity
  8
0
  6
Continuous
 62
     7
100
AcDbTrace
 10
-379.2427978515625
 20
250.3882598876953
 30
0.0
 11
-380.7186584472656
 21
250.3882598876953
 31
0.0
 12
-379.0415344238281
 22
250.5872344970703
 32
0.0
 13
-380.9199523925781
 23
250.5872344970703
 33
0.0
  0
SOLID
  5
273
330
22
100
AcDbEntity
  8
0
  6
Continuous
 62
     7
100
AcDbTrace
 10
-379.4724426269531
 20
250.2404022216797
 30
0.0
 11
-380.4890441894531
 21
250.2404022216797
 31
0.0
 12
-379.2427978515625
 22
250.3882598876953
 32
0.0
 13
-380.7186584472656
 23
250.3882598876953
 33
0.0
  0
SOLID
  5
274
330
22
100
AcDbEntity
  8
0
  6
Continuous
 62
     7
100
AcDbTrace
 10
-379.7216186523438
 20
250.1493530273438
 30
0.0
 11
-380.2398681640625
 21
250.1493530273438
 31
0.0
 12
-379.4724426269531
 22
250.2404022216797
 32
0.0
 13
-380.4890441894531
 23
250.2404022216797
 33
0.0
  0
SOLID
  5
275
330
22
100
AcDbEntity
  8
0
  6
Continuous
 62
     7
100
AcDbTrace
 10
-409.8340454101562
 20
252.2849884033203
 30
0.0
 11
-410.3400878906249
 21
252.2849884033203
 31
0.0
 12
-410.0870666503906
 22
252.318603515625
 32
0.0
 13
-410.0870666503906
 23
252.318603515625
 33
0.0
  0
SOLID
  5
276
330
22
100
AcDbEntity
  8
0
  6
Continuous
 62
     7
100
AcDbTrace
 10
-410.0870666503906
 20
248.818603515625
 30
0.0
 11
-410.3400878906249
 21
248.8522338867188
 31
0.0
 12
-409.8340454101562
 22
248.8522338867188
 32
0.0
 13
-409.8340454101562
 23
248.8522338867188
 33
0.0
  0
SOLID
  5
277
330
22
100
AcDbEntity
  8
0
  6
Continuous
 62
     7
100
AcDbTrace
 10
-409.5907592773437
 20
252.1853942871094
 30
0.0
 11
-410.5833740234374
 21
252.1853942871094
 31
0.0
 12
-409.8340454101562
 22
252.2849884033203
 32
0.0
 13
-410.3400878906249
 23
252.2849884033203
 33
0.0
  0
SOLID
  5
278
330
22
100
AcDbEntity
  8
0
  6
Continuous
 62
     7
100
AcDbTrace
 10
-409.3665466308594
 20
252.023681640625
 30
0.0
 11
-410.8075866699218
 21
252.023681640625
 31
0.0
 12
-409.5907592773437
 22
252.1853942871094
 32
0.0
 13
-410.5833740234374
 23
252.1853942871094
 33
0.0
  0
SOLID
  5
279
330
22
100
AcDbEntity
  8
0
  6
Continuous
 62
     7
100
AcDbTrace
 10
-409.1700134277344
 20
251.8060455322266
 30
0.0
 11
-411.0041198730469
 21
251.8060455322266
 31
0.0
 12
-409.3665466308594
 22
252.023681640625
 32
0.0
 13
-410.8075866699218
 23
252.023681640625
 33
0.0
  0
SOLID
  5
27A
330
22
100
AcDbEntity
  8
0
  6
Continuous
 62
     7
100
AcDbTrace
 10
-409.0087280273437
 20
251.5408630371094
 30
0.0
 11
-411.1654052734374
 21
251.5408630371094
 31
0.0
 12
-409.1700134277344
 22
251.8060455322266
 32
0.0
 13
-411.0041198730469
 23
251.8060455322266
 33
0.0
  0
SOLID
  5
27B
330
22
100
AcDbEntity
  8
0
  6
Continuous
 62
     7
100
AcDbTrace
 10
-408.8888854980468
 20
251.2383117675781
 30
0.0
 11
-411.2852478027344
 21
251.2383117675781
 31
0.0
 12
-409.0087280273437
 22
251.5408630371094
 32
0.0
 13
-411.1654052734374
 23
251.5408630371094
 33
0.0
  0
SOLID
  5
27C
330
22
100
AcDbEntity
  8
0
  6
Continuous
 62
     7
100
AcDbTrace
 10
-408.8150939941406
 20
250.9100189208984
 30
0.0
 11
-411.3590393066406
 21
250.9100189208984
 31
0.0
 12
-408.8888854980468
 22
251.2383117675781
 32
0.0
 13
-411.2852478027344
 23
251.2383117675781
 33
0.0
  0
SOLID
  5
27D
330
22
100
AcDbEntity
  8
0
  6
Continuous
 62
     7
100
AcDbTrace
 10
-408.7901611328125
 20
250.568603515625
 30
0.0
 11
-411.3839721679688
 21
250.568603515625
 31
0.0
 12
-408.8150939941406
 22
250.9100189208984
 32
0.0
 13
-411.3590393066406
 23
250.9100189208984
 33
0.0
  0
SOLID
  5
27E
330
22
100
AcDbEntity
  8
0
  6
Continuous
 62
     7
100
AcDbTrace
 10
-408.8150939941406
 20
250.2272033691406
 30
0.0
 11
-411.3590393066406
 21
250.2272033691406
 31
0.0
 12
-408.7901611328125
 22
250.568603515625
 32
0.0
 13
-411.3839721679688
 23
250.568603515625
 33
0.0
  0
SOLID
  5
27F
330
22
100
AcDbEntity
  8
0
  6
Continuous
 62
     7
100
AcDbTrace
 10
-408.8888854980468
 20
249.8989105224609
 30
0.0
 11
-411.2852478027344
 21
249.8989105224609
 31
0.0
 12
-408.8150939941406
 22
250.2272033691406
 32
0.0
 13
-411.3590393066406
 23
250.2272033691406
 33
0.0
  0
SOLID
  5
280
330
22
100
AcDbEntity
  8
0
  6
Continuous
 62
     7
100
AcDbTrace
 10
-409.0087280273437
 20
249.5963592529297
 30
0.0
 11
-411.1654052734374
 21
249.5963592529297
 31
0.0
 12
-408.8888854980468
 22
249.8989105224609
 32
0.0
 13
-411.2852478027344
 23
249.8989105224609
 33
0.0
  0
SOLID
  5
281
330
22
100
AcDbEntity
  8
0
  6
Continuous
 62
     7
100
AcDbTrace
 10
-409.1700134277344
 20
249.3311767578125
 30
0.0
 11
-411.0041198730469
 21
249.3311767578125
 31
0.0
 12
-409.0087280273437
 22
249.5963592529297
 32
0.0
 13
-411.1654052734374
 23
249.5963592529297
 33
0.0
  0
SOLID
  5
282
330
22
100
AcDbEntity
  8
0
  6
Continuous
 62
     7
100
AcDbTrace
 10
-409.3665466308594
 20
249.1135406494141
 30
0.0
 11
-410.8075866699218
 21
249.1135406494141
 31
0.0
 12
-409.1700134277344
 22
249.3311767578125
 32
0.0
 13
-411.0041198730469
 23
249.3311767578125
 33
0.0
  0
SOLID
  5
283
330
22
100
AcDbEntity
  8
0
  6
Continuous
 62
     7
100
AcDbTrace
 10
-409.5907592773437
 20
248.9518280029297
 30
0.0
 11
-410.5833740234374
 21
248.9518280029297
 31
0.0
 12
-409.3665466308594
 22
249.1135406494141
 32
0.0
 13
-410.8075866699218
 23
249.1135406494141
 33
0.0
  0
SOLID
  5
284
330
22
100
AcDbEntity
  8
0
  6
Continuous
 62
     7
100
AcDbTrace
 10
-409.8340454101562
 20
248.8522338867188
 30
0.0
 11
-410.3400878906249
 21
248.8522338867188
 31
0.0
 12
-409.5907592773437
 22
248.9518280029297
 32
0.0
 13
-410.5833740234374
 23
248.9518280029297
 33
0.0
  0
DIMENSION
  5
285
330
22
100
AcDbEntity
  8
0
  6
Continuous
 62
     7
100
AcDbDimension
  2
*D1
 10
-418.2767539111221
 20
448.9020749521013
 30
0.0
 11
-441.0567626953125
 21
409.1609802246093
 31
0.0
 70
     3
 71
     5
 42
-1.0
  3
DIMSTYLE1
100
AcDbDiametricDimension
 15
-437.1742958935653
 25
415.9341677236799
 35
0.0
 40
0.0
  0
INSERT
  5
286
330
22
100
AcDbEntity
  8
0
  6
Continuous
 62
     7
100
AcDbBlockReference
  2
KOZU0001
 10
-322.43017578125
 20
436.0042114257812
 30
0.0
  0
DIMENSION
  5
287
330
22
100
AcDbEntity
  8
0
  6
Continuous
 62
     7
100
AcDbDimension
  2
*D2
 10
-524.3690169555113
 20
458.4536610783678
 30
0.0
 11
-306.76953125
 21
400.1616210937499
 31
0.0
 70
     3
 71
     5
 42
-1.0
  3
DIMSTYLE2
100
AcDbDiametricDimension
 15
-329.2489640015198
 25
406.1835459528821
 35
0.0
 40
0.0
  0
DIMENSION
  5
288
330
22
100
AcDbEntity
  8
0
  6
Continuous
 62
     7
100
AcDbDimension
  2
*D3
 10
-518.1354882553375
 20
369.2276310724923
 30
0.0
 11
-317.1505126953125
 21
508.0738525390625
 31
0.0
 70
     3
 71
     5
 42
-1.0
  3
DIMSTYLE3
100
AcDbDiametricDimension
 15
-335.4824927016937
 25
495.4095759587577
 35
0.0
 40
0.0
  0
DIMENSION
  5
289
330
22
100
AcDbEntity
  8
0
  6
Continuous
 62
     7
100
AcDbDimension
  2
*D4
 10
-496.0098775152779
 20
408.6804312235462
 30
0.0
 11
-369.3465270996094
 21
451.8272705078125
 31
0.0
 70
     3
 71
     5
 42
-1.0
  3
DIMSTYLE4
100
AcDbDiametricDimension
 15
-357.8081156487845
 25
455.7577401631726
 35
0.0
 40
0.0
  0
DIMENSION
  5
28A
330
22
100
AcDbEntity
  8
0
  6
Continuous
 62
     7
100
AcDbDimension
  2
*D5
 10
-466.5689993689293
 20
460.1356431269548
 30
0.0
 11
-400.9396362304688
 21
413.9393310546875
 31
0.0
 70
     3
 71
     5
 42
-1.0
  3
DIMSTYLE5
100
AcDbDiametricDimension
 15
-387.2489937951331
 25
404.302528259764
 35
0.0
 40
0.0
  0
DIMENSION
  5
28B
330
22
100
AcDbEntity
  8
0
  6
Continuous
 62
     7
100
AcDbDimension
  2
*D6
 10
-288.6829223632813
 20
256.318603515625
 30
0.0
 11
-288.6829223632813
 21
180.818603515625
 31
0.0
 71
     5
 42
-1.0
  3
DIMSTYLE6
100
AcDbAlignedDimension
 13
-315.8089904785156
 23
105.3186111450195
 33
0.0
 14
-354.3089904785156
 24
256.318603515625
 34
0.0
 50
90.0
100
AcDbRotatedDimension
  0
DIMENSION
  5
28C
330
22
100
AcDbEntity
  8
0
  6
Continuous
 62
     7
100
AcDbDimension
  2
*D7
 10
-303.3586120605469
 20
193.318603515625
 30
0.0
 11
-303.3586120605469
 21
224.818603515625
 31
0.0
 71
     5
 42
-1.0
  3
DIMSTYLE7
100
AcDbAlignedDimension
 13
-286.3969116210938
 23
256.318603515625
 33
0.0
 14
-357.3089904785156
 24
193.318603515625
 34
0.0
 50
90.0
100
AcDbRotatedDimension
  0
DIMENSION
  5
28D
330
22
100
AcDbEntity
  8
0
  6
Continuous
 62
     7
100
AcDbDimension
  2
*D8
 10
-392.4502258300781
 20
218.318603515625
 30
0.0
 11
-392.4502258300781
 21
168.318603515625
 31
0.0
 71
     5
 42
-1.0
  3
DIMSTYLE8
100
AcDbAlignedDimension
 13
-371.8089904785156
 23
118.3186111450195
 33
0.0
 14
-372.603515625
 24
218.318603515625
 34
0.0
 50
90.0
100
AcDbRotatedDimension
  0
DIMENSION
  5
28E
330
22
100
AcDbEntity
  8
0
  6
Continuous
 62
     7
100
AcDbDimension
  2
*D9
 10
-288.6829223632813
 20
102.3186111450195
 30
0.0
 11
-288.6829223632813
 21
94.56134796142578
 31
0.0
 71
     5
 42
-1.0
  3
DIMSTYLE9
100
AcDbAlignedDimension
 13
-286.3969116210938
 23
105.3186111450195
 33
0.0
 14
-315.8089904785156
 24
102.3186111450195
 34
0.0
 50
90.0
100
AcDbRotatedDimension
  0
DIMENSION
  5
28F
330
22
100
AcDbEntity
  8
0
  6
Continuous
 62
     7
100
AcDbDimension
  2
*D10
 10
-303.3586120605469
 20
143.318603515625
 30
0.0
 11
-303.3586120605469
 21
124.3186111450195
 31
0.0
 71
     5
 42
-1.0
  3
DIMSTYLE10
100
AcDbAlignedDimension
 13
-315.8089904785156
 23
105.3186111450195
 33
0.0
 14
-364.3089904785156
 24
143.318603515625
 34
0.0
 50
90.0
100
AcDbRotatedDimension
  0
INSERT
  5
290
330
22
100
AcDbEntity
  8
0
  6
Continuous
 62
     7
100
AcDbBlockReference
  2
KOZU0002
 10
-370.948974609375
 20
70.79708862304688
 30
0.0
  0
DIMENSION
  5
291
330
22
100
AcDbEntity
  8
0
  6
Continuous
 62
     7
100
AcDbDimension
  2
*D11
 10
-364.3089904785156
 20
27.53972625732422
 30
0.0
 11
-426.8089904785155
 21
27.53972625732422
 31
0.0
 71
     5
 42
-1.0
  3
DIMSTYLE11
100
AcDbAlignedDimension
 13
-489.3089904785155
 23
50.31861114501953
 33
0.0
 14
-364.3089904785156
 24
50.31861114501953
 34
0.0
100
AcDbRotatedDimension
  0
DIMENSION
  5
292
330
22
100
AcDbEntity
  8
0
  6
Continuous
 62
     7
100
AcDbDimension
  2
*D12
 10
-557.9205932617188
 20
143.318603515625
 30
0.0
 11
-557.9205932617188
 21
96.81861114501952
 31
0.0
 71
     5
 42
-1.0
  3
DIMSTYLE12
100
AcDbAlignedDimension
 13
-489.3089904785155
 23
50.31861114501953
 33
0.0
 14
-489.3089904785155
 24
143.318603515625
 34
0.0
 50
90.0
100
AcDbRotatedDimension
  0
ENDSEC
  0
SECTION
  2
OBJECTS
  0
DICTIONARY
  5
C
330
0
100
AcDbDictionary
281
     1
  3
ACAD_COLOR
350
1B
  3
ACAD_GROUP
350
D
  3
ACAD_LAYOUT
350
19
  3
ACAD_MATERIAL
350
1A
  3
ACAD_MLINESTYLE
350
16
  3
ACAD_PLOTSETTINGS
350
18
  3
ACAD_PLOTSTYLENAME
350
E
  3
ACAD_TABLESTYLE
350
1C
  3
AcDbVariableDictionary
350
29E
  0
DICTIONARY
  5
1B
102
{ACAD_REACTORS
330
C
102
}
330
C
100
AcDbDictionary
281
     1
  0
DICTIONARY
  5
D
102
{ACAD_REACTORS
330
C
102
}
330
C
100
AcDbDictionary
281
     1
  0
DICTIONARY
  5
19
102
{ACAD_REACTORS
330
C
102
}
330
C
100
AcDbDictionary
281
     1
  3
Model
350
25
  3
レイアウト1
350
21
  0
DICTIONARY
  5
1A
102
{ACAD_REACTORS
330
C
102
}
330
C
100
AcDbDictionary
281
     1
  0
DICTIONARY
  5
16
102
{ACAD_REACTORS
330
C
102
}
330
C
100
AcDbDictionary
281
     1
  3
Standard
350
17
  0
DICTIONARY
  5
18
102
{ACAD_REACTORS
330
C
102
}
330
C
100
AcDbDictionary
281
     1
  0
ACDBDICTIONARYWDFLT
  5
E
102
{ACAD_REACTORS
330
C
102
}
330
C
100
AcDbDictionary
281
     1
  3
Normal
350
F
100
AcDbDictionaryWithDefault
340
F
  0
DICTIONARY
  5
1C
102
{ACAD_REACTORS
330
C
102
}
330
C
100
AcDbDictionary
281
     1
  3
Standard
350
1D
  0
DICTIONARY
  5
29E
102
{ACAD_REACTORS
330
C
102
}
330
C
100
AcDbDictionary
281
     1
  3
CTABLESTYLE
350
29F
  0
LAYOUT
  5
25
102
{ACAD_REACTORS
330
19
102
}
330
19
100
AcDbPlotSettings
  1

  2
PDF reDirect v2
  4
User120
  6

 40
3.174999952316284
 41
3.174999952316284
 42
3.17498779296875
 43
3.17498779296875
 44
594.0
 45
841.0
 46
0.0
 47
0.0
 48
0.0
 49
0.0
140
0.0
141
0.0
142
1.0
143
1.0
 70
 11952
 72
     1
 73
     1
 74
     2
  7
C:\Users\ck\AppData\Roaming\Autodesk\AutoCAD 2005\R16.1\jpn\Plot Styles\black.ctb
 75
    16
147
1.0
 76
     0
 77
     2
 78
   300
148
839.0
149
0.0
100
AcDbLayout
  1
Model
 70
     1
 71
     0
 10
0.0
 20
0.0
 11
12.0
 21
9.0
 12
0.0
 22
0.0
 32
0.0
 14
0.0
 24
0.0
 34
0.0
 15
0.0
 25
0.0
 35
0.0
146
0.0
 13
0.0
 23
0.0
 33
0.0
 16
1.0
 26
0.0
 36
0.0
 17
0.0
 27
1.0
 37
0.0
 76
     0
330
22
1001
ACAD_PSEXT
1000
PDF reDirect v2
1000
PDF reDirect Pro
1000
PDF_REDIRECT_PORT:
1000
PDF reDirect provided by EXP Systems
1070
     0
  0
LAYOUT
  5
21
102
{ACAD_REACTORS
330
19
102
}
330
19
100
AcDbPlotSettings
  1

  2
PDF reDirect v2
  4

  6

 40
0.0
 41
0.0
 42
0.0
 43
0.0
 44
0.0
 45
0.0
 46
0.0
 47
0.0
 48
0.0
 49
0.0
140
0.0
141
0.0
142
1.0
143
1.0
 70
   688
 72
     0
 73
     0
 74
     5
  7
C:\Users\ck\AppData\Roaming\Autodesk\AutoCAD 2005\R16.1\jpn\Plot Styles\black.ctb
 75
    16
147
1.0
 76
     0
 77
     2
 78
   300
148
0.0
149
0.0
100
AcDbLayout
  1
レイアウト1
 70
     1
 71
     1
 10
-839.0
 20
0.0
 11
0.0
 21
591.0
 12
0.0
 22
0.0
 32
0.0
 14
1.000000000000000E+20
 24
1.000000000000000E+20
 34
1.000000000000000E+20
 15
-1.000000000000000E+20
 25
-1.000000000000000E+20
 35
-1.000000000000000E+20
146
0.0
 13
0.0
 23
0.0
 33
0.0
 16
1.0
 26
0.0
 36
0.0
 17
0.0
 27
1.0
 37
0.0
 76
     0
330
1E
  0
MLINESTYLE
  5
17
102
{ACAD_REACTORS
330
16
102
}
330
16
100
AcDbMlineStyle
  2
STANDARD
 70
     0
  3

 62
   256
 51
90.0
 52
90.0
 71
     2
 49
0.5
 62
   256
  6
BYLAYER
 49
-0.5
 62
   256
  6
BYLAYER
  0
ACDBPLACEHOLDER
  5
F
102
{ACAD_REACTORS
330
E
102
}
330
E
  0
TABLESTYLE
  5
1D
102
{ACAD_REACTORS
330
1C
102
}
330
1C
100
AcDbTableStyle
  3
Standard
 70
     0
 71
     0
 40
0.06
 41
0.06
280
     0
281
     0
  7
STANDARD
140
0.18
170
     2
 62
     0
 63
     7
283
     0
274
    -2
284
     1
 64
     0
275
    -2
285
     1
 65
     0
276
    -2
286
     1
 66
     0
277
    -2
287
     1
 67
     0
278
    -2
288
     1
 68
     0
279
    -2
289
     1
 69
     0
  7
STANDARD
140
0.25
170
     5
 62
     0
 63
     7
283
     0
274
    -2
284
     1
 64
     0
275
    -2
285
     1
 65
     0
276
    -2
286
     1
 66
     0
277
    -2
287
     1
 67
     0
278
    -2
288
     1
 68
     0
279
    -2
289
     1
 69
     0
  7
STANDARD
140
0.18
170
     5
 62
     0
 63
     7
283
     0
274
    -2
284
     1
 64
     0
275
    -2
285
     1
 65
     0
276
    -2
286
     1
 66
     0
277
    -2
287
     1
 67
     0
278
    -2
288
     1
 68
     0
279
    -2
289
     1
 69
     0
  0
DICTIONARYVAR
  5
29F
102
{ACAD_REACTORS
330
29E
102
}
330
29E
100
DictionaryVariables
280
     0
  1
STANDARD
  0
ENDSEC
  0
EOF
