  0
SECTION
  2
HEADER
  9
$ACADVER
  1
AC1018
  9
$ACADMAINTVER
 70
    39
  9
$DWGCODEPAGE
  3
ANSI_932
  9
$INSBASE
 10
0.0
 20
0.0
 30
0.0
  9
$EXTMIN
 10
-480.09667817887
 20
69.41366682552462
 30
-0.0015258207003583
  9
$EXTMAX
 10
-126.762938222339
 20
317.9392098411211
 30
0.0000000349246037
  9
$LIMMIN
 10
-592.0
 20
0.0
  9
$LIMMAX
 10
0.0
 20
418.0
  9
$ORTHOMODE
 70
     0
  9
$REGENMODE
 70
     1
  9
$FILLMODE
 70
     1
  9
$QTEXTMODE
 70
     0
  9
$MIRRTEXT
 70
     0
  9
$LTSCALE
 40
1.0
  9
$ATTMODE
 70
     1
  9
$TEXTSIZE
 40
0.2
  9
$TRACEWID
 40
0.05
  9
$TEXTSTYLE
  7
STANDARD
  9
$CLAYER
  8
0
  9
$CELTYPE
  6
CONTINUOUS
  9
$CECOLOR
 62
   256
  9
$CELTSCALE
 40
1.0
  9
$DISPSILH
 70
     0
  9
$DIMSCALE
 40
1.0
  9
$DIMASZ
 40
1.0
  9
$DIMEXO
 40
2.54
  9
$DIMDLI
 40
0.38
  9
$DIMRND
 40
0.0
  9
$DIMDLE
 40
0.0
  9
$DIMEXE
 40
2.54
  9
$DIMTP
 40
0.0
  9
$DIMTM
 40
0.0
  9
$DIMTXT
 40
3.0
  9
$DIMCEN
 40
0.09
  9
$DIMTSZ
 40
0.0
  9
$DIMTOL
 70
     0
  9
$DIMLIM
 70
     0
  9
$DIMTIH
 70
     0
  9
$DIMTOH
 70
     0
  9
$DIMSE1
 70
     0
  9
$DIMSE2
 70
     0
  9
$DIMTAD
 70
     1
  9
$DIMZIN
 70
     0
  9
$DIMBLK
  1

  9
$DIMASO
 70
     1
  9
$DIMSHO
 70
     0
  9
$DIMPOST
  1

  9
$DIMAPOST
  1

  9
$DIMALT
 70
     0
  9
$DIMALTD
 70
     2
  9
$DIMALTF
 40
25.4
  9
$DIMLFAC
 40
1.0
  9
$DIMTOFL
 70
     0
  9
$DIMTVP
 40
1.0
  9
$DIMTIX
 70
     0
  9
$DIMSOXD
 70
     0
  9
$DIMSAH
 70
     1
  9
$DIMBLK1
  1

  9
$DIMBLK2
  1

  9
$DIMSTYLE
  2
DIMSTYLE1
  9
$DIMCLRD
 70
     0
  9
$DIMCLRE
 70
     0
  9
$DIMCLRT
 70
     0
  9
$DIMTFAC
 40
1.0
  9
$DIMGAP
 40
1.5
  9
$DIMJUST
 70
     0
  9
$DIMSD1
 70
     0
  9
$DIMSD2
 70
     0
  9
$DIMTOLJ
 70
     1
  9
$DIMTZIN
 70
     0
  9
$DIMALTZ
 70
     0
  9
$DIMALTTZ
 70
     0
  9
$DIMUPT
 70
     0
  9
$DIMDEC
 70
     4
  9
$DIMTDEC
 70
     4
  9
$DIMALTU
 70
     2
  9
$DIMALTTD
 70
     2
  9
$DIMTXSTY
  7
STANDARD
  9
$DIMAUNIT
 70
     0
  9
$DIMADEC
 70
     0
  9
$DIMALTRND
 40
0.0
  9
$DIMAZIN
 70
     0
  9
$DIMDSEP
 70
    46
  9
$DIMATFIT
 70
     3
  9
$DIMFRAC
 70
     0
  9
$DIMLDRBLK
  1

  9
$DIMLUNIT
 70
     2
  9
$DIMLWD
 70
    -2
  9
$DIMLWE
 70
    -2
  9
$DIMTMOVE
 70
     0
  9
$LUNITS
 70
     2
  9
$LUPREC
 70
     4
  9
$SKETCHINC
 40
0.1
  9
$FILLETRAD
 40
0.0
  9
$AUNITS
 70
     0
  9
$AUPREC
 70
     0
  9
$MENU
  1
.
  9
$ELEVATION
 40
0.0
  9
$PELEVATION
 40
0.0
  9
$THICKNESS
 40
0.0
  9
$LIMCHECK
 70
     0
  9
$CHAMFERA
 40
0.0
  9
$CHAMFERB
 40
0.0
  9
$CHAMFERC
 40
0.0
  9
$CHAMFERD
 40
0.0
  9
$SKPOLY
 70
     0
  9
$TDCREATE
 40
2457841.999042396
  9
$TDUCREATE
 40
2457841.624042396
  9
$TDUPDATE
 40
2457841.999609665
  9
$TDUUPDATE
 40
2457841.624609665
  9
$TDINDWG
 40
0.0005686574
  9
$TDUSRTIMER
 40
0.0005686574
  9
$USRTIMER
 70
     1
  9
$ANGBASE
 50
0.0
  9
$ANGDIR
 70
     0
  9
$PDMODE
 70
     0
  9
$PDSIZE
 40
0.0
  9
$PLINEWID
 40
0.0
  9
$SPLFRAME
 70
     0
  9
$SPLINETYPE
 70
     6
  9
$SPLINESEGS
 70
     8
  9
$HANDSEED
  5
231
  9
$SURFTAB1
 70
     6
  9
$SURFTAB2
 70
     6
  9
$SURFTYPE
 70
     6
  9
$SURFU
 70
     6
  9
$SURFV
 70
     6
  9
$UCSBASE
  2

  9
$UCSNAME
  2

  9
$UCSORG
 10
0.0
 20
0.0
 30
0.0
  9
$UCSXDIR
 10
1.0
 20
0.0
 30
0.0
  9
$UCSYDIR
 10
0.0
 20
1.0
 30
0.0
  9
$UCSORTHOREF
  2

  9
$UCSORTHOVIEW
 70
     0
  9
$UCSORGTOP
 10
0.0
 20
0.0
 30
0.0
  9
$UCSORGBOTTOM
 10
0.0
 20
0.0
 30
0.0
  9
$UCSORGLEFT
 10
0.0
 20
0.0
 30
0.0
  9
$UCSORGRIGHT
 10
0.0
 20
0.0
 30
0.0
  9
$UCSORGFRONT
 10
0.0
 20
0.0
 30
0.0
  9
$UCSORGBACK
 10
0.0
 20
0.0
 30
0.0
  9
$PUCSBASE
  2

  9
$PUCSNAME
  2

  9
$PUCSORG
 10
0.0
 20
0.0
 30
0.0
  9
$PUCSXDIR
 10
1.0
 20
0.0
 30
0.0
  9
$PUCSYDIR
 10
0.0
 20
1.0
 30
0.0
  9
$PUCSORTHOREF
  2

  9
$PUCSORTHOVIEW
 70
     0
  9
$PUCSORGTOP
 10
0.0
 20
0.0
 30
0.0
  9
$PUCSORGBOTTOM
 10
0.0
 20
0.0
 30
0.0
  9
$PUCSORGLEFT
 10
0.0
 20
0.0
 30
0.0
  9
$PUCSORGRIGHT
 10
0.0
 20
0.0
 30
0.0
  9
$PUCSORGFRONT
 10
0.0
 20
0.0
 30
0.0
  9
$PUCSORGBACK
 10
0.0
 20
0.0
 30
0.0
  9
$USERI1
 70
     0
  9
$USERI2
 70
     0
  9
$USERI3
 70
     0
  9
$USERI4
 70
     0
  9
$USERI5
 70
     0
  9
$USERR1
 40
0.0
  9
$USERR2
 40
0.0
  9
$USERR3
 40
0.0
  9
$USERR4
 40
0.0
  9
$USERR5
 40
0.0
  9
$WORLDVIEW
 70
     1
  9
$SHADEDGE
 70
     3
  9
$SHADEDIF
 70
    70
  9
$TILEMODE
 70
     1
  9
$MAXACTVP
 70
    64
  9
$PINSBASE
 10
0.0
 20
0.0
 30
0.0
  9
$PLIMCHECK
 70
     0
  9
$PEXTMIN
 10
1.000000000000000E+20
 20
1.000000000000000E+20
 30
1.000000000000000E+20
  9
$PEXTMAX
 10
-1.000000000000000E+20
 20
-1.000000000000000E+20
 30
-1.000000000000000E+20
  9
$PLIMMIN
 10
-592.0
 20
0.0
  9
$PLIMMAX
 10
0.0
 20
418.0
  9
$UNITMODE
 70
     0
  9
$VISRETAIN
 70
     1
  9
$PLINEGEN
 70
     0
  9
$PSLTSCALE
 70
     1
  9
$TREEDEPTH
 70
  3020
  9
$CMLSTYLE
  2
Standard
  9
$CMLJUST
 70
     0
  9
$CMLSCALE
 40
1.0
  9
$PROXYGRAPHICS
 70
     1
  9
$MEASUREMENT
 70
     0
  9
$CELWEIGHT
370
    -1
  9
$ENDCAPS
280
     0
  9
$JOINSTYLE
280
     0
  9
$LWDISPLAY
290
     0
  9
$INSUNITS
 70
     0
  9
$HYPERLINKBASE
  1

  9
$STYLESHEET
  1

  9
$XEDIT
290
     1
  9
$CEPSNTYPE
380
     0
  9
$PSTYLEMODE
290
     1
  9
$FINGERPRINTGUID
  2
{701A848F-769B-45B8-A421-2B697F66F5F4}
  9
$VERSIONGUID
  2
{E68560B6-79A0-4C08-AA5A-D0F81E2AA3C5}
  9
$EXTNAMES
290
     1
  9
$PSVPSCALE
 40
0.0
  9
$OLESTARTUP
290
     0
  9
$SORTENTS
280
   127
  9
$INDEXCTL
280
     0
  9
$HIDETEXT
280
     0
  9
$XCLIPFRAME
290
     0
  9
$HALOGAP
280
     0
  9
$OBSCOLOR
 70
   257
  9
$OBSLTYPE
280
     0
  9
$INTERSECTIONDISPLAY
280
     0
  9
$INTERSECTIONCOLOR
 70
   257
  9
$DIMASSOC
280
     1
  9
$PROJECTNAME
  1

  0
ENDSEC
  0
SECTION
  2
CLASSES
  0
CLASS
  1
ACDBDICTIONARYWDFLT
  2
AcDbDictionaryWithDefault
  3
ObjectDBX Classes
 90
        0
 91
        1
280
     0
281
     0
  0
CLASS
  1
TABLESTYLE
  2
AcDbTableStyle
  3
ObjectDBX Classes
 90
     2047
 91
        1
280
     0
281
     0
  0
CLASS
  1
DICTIONARYVAR
  2
AcDbDictionaryVar
  3
ObjectDBX Classes
 90
        0
 91
        1
280
     0
281
     0
  0
ENDSEC
  0
SECTION
  2
TABLES
  0
TABLE
  2
VPORT
  5
8
330
0
100
AcDbSymbolTable
 70
     2
  0
VPORT
  5
230
330
8
100
AcDbSymbolTableRecord
100
AcDbViewportTableRecord
  2
*Active
 70
     0
 10
0.0
 20
0.0
 11
1.0
 21
1.0
 12
-296.0
 22
209.0
 13
0.0
 23
0.0
 14
1.0
 24
1.0
 15
0.0
 25
0.0
 16
0.0
 26
0.0
 36
1.0
 17
0.0
 27
0.0
 37
0.0
 40
421.3043478260869
 41
1.707124010554089
 42
50.0
 43
0.0
 44
0.0
 50
0.0
 51
0.0
 71
     0
 72
   100
 73
     1
 74
     1
 75
     0
 76
     0
 77
     0
 78
     0
281
     0
 65
     1
110
0.0
120
0.0
130
0.0
111
1.0
121
0.0
131
0.0
112
0.0
122
1.0
132
0.0
 79
     0
146
0.0
  0
ENDTAB
  0
TABLE
  2
LTYPE
  5
5
330
0
100
AcDbSymbolTable
 70
     6
  0
LTYPE
  5
13
330
5
100
AcDbSymbolTableRecord
100
AcDbLinetypeTableRecord
  2
ByBlock
 70
     0
  3

 72
    65
 73
     0
 40
0.0
  0
LTYPE
  5
14
330
5
100
AcDbSymbolTableRecord
100
AcDbLinetypeTableRecord
  2
ByLayer
 70
     0
  3

 72
    65
 73
     0
 40
0.0
  0
LTYPE
  5
15
330
5
100
AcDbSymbolTableRecord
100
AcDbLinetypeTableRecord
  2
CONTINUOUS
 70
     0
  3
Solid line
 72
    65
 73
     0
 40
0.0
  0
LTYPE
  5
26
330
5
100
AcDbSymbolTableRecord
100
AcDbLinetypeTableRecord
  2
DASHED
 70
     0
  3
__ __ __ __ __ __ __ __ __ __ __ __ __ __ __
 72
    65
 73
     2
 40
3.5
 49
2.0
 74
     0
 49
-1.5
 74
     0
  0
LTYPE
  5
27
330
5
100
AcDbSymbolTableRecord
100
AcDbLinetypeTableRecord
  2
CENTER
 70
     0
  3
____ _ ____ _ ____ _ ____ _ ____ _ ____ _ ____
 72
    65
 73
     4
 40
17.5
 49
13.0
 74
     0
 49
-1.5
 74
     0
 49
1.5
 74
     0
 49
-1.5
 74
     0
  0
LTYPE
  5
28
330
5
100
AcDbSymbolTableRecord
100
AcDbLinetypeTableRecord
  2
PHANTOM
 70
     0
  3
_____ _ _ _____ _ _ _____ _ _ _____ _ _ ____  
 72
    65
 73
     6
 40
15.5
 49
8.0
 74
     0
 49
-1.5
 74
     0
 49
1.5
 74
     0
 49
-1.5
 74
     0
 49
1.5
 74
     0
 49
-1.5
 74
     0
  0
LTYPE
  5
29
330
5
100
AcDbSymbolTableRecord
100
AcDbLinetypeTableRecord
  2
DOT
 70
     0
  3
. . . . . . . . . . . . . . . . . . . . . . . .
 72
    65
 73
     2
 40
0.25
 49
0.0
 74
     0
 49
-0.25
 74
     0
  0
LTYPE
  5
2A
330
5
100
AcDbSymbolTableRecord
100
AcDbLinetypeTableRecord
  2
HIDDEN
 70
     0
  3
__ __ __ __ __ __ __ __ __ __ __ __ __ __ __
 72
    65
 73
     2
 40
3.5
 49
2.0
 74
     0
 49
-1.5
 74
     0
  0
ENDTAB
  0
TABLE
  2
LAYER
  5
2
330
0
100
AcDbSymbolTable
 70
     2
  0
LAYER
  5
10
330
2
100
AcDbSymbolTableRecord
100
AcDbLayerTableRecord
  2
0
 70
     0
 62
     7
  6
CONTINUOUS
370
    -3
390
F
  0
LAYER
  5
2B
330
2
100
AcDbSymbolTableRecord
100
AcDbLayerTableRecord
  2
DEFPOINTS
 70
     0
 62
     7
  6
CONTINUOUS
290
     0
370
    -3
390
F
  0
ENDTAB
  0
TABLE
  2
STYLE
  5
3
330
0
100
AcDbSymbolTable
 70
     2
  0
STYLE
  5
11
330
3
100
AcDbSymbolTableRecord
100
AcDbTextStyleTableRecord
  2
STANDARD
 70
     0
 40
0.0
 41
1.0
 50
0.0
 71
     0
 42
0.2
  3

  4

1001
ACAD
1000
MS Gothic
1071
    32817
  0
ENDTAB
  0
TABLE
  2
VIEW
  5
6
330
0
100
AcDbSymbolTable
 70
     0
  0
ENDTAB
  0
TABLE
  2
UCS
  5
7
330
0
100
AcDbSymbolTable
 70
     0
  0
ENDTAB
  0
TABLE
  2
APPID
  5
9
330
0
100
AcDbSymbolTable
 70
     2
  0
APPID
  5
12
330
9
100
AcDbSymbolTableRecord
100
AcDbRegAppTableRecord
  2
ACAD
 70
     0
  0
APPID
  5
225
330
9
100
AcDbSymbolTableRecord
100
AcDbRegAppTableRecord
  2
ACAD_PSEXT
 70
     0
  0
ENDTAB
  0
TABLE
  2
DIMSTYLE
  5
A
330
0
100
AcDbSymbolTable
 70
     4
100
AcDbDimStyleTable
 71
     1
340
2C
  0
DIMSTYLE
105
2C
102
{ACAD_REACTORS
330
21F
102
}
330
A
100
AcDbSymbolTableRecord
100
AcDbDimStyleTableRecord
  2
DIMSTYLE1
 70
     0
 41
1.0
 42
2.54
 44
2.54
 73
     0
 74
     0
 75
     1
 76
     1
 77
     1
140
3.0
145
1.0
147
1.5
172
     1
173
     1
279
     2
340
11
  0
DIMSTYLE
105
2D
102
{ACAD_REACTORS
330
220
102
}
330
A
100
AcDbSymbolTableRecord
100
AcDbDimStyleTableRecord
  2
DIMSTYLE2
 70
     0
 41
1.0
 42
2.54
 44
2.54
 73
     0
 74
     0
 75
     1
 76
     1
 77
     1
140
3.0
145
1.0
147
1.5
172
     1
173
     1
279
     2
340
11
  0
DIMSTYLE
105
2E
102
{ACAD_REACTORS
330
221
102
}
330
A
100
AcDbSymbolTableRecord
100
AcDbDimStyleTableRecord
  2
DIMSTYLE3
 70
     0
 41
1.0
 42
2.54
 44
2.54
 73
     0
 74
     0
 77
     1
140
3.0
145
1.0
147
1.5
172
     1
173
     1
279
     2
340
11
  0
ENDTAB
  0
TABLE
  2
BLOCK_RECORD
  5
1
330
0
100
AcDbSymbolTable
 70
     6
  0
BLOCK_RECORD
  5
22
330
1
100
AcDbSymbolTableRecord
100
AcDbBlockTableRecord
  2
*Model_Space
340
25
  0
BLOCK_RECORD
  5
1E
330
1
100
AcDbSymbolTableRecord
100
AcDbBlockTableRecord
  2
*Paper_Space
340
21
  0
BLOCK_RECORD
  5
32
330
1
100
AcDbSymbolTableRecord
100
AcDbBlockTableRecord
  2
_OPEN30
340
0
102
{BLKREFS
331
3C
331
3D
331
46
331
47
331
4F
331
50
102
}
  0
BLOCK_RECORD
  5
38
330
1
100
AcDbSymbolTableRecord
100
AcDbBlockTableRecord
  2
*D1
340
0
  0
BLOCK_RECORD
  5
42
330
1
100
AcDbSymbolTableRecord
100
AcDbBlockTableRecord
  2
*D2
340
0
  0
BLOCK_RECORD
  5
4C
330
1
100
AcDbSymbolTableRecord
100
AcDbBlockTableRecord
  2
*D3
340
0
  0
BLOCK_RECORD
  5
58
330
1
100
AcDbSymbolTableRecord
100
AcDbBlockTableRecord
  2
KOZU0001
340
0
102
{BLKREFS
331
222
102
}
  0
ENDTAB
  0
ENDSEC
  0
SECTION
  2
BLOCKS
  0
BLOCK
  5
23
330
22
100
AcDbEntity
  8
0
100
AcDbBlockBegin
  2
*Model_Space
 70
     0
 10
0.0
 20
0.0
 30
0.0
  3
*Model_Space
  1

  0
ENDBLK
  5
24
330
22
100
AcDbEntity
  8
0
100
AcDbBlockEnd
  0
BLOCK
  5
1F
330
1E
100
AcDbEntity
 67
     1
  8
0
100
AcDbBlockBegin
  2
*Paper_Space
 70
     0
 10
0.0
 20
0.0
 30
0.0
  3
*Paper_Space
  1

  0
ENDBLK
  5
20
330
1E
100
AcDbEntity
 67
     1
  8
0
100
AcDbBlockEnd
  0
BLOCK
  5
33
330
32
100
AcDbEntity
  8
0
100
AcDbBlockBegin
  2
_OPEN30
 70
     0
 10
0.0
 20
0.0
 30
0.0
  3
_OPEN30
  1

  0
LINE
  5
34
330
32
100
AcDbEntity
  8
0
  6
ByBlock
 62
     0
100
AcDbLine
 10
0.0
 20
0.0
 30
0.0
 11
-2.999999999999993
 21
-1.000000000000017
 31
0.0
  0
LINE
  5
35
330
32
100
AcDbEntity
  8
0
  6
ByBlock
 62
     0
100
AcDbLine
 10
0.0
 20
0.0
 30
0.0
 11
-3.000000000000006
 21
0.9999999999999815
 31
0.0
  0
LINE
  5
36
330
32
100
AcDbEntity
  8
0
  6
ByBlock
 62
     0
100
AcDbLine
 10
0.0
 20
0.0
 30
0.0
 11
-3.0
 21
0.0
 31
0.0
  0
ENDBLK
  5
37
330
32
100
AcDbEntity
  8
0
100
AcDbBlockEnd
  0
BLOCK
  5
39
330
38
100
AcDbEntity
  8
0
100
AcDbBlockBegin
  2
*D1
 70
     1
 10
0.0
 20
0.0
 30
0.0
  3
*D1
  1

  0
LINE
  5
3A
330
38
100
AcDbEntity
  8
0
  6
Continuous
 62
     7
100
AcDbLine
 10
-344.5586853027344
 20
274.1311340332031
 30
0.0
 11
-313.393798828125
 21
313.4966735839844
 31
0.0
  0
LINE
  5
3B
330
38
100
AcDbEntity
  8
0
  6
Continuous
 62
     7
100
AcDbLine
 10
-438.9064282064348
 20
154.9568750888832
 30
0.0
 11
-346.4208117837995
 21
271.779010531234
 31
0.0
  0
INSERT
  5
3C
330
38
100
AcDbEntity
  8
0
  6
Continuous
 62
     7
100
AcDbBlockReference
  2
_OPEN30
 10
-440.7685546875
 20
152.6047515869141
 30
0.0
 50
231.6320847265262
  0
INSERT
  5
3D
330
38
100
AcDbEntity
  8
0
  6
Continuous
 62
     7
100
AcDbBlockReference
  2
_OPEN30
 10
-344.5586853027344
 20
274.1311340332031
 30
0.0
 50
51.63208472652546
  0
TEXT
  5
3E
330
38
100
AcDbEntity
  8
0
  6
Continuous
 62
     7
100
AcDbText
 10
-333.9382067632639
 20
288.7690318250108
 30
0.0
 40
3.0
  1
%%C１５５（目皿受外径）
 50
51.59999938684407
 41
0.8440126077968535
100
AcDbText
  0
POINT
  5
3F
330
38
100
AcDbEntity
  8
DEFPOINTS
  6
Continuous
 62
     7
100
AcDbPoint
 10
-440.7685546875
 20
152.6047515869141
 30
0.0
  0
POINT
  5
40
330
38
100
AcDbEntity
  8
DEFPOINTS
  6
Continuous
 62
     7
100
AcDbPoint
 10
-344.5586853027344
 20
274.1311340332031
 30
0.0
  0
ENDBLK
  5
41
330
38
100
AcDbEntity
  8
0
100
AcDbBlockEnd
  0
BLOCK
  5
43
330
42
100
AcDbEntity
  8
0
100
AcDbBlockBegin
  2
*D2
 70
     1
 10
0.0
 20
0.0
 30
0.0
  3
*D2
  1

  0
LINE
  5
44
330
42
100
AcDbEntity
  8
0
  6
Continuous
 62
     7
100
AcDbLine
 10
-341.380615234375
 20
256.425994873047
 30
0.0
 11
-296.9755859375
 21
293.6734313964844
 31
0.0
  0
LINE
  5
45
330
42
100
AcDbEntity
  8
0
  6
Continuous
 62
     7
100
AcDbLine
 10
-441.7467056678177
 20
172.2378485248036
 30
0.0
 11
-343.6790755821824
 21
254.4980218365245
 31
0.0
  0
INSERT
  5
46
330
42
100
AcDbEntity
  8
0
  6
Continuous
 62
     7
100
AcDbBlockReference
  2
_OPEN30
 10
-444.045166015625
 20
170.3098754882813
 30
0.0
 50
219.9902826010805
  0
INSERT
  5
47
330
42
100
AcDbEntity
  8
0
  6
Continuous
 62
     7
100
AcDbBlockReference
  2
_OPEN30
 10
-341.380615234375
 20
256.425994873047
 30
0.0
 50
39.99028260107979
  0
TEXT
  5
48
330
42
100
AcDbEntity
  8
0
  6
Continuous
 62
     7
100
AcDbText
 10
-319.7817866075376
 20
275.5190237229987
 30
0.0
 40
3.0
  1
%%C１３４（目皿外径）
 50
39.99999883637168
 41
0.8443929326254473
100
AcDbText
  0
POINT
  5
49
330
42
100
AcDbEntity
  8
DEFPOINTS
  6
Continuous
 62
     7
100
AcDbPoint
 10
-444.045166015625
 20
170.3098754882813
 30
0.0
  0
POINT
  5
4A
330
42
100
AcDbEntity
  8
DEFPOINTS
  6
Continuous
 62
     7
100
AcDbPoint
 10
-341.380615234375
 20
256.425994873047
 30
0.0
  0
ENDBLK
  5
4B
330
42
100
AcDbEntity
  8
0
100
AcDbBlockEnd
  0
BLOCK
  5
4D
330
4C
100
AcDbEntity
  8
0
100
AcDbBlockBegin
  2
*D3
 70
     1
 10
0.0
 20
0.0
 30
0.0
  3
*D3
  1

  0
LINE
  5
4E
330
4C
100
AcDbEntity
  8
0
  6
Continuous
 62
     7
100
AcDbLine
 10
-234.9337768554689
 20
312.9861145019531
 30
0.0
 11
-173.9337768554688
 21
312.9861145019531
 31
0.0
  0
INSERT
  5
4F
330
4C
100
AcDbEntity
  8
0
  6
Continuous
 62
     7
100
AcDbBlockReference
  2
_OPEN30
 10
-237.9337768554688
 20
312.9861145019531
 30
0.0
 50
180.0000000000004
  0
INSERT
  5
50
330
4C
100
AcDbEntity
  8
0
  6
Continuous
 62
     7
100
AcDbBlockReference
  2
_OPEN30
 10
-170.9337768554688
 20
312.9861145019531
 30
0.0
  0
LINE
  5
51
330
4C
100
AcDbEntity
  8
0
  6
Continuous
 62
     7
100
AcDbLine
 10
-237.9337768554688
 20
292.4079504394532
 30
0.0
 11
-237.9337768554688
 21
315.2720947265625
 31
0.0
  0
LINE
  5
52
330
4C
100
AcDbEntity
  8
0
  6
Continuous
 62
     7
100
AcDbLine
 10
-170.9337768554688
 20
252.0079412841797
 30
0.0
 11
-170.9337768554688
 21
315.2720947265625
 31
0.0
  0
TEXT
  5
53
330
4C
100
AcDbEntity
  8
0
  6
Continuous
 62
     7
100
AcDbText
 10
-207.0037769675255
 20
313.7361145019531
 30
0.0
 40
3.0
  1
67
 41
1.028000020980834
100
AcDbText
  0
POINT
  5
54
330
4C
100
AcDbEntity
  8
DEFPOINTS
  6
Continuous
 62
     7
100
AcDbPoint
 10
-237.9337768554688
 20
289.8679504394531
 30
0.0
  0
POINT
  5
55
330
4C
100
AcDbEntity
  8
DEFPOINTS
  6
Continuous
 62
     7
100
AcDbPoint
 10
-170.9337768554688
 20
249.4679412841797
 30
0.0
  0
POINT
  5
56
330
4C
100
AcDbEntity
  8
DEFPOINTS
  6
Continuous
 62
     7
100
AcDbPoint
 10
-170.9337768554688
 20
312.9861145019531
 30
0.0
  0
ENDBLK
  5
57
330
4C
100
AcDbEntity
  8
0
100
AcDbBlockEnd
  0
BLOCK
  5
59
330
58
100
AcDbEntity
  8
0
100
AcDbBlockBegin
  2
KOZU0001
 70
     0
 10
0.0
 20
0.0
 30
0.0
  3
KOZU0001
  1

  0
LINE
  5
5A
330
58
100
AcDbEntity
  8
0
  6
Continuous
 62
     7
100
AcDbLine
 10
0.0
 20
0.0
 30
0.0
 11
13.25083923339844
 21
-18.23075866699219
 31
0.0
  0
LINE
  5
5B
330
58
100
AcDbEntity
  8
0
  6
Continuous
 62
     7
100
AcDbLine
 10
13.25083923339844
 20
-18.23075866699219
 30
0.0
 11
52.44522094726563
 21
-18.23075866699219
 31
0.0
  0
LINE
  5
5C
330
58
100
AcDbEntity
  8
0
  6
Continuous
 62
     7
100
AcDbLine
 10
0.0
 20
0.0
 30
0.0
 11
2.572730396999698
 21
-1.838765429399241
 31
0.0
  0
LINE
  5
5D
330
58
100
AcDbEntity
  8
0
  6
Continuous
 62
     7
100
AcDbLine
 10
0.0
 20
0.0
 30
0.0
 11
0.9549250599602135
 21
-3.014650581719211
 31
0.0
  0
TEXT
  5
5E
330
58
100
AcDbEntity
  8
0
  6
Continuous
 62
     7
100
AcDbText
 10
18.58521962165833
 20
-17.48075866699219
 30
0.0
 40
3.0
  1
配管接続口
 41
0.8487395020950888
100
AcDbText
  0
TEXT
  5
5F
330
58
100
AcDbEntity
  8
0
  6
Continuous
 62
     7
100
AcDbText
 10
18.58521962165833
 20
-22.74575866699219
 30
0.0
 40
3.0
  1
Ｇ２　１／２（６５Ａ）
 41
0.8440126077968535
100
AcDbText
  0
ENDBLK
  5
60
330
58
100
AcDbEntity
  8
0
100
AcDbBlockEnd
  0
ENDSEC
  0
SECTION
  2
ENTITIES
  0
LINE
  5
61
330
22
100
AcDbEntity
  8
0
  6
Continuous
 62
     7
100
AcDbLine
 10
-171.9337768554688
 20
246.3679351806641
 30
0.0
 11
-204.8604888916016
 21
246.3679351806641
 31
0.0
  0
LINE
  5
62
330
22
100
AcDbEntity
  8
0
  6
Continuous
 62
     7
100
AcDbLine
 10
-171.8837738037109
 20
250.4179382324219
 30
0.0
 11
-200.9337768554688
 21
250.4179382324219
 31
0.0
  0
LINE
  5
63
330
22
100
AcDbEntity
  8
0
  6
Continuous
 62
     7
100
AcDbLine
 10
-170.9337768554688
 20
249.4679412841797
 30
0.0
 11
-200.9337768554688
 21
249.4679412841797
 31
0.0
  0
LINE
  5
64
330
22
100
AcDbEntity
  8
0
  6
Continuous
 62
     7
100
AcDbLine
 10
-171.9337768554688
 20
246.3679351806641
 30
0.0
 11
-170.9337768554688
 21
247.3679351806641
 31
0.0
  0
LINE
  5
65
330
22
100
AcDbEntity
  8
0
  6
Continuous
 62
     7
100
AcDbLine
 10
-200.9337768554688
 20
249.4679412841797
 30
0.0
 11
-201.8837738037109
 21
250.4179382324219
 31
0.0
  0
LINE
  5
66
330
22
100
AcDbEntity
  8
0
  6
Continuous
 62
     7
100
AcDbLine
 10
-200.9337768554688
 20
250.4179382324219
 30
0.0
 11
-204.8893585205078
 21
250.4179382324219
 31
0.0
  0
LINE
  5
67
330
22
100
AcDbEntity
  8
0
  6
Continuous
 62
     7
100
AcDbLine
 10
-224.4904022216797
 20
281.3679504394531
 30
0.0
 11
-207.4874267578125
 21
251.9179382324219
 31
0.0
  0
LINE
  5
68
330
22
100
AcDbEntity
  8
0
  6
Continuous
 62
     7
100
AcDbLine
 10
-224.2017211914063
 20
274.8679504394531
 30
0.0
 11
-209.1906127929688
 21
248.8679351806641
 31
0.0
  0
LINE
  5
69
330
22
100
AcDbEntity
  8
0
  6
Continuous
 62
     7
100
AcDbLine
 10
-170.9337768554688
 20
249.4679412841797
 30
0.0
 11
-171.8837738037109
 21
250.4179382324219
 31
0.0
  0
LINE
  5
6A
330
22
100
AcDbEntity
  8
0
  6
Continuous
 62
     7
100
AcDbLine
 10
-170.9337768554688
 20
247.3679351806641
 30
0.0
 11
-170.9337768554688
 21
249.4679412841797
 31
0.0
  0
LINE
  5
6B
330
22
100
AcDbEntity
  8
0
  6
Continuous
 62
     7
100
AcDbLine
 10
-237.9337768554688
 20
235.1301879882814
 30
0.0
 11
-234.9337768554689
 21
235.1301879882814
 31
0.0
  0
LINE
  5
6C
330
22
100
AcDbEntity
  8
0
  6
Continuous
 62
     7
100
AcDbLine
 10
-232.9337768554688
 20
247.2009582519531
 30
0.0
 11
-234.9337768554689
 21
247.2009582519531
 31
0.0
  0
LINE
  5
6D
330
22
100
AcDbEntity
  8
0
  6
Continuous
 62
     7
100
AcDbLine
 10
-237.9337768554688
 20
275.099151611328
 30
0.0
 11
-234.9337768554689
 21
275.099151611328
 31
0.0
  0
LINE
  5
6E
330
22
100
AcDbEntity
  8
0
  6
Continuous
 62
     7
100
AcDbLine
 10
-234.9337768554689
 20
277.367919921875
 30
0.0
 11
-232.9337768554688
 21
277.367919921875
 31
0.0
  0
LINE
  5
6F
330
22
100
AcDbEntity
  8
0
  6
Continuous
 62
     7
100
AcDbLine
 10
-237.9337768554688
 20
280.367919921875
 30
0.0
 11
-232.9337768554688
 21
280.367919921875
 31
0.0
  0
LINE
  5
70
330
22
100
AcDbEntity
  8
0
  6
Continuous
 62
     7
100
AcDbLine
 10
-237.9337768554688
 20
280.8679504394531
 30
0.0
 11
-232.9337768554688
 21
280.8679504394531
 31
0.0
  0
LINE
  5
71
330
22
100
AcDbEntity
  8
0
  6
Continuous
 62
     7
100
AcDbLine
 10
-232.9337768554688
 20
280.8679504394531
 30
0.0
 11
-232.9337768554688
 21
277.3679504394531
 31
0.0
  0
LINE
  5
72
330
22
100
AcDbEntity
  8
0
  6
Continuous
 62
     7
100
AcDbLine
 10
-236.9337768554689
 20
290.8679504394531
 30
0.0
 11
-234.9337768554689
 21
290.8679504394531
 31
0.0
  0
LINE
  5
73
330
22
100
AcDbEntity
  8
0
  6
Continuous
 62
     7
100
AcDbLine
 10
-233.9337768554688
 20
289.8679504394531
 30
0.0
 11
-233.9337768554688
 21
284.8679504394531
 31
0.0
  0
LINE
  5
74
330
22
100
AcDbEntity
  8
0
  6
Continuous
 62
     7
100
AcDbLine
 10
-224.4904022216797
 20
145.3679351806641
 30
0.0
 11
-207.4874267578125
 21
174.8179321289063
 31
0.0
  0
LINE
  5
75
330
22
100
AcDbEntity
  8
0
  6
Continuous
 62
     7
100
AcDbLine
 10
-200.9337768554688
 20
177.2679443359375
 30
0.0
 11
-201.8837738037109
 21
176.3179321289063
 31
0.0
  0
LINE
  5
76
330
22
100
AcDbEntity
  8
0
  6
Continuous
 62
     7
100
AcDbLine
 10
-200.9337768554688
 20
176.3179321289063
 30
0.0
 11
-204.8893585205078
 21
176.3179321289063
 31
0.0
  0
LINE
  5
77
330
22
100
AcDbEntity
  8
0
  6
Continuous
 62
     7
100
AcDbLine
 10
-237.9337768554688
 20
240.1301879882813
 30
0.0
 11
-234.9337768554689
 21
240.1301879882813
 31
0.0
  0
LINE
  5
78
330
22
100
AcDbEntity
  8
0
  6
Continuous
 62
     7
100
AcDbLine
 10
-232.9337768554688
 20
237.2009582519531
 30
0.0
 11
-234.9337768554689
 21
237.2009582519531
 31
0.0
  0
LINE
  5
79
330
22
100
AcDbEntity
  8
0
  6
Continuous
 62
     7
100
AcDbLine
 10
-236.9337768554689
 20
135.8679351806641
 30
0.0
 11
-234.9337768554689
 21
135.8679351806641
 31
0.0
  0
LINE
  5
7A
330
22
100
AcDbEntity
  8
0
  6
Continuous
 62
     7
100
AcDbLine
 10
-232.9337768554688
 20
277.3679504394531
 30
0.0
 11
-232.9337768554688
 21
213.3679351806641
 31
0.0
  0
LINE
  5
7B
330
22
100
AcDbEntity
  8
0
  6
Continuous
 62
     7
100
AcDbLine
 10
-237.9337768554688
 20
215.9664154052734
 30
0.0
 11
-234.9337768554689
 21
215.9664154052734
 31
0.0
  0
LINE
  5
7C
330
22
100
AcDbEntity
  8
0
  6
Continuous
 62
     7
100
AcDbLine
 10
-237.9337768554688
 20
136.8679351806641
 30
0.0
 11
-237.9337768554688
 21
289.8679504394531
 31
0.0
  0
LINE
  5
7D
330
22
100
AcDbEntity
  8
0
  6
Continuous
 62
     7
100
AcDbLine
 10
-226.3205261230469
 20
146.4127044677734
 30
0.0
 11
-226.3205261230469
 21
213.3679351806641
 31
0.0
  0
LINE
  5
7E
330
22
100
AcDbEntity
  8
0
  6
Continuous
 62
     7
100
AcDbLine
 10
-170.9337768554688
 20
177.2679443359375
 30
0.0
 11
-170.9337768554688
 21
247.3679351806641
 31
0.0
  0
LINE
  5
7F
330
22
100
AcDbEntity
  8
0
  6
Continuous
 62
     7
100
AcDbLine
 10
-206.1500854492188
 20
178.0023345947266
 30
0.0
 11
-206.1500854492188
 21
213.3679351806641
 31
0.0
  0
LINE
  5
80
330
22
100
AcDbEntity
  8
0
  6
Continuous
 62
     7
100
AcDbLine
 10
-200.9337768554688
 20
177.2679443359375
 30
0.0
 11
-200.9337768554688
 21
213.3679351806641
 31
0.0
  0
LINE
  5
81
330
22
100
AcDbEntity
  8
0
  6
Continuous
 62
     7
100
AcDbLine
 10
-209.1906127929688
 20
247.0378112792969
 30
0.0
 11
-209.1906127929688
 21
213.3679351806641
 31
0.0
  0
LINE
  5
82
330
22
100
AcDbEntity
  8
0
  6
Continuous
 62
     7
100
AcDbLine
 10
-205.9301300048828
 20
245.0659027099609
 30
0.0
 11
-205.9301300048828
 21
213.3679351806641
 31
0.0
  0
LINE
  5
83
330
22
100
AcDbEntity
  8
0
  6
Continuous
 62
     7
100
AcDbLine
 10
-233.9337768554688
 20
213.3679351806641
 30
0.0
 11
-233.9337768554688
 21
136.8679351806641
 31
0.0
  0
LINE
  5
84
330
22
100
AcDbEntity
  8
0
  6
Continuous
 62
     7
100
AcDbLine
 10
-233.5186767578125
 20
280.367919921875
 30
0.0
 11
-232.9337768554688
 21
279.7830200195313
 31
0.0
  0
LINE
  5
85
330
22
100
AcDbEntity
  8
0
  6
Continuous
 62
     7
100
AcDbLine
 10
-234.2257843017578
 20
280.367919921875
 30
0.0
 11
-232.9337768554688
 21
279.0758972167969
 31
0.0
  0
LINE
  5
86
330
22
100
AcDbEntity
  8
0
  6
Continuous
 62
     7
100
AcDbLine
 10
-236.3470916748047
 20
280.367919921875
 30
0.0
 11
-233.3470916748047
 21
277.367919921875
 31
0.0
  0
LINE
  5
87
330
22
100
AcDbEntity
  8
0
  6
Continuous
 62
     7
100
AcDbLine
 10
-237.05419921875
 20
280.367919921875
 30
0.0
 11
-234.05419921875
 21
277.367919921875
 31
0.0
  0
LINE
  5
88
330
22
100
AcDbEntity
  8
0
  6
Continuous
 62
     7
100
AcDbLine
 10
-237.9337768554688
 20
279.1261596679688
 30
0.0
 11
-234.9337768554689
 21
276.1261596679688
 31
0.0
  0
LINE
  5
89
330
22
100
AcDbEntity
  8
0
  6
Continuous
 62
     7
100
AcDbLine
 10
-237.9337768554688
 20
278.4190673828125
 30
0.0
 11
-234.9337768554689
 21
275.4190673828125
 31
0.0
  0
LINE
  5
8A
330
22
100
AcDbEntity
  8
0
  6
Continuous
 62
     7
100
AcDbLine
 10
-237.9337768554688
 20
276.2977294921875
 30
0.0
 11
-236.7351837158203
 21
275.099151611328
 31
0.0
  0
LINE
  5
8B
330
22
100
AcDbEntity
  8
0
  6
Continuous
 62
     7
100
AcDbLine
 10
-237.9337768554688
 20
275.5906372070313
 30
0.0
 11
-237.4422760009766
 21
275.099151611328
 31
0.0
  0
LINE
  5
8C
330
22
100
AcDbEntity
  8
0
  6
Continuous
 62
     7
100
AcDbLine
 10
-235.7073364257813
 20
240.1301879882813
 30
0.0
 11
-234.9337768554689
 21
239.3566131591797
 31
0.0
  0
LINE
  5
8D
330
22
100
AcDbEntity
  8
0
  6
Continuous
 62
     7
100
AcDbLine
 10
-236.4144439697266
 20
240.1301879882813
 30
0.0
 11
-234.9337768554689
 21
238.6495056152344
 31
0.0
  0
LINE
  5
8E
330
22
100
AcDbEntity
  8
0
  6
Continuous
 62
     7
100
AcDbLine
 10
-237.9337768554688
 20
239.5281829833984
 30
0.0
 11
-234.9337768554689
 21
236.5281829833984
 31
0.0
  0
LINE
  5
8F
330
22
100
AcDbEntity
  8
0
  6
Continuous
 62
     7
100
AcDbLine
 10
-237.9337768554688
 20
238.8210754394531
 30
0.0
 11
-234.9337768554689
 21
235.8210754394531
 31
0.0
  0
LINE
  5
90
330
22
100
AcDbEntity
  8
0
  6
Continuous
 62
     7
100
AcDbLine
 10
-237.9337768554688
 20
236.6997528076172
 30
0.0
 11
-236.3641967773439
 21
235.1301879882814
 31
0.0
  0
LINE
  5
91
330
22
100
AcDbEntity
  8
0
  6
Continuous
 62
     7
100
AcDbLine
 10
-237.9337768554688
 20
235.9926452636719
 30
0.0
 11
-237.0713043212891
 21
235.1301879882814
 31
0.0
  0
LINE
  5
92
330
22
100
AcDbEntity
  8
0
  6
Continuous
 62
     7
100
AcDbLine
 10
-236.9994201660156
 20
215.9664154052734
 30
0.0
 11
-234.9337768554689
 21
213.9007720947266
 31
0.0
  0
LINE
  5
93
330
22
100
AcDbEntity
  8
0
  6
Continuous
 62
     7
100
AcDbLine
 10
-237.7065277099609
 20
215.9664154052734
 30
0.0
 11
-235.1080474853516
 21
213.3679351806641
 31
0.0
  0
LINE
  5
94
330
22
100
AcDbEntity
  8
0
  6
Continuous
 62
     7
100
AcDbLine
 10
-237.9337768554688
 20
214.0723419189453
 30
0.0
 11
-237.2293701171875
 21
213.3679351806641
 31
0.0
  0
LINE
  5
95
330
22
100
AcDbEntity
  8
0
  6
Continuous
 62
     7
100
AcDbLine
 10
-234.9337768554689
 20
213.3679351806641
 30
0.0
 11
-234.9337768554689
 21
277.367919921875
 31
0.0
  0
LINE
  5
96
330
22
100
AcDbEntity
  8
0
  6
Continuous
 62
     7
100
AcDbLine
 10
-170.9337768554688
 20
220.3913726806641
 30
0.0
 11
-170.9337768554688
 21
228.1120758056641
 31
0.0
  0
LINE
  5
97
330
22
100
AcDbEntity
  8
0
  6
Continuous
 62
     7
100
AcDbLine
 10
-237.9337768554688
 20
287.8479919433594
 30
0.0
 11
-234.9171447753906
 21
290.8646240234375
 31
0.0
  0
LINE
  5
98
330
22
100
AcDbEntity
  8
0
  6
Continuous
 62
     7
100
AcDbLine
 10
-237.9337768554688
 20
285.0195617675781
 30
0.0
 11
-233.9337768554688
 21
289.0195617675781
 31
0.0
  0
LINE
  5
99
330
22
100
AcDbEntity
  8
0
  6
Continuous
 62
     7
100
AcDbLine
 10
-237.9337768554688
 20
282.1911315917969
 30
0.0
 11
-233.9337768554688
 21
286.1911315917969
 31
0.0
  0
LINE
  5
9A
330
22
100
AcDbEntity
  8
0
  6
Continuous
 62
     7
100
AcDbLine
 10
-236.4285430908203
 20
280.8679504394531
 30
0.0
 11
-233.3380126953125
 21
283.9584655761719
 31
0.0
  0
LINE
  5
9B
330
22
100
AcDbEntity
  8
0
  6
Continuous
 62
     7
100
AcDbLine
 10
-233.6001281738281
 20
280.8679504394531
 30
0.0
 11
-230.6001281738281
 21
283.8679504394531
 31
0.0
  0
LINE
  5
9C
330
22
100
AcDbEntity
  8
0
  6
Continuous
 62
     7
100
AcDbLine
 10
-232.9337768554688
 20
278.7058715820313
 30
0.0
 11
-227.8804016113281
 21
283.7592468261719
 31
0.0
  0
LINE
  5
9D
330
22
100
AcDbEntity
  8
0
  6
Continuous
 62
     7
100
AcDbLine
 10
-231.4432678222656
 20
277.3679504394531
 30
0.0
 11
-225.8947448730469
 21
282.9164733886719
 31
0.0
  0
LINE
  5
9E
330
22
100
AcDbEntity
  8
0
  6
Continuous
 62
     7
100
AcDbLine
 10
-228.6148376464844
 20
277.3679504394531
 30
0.0
 11
-224.5365753173828
 21
281.4461975097655
 31
0.0
  0
LINE
  5
9F
330
22
100
AcDbEntity
  8
0
  6
Continuous
 62
     7
100
AcDbLine
 10
-226.3218383789063
 20
276.83251953125
 30
0.0
 11
-223.5006713867188
 21
279.6536865234375
 31
0.0
  0
LINE
  5
A0
330
22
100
AcDbEntity
  8
0
  6
Continuous
 62
     7
100
AcDbLine
 10
-224.7361755371094
 20
275.5897521972656
 30
0.0
 11
-222.4653930664064
 21
277.8605346679688
 31
0.0
  0
LINE
  5
A1
330
22
100
AcDbEntity
  8
0
  6
Continuous
 62
     7
100
AcDbLine
 10
-223.6262664794922
 20
273.8712158203125
 30
0.0
 11
-221.4301147460938
 21
276.0673828125
 31
0.0
  0
LINE
  5
A2
330
22
100
AcDbEntity
  8
0
  6
Continuous
 62
     7
100
AcDbLine
 10
-222.5909881591797
 20
272.0780639648438
 30
0.0
 11
-220.3948364257813
 21
274.2742309570313
 31
0.0
  0
LINE
  5
A3
330
22
100
AcDbEntity
  8
0
  6
Continuous
 62
     7
100
AcDbLine
 10
-221.5557098388672
 20
270.284912109375
 30
0.0
 11
-219.3595581054688
 21
272.4810791015625
 31
0.0
  0
LINE
  5
A4
330
22
100
AcDbEntity
  8
0
  6
Continuous
 62
     7
100
AcDbLine
 10
-220.5204467773438
 20
268.4917602539063
 30
0.0
 11
-218.3242950439453
 21
270.6879272460938
 31
0.0
  0
LINE
  5
A5
330
22
100
AcDbEntity
  8
0
  6
Continuous
 62
     7
100
AcDbLine
 10
-219.4851684570313
 20
266.6986083984375
 30
0.0
 11
-217.2890167236328
 21
268.894775390625
 31
0.0
  0
LINE
  5
A6
330
22
100
AcDbEntity
  8
0
  6
Continuous
 62
     7
100
AcDbLine
 10
-218.4498901367188
 20
264.9054870605469
 30
0.0
 11
-216.2537384033203
 21
267.1016235351563
 31
0.0
  0
LINE
  5
A7
330
22
100
AcDbEntity
  8
0
  6
Continuous
 62
     7
100
AcDbLine
 10
-217.4146118164063
 20
263.1123352050781
 30
0.0
 11
-215.2184600830078
 21
265.3084716796875
 31
0.0
  0
LINE
  5
A8
330
22
100
AcDbEntity
  8
0
  6
Continuous
 62
     7
100
AcDbLine
 10
-216.3793334960939
 20
261.3191833496094
 30
0.0
 11
-214.1831817626953
 21
263.5153198242188
 31
0.0
  0
LINE
  5
A9
330
22
100
AcDbEntity
  8
0
  6
Continuous
 62
     7
100
AcDbLine
 10
-215.3440551757813
 20
259.5260314941405
 30
0.0
 11
-213.1479034423828
 21
261.72216796875
 31
0.0
  0
LINE
  5
AA
330
22
100
AcDbEntity
  8
0
  6
Continuous
 62
     7
100
AcDbLine
 10
-214.3087768554688
 20
257.7328796386719
 30
0.0
 11
-212.1126251220703
 21
259.9290161132813
 31
0.0
  0
LINE
  5
AB
330
22
100
AcDbEntity
  8
0
  6
Continuous
 62
     7
100
AcDbLine
 10
-213.2735137939453
 20
255.9397125244141
 30
0.0
 11
-211.0773620605469
 21
258.1358642578125
 31
0.0
  0
LINE
  5
AC
330
22
100
AcDbEntity
  8
0
  6
Continuous
 62
     7
100
AcDbLine
 10
-212.2382354736328
 20
254.1465606689453
 30
0.0
 11
-210.0420837402344
 21
256.3427124023438
 31
0.0
  0
LINE
  5
AD
330
22
100
AcDbEntity
  8
0
  6
Continuous
 62
     7
100
AcDbLine
 10
-211.2029571533203
 20
252.3534088134766
 30
0.0
 11
-209.0068054199219
 21
254.549560546875
 31
0.0
  0
LINE
  5
AE
330
22
100
AcDbEntity
  8
0
  6
Continuous
 62
     7
100
AcDbLine
 10
-210.1676788330078
 20
250.5602569580078
 30
0.0
 11
-207.9715270996094
 21
252.7564239501953
 31
0.0
  0
LINE
  5
AF
330
22
100
AcDbEntity
  8
0
  6
Continuous
 62
     7
100
AcDbLine
 10
-209.129638671875
 20
248.7698822021484
 30
0.0
 11
-206.7876586914063
 21
251.1118469238281
 31
0.0
  0
LINE
  5
B0
330
22
100
AcDbEntity
  8
0
  6
Continuous
 62
     7
100
AcDbLine
 10
-207.7603607177734
 20
247.3107299804688
 30
0.0
 11
-204.6531524658203
 21
250.4179382324219
 31
0.0
  0
LINE
  5
B1
330
22
100
AcDbEntity
  8
0
  6
Continuous
 62
     7
100
AcDbLine
 10
-205.7837829589844
 20
246.4588775634766
 30
0.0
 11
-201.854248046875
 21
250.3884124755859
 31
0.0
  0
LINE
  5
B2
330
22
100
AcDbEntity
  8
0
  6
Continuous
 62
     7
100
AcDbLine
 10
-203.0462951660156
 20
246.3679351806641
 30
0.0
 11
-199.9463043212891
 21
249.4679412841797
 31
0.0
  0
LINE
  5
B3
330
22
100
AcDbEntity
  8
0
  6
Continuous
 62
     7
100
AcDbLine
 10
-200.2178649902344
 20
246.3679351806641
 30
0.0
 11
-197.1178741455078
 21
249.4679412841797
 31
0.0
  0
LINE
  5
B4
330
22
100
AcDbEntity
  8
0
  6
Continuous
 62
     7
100
AcDbLine
 10
-197.3894500732422
 20
246.3679351806641
 30
0.0
 11
-194.2894439697266
 21
249.4679412841797
 31
0.0
  0
LINE
  5
B5
330
22
100
AcDbEntity
  8
0
  6
Continuous
 62
     7
100
AcDbLine
 10
-194.5610198974609
 20
246.3679351806641
 30
0.0
 11
-191.4610137939453
 21
249.4679412841797
 31
0.0
  0
LINE
  5
B6
330
22
100
AcDbEntity
  8
0
  6
Continuous
 62
     7
100
AcDbLine
 10
-191.7325897216796
 20
246.3679351806641
 30
0.0
 11
-188.632583618164
 21
249.4679412841797
 31
0.0
  0
LINE
  5
B7
330
22
100
AcDbEntity
  8
0
  6
Continuous
 62
     7
100
AcDbLine
 10
-188.9041595458984
 20
246.3679351806641
 30
0.0
 11
-185.8041687011719
 21
249.4679412841797
 31
0.0
  0
LINE
  5
B8
330
22
100
AcDbEntity
  8
0
  6
Continuous
 62
     7
100
AcDbLine
 10
-186.0757293701172
 20
246.3679351806641
 30
0.0
 11
-182.9757385253906
 21
249.4679412841797
 31
0.0
  0
LINE
  5
B9
330
22
100
AcDbEntity
  8
0
  6
Continuous
 62
     7
100
AcDbLine
 10
-183.247314453125
 20
246.3679351806641
 30
0.0
 11
-180.1473083496094
 21
249.4679412841797
 31
0.0
  0
LINE
  5
BA
330
22
100
AcDbEntity
  8
0
  6
Continuous
 62
     7
100
AcDbLine
 10
-180.4188842773438
 20
246.3679351806641
 30
0.0
 11
-177.3188781738281
 21
249.4679412841797
 31
0.0
  0
LINE
  5
BB
330
22
100
AcDbEntity
  8
0
  6
Continuous
 62
     7
100
AcDbLine
 10
-177.5904541015625
 20
246.3679351806641
 30
0.0
 11
-174.4904479980469
 21
249.4679412841797
 31
0.0
  0
LINE
  5
BC
330
22
100
AcDbEntity
  8
0
  6
Continuous
 62
     7
100
AcDbLine
 10
-174.7620239257813
 20
246.3679351806641
 30
0.0
 11
-171.6620330810547
 21
249.4679412841797
 31
0.0
  0
LINE
  5
BD
330
22
100
AcDbEntity
  8
0
  6
Continuous
 62
     7
100
AcDbLine
 10
-232.9337768554688
 20
283.8679504394531
 30
0.0
 11
-228.8205261230469
 21
283.8679504394531
 31
0.0
  0
LINE
  5
BE
330
22
100
AcDbEntity
  8
0
  6
Continuous
 62
     7
100
AcDbLine
 10
-232.9337768554688
 20
277.3679504394531
 30
0.0
 11
-228.5318450927734
 21
277.3679504394531
 31
0.0
  0
LINE
  5
BF
330
22
100
AcDbEntity
  8
0
  6
Continuous
 62
     7
100
AcDbLine
 10
-232.9337768554688
 20
247.2009582519531
 30
0.0
 11
-224.5054168701172
 21
247.2009582519531
 31
0.0
  0
LINE
  5
C0
330
22
100
AcDbEntity
  8
0
  6
Continuous
 62
     7
100
AcDbLine
 10
-232.9337768554688
 20
237.2009582519531
 30
0.0
 11
-222.9200744628906
 21
237.2009582519531
 31
0.0
  0
LINE
  5
C1
330
22
100
AcDbEntity
  8
0
  6
Continuous
 62
     7
100
AcDbLine
 10
-233.9337768554688
 20
142.8679351806641
 30
0.0
 11
-228.8205261230469
 21
142.8679351806641
 31
0.0
  0
LINE
  5
C2
330
22
100
AcDbEntity
  8
0
  6
CENTER
 62
     7
100
AcDbLine
 10
-166.3336334228516
 20
213.3679351806641
 30
0.0
 11
-249.2467651367189
 21
213.3679351806641
 31
0.0
  0
LINE
  5
C3
330
22
100
AcDbEntity
  8
0
  6
Continuous
 62
     7
100
AcDbLine
 10
-441.5628051757813
 20
244.9934692382814
 30
0.0
 11
-444.3233337402343
 21
244.6474304199219
 31
0.0
  0
LINE
  5
C4
330
22
100
AcDbEntity
  8
0
  6
Continuous
 62
     7
100
AcDbLine
 10
-446.1520996093749
 20
247.0323333740234
 30
0.0
 11
-445.8003540039062
 21
244.2516632080078
 31
0.0
  0
LINE
  5
C5
330
22
100
AcDbEntity
  8
0
  6
Continuous
 62
     7
100
AcDbLine
 10
-448.3640747070313
 20
243.1710662841797
 30
0.0
 11
-448.2646179199218
 21
242.7998352050781
 31
0.0
  0
LINE
  5
C6
330
22
100
AcDbEntity
  8
0
  6
Continuous
 62
     7
100
AcDbLine
 10
-443.9473571777344
 20
240.2902069091797
 30
0.0
 11
-444.3188781738281
 21
240.1906585693359
 31
0.0
  0
LINE
  5
C7
330
22
100
AcDbEntity
  8
0
  6
Continuous
 62
     7
100
AcDbLine
 10
-435.1636047363281
 20
236.9742584228516
 30
0.0
 11
-435.1636047363281
 21
258.1654052734375
 31
0.0
  0
LINE
  5
C8
330
22
100
AcDbEntity
  8
0
  6
Continuous
 62
     7
100
AcDbLine
 10
-443.9473571777344
 20
240.2902069091797
 30
0.0
 11
-443.5758361816406
 21
240.3897399902344
 31
0.0
  0
LINE
  5
C9
330
22
100
AcDbEntity
  8
0
  6
Continuous
 62
     7
100
AcDbLine
 10
-439.1636047363281
 20
253.9981231689453
 30
0.0
 11
-439.1636047363281
 21
236.9742584228516
 31
0.0
  0
LINE
  5
CA
330
22
100
AcDbEntity
  8
0
  6
Continuous
 62
     7
100
AcDbLine
 10
-448.1651306152343
 20
242.4286041259766
 30
0.0
 11
-448.2646179199218
 21
242.7998352050781
 31
0.0
  0
LINE
  5
CB
330
22
100
AcDbEntity
  8
0
  6
Continuous
 62
     7
100
AcDbLine
 10
-441.3638610839844
 20
244.2510070800781
 30
0.0
 11
-443.9275817871093
 21
243.17041015625
 31
0.0
  0
LINE
  5
CC
330
22
100
AcDbEntity
  8
0
  6
Continuous
 62
     7
100
AcDbLine
 10
-448.3640747070313
 20
243.1710662841797
 30
0.0
 11
-445.8003540039062
 21
244.2516632080078
 31
0.0
  0
LINE
  5
CD
330
22
100
AcDbEntity
  8
0
  6
Continuous
 62
     7
100
AcDbLine
 10
-429.9635925292968
 20
219.06640625
 30
0.0
 11
-429.9635925292968
 21
237.5943450927734
 31
0.0
  0
LINE
  5
CE
330
22
100
AcDbEntity
  8
0
  6
Continuous
 62
     7
100
AcDbLine
 10
-423.7636108398437
 20
219.06640625
 30
0.0
 11
-423.7636108398437
 21
237.5943450927734
 31
0.0
  0
LINE
  5
CF
330
22
100
AcDbEntity
  8
0
  6
Continuous
 62
     7
100
AcDbLine
 10
-423.7636108398437
 20
248.7943420410156
 30
0.0
 11
-423.7636108398437
 21
266.7144775390625
 31
0.0
  0
LINE
  5
D0
330
22
100
AcDbEntity
  8
0
  6
Continuous
 62
     7
100
AcDbLine
 10
-429.9635925292968
 20
248.7943420410156
 30
0.0
 11
-429.9635925292968
 21
262.5794372558594
 31
0.0
  0
LINE
  5
D1
330
22
100
AcDbEntity
  8
0
  6
Continuous
 62
     7
100
AcDbLine
 10
-418.5635986328125
 20
229.9094696044922
 30
0.0
 11
-418.5635986328125
 21
224.1352386474609
 31
0.0
  0
LINE
  5
D2
330
22
100
AcDbEntity
  8
0
  6
Continuous
 62
     7
100
AcDbLine
 10
-418.5635986328125
 20
241.1094818115234
 30
0.0
 11
-418.5635986328125
 21
269.4237365722656
 31
0.0
  0
LINE
  5
D3
330
22
100
AcDbEntity
  8
0
  6
Continuous
 62
     7
100
AcDbLine
 10
-395.7636108398438
 20
243.2301788330078
 30
0.0
 11
-395.7636108398438
 21
275.0400695800781
 31
0.0
  0
LINE
  5
D4
330
22
100
AcDbEntity
  8
0
  6
Continuous
 62
     7
100
AcDbLine
 10
-441.3636169433593
 20
219.06640625
 30
0.0
 11
-441.3636169433593
 21
224.1352386474609
 31
0.0
  0
LINE
  5
D5
330
22
100
AcDbEntity
  8
0
  6
Continuous
 62
     7
100
AcDbLine
 10
-435.1636047363281
 20
219.06640625
 30
0.0
 11
-435.1636047363281
 21
224.1352386474609
 31
0.0
  0
LINE
  5
D6
330
22
100
AcDbEntity
  8
0
  6
Continuous
 62
     7
100
AcDbLine
 10
-452.8636169433593
 20
217.9664154052734
 30
0.0
 11
-452.8636169433593
 21
227.1160583496094
 31
0.0
  0
LINE
  5
D7
330
22
100
AcDbEntity
  8
0
  6
Continuous
 62
     7
100
AcDbLine
 10
-446.5635986328124
 20
217.9664154052734
 30
0.0
 11
-446.5635986328124
 21
237.0495758056641
 31
0.0
  0
LINE
  5
D8
330
22
100
AcDbEntity
  8
0
  6
Continuous
 62
     7
100
AcDbLine
 10
-441.3638610839844
 20
244.2510070800781
 30
0.0
 11
-441.4633483886718
 21
244.6222381591797
 31
0.0
  0
LINE
  5
D9
330
22
100
AcDbEntity
  8
0
  6
Continuous
 62
     7
100
AcDbLine
 10
-435.1636047363281
 20
226.874267578125
 30
0.0
 11
-435.1636047363281
 21
224.1352386474609
 31
0.0
  0
LINE
  5
DA
330
22
100
AcDbEntity
  8
0
  6
Continuous
 62
     7
100
AcDbLine
 10
-443.5758361816406
 20
240.3897399902344
 30
0.0
 11
-443.9275817871093
 21
243.17041015625
 31
0.0
  0
LINE
  5
DB
330
22
100
AcDbEntity
  8
0
  6
Continuous
 62
     7
100
AcDbLine
 10
-441.3636169433593
 20
226.874267578125
 30
0.0
 11
-441.3636169433593
 21
224.1352386474609
 31
0.0
  0
LINE
  5
DC
330
22
100
AcDbEntity
  8
0
  6
Continuous
 62
     7
100
AcDbLine
 10
-445.7805786132813
 20
247.1318664550781
 30
0.0
 11
-446.1520996093749
 21
247.0323333740234
 31
0.0
  0
LINE
  5
DD
330
22
100
AcDbEntity
  8
0
  6
Continuous
 62
     7
100
AcDbLine
 10
-445.7805786132813
 20
247.1318664550781
 30
0.0
 11
-445.4090576171875
 21
247.2314147949219
 31
0.0
  0
LINE
  5
DE
330
22
100
AcDbEntity
  8
0
  6
Continuous
 62
     7
100
AcDbLine
 10
-444.3188781738281
 20
240.1906585693359
 30
0.0
 11
-445.4046020507813
 21
242.7746429443359
 31
0.0
  0
LINE
  5
DF
330
22
100
AcDbEntity
  8
0
  6
Continuous
 62
     7
100
AcDbLine
 10
-445.4090576171875
 20
247.2314147949219
 30
0.0
 11
-444.3233337402343
 21
244.6474304199219
 31
0.0
  0
LINE
  5
E0
330
22
100
AcDbEntity
  8
0
  6
Continuous
 62
     7
100
AcDbLine
 10
-441.5628051757813
 20
244.9934692382814
 30
0.0
 11
-441.4633483886718
 21
244.6222381591797
 31
0.0
  0
LINE
  5
E1
330
22
100
AcDbEntity
  8
0
  6
Continuous
 62
     7
100
AcDbLine
 10
-448.1651306152343
 20
242.4286041259766
 30
0.0
 11
-445.4046020507813
 21
242.7746429443359
 31
0.0
  0
LINE
  5
E2
330
22
100
AcDbEntity
  8
0
  6
Continuous
 62
     7
100
AcDbLine
 10
-378.1636047363281
 20
273.391357421875
 30
0.0
 11
-378.1636047363281
 21
251.5756378173828
 31
0.0
  0
LINE
  5
E3
330
22
100
AcDbEntity
  8
0
  6
Continuous
 62
     7
100
AcDbLine
 10
-407.1636047363281
 20
273.391357421875
 30
0.0
 11
-407.1636047363281
 21
251.5756378173828
 31
0.0
  0
LINE
  5
E4
330
22
100
AcDbEntity
  8
0
  6
Continuous
 62
     7
100
AcDbLine
 10
-389.5635986328125
 20
232.0301818847656
 30
0.0
 11
-389.5635986328125
 21
224.1352386474609
 31
0.0
  0
LINE
  5
E5
330
22
100
AcDbEntity
  8
0
  6
Continuous
 62
     7
100
AcDbLine
 10
-395.7636108398438
 20
232.0301818847656
 30
0.0
 11
-395.7636108398438
 21
224.1352386474609
 31
0.0
  0
LINE
  5
E6
330
22
100
AcDbEntity
  8
0
  6
Continuous
 62
     7
100
AcDbLine
 10
-389.5635986328125
 20
243.2301788330078
 30
0.0
 11
-389.5635986328125
 21
275.0400695800781
 31
0.0
  0
LINE
  5
E7
330
22
100
AcDbEntity
  8
0
  6
Continuous
 62
     7
100
AcDbLine
 10
-384.3636169433594
 20
274.5575866699219
 30
0.0
 11
-384.3636169433594
 21
251.5756378173828
 31
0.0
  0
LINE
  5
E8
330
22
100
AcDbEntity
  8
0
  6
Continuous
 62
     7
100
AcDbLine
 10
-412.3636169433593
 20
241.1094818115234
 30
0.0
 11
-412.3636169433593
 21
271.8912048339845
 31
0.0
  0
LINE
  5
E9
330
22
100
AcDbEntity
  8
0
  6
Continuous
 62
     7
100
AcDbLine
 10
-412.3636169433593
 20
229.9094696044922
 30
0.0
 11
-412.3636169433593
 21
224.1352386474609
 31
0.0
  0
LINE
  5
EA
330
22
100
AcDbEntity
  8
0
  6
Continuous
 62
     7
100
AcDbLine
 10
-338.7979431152344
 20
246.8228302001953
 30
0.0
 11
-339.169189453125
 21
246.9223022460938
 31
0.0
  0
LINE
  5
EB
330
22
100
AcDbEntity
  8
0
  6
Continuous
 62
     7
100
AcDbLine
 10
-355.3636169433594
 20
248.7943420410156
 30
0.0
 11
-355.3636169433594
 21
262.5794372558594
 31
0.0
  0
LINE
  5
EC
330
22
100
AcDbEntity
  8
0
  6
Continuous
 62
     7
100
AcDbLine
 10
-339.5404052734375
 20
247.0217742919922
 30
0.0
 11
-339.169189453125
 21
246.9223022460938
 31
0.0
  0
LINE
  5
ED
330
22
100
AcDbEntity
  8
0
  6
Continuous
 62
     7
100
AcDbLine
 10
-338.7979431152344
 20
246.8228302001953
 30
0.0
 11
-339.1439819335938
 21
244.0623016357422
 31
0.0
  0
LINE
  5
EE
330
22
100
AcDbEntity
  8
0
  6
Continuous
 62
     7
100
AcDbLine
 10
-350.1636047363281
 20
226.874267578125
 30
0.0
 11
-350.1636047363281
 21
224.1352386474609
 31
0.0
  0
LINE
  5
EF
330
22
100
AcDbEntity
  8
0
  6
Continuous
 62
     7
100
AcDbLine
 10
-366.7636108398438
 20
241.1094818115234
 30
0.0
 11
-366.7636108398438
 21
269.4237365722656
 31
0.0
  0
LINE
  5
F0
330
22
100
AcDbEntity
  8
0
  6
Continuous
 62
     7
100
AcDbLine
 10
-372.9635925292969
 20
241.1094818115234
 30
0.0
 11
-372.9635925292969
 21
271.8912048339845
 31
0.0
  0
LINE
  5
F1
330
22
100
AcDbEntity
  8
0
  6
Continuous
 62
     7
100
AcDbLine
 10
-336.7590942382813
 20
242.2335510253906
 30
0.0
 11
-339.5397644042969
 21
242.5852813720703
 31
0.0
  0
LINE
  5
F2
330
22
100
AcDbEntity
  8
0
  6
Continuous
 62
     7
100
AcDbLine
 10
-336.6595458984375
 20
242.6050567626953
 30
0.0
 11
-336.5599975585938
 21
242.9765777587891
 31
0.0
  0
LINE
  5
F3
330
22
100
AcDbEntity
  8
0
  6
Continuous
 62
     7
100
AcDbLine
 10
-343.9635925292969
 20
226.874267578125
 30
0.0
 11
-343.9635925292969
 21
224.1352386474609
 31
0.0
  0
LINE
  5
F4
330
22
100
AcDbEntity
  8
0
  6
Continuous
 62
     7
100
AcDbLine
 10
-343.501220703125
 20
244.4382781982422
 30
0.0
 11
-343.6007690429688
 21
244.0667724609375
 31
0.0
  0
LINE
  5
F5
330
22
100
AcDbEntity
  8
0
  6
Continuous
 62
     7
100
AcDbLine
 10
-340.620361328125
 20
240.0215606689453
 30
0.0
 11
-339.5397644042969
 21
242.5852813720703
 31
0.0
  0
LINE
  5
F6
330
22
100
AcDbEntity
  8
0
  6
Continuous
 62
     7
100
AcDbLine
 10
-341.3628234863281
 20
240.2205047607422
 30
0.0
 11
-341.0167846679688
 21
242.9810485839844
 31
0.0
  0
LINE
  5
F7
330
22
100
AcDbEntity
  8
0
  6
Continuous
 62
     7
100
AcDbLine
 10
-341.3628234863281
 20
240.2205047607422
 30
0.0
 11
-340.9915771484375
 21
240.1210327148438
 31
0.0
  0
LINE
  5
F8
330
22
100
AcDbEntity
  8
0
  6
Continuous
 62
     7
100
AcDbLine
 10
-372.9635925292969
 20
229.9094696044922
 30
0.0
 11
-372.9635925292969
 21
224.1352386474609
 31
0.0
  0
LINE
  5
F9
330
22
100
AcDbEntity
  8
0
  6
Continuous
 62
     7
100
AcDbLine
 10
-400.9635925292968
 20
274.5575866699219
 30
0.0
 11
-400.9635925292968
 21
251.5756378173828
 31
0.0
  0
LINE
  5
FA
330
22
100
AcDbEntity
  8
0
  6
Continuous
 62
     7
100
AcDbLine
 10
-332.4635925292969
 20
217.9664154052734
 30
0.0
 11
-332.4635925292969
 21
227.1160583496094
 31
0.0
  0
LINE
  5
FB
330
22
100
AcDbEntity
  8
0
  6
Continuous
 62
     7
100
AcDbLine
 10
-395.7636108398438
 20
219.06640625
 30
0.0
 11
-395.7636108398438
 21
224.1352386474609
 31
0.0
  0
LINE
  5
FC
330
22
100
AcDbEntity
  8
0
  6
Continuous
 62
     7
100
AcDbLine
 10
-384.3636169433594
 20
240.3756408691406
 30
0.0
 11
-384.3636169433594
 21
219.06640625
 31
0.0
  0
LINE
  5
FD
330
22
100
AcDbEntity
  8
0
  6
Continuous
 62
     7
100
AcDbLine
 10
-389.5635986328125
 20
219.06640625
 30
0.0
 11
-389.5635986328125
 21
224.1352386474609
 31
0.0
  0
LINE
  5
FE
330
22
100
AcDbEntity
  8
0
  6
Continuous
 62
     7
100
AcDbLine
 10
-412.3636169433593
 20
219.06640625
 30
0.0
 11
-412.3636169433593
 21
224.1352386474609
 31
0.0
  0
LINE
  5
FF
330
22
100
AcDbEntity
  8
0
  6
Continuous
 62
     7
100
AcDbLine
 10
-346.1636047363281
 20
253.9981231689453
 30
0.0
 11
-346.1636047363281
 21
236.9742584228516
 31
0.0
  0
LINE
  5
100
330
22
100
AcDbEntity
  8
0
  6
Continuous
 62
     7
100
AcDbLine
 10
-350.1636047363281
 20
236.9742584228516
 30
0.0
 11
-350.1636047363281
 21
258.1654052734375
 31
0.0
  0
LINE
  5
101
330
22
100
AcDbEntity
  8
0
  6
Continuous
 62
     7
100
AcDbLine
 10
-340.620361328125
 20
240.0215606689453
 30
0.0
 11
-340.9915771484375
 21
240.1210327148438
 31
0.0
  0
LINE
  5
102
330
22
100
AcDbEntity
  8
0
  6
Continuous
 62
     7
100
AcDbLine
 10
-336.6595458984375
 20
242.6050567626953
 30
0.0
 11
-336.7590942382813
 21
242.2335510253906
 31
0.0
  0
LINE
  5
103
330
22
100
AcDbEntity
  8
0
  6
Continuous
 62
     7
100
AcDbLine
 10
-366.7636108398438
 20
229.9094696044922
 30
0.0
 11
-366.7636108398438
 21
224.1352386474609
 31
0.0
  0
LINE
  5
104
330
22
100
AcDbEntity
  8
0
  6
Continuous
 62
     7
100
AcDbLine
 10
-361.5635986328125
 20
248.7943420410156
 30
0.0
 11
-361.5635986328125
 21
266.7144775390625
 31
0.0
  0
LINE
  5
105
330
22
100
AcDbEntity
  8
0
  6
Continuous
 62
     7
100
AcDbLine
 10
-343.501220703125
 20
244.4382781982422
 30
0.0
 11
-343.4016723632813
 21
244.8097991943359
 31
0.0
  0
LINE
  5
106
330
22
100
AcDbEntity
  8
0
  6
Continuous
 62
     7
100
AcDbLine
 10
-336.5599975585938
 20
242.9765777587891
 30
0.0
 11
-339.1439819335938
 21
244.0623016357422
 31
0.0
  0
LINE
  5
107
330
22
100
AcDbEntity
  8
0
  6
Continuous
 62
     7
100
AcDbLine
 10
-343.4016723632813
 20
244.8097991943359
 30
0.0
 11
-340.6210021972656
 21
244.4580535888672
 31
0.0
  0
LINE
  5
108
330
22
100
AcDbEntity
  8
0
  6
Continuous
 62
     7
100
AcDbLine
 10
-343.6007690429688
 20
244.0667724609375
 30
0.0
 11
-341.0167846679688
 21
242.9810485839844
 31
0.0
  0
LINE
  5
109
330
22
100
AcDbEntity
  8
0
  6
Continuous
 62
     7
100
AcDbLine
 10
-339.5404052734375
 20
247.0217742919922
 30
0.0
 11
-340.6210021972656
 21
244.4580535888672
 31
0.0
  0
LINE
  5
10A
330
22
100
AcDbEntity
  8
0
  6
Continuous
 62
     7
100
AcDbLine
 10
-400.9635925292968
 20
186.3602294921875
 30
0.0
 11
-400.9635925292968
 21
207.6694641113281
 31
0.0
  0
LINE
  5
10B
330
22
100
AcDbEntity
  8
0
  6
Continuous
 62
     7
100
AcDbLine
 10
-407.1636047363281
 20
186.3602294921875
 30
0.0
 11
-407.1636047363281
 21
207.6694641113281
 31
0.0
  0
LINE
  5
10C
330
22
100
AcDbEntity
  8
0
  6
Continuous
 62
     7
100
AcDbLine
 10
-378.1636047363281
 20
186.3602294921875
 30
0.0
 11
-378.1636047363281
 21
207.6694641113281
 31
0.0
  0
LINE
  5
10D
330
22
100
AcDbEntity
  8
0
  6
Continuous
 62
     7
100
AcDbLine
 10
-361.5635986328125
 20
207.6694641113281
 30
0.0
 11
-361.5635986328125
 21
189.1415405273438
 31
0.0
  0
LINE
  5
10E
330
22
100
AcDbEntity
  8
0
  6
Continuous
 62
     7
100
AcDbLine
 10
-355.3636169433594
 20
207.6694641113281
 30
0.0
 11
-355.3636169433594
 21
189.1415405273438
 31
0.0
  0
LINE
  5
10F
330
22
100
AcDbEntity
  8
0
  6
Continuous
 62
     7
100
AcDbLine
 10
-418.5635986328125
 20
207.6694641113281
 30
0.0
 11
-418.5635986328125
 21
202.6006317138672
 31
0.0
  0
LINE
  5
110
330
22
100
AcDbEntity
  8
0
  6
Continuous
 62
     7
100
AcDbLine
 10
-412.3636169433593
 20
207.6694641113281
 30
0.0
 11
-412.3636169433593
 21
202.6006317138672
 31
0.0
  0
LINE
  5
111
330
22
100
AcDbEntity
  8
0
  6
Continuous
 62
     7
100
AcDbLine
 10
-441.3636169433593
 20
207.6694641113281
 30
0.0
 11
-441.3636169433593
 21
202.6006317138672
 31
0.0
  0
LINE
  5
112
330
22
100
AcDbEntity
  8
0
  6
Continuous
 62
     7
100
AcDbLine
 10
-435.1636047363281
 20
207.6694641113281
 30
0.0
 11
-435.1636047363281
 21
202.6006317138672
 31
0.0
  0
LINE
  5
113
330
22
100
AcDbEntity
  8
0
  6
Continuous
 62
     7
100
AcDbLine
 10
-429.9635925292968
 20
207.6694641113281
 30
0.0
 11
-429.9635925292968
 21
189.1415405273438
 31
0.0
  0
LINE
  5
114
330
22
100
AcDbEntity
  8
0
  6
Continuous
 62
     7
100
AcDbLine
 10
-423.7636108398437
 20
207.6694641113281
 30
0.0
 11
-423.7636108398437
 21
189.1415405273438
 31
0.0
  0
LINE
  5
115
330
22
100
AcDbEntity
  8
0
  6
Continuous
 62
     7
100
AcDbLine
 10
-343.9635925292969
 20
219.06640625
 30
0.0
 11
-343.9635925292969
 21
224.1352386474609
 31
0.0
  0
LINE
  5
116
330
22
100
AcDbEntity
  8
0
  6
Continuous
 62
     7
100
AcDbLine
 10
-400.9635925292968
 20
240.3756408691406
 30
0.0
 11
-400.9635925292968
 21
219.06640625
 31
0.0
  0
LINE
  5
117
330
22
100
AcDbEntity
  8
0
  6
Continuous
 62
     7
100
AcDbLine
 10
-378.1636047363281
 20
240.3756408691406
 30
0.0
 11
-378.1636047363281
 21
219.06640625
 31
0.0
  0
LINE
  5
118
330
22
100
AcDbEntity
  8
0
  6
Continuous
 62
     7
100
AcDbLine
 10
-407.1636047363281
 20
240.3756408691406
 30
0.0
 11
-407.1636047363281
 21
219.06640625
 31
0.0
  0
LINE
  5
119
330
22
100
AcDbEntity
  8
0
  6
Continuous
 62
     7
100
AcDbLine
 10
-418.5635986328125
 20
219.06640625
 30
0.0
 11
-418.5635986328125
 21
224.1352386474609
 31
0.0
  0
LINE
  5
11A
330
22
100
AcDbEntity
  8
0
  6
Continuous
 62
     7
100
AcDbLine
 10
-372.9635925292969
 20
219.06640625
 30
0.0
 11
-372.9635925292969
 21
224.1352386474609
 31
0.0
  0
LINE
  5
11B
330
22
100
AcDbEntity
  8
0
  6
Continuous
 62
     7
100
AcDbLine
 10
-361.5635986328125
 20
219.06640625
 30
0.0
 11
-361.5635986328125
 21
237.5943450927734
 31
0.0
  0
LINE
  5
11C
330
22
100
AcDbEntity
  8
0
  6
Continuous
 62
     7
100
AcDbLine
 10
-366.7636108398438
 20
219.06640625
 30
0.0
 11
-366.7636108398438
 21
224.1352386474609
 31
0.0
  0
LINE
  5
11D
330
22
100
AcDbEntity
  8
0
  6
Continuous
 62
     7
100
AcDbLine
 10
-338.7636108398438
 20
217.9664154052734
 30
0.0
 11
-338.7636108398438
 21
237.0495758056641
 31
0.0
  0
LINE
  5
11E
330
22
100
AcDbEntity
  8
0
  6
Continuous
 62
     7
100
AcDbLine
 10
-355.3636169433594
 20
219.06640625
 30
0.0
 11
-355.3636169433594
 21
237.5943450927734
 31
0.0
  0
LINE
  5
11F
330
22
100
AcDbEntity
  8
0
  6
Continuous
 62
     7
100
AcDbLine
 10
-350.1636047363281
 20
219.06640625
 30
0.0
 11
-350.1636047363281
 21
224.1352386474609
 31
0.0
  0
LINE
  5
120
330
22
100
AcDbEntity
  8
0
  6
Continuous
 62
     7
100
AcDbLine
 10
-338.7636108398438
 20
208.7694702148438
 30
0.0
 11
-338.7636108398438
 21
189.6862945556641
 31
0.0
  0
LINE
  5
121
330
22
100
AcDbEntity
  8
0
  6
Continuous
 62
     7
100
AcDbLine
 10
-334.4635925292969
 20
210.7694702148438
 30
0.0
 11
-336.7636108398438
 21
210.7694702148438
 31
0.0
  0
LINE
  5
122
330
22
100
AcDbEntity
  8
0
  6
Continuous
 62
     7
100
AcDbLine
 10
-452.8636169433593
 20
208.7694702148438
 30
0.0
 11
-452.8636169433593
 21
199.6198120117188
 31
0.0
  0
LINE
  5
123
330
22
100
AcDbEntity
  8
0
  6
Continuous
 62
     7
100
AcDbLine
 10
-450.8636169433593
 20
210.7694702148438
 30
0.0
 11
-448.5635986328125
 21
210.7694702148438
 31
0.0
  0
LINE
  5
124
330
22
100
AcDbEntity
  8
0
  6
Continuous
 62
     7
100
AcDbLine
 10
-446.5635986328124
 20
208.7694702148438
 30
0.0
 11
-446.5635986328124
 21
189.6862945556641
 31
0.0
  0
LINE
  5
125
330
22
100
AcDbEntity
  8
0
  6
Continuous
 62
     7
100
AcDbLine
 10
-350.1636047363281
 20
207.6694641113281
 30
0.0
 11
-350.1636047363281
 21
202.6006317138672
 31
0.0
  0
LINE
  5
126
330
22
100
AcDbEntity
  8
0
  6
Continuous
 62
     7
100
AcDbLine
 10
-372.9635925292969
 20
207.6694641113281
 30
0.0
 11
-372.9635925292969
 21
202.6006317138672
 31
0.0
  0
LINE
  5
127
330
22
100
AcDbEntity
  8
0
  6
Continuous
 62
     7
100
AcDbLine
 10
-343.9635925292969
 20
207.6694641113281
 30
0.0
 11
-343.9635925292969
 21
202.6006317138672
 31
0.0
  0
LINE
  5
128
330
22
100
AcDbEntity
  8
0
  6
Continuous
 62
     7
100
AcDbLine
 10
-366.7636108398438
 20
207.6694641113281
 30
0.0
 11
-366.7636108398438
 21
202.6006317138672
 31
0.0
  0
LINE
  5
129
330
22
100
AcDbEntity
  8
0
  6
Continuous
 62
     7
100
AcDbLine
 10
-395.7636108398438
 20
207.6694641113281
 30
0.0
 11
-395.7636108398438
 21
202.6006317138672
 31
0.0
  0
LINE
  5
12A
330
22
100
AcDbEntity
  8
0
  6
Continuous
 62
     7
100
AcDbLine
 10
-389.5635986328125
 20
207.6694641113281
 30
0.0
 11
-389.5635986328125
 21
202.6006317138672
 31
0.0
  0
LINE
  5
12B
330
22
100
AcDbEntity
  8
0
  6
Continuous
 62
     7
100
AcDbLine
 10
-384.3636169433594
 20
186.3602294921875
 30
0.0
 11
-384.3636169433594
 21
207.6694641113281
 31
0.0
  0
LINE
  5
12C
330
22
100
AcDbEntity
  8
0
  6
Continuous
 62
     7
100
AcDbLine
 10
-441.3636169433593
 20
188.6390533447266
 30
0.0
 11
-441.3636169433593
 21
175.4025268554688
 31
0.0
  0
LINE
  5
12D
330
22
100
AcDbEntity
  8
0
  6
Continuous
 62
     7
100
AcDbLine
 10
-435.1636047363281
 20
188.6390533447266
 30
0.0
 11
-435.1636047363281
 21
168.5704803466797
 31
0.0
  0
LINE
  5
12E
330
22
100
AcDbEntity
  8
0
  6
Continuous
 62
     7
100
AcDbLine
 10
-423.7636108398437
 20
177.9415283203125
 30
0.0
 11
-423.7636108398437
 21
160.0214080810547
 31
0.0
  0
LINE
  5
12F
330
22
100
AcDbEntity
  8
0
  6
Continuous
 62
     7
100
AcDbLine
 10
-429.9635925292968
 20
177.9415283203125
 30
0.0
 11
-429.9635925292968
 21
164.1564331054688
 31
0.0
  0
LINE
  5
130
330
22
100
AcDbEntity
  8
0
  6
Continuous
 62
     7
100
AcDbLine
 10
-332.4635925292969
 20
208.7694702148438
 30
0.0
 11
-332.4635925292969
 21
199.6198120117188
 31
0.0
  0
LINE
  5
131
330
22
100
AcDbEntity
  8
0
  6
Continuous
 62
     7
100
AcDbLine
 10
-390.4039001464844
 20
155.6472930908203
 30
0.0
 11
-392.6361694335938
 21
153.9523468017578
 31
0.0
  0
LINE
  5
132
330
22
100
AcDbEntity
  8
0
  6
Continuous
 62
     7
100
AcDbLine
 10
-395.3973693847656
 20
155.0887756347656
 30
0.0
 11
-393.7174072265625
 21
152.8711090087891
 31
0.0
  0
LINE
  5
133
330
22
100
AcDbEntity
  8
0
  6
Continuous
 62
     7
100
AcDbLine
 10
-394.8538513183594
 20
155.6322937011719
 30
0.0
 11
-392.6361694335938
 21
153.9523468017578
 31
0.0
  0
LINE
  5
134
330
22
100
AcDbEntity
  8
0
  6
Continuous
 62
     7
100
AcDbLine
 10
-366.7636108398438
 20
196.8264007568359
 30
0.0
 11
-366.7636108398438
 21
202.6006317138672
 31
0.0
  0
LINE
  5
135
330
22
100
AcDbEntity
  8
0
  6
Continuous
 62
     7
100
AcDbLine
 10
-389.5635986328125
 20
194.6757507324219
 30
0.0
 11
-389.5635986328125
 21
202.6006317138672
 31
0.0
  0
LINE
  5
136
330
22
100
AcDbEntity
  8
0
  6
Continuous
 62
     7
100
AcDbLine
 10
-395.7636108398438
 20
194.6757507324219
 30
0.0
 11
-395.7636108398438
 21
202.6006317138672
 31
0.0
  0
LINE
  5
137
330
22
100
AcDbEntity
  8
0
  6
Continuous
 62
     7
100
AcDbLine
 10
-395.3973693847656
 20
155.0887756347656
 30
0.0
 11
-393.7174072265625
 21
152.8711090087891
 31
0.0
  0
LINE
  5
138
330
22
100
AcDbEntity
  8
0
  6
Continuous
 62
     7
100
AcDbLine
 10
-412.3636169433593
 20
185.6264038085938
 30
0.0
 11
-412.3636169433593
 21
154.8446655273438
 31
0.0
  0
LINE
  5
139
330
22
100
AcDbEntity
  8
0
  6
Continuous
 62
     7
100
AcDbLine
 10
-412.3636169433593
 20
196.8264007568359
 30
0.0
 11
-412.3636169433593
 21
202.6006317138672
 31
0.0
  0
LINE
  5
13A
330
22
100
AcDbEntity
  8
0
  6
Continuous
 62
     7
100
AcDbLine
 10
-418.5635986328125
 20
185.6264038085938
 30
0.0
 11
-418.5635986328125
 21
157.3121337890625
 31
0.0
  0
LINE
  5
13B
330
22
100
AcDbEntity
  8
0
  6
Continuous
 62
     7
100
AcDbLine
 10
-418.5635986328125
 20
196.8264007568359
 30
0.0
 11
-418.5635986328125
 21
202.6006317138672
 31
0.0
  0
LINE
  5
13C
330
22
100
AcDbEntity
  8
0
  6
Continuous
 62
     7
100
AcDbLine
 10
-441.3636169433593
 20
199.8616180419922
 30
0.0
 11
-441.3636169433593
 21
202.6006317138672
 31
0.0
  0
LINE
  5
13D
330
22
100
AcDbEntity
  8
0
  6
Continuous
 62
     7
100
AcDbLine
 10
-435.1636047363281
 20
199.8616180419922
 30
0.0
 11
-435.1636047363281
 21
202.6006317138672
 31
0.0
  0
LINE
  5
13E
330
22
100
AcDbEntity
  8
0
  6
Continuous
 62
     7
100
AcDbLine
 10
-390.4039001464844
 20
155.6472930908203
 30
0.0
 11
-392.6361694335938
 21
153.9523468017578
 31
0.0
  0
LINE
  5
13F
330
22
100
AcDbEntity
  8
0
  6
Continuous
 62
     7
100
AcDbLine
 10
-394.8538513183594
 20
155.6322937011719
 30
0.0
 11
-395.1256103515625
 21
155.3605346679688
 31
0.0
  0
LINE
  5
140
330
22
100
AcDbEntity
  8
0
  6
Continuous
 62
     7
100
AcDbLine
 10
-372.9635925292969
 20
196.8264007568359
 30
0.0
 11
-372.9635925292969
 21
202.6006317138672
 31
0.0
  0
LINE
  5
141
330
22
100
AcDbEntity
  8
0
  6
Continuous
 62
     7
100
AcDbLine
 10
-384.3636169433594
 20
152.1782989501953
 30
0.0
 11
-384.3636169433594
 21
175.1602325439453
 31
0.0
  0
LINE
  5
142
330
22
100
AcDbEntity
  8
0
  6
Continuous
 62
     7
100
AcDbLine
 10
-389.5635986328125
 20
183.4757537841797
 30
0.0
 11
-389.5635986328125
 21
161.2077026367188
 31
0.0
  0
LINE
  5
143
330
22
100
AcDbEntity
  8
0
  6
Continuous
 62
     7
100
AcDbLine
 10
-394.8538513183594
 20
155.6322937011719
 30
0.0
 11
-395.1256103515625
 21
155.3605346679688
 31
0.0
  0
LINE
  5
144
330
22
100
AcDbEntity
  8
0
  6
Continuous
 62
     7
100
AcDbLine
 10
-350.1610717773438
 20
188.7645721435547
 30
0.0
 11
-350.1590270996094
 21
168.5748291015625
 31
0.0
  0
LINE
  5
145
330
22
100
AcDbEntity
  8
0
  6
Continuous
 62
     7
100
AcDbLine
 10
-350.1636047363281
 20
188.6390533447266
 30
0.0
 11
-350.1636047363281
 21
168.5704803466797
 31
0.0
  0
LINE
  5
146
330
22
100
AcDbEntity
  8
0
  6
Continuous
 62
     7
100
AcDbLine
 10
-343.9635925292969
 20
188.6390533447266
 30
0.0
 11
-343.9635925292969
 21
175.4025268554688
 31
0.0
  0
LINE
  5
147
330
22
100
AcDbEntity
  8
0
  6
Continuous
 62
     7
100
AcDbLine
 10
-394.8684387207031
 20
150.0949096679688
 30
0.0
 11
-392.6361694335938
 21
151.7898559570313
 31
0.0
  0
LINE
  5
148
330
22
100
AcDbEntity
  8
0
  6
Continuous
 62
     7
100
AcDbLine
 10
-395.1404113769531
 20
150.3668823242188
 30
0.0
 11
-394.8684387207031
 21
150.0949096679688
 31
0.0
  0
LINE
  5
149
330
22
100
AcDbEntity
  8
0
  6
Continuous
 62
     7
100
AcDbLine
 10
-390.1319580078125
 20
155.3753204345703
 30
0.0
 11
-390.4039001464844
 21
155.6472930908203
 31
0.0
  0
LINE
  5
14A
330
22
100
AcDbEntity
  8
0
  6
Continuous
 62
     7
100
AcDbLine
 10
-390.1319580078125
 20
155.3753204345703
 30
0.0
 11
-390.4039001464844
 21
155.6472930908203
 31
0.0
  0
LINE
  5
14B
330
22
100
AcDbEntity
  8
0
  6
Continuous
 62
     7
100
AcDbLine
 10
-389.8749694824219
 20
150.6534271240234
 30
0.0
 11
-390.146728515625
 21
150.3816680908203
 31
0.0
  0
LINE
  5
14C
330
22
100
AcDbEntity
  8
0
  6
Continuous
 62
     7
100
AcDbLine
 10
-389.8599853515625
 20
155.1033630371094
 30
0.0
 11
-391.554931640625
 21
152.8711090087891
 31
0.0
  0
LINE
  5
14D
330
22
100
AcDbEntity
  8
0
  6
Continuous
 62
     7
100
AcDbLine
 10
-390.1319580078125
 20
155.3753204345703
 30
0.0
 11
-389.8599853515625
 21
155.1033630371094
 31
0.0
  0
LINE
  5
14E
330
22
100
AcDbEntity
  8
0
  6
Continuous
 62
     7
100
AcDbLine
 10
-389.8599853515625
 20
155.1033630371094
 30
0.0
 11
-391.554931640625
 21
152.8711090087891
 31
0.0
  0
LINE
  5
14F
330
22
100
AcDbEntity
  8
0
  6
Continuous
 62
     7
100
AcDbLine
 10
-361.5635986328125
 20
177.9415283203125
 30
0.0
 11
-361.5635986328125
 21
160.0214080810547
 31
0.0
  0
LINE
  5
150
330
22
100
AcDbEntity
  8
0
  6
Continuous
 62
     7
100
AcDbLine
 10
-390.4184875488281
 20
150.1099090576172
 30
0.0
 11
-390.146728515625
 21
150.3816680908203
 31
0.0
  0
LINE
  5
151
330
22
100
AcDbEntity
  8
0
  6
Continuous
 62
     7
100
AcDbLine
 10
-395.412353515625
 20
150.6388397216797
 30
0.0
 11
-393.7174072265625
 21
152.8711090087891
 31
0.0
  0
LINE
  5
152
330
22
100
AcDbEntity
  8
0
  6
Continuous
 62
     7
100
AcDbLine
 10
-395.1404113769531
 20
150.3668823242188
 30
0.0
 11
-395.412353515625
 21
150.6388397216797
 31
0.0
  0
LINE
  5
153
330
22
100
AcDbEntity
  8
0
  6
Continuous
 62
     7
100
AcDbLine
 10
-395.412353515625
 20
150.6388397216797
 30
0.0
 11
-393.7174072265625
 21
152.8711090087891
 31
0.0
  0
LINE
  5
154
330
22
100
AcDbEntity
  8
0
  6
Continuous
 62
     7
100
AcDbLine
 10
-395.1404113769531
 20
150.3668823242188
 30
0.0
 11
-394.8684387207031
 21
150.0949096679688
 31
0.0
  0
LINE
  5
155
330
22
100
AcDbEntity
  8
0
  6
Continuous
 62
     7
100
AcDbLine
 10
-395.3973693847656
 20
155.0887756347656
 30
0.0
 11
-395.1256103515625
 21
155.3605346679688
 31
0.0
  0
LINE
  5
156
330
22
100
AcDbEntity
  8
0
  6
Continuous
 62
     7
100
AcDbLine
 10
-395.3973693847656
 20
155.0887756347656
 30
0.0
 11
-395.1256103515625
 21
155.3605346679688
 31
0.0
  0
LINE
  5
157
330
22
100
AcDbEntity
  8
0
  6
Continuous
 62
     7
100
AcDbLine
 10
-394.8538513183594
 20
155.6322937011719
 30
0.0
 11
-392.6361694335938
 21
153.9523468017578
 31
0.0
  0
LINE
  5
158
330
22
100
AcDbEntity
  8
0
  6
Continuous
 62
     7
100
AcDbLine
 10
-390.1319580078125
 20
155.3753204345703
 30
0.0
 11
-389.8599853515625
 21
155.1033630371094
 31
0.0
  0
LINE
  5
159
330
22
100
AcDbEntity
  8
0
  6
Continuous
 62
     7
100
AcDbLine
 10
-395.1404113769531
 20
150.3668823242188
 30
0.0
 11
-395.412353515625
 21
150.6388397216797
 31
0.0
  0
LINE
  5
15A
330
22
100
AcDbEntity
  8
0
  6
Continuous
 62
     7
100
AcDbLine
 10
-372.9635925292969
 20
185.6264038085938
 30
0.0
 11
-372.9635925292969
 21
154.8446655273438
 31
0.0
  0
LINE
  5
15B
330
22
100
AcDbEntity
  8
0
  6
Continuous
 62
     7
100
AcDbLine
 10
-366.7636108398438
 20
185.6264038085938
 30
0.0
 11
-366.7636108398438
 21
157.3121337890625
 31
0.0
  0
LINE
  5
15C
330
22
100
AcDbEntity
  8
0
  6
Continuous
 62
     7
100
AcDbLine
 10
-407.1636047363281
 20
153.3444976806641
 30
0.0
 11
-407.1636047363281
 21
175.1602325439453
 31
0.0
  0
LINE
  5
15D
330
22
100
AcDbEntity
  8
0
  6
Continuous
 62
     7
100
AcDbLine
 10
-400.9635925292968
 20
152.1782989501953
 30
0.0
 11
-400.9635925292968
 21
175.1602325439453
 31
0.0
  0
LINE
  5
15E
330
22
100
AcDbEntity
  8
0
  6
Continuous
 62
     7
100
AcDbLine
 10
-395.7636108398438
 20
183.4757537841797
 30
0.0
 11
-395.7636108398438
 21
161.2077026367188
 31
0.0
  0
LINE
  5
15F
330
22
100
AcDbEntity
  8
0
  6
Continuous
 62
     7
100
AcDbLine
 10
-378.1636047363281
 20
153.3444976806641
 30
0.0
 11
-378.1636047363281
 21
175.1602325439453
 31
0.0
  0
LINE
  5
160
330
22
100
AcDbEntity
  8
0
  6
Continuous
 62
     7
100
AcDbLine
 10
-355.3636169433594
 20
177.9415283203125
 30
0.0
 11
-355.3636169433594
 21
164.1564331054688
 31
0.0
  0
LINE
  5
161
330
22
100
AcDbEntity
  8
0
  6
Continuous
 62
     7
100
AcDbLine
 10
-389.8749694824219
 20
150.6534271240234
 30
0.0
 11
-390.146728515625
 21
150.3816680908203
 31
0.0
  0
LINE
  5
162
330
22
100
AcDbEntity
  8
0
  6
Continuous
 62
     7
100
AcDbLine
 10
-389.8749694824219
 20
150.6534271240234
 30
0.0
 11
-391.554931640625
 21
152.8711090087891
 31
0.0
  0
LINE
  5
163
330
22
100
AcDbEntity
  8
0
  6
Continuous
 62
     7
100
AcDbLine
 10
-394.8684387207031
 20
150.0949096679688
 30
0.0
 11
-392.6361694335938
 21
151.7898559570313
 31
0.0
  0
LINE
  5
164
330
22
100
AcDbEntity
  8
0
  6
Continuous
 62
     7
100
AcDbLine
 10
-390.4184875488281
 20
150.1099090576172
 30
0.0
 11
-392.6361694335938
 21
151.7898559570313
 31
0.0
  0
LINE
  5
165
330
22
100
AcDbEntity
  8
0
  6
Continuous
 62
     7
100
AcDbLine
 10
-389.8749694824219
 20
150.6534271240234
 30
0.0
 11
-391.554931640625
 21
152.8711090087891
 31
0.0
  0
LINE
  5
166
330
22
100
AcDbEntity
  8
0
  6
Continuous
 62
     7
100
AcDbLine
 10
-390.4184875488281
 20
150.1099090576172
 30
0.0
 11
-390.146728515625
 21
150.3816680908203
 31
0.0
  0
LINE
  5
167
330
22
100
AcDbEntity
  8
0
  6
Continuous
 62
     7
100
AcDbLine
 10
-390.4184875488281
 20
150.1099090576172
 30
0.0
 11
-392.6361694335938
 21
151.7898559570313
 31
0.0
  0
LINE
  5
168
330
22
100
AcDbEntity
  8
0
  6
Continuous
 62
     7
100
AcDbLine
 10
-350.1636047363281
 20
199.8616180419922
 30
0.0
 11
-350.1636047363281
 21
202.6006317138672
 31
0.0
  0
LINE
  5
169
330
22
100
AcDbEntity
  8
0
  6
Continuous
 62
     7
100
AcDbLine
 10
-343.9635925292969
 20
199.8616180419922
 30
0.0
 11
-343.9635925292969
 21
202.6006317138672
 31
0.0
  0
LINE
  5
16A
330
22
100
AcDbEntity
  8
0
  6
Continuous
 62
     7
100
AcDbLine
 10
-450.8636169433593
 20
215.9664154052734
 30
0.0
 11
-448.5635986328125
 21
215.9664154052734
 31
0.0
  0
LINE
  5
16B
330
22
100
AcDbEntity
  8
0
  6
CENTER
 62
     7
100
AcDbLine
 10
-392.6636047363281
 20
127.5156402587891
 30
0.0
 11
-392.6636047363281
 21
296.9334411621094
 31
0.0
  0
LINE
  5
16C
330
22
100
AcDbEntity
  8
0
  6
CENTER
 62
     7
100
AcDbLine
 10
-301.74072265625
 20
213.3679351806641
 30
0.0
 11
-480.0585021972656
 21
213.3679351806641
 31
0.0
  0
LINE
  5
16D
330
22
100
AcDbEntity
  8
0
  6
Continuous
 62
     7
100
AcDbLine
 10
-334.4635925292969
 20
215.9664154052734
 30
0.0
 11
-336.7636108398438
 21
215.9664154052734
 31
0.0
  0
LINE
  5
16E
330
22
100
AcDbEntity
  8
0
  6
Continuous
 62
     7
100
AcDbLine
 10
-170.9337768554688
 20
177.2679443359375
 30
0.0
 11
-171.8837738037109
 21
176.3179321289063
 31
0.0
  0
LINE
  5
16F
330
22
100
AcDbEntity
  8
0
  6
Continuous
 62
     7
100
AcDbLine
 10
-170.9337768554688
 20
177.2679443359375
 30
0.0
 11
-200.9337768554688
 21
177.2679443359375
 31
0.0
  0
LINE
  5
170
330
22
100
AcDbEntity
  8
0
  6
Continuous
 62
     7
100
AcDbLine
 10
-171.8837738037109
 20
176.3179321289063
 30
0.0
 11
-200.9337768554688
 21
176.3179321289063
 31
0.0
  0
LINE
  5
171
330
22
100
AcDbEntity
  8
0
  6
Continuous
 62
     7
100
AcDbLine
 10
-171.8837738037109
 20
176.3179321289063
 30
0.0
 11
-171.8837738037109
 21
213.3679351806641
 31
0.0
  0
ARC
  5
172
330
22
100
AcDbEntity
  8
0
  6
Continuous
 62
     7
100
AcDbCircle
 10
-222.8999481201172
 20
238.6461639404297
 30
0.0
 40
1.445344805717468
100
AcDbArc
 50
269.2021343621144
 51
345.3252787150832
  0
ARC
  5
173
330
22
100
AcDbEntity
  8
0
  6
Continuous
 62
     7
100
AcDbCircle
 10
-230.2974090576172
 20
240.7313537597656
 30
0.0
 40
9.130867004394533
100
AcDbArc
 50
344.4269014901835
 51
40.98972018773276
  0
ARC
  5
174
330
22
100
AcDbEntity
  8
0
  6
Continuous
 62
     7
100
AcDbCircle
 10
-204.8604888916016
 20
251.3679351806641
 30
0.0
 40
5.0
100
AcDbArc
 50
210.0000178622848
 51
270.0000000000005
  0
ARC
  5
175
330
22
100
AcDbEntity
  8
0
  6
Continuous
 62
     7
100
AcDbCircle
 10
-204.8893585205078
 20
253.4179382324219
 30
0.0
 40
3.0
100
AcDbArc
 50
210.0000761467314
 51
270.0000000000005
  0
ARC
  5
176
330
22
100
AcDbEntity
  8
0
  6
Continuous
 62
     7
100
AcDbCircle
 10
-224.5054168701172
 20
245.7009582519531
 30
0.0
 40
1.5
100
AcDbArc
 50
42.82011575526465
 51
90.00000000000019
  0
ARC
  5
177
330
22
100
AcDbEntity
  8
0
  6
Continuous
 62
     7
100
AcDbCircle
 10
-234.9337768554689
 20
289.8679504394531
 30
0.0
 40
1.0
100
AcDbArc
 50
0.0
 51
90.00000000000019
  0
ARC
  5
178
330
22
100
AcDbEntity
  8
0
  6
Continuous
 62
     7
100
AcDbCircle
 10
-232.9337768554688
 20
284.8679504394531
 30
0.0
 40
1.0
100
AcDbArc
 50
180.0000000000004
 51
270.0000000000005
  0
ARC
  5
179
330
22
100
AcDbEntity
  8
0
  6
Continuous
 62
     7
100
AcDbCircle
 10
-236.9337768554689
 20
289.8679504394531
 30
0.0
 40
1.0
100
AcDbArc
 50
90.00000000000019
 51
180.0000000000004
  0
ARC
  5
17A
330
22
100
AcDbEntity
  8
0
  6
Continuous
 62
     7
100
AcDbCircle
 10
-204.8893585205078
 20
173.3179321289063
 30
0.0
 40
3.0
100
AcDbArc
 50
90.00000000000019
 51
149.9999238532694
  0
ARC
  5
17B
330
22
100
AcDbEntity
  8
0
  6
Continuous
 62
     7
100
AcDbCircle
 10
-234.9337768554689
 20
136.8679351806641
 30
0.0
 40
1.0
100
AcDbArc
 50
270.0000000000005
 51
0.0
  0
ARC
  5
17C
330
22
100
AcDbEntity
  8
0
  6
Continuous
 62
     7
100
AcDbCircle
 10
-236.9337768554689
 20
136.8679351806641
 30
0.0
 40
1.0
100
AcDbArc
 50
180.0000000000004
 51
270.0000000000005
  0
ARC
  5
17D
330
22
100
AcDbEntity
  8
0
  6
Continuous
 62
     7
100
AcDbCircle
 10
-228.5318450927734
 20
272.3679504394531
 30
0.0
 40
5.0
100
AcDbArc
 50
30.00001786228407
 51
90.00000000000019
  0
ARC
  5
17E
330
22
100
AcDbEntity
  8
0
  6
Continuous
 62
     7
100
AcDbCircle
 10
-228.8205261230469
 20
278.8679504394531
 30
0.0
 40
5.0
100
AcDbArc
 50
30.00001786228407
 51
90.00000000000019
  0
ARC
  5
17F
330
22
100
AcDbEntity
  8
0
  6
Continuous
 62
     7
100
AcDbCircle
 10
-228.8205261230469
 20
147.8679351806641
 30
0.0
 40
5.0
100
AcDbArc
 50
270.0000000000005
 51
329.9999821377166
  0
ARC
  5
180
330
22
100
AcDbEntity
  8
0
  6
Continuous
 62
     7
100
AcDbCircle
 10
-438.2636108398438
 20
226.874267578125
 30
0.0
 40
3.099999904632568
100
AcDbArc
 50
90.00000000000019
 51
180.0000000000004
  0
ARC
  5
181
330
22
100
AcDbEntity
  8
0
  6
Continuous
 62
     7
100
AcDbCircle
 10
-438.2636108398438
 20
226.874267578125
 30
0.0
 40
3.099999904632568
100
AcDbArc
 50
0.0
 51
90.00000000000019
  0
ARC
  5
182
330
22
100
AcDbEntity
  8
0
  6
Continuous
 62
     7
100
AcDbCircle
 10
-392.6910400390625
 20
213.3711090087891
 30
0.0
 40
61.72245407104492
100
AcDbArc
 50
156.8795506290744
 51
167.1329461182626
  0
ARC
  5
183
330
22
100
AcDbEntity
  8
0
  6
Continuous
 62
     7
100
AcDbCircle
 10
-448.0635986328125
 20
237.0495758056641
 30
0.0
 40
1.5
100
AcDbArc
 50
0.0
 51
158.1691515628411
  0
ARC
  5
184
330
22
100
AcDbEntity
  8
0
  6
Continuous
 62
     7
100
AcDbCircle
 10
-426.8636169433594
 20
248.7943420410156
 30
0.0
 40
3.099999904632568
100
AcDbArc
 50
180.0000000000004
 51
270.0000000000005
  0
ARC
  5
185
330
22
100
AcDbEntity
  8
0
  6
Continuous
 62
     7
100
AcDbCircle
 10
-426.8636169433594
 20
237.5943450927734
 30
0.0
 40
3.099999904632568
100
AcDbArc
 50
0.0
 51
90.00000000000019
  0
ARC
  5
186
330
22
100
AcDbEntity
  8
0
  6
Continuous
 62
     7
100
AcDbCircle
 10
-426.8636169433594
 20
248.7943420410156
 30
0.0
 40
3.099999904632568
100
AcDbArc
 50
270.0000000000005
 51
0.0
  0
ARC
  5
187
330
22
100
AcDbEntity
  8
0
  6
Continuous
 62
     7
100
AcDbCircle
 10
-392.6636047363281
 20
213.3679351806641
 30
0.0
 40
61.75
100
AcDbArc
 50
120.2413612629624
 51
127.1604038486795
  0
ARC
  5
188
330
22
100
AcDbEntity
  8
0
  6
Continuous
 62
     7
100
AcDbCircle
 10
-426.8636169433594
 20
237.5943450927734
 30
0.0
 40
3.099999904632568
100
AcDbArc
 50
90.00000000000019
 51
180.0000000000004
  0
ARC
  5
189
330
22
100
AcDbEntity
  8
0
  6
Continuous
 62
     7
100
AcDbCircle
 10
-415.4635925292969
 20
229.9094696044922
 30
0.0
 40
3.099999904632568
100
AcDbArc
 50
90.00000000000019
 51
180.0000000000004
  0
ARC
  5
18A
330
22
100
AcDbEntity
  8
0
  6
Continuous
 62
     7
100
AcDbCircle
 10
-415.4635925292969
 20
229.9094696044922
 30
0.0
 40
3.099999904632568
100
AcDbArc
 50
0.0
 51
90.00000000000019
  0
ARC
  5
18B
330
22
100
AcDbEntity
  8
0
  6
Continuous
 62
     7
100
AcDbCircle
 10
-415.4635925292969
 20
241.1094818115234
 30
0.0
 40
3.099999904632568
100
AcDbArc
 50
270.0000000000005
 51
0.0
  0
ARC
  5
18C
330
22
100
AcDbEntity
  8
0
  6
Continuous
 62
     7
100
AcDbCircle
 10
-415.4635925292969
 20
241.1094818115234
 30
0.0
 40
3.099999904632568
100
AcDbArc
 50
180.0000000000004
 51
270.0000000000005
  0
ARC
  5
18D
330
22
100
AcDbEntity
  8
0
  6
Continuous
 62
     7
100
AcDbCircle
 10
-437.163604736328
 20
236.9742584228516
 30
0.0
 40
2.0
100
AcDbArc
 50
180.0000000000004
 51
0.0
  0
CIRCLE
  5
18E
330
22
100
AcDbEntity
  8
0
  6
Continuous
 62
     7
100
AcDbCircle
 10
-444.8639831542968
 20
243.7110290527344
 30
0.0
 40
4.5
  0
CIRCLE
  5
18F
330
22
100
AcDbEntity
  8
0
  6
Continuous
 62
     7
100
AcDbCircle
 10
-444.8639831542968
 20
243.7110290527344
 30
0.0
 40
4.75
  0
ARC
  5
190
330
22
100
AcDbEntity
  8
0
  6
Continuous
 62
     7
100
AcDbCircle
 10
-392.6636047363281
 20
213.3679351806641
 30
0.0
 40
61.75
100
AcDbArc
 50
133.4924538916171
 51
138.8540953004003
  0
ARC
  5
191
330
22
100
AcDbEntity
  8
0
  6
Continuous
 62
     7
100
AcDbCircle
 10
-381.2636108398438
 20
240.3756408691406
 30
0.0
 40
3.099999904632568
100
AcDbArc
 50
0.0
 51
90.00000000000019
  0
ARC
  5
192
330
22
100
AcDbEntity
  8
0
  6
Continuous
 62
     7
100
AcDbCircle
 10
-381.2636108398438
 20
251.5756378173828
 30
0.0
 40
3.099999904632568
100
AcDbArc
 50
270.0000000000005
 51
0.0
  0
ARC
  5
193
330
22
100
AcDbEntity
  8
0
  6
Continuous
 62
     7
100
AcDbCircle
 10
-404.0635986328124
 20
240.3756408691406
 30
0.0
 40
3.099999904632568
100
AcDbArc
 50
90.00000000000019
 51
180.0000000000004
  0
ARC
  5
194
330
22
100
AcDbEntity
  8
0
  6
Continuous
 62
     7
100
AcDbCircle
 10
-404.0635986328124
 20
251.5756378173828
 30
0.0
 40
3.099999904632568
100
AcDbArc
 50
180.0000000000004
 51
270.0000000000005
  0
ARC
  5
195
330
22
100
AcDbEntity
  8
0
  6
Continuous
 62
     7
100
AcDbCircle
 10
-393.42529296875
 20
233.698486328125
 30
0.0
 40
41.40766525268555
100
AcDbArc
 50
88.94599283081708
 51
93.23725264777358
  0
ARC
  5
196
330
22
100
AcDbEntity
  8
0
  6
Continuous
 62
     7
100
AcDbCircle
 10
-404.0635986328124
 20
240.3756408691406
 30
0.0
 40
3.099999904632568
100
AcDbArc
 50
0.0
 51
90.00000000000019
  0
ARC
  5
197
330
22
100
AcDbEntity
  8
0
  6
Continuous
 62
     7
100
AcDbCircle
 10
-404.0635986328124
 20
251.5756378173828
 30
0.0
 40
3.099999904632568
100
AcDbArc
 50
270.0000000000005
 51
0.0
  0
ARC
  5
198
330
22
100
AcDbEntity
  8
0
  6
Continuous
 62
     7
100
AcDbCircle
 10
-391.9019165039063
 20
233.698486328125
 30
0.0
 40
41.40766525268555
100
AcDbArc
 50
86.76274735222641
 51
91.05400716918294
  0
ARC
  5
199
330
22
100
AcDbEntity
  8
0
  6
Continuous
 62
     7
100
AcDbCircle
 10
-392.6636047363281
 20
232.0301818847656
 30
0.0
 40
3.099999904632568
100
AcDbArc
 50
90.00000000000019
 51
180.0000000000004
  0
ARC
  5
19A
330
22
100
AcDbEntity
  8
0
  6
Continuous
 62
     7
100
AcDbCircle
 10
-392.6636047363281
 20
243.2301788330078
 30
0.0
 40
3.099999904632568
100
AcDbArc
 50
180.0000000000004
 51
270.0000000000005
  0
ARC
  5
19B
330
22
100
AcDbEntity
  8
0
  6
Continuous
 62
     7
100
AcDbCircle
 10
-392.6636047363281
 20
243.2301788330078
 30
0.0
 40
3.099999904632568
100
AcDbArc
 50
270.0000000000005
 51
0.0
  0
ARC
  5
19C
330
22
100
AcDbEntity
  8
0
  6
Continuous
 62
     7
100
AcDbCircle
 10
-381.2636108398438
 20
240.3756408691406
 30
0.0
 40
3.099999904632568
100
AcDbArc
 50
90.00000000000019
 51
180.0000000000004
  0
ARC
  5
19D
330
22
100
AcDbEntity
  8
0
  6
Continuous
 62
     7
100
AcDbCircle
 10
-392.6636047363281
 20
232.0301818847656
 30
0.0
 40
3.099999904632568
100
AcDbArc
 50
0.0
 51
90.00000000000019
  0
ARC
  5
19E
330
22
100
AcDbEntity
  8
0
  6
Continuous
 62
     7
100
AcDbCircle
 10
-392.6636047363281
 20
213.3679351806641
 30
0.0
 40
61.75
100
AcDbArc
 50
76.4191139062882
 51
82.27533686351602
  0
ARC
  5
19F
330
22
100
AcDbEntity
  8
0
  6
Continuous
 62
     7
100
AcDbCircle
 10
-381.2636108398438
 20
251.5756378173828
 30
0.0
 40
3.099999904632568
100
AcDbArc
 50
180.0000000000004
 51
270.0000000000005
  0
ARC
  5
1A0
330
22
100
AcDbEntity
  8
0
  6
Continuous
 62
     7
100
AcDbCircle
 10
-392.6636047363281
 20
213.3679351806641
 30
0.0
 40
61.75
100
AcDbArc
 50
41.14590469959972
 51
46.50754610838288
  0
ARC
  5
1A1
330
22
100
AcDbEntity
  8
0
  6
Continuous
 62
     7
100
AcDbCircle
 10
-392.6636047363281
 20
213.3679351806641
 30
0.0
 40
61.75
100
AcDbArc
 50
108.6041824337126
 51
114.7988016845019
  0
ARC
  5
1A2
330
22
100
AcDbEntity
  8
0
  6
Continuous
 62
     7
100
AcDbCircle
 10
-358.4635925292969
 20
237.5943450927734
 30
0.0
 40
3.099999904632568
100
AcDbArc
 50
0.0
 51
90.00000000000019
  0
ARC
  5
1A3
330
22
100
AcDbEntity
  8
0
  6
Continuous
 62
     7
100
AcDbCircle
 10
-392.6636047363281
 20
213.3679351806641
 30
0.0
 40
61.75
100
AcDbArc
 50
52.83959615132046
 51
59.75863873703762
  0
ARC
  5
1A4
330
22
100
AcDbEntity
  8
0
  6
Continuous
 62
     7
100
AcDbCircle
 10
-358.4635925292969
 20
248.7943420410156
 30
0.0
 40
3.099999904632568
100
AcDbArc
 50
270.0000000000005
 51
0.0
  0
ARC
  5
1A5
330
22
100
AcDbEntity
  8
0
  6
Continuous
 62
     7
100
AcDbCircle
 10
-369.8636169433594
 20
241.1094818115234
 30
0.0
 40
3.099999904632568
100
AcDbArc
 50
180.0000000000004
 51
270.0000000000005
  0
ARC
  5
1A6
330
22
100
AcDbEntity
  8
0
  6
Continuous
 62
     7
100
AcDbCircle
 10
-369.8636169433594
 20
241.1094818115234
 30
0.0
 40
3.099999904632568
100
AcDbArc
 50
270.0000000000005
 51
0.0
  0
ARC
  5
1A7
330
22
100
AcDbEntity
  8
0
  6
Continuous
 62
     7
100
AcDbCircle
 10
-392.6636047363281
 20
213.3679351806641
 30
0.0
 40
61.75
100
AcDbArc
 50
65.20119831549813
 51
71.39581756628745
  0
CIRCLE
  5
1A8
330
22
100
AcDbEntity
  8
0
  6
Continuous
 62
     7
100
AcDbCircle
 10
-340.0803833007813
 20
243.5216674804689
 30
0.0
 40
4.75
  0
ARC
  5
1A9
330
22
100
AcDbEntity
  8
0
  6
Continuous
 62
     7
100
AcDbCircle
 10
-392.6636047363281
 20
213.3679351806641
 30
0.0
 40
61.75
100
AcDbArc
 50
97.72466313648399
 51
103.5808860937118
  0
ARC
  5
1AA
330
22
100
AcDbEntity
  8
0
  6
Continuous
 62
     7
100
AcDbCircle
 10
-369.8636169433594
 20
229.9094696044922
 30
0.0
 40
3.099999904632568
100
AcDbArc
 50
90.00000000000019
 51
180.0000000000004
  0
ARC
  5
1AB
330
22
100
AcDbEntity
  8
0
  6
Continuous
 62
     7
100
AcDbCircle
 10
-348.1636047363281
 20
236.9742584228516
 30
0.0
 40
2.0
100
AcDbArc
 50
180.0000000000004
 51
0.0
  0
ARC
  5
1AC
330
22
100
AcDbEntity
  8
0
  6
Continuous
 62
     7
100
AcDbCircle
 10
-392.6361694335938
 20
213.3711090087891
 30
0.0
 40
61.72245407104492
100
AcDbArc
 50
12.86705388173744
 51
23.12044937092563
  0
ARC
  5
1AD
330
22
100
AcDbEntity
  8
0
  6
Continuous
 62
     7
100
AcDbCircle
 10
-369.8636169433594
 20
229.9094696044922
 30
0.0
 40
3.099999904632568
100
AcDbArc
 50
0.0
 51
90.00000000000019
  0
ARC
  5
1AE
330
22
100
AcDbEntity
  8
0
  6
Continuous
 62
     7
100
AcDbCircle
 10
-358.4635925292969
 20
237.5943450927734
 30
0.0
 40
3.099999904632568
100
AcDbArc
 50
90.00000000000019
 51
180.0000000000004
  0
ARC
  5
1AF
330
22
100
AcDbEntity
  8
0
  6
Continuous
 62
     7
100
AcDbCircle
 10
-358.4635925292969
 20
248.7943420410156
 30
0.0
 40
3.099999904632568
100
AcDbArc
 50
180.0000000000004
 51
270.0000000000005
  0
ARC
  5
1B0
330
22
100
AcDbEntity
  8
0
  6
Continuous
 62
     7
100
AcDbCircle
 10
-337.2636108398438
 20
237.0495758056641
 30
0.0
 40
1.5
100
AcDbArc
 50
21.83084843715887
 51
180.0000000000004
  0
ARC
  5
1B1
330
22
100
AcDbEntity
  8
0
  6
Continuous
 62
     7
100
AcDbCircle
 10
-347.0635986328125
 20
226.874267578125
 30
0.0
 40
3.099999904632568
100
AcDbArc
 50
0.0
 51
90.00000000000019
  0
ARC
  5
1B2
330
22
100
AcDbEntity
  8
0
  6
Continuous
 62
     7
100
AcDbCircle
 10
-347.0635986328125
 20
226.874267578125
 30
0.0
 40
3.099999904632568
100
AcDbArc
 50
90.00000000000019
 51
180.0000000000004
  0
CIRCLE
  5
1B3
330
22
100
AcDbEntity
  8
0
  6
Continuous
 62
     7
100
AcDbCircle
 10
-340.0803833007813
 20
243.5216674804689
 30
0.0
 40
4.5
  0
ARC
  5
1B4
330
22
100
AcDbEntity
  8
0
  6
Continuous
 62
     7
100
AcDbCircle
 10
-404.0635986328124
 20
207.6694641113281
 30
0.0
 40
3.099999904632568
100
AcDbArc
 50
90.00000000000019
 51
180.0000000000004
  0
ARC
  5
1B5
330
22
100
AcDbEntity
  8
0
  6
Continuous
 62
     7
100
AcDbCircle
 10
-404.0635986328124
 20
207.6694641113281
 30
0.0
 40
3.099999904632568
100
AcDbArc
 50
0.0
 51
90.00000000000019
  0
ARC
  5
1B6
330
22
100
AcDbEntity
  8
0
  6
Continuous
 62
     7
100
AcDbCircle
 10
-392.6636047363281
 20
207.6694641113281
 30
0.0
 40
3.099999904632568
100
AcDbArc
 50
90.00000000000019
 51
180.0000000000004
  0
ARC
  5
1B7
330
22
100
AcDbEntity
  8
0
  6
Continuous
 62
     7
100
AcDbCircle
 10
-392.6636047363281
 20
207.6694641113281
 30
0.0
 40
3.099999904632568
100
AcDbArc
 50
0.0
 51
90.00000000000019
  0
ARC
  5
1B8
330
22
100
AcDbEntity
  8
0
  6
Continuous
 62
     7
100
AcDbCircle
 10
-381.2636108398438
 20
207.6694641113281
 30
0.0
 40
3.099999904632568
100
AcDbArc
 50
90.00000000000019
 51
180.0000000000004
  0
ARC
  5
1B9
330
22
100
AcDbEntity
  8
0
  6
Continuous
 62
     7
100
AcDbCircle
 10
-415.4635925292969
 20
207.6694641113281
 30
0.0
 40
3.099999904632568
100
AcDbArc
 50
90.00000000000019
 51
180.0000000000004
  0
ARC
  5
1BA
330
22
100
AcDbEntity
  8
0
  6
Continuous
 62
     7
100
AcDbCircle
 10
-415.4635925292969
 20
207.6694641113281
 30
0.0
 40
3.099999904632568
100
AcDbArc
 50
0.0
 51
90.00000000000019
  0
ARC
  5
1BB
330
22
100
AcDbEntity
  8
0
  6
Continuous
 62
     7
100
AcDbCircle
 10
-448.5635986328125
 20
208.7694702148438
 30
0.0
 40
2.0
100
AcDbArc
 50
0.0
 51
90.00000000000019
  0
ARC
  5
1BC
330
22
100
AcDbEntity
  8
0
  6
Continuous
 62
     7
100
AcDbCircle
 10
-450.8636169433593
 20
208.7694702148438
 30
0.0
 40
2.0
100
AcDbArc
 50
90.00000000000019
 51
184.413323061828
  0
ARC
  5
1BD
330
22
100
AcDbEntity
  8
0
  6
Continuous
 62
     7
100
AcDbCircle
 10
-438.2636108398438
 20
207.6694641113281
 30
0.0
 40
3.099999904632568
100
AcDbArc
 50
0.0
 51
90.00000000000019
  0
ARC
  5
1BE
330
22
100
AcDbEntity
  8
0
  6
Continuous
 62
     7
100
AcDbCircle
 10
-438.2636108398438
 20
207.6694641113281
 30
0.0
 40
3.099999904632568
100
AcDbArc
 50
90.00000000000019
 51
180.0000000000004
  0
ARC
  5
1BF
330
22
100
AcDbEntity
  8
0
  6
Continuous
 62
     7
100
AcDbCircle
 10
-426.8636169433594
 20
207.6694641113281
 30
0.0
 40
3.099999904632568
100
AcDbArc
 50
0.0
 51
90.00000000000019
  0
ARC
  5
1C0
330
22
100
AcDbEntity
  8
0
  6
Continuous
 62
     7
100
AcDbCircle
 10
-426.8636169433594
 20
207.6694641113281
 30
0.0
 40
3.099999904632568
100
AcDbArc
 50
90.00000000000019
 51
180.0000000000004
  0
ARC
  5
1C1
330
22
100
AcDbEntity
  8
0
  6
Continuous
 62
     7
100
AcDbCircle
 10
-392.6910400390625
 20
213.3647766113281
 30
0.0
 40
61.72245407104492
100
AcDbArc
 50
192.8670676905009
 51
203.1204623977026
  0
ARC
  5
1C2
330
22
100
AcDbEntity
  8
0
  6
Continuous
 62
     7
100
AcDbCircle
 10
-438.2636108398438
 20
188.6390533447266
 30
0.0
 40
3.099999904632568
100
AcDbArc
 50
0.0
 51
90.00000000000019
  0
ARC
  5
1C3
330
22
100
AcDbEntity
  8
0
  6
Continuous
 62
     7
100
AcDbCircle
 10
-438.2636108398438
 20
188.6390533447266
 30
0.0
 40
3.099999904632568
100
AcDbArc
 50
90.00000000000019
 51
180.0000000000004
  0
ARC
  5
1C4
330
22
100
AcDbEntity
  8
0
  6
Continuous
 62
     7
100
AcDbCircle
 10
-438.2636108398438
 20
199.8616180419922
 30
0.0
 40
3.099999904632568
100
AcDbArc
 50
270.0000000000005
 51
0.0
  0
ARC
  5
1C5
330
22
100
AcDbEntity
  8
0
  6
Continuous
 62
     7
100
AcDbCircle
 10
-438.2636108398438
 20
199.8616180419922
 30
0.0
 40
3.099999904632568
100
AcDbArc
 50
180.0000000000004
 51
270.0000000000005
  0
ARC
  5
1C6
330
22
100
AcDbEntity
  8
0
  6
Continuous
 62
     7
100
AcDbCircle
 10
-448.0635986328125
 20
189.6862945556641
 30
0.0
 40
1.5
100
AcDbArc
 50
201.8308484371596
 51
0.0
  0
ARC
  5
1C7
330
22
100
AcDbEntity
  8
0
  6
Continuous
 62
     7
100
AcDbCircle
 10
-392.6636047363281
 20
213.3679351806641
 30
0.0
 40
61.75
100
AcDbArc
 50
232.8395961513212
 51
239.7586316063874
  0
ARC
  5
1C8
330
22
100
AcDbEntity
  8
0
  6
Continuous
 62
     7
100
AcDbCircle
 10
-426.8636169433594
 20
177.9415283203125
 30
0.0
 40
3.099999904632568
100
AcDbArc
 50
90.00000000000019
 51
180.0000000000004
  0
ARC
  5
1C9
330
22
100
AcDbEntity
  8
0
  6
Continuous
 62
     7
100
AcDbCircle
 10
-426.8636169433594
 20
177.9415283203125
 30
0.0
 40
3.099999904632568
100
AcDbArc
 50
0.0
 51
90.00000000000019
  0
ARC
  5
1CA
330
22
100
AcDbEntity
  8
0
  6
Continuous
 62
     7
100
AcDbCircle
 10
-426.8636169433594
 20
189.1415405273438
 30
0.0
 40
3.099999904632568
100
AcDbArc
 50
270.0000000000005
 51
0.0
  0
ARC
  5
1CB
330
22
100
AcDbEntity
  8
0
  6
Continuous
 62
     7
100
AcDbCircle
 10
-426.8636169433594
 20
189.1415405273438
 30
0.0
 40
3.099999904632568
100
AcDbArc
 50
180.0000000000004
 51
270.0000000000005
  0
ARC
  5
1CC
330
22
100
AcDbEntity
  8
0
  6
Continuous
 62
     7
100
AcDbCircle
 10
-381.2636108398438
 20
207.6694641113281
 30
0.0
 40
3.099999904632568
100
AcDbArc
 50
0.0
 51
90.00000000000019
  0
ARC
  5
1CD
330
22
100
AcDbEntity
  8
0
  6
Continuous
 62
     7
100
AcDbCircle
 10
-358.4635925292969
 20
207.6694641113281
 30
0.0
 40
3.099999904632568
100
AcDbArc
 50
0.0
 51
90.00000000000019
  0
ARC
  5
1CE
330
22
100
AcDbEntity
  8
0
  6
Continuous
 62
     7
100
AcDbCircle
 10
-336.7636108398438
 20
208.7694702148438
 30
0.0
 40
2.0
100
AcDbArc
 50
90.00000000000019
 51
180.0000000000004
  0
ARC
  5
1CF
330
22
100
AcDbEntity
  8
0
  6
Continuous
 62
     7
100
AcDbCircle
 10
-334.4635925292969
 20
208.7694702148438
 30
0.0
 40
2.0
100
AcDbArc
 50
355.5866769381733
 51
90.00000000000019
  0
ARC
  5
1D0
330
22
100
AcDbEntity
  8
0
  6
Continuous
 62
     7
100
AcDbCircle
 10
-347.0635986328125
 20
207.6694641113281
 30
0.0
 40
3.099999904632568
100
AcDbArc
 50
0.0
 51
90.00000000000019
  0
ARC
  5
1D1
330
22
100
AcDbEntity
  8
0
  6
Continuous
 62
     7
100
AcDbCircle
 10
-358.4635925292969
 20
207.6694641113281
 30
0.0
 40
3.099999904632568
100
AcDbArc
 50
90.00000000000019
 51
180.0000000000004
  0
ARC
  5
1D2
330
22
100
AcDbEntity
  8
0
  6
Continuous
 62
     7
100
AcDbCircle
 10
-347.0635986328125
 20
207.6694641113281
 30
0.0
 40
3.099999904632568
100
AcDbArc
 50
90.00000000000019
 51
180.0000000000004
  0
ARC
  5
1D3
330
22
100
AcDbEntity
  8
0
  6
Continuous
 62
     7
100
AcDbCircle
 10
-369.8636169433594
 20
207.6694641113281
 30
0.0
 40
3.099999904632568
100
AcDbArc
 50
0.0
 51
90.00000000000019
  0
ARC
  5
1D4
330
22
100
AcDbEntity
  8
0
  6
Continuous
 62
     7
100
AcDbCircle
 10
-369.8636169433594
 20
207.6694641113281
 30
0.0
 40
3.099999904632568
100
AcDbArc
 50
90.00000000000019
 51
180.0000000000004
  0
ARC
  5
1D5
330
22
100
AcDbEntity
  8
0
  6
Continuous
 62
     7
100
AcDbCircle
 10
-358.4635925292969
 20
189.1415405273438
 30
0.0
 40
3.099999904632568
100
AcDbArc
 50
270.0000000000005
 51
0.0
  0
ARC
  5
1D6
330
22
100
AcDbEntity
  8
0
  6
Continuous
 62
     7
100
AcDbCircle
 10
-337.2636108398438
 20
189.6862945556641
 30
0.0
 40
1.5
100
AcDbArc
 50
180.0000000000004
 51
338.1691515628419
  0
ARC
  5
1D7
330
22
100
AcDbEntity
  8
0
  6
Continuous
 62
     7
100
AcDbCircle
 10
-392.6636047363281
 20
194.6757507324219
 30
0.0
 40
3.099999904632568
100
AcDbArc
 50
180.0000000000004
 51
270.0000000000005
  0
ARC
  5
1D8
330
22
100
AcDbEntity
  8
0
  6
Continuous
 62
     7
100
AcDbCircle
 10
-392.6636047363281
 20
194.6757507324219
 30
0.0
 40
3.099999904632568
100
AcDbArc
 50
270.0000000000005
 51
0.0
  0
ARC
  5
1D9
330
22
100
AcDbEntity
  8
0
  6
Continuous
 62
     7
100
AcDbCircle
 10
-347.0635986328125
 20
188.6390533447266
 30
0.0
 40
3.099999904632568
100
AcDbArc
 50
90.00000000000019
 51
180.0000000000004
  0
ARC
  5
1DA
330
22
100
AcDbEntity
  8
0
  6
Continuous
 62
     7
100
AcDbCircle
 10
-392.6636047363281
 20
213.3679351806641
 30
0.0
 40
61.75
100
AcDbArc
 50
245.2011983154988
 51
251.3958175662882
  0
ARC
  5
1DB
330
22
100
AcDbEntity
  8
0
  6
Continuous
 62
     7
100
AcDbCircle
 10
-415.4635925292969
 20
185.6264038085938
 30
0.0
 40
3.099999904632568
100
AcDbArc
 50
0.0
 51
90.00000000000019
  0
ARC
  5
1DC
330
22
100
AcDbEntity
  8
0
  6
Continuous
 62
     7
100
AcDbCircle
 10
-415.4635925292969
 20
185.6264038085938
 30
0.0
 40
3.099999904632568
100
AcDbArc
 50
90.00000000000019
 51
180.0000000000004
  0
ARC
  5
1DD
330
22
100
AcDbEntity
  8
0
  6
Continuous
 62
     7
100
AcDbCircle
 10
-415.4635925292969
 20
196.8264007568359
 30
0.0
 40
3.099999904632568
100
AcDbArc
 50
270.0000000000005
 51
0.0
  0
ARC
  5
1DE
330
22
100
AcDbEntity
  8
0
  6
Continuous
 62
     7
100
AcDbCircle
 10
-415.4635925292969
 20
196.8264007568359
 30
0.0
 40
3.099999904632568
100
AcDbArc
 50
180.0000000000004
 51
270.0000000000005
  0
ARC
  5
1DF
330
22
100
AcDbEntity
  8
0
  6
Continuous
 62
     7
100
AcDbCircle
 10
-392.6636047363281
 20
213.3679351806641
 30
0.0
 40
61.75
100
AcDbArc
 50
217.9391585230292
 51
226.5075363639255
  0
ARC
  5
1E0
330
22
100
AcDbEntity
  8
0
  6
Continuous
 62
     7
100
AcDbCircle
 10
-392.6636047363281
 20
213.3679351806641
 30
0.0
 40
61.75
100
AcDbArc
 50
221.1459046996004
 51
226.5075363639255
  0
ARC
  5
1E1
330
22
100
AcDbEntity
  8
0
  6
Continuous
 62
     7
100
AcDbCircle
 10
-358.4635925292969
 20
189.1415405273438
 30
0.0
 40
3.099999904632568
100
AcDbArc
 50
180.0000000000004
 51
270.0000000000005
  0
ARC
  5
1E2
330
22
100
AcDbEntity
  8
0
  6
Continuous
 62
     7
100
AcDbCircle
 10
-369.8636169433594
 20
185.6264038085938
 30
0.0
 40
3.099999904632568
100
AcDbArc
 50
0.0
 51
90.00000000000019
  0
ARC
  5
1E3
330
22
100
AcDbEntity
  8
0
  6
Continuous
 62
     7
100
AcDbCircle
 10
-369.8636169433594
 20
185.6264038085938
 30
0.0
 40
3.099999904632568
100
AcDbArc
 50
90.00000000000019
 51
180.0000000000004
  0
CIRCLE
  5
1E4
330
22
100
AcDbEntity
  8
0
  6
Continuous
 62
     7
100
AcDbCircle
 10
-392.6361694335938
 20
152.8711090087891
 30
0.0
 40
4.75
  0
CIRCLE
  5
1E5
330
22
100
AcDbEntity
  8
0
  6
Continuous
 62
     7
100
AcDbCircle
 10
-392.6361694335938
 20
152.8711090087891
 30
0.0
 40
4.5
  0
ARC
  5
1E6
330
22
100
AcDbEntity
  8
0
  6
Continuous
 62
     7
100
AcDbCircle
 10
-347.0635986328125
 20
199.8616180419922
 30
0.0
 40
3.099999904632568
100
AcDbArc
 50
180.0000000000004
 51
270.0000000000005
  0
ARC
  5
1E7
330
22
100
AcDbEntity
  8
0
  6
Continuous
 62
     7
100
AcDbCircle
 10
-392.6361694335938
 20
213.3647766113281
 30
0.0
 40
61.72245407104492
100
AcDbArc
 50
336.8795376022987
 51
347.1329323095005
  0
ARC
  5
1E8
330
22
100
AcDbEntity
  8
0
  6
Continuous
 62
     7
100
AcDbCircle
 10
-392.6636047363281
 20
213.3679351806641
 30
0.0
 40
61.75
100
AcDbArc
 50
277.7246650395174
 51
283.5808827691322
  0
ARC
  5
1E9
330
22
100
AcDbEntity
  8
0
  6
Continuous
 62
     7
100
AcDbCircle
 10
-347.0635986328125
 20
188.6390533447266
 30
0.0
 40
3.099999904632568
100
AcDbArc
 50
0.0
 51
90.00000000000019
  0
ARC
  5
1EA
330
22
100
AcDbEntity
  8
0
  6
Continuous
 62
     7
100
AcDbCircle
 10
-347.0635986328125
 20
199.8616180419922
 30
0.0
 40
3.099999904632568
100
AcDbArc
 50
270.0000000000005
 51
0.0
  0
ARC
  5
1EB
330
22
100
AcDbEntity
  8
0
  6
Continuous
 62
     7
100
AcDbCircle
 10
-369.8636169433594
 20
196.8264007568359
 30
0.0
 40
3.099999904632568
100
AcDbArc
 50
270.0000000000005
 51
0.0
  0
ARC
  5
1EC
330
22
100
AcDbEntity
  8
0
  6
Continuous
 62
     7
100
AcDbCircle
 10
-369.8636169433594
 20
196.8264007568359
 30
0.0
 40
3.099999904632568
100
AcDbArc
 50
180.0000000000004
 51
270.0000000000005
  0
CIRCLE
  5
1ED
330
22
100
AcDbEntity
  8
0
  6
Continuous
 62
     7
100
AcDbCircle
 10
-392.6361694335938
 20
152.8711090087891
 30
0.0
 40
4.75
  0
ARC
  5
1EE
330
22
100
AcDbEntity
  8
0
  6
Continuous
 62
     7
100
AcDbCircle
 10
-392.6636047363281
 20
183.4757537841797
 30
0.0
 40
3.099999904632568
100
AcDbArc
 50
0.0
 51
90.00000000000019
  0
ARC
  5
1EF
330
22
100
AcDbEntity
  8
0
  6
Continuous
 62
     7
100
AcDbCircle
 10
-392.6636047363281
 20
183.4757537841797
 30
0.0
 40
3.099999904632568
100
AcDbArc
 50
90.00000000000019
 51
180.0000000000004
  0
ARC
  5
1F0
330
22
100
AcDbEntity
  8
0
  6
Continuous
 62
     7
100
AcDbCircle
 10
-381.2636108398438
 20
186.3602294921875
 30
0.0
 40
3.099999904632568
100
AcDbArc
 50
180.0000000000004
 51
270.0000000000005
  0
ARC
  5
1F1
330
22
100
AcDbEntity
  8
0
  6
Continuous
 62
     7
100
AcDbCircle
 10
-381.2636108398438
 20
175.1602325439453
 30
0.0
 40
3.099999904632568
100
AcDbArc
 50
90.00000000000019
 51
180.0000000000004
  0
ARC
  5
1F2
330
22
100
AcDbEntity
  8
0
  6
CENTER
 62
     7
100
AcDbCircle
 10
-392.6361694335938
 20
213.3711090087891
 30
0.0
 40
60.5
100
AcDbArc
 50
263.3690079032323
 51
276.5790288526923
  0
CIRCLE
  5
1F3
330
22
100
AcDbEntity
  8
0
  6
Continuous
 62
     7
100
AcDbCircle
 10
-392.6361694335938
 20
152.8711090087891
 30
0.0
 40
4.5
  0
ARC
  5
1F4
330
22
100
AcDbEntity
  8
0
  6
Continuous
 62
     7
100
AcDbCircle
 10
-392.6636047363281
 20
161.2077026367188
 30
0.0
 40
3.099999904632568
100
AcDbArc
 50
180.0000000000004
 51
270.0000000000005
  0
ARC
  5
1F5
330
22
100
AcDbEntity
  8
0
  6
Continuous
 62
     7
100
AcDbCircle
 10
-392.6636047363281
 20
161.2077026367188
 30
0.0
 40
3.099999904632568
100
AcDbArc
 50
270.0000000000005
 51
0.0
  0
ARC
  5
1F6
330
22
100
AcDbEntity
  8
0
  6
CENTER
 62
     7
100
AcDbCircle
 10
-392.6361694335938
 20
213.3711090087891
 30
0.0
 40
60.5
100
AcDbArc
 50
263.3690079032323
 51
276.5790288526923
  0
ARC
  5
1F7
330
22
100
AcDbEntity
  8
0
  6
Continuous
 62
     7
100
AcDbCircle
 10
-358.4635925292969
 20
177.9415283203125
 30
0.0
 40
3.099999904632568
100
AcDbArc
 50
90.00000000000019
 51
180.0000000000004
  0
ARC
  5
1F8
330
22
100
AcDbEntity
  8
0
  6
Continuous
 62
     7
100
AcDbCircle
 10
-381.2636108398438
 20
175.1602325439453
 30
0.0
 40
3.099999904632568
100
AcDbArc
 50
0.0
 51
90.00000000000019
  0
ARC
  5
1F9
330
22
100
AcDbEntity
  8
0
  6
Continuous
 62
     7
100
AcDbCircle
 10
-381.2636108398438
 20
186.3602294921875
 30
0.0
 40
3.099999904632568
100
AcDbArc
 50
270.0000000000005
 51
0.0
  0
ARC
  5
1FA
330
22
100
AcDbEntity
  8
0
  6
Continuous
 62
     7
100
AcDbCircle
 10
-392.6636047363281
 20
213.3679351806641
 30
0.0
 40
61.75
100
AcDbArc
 50
288.6041824337133
 51
294.7988016845026
  0
ARC
  5
1FB
330
22
100
AcDbEntity
  8
0
  6
Continuous
 62
     7
100
AcDbCircle
 10
-358.4635925292969
 20
177.9415283203125
 30
0.0
 40
3.099999904632568
100
AcDbArc
 50
0.0
 51
90.00000000000019
  0
ARC
  5
1FC
330
22
100
AcDbEntity
  8
0
  6
Continuous
 62
     7
100
AcDbCircle
 10
-392.6636047363281
 20
213.3679351806641
 30
0.0
 40
61.75
100
AcDbArc
 50
300.241368393614
 51
307.1604038486802
  0
ARC
  5
1FD
330
22
100
AcDbEntity
  8
0
  6
Continuous
 62
     7
100
AcDbCircle
 10
-404.0635986328124
 20
186.3602294921875
 30
0.0
 40
3.099999904632568
100
AcDbArc
 50
180.0000000000004
 51
270.0000000000005
  0
ARC
  5
1FE
330
22
100
AcDbEntity
  8
0
  6
Continuous
 62
     7
100
AcDbCircle
 10
-404.0635986328124
 20
175.1602325439453
 30
0.0
 40
3.099999904632568
100
AcDbArc
 50
90.00000000000019
 51
180.0000000000004
  0
ARC
  5
1FF
330
22
100
AcDbEntity
  8
0
  6
Continuous
 62
     7
100
AcDbCircle
 10
-404.0635986328124
 20
186.3602294921875
 30
0.0
 40
3.099999904632568
100
AcDbArc
 50
270.0000000000005
 51
0.0
  0
ARC
  5
200
330
22
100
AcDbEntity
  8
0
  6
Continuous
 62
     7
100
AcDbCircle
 10
-404.0635986328124
 20
175.1602325439453
 30
0.0
 40
3.099999904632568
100
AcDbArc
 50
0.0
 51
90.00000000000019
  0
ARC
  5
201
330
22
100
AcDbEntity
  8
0
  6
Continuous
 62
     7
100
AcDbCircle
 10
-392.6636047363281
 20
213.3679351806641
 30
0.0
 40
61.75
100
AcDbArc
 50
256.4191172308692
 51
262.275334960484
  0
ARC
  5
202
330
22
100
AcDbEntity
  8
0
  6
Continuous
 62
     7
100
AcDbCircle
 10
-392.6636047363281
 20
213.3679351806641
 30
0.0
 40
61.75
100
AcDbArc
 50
313.4924636360759
 51
322.0608414769723
  0
ARC
  5
203
330
22
100
AcDbEntity
  8
0
  6
Continuous
 62
     7
100
AcDbCircle
 10
-392.6636047363281
 20
213.3679351806641
 30
0.0
 40
61.75
100
AcDbArc
 50
313.4924636360759
 51
322.0608414769723
  0
ARC
  5
204
330
22
100
AcDbEntity
  8
0
  6
Continuous
 62
     7
100
AcDbCircle
 10
-404.0635986328124
 20
219.06640625
 30
0.0
 40
3.099999904632568
100
AcDbArc
 50
180.0000000000004
 51
270.0000000000005
  0
ARC
  5
205
330
22
100
AcDbEntity
  8
0
  6
Continuous
 62
     7
100
AcDbCircle
 10
-392.6636047363281
 20
219.06640625
 30
0.0
 40
3.099999904632568
100
AcDbArc
 50
180.0000000000004
 51
270.0000000000005
  0
ARC
  5
206
330
22
100
AcDbEntity
  8
0
  6
Continuous
 62
     7
100
AcDbCircle
 10
-404.0635986328124
 20
219.06640625
 30
0.0
 40
3.099999904632568
100
AcDbArc
 50
270.0000000000005
 51
0.0
  0
ARC
  5
207
330
22
100
AcDbEntity
  8
0
  6
Continuous
 62
     7
100
AcDbCircle
 10
-381.2636108398438
 20
219.06640625
 30
0.0
 40
3.099999904632568
100
AcDbArc
 50
180.0000000000004
 51
270.0000000000005
  0
ARC
  5
208
330
22
100
AcDbEntity
  8
0
  6
Continuous
 62
     7
100
AcDbCircle
 10
-392.6636047363281
 20
219.06640625
 30
0.0
 40
3.099999904632568
100
AcDbArc
 50
270.0000000000005
 51
0.0
  0
ARC
  5
209
330
22
100
AcDbEntity
  8
0
  6
Continuous
 62
     7
100
AcDbCircle
 10
-438.2636108398438
 20
219.06640625
 30
0.0
 40
3.099999904632568
100
AcDbArc
 50
270.0000000000005
 51
0.0
  0
ARC
  5
20A
330
22
100
AcDbEntity
  8
0
  6
Continuous
 62
     7
100
AcDbCircle
 10
-438.2636108398438
 20
219.06640625
 30
0.0
 40
3.099999904632568
100
AcDbArc
 50
180.0000000000004
 51
270.0000000000005
  0
ARC
  5
20B
330
22
100
AcDbEntity
  8
0
  6
Continuous
 62
     7
100
AcDbCircle
 10
-450.8636169433593
 20
217.9664154052734
 30
0.0
 40
2.0
100
AcDbArc
 50
175.5871127789129
 51
270.0000000000005
  0
ARC
  5
20C
330
22
100
AcDbEntity
  8
0
  6
Continuous
 62
     7
100
AcDbCircle
 10
-448.5635986328125
 20
217.9664154052734
 30
0.0
 40
2.0
100
AcDbArc
 50
270.0000000000005
 51
0.0
  0
ARC
  5
20D
330
22
100
AcDbEntity
  8
0
  6
Continuous
 62
     7
100
AcDbCircle
 10
-426.8636169433594
 20
219.06640625
 30
0.0
 40
3.099999904632568
100
AcDbArc
 50
180.0000000000004
 51
270.0000000000005
  0
ARC
  5
20E
330
22
100
AcDbEntity
  8
0
  6
Continuous
 62
     7
100
AcDbCircle
 10
-426.8636169433594
 20
219.06640625
 30
0.0
 40
3.099999904632568
100
AcDbArc
 50
270.0000000000005
 51
0.0
  0
CIRCLE
  5
20F
330
22
100
AcDbEntity
  8
0
  6
DASHED
 62
     7
100
AcDbCircle
 10
-392.5263671875
 20
213.3679351806641
 30
0.0
 40
33.5
  0
CIRCLE
  5
210
330
22
100
AcDbEntity
  8
0
  6
Continuous
 62
     7
100
AcDbCircle
 10
-392.5263671875
 20
213.3679351806641
 30
0.0
 40
67.5
  0
CIRCLE
  5
211
330
22
100
AcDbEntity
  8
0
  6
Continuous
 62
     7
100
AcDbCircle
 10
-392.6636047363281
 20
213.3679351806641
 30
0.0
 40
77.5
  0
CIRCLE
  5
212
330
22
100
AcDbEntity
  8
0
  6
Continuous
 62
     7
100
AcDbCircle
 10
-392.712890625
 20
213.3679351806641
 30
0.0
 40
67.0
  0
ARC
  5
213
330
22
100
AcDbEntity
  8
0
  6
Continuous
 62
     7
100
AcDbCircle
 10
-358.4635925292969
 20
219.06640625
 30
0.0
 40
3.099999904632568
100
AcDbArc
 50
180.0000000000004
 51
270.0000000000005
  0
ARC
  5
214
330
22
100
AcDbEntity
  8
0
  6
Continuous
 62
     7
100
AcDbCircle
 10
-369.8636169433594
 20
219.06640625
 30
0.0
 40
3.099999904632568
100
AcDbArc
 50
270.0000000000005
 51
0.0
  0
ARC
  5
215
330
22
100
AcDbEntity
  8
0
  6
Continuous
 62
     7
100
AcDbCircle
 10
-381.2636108398438
 20
219.06640625
 30
0.0
 40
3.099999904632568
100
AcDbArc
 50
270.0000000000005
 51
0.0
  0
ARC
  5
216
330
22
100
AcDbEntity
  8
0
  6
Continuous
 62
     7
100
AcDbCircle
 10
-415.4635925292969
 20
219.06640625
 30
0.0
 40
3.099999904632568
100
AcDbArc
 50
270.0000000000005
 51
0.0
  0
ARC
  5
217
330
22
100
AcDbEntity
  8
0
  6
Continuous
 62
     7
100
AcDbCircle
 10
-415.4635925292969
 20
219.06640625
 30
0.0
 40
3.099999904632568
100
AcDbArc
 50
180.0000000000004
 51
270.0000000000005
  0
ARC
  5
218
330
22
100
AcDbEntity
  8
0
  6
Continuous
 62
     7
100
AcDbCircle
 10
-369.8636169433594
 20
219.06640625
 30
0.0
 40
3.099999904632568
100
AcDbArc
 50
180.0000000000004
 51
270.0000000000005
  0
ARC
  5
219
330
22
100
AcDbEntity
  8
0
  6
Continuous
 62
     7
100
AcDbCircle
 10
-358.4635925292969
 20
219.06640625
 30
0.0
 40
3.099999904632568
100
AcDbArc
 50
270.0000000000005
 51
0.0
  0
ARC
  5
21A
330
22
100
AcDbEntity
  8
0
  6
Continuous
 62
     7
100
AcDbCircle
 10
-334.4635925292969
 20
217.9664154052734
 30
0.0
 40
2.0
100
AcDbArc
 50
270.0000000000005
 51
4.412887221087117
  0
ARC
  5
21B
330
22
100
AcDbEntity
  8
0
  6
Continuous
 62
     7
100
AcDbCircle
 10
-347.0635986328125
 20
219.06640625
 30
0.0
 40
3.099999904632568
100
AcDbArc
 50
180.0000000000004
 51
270.0000000000005
  0
ARC
  5
21C
330
22
100
AcDbEntity
  8
0
  6
Continuous
 62
     7
100
AcDbCircle
 10
-347.0635986328125
 20
219.06640625
 30
0.0
 40
3.099999904632568
100
AcDbArc
 50
270.0000000000005
 51
0.0
  0
ARC
  5
21D
330
22
100
AcDbEntity
  8
0
  6
Continuous
 62
     7
100
AcDbCircle
 10
-336.7636108398438
 20
217.9664154052734
 30
0.0
 40
2.0
100
AcDbArc
 50
180.0000000000004
 51
270.0000000000005
  0
TEXT
  5
21E
330
22
100
AcDbEntity
  8
0
  6
Continuous
 62
     7
100
AcDbText
 10
-313.029839515686
 20
70.71831512451172
 30
0.0
 40
7.0
  1
ＤＬ－ＣＵＧ－６５Ｇ
 41
0.8443929888818491
100
AcDbText
  0
DIMENSION
  5
21F
330
22
100
AcDbEntity
  8
0
  6
Continuous
 62
     7
100
AcDbDimension
  2
*D1
 10
-440.7685393884033
 20
152.6047451547975
 30
0.0
 11
-323.3685913085938
 21
300.8971252441406
 31
0.0
 70
     3
 71
     5
 42
-1.0
  3
DIMSTYLE1
100
AcDbDiametricDimension
 15
-344.5586700842529
 25
274.1311252065306
 35
0.0
 40
0.0
  0
DIMENSION
  5
220
330
22
100
AcDbEntity
  8
0
  6
Continuous
 62
     7
100
AcDbDimension
  2
*D2
 10
-444.0451740736555
 20
170.3098734970851
 30
0.0
 11
-308.138427734375
 21
284.3099060058594
 31
0.0
 70
     3
 71
     5
 42
-1.0
  3
DIMSTYLE2
100
AcDbDiametricDimension
 15
-341.3806071763445
 25
256.4259968642431
 35
0.0
 40
0.0
  0
DIMENSION
  5
221
330
22
100
AcDbEntity
  8
0
  6
Continuous
 62
     7
100
AcDbDimension
  2
*D3
 10
-170.9337768554688
 20
312.9861145019531
 30
0.0
 11
-204.4337768554688
 21
312.9861145019531
 31
0.0
 71
     5
 42
-1.0
  3
DIMSTYLE3
100
AcDbAlignedDimension
 13
-237.9337768554688
 23
289.8679504394531
 33
0.0
 14
-170.9337768554688
 24
249.4679412841797
 34
0.0
100
AcDbRotatedDimension
  0
INSERT
  5
222
330
22
100
AcDbEntity
  8
0
  6
Continuous
 62
     7
100
AcDbBlockReference
  2
KOZU0001
 10
-181.5671081542969
 20
176.3179321289063
 30
0.0
  0
ENDSEC
  0
SECTION
  2
OBJECTS
  0
DICTIONARY
  5
C
330
0
100
AcDbDictionary
281
     1
  3
ACAD_COLOR
350
1B
  3
ACAD_GROUP
350
D
  3
ACAD_LAYOUT
350
19
  3
ACAD_MATERIAL
350
1A
  3
ACAD_MLINESTYLE
350
16
  3
ACAD_PLOTSETTINGS
350
18
  3
ACAD_PLOTSTYLENAME
350
E
  3
ACAD_TABLESTYLE
350
1C
  3
AcDbVariableDictionary
350
22E
  0
DICTIONARY
  5
1B
102
{ACAD_REACTORS
330
C
102
}
330
C
100
AcDbDictionary
281
     1
  0
DICTIONARY
  5
D
102
{ACAD_REACTORS
330
C
102
}
330
C
100
AcDbDictionary
281
     1
  0
DICTIONARY
  5
19
102
{ACAD_REACTORS
330
C
102
}
330
C
100
AcDbDictionary
281
     1
  3
Model
350
25
  3
レイアウト1
350
21
  0
DICTIONARY
  5
1A
102
{ACAD_REACTORS
330
C
102
}
330
C
100
AcDbDictionary
281
     1
  0
DICTIONARY
  5
16
102
{ACAD_REACTORS
330
C
102
}
330
C
100
AcDbDictionary
281
     1
  3
Standard
350
17
  0
DICTIONARY
  5
18
102
{ACAD_REACTORS
330
C
102
}
330
C
100
AcDbDictionary
281
     1
  0
ACDBDICTIONARYWDFLT
  5
E
102
{ACAD_REACTORS
330
C
102
}
330
C
100
AcDbDictionary
281
     1
  3
Normal
350
F
100
AcDbDictionaryWithDefault
340
F
  0
DICTIONARY
  5
1C
102
{ACAD_REACTORS
330
C
102
}
330
C
100
AcDbDictionary
281
     1
  3
Standard
350
1D
  0
DICTIONARY
  5
22E
102
{ACAD_REACTORS
330
C
102
}
330
C
100
AcDbDictionary
281
     1
  3
CTABLESTYLE
350
22F
  0
LAYOUT
  5
25
102
{ACAD_REACTORS
330
19
102
}
330
19
100
AcDbPlotSettings
  1

  2
PDF reDirect v2
  4
User66
  6

 40
3.174999952316284
 41
3.174999952316284
 42
3.17498779296875
 43
3.17498779296875
 44
420.0
 45
594.0
 46
0.0
 47
0.0
 48
0.0
 49
0.0
140
0.0
141
0.0
142
1.0
143
1.0
 70
 11952
 72
     1
 73
     1
 74
     2
  7
C:\Users\ck\AppData\Roaming\Autodesk\AutoCAD 2005\R16.1\jpn\Plot Styles\black.ctb
 75
    16
147
1.0
 76
     0
 77
     2
 78
   300
148
592.0
149
0.0
100
AcDbLayout
  1
Model
 70
     1
 71
     0
 10
0.0
 20
0.0
 11
12.0
 21
9.0
 12
0.0
 22
0.0
 32
0.0
 14
0.0
 24
0.0
 34
0.0
 15
0.0
 25
0.0
 35
0.0
146
0.0
 13
0.0
 23
0.0
 33
0.0
 16
1.0
 26
0.0
 36
0.0
 17
0.0
 27
1.0
 37
0.0
 76
     0
330
22
1001
ACAD_PSEXT
1000
PDF reDirect v2
1000
PDF reDirect Pro
1000
PDF_REDIRECT_PORT:
1000
PDF reDirect provided by EXP Systems
1070
     0
  0
LAYOUT
  5
21
102
{ACAD_REACTORS
330
19
102
}
330
19
100
AcDbPlotSettings
  1

  2
PDF reDirect v2
  4

  6

 40
0.0
 41
0.0
 42
0.0
 43
0.0
 44
0.0
 45
0.0
 46
0.0
 47
0.0
 48
0.0
 49
0.0
140
0.0
141
0.0
142
1.0
143
1.0
 70
   688
 72
     0
 73
     0
 74
     5
  7
C:\Users\ck\AppData\Roaming\Autodesk\AutoCAD 2005\R16.1\jpn\Plot Styles\black.ctb
 75
    16
147
1.0
 76
     0
 77
     2
 78
   300
148
0.0
149
0.0
100
AcDbLayout
  1
レイアウト1
 70
     1
 71
     1
 10
-592.0
 20
0.0
 11
0.0
 21
418.0
 12
0.0
 22
0.0
 32
0.0
 14
1.000000000000000E+20
 24
1.000000000000000E+20
 34
1.000000000000000E+20
 15
-1.000000000000000E+20
 25
-1.000000000000000E+20
 35
-1.000000000000000E+20
146
0.0
 13
0.0
 23
0.0
 33
0.0
 16
1.0
 26
0.0
 36
0.0
 17
0.0
 27
1.0
 37
0.0
 76
     0
330
1E
  0
MLINESTYLE
  5
17
102
{ACAD_REACTORS
330
16
102
}
330
16
100
AcDbMlineStyle
  2
STANDARD
 70
     0
  3

 62
   256
 51
90.0
 52
90.0
 71
     2
 49
0.5
 62
   256
  6
BYLAYER
 49
-0.5
 62
   256
  6
BYLAYER
  0
ACDBPLACEHOLDER
  5
F
102
{ACAD_REACTORS
330
E
102
}
330
E
  0
TABLESTYLE
  5
1D
102
{ACAD_REACTORS
330
1C
102
}
330
1C
100
AcDbTableStyle
  3
Standard
 70
     0
 71
     0
 40
0.06
 41
0.06
280
     0
281
     0
  7
STANDARD
140
0.18
170
     2
 62
     0
 63
     7
283
     0
274
    -2
284
     1
 64
     0
275
    -2
285
     1
 65
     0
276
    -2
286
     1
 66
     0
277
    -2
287
     1
 67
     0
278
    -2
288
     1
 68
     0
279
    -2
289
     1
 69
     0
  7
STANDARD
140
0.25
170
     5
 62
     0
 63
     7
283
     0
274
    -2
284
     1
 64
     0
275
    -2
285
     1
 65
     0
276
    -2
286
     1
 66
     0
277
    -2
287
     1
 67
     0
278
    -2
288
     1
 68
     0
279
    -2
289
     1
 69
     0
  7
STANDARD
140
0.18
170
     5
 62
     0
 63
     7
283
     0
274
    -2
284
     1
 64
     0
275
    -2
285
     1
 65
     0
276
    -2
286
     1
 66
     0
277
    -2
287
     1
 67
     0
278
    -2
288
     1
 68
     0
279
    -2
289
     1
 69
     0
  0
DICTIONARYVAR
  5
22F
102
{ACAD_REACTORS
330
22E
102
}
330
22E
100
DictionaryVariables
280
     0
  1
STANDARD
  0
ENDSEC
  0
EOF
