  0
SECTION
  2
HEADER
  9
$ACADVER
  1
AC1018
  9
$ACADMAINTVER
 70
    39
  9
$DWGCODEPAGE
  3
ANSI_932
  9
$INSBASE
 10
0.0
 20
0.0
 30
0.0
  9
$EXTMIN
 10
-463.8820785506186
 20
69.41366682552462
 30
-0.0015258207003583
  9
$EXTMAX
 10
-131.3247058057745
 20
305.8206795535757
 30
0.0000000349246037
  9
$LIMMIN
 10
-592.0
 20
0.0
  9
$LIMMAX
 10
0.0
 20
418.0
  9
$ORTHOMODE
 70
     0
  9
$REGENMODE
 70
     1
  9
$FILLMODE
 70
     1
  9
$QTEXTMODE
 70
     0
  9
$MIRRTEXT
 70
     0
  9
$LTSCALE
 40
1.0
  9
$ATTMODE
 70
     1
  9
$TEXTSIZE
 40
0.2
  9
$TRACEWID
 40
0.05
  9
$TEXTSTYLE
  7
STANDARD
  9
$CLAYER
  8
0
  9
$CELTYPE
  6
CONTINUOUS
  9
$CECOLOR
 62
   256
  9
$CELTSCALE
 40
1.0
  9
$DISPSILH
 70
     0
  9
$DIMSCALE
 40
1.0
  9
$DIMASZ
 40
1.0
  9
$DIMEXO
 40
2.54
  9
$DIMDLI
 40
0.38
  9
$DIMRND
 40
0.0
  9
$DIMDLE
 40
0.0
  9
$DIMEXE
 40
2.54
  9
$DIMTP
 40
0.0
  9
$DIMTM
 40
0.0
  9
$DIMTXT
 40
3.0
  9
$DIMCEN
 40
0.09
  9
$DIMTSZ
 40
0.0
  9
$DIMTOL
 70
     0
  9
$DIMLIM
 70
     0
  9
$DIMTIH
 70
     0
  9
$DIMTOH
 70
     0
  9
$DIMSE1
 70
     0
  9
$DIMSE2
 70
     0
  9
$DIMTAD
 70
     1
  9
$DIMZIN
 70
     0
  9
$DIMBLK
  1

  9
$DIMASO
 70
     1
  9
$DIMSHO
 70
     0
  9
$DIMPOST
  1

  9
$DIMAPOST
  1

  9
$DIMALT
 70
     0
  9
$DIMALTD
 70
     2
  9
$DIMALTF
 40
25.4
  9
$DIMLFAC
 40
1.0
  9
$DIMTOFL
 70
     0
  9
$DIMTVP
 40
1.0
  9
$DIMTIX
 70
     0
  9
$DIMSOXD
 70
     0
  9
$DIMSAH
 70
     1
  9
$DIMBLK1
  1

  9
$DIMBLK2
  1

  9
$DIMSTYLE
  2
DIMSTYLE1
  9
$DIMCLRD
 70
     0
  9
$DIMCLRE
 70
     0
  9
$DIMCLRT
 70
     0
  9
$DIMTFAC
 40
1.0
  9
$DIMGAP
 40
1.5
  9
$DIMJUST
 70
     0
  9
$DIMSD1
 70
     0
  9
$DIMSD2
 70
     0
  9
$DIMTOLJ
 70
     1
  9
$DIMTZIN
 70
     0
  9
$DIMALTZ
 70
     0
  9
$DIMALTTZ
 70
     0
  9
$DIMUPT
 70
     0
  9
$DIMDEC
 70
     4
  9
$DIMTDEC
 70
     4
  9
$DIMALTU
 70
     2
  9
$DIMALTTD
 70
     2
  9
$DIMTXSTY
  7
STANDARD
  9
$DIMAUNIT
 70
     0
  9
$DIMADEC
 70
     0
  9
$DIMALTRND
 40
0.0
  9
$DIMAZIN
 70
     0
  9
$DIMDSEP
 70
    46
  9
$DIMATFIT
 70
     3
  9
$DIMFRAC
 70
     0
  9
$DIMLDRBLK
  1

  9
$DIMLUNIT
 70
     2
  9
$DIMLWD
 70
    -2
  9
$DIMLWE
 70
    -2
  9
$DIMTMOVE
 70
     0
  9
$LUNITS
 70
     2
  9
$LUPREC
 70
     4
  9
$SKETCHINC
 40
0.1
  9
$FILLETRAD
 40
0.0
  9
$AUNITS
 70
     0
  9
$AUPREC
 70
     0
  9
$MENU
  1
.
  9
$ELEVATION
 40
0.0
  9
$PELEVATION
 40
0.0
  9
$THICKNESS
 40
0.0
  9
$LIMCHECK
 70
     0
  9
$CHAMFERA
 40
0.0
  9
$CHAMFERB
 40
0.0
  9
$CHAMFERC
 40
0.0
  9
$CHAMFERD
 40
0.0
  9
$SKPOLY
 70
     0
  9
$TDCREATE
 40
2457841.973658287
  9
$TDUCREATE
 40
2457841.598658287
  9
$TDUPDATE
 40
2457841.974143553
  9
$TDUUPDATE
 40
2457841.599143553
  9
$TDINDWG
 40
0.0004866551
  9
$TDUSRTIMER
 40
0.0004866551
  9
$USRTIMER
 70
     1
  9
$ANGBASE
 50
0.0
  9
$ANGDIR
 70
     0
  9
$PDMODE
 70
     0
  9
$PDSIZE
 40
0.0
  9
$PLINEWID
 40
0.0
  9
$SPLFRAME
 70
     0
  9
$SPLINETYPE
 70
     6
  9
$SPLINESEGS
 70
     8
  9
$HANDSEED
  5
1C7
  9
$SURFTAB1
 70
     6
  9
$SURFTAB2
 70
     6
  9
$SURFTYPE
 70
     6
  9
$SURFU
 70
     6
  9
$SURFV
 70
     6
  9
$UCSBASE
  2

  9
$UCSNAME
  2

  9
$UCSORG
 10
0.0
 20
0.0
 30
0.0
  9
$UCSXDIR
 10
1.0
 20
0.0
 30
0.0
  9
$UCSYDIR
 10
0.0
 20
1.0
 30
0.0
  9
$UCSORTHOREF
  2

  9
$UCSORTHOVIEW
 70
     0
  9
$UCSORGTOP
 10
0.0
 20
0.0
 30
0.0
  9
$UCSORGBOTTOM
 10
0.0
 20
0.0
 30
0.0
  9
$UCSORGLEFT
 10
0.0
 20
0.0
 30
0.0
  9
$UCSORGRIGHT
 10
0.0
 20
0.0
 30
0.0
  9
$UCSORGFRONT
 10
0.0
 20
0.0
 30
0.0
  9
$UCSORGBACK
 10
0.0
 20
0.0
 30
0.0
  9
$PUCSBASE
  2

  9
$PUCSNAME
  2

  9
$PUCSORG
 10
0.0
 20
0.0
 30
0.0
  9
$PUCSXDIR
 10
1.0
 20
0.0
 30
0.0
  9
$PUCSYDIR
 10
0.0
 20
1.0
 30
0.0
  9
$PUCSORTHOREF
  2

  9
$PUCSORTHOVIEW
 70
     0
  9
$PUCSORGTOP
 10
0.0
 20
0.0
 30
0.0
  9
$PUCSORGBOTTOM
 10
0.0
 20
0.0
 30
0.0
  9
$PUCSORGLEFT
 10
0.0
 20
0.0
 30
0.0
  9
$PUCSORGRIGHT
 10
0.0
 20
0.0
 30
0.0
  9
$PUCSORGFRONT
 10
0.0
 20
0.0
 30
0.0
  9
$PUCSORGBACK
 10
0.0
 20
0.0
 30
0.0
  9
$USERI1
 70
     0
  9
$USERI2
 70
     0
  9
$USERI3
 70
     0
  9
$USERI4
 70
     0
  9
$USERI5
 70
     0
  9
$USERR1
 40
0.0
  9
$USERR2
 40
0.0
  9
$USERR3
 40
0.0
  9
$USERR4
 40
0.0
  9
$USERR5
 40
0.0
  9
$WORLDVIEW
 70
     1
  9
$SHADEDGE
 70
     3
  9
$SHADEDIF
 70
    70
  9
$TILEMODE
 70
     1
  9
$MAXACTVP
 70
    64
  9
$PINSBASE
 10
0.0
 20
0.0
 30
0.0
  9
$PLIMCHECK
 70
     0
  9
$PEXTMIN
 10
1.000000000000000E+20
 20
1.000000000000000E+20
 30
1.000000000000000E+20
  9
$PEXTMAX
 10
-1.000000000000000E+20
 20
-1.000000000000000E+20
 30
-1.000000000000000E+20
  9
$PLIMMIN
 10
-592.0
 20
0.0
  9
$PLIMMAX
 10
0.0
 20
418.0
  9
$UNITMODE
 70
     0
  9
$VISRETAIN
 70
     1
  9
$PLINEGEN
 70
     0
  9
$PSLTSCALE
 70
     1
  9
$TREEDEPTH
 70
  3020
  9
$CMLSTYLE
  2
Standard
  9
$CMLJUST
 70
     0
  9
$CMLSCALE
 40
1.0
  9
$PROXYGRAPHICS
 70
     1
  9
$MEASUREMENT
 70
     0
  9
$CELWEIGHT
370
    -1
  9
$ENDCAPS
280
     0
  9
$JOINSTYLE
280
     0
  9
$LWDISPLAY
290
     0
  9
$INSUNITS
 70
     0
  9
$HYPERLINKBASE
  1

  9
$STYLESHEET
  1

  9
$XEDIT
290
     1
  9
$CEPSNTYPE
380
     0
  9
$PSTYLEMODE
290
     1
  9
$FINGERPRINTGUID
  2
{0185F7FE-E9DC-4330-99E7-52A9A15665E3}
  9
$VERSIONGUID
  2
{4E58000E-B51A-43C6-BC03-3FC4A2FFEE1A}
  9
$EXTNAMES
290
     1
  9
$PSVPSCALE
 40
0.0
  9
$OLESTARTUP
290
     0
  9
$SORTENTS
280
   127
  9
$INDEXCTL
280
     0
  9
$HIDETEXT
280
     0
  9
$XCLIPFRAME
290
     0
  9
$HALOGAP
280
     0
  9
$OBSCOLOR
 70
   257
  9
$OBSLTYPE
280
     0
  9
$INTERSECTIONDISPLAY
280
     0
  9
$INTERSECTIONCOLOR
 70
   257
  9
$DIMASSOC
280
     1
  9
$PROJECTNAME
  1

  0
ENDSEC
  0
SECTION
  2
CLASSES
  0
CLASS
  1
ACDBDICTIONARYWDFLT
  2
AcDbDictionaryWithDefault
  3
ObjectDBX Classes
 90
        0
 91
        1
280
     0
281
     0
  0
CLASS
  1
TABLESTYLE
  2
AcDbTableStyle
  3
ObjectDBX Classes
 90
     2047
 91
        1
280
     0
281
     0
  0
CLASS
  1
DICTIONARYVAR
  2
AcDbDictionaryVar
  3
ObjectDBX Classes
 90
        0
 91
        1
280
     0
281
     0
  0
ENDSEC
  0
SECTION
  2
TABLES
  0
TABLE
  2
VPORT
  5
8
330
0
100
AcDbSymbolTable
 70
     2
  0
VPORT
  5
1C6
330
8
100
AcDbSymbolTableRecord
100
AcDbViewportTableRecord
  2
*Active
 70
     0
 10
0.0
 20
0.0
 11
1.0
 21
1.0
 12
-296.0
 22
209.0
 13
0.0
 23
0.0
 14
1.0
 24
1.0
 15
0.0
 25
0.0
 16
0.0
 26
0.0
 36
1.0
 17
0.0
 27
0.0
 37
0.0
 40
421.3043478260869
 41
1.707124010554089
 42
50.0
 43
0.0
 44
0.0
 50
0.0
 51
0.0
 71
     0
 72
   100
 73
     1
 74
     1
 75
     0
 76
     0
 77
     0
 78
     0
281
     0
 65
     1
110
0.0
120
0.0
130
0.0
111
1.0
121
0.0
131
0.0
112
0.0
122
1.0
132
0.0
 79
     0
146
0.0
  0
ENDTAB
  0
TABLE
  2
LTYPE
  5
5
330
0
100
AcDbSymbolTable
 70
     6
  0
LTYPE
  5
13
330
5
100
AcDbSymbolTableRecord
100
AcDbLinetypeTableRecord
  2
ByBlock
 70
     0
  3

 72
    65
 73
     0
 40
0.0
  0
LTYPE
  5
14
330
5
100
AcDbSymbolTableRecord
100
AcDbLinetypeTableRecord
  2
ByLayer
 70
     0
  3

 72
    65
 73
     0
 40
0.0
  0
LTYPE
  5
15
330
5
100
AcDbSymbolTableRecord
100
AcDbLinetypeTableRecord
  2
CONTINUOUS
 70
     0
  3
Solid line
 72
    65
 73
     0
 40
0.0
  0
LTYPE
  5
26
330
5
100
AcDbSymbolTableRecord
100
AcDbLinetypeTableRecord
  2
DASHED
 70
     0
  3
__ __ __ __ __ __ __ __ __ __ __ __ __ __ __
 72
    65
 73
     2
 40
3.5
 49
2.0
 74
     0
 49
-1.5
 74
     0
  0
LTYPE
  5
27
330
5
100
AcDbSymbolTableRecord
100
AcDbLinetypeTableRecord
  2
CENTER
 70
     0
  3
____ _ ____ _ ____ _ ____ _ ____ _ ____ _ ____
 72
    65
 73
     4
 40
17.5
 49
13.0
 74
     0
 49
-1.5
 74
     0
 49
1.5
 74
     0
 49
-1.5
 74
     0
  0
LTYPE
  5
28
330
5
100
AcDbSymbolTableRecord
100
AcDbLinetypeTableRecord
  2
PHANTOM
 70
     0
  3
_____ _ _ _____ _ _ _____ _ _ _____ _ _ ____  
 72
    65
 73
     6
 40
15.5
 49
8.0
 74
     0
 49
-1.5
 74
     0
 49
1.5
 74
     0
 49
-1.5
 74
     0
 49
1.5
 74
     0
 49
-1.5
 74
     0
  0
LTYPE
  5
29
330
5
100
AcDbSymbolTableRecord
100
AcDbLinetypeTableRecord
  2
DOT
 70
     0
  3
. . . . . . . . . . . . . . . . . . . . . . . .
 72
    65
 73
     2
 40
0.25
 49
0.0
 74
     0
 49
-0.25
 74
     0
  0
LTYPE
  5
2A
330
5
100
AcDbSymbolTableRecord
100
AcDbLinetypeTableRecord
  2
HIDDEN
 70
     0
  3
__ __ __ __ __ __ __ __ __ __ __ __ __ __ __
 72
    65
 73
     2
 40
3.5
 49
2.0
 74
     0
 49
-1.5
 74
     0
  0
ENDTAB
  0
TABLE
  2
LAYER
  5
2
330
0
100
AcDbSymbolTable
 70
     2
  0
LAYER
  5
10
330
2
100
AcDbSymbolTableRecord
100
AcDbLayerTableRecord
  2
0
 70
     0
 62
     7
  6
CONTINUOUS
370
    -3
390
F
  0
LAYER
  5
2B
330
2
100
AcDbSymbolTableRecord
100
AcDbLayerTableRecord
  2
DEFPOINTS
 70
     0
 62
     7
  6
CONTINUOUS
290
     0
370
    -3
390
F
  0
ENDTAB
  0
TABLE
  2
STYLE
  5
3
330
0
100
AcDbSymbolTable
 70
     2
  0
STYLE
  5
11
330
3
100
AcDbSymbolTableRecord
100
AcDbTextStyleTableRecord
  2
STANDARD
 70
     0
 40
0.0
 41
1.0
 50
0.0
 71
     0
 42
0.2
  3

  4

1001
ACAD
1000
MS Gothic
1071
    32817
  0
ENDTAB
  0
TABLE
  2
VIEW
  5
6
330
0
100
AcDbSymbolTable
 70
     0
  0
ENDTAB
  0
TABLE
  2
UCS
  5
7
330
0
100
AcDbSymbolTable
 70
     0
  0
ENDTAB
  0
TABLE
  2
APPID
  5
9
330
0
100
AcDbSymbolTable
 70
     2
  0
APPID
  5
12
330
9
100
AcDbSymbolTableRecord
100
AcDbRegAppTableRecord
  2
ACAD
 70
     0
  0
APPID
  5
1BB
330
9
100
AcDbSymbolTableRecord
100
AcDbRegAppTableRecord
  2
ACAD_PSEXT
 70
     0
  0
ENDTAB
  0
TABLE
  2
DIMSTYLE
  5
A
330
0
100
AcDbSymbolTable
 70
     4
100
AcDbDimStyleTable
 71
     1
340
2C
  0
DIMSTYLE
105
2C
102
{ACAD_REACTORS
330
1B5
102
}
330
A
100
AcDbSymbolTableRecord
100
AcDbDimStyleTableRecord
  2
DIMSTYLE1
 70
     0
 41
1.0
 42
2.54
 44
2.54
 73
     0
 74
     0
 75
     1
 76
     1
 77
     1
140
3.0
145
1.0
147
1.5
172
     1
173
     1
279
     2
340
11
  0
DIMSTYLE
105
2D
102
{ACAD_REACTORS
330
1B6
102
}
330
A
100
AcDbSymbolTableRecord
100
AcDbDimStyleTableRecord
  2
DIMSTYLE2
 70
     0
 41
1.0
 42
2.54
 44
2.54
 73
     0
 74
     0
 75
     1
 76
     1
 77
     1
140
3.0
145
1.0
147
1.5
172
     1
173
     1
279
     2
340
11
  0
DIMSTYLE
105
2E
102
{ACAD_REACTORS
330
1B7
102
}
330
A
100
AcDbSymbolTableRecord
100
AcDbDimStyleTableRecord
  2
DIMSTYLE3
 70
     0
 41
1.0
 42
2.54
 44
2.54
 73
     0
 74
     0
 77
     1
140
3.0
145
1.0
147
1.5
172
     1
173
     1
279
     2
340
11
  0
ENDTAB
  0
TABLE
  2
BLOCK_RECORD
  5
1
330
0
100
AcDbSymbolTable
 70
     6
  0
BLOCK_RECORD
  5
22
330
1
100
AcDbSymbolTableRecord
100
AcDbBlockTableRecord
  2
*Model_Space
340
25
  0
BLOCK_RECORD
  5
1E
330
1
100
AcDbSymbolTableRecord
100
AcDbBlockTableRecord
  2
*Paper_Space
340
21
  0
BLOCK_RECORD
  5
32
330
1
100
AcDbSymbolTableRecord
100
AcDbBlockTableRecord
  2
_OPEN30
340
0
102
{BLKREFS
331
3C
331
3D
331
46
331
47
331
4F
331
50
102
}
  0
BLOCK_RECORD
  5
38
330
1
100
AcDbSymbolTableRecord
100
AcDbBlockTableRecord
  2
*D1
340
0
  0
BLOCK_RECORD
  5
42
330
1
100
AcDbSymbolTableRecord
100
AcDbBlockTableRecord
  2
*D2
340
0
  0
BLOCK_RECORD
  5
4C
330
1
100
AcDbSymbolTableRecord
100
AcDbBlockTableRecord
  2
*D3
340
0
  0
BLOCK_RECORD
  5
58
330
1
100
AcDbSymbolTableRecord
100
AcDbBlockTableRecord
  2
KOZU0001
340
0
102
{BLKREFS
331
1B8
102
}
  0
ENDTAB
  0
ENDSEC
  0
SECTION
  2
BLOCKS
  0
BLOCK
  5
23
330
22
100
AcDbEntity
  8
0
100
AcDbBlockBegin
  2
*Model_Space
 70
     0
 10
0.0
 20
0.0
 30
0.0
  3
*Model_Space
  1

  0
ENDBLK
  5
24
330
22
100
AcDbEntity
  8
0
100
AcDbBlockEnd
  0
BLOCK
  5
1F
330
1E
100
AcDbEntity
 67
     1
  8
0
100
AcDbBlockBegin
  2
*Paper_Space
 70
     0
 10
0.0
 20
0.0
 30
0.0
  3
*Paper_Space
  1

  0
ENDBLK
  5
20
330
1E
100
AcDbEntity
 67
     1
  8
0
100
AcDbBlockEnd
  0
BLOCK
  5
33
330
32
100
AcDbEntity
  8
0
100
AcDbBlockBegin
  2
_OPEN30
 70
     0
 10
0.0
 20
0.0
 30
0.0
  3
_OPEN30
  1

  0
LINE
  5
34
330
32
100
AcDbEntity
  8
0
  6
ByBlock
 62
     0
100
AcDbLine
 10
0.0
 20
0.0
 30
0.0
 11
-2.999999999999993
 21
-1.000000000000017
 31
0.0
  0
LINE
  5
35
330
32
100
AcDbEntity
  8
0
  6
ByBlock
 62
     0
100
AcDbLine
 10
0.0
 20
0.0
 30
0.0
 11
-3.000000000000006
 21
0.9999999999999815
 31
0.0
  0
LINE
  5
36
330
32
100
AcDbEntity
  8
0
  6
ByBlock
 62
     0
100
AcDbLine
 10
0.0
 20
0.0
 30
0.0
 11
-3.0
 21
0.0
 31
0.0
  0
ENDBLK
  5
37
330
32
100
AcDbEntity
  8
0
100
AcDbBlockEnd
  0
BLOCK
  5
39
330
38
100
AcDbEntity
  8
0
100
AcDbBlockBegin
  2
*D1
 70
     1
 10
0.0
 20
0.0
 30
0.0
  3
*D1
  1

  0
LINE
  5
3A
330
38
100
AcDbEntity
  8
0
  6
Continuous
 62
     7
100
AcDbLine
 10
-352.8647155761719
 20
264.3535766601563
 30
0.0
 11
-324.9227905273438
 21
300.4342041015625
 31
0.0
  0
LINE
  5
3B
330
38
100
AcDbEntity
  8
0
  6
Continuous
 62
     7
100
AcDbLine
 10
-430.6256221880374
 20
163.9432027859598
 30
0.0
 11
-354.7015872846188
 21
261.9816781954855
 31
0.0
  0
INSERT
  5
3C
330
38
100
AcDbEntity
  8
0
  6
Continuous
 62
     7
100
AcDbBlockReference
  2
_OPEN30
 10
-432.4624938964843
 20
161.5713043212891
 30
0.0
 50
232.244689032352
  0
INSERT
  5
3D
330
38
100
AcDbEntity
  8
0
  6
Continuous
 62
     7
100
AcDbBlockReference
  2
_OPEN30
 10
-352.8647155761719
 20
264.3535766601563
 30
0.0
 50
52.24468903235134
  0
TEXT
  5
3E
330
38
100
AcDbEntity
  8
0
  6
Continuous
 62
     7
100
AcDbText
 10
-345.2043314285605
 20
275.4906178367409
 30
0.0
 40
3.0
  1
%%C１３０（目皿受外径）
 50
52.20000076957841
 41
0.8440126077968535
100
AcDbText
  0
POINT
  5
3F
330
38
100
AcDbEntity
  8
DEFPOINTS
  6
Continuous
 62
     7
100
AcDbPoint
 10
-432.4624938964843
 20
161.5713043212891
 30
0.0
  0
POINT
  5
40
330
38
100
AcDbEntity
  8
DEFPOINTS
  6
Continuous
 62
     7
100
AcDbPoint
 10
-352.8647155761719
 20
264.3535766601563
 30
0.0
  0
ENDBLK
  5
41
330
38
100
AcDbEntity
  8
0
100
AcDbBlockEnd
  0
BLOCK
  5
43
330
42
100
AcDbEntity
  8
0
100
AcDbBlockBegin
  2
*D2
 70
     1
 10
0.0
 20
0.0
 30
0.0
  3
*D2
  1

  0
LINE
  5
44
330
42
100
AcDbEntity
  8
0
  6
Continuous
 62
     7
100
AcDbLine
 10
-350.8116149902344
 20
247.8717803955078
 30
0.0
 11
-307.9853515625
 21
283.5937805175781
 31
0.0
  0
LINE
  5
45
330
42
100
AcDbEntity
  8
0
  6
Continuous
 62
     7
100
AcDbLine
 10
-432.2118154341836
 20
179.9747302953641
 30
0.0
 11
-353.1153940384725
 21
245.9501659448702
 31
0.0
  0
INSERT
  5
46
330
42
100
AcDbEntity
  8
0
  6
Continuous
 62
     7
100
AcDbBlockReference
  2
_OPEN30
 10
-434.5155944824218
 20
178.0531158447266
 30
0.0
 50
219.8319597188038
  0
INSERT
  5
47
330
42
100
AcDbEntity
  8
0
  6
Continuous
 62
     7
100
AcDbBlockReference
  2
_OPEN30
 10
-350.8116149902344
 20
247.8717803955078
 30
0.0
 50
39.83195971880311
  0
TEXT
  5
48
330
42
100
AcDbEntity
  8
0
  6
Continuous
 62
     7
100
AcDbText
 10
-330.8480153142535
 20
265.510952727375
 30
0.0
 40
3.0
  1
%%C１０９（目皿外径）
 50
39.80000065218995
 41
0.8443929326254473
100
AcDbText
  0
POINT
  5
49
330
42
100
AcDbEntity
  8
DEFPOINTS
  6
Continuous
 62
     7
100
AcDbPoint
 10
-434.5155944824218
 20
178.0531158447266
 30
0.0
  0
POINT
  5
4A
330
42
100
AcDbEntity
  8
DEFPOINTS
  6
Continuous
 62
     7
100
AcDbPoint
 10
-350.8116149902344
 20
247.8717803955078
 30
0.0
  0
ENDBLK
  5
4B
330
42
100
AcDbEntity
  8
0
100
AcDbBlockEnd
  0
BLOCK
  5
4D
330
4C
100
AcDbEntity
  8
0
100
AcDbBlockBegin
  2
*D3
 70
     1
 10
0.0
 20
0.0
 30
0.0
  3
*D3
  1

  0
LINE
  5
4E
330
4C
100
AcDbEntity
  8
0
  6
Continuous
 62
     7
100
AcDbLine
 10
-233.9337768554688
 20
301.7088317871094
 30
0.0
 11
-171.9337768554688
 21
301.7088317871094
 31
0.0
  0
INSERT
  5
4F
330
4C
100
AcDbEntity
  8
0
  6
Continuous
 62
     7
100
AcDbBlockReference
  2
_OPEN30
 10
-236.9337768554689
 20
301.7088317871094
 30
0.0
 50
180.0000000000004
  0
INSERT
  5
50
330
4C
100
AcDbEntity
  8
0
  6
Continuous
 62
     7
100
AcDbBlockReference
  2
_OPEN30
 10
-168.9337768554688
 20
301.7088317871094
 30
0.0
  0
LINE
  5
51
330
4C
100
AcDbEntity
  8
0
  6
Continuous
 62
     7
100
AcDbLine
 10
-236.9337768554689
 20
279.90962890625
 30
0.0
 11
-236.9337768554689
 21
303.9948425292969
 31
0.0
  0
LINE
  5
52
330
4C
100
AcDbEntity
  8
0
  6
Continuous
 62
     7
100
AcDbLine
 10
-168.9337768554688
 20
235.3613043212891
 30
0.0
 11
-168.9337768554688
 21
303.9948425292969
 31
0.0
  0
TEXT
  5
53
330
4C
100
AcDbEntity
  8
0
  6
Continuous
 62
     7
100
AcDbText
 10
-205.5037769675255
 20
302.4588317871094
 30
0.0
 40
3.0
  1
68
 41
1.028000020980834
100
AcDbText
  0
POINT
  5
54
330
4C
100
AcDbEntity
  8
DEFPOINTS
  6
Continuous
 62
     7
100
AcDbPoint
 10
-236.9337768554689
 20
277.36962890625
 30
0.0
  0
POINT
  5
55
330
4C
100
AcDbEntity
  8
DEFPOINTS
  6
Continuous
 62
     7
100
AcDbPoint
 10
-168.9337768554688
 20
232.8213043212891
 30
0.0
  0
POINT
  5
56
330
4C
100
AcDbEntity
  8
DEFPOINTS
  6
Continuous
 62
     7
100
AcDbPoint
 10
-168.9337768554688
 20
301.7088317871094
 30
0.0
  0
ENDBLK
  5
57
330
4C
100
AcDbEntity
  8
0
100
AcDbBlockEnd
  0
BLOCK
  5
59
330
58
100
AcDbEntity
  8
0
100
AcDbBlockBegin
  2
KOZU0001
 70
     0
 10
0.0
 20
0.0
 30
0.0
  3
KOZU0001
  1

  0
LINE
  5
5A
330
58
100
AcDbEntity
  8
0
  6
Continuous
 62
     7
100
AcDbLine
 10
0.0
 20
0.0
 30
0.0
 11
14.66651916503906
 21
-20.64894104003906
 31
0.0
  0
LINE
  5
5B
330
58
100
AcDbEntity
  8
0
  6
Continuous
 62
     7
100
AcDbLine
 10
14.66651916503906
 20
-20.64894104003906
 30
0.0
 11
55.75843811035156
 21
-20.64894104003906
 31
0.0
  0
LINE
  5
5C
330
58
100
AcDbEntity
  8
0
  6
Continuous
 62
     7
100
AcDbLine
 10
0.0
 20
0.0
 30
0.0
 11
2.552495609084259
 21
-1.866752839988619
 31
0.0
  0
LINE
  5
5D
330
58
100
AcDbEntity
  8
0
  6
Continuous
 62
     7
100
AcDbLine
 10
0.0
 20
0.0
 30
0.0
 11
0.9219447832742357
 21
-3.02489963744145
 31
0.0
  0
TEXT
  5
5E
330
58
100
AcDbEntity
  8
0
  6
Continuous
 62
     7
100
AcDbText
 10
21.89843678474426
 20
-19.89894104003906
 30
0.0
 40
3.0
  1
配管接続口
 41
0.8487395020950888
100
AcDbText
  0
TEXT
  5
5F
330
58
100
AcDbEntity
  8
0
  6
Continuous
 62
     7
100
AcDbText
 10
21.89843678474426
 20
-25.16394104003906
 30
0.0
 40
3.0
  1
Ｇ１　１／４（３２Ａ）
 41
0.8440126077968535
100
AcDbText
  0
ENDBLK
  5
60
330
58
100
AcDbEntity
  8
0
100
AcDbBlockEnd
  0
ENDSEC
  0
SECTION
  2
ENTITIES
  0
LINE
  5
61
330
22
100
AcDbEntity
  8
0
  6
Continuous
 62
     7
100
AcDbLine
 10
-168.9337768554688
 20
232.8213043212891
 30
0.0
 11
-197.4337768554688
 21
232.8213043212891
 31
0.0
  0
LINE
  5
62
330
22
100
AcDbEntity
  8
0
  6
Continuous
 62
     7
100
AcDbLine
 10
-169.4339904785156
 20
230.5436248779297
 30
0.0
 11
-201.9484558105469
 21
230.5578765869141
 31
0.0
  0
LINE
  5
63
330
22
100
AcDbEntity
  8
0
  6
Continuous
 62
     7
100
AcDbLine
 10
-231.9337768554688
 20
271.36962890625
 30
0.0
 11
-227.8205261230469
 21
271.36962890625
 31
0.0
  0
LINE
  5
64
330
22
100
AcDbEntity
  8
0
  6
Continuous
 62
     7
100
AcDbLine
 10
-232.9337768554688
 20
277.36962890625
 30
0.0
 11
-232.9337768554688
 21
272.36962890625
 31
0.0
  0
LINE
  5
65
330
22
100
AcDbEntity
  8
0
  6
Continuous
 62
     7
100
AcDbLine
 10
-231.9337768554688
 20
268.36962890625
 30
0.0
 11
-231.9337768554688
 21
264.86962890625
 31
0.0
  0
LINE
  5
66
330
22
100
AcDbEntity
  8
0
  6
Continuous
 62
     7
100
AcDbLine
 10
-231.9337768554688
 20
264.86962890625
 30
0.0
 11
-227.5318450927734
 21
264.86962890625
 31
0.0
  0
LINE
  5
67
330
22
100
AcDbEntity
  8
0
  6
Continuous
 62
     7
100
AcDbLine
 10
-231.9337768554688
 20
231.4216461181641
 30
0.0
 11
-223.0830841064453
 21
231.4216461181641
 31
0.0
  0
LINE
  5
68
330
22
100
AcDbEntity
  8
0
  6
Continuous
 62
     7
100
AcDbLine
 10
-231.9337768554688
 20
241.4216461181641
 30
0.0
 11
-223.0830841064453
 21
241.4216461181641
 31
0.0
  0
LINE
  5
69
330
22
100
AcDbEntity
  8
0
  6
Continuous
 62
     7
100
AcDbLine
 10
-198.9259185791016
 20
234.3134460449219
 30
0.0
 11
-201.7871246337891
 21
234.3016357421875
 31
0.0
  0
LINE
  5
6A
330
22
100
AcDbEntity
  8
0
  6
Continuous
 62
     7
100
AcDbLine
 10
-197.4337768554688
 20
232.8213043212891
 30
0.0
 11
-198.9259185791016
 21
234.3134460449219
 31
0.0
  0
LINE
  5
6B
330
22
100
AcDbEntity
  8
0
  6
Continuous
 62
     7
100
AcDbLine
 10
-223.2017211914063
 20
262.36962890625
 30
0.0
 11
-206.1698913574219
 21
232.8696136474609
 31
0.0
  0
LINE
  5
6C
330
22
100
AcDbEntity
  8
0
  6
Continuous
 62
     7
100
AcDbLine
 10
-223.4904022216797
 20
268.86962890625
 30
0.0
 11
-204.3983306884766
 21
235.8011779785156
 31
0.0
  0
LINE
  5
6D
330
22
100
AcDbEntity
  8
0
  6
Continuous
 62
     7
100
AcDbLine
 10
-170.4337768554688
 20
234.3213043212891
 30
0.0
 11
-198.9259185791016
 21
234.3213043212891
 31
0.0
  0
LINE
  5
6E
330
22
100
AcDbEntity
  8
0
  6
Continuous
 62
     7
100
AcDbLine
 10
-168.9337768554688
 20
231.0436248779297
 30
0.0
 11
-168.9337768554688
 21
232.8213043212891
 31
0.0
  0
LINE
  5
6F
330
22
100
AcDbEntity
  8
0
  6
Continuous
 62
     7
100
AcDbLine
 10
-168.9337768554688
 20
232.8213043212891
 30
0.0
 11
-170.4337768554688
 21
234.3213043212891
 31
0.0
  0
LINE
  5
70
330
22
100
AcDbEntity
  8
0
  6
Continuous
 62
     7
100
AcDbLine
 10
-232.9337768554688
 20
155.3679351806641
 30
0.0
 11
-227.8205261230469
 21
155.3679351806641
 31
0.0
  0
LINE
  5
71
330
22
100
AcDbEntity
  8
0
  6
Continuous
 62
     7
100
AcDbLine
 10
-197.4337768554688
 20
193.9196166992188
 30
0.0
 11
-198.9275970458984
 21
192.4257965087891
 31
0.0
  0
LINE
  5
72
330
22
100
AcDbEntity
  8
0
  6
Continuous
 62
     7
100
AcDbLine
 10
-197.4337768554688
 20
192.4196166992188
 30
0.0
 11
-201.7871246337891
 21
192.4376068115234
 31
0.0
  0
LINE
  5
73
330
22
100
AcDbEntity
  8
0
  6
Continuous
 62
     7
100
AcDbLine
 10
-223.4904022216797
 20
157.8679351806641
 30
0.0
 11
-204.3975982666016
 21
190.9376373291016
 31
0.0
  0
LINE
  5
74
330
22
100
AcDbEntity
  8
0
  6
Continuous
 62
     7
100
AcDbLine
 10
-203.1000061035156
 20
230.6922912597656
 30
0.0
 11
-203.1000061035156
 21
213.3696136474609
 31
0.0
  0
LINE
  5
75
330
22
100
AcDbEntity
  8
0
  6
Continuous
 62
     7
100
AcDbLine
 10
-202.2561340332031
 20
193.2239685058594
 30
0.0
 11
-202.2561340332031
 21
213.3762969970703
 31
0.0
  0
LINE
  5
76
330
22
100
AcDbEntity
  8
0
  6
Continuous
 62
     7
100
AcDbLine
 10
-197.4337768554688
 20
213.3534698486328
 30
0.0
 11
-197.4337768554688
 21
193.9196166992188
 31
0.0
  0
LINE
  5
77
330
22
100
AcDbEntity
  8
0
  6
Continuous
 62
     7
100
AcDbLine
 10
-225.3205261230469
 20
158.1441650390625
 30
0.0
 11
-225.3205261230469
 21
213.3679351806641
 31
0.0
  0
LINE
  5
78
330
22
100
AcDbEntity
  8
0
  6
Continuous
 62
     7
100
AcDbLine
 10
-168.9337768554688
 20
193.9145660400391
 30
0.0
 11
-168.9337768554688
 21
231.0436248779297
 31
0.0
  0
LINE
  5
79
330
22
100
AcDbEntity
  8
0
  6
Continuous
 62
     7
100
AcDbLine
 10
-232.9337768554688
 20
213.3679351806641
 30
0.0
 11
-232.9337768554688
 21
149.3679351806641
 31
0.0
  0
LINE
  5
7A
330
22
100
AcDbEntity
  8
0
  6
Continuous
 62
     7
100
AcDbLine
 10
-231.9337768554688
 20
264.86962890625
 30
0.0
 11
-231.9337768554688
 21
213.3696136474609
 31
0.0
  0
LINE
  5
7B
330
22
100
AcDbEntity
  8
0
  6
Continuous
 62
     7
100
AcDbLine
 10
-205.5653076171875
 20
232.1055908203125
 30
0.0
 11
-205.5653076171875
 21
213.3696136474609
 31
0.0
  0
LINE
  5
7C
330
22
100
AcDbEntity
  8
0
  6
Continuous
 62
     7
100
AcDbLine
 10
-236.9337768554689
 20
268.36962890625
 30
0.0
 11
-231.9337768554688
 21
268.36962890625
 31
0.0
  0
LINE
  5
7D
330
22
100
AcDbEntity
  8
0
  6
Continuous
 62
     7
100
AcDbLine
 10
-235.9337768554688
 20
278.36962890625
 30
0.0
 11
-233.9337768554688
 21
278.36962890625
 31
0.0
  0
LINE
  5
7E
330
22
100
AcDbEntity
  8
0
  6
Continuous
 62
     7
100
AcDbLine
 10
-233.9337768554688
 20
264.8679504394531
 30
0.0
 11
-231.9337768554688
 21
264.8679504394531
 31
0.0
  0
LINE
  5
7F
330
22
100
AcDbEntity
  8
0
  6
Continuous
 62
     7
100
AcDbLine
 10
-236.9337768554689
 20
267.8679504394531
 30
0.0
 11
-231.9337768554688
 21
267.8679504394531
 31
0.0
  0
LINE
  5
80
330
22
100
AcDbEntity
  8
0
  6
Continuous
 62
     7
100
AcDbLine
 10
-236.9337768554689
 20
262.6179504394531
 30
0.0
 11
-233.9337768554688
 21
262.6179504394531
 31
0.0
  0
LINE
  5
81
330
22
100
AcDbEntity
  8
0
  6
Continuous
 62
     7
100
AcDbLine
 10
-236.9337768554689
 20
149.3679351806641
 30
0.0
 11
-236.9337768554689
 21
213.3696136474609
 31
0.0
  0
LINE
  5
82
330
22
100
AcDbEntity
  8
0
  6
Continuous
 62
     7
100
AcDbLine
 10
-235.9337768554688
 20
148.3679351806641
 30
0.0
 11
-233.9337768554688
 21
148.3679351806641
 31
0.0
  0
LINE
  5
83
330
22
100
AcDbEntity
  8
0
  6
Continuous
 62
     7
100
AcDbLine
 10
-236.9337768554689
 20
235.5679321289063
 30
0.0
 11
-233.9337768554688
 21
235.5679321289063
 31
0.0
  0
LINE
  5
84
330
22
100
AcDbEntity
  8
0
  6
Continuous
 62
     7
100
AcDbLine
 10
-236.9337768554689
 20
231.0679321289063
 30
0.0
 11
-233.9337768554688
 21
231.0679321289063
 31
0.0
  0
LINE
  5
85
330
22
100
AcDbEntity
  8
0
  6
Continuous
 62
     7
100
AcDbLine
 10
-231.9337768554688
 20
230.8373413085938
 30
0.0
 11
-233.9337768554688
 21
230.8373413085938
 31
0.0
  0
LINE
  5
86
330
22
100
AcDbEntity
  8
0
  6
Continuous
 62
     7
100
AcDbLine
 10
-233.9337768554688
 20
213.3696136474609
 30
0.0
 11
-233.9337768554688
 21
264.8679504394531
 31
0.0
  0
LINE
  5
87
330
22
100
AcDbEntity
  8
0
  6
Continuous
 62
     7
100
AcDbLine
 10
-233.424072265625
 20
267.8679504394531
 30
0.0
 11
-231.9337768554688
 21
266.3776245117188
 31
0.0
  0
LINE
  5
88
330
22
100
AcDbEntity
  8
0
  6
Continuous
 62
     7
100
AcDbLine
 10
-234.1311798095703
 20
267.8679504394531
 30
0.0
 11
-231.9337768554688
 21
265.6705322265625
 31
0.0
  0
LINE
  5
89
330
22
100
AcDbEntity
  8
0
  6
Continuous
 62
     7
100
AcDbLine
 10
-236.2525024414063
 20
267.8679504394531
 30
0.0
 11
-233.2525024414064
 21
264.8679504394531
 31
0.0
  0
LINE
  5
8A
330
22
100
AcDbEntity
  8
0
  6
Continuous
 62
     7
100
AcDbLine
 10
-236.9337768554689
 20
267.8421020507813
 30
0.0
 11
-233.9337768554688
 21
264.8421020507813
 31
0.0
  0
LINE
  5
8B
330
22
100
AcDbEntity
  8
0
  6
Continuous
 62
     7
100
AcDbLine
 10
-236.9337768554689
 20
265.7207946777344
 30
0.0
 11
-233.9337768554688
 21
262.7207946777344
 31
0.0
  0
LINE
  5
8C
330
22
100
AcDbEntity
  8
0
  6
Continuous
 62
     7
100
AcDbLine
 10
-236.9337768554689
 20
265.013671875
 30
0.0
 11
-234.5380401611328
 21
262.6179504394531
 31
0.0
  0
LINE
  5
8D
330
22
100
AcDbEntity
  8
0
  6
Continuous
 62
     7
100
AcDbLine
 10
-236.9337768554689
 20
262.8923645019531
 30
0.0
 11
-236.6593475341797
 21
262.6179504394531
 31
0.0
  0
LINE
  5
8E
330
22
100
AcDbEntity
  8
0
  6
Continuous
 62
     7
100
AcDbLine
 10
-235.0652008056641
 20
235.5679321289063
 30
0.0
 11
-233.9337768554688
 21
234.4365081787109
 31
0.0
  0
LINE
  5
8F
330
22
100
AcDbEntity
  8
0
  6
Continuous
 62
     7
100
AcDbLine
 10
-235.7723083496094
 20
235.5679321289063
 30
0.0
 11
-233.9337768554688
 21
233.7294006347656
 31
0.0
  0
LINE
  5
90
330
22
100
AcDbEntity
  8
0
  6
Continuous
 62
     7
100
AcDbLine
 10
-236.9337768554689
 20
234.6080780029297
 30
0.0
 11
-233.9337768554688
 21
231.6080780029297
 31
0.0
  0
LINE
  5
91
330
22
100
AcDbEntity
  8
0
  6
Continuous
 62
     7
100
AcDbLine
 10
-236.9337768554689
 20
233.9009704589844
 30
0.0
 11
-234.1007385253906
 21
231.0679321289063
 31
0.0
  0
LINE
  5
92
330
22
100
AcDbEntity
  8
0
  6
Continuous
 62
     7
100
AcDbLine
 10
-236.9337768554689
 20
231.7796630859375
 30
0.0
 11
-236.2220458984375
 21
231.0679321289063
 31
0.0
  0
LINE
  5
93
330
22
100
AcDbEntity
  8
0
  6
Continuous
 62
     7
100
AcDbLine
 10
-236.9337768554689
 20
231.0725555419922
 30
0.0
 11
-236.9291534423828
 21
231.0679321289063
 31
0.0
  0
LINE
  5
94
330
22
100
AcDbEntity
  8
0
  6
Continuous
 62
     7
100
AcDbLine
 10
-231.9337768554688
 20
240.8373413085938
 30
0.0
 11
-233.9337768554688
 21
240.8373413085938
 31
0.0
  0
LINE
  5
95
330
22
100
AcDbEntity
  8
0
  6
Continuous
 62
     7
100
AcDbLine
 10
-236.9337768554689
 20
276.0061340332031
 30
0.0
 11
-234.5702819824219
 21
278.36962890625
 31
0.0
  0
LINE
  5
96
330
22
100
AcDbEntity
  8
0
  6
Continuous
 62
     7
100
AcDbLine
 10
-236.9337768554689
 20
273.1777038574219
 30
0.0
 11
-232.9337768554688
 21
277.1777038574219
 31
0.0
  0
LINE
  5
97
330
22
100
AcDbEntity
  8
0
  6
Continuous
 62
     7
100
AcDbLine
 10
-236.9337768554689
 20
270.3492736816406
 30
0.0
 11
-232.9337768554688
 21
274.3492736816406
 31
0.0
  0
LINE
  5
98
330
22
100
AcDbEntity
  8
0
  6
Continuous
 62
     7
100
AcDbLine
 10
-236.0850067138672
 20
268.36962890625
 30
0.0
 11
-232.7014465332031
 21
271.753173828125
 31
0.0
  0
LINE
  5
99
330
22
100
AcDbEntity
  8
0
  6
Continuous
 62
     7
100
AcDbLine
 10
-233.2565765380859
 20
268.36962890625
 30
0.0
 11
-230.2565765380859
 21
271.36962890625
 31
0.0
  0
LINE
  5
9A
330
22
100
AcDbEntity
  8
0
  6
Continuous
 62
     7
100
AcDbLine
 10
-231.9337768554688
 20
266.8639831542969
 30
0.0
 11
-227.44970703125
 21
271.3480529785156
 31
0.0
  0
LINE
  5
9B
330
22
100
AcDbEntity
  8
0
  6
Continuous
 62
     7
100
AcDbLine
 10
-231.0997161865234
 20
264.86962890625
 30
0.0
 11
-225.3053283691406
 21
270.6640014648438
 31
0.0
  0
LINE
  5
9C
330
22
100
AcDbEntity
  8
0
  6
Continuous
 62
     7
100
AcDbLine
 10
-228.2712860107422
 20
264.86962890625
 30
0.0
 11
-223.8166809082031
 21
269.3242492675781
 31
0.0
  0
LINE
  5
9D
330
22
100
AcDbEntity
  8
0
  6
Continuous
 62
     7
100
AcDbLine
 10
-225.7765045166016
 20
264.5359802246094
 30
0.0
 11
-222.7409515380859
 21
267.571533203125
 31
0.0
  0
LINE
  5
9E
330
22
100
AcDbEntity
  8
0
  6
Continuous
 62
     7
100
AcDbLine
 10
-224.0425567626953
 20
263.4414978027344
 30
0.0
 11
-221.7056732177734
 21
265.7783813476563
 31
0.0
  0
LINE
  5
9F
330
22
100
AcDbEntity
  8
0
  6
Continuous
 62
     7
100
AcDbLine
 10
-222.8665466308594
 20
261.7890930175781
 30
0.0
 11
-220.6703948974609
 21
263.9852294921875
 31
0.0
  0
LINE
  5
A0
330
22
100
AcDbEntity
  8
0
  6
Continuous
 62
     7
100
AcDbLine
 10
-221.8312683105469
 20
259.9959411621094
 30
0.0
 11
-219.6351165771484
 21
262.1920776367188
 31
0.0
  0
LINE
  5
A1
330
22
100
AcDbEntity
  8
0
  6
Continuous
 62
     7
100
AcDbLine
 10
-220.7959899902344
 20
258.2027893066406
 30
0.0
 11
-218.5998382568359
 21
260.39892578125
 31
0.0
  0
LINE
  5
A2
330
22
100
AcDbEntity
  8
0
  6
Continuous
 62
     7
100
AcDbLine
 10
-219.7607116699219
 20
256.409637451172
 30
0.0
 11
-217.5645599365234
 21
258.6057739257813
 31
0.0
  0
LINE
  5
A3
330
22
100
AcDbEntity
  8
0
  6
Continuous
 62
     7
100
AcDbLine
 10
-218.7254486083984
 20
254.6164855957031
 30
0.0
 11
-216.529296875
 21
256.8126220703125
 31
0.0
  0
LINE
  5
A4
330
22
100
AcDbEntity
  8
0
  6
Continuous
 62
     7
100
AcDbLine
 10
-217.6901702880859
 20
252.8233337402344
 30
0.0
 11
-215.4940185546875
 21
255.0194854736328
 31
0.0
  0
LINE
  5
A5
330
22
100
AcDbEntity
  8
0
  6
Continuous
 62
     7
100
AcDbLine
 10
-216.6548919677734
 20
251.0301818847656
 30
0.0
 11
-214.458740234375
 21
253.2263336181641
 31
0.0
  0
LINE
  5
A6
330
22
100
AcDbEntity
  8
0
  6
Continuous
 62
     7
100
AcDbLine
 10
-215.6196136474609
 20
249.2370300292969
 30
0.0
 11
-213.4234619140625
 21
251.4331817626953
 31
0.0
  0
LINE
  5
A7
330
22
100
AcDbEntity
  8
0
  6
Continuous
 62
     7
100
AcDbLine
 10
-214.5843353271484
 20
247.4438781738281
 30
0.0
 11
-212.38818359375
 21
249.6400299072266
 31
0.0
  0
LINE
  5
A8
330
22
100
AcDbEntity
  8
0
  6
Continuous
 62
     7
100
AcDbLine
 10
-213.5490570068359
 20
245.6507263183594
 30
0.0
 11
-211.3529052734375
 21
247.8468780517578
 31
0.0
  0
LINE
  5
A9
330
22
100
AcDbEntity
  8
0
  6
Continuous
 62
     7
100
AcDbLine
 10
-212.5137786865234
 20
243.8575744628906
 30
0.0
 11
-210.317626953125
 21
246.0537261962891
 31
0.0
  0
LINE
  5
AA
330
22
100
AcDbEntity
  8
0
  6
Continuous
 62
     7
100
AcDbLine
 10
-211.478515625
 20
242.0644226074219
 30
0.0
 11
-209.2823638916016
 21
244.2605743408203
 31
0.0
  0
LINE
  5
AB
330
22
100
AcDbEntity
  8
0
  6
Continuous
 62
     7
100
AcDbLine
 10
-210.4432373046875
 20
240.2712707519531
 30
0.0
 11
-208.2470855712891
 21
242.4674224853516
 31
0.0
  0
LINE
  5
AC
330
22
100
AcDbEntity
  8
0
  6
Continuous
 62
     7
100
AcDbLine
 10
-209.407958984375
 20
238.4781188964844
 30
0.0
 11
-207.2118072509766
 21
240.6742706298828
 31
0.0
  0
LINE
  5
AD
330
22
100
AcDbEntity
  8
0
  6
Continuous
 62
     7
100
AcDbLine
 10
-208.3726806640625
 20
236.6849670410156
 30
0.0
 11
-206.1765289306641
 21
238.8811187744141
 31
0.0
  0
LINE
  5
AE
330
22
100
AcDbEntity
  8
0
  6
Continuous
 62
     7
100
AcDbLine
 10
-207.33740234375
 20
234.8918151855469
 30
0.0
 11
-205.1412506103516
 21
237.0879669189453
 31
0.0
  0
LINE
  5
AF
330
22
100
AcDbEntity
  8
0
  6
Continuous
 62
     7
100
AcDbLine
 10
-206.3021240234375
 20
233.0986633300781
 30
0.0
 11
-204.0558166503906
 21
235.344970703125
 31
0.0
  0
LINE
  5
B0
330
22
100
AcDbEntity
  8
0
  6
Continuous
 62
     7
100
AcDbLine
 10
-204.9854736328125
 20
231.5868988037109
 30
0.0
 11
-202.2287292480469
 21
234.3436279296875
 31
0.0
  0
LINE
  5
B1
330
22
100
AcDbEntity
  8
0
  6
Continuous
 62
     7
100
AcDbLine
 10
-203.0478363037109
 20
230.6961059570313
 30
0.0
 11
-199.4325866699219
 21
234.3113555908203
 31
0.0
  0
LINE
  5
B2
330
22
100
AcDbEntity
  8
0
  6
Continuous
 62
     7
100
AcDbLine
 10
-200.3583374023438
 20
230.5571899414063
 30
0.0
 11
-197.7639923095703
 21
233.1515197753906
 31
0.0
  0
LINE
  5
B3
330
22
100
AcDbEntity
  8
0
  6
Continuous
 62
     7
100
AcDbLine
 10
-197.5311431884766
 20
230.5559387207031
 30
0.0
 11
-195.2657928466797
 21
232.8213043212891
 31
0.0
  0
LINE
  5
B4
330
22
100
AcDbEntity
  8
0
  6
Continuous
 62
     7
100
AcDbLine
 10
-194.7039489746094
 20
230.5547027587891
 30
0.0
 11
-192.4373626708984
 21
232.8213043212891
 31
0.0
  0
LINE
  5
B5
330
22
100
AcDbEntity
  8
0
  6
Continuous
 62
     7
100
AcDbLine
 10
-191.8767700195313
 20
230.553466796875
 30
0.0
 11
-189.6089324951172
 21
232.8213043212891
 31
0.0
  0
LINE
  5
B6
330
22
100
AcDbEntity
  8
0
  6
Continuous
 62
     7
100
AcDbLine
 10
-189.0495758056641
 20
230.5522308349609
 30
0.0
 11
-186.7805023193359
 21
232.8213043212891
 31
0.0
  0
LINE
  5
B7
330
22
100
AcDbEntity
  8
0
  6
Continuous
 62
     7
100
AcDbLine
 10
-186.2223815917969
 20
230.5509948730469
 30
0.0
 11
-183.9520721435547
 21
232.8213043212891
 31
0.0
  0
LINE
  5
B8
330
22
100
AcDbEntity
  8
0
  6
Continuous
 62
     7
100
AcDbLine
 10
-183.3952026367188
 20
230.5497436523438
 30
0.0
 11
-181.1236572265625
 21
232.8213043212891
 31
0.0
  0
LINE
  5
B9
330
22
100
AcDbEntity
  8
0
  6
Continuous
 62
     7
100
AcDbLine
 10
-180.5680084228516
 20
230.5485076904297
 30
0.0
 11
-178.2952270507813
 21
232.8213043212891
 31
0.0
  0
LINE
  5
BA
330
22
100
AcDbEntity
  8
0
  6
Continuous
 62
     7
100
AcDbLine
 10
-177.7408294677734
 20
230.5472717285156
 30
0.0
 11
-175.466796875
 21
232.8213043212891
 31
0.0
  0
LINE
  5
BB
330
22
100
AcDbEntity
  8
0
  6
Continuous
 62
     7
100
AcDbLine
 10
-174.9136352539063
 20
230.5460357666016
 30
0.0
 11
-172.6383666992188
 21
232.8213043212891
 31
0.0
  0
LINE
  5
BC
330
22
100
AcDbEntity
  8
0
  6
Continuous
 62
     7
100
AcDbLine
 10
-172.0864410400391
 20
230.5447998046875
 30
0.0
 11
-169.8099365234375
 21
232.8213043212891
 31
0.0
  0
LINE
  5
BD
330
22
100
AcDbEntity
  8
0
  6
CENTER
 62
     7
100
AcDbLine
 10
-245.6650238037109
 20
213.3679351806641
 30
0.0
 11
-162.7919464111328
 21
213.3679351806641
 31
0.0
  0
LINE
  5
BE
330
22
100
AcDbEntity
  8
0
  6
Continuous
 62
     7
100
AcDbLine
 10
-236.9337768554689
 20
213.3679351806641
 30
0.0
 11
-236.9337768554689
 21
277.36962890625
 31
0.0
  0
LINE
  5
BF
330
22
100
AcDbEntity
  8
0
  6
Continuous
 62
     7
100
AcDbLine
 10
-168.9337768554688
 20
216.5942840576172
 30
0.0
 11
-168.9337768554688
 21
223.0089721679688
 31
0.0
  0
LINE
  5
C0
330
22
100
AcDbEntity
  8
0
  6
Continuous
 62
     7
100
AcDbLine
 10
-423.6636047363281
 20
251.2320556640625
 30
0.0
 11
-423.6636047363281
 21
217.7124481201172
 31
0.0
  0
LINE
  5
C1
330
22
100
AcDbEntity
  8
0
  6
Continuous
 62
     7
100
AcDbLine
 10
-435.78076171875
 20
240.4337463378906
 30
0.0
 11
-435.4290161132813
 21
237.653076171875
 31
0.0
  0
LINE
  5
C2
330
22
100
AcDbEntity
  8
0
  6
Continuous
 62
     7
100
AcDbLine
 10
-435.78076171875
 20
240.4337463378906
 30
0.0
 11
-435.4290161132813
 21
237.653076171875
 31
0.0
  0
LINE
  5
C3
330
22
100
AcDbEntity
  8
0
  6
Continuous
 62
     7
100
AcDbLine
 10
-435.0377197265625
 20
240.6328277587891
 30
0.0
 11
-433.9519958496094
 21
238.0488433837891
 31
0.0
  0
LINE
  5
C4
330
22
100
AcDbEntity
  8
0
  6
Continuous
 62
     7
100
AcDbLine
 10
-414.1636047363281
 20
257.271728515625
 30
0.0
 11
-414.1636047363281
 21
233.5871734619141
 31
0.0
  0
LINE
  5
C5
330
22
100
AcDbEntity
  8
0
  6
Continuous
 62
     7
100
AcDbLine
 10
-435.0377197265625
 20
240.6328277587891
 30
0.0
 11
-433.9519958496094
 21
238.0488433837891
 31
0.0
  0
LINE
  5
C6
330
22
100
AcDbEntity
  8
0
  6
Continuous
 62
     7
100
AcDbLine
 10
-395.1636047363281
 20
237.6624450683594
 30
0.0
 11
-395.1636047363281
 21
262.1489562988281
 31
0.0
  0
LINE
  5
C7
330
22
100
AcDbEntity
  8
0
  6
Continuous
 62
     7
100
AcDbLine
 10
-390.1636047363281
 20
237.6624450683594
 30
0.0
 11
-390.1636047363281
 21
262.1489562988281
 31
0.0
  0
LINE
  5
C8
330
22
100
AcDbEntity
  8
0
  6
Continuous
 62
     7
100
AcDbLine
 10
-399.6636047363281
 20
261.7124633789063
 30
0.0
 11
-399.6636047363281
 21
217.7124481201172
 31
0.0
  0
LINE
  5
C9
330
22
100
AcDbEntity
  8
0
  6
Continuous
 62
     7
100
AcDbLine
 10
-409.1508789062499
 20
259.3707885742188
 30
0.0
 11
-409.1763610839843
 21
233.5871734619141
 31
0.0
  0
LINE
  5
CA
330
22
100
AcDbEntity
  8
0
  6
Continuous
 62
     7
100
AcDbLine
 10
-404.6636047363281
 20
260.7281494140625
 30
0.0
 11
-404.6636047363281
 21
217.7124481201172
 31
0.0
  0
LINE
  5
CB
330
22
100
AcDbEntity
  8
0
  6
Continuous
 62
     7
100
AcDbLine
 10
-380.6636047363281
 20
260.7281494140625
 30
0.0
 11
-380.6636047363281
 21
217.7124481201172
 31
0.0
  0
LINE
  5
CC
330
22
100
AcDbEntity
  8
0
  6
Continuous
 62
     7
100
AcDbLine
 10
-435.4092407226563
 20
240.5332794189453
 30
0.0
 11
-435.0377197265625
 21
240.6328277587891
 31
0.0
  0
LINE
  5
CD
330
22
100
AcDbEntity
  8
0
  6
Continuous
 62
     7
100
AcDbLine
 10
-376.1636047363281
 20
233.5871734619141
 30
0.0
 11
-376.1763610839844
 21
259.3707885742188
 31
0.0
  0
LINE
  5
CE
330
22
100
AcDbEntity
  8
0
  6
Continuous
 62
     7
100
AcDbLine
 10
-371.1636047363281
 20
257.271728515625
 30
0.0
 11
-371.1636047363281
 21
233.5871734619141
 31
0.0
  0
LINE
  5
CF
330
22
100
AcDbEntity
  8
0
  6
Continuous
 62
     7
100
AcDbLine
 10
-437.7937927246093
 20
235.8300170898438
 30
0.0
 11
-437.8932800292968
 21
236.2012481689453
 31
0.0
  0
LINE
  5
D0
330
22
100
AcDbEntity
  8
0
  6
Continuous
 62
     7
100
AcDbLine
 10
-431.1914672851563
 20
238.3948822021484
 30
0.0
 11
-433.9519958496094
 21
238.0488433837891
 31
0.0
  0
LINE
  5
D1
330
22
100
AcDbEntity
  8
0
  6
Continuous
 62
     7
100
AcDbLine
 10
-437.7937927246093
 20
235.8300170898438
 30
0.0
 11
-435.0332641601562
 21
236.1760559082031
 31
0.0
  0
LINE
  5
D2
330
22
100
AcDbEntity
  8
0
  6
Continuous
 62
     7
100
AcDbLine
 10
-437.9927368164063
 20
236.5724792480469
 30
0.0
 11
-437.8932800292968
 21
236.2012481689453
 31
0.0
  0
LINE
  5
D3
330
22
100
AcDbEntity
  8
0
  6
Continuous
 62
     7
100
AcDbLine
 10
-437.7937927246093
 20
235.8300170898438
 30
0.0
 11
-435.0332641601562
 21
236.1760559082031
 31
0.0
  0
LINE
  5
D4
330
22
100
AcDbEntity
  8
0
  6
Continuous
 62
     7
100
AcDbLine
 10
-437.9927368164063
 20
236.5724792480469
 30
0.0
 11
-435.4290161132813
 21
237.653076171875
 31
0.0
  0
LINE
  5
D5
330
22
100
AcDbEntity
  8
0
  6
Continuous
 62
     7
100
AcDbLine
 10
-431.1914672851563
 20
238.3948822021484
 30
0.0
 11
-431.0920104980469
 21
238.0236511230469
 31
0.0
  0
LINE
  5
D6
330
22
100
AcDbEntity
  8
0
  6
Continuous
 62
     7
100
AcDbLine
 10
-437.7937927246093
 20
235.8300170898438
 30
0.0
 11
-437.8932800292968
 21
236.2012481689453
 31
0.0
  0
LINE
  5
D7
330
22
100
AcDbEntity
  8
0
  6
Continuous
 62
     7
100
AcDbLine
 10
-430.9925231933593
 20
237.6524200439453
 30
0.0
 11
-431.0920104980469
 21
238.0236511230469
 31
0.0
  0
LINE
  5
D8
330
22
100
AcDbEntity
  8
0
  6
Continuous
 62
     7
100
AcDbLine
 10
-433.5760192871093
 20
233.6916198730469
 30
0.0
 11
-433.2044982910156
 21
233.7911529541016
 31
0.0
  0
LINE
  5
D9
330
22
100
AcDbEntity
  8
0
  6
Continuous
 62
     7
100
AcDbLine
 10
-433.2044982910156
 20
233.7911529541016
 30
0.0
 11
-433.5562438964843
 21
236.5718231201172
 31
0.0
  0
LINE
  5
DA
330
22
100
AcDbEntity
  8
0
  6
Continuous
 62
     7
100
AcDbLine
 10
-433.9475402832031
 20
233.5920715332031
 30
0.0
 11
-435.0332641601562
 21
236.1760559082031
 31
0.0
  0
LINE
  5
DB
330
22
100
AcDbEntity
  8
0
  6
Continuous
 62
     7
100
AcDbLine
 10
-433.2044982910156
 20
233.7911529541016
 30
0.0
 11
-433.5562438964843
 21
236.5718231201172
 31
0.0
  0
LINE
  5
DC
330
22
100
AcDbEntity
  8
0
  6
Continuous
 62
     7
100
AcDbLine
 10
-433.5760192871093
 20
233.6916198730469
 30
0.0
 11
-433.9475402832031
 21
233.5920715332031
 31
0.0
  0
LINE
  5
DD
330
22
100
AcDbEntity
  8
0
  6
Continuous
 62
     7
100
AcDbLine
 10
-433.9475402832031
 20
233.5920715332031
 30
0.0
 11
-435.0332641601562
 21
236.1760559082031
 31
0.0
  0
LINE
  5
DE
330
22
100
AcDbEntity
  8
0
  6
Continuous
 62
     7
100
AcDbLine
 10
-435.4092407226563
 20
240.5332794189453
 30
0.0
 11
-435.78076171875
 21
240.4337463378906
 31
0.0
  0
LINE
  5
DF
330
22
100
AcDbEntity
  8
0
  6
Continuous
 62
     7
100
AcDbLine
 10
-435.4092407226563
 20
240.5332794189453
 30
0.0
 11
-435.78076171875
 21
240.4337463378906
 31
0.0
  0
LINE
  5
E0
330
22
100
AcDbEntity
  8
0
  6
Continuous
 62
     7
100
AcDbLine
 10
-435.4092407226563
 20
240.5332794189453
 30
0.0
 11
-435.0377197265625
 21
240.6328277587891
 31
0.0
  0
LINE
  5
E1
330
22
100
AcDbEntity
  8
0
  6
Continuous
 62
     7
100
AcDbLine
 10
-385.6636047363281
 20
261.7124633789063
 30
0.0
 11
-385.6636047363281
 21
217.7124481201172
 31
0.0
  0
LINE
  5
E2
330
22
100
AcDbEntity
  8
0
  6
Continuous
 62
     7
100
AcDbLine
 10
-418.6636047363281
 20
254.7902221679688
 30
0.0
 11
-418.6636047363281
 21
217.7124481201172
 31
0.0
  0
LINE
  5
E3
330
22
100
AcDbEntity
  8
0
  6
Continuous
 62
     7
100
AcDbLine
 10
-361.6636047363281
 20
251.2320556640625
 30
0.0
 11
-361.6636047363281
 21
217.5914459228516
 31
0.0
  0
LINE
  5
E4
330
22
100
AcDbEntity
  8
0
  6
Continuous
 62
     7
100
AcDbLine
 10
-390.1636047363281
 20
228.1624450683594
 30
0.0
 11
-390.1636047363281
 21
221.6624450683594
 31
0.0
  0
LINE
  5
E5
330
22
100
AcDbEntity
  8
0
  6
Continuous
 62
     7
100
AcDbLine
 10
-395.1636047363281
 20
228.1624450683594
 30
0.0
 11
-395.1636047363281
 21
221.6624450683594
 31
0.0
  0
LINE
  5
E6
330
22
100
AcDbEntity
  8
0
  6
Continuous
 62
     7
100
AcDbLine
 10
-433.5760192871093
 20
233.6916198730469
 30
0.0
 11
-433.2044982910156
 21
233.7911529541016
 31
0.0
  0
LINE
  5
E7
330
22
100
AcDbEntity
  8
0
  6
Continuous
 62
     7
100
AcDbLine
 10
-430.9925231933593
 20
237.6524200439453
 30
0.0
 11
-431.0920104980469
 21
238.0236511230469
 31
0.0
  0
LINE
  5
E8
330
22
100
AcDbEntity
  8
0
  6
Continuous
 62
     7
100
AcDbLine
 10
-430.9925231933593
 20
237.6524200439453
 30
0.0
 11
-433.5562438964843
 21
236.5718231201172
 31
0.0
  0
LINE
  5
E9
330
22
100
AcDbEntity
  8
0
  6
Continuous
 62
     7
100
AcDbLine
 10
-437.9927368164063
 20
236.5724792480469
 30
0.0
 11
-437.8932800292968
 21
236.2012481689453
 31
0.0
  0
LINE
  5
EA
330
22
100
AcDbEntity
  8
0
  6
Continuous
 62
     7
100
AcDbLine
 10
-431.1914672851563
 20
238.3948822021484
 30
0.0
 11
-431.0920104980469
 21
238.0236511230469
 31
0.0
  0
LINE
  5
EB
330
22
100
AcDbEntity
  8
0
  6
Continuous
 62
     7
100
AcDbLine
 10
-430.9925231933593
 20
237.6524200439453
 30
0.0
 11
-433.5562438964843
 21
236.5718231201172
 31
0.0
  0
LINE
  5
EC
330
22
100
AcDbEntity
  8
0
  6
Continuous
 62
     7
100
AcDbLine
 10
-431.1914672851563
 20
238.3948822021484
 30
0.0
 11
-433.9519958496094
 21
238.0488433837891
 31
0.0
  0
LINE
  5
ED
330
22
100
AcDbEntity
  8
0
  6
Continuous
 62
     7
100
AcDbLine
 10
-437.9927368164063
 20
236.5724792480469
 30
0.0
 11
-435.4290161132813
 21
237.653076171875
 31
0.0
  0
LINE
  5
EE
330
22
100
AcDbEntity
  8
0
  6
Continuous
 62
     7
100
AcDbLine
 10
-433.5760192871093
 20
233.6916198730469
 30
0.0
 11
-433.9475402832031
 21
233.5920715332031
 31
0.0
  0
LINE
  5
EF
330
22
100
AcDbEntity
  8
0
  6
Continuous
 62
     7
100
AcDbLine
 10
-347.4137573242188
 20
236.1958312988281
 30
0.0
 11
-347.314208984375
 21
236.5673522949219
 31
0.0
  0
LINE
  5
F0
330
22
100
AcDbEntity
  8
0
  6
Continuous
 62
     7
100
AcDbLine
 10
-347.4137573242188
 20
236.1958312988281
 30
0.0
 11
-347.5133056640625
 21
235.8243255615234
 31
0.0
  0
LINE
  5
F1
330
22
100
AcDbEntity
  8
0
  6
Continuous
 62
     7
100
AcDbLine
 10
-347.4137573242188
 20
236.1958312988281
 30
0.0
 11
-347.314208984375
 21
236.5673522949219
 31
0.0
  0
LINE
  5
F2
330
22
100
AcDbEntity
  8
0
  6
Continuous
 62
     7
100
AcDbLine
 10
-347.314208984375
 20
236.5673522949219
 30
0.0
 11
-349.898193359375
 21
237.653076171875
 31
0.0
  0
LINE
  5
F3
330
22
100
AcDbEntity
  8
0
  6
Continuous
 62
     7
100
AcDbLine
 10
-354.1558837890625
 20
238.4005737304689
 30
0.0
 11
-351.3752136230469
 21
238.0488433837891
 31
0.0
  0
LINE
  5
F4
330
22
100
AcDbEntity
  8
0
  6
Continuous
 62
     7
100
AcDbLine
 10
-354.3549499511719
 20
237.6575469970703
 30
0.0
 11
-351.7709655761719
 21
236.5718231201172
 31
0.0
  0
LINE
  5
F5
330
22
100
AcDbEntity
  8
0
  6
Continuous
 62
     7
100
AcDbLine
 10
-354.2554016113281
 20
238.029052734375
 30
0.0
 11
-354.3549499511719
 21
237.6575469970703
 31
0.0
  0
LINE
  5
F6
330
22
100
AcDbEntity
  8
0
  6
Continuous
 62
     7
100
AcDbLine
 10
-354.2554016113281
 20
238.029052734375
 30
0.0
 11
-354.1558837890625
 21
238.4005737304689
 31
0.0
  0
LINE
  5
F7
330
22
100
AcDbEntity
  8
0
  6
Continuous
 62
     7
100
AcDbLine
 10
-354.3549499511719
 20
237.6575469970703
 30
0.0
 11
-351.7709655761719
 21
236.5718231201172
 31
0.0
  0
LINE
  5
F8
330
22
100
AcDbEntity
  8
0
  6
Continuous
 62
     7
100
AcDbLine
 10
-354.2554016113281
 20
238.029052734375
 30
0.0
 11
-354.3549499511719
 21
237.6575469970703
 31
0.0
  0
LINE
  5
F9
330
22
100
AcDbEntity
  8
0
  6
Continuous
 62
     7
100
AcDbLine
 10
-354.1558837890625
 20
238.4005737304689
 30
0.0
 11
-351.3752136230469
 21
238.0488433837891
 31
0.0
  0
LINE
  5
FA
330
22
100
AcDbEntity
  8
0
  6
Continuous
 62
     7
100
AcDbLine
 10
-354.2554016113281
 20
238.029052734375
 30
0.0
 11
-354.1558837890625
 21
238.4005737304689
 31
0.0
  0
LINE
  5
FB
330
22
100
AcDbEntity
  8
0
  6
Continuous
 62
     7
100
AcDbLine
 10
-349.5521545410156
 20
240.4136047363281
 30
0.0
 11
-349.9233703613281
 21
240.5130767822266
 31
0.0
  0
LINE
  5
FC
330
22
100
AcDbEntity
  8
0
  6
Continuous
 62
     7
100
AcDbLine
 10
-366.6636047363281
 20
254.7902221679688
 30
0.0
 11
-366.6636047363281
 21
217.5914459228516
 31
0.0
  0
LINE
  5
FD
330
22
100
AcDbEntity
  8
0
  6
Continuous
 62
     7
100
AcDbLine
 10
-350.2946166992188
 20
240.612548828125
 30
0.0
 11
-349.9233703613281
 21
240.5130767822266
 31
0.0
  0
LINE
  5
FE
330
22
100
AcDbEntity
  8
0
  6
Continuous
 62
     7
100
AcDbLine
 10
-349.5521545410156
 20
240.4136047363281
 30
0.0
 11
-349.898193359375
 21
237.653076171875
 31
0.0
  0
LINE
  5
FF
330
22
100
AcDbEntity
  8
0
  6
Continuous
 62
     7
100
AcDbLine
 10
-350.2946166992188
 20
240.612548828125
 30
0.0
 11
-351.3752136230469
 21
238.0488433837891
 31
0.0
  0
LINE
  5
100
330
22
100
AcDbEntity
  8
0
  6
Continuous
 62
     7
100
AcDbLine
 10
-349.5521545410156
 20
240.4136047363281
 30
0.0
 11
-349.9233703613281
 21
240.5130767822266
 31
0.0
  0
LINE
  5
101
330
22
100
AcDbEntity
  8
0
  6
Continuous
 62
     7
100
AcDbLine
 10
-349.5521545410156
 20
240.4136047363281
 30
0.0
 11
-349.898193359375
 21
237.653076171875
 31
0.0
  0
LINE
  5
102
330
22
100
AcDbEntity
  8
0
  6
Continuous
 62
     7
100
AcDbLine
 10
-350.2946166992188
 20
240.612548828125
 30
0.0
 11
-351.3752136230469
 21
238.0488433837891
 31
0.0
  0
LINE
  5
103
330
22
100
AcDbEntity
  8
0
  6
Continuous
 62
     7
100
AcDbLine
 10
-350.2946166992188
 20
240.612548828125
 30
0.0
 11
-349.9233703613281
 21
240.5130767822266
 31
0.0
  0
LINE
  5
104
330
22
100
AcDbEntity
  8
0
  6
Continuous
 62
     7
100
AcDbLine
 10
-380.6636047363281
 20
165.1967468261719
 30
0.0
 11
-380.6636047363281
 21
208.2124481201172
 31
0.0
  0
LINE
  5
105
330
22
100
AcDbEntity
  8
0
  6
Continuous
 62
     7
100
AcDbLine
 10
-371.1636047363281
 20
168.6531677246094
 30
0.0
 11
-371.1636047363281
 21
192.3377380371094
 31
0.0
  0
LINE
  5
106
330
22
100
AcDbEntity
  8
0
  6
Continuous
 62
     7
100
AcDbLine
 10
-376.1636047363281
 20
192.3377380371094
 30
0.0
 11
-376.1763610839844
 21
166.5541229248047
 31
0.0
  0
LINE
  5
107
330
22
100
AcDbEntity
  8
0
  6
Continuous
 62
     7
100
AcDbLine
 10
-347.5133056640625
 20
235.8243255615234
 30
0.0
 11
-350.2939453125
 21
236.1760559082031
 31
0.0
  0
LINE
  5
108
330
22
100
AcDbEntity
  8
0
  6
Continuous
 62
     7
100
AcDbLine
 10
-351.3745422363281
 20
233.6123504638672
 30
0.0
 11
-351.7457885742188
 21
233.7118225097656
 31
0.0
  0
LINE
  5
109
330
22
100
AcDbEntity
  8
0
  6
Continuous
 62
     7
100
AcDbLine
 10
-351.3745422363281
 20
233.6123504638672
 30
0.0
 11
-350.2939453125
 21
236.1760559082031
 31
0.0
  0
LINE
  5
10A
330
22
100
AcDbEntity
  8
0
  6
Continuous
 62
     7
100
AcDbLine
 10
-347.5133056640625
 20
235.8243255615234
 30
0.0
 11
-350.2939453125
 21
236.1760559082031
 31
0.0
  0
LINE
  5
10B
330
22
100
AcDbEntity
  8
0
  6
Continuous
 62
     7
100
AcDbLine
 10
-352.1170043945313
 20
233.8112945556641
 30
0.0
 11
-351.7457885742188
 21
233.7118225097656
 31
0.0
  0
LINE
  5
10C
330
22
100
AcDbEntity
  8
0
  6
Continuous
 62
     7
100
AcDbLine
 10
-352.1170043945313
 20
233.8112945556641
 30
0.0
 11
-351.7457885742188
 21
233.7118225097656
 31
0.0
  0
LINE
  5
10D
330
22
100
AcDbEntity
  8
0
  6
Continuous
 62
     7
100
AcDbLine
 10
-352.1170043945313
 20
233.8112945556641
 30
0.0
 11
-351.7709655761719
 21
236.5718231201172
 31
0.0
  0
LINE
  5
10E
330
22
100
AcDbEntity
  8
0
  6
Continuous
 62
     7
100
AcDbLine
 10
-352.1170043945313
 20
233.8112945556641
 30
0.0
 11
-351.7709655761719
 21
236.5718231201172
 31
0.0
  0
LINE
  5
10F
330
22
100
AcDbEntity
  8
0
  6
Continuous
 62
     7
100
AcDbLine
 10
-347.314208984375
 20
236.5673522949219
 30
0.0
 11
-349.898193359375
 21
237.653076171875
 31
0.0
  0
LINE
  5
110
330
22
100
AcDbEntity
  8
0
  6
Continuous
 62
     7
100
AcDbLine
 10
-351.3745422363281
 20
233.6123504638672
 30
0.0
 11
-351.7457885742188
 21
233.7118225097656
 31
0.0
  0
LINE
  5
111
330
22
100
AcDbEntity
  8
0
  6
Continuous
 62
     7
100
AcDbLine
 10
-351.3745422363281
 20
233.6123504638672
 30
0.0
 11
-350.2939453125
 21
236.1760559082031
 31
0.0
  0
LINE
  5
112
330
22
100
AcDbEntity
  8
0
  6
Continuous
 62
     7
100
AcDbLine
 10
-347.4137573242188
 20
236.1958312988281
 30
0.0
 11
-347.5133056640625
 21
235.8243255615234
 31
0.0
  0
LINE
  5
113
330
22
100
AcDbEntity
  8
0
  6
Continuous
 62
     7
100
AcDbLine
 10
-390.4313354492188
 20
167.4386444091797
 30
0.0
 11
-392.6636047363281
 21
165.7436981201172
 31
0.0
  0
LINE
  5
114
330
22
100
AcDbEntity
  8
0
  6
Continuous
 62
     7
100
AcDbLine
 10
-389.9024047851563
 20
162.4447784423828
 30
0.0
 11
-391.5823669433594
 21
164.6624450683594
 31
0.0
  0
LINE
  5
115
330
22
100
AcDbEntity
  8
0
  6
Continuous
 62
     7
100
AcDbLine
 10
-390.4459228515625
 20
161.9012451171875
 30
0.0
 11
-392.6636047363281
 21
163.5812072753906
 31
0.0
  0
LINE
  5
116
330
22
100
AcDbEntity
  8
0
  6
Continuous
 62
     7
100
AcDbLine
 10
-394.8958740234375
 20
161.8862609863281
 30
0.0
 11
-392.6636047363281
 21
163.5812072753906
 31
0.0
  0
LINE
  5
117
330
22
100
AcDbEntity
  8
0
  6
Continuous
 62
     7
100
AcDbLine
 10
-395.1678466796875
 20
162.1582183837891
 30
0.0
 11
-394.8958740234375
 21
161.8862609863281
 31
0.0
  0
LINE
  5
118
330
22
100
AcDbEntity
  8
0
  6
Continuous
 62
     7
100
AcDbLine
 10
-389.9024047851563
 20
162.4447784423828
 30
0.0
 11
-390.1741638183594
 21
162.1730194091797
 31
0.0
  0
LINE
  5
119
330
22
100
AcDbEntity
  8
0
  6
Continuous
 62
     7
100
AcDbLine
 10
-385.6636047363281
 20
164.2124481201172
 30
0.0
 11
-385.6636047363281
 21
208.2124481201172
 31
0.0
  0
LINE
  5
11A
330
22
100
AcDbEntity
  8
0
  6
Continuous
 62
     7
100
AcDbLine
 10
-428.1636047363281
 20
198.2029113769531
 30
0.0
 11
-428.1636047363281
 21
178.8257751464844
 31
0.0
  0
LINE
  5
11B
330
22
100
AcDbEntity
  8
0
  6
Continuous
 62
     7
100
AcDbLine
 10
-433.1696166992188
 20
198.2029113769531
 30
0.0
 11
-433.1636047363281
 21
184.9390258789063
 31
0.0
  0
LINE
  5
11C
330
22
100
AcDbEntity
  8
0
  6
Continuous
 62
     7
100
AcDbLine
 10
-418.6636047363281
 20
171.1346740722656
 30
0.0
 11
-418.6636047363281
 21
208.2124481201172
 31
0.0
  0
LINE
  5
11D
330
22
100
AcDbEntity
  8
0
  6
Continuous
 62
     7
100
AcDbLine
 10
-423.6636047363281
 20
174.6928405761719
 30
0.0
 11
-423.6636047363281
 21
208.2124481201172
 31
0.0
  0
LINE
  5
11E
330
22
100
AcDbEntity
  8
0
  6
Continuous
 62
     7
100
AcDbLine
 10
-404.6636047363281
 20
165.1967468261719
 30
0.0
 11
-404.6636047363281
 21
208.2124481201172
 31
0.0
  0
LINE
  5
11F
330
22
100
AcDbEntity
  8
0
  6
Continuous
 62
     7
100
AcDbLine
 10
-409.1508789062499
 20
166.5541229248047
 30
0.0
 11
-409.1763610839843
 21
192.3377380371094
 31
0.0
  0
LINE
  5
120
330
22
100
AcDbEntity
  8
0
  6
Continuous
 62
     7
100
AcDbLine
 10
-414.1636047363281
 20
168.6531677246094
 30
0.0
 11
-414.1636047363281
 21
192.3377380371094
 31
0.0
  0
LINE
  5
121
330
22
100
AcDbEntity
  8
0
  6
Continuous
 62
     7
100
AcDbLine
 10
-399.6636047363281
 20
164.2124481201172
 30
0.0
 11
-399.6636047363281
 21
208.2124481201172
 31
0.0
  0
LINE
  5
122
330
22
100
AcDbEntity
  8
0
  6
Continuous
 62
     7
100
AcDbLine
 10
-395.4248046875
 20
166.880126953125
 30
0.0
 11
-395.1530456542969
 21
167.1518859863281
 31
0.0
  0
LINE
  5
123
330
22
100
AcDbEntity
  8
0
  6
Continuous
 62
     7
100
AcDbLine
 10
-395.4248046875
 20
166.880126953125
 30
0.0
 11
-395.1530456542969
 21
167.1518859863281
 31
0.0
  0
LINE
  5
124
330
22
100
AcDbEntity
  8
0
  6
Continuous
 62
     7
100
AcDbLine
 10
-390.4313354492188
 20
167.4386444091797
 30
0.0
 11
-392.6636047363281
 21
165.7436981201172
 31
0.0
  0
LINE
  5
125
330
22
100
AcDbEntity
  8
0
  6
Continuous
 62
     7
100
AcDbLine
 10
-389.8874206542969
 20
166.8947143554688
 30
0.0
 11
-391.5823669433594
 21
164.6624450683594
 31
0.0
  0
LINE
  5
126
330
22
100
AcDbEntity
  8
0
  6
Continuous
 62
     7
100
AcDbLine
 10
-395.1678466796875
 20
162.1582183837891
 30
0.0
 11
-394.8958740234375
 21
161.8862609863281
 31
0.0
  0
LINE
  5
127
330
22
100
AcDbEntity
  8
0
  6
Continuous
 62
     7
100
AcDbLine
 10
-395.1678466796875
 20
162.1582183837891
 30
0.0
 11
-395.4397888183594
 21
162.4301910400391
 31
0.0
  0
LINE
  5
128
330
22
100
AcDbEntity
  8
0
  6
Continuous
 62
     7
100
AcDbLine
 10
-395.4248046875
 20
166.880126953125
 30
0.0
 11
-393.7448425292969
 21
164.6624450683594
 31
0.0
  0
LINE
  5
129
330
22
100
AcDbEntity
  8
0
  6
Continuous
 62
     7
100
AcDbLine
 10
-389.9024047851563
 20
162.4447784423828
 30
0.0
 11
-390.1741638183594
 21
162.1730194091797
 31
0.0
  0
LINE
  5
12A
330
22
100
AcDbEntity
  8
0
  6
Continuous
 62
     7
100
AcDbLine
 10
-390.4459228515625
 20
161.9012451171875
 30
0.0
 11
-390.1741638183594
 21
162.1730194091797
 31
0.0
  0
LINE
  5
12B
330
22
100
AcDbEntity
  8
0
  6
Continuous
 62
     7
100
AcDbLine
 10
-395.4397888183594
 20
162.4301910400391
 30
0.0
 11
-393.7448425292969
 21
164.6624450683594
 31
0.0
  0
LINE
  5
12C
330
22
100
AcDbEntity
  8
0
  6
Continuous
 62
     7
100
AcDbLine
 10
-394.8958740234375
 20
161.8862609863281
 30
0.0
 11
-392.6636047363281
 21
163.5812072753906
 31
0.0
  0
LINE
  5
12D
330
22
100
AcDbEntity
  8
0
  6
Continuous
 62
     7
100
AcDbLine
 10
-390.4459228515625
 20
161.9012451171875
 30
0.0
 11
-392.6636047363281
 21
163.5812072753906
 31
0.0
  0
LINE
  5
12E
330
22
100
AcDbEntity
  8
0
  6
Continuous
 62
     7
100
AcDbLine
 10
-390.4459228515625
 20
161.9012451171875
 30
0.0
 11
-390.1741638183594
 21
162.1730194091797
 31
0.0
  0
LINE
  5
12F
330
22
100
AcDbEntity
  8
0
  6
Continuous
 62
     7
100
AcDbLine
 10
-389.8874206542969
 20
166.8947143554688
 30
0.0
 11
-391.5823669433594
 21
164.6624450683594
 31
0.0
  0
LINE
  5
130
330
22
100
AcDbEntity
  8
0
  6
Continuous
 62
     7
100
AcDbLine
 10
-390.1593933105469
 20
167.1666717529297
 30
0.0
 11
-389.8874206542969
 21
166.8947143554688
 31
0.0
  0
LINE
  5
131
330
22
100
AcDbEntity
  8
0
  6
Continuous
 62
     7
100
AcDbLine
 10
-390.1593933105469
 20
167.1666717529297
 30
0.0
 11
-390.4313354492188
 21
167.4386444091797
 31
0.0
  0
LINE
  5
132
330
22
100
AcDbEntity
  8
0
  6
Continuous
 62
     7
100
AcDbLine
 10
-390.1593933105469
 20
167.1666717529297
 30
0.0
 11
-390.4313354492188
 21
167.4386444091797
 31
0.0
  0
LINE
  5
133
330
22
100
AcDbEntity
  8
0
  6
Continuous
 62
     7
100
AcDbLine
 10
-390.1593933105469
 20
167.1666717529297
 30
0.0
 11
-389.8874206542969
 21
166.8947143554688
 31
0.0
  0
LINE
  5
134
330
22
100
AcDbEntity
  8
0
  6
Continuous
 62
     7
100
AcDbLine
 10
-394.8812866210938
 20
167.4236450195313
 30
0.0
 11
-392.6636047363281
 21
165.7436981201172
 31
0.0
  0
LINE
  5
135
330
22
100
AcDbEntity
  8
0
  6
Continuous
 62
     7
100
AcDbLine
 10
-357.1636047363281
 20
198.2029113769531
 30
0.0
 11
-357.1636047363281
 21
178.8257751464844
 31
0.0
  0
LINE
  5
136
330
22
100
AcDbEntity
  8
0
  6
Continuous
 62
     7
100
AcDbLine
 10
-366.6636047363281
 20
171.1346740722656
 30
0.0
 11
-366.6636047363281
 21
208.0914459228516
 31
0.0
  0
LINE
  5
137
330
22
100
AcDbEntity
  8
0
  6
Continuous
 62
     7
100
AcDbLine
 10
-361.6636047363281
 20
174.6928405761719
 30
0.0
 11
-361.6636047363281
 21
208.0914459228516
 31
0.0
  0
LINE
  5
138
330
22
100
AcDbEntity
  8
0
  6
Continuous
 62
     7
100
AcDbLine
 10
-352.1575927734375
 20
198.2029113769531
 30
0.0
 11
-352.1636047363281
 21
184.9390258789063
 31
0.0
  0
LINE
  5
139
330
22
100
AcDbEntity
  8
0
  6
Continuous
 62
     7
100
AcDbLine
 10
-389.9024047851563
 20
162.4447784423828
 30
0.0
 11
-391.5823669433594
 21
164.6624450683594
 31
0.0
  0
LINE
  5
13A
330
22
100
AcDbEntity
  8
0
  6
Continuous
 62
     7
100
AcDbLine
 10
-394.8812866210938
 20
167.4236450195313
 30
0.0
 11
-395.1530456542969
 21
167.1518859863281
 31
0.0
  0
LINE
  5
13B
330
22
100
AcDbEntity
  8
0
  6
Continuous
 62
     7
100
AcDbLine
 10
-390.1636047363281
 20
188.262451171875
 30
0.0
 11
-390.1636047363281
 21
172.57568359375
 31
0.0
  0
LINE
  5
13C
330
22
100
AcDbEntity
  8
0
  6
Continuous
 62
     7
100
AcDbLine
 10
-395.1636047363281
 20
188.262451171875
 30
0.0
 11
-395.1636047363281
 21
172.57568359375
 31
0.0
  0
LINE
  5
13D
330
22
100
AcDbEntity
  8
0
  6
Continuous
 62
     7
100
AcDbLine
 10
-394.8812866210938
 20
167.4236450195313
 30
0.0
 11
-395.1530456542969
 21
167.1518859863281
 31
0.0
  0
LINE
  5
13E
330
22
100
AcDbEntity
  8
0
  6
Continuous
 62
     7
100
AcDbLine
 10
-395.1678466796875
 20
162.1582183837891
 30
0.0
 11
-395.4397888183594
 21
162.4301910400391
 31
0.0
  0
LINE
  5
13F
330
22
100
AcDbEntity
  8
0
  6
Continuous
 62
     7
100
AcDbLine
 10
-394.8812866210938
 20
167.4236450195313
 30
0.0
 11
-392.6636047363281
 21
165.7436981201172
 31
0.0
  0
LINE
  5
140
330
22
100
AcDbEntity
  8
0
  6
Continuous
 62
     7
100
AcDbLine
 10
-395.4248046875
 20
166.880126953125
 30
0.0
 11
-393.7448425292969
 21
164.6624450683594
 31
0.0
  0
LINE
  5
141
330
22
100
AcDbEntity
  8
0
  6
Continuous
 62
     7
100
AcDbLine
 10
-395.4397888183594
 20
162.4301910400391
 30
0.0
 11
-393.7448425292969
 21
164.6624450683594
 31
0.0
  0
LINE
  5
142
330
22
100
AcDbEntity
  8
0
  6
CENTER
 62
     7
100
AcDbLine
 10
-321.144287109375
 20
213.3679351806641
 30
0.0
 11
-463.8620910644531
 21
213.3679351806641
 31
0.0
  0
LINE
  5
143
330
22
100
AcDbEntity
  8
0
  6
Continuous
 62
     7
100
AcDbLine
 10
-352.1508483886719
 20
229.7156066894531
 30
0.0
 11
-352.1532897949219
 21
207.7029113769531
 31
0.0
  0
LINE
  5
144
330
22
100
AcDbEntity
  8
0
  6
Continuous
 62
     7
100
AcDbLine
 10
-357.16357421875
 20
229.7029113769531
 30
0.0
 11
-357.1636047363281
 21
207.7029113769531
 31
0.0
  0
LINE
  5
145
330
22
100
AcDbEntity
  8
0
  6
Continuous
 62
     7
100
AcDbLine
 10
-347.6636047363281
 20
198.3650817871094
 30
0.0
 11
-347.6636047363281
 21
212.9624481201172
 31
0.0
  0
LINE
  5
146
330
22
100
AcDbEntity
  8
0
  6
Continuous
 62
     7
100
AcDbLine
 10
-395.1636047363281
 20
197.762451171875
 30
0.0
 11
-395.1636047363281
 21
221.6624450683594
 31
0.0
  0
LINE
  5
147
330
22
100
AcDbEntity
  8
0
  6
Continuous
 62
     7
100
AcDbLine
 10
-390.1636047363281
 20
197.762451171875
 30
0.0
 11
-390.1636047363281
 21
221.6624450683594
 31
0.0
  0
LINE
  5
148
330
22
100
AcDbEntity
  8
0
  6
Continuous
 62
     7
100
AcDbLine
 10
-437.6636047363281
 20
227.559814453125
 30
0.0
 11
-437.6636047363281
 21
212.9624481201172
 31
0.0
  0
LINE
  5
149
330
22
100
AcDbEntity
  8
0
  6
Continuous
 62
     7
100
AcDbLine
 10
-409.1763610839843
 20
212.9624481201172
 30
0.0
 11
-409.1763610839843
 21
224.1126403808594
 31
0.0
  0
LINE
  5
14A
330
22
100
AcDbEntity
  8
0
  6
Continuous
 62
     7
100
AcDbLine
 10
-414.1636047363281
 20
212.9624481201172
 30
0.0
 11
-414.1636047363281
 21
224.1126403808594
 31
0.0
  0
LINE
  5
14B
330
22
100
AcDbEntity
  8
0
  6
Continuous
 62
     7
100
AcDbLine
 10
-437.6636047363281
 20
198.3650817871094
 30
0.0
 11
-437.6636047363281
 21
212.9624481201172
 31
0.0
  0
LINE
  5
14C
330
22
100
AcDbEntity
  8
0
  6
Continuous
 62
     7
100
AcDbLine
 10
-414.1636047363281
 20
212.9624481201172
 30
0.0
 11
-414.1636047363281
 21
201.812255859375
 31
0.0
  0
LINE
  5
14D
330
22
100
AcDbEntity
  8
0
  6
Continuous
 62
     7
100
AcDbLine
 10
-433.1763610839844
 20
229.7156066894531
 30
0.0
 11
-433.1739196777343
 21
207.7029113769531
 31
0.0
  0
LINE
  5
14E
330
22
100
AcDbEntity
  8
0
  6
Continuous
 62
     7
100
AcDbLine
 10
-428.1636352539063
 20
229.7029113769531
 30
0.0
 11
-428.1636047363281
 21
207.7029113769531
 31
0.0
  0
LINE
  5
14F
330
22
100
AcDbEntity
  8
0
  6
Continuous
 62
     7
100
AcDbLine
 10
-409.1763610839843
 20
212.9624481201172
 30
0.0
 11
-409.1763610839843
 21
201.812255859375
 31
0.0
  0
LINE
  5
150
330
22
100
AcDbEntity
  8
0
  6
CENTER
 62
     7
100
AcDbLine
 10
-392.6636047363281
 20
142.0442962646484
 30
0.0
 11
-392.6636047363281
 21
282.537109375
 31
0.0
  0
LINE
  5
151
330
22
100
AcDbEntity
  8
0
  6
Continuous
 62
     7
100
AcDbLine
 10
-371.15087890625
 20
212.9497375488281
 30
0.0
 11
-371.15087890625
 21
224.0999450683594
 31
0.0
  0
LINE
  5
152
330
22
100
AcDbEntity
  8
0
  6
Continuous
 62
     7
100
AcDbLine
 10
-371.15087890625
 20
212.9497375488281
 30
0.0
 11
-371.15087890625
 21
201.7995452880859
 31
0.0
  0
LINE
  5
153
330
22
100
AcDbEntity
  8
0
  6
Continuous
 62
     7
100
AcDbLine
 10
-376.15087890625
 20
212.9624481201172
 30
0.0
 11
-376.15087890625
 21
224.1126403808594
 31
0.0
  0
LINE
  5
154
330
22
100
AcDbEntity
  8
0
  6
Continuous
 62
     7
100
AcDbLine
 10
-376.15087890625
 20
212.9624481201172
 30
0.0
 11
-376.15087890625
 21
201.812255859375
 31
0.0
  0
LINE
  5
155
330
22
100
AcDbEntity
  8
0
  6
Continuous
 62
     7
100
AcDbLine
 10
-347.6636047363281
 20
227.559814453125
 30
0.0
 11
-347.6636047363281
 21
212.9624481201172
 31
0.0
  0
LINE
  5
156
330
22
100
AcDbEntity
  8
0
  6
Continuous
 62
     7
100
AcDbLine
 10
-168.9337768554688
 20
193.9145660400391
 30
0.0
 11
-170.4337768554688
 21
192.4145660400391
 31
0.0
  0
LINE
  5
157
330
22
100
AcDbEntity
  8
0
  6
Continuous
 62
     7
100
AcDbLine
 10
-170.4337768554688
 20
192.4145660400391
 30
0.0
 11
-198.9259185791016
 21
192.4145660400391
 31
0.0
  0
LINE
  5
158
330
22
100
AcDbEntity
  8
0
  6
Continuous
 62
     7
100
AcDbLine
 10
-168.9337768554688
 20
193.9145660400391
 30
0.0
 11
-197.4337768554688
 21
193.9145660400391
 31
0.0
  0
LINE
  5
159
330
22
100
AcDbEntity
  8
0
  6
Continuous
 62
     7
100
AcDbLine
 10
-170.4337768554688
 20
192.4145660400391
 30
0.0
 11
-170.4337768554688
 21
213.3679351806641
 31
0.0
  0
ARC
  5
15A
330
22
100
AcDbEntity
  8
0
  6
Continuous
 62
     7
100
AcDbCircle
 10
-231.9337768554688
 20
272.36962890625
 30
0.0
 40
1.0
100
AcDbArc
 50
180.0000000000004
 51
270.0000000000005
  0
ARC
  5
15B
330
22
100
AcDbEntity
  8
0
  6
Continuous
 62
     7
100
AcDbCircle
 10
-201.7995147705078
 20
237.3016052246094
 30
0.0
 40
3.0
100
AcDbArc
 50
209.9999304360001
 51
270.2366352422453
  0
ARC
  5
15C
330
22
100
AcDbEntity
  8
0
  6
Continuous
 62
     7
100
AcDbCircle
 10
-227.5318450927734
 20
259.86962890625
 30
0.0
 40
5.0
100
AcDbArc
 50
30.00001786228407
 51
90.00000000000019
  0
ARC
  5
15D
330
22
100
AcDbEntity
  8
0
  6
Continuous
 62
     7
100
AcDbCircle
 10
-227.8205261230469
 20
266.36962890625
 30
0.0
 40
5.0
100
AcDbArc
 50
30.00001786228407
 51
90.00000000000019
  0
ARC
  5
15E
330
22
100
AcDbEntity
  8
0
  6
Continuous
 62
     7
100
AcDbCircle
 10
-224.4073181152344
 20
236.3222808837891
 30
0.0
 40
5.416192531585693
100
AcDbArc
 50
303.6504917909427
 51
344.6725804901056
  0
ARC
  5
15F
330
22
100
AcDbEntity
  8
0
  6
Continuous
 62
     7
100
AcDbCircle
 10
-223.1483764648438
 20
235.4840698242188
 30
0.0
 40
4.062950611114501
100
AcDbArc
 50
270.92079378495
 51
295.393257203664
  0
ARC
  5
160
330
22
100
AcDbEntity
  8
0
  6
Continuous
 62
     7
100
AcDbCircle
 10
-226.1192016601563
 20
235.8517608642578
 30
0.0
 40
7.001713752746582
100
AcDbArc
 50
352.1097535884393
 51
47.69011008157986
  0
ARC
  5
161
330
22
100
AcDbEntity
  8
0
  6
Continuous
 62
     7
100
AcDbCircle
 10
-223.1483764648438
 20
237.3592224121094
 30
0.0
 40
4.062950611114501
100
AcDbArc
 50
64.60674279633678
 51
89.07920621505075
  0
ARC
  5
162
330
22
100
AcDbEntity
  8
0
  6
Continuous
 62
     7
100
AcDbCircle
 10
-201.9484558105469
 20
235.5578765869141
 30
0.0
 40
5.0
100
AcDbArc
 50
210.0000178622848
 51
270.0000000000005
  0
ARC
  5
163
330
22
100
AcDbEntity
  8
0
  6
Continuous
 62
     7
100
AcDbCircle
 10
-169.4337768554688
 20
231.0436248779297
 30
0.0
 40
0.5
100
AcDbArc
 50
269.9755206035048
 51
0.0
  0
ARC
  5
164
330
22
100
AcDbEntity
  8
0
  6
Continuous
 62
     7
100
AcDbCircle
 10
-201.7995147705078
 20
189.4376373291016
 30
0.0
 40
3.0
100
AcDbArc
 50
89.76336475775552
 51
150.0000695640007
  0
ARC
  5
165
330
22
100
AcDbEntity
  8
0
  6
Continuous
 62
     7
100
AcDbCircle
 10
-227.8205261230469
 20
160.3679351806641
 30
0.0
 40
5.0
100
AcDbArc
 50
270.0000000000005
 51
329.9999821377166
  0
ARC
  5
166
330
22
100
AcDbEntity
  8
0
  6
Continuous
 62
     7
100
AcDbCircle
 10
-235.9337768554688
 20
277.36962890625
 30
0.0
 40
1.0
100
AcDbArc
 50
90.00000000000019
 51
180.0000000000004
  0
ARC
  5
167
330
22
100
AcDbEntity
  8
0
  6
Continuous
 62
     7
100
AcDbCircle
 10
-233.9337768554688
 20
277.36962890625
 30
0.0
 40
1.0
100
AcDbArc
 50
0.0
 51
90.00000000000019
  0
ARC
  5
168
330
22
100
AcDbEntity
  8
0
  6
Continuous
 62
     7
100
AcDbCircle
 10
-235.9337768554688
 20
149.3679351806641
 30
0.0
 40
1.0
100
AcDbArc
 50
180.0000000000004
 51
270.0000000000005
  0
ARC
  5
169
330
22
100
AcDbEntity
  8
0
  6
Continuous
 62
     7
100
AcDbCircle
 10
-233.9337768554688
 20
149.3679351806641
 30
0.0
 40
1.0
100
AcDbArc
 50
270.0000000000005
 51
0.0
  0
CIRCLE
  5
16A
330
22
100
AcDbEntity
  8
0
  6
Continuous
 62
     7
100
AcDbCircle
 10
-434.4926452636719
 20
237.1124420166016
 30
0.0
 40
4.75
  0
CIRCLE
  5
16B
330
22
100
AcDbEntity
  8
0
  6
Continuous
 62
     7
100
AcDbCircle
 10
-434.4926452636719
 20
237.1124420166016
 30
0.0
 40
4.5
  0
CIRCLE
  5
16C
330
22
100
AcDbEntity
  8
0
  6
Continuous
 62
     7
100
AcDbCircle
 10
-434.4926452636719
 20
237.1124420166016
 30
0.0
 40
4.75
  0
CIRCLE
  5
16D
330
22
100
AcDbEntity
  8
0
  6
Continuous
 62
     7
100
AcDbCircle
 10
-434.4926452636719
 20
237.1124420166016
 30
0.0
 40
4.5
  0
ARC
  5
16E
330
22
100
AcDbEntity
  8
0
  6
Continuous
 62
     7
100
AcDbCircle
 10
-392.6636047363281
 20
212.9624481201172
 30
0.0
 40
49.25
100
AcDbArc
 50
64.11614830203902
 51
70.4416716493928
  0
ARC
  5
16F
330
22
100
AcDbEntity
  8
0
  6
Continuous
 62
     7
100
AcDbCircle
 10
-373.6636047363281
 20
233.5871734619141
 30
0.0
 40
2.5
100
AcDbArc
 50
180.0000000000004
 51
0.0
  0
ARC
  5
170
330
22
100
AcDbEntity
  8
0
  6
Continuous
 62
     7
100
AcDbCircle
 10
-373.65087890625
 20
224.0999450683594
 30
0.0
 40
2.5
100
AcDbArc
 50
0.0
 51
180.0000000000004
  0
ARC
  5
171
330
22
100
AcDbEntity
  8
0
  6
Continuous
 62
     7
100
AcDbCircle
 10
-411.6763610839844
 20
224.0999450683594
 30
0.0
 40
2.5
100
AcDbArc
 50
0.0
 51
180.0000000000004
  0
ARC
  5
172
330
22
100
AcDbEntity
  8
0
  6
Continuous
 62
     7
100
AcDbCircle
 10
-411.6763610839844
 20
233.5871734619141
 30
0.0
 40
2.5
100
AcDbArc
 50
180.0000000000004
 51
0.0
  0
ARC
  5
173
330
22
100
AcDbEntity
  8
0
  6
Continuous
 62
     7
100
AcDbCircle
 10
-430.6763610839843
 20
229.7029113769531
 30
0.0
 40
2.5
100
AcDbArc
 50
0.0
 51
180.0000000000004
  0
ARC
  5
174
330
22
100
AcDbEntity
  8
0
  6
Continuous
 62
     7
100
AcDbCircle
 10
-438.6636047363281
 20
227.559814453125
 30
0.0
 40
1.0
100
AcDbArc
 50
0.0
 51
153.9682520364821
  0
ARC
  5
175
330
22
100
AcDbEntity
  8
0
  6
Continuous
 62
     7
100
AcDbCircle
 10
-392.6636047363281
 20
212.9624481201172
 30
0.0
 40
49.25
100
AcDbArc
 50
75.89764732495712
 51
81.8287689631135
  0
CIRCLE
  5
176
330
22
100
AcDbEntity
  8
0
  6
Continuous
 62
     7
100
AcDbCircle
 10
-350.8345947265625
 20
237.1124420166016
 30
0.0
 40
4.5
  0
ARC
  5
177
330
22
100
AcDbEntity
  8
0
  6
Continuous
 62
     7
100
AcDbCircle
 10
-421.1636047363281
 20
217.7124481201172
 30
0.0
 40
2.5
100
AcDbArc
 50
180.0000000000004
 51
0.0
  0
ARC
  5
178
330
22
100
AcDbEntity
  8
0
  6
Continuous
 62
     7
100
AcDbCircle
 10
-402.1636047363281
 20
217.7124481201172
 30
0.0
 40
2.5
100
AcDbArc
 50
180.0000000000004
 51
0.0
  0
ARC
  5
179
330
22
100
AcDbEntity
  8
0
  6
Continuous
 62
     7
100
AcDbCircle
 10
-383.1636047363281
 20
217.7124481201172
 30
0.0
 40
2.5
100
AcDbArc
 50
180.0000000000004
 51
0.0
  0
ARC
  5
17A
330
22
100
AcDbEntity
  8
0
  6
Continuous
 62
     7
100
AcDbCircle
 10
-392.6636047363281
 20
212.9624481201172
 30
0.0
 40
49.25
100
AcDbArc
 50
121.8649415147933
 51
129.0089351398233
  0
ARC
  5
17B
330
22
100
AcDbEntity
  8
0
  6
Continuous
 62
     7
100
AcDbCircle
 10
-392.6636047363281
 20
212.9624481201172
 30
0.0
 40
49.25
100
AcDbArc
 50
109.5583618052224
 51
115.883851697961
  0
ARC
  5
17C
330
22
100
AcDbEntity
  8
0
  6
Continuous
 62
     7
100
AcDbCircle
 10
-392.6636047363281
 20
212.9624481201172
 30
0.0
 40
49.25
100
AcDbArc
 50
90.00000000000019
 51
92.90966563162262
  0
ARC
  5
17D
330
22
100
AcDbEntity
  8
0
  6
Continuous
 62
     7
100
AcDbCircle
 10
-392.6636047363281
 20
212.9624481201172
 30
0.0
 40
49.25
100
AcDbArc
 50
87.09033436837739
 51
90.00000000000019
  0
ARC
  5
17E
330
22
100
AcDbEntity
  8
0
  6
Continuous
 62
     7
100
AcDbCircle
 10
-392.6636047363281
 20
212.9624481201172
 30
0.0
 40
49.25
100
AcDbArc
 50
98.17123103688651
 51
104.1023526750429
  0
ARC
  5
17F
330
22
100
AcDbEntity
  8
0
  6
Continuous
 62
     7
100
AcDbCircle
 10
-392.6636047363281
 20
228.1624450683594
 30
0.0
 40
2.5
100
AcDbArc
 50
90.00000000000019
 51
180.0000000000004
  0
ARC
  5
180
330
22
100
AcDbEntity
  8
0
  6
Continuous
 62
     7
100
AcDbCircle
 10
-392.6636047363281
 20
237.6624450683594
 30
0.0
 40
2.5
100
AcDbArc
 50
270.0000000000005
 51
0.0
  0
ARC
  5
181
330
22
100
AcDbEntity
  8
0
  6
Continuous
 62
     7
100
AcDbCircle
 10
-392.6636047363281
 20
237.6624450683594
 30
0.0
 40
2.5
100
AcDbArc
 50
180.0000000000004
 51
270.0000000000005
  0
ARC
  5
182
330
22
100
AcDbEntity
  8
0
  6
Continuous
 62
     7
100
AcDbCircle
 10
-392.6636047363281
 20
228.1624450683594
 30
0.0
 40
2.5
100
AcDbArc
 50
0.0
 51
90.00000000000019
  0
ARC
  5
183
330
22
100
AcDbEntity
  8
0
  6
Continuous
 62
     7
100
AcDbCircle
 10
-354.65087890625
 20
229.7029113769531
 30
0.0
 40
2.5
100
AcDbArc
 50
0.0
 51
180.0000000000004
  0
CIRCLE
  5
184
330
22
100
AcDbEntity
  8
0
  6
Continuous
 62
     7
100
AcDbCircle
 10
-350.8345947265625
 20
237.1124420166016
 30
0.0
 40
4.75
  0
CIRCLE
  5
185
330
22
100
AcDbEntity
  8
0
  6
Continuous
 62
     7
100
AcDbCircle
 10
-350.8345947265625
 20
237.1124420166016
 30
0.0
 40
4.5
  0
CIRCLE
  5
186
330
22
100
AcDbEntity
  8
0
  6
Continuous
 62
     7
100
AcDbCircle
 10
-350.8345947265625
 20
237.1124420166016
 30
0.0
 40
4.75
  0
ARC
  5
187
330
22
100
AcDbEntity
  8
0
  6
CENTER
 62
     7
100
AcDbCircle
 10
-392.6636047363281
 20
225.1624450683594
 30
0.0
 40
60.5
100
AcDbArc
 50
263.3690062345514
 51
276.5790305083545
  0
ARC
  5
188
330
22
100
AcDbEntity
  8
0
  6
CENTER
 62
     7
100
AcDbCircle
 10
-392.6636047363281
 20
225.1624450683594
 30
0.0
 40
60.5
100
AcDbArc
 50
263.3690062345514
 51
276.5790305083545
  0
ARC
  5
189
330
22
100
AcDbEntity
  8
0
  6
Continuous
 62
     7
100
AcDbCircle
 10
-392.6636047363281
 20
212.9624481201172
 30
0.0
 40
49.25
100
AcDbArc
 50
255.8976473249578
 51
261.828766440051
  0
ARC
  5
18A
330
22
100
AcDbEntity
  8
0
  6
Continuous
 62
     7
100
AcDbCircle
 10
-392.6636047363281
 20
212.9624481201172
 30
0.0
 40
49.25
100
AcDbArc
 50
278.1712335599505
 51
284.1023526750437
  0
ARC
  5
18B
330
22
100
AcDbEntity
  8
0
  6
Continuous
 62
     7
100
AcDbCircle
 10
-392.6636047363281
 20
212.9624481201172
 30
0.0
 40
49.25
100
AcDbArc
 50
289.5583342932322
 51
295.8838516979617
  0
ARC
  5
18C
330
22
100
AcDbEntity
  8
0
  6
Continuous
 62
     7
100
AcDbCircle
 10
-373.6636047363281
 20
192.3377380371094
 30
0.0
 40
2.5
100
AcDbArc
 50
0.0
 51
180.0000000000004
  0
ARC
  5
18D
330
22
100
AcDbEntity
  8
0
  6
Continuous
 62
     7
100
AcDbCircle
 10
-373.65087890625
 20
201.8249664306641
 30
0.0
 40
2.5
100
AcDbArc
 50
180.0000000000004
 51
0.0
  0
ARC
  5
18E
330
22
100
AcDbEntity
  8
0
  6
Continuous
 62
     7
100
AcDbCircle
 10
-364.1636047363281
 20
217.5914459228516
 30
0.0
 40
2.5
100
AcDbArc
 50
180.0000000000004
 51
0.0
  0
ARC
  5
18F
330
22
100
AcDbEntity
  8
0
  6
Continuous
 62
     7
100
AcDbCircle
 10
-392.6636047363281
 20
212.9624481201172
 30
0.0
 40
49.25
100
AcDbArc
 50
50.99106486017674
 51
58.13505848520673
  0
ARC
  5
190
330
22
100
AcDbEntity
  8
0
  6
Continuous
 62
     7
100
AcDbCircle
 10
-346.6636047363281
 20
227.559814453125
 30
0.0
 40
1.0
100
AcDbArc
 50
26.03174796351784
 51
180.0000000000004
  0
ARC
  5
191
330
22
100
AcDbEntity
  8
0
  6
Continuous
 62
     7
100
AcDbCircle
 10
-392.6636047363281
 20
197.762451171875
 30
0.0
 40
2.5
100
AcDbArc
 50
270.0000000000005
 51
0.0
  0
ARC
  5
192
330
22
100
AcDbEntity
  8
0
  6
Continuous
 62
     7
100
AcDbCircle
 10
-392.6636047363281
 20
197.762451171875
 30
0.0
 40
2.5
100
AcDbArc
 50
180.0000000000004
 51
270.0000000000005
  0
ARC
  5
193
330
22
100
AcDbEntity
  8
0
  6
Continuous
 62
     7
100
AcDbCircle
 10
-438.6636047363281
 20
198.3650817871094
 30
0.0
 40
1.0
100
AcDbArc
 50
206.0317479635185
 51
0.0
  0
ARC
  5
194
330
22
100
AcDbEntity
  8
0
  6
Continuous
 62
     7
100
AcDbCircle
 10
-430.6763610839843
 20
198.2029113769531
 30
0.0
 40
2.5
100
AcDbArc
 50
0.0
 51
180.0000000000004
  0
ARC
  5
195
330
22
100
AcDbEntity
  8
0
  6
Continuous
 62
     7
100
AcDbCircle
 10
-411.6763610839844
 20
201.8249664306641
 30
0.0
 40
2.5
100
AcDbArc
 50
180.0000000000004
 51
0.0
  0
ARC
  5
196
330
22
100
AcDbEntity
  8
0
  6
Continuous
 62
     7
100
AcDbCircle
 10
-430.6763610839843
 20
207.7029113769531
 30
0.0
 40
2.5
100
AcDbArc
 50
180.0000000000004
 51
0.0
  0
ARC
  5
197
330
22
100
AcDbEntity
  8
0
  6
Continuous
 62
     7
100
AcDbCircle
 10
-392.6636047363281
 20
212.9624481201172
 30
0.0
 40
49.25
100
AcDbArc
 50
214.68076828432
 51
223.8784227651543
  0
ARC
  5
198
330
22
100
AcDbEntity
  8
0
  6
Continuous
 62
     7
100
AcDbCircle
 10
-392.6636047363281
 20
212.9624481201172
 30
0.0
 40
49.25
100
AcDbArc
 50
230.9910648601775
 51
238.1350584852074
  0
ARC
  5
199
330
22
100
AcDbEntity
  8
0
  6
Continuous
 62
     7
100
AcDbCircle
 10
-392.6636047363281
 20
212.9624481201172
 30
0.0
 40
49.25
100
AcDbArc
 50
244.1161483020397
 51
250.4416322521454
  0
ARC
  5
19A
330
22
100
AcDbEntity
  8
0
  6
Continuous
 62
     7
100
AcDbCircle
 10
-411.6763610839844
 20
192.3377380371094
 30
0.0
 40
2.5
100
AcDbArc
 50
0.0
 51
180.0000000000004
  0
ARC
  5
19B
330
22
100
AcDbEntity
  8
0
  6
Continuous
 62
     7
100
AcDbCircle
 10
-392.6636047363281
 20
188.262451171875
 30
0.0
 40
2.5
100
AcDbArc
 50
0.0
 51
90.00000000000019
  0
ARC
  5
19C
330
22
100
AcDbEntity
  8
0
  6
Continuous
 62
     7
100
AcDbCircle
 10
-392.6636047363281
 20
188.262451171875
 30
0.0
 40
2.5
100
AcDbArc
 50
90.00000000000019
 51
180.0000000000004
  0
ARC
  5
19D
330
22
100
AcDbEntity
  8
0
  6
Continuous
 62
     7
100
AcDbCircle
 10
-392.6636047363281
 20
172.57568359375
 30
0.0
 40
2.5
100
AcDbArc
 50
270.0000000000005
 51
0.0
  0
ARC
  5
19E
330
22
100
AcDbEntity
  8
0
  6
Continuous
 62
     7
100
AcDbCircle
 10
-392.6636047363281
 20
172.57568359375
 30
0.0
 40
2.5
100
AcDbArc
 50
180.0000000000004
 51
270.0000000000005
  0
CIRCLE
  5
19F
330
22
100
AcDbEntity
  8
0
  6
Continuous
 62
     7
100
AcDbCircle
 10
-392.6636047363281
 20
164.6624450683594
 30
0.0
 40
4.75
  0
CIRCLE
  5
1A0
330
22
100
AcDbEntity
  8
0
  6
Continuous
 62
     7
100
AcDbCircle
 10
-392.6636047363281
 20
164.6624450683594
 30
0.0
 40
4.75
  0
ARC
  5
1A1
330
22
100
AcDbEntity
  8
0
  6
Continuous
 62
     7
100
AcDbCircle
 10
-392.6636047363281
 20
212.9624481201172
 30
0.0
 40
49.25
100
AcDbArc
 50
316.1215772348471
 51
325.3192317156814
  0
ARC
  5
1A2
330
22
100
AcDbEntity
  8
0
  6
Continuous
 62
     7
100
AcDbCircle
 10
-392.6636047363281
 20
212.9624481201172
 30
0.0
 40
49.25
100
AcDbArc
 50
301.8649415147939
 51
309.008935139824
  0
ARC
  5
1A3
330
22
100
AcDbEntity
  8
0
  6
Continuous
 62
     7
100
AcDbCircle
 10
-346.6636047363281
 20
198.3650817871094
 30
0.0
 40
1.0
100
AcDbArc
 50
180.0000000000004
 51
333.9682520364829
  0
ARC
  5
1A4
330
22
100
AcDbEntity
  8
0
  6
Continuous
 62
     7
100
AcDbCircle
 10
-354.65087890625
 20
198.2029113769531
 30
0.0
 40
2.5
100
AcDbArc
 50
0.0
 51
180.0000000000004
  0
ARC
  5
1A5
330
22
100
AcDbEntity
  8
0
  6
Continuous
 62
     7
100
AcDbCircle
 10
-354.65087890625
 20
207.7029113769531
 30
0.0
 40
2.5
100
AcDbArc
 50
180.0000000000004
 51
0.0
  0
CIRCLE
  5
1A6
330
22
100
AcDbEntity
  8
0
  6
Continuous
 62
     7
100
AcDbCircle
 10
-392.6636047363281
 20
164.6624450683594
 30
0.0
 40
4.5
  0
CIRCLE
  5
1A7
330
22
100
AcDbEntity
  8
0
  6
Continuous
 62
     7
100
AcDbCircle
 10
-392.6636047363281
 20
164.6624450683594
 30
0.0
 40
4.5
  0
CIRCLE
  5
1A8
330
22
100
AcDbEntity
  8
0
  6
DASHED
 62
     7
100
AcDbCircle
 10
-392.6636047363281
 20
212.9624481201172
 30
0.0
 40
18.0
  0
CIRCLE
  5
1A9
330
22
100
AcDbEntity
  8
0
  6
Continuous
 62
     7
100
AcDbCircle
 10
-392.6636047363281
 20
212.9624481201172
 30
0.0
 40
55.0
  0
CIRCLE
  5
1AA
330
22
100
AcDbEntity
  8
0
  6
Continuous
 62
     7
100
AcDbCircle
 10
-392.6636047363281
 20
212.9624481201172
 30
0.0
 40
65.0
  0
CIRCLE
  5
1AB
330
22
100
AcDbEntity
  8
0
  6
Continuous
 62
     7
100
AcDbCircle
 10
-392.6636047363281
 20
212.9624481201172
 30
0.0
 40
54.5
  0
ARC
  5
1AC
330
22
100
AcDbEntity
  8
0
  6
Continuous
 62
     7
100
AcDbCircle
 10
-392.6636047363281
 20
212.9624481201172
 30
0.0
 40
49.25
100
AcDbArc
 50
342.2235276418704
 51
0.0
  0
ARC
  5
1AD
330
22
100
AcDbEntity
  8
0
  6
Continuous
 62
     7
100
AcDbCircle
 10
-364.1636047363281
 20
208.0914459228516
 30
0.0
 40
2.5
100
AcDbArc
 50
0.0
 51
180.0000000000004
  0
ARC
  5
1AE
330
22
100
AcDbEntity
  8
0
  6
Continuous
 62
     7
100
AcDbCircle
 10
-392.6636047363281
 20
212.9624481201172
 30
0.0
 40
49.25
100
AcDbArc
 50
162.2235276418697
 51
180.0000000000004
  0
ARC
  5
1AF
330
22
100
AcDbEntity
  8
0
  6
Continuous
 62
     7
100
AcDbCircle
 10
-392.6636047363281
 20
212.9624481201172
 30
0.0
 40
49.25
100
AcDbArc
 50
180.0000000000004
 51
197.776472358131
  0
ARC
  5
1B0
330
22
100
AcDbEntity
  8
0
  6
Continuous
 62
     7
100
AcDbCircle
 10
-421.1636047363281
 20
208.2124481201172
 30
0.0
 40
2.5
100
AcDbArc
 50
0.0
 51
180.0000000000004
  0
ARC
  5
1B1
330
22
100
AcDbEntity
  8
0
  6
Continuous
 62
     7
100
AcDbCircle
 10
-402.1636047363281
 20
208.2124481201172
 30
0.0
 40
2.5
100
AcDbArc
 50
0.0
 51
180.0000000000004
  0
ARC
  5
1B2
330
22
100
AcDbEntity
  8
0
  6
Continuous
 62
     7
100
AcDbCircle
 10
-383.1636047363281
 20
208.2124481201172
 30
0.0
 40
2.5
100
AcDbArc
 50
0.0
 51
180.0000000000004
  0
ARC
  5
1B3
330
22
100
AcDbEntity
  8
0
  6
Continuous
 62
     7
100
AcDbCircle
 10
-392.6636047363281
 20
212.9624481201172
 30
0.0
 40
49.25
100
AcDbArc
 50
0.0
 51
17.77647235813035
  0
TEXT
  5
1B4
330
22
100
AcDbEntity
  8
0
  6
Continuous
 62
     7
100
AcDbText
 10
-313.029839515686
 20
70.71831512451172
 30
0.0
 40
7.0
  1
ＤＬ－ＣＵＧ－３２Ｇ
 41
0.8443929888818491
100
AcDbText
  0
DIMENSION
  5
1B5
330
22
100
AcDbEntity
  8
0
  6
Continuous
 62
     7
100
AcDbDimension
  2
*D1
 10
-432.4624810698436
 20
161.571306445802
 30
0.0
 11
-334.7622985839844
 21
287.7287292480469
 31
0.0
 70
     3
 71
     5
 42
-1.0
  3
DIMSTYLE1
100
AcDbDiametricDimension
 15
-352.8647284028127
 25
264.3535897944324
 35
0.0
 40
0.0
  0
DIMENSION
  5
1B6
330
22
100
AcDbEntity
  8
0
  6
Continuous
 62
     7
100
AcDbDimension
  2
*D2
 10
-434.5155869903725
 20
178.0531143910533
 30
0.0
 11
-319.1740417480469
 21
274.2611389160156
 31
0.0
 70
     3
 71
     5
 42
-1.0
  3
DIMSTYLE2
100
AcDbDiametricDimension
 15
-350.8116224822838
 25
247.8717818491811
 35
0.0
 40
0.0
  0
DIMENSION
  5
1B7
330
22
100
AcDbEntity
  8
0
  6
Continuous
 62
     7
100
AcDbDimension
  2
*D3
 10
-168.9337768554688
 20
301.7088317871094
 30
0.0
 11
-202.9337768554688
 21
301.7088317871094
 31
0.0
 71
     5
 42
-1.0
  3
DIMSTYLE3
100
AcDbAlignedDimension
 13
-236.9337768554689
 23
277.36962890625
 33
0.0
 14
-168.9337768554688
 24
232.8213043212891
 34
0.0
100
AcDbRotatedDimension
  0
INSERT
  5
1B8
330
22
100
AcDbEntity
  8
0
  6
Continuous
 62
     7
100
AcDbBlockReference
  2
KOZU0001
 10
-189.4285430908203
 20
192.4145660400391
 30
0.0
  0
ENDSEC
  0
SECTION
  2
OBJECTS
  0
DICTIONARY
  5
C
330
0
100
AcDbDictionary
281
     1
  3
ACAD_COLOR
350
1B
  3
ACAD_GROUP
350
D
  3
ACAD_LAYOUT
350
19
  3
ACAD_MATERIAL
350
1A
  3
ACAD_MLINESTYLE
350
16
  3
ACAD_PLOTSETTINGS
350
18
  3
ACAD_PLOTSTYLENAME
350
E
  3
ACAD_TABLESTYLE
350
1C
  3
AcDbVariableDictionary
350
1C4
  0
DICTIONARY
  5
1B
102
{ACAD_REACTORS
330
C
102
}
330
C
100
AcDbDictionary
281
     1
  0
DICTIONARY
  5
D
102
{ACAD_REACTORS
330
C
102
}
330
C
100
AcDbDictionary
281
     1
  0
DICTIONARY
  5
19
102
{ACAD_REACTORS
330
C
102
}
330
C
100
AcDbDictionary
281
     1
  3
Model
350
25
  3
レイアウト1
350
21
  0
DICTIONARY
  5
1A
102
{ACAD_REACTORS
330
C
102
}
330
C
100
AcDbDictionary
281
     1
  0
DICTIONARY
  5
16
102
{ACAD_REACTORS
330
C
102
}
330
C
100
AcDbDictionary
281
     1
  3
Standard
350
17
  0
DICTIONARY
  5
18
102
{ACAD_REACTORS
330
C
102
}
330
C
100
AcDbDictionary
281
     1
  0
ACDBDICTIONARYWDFLT
  5
E
102
{ACAD_REACTORS
330
C
102
}
330
C
100
AcDbDictionary
281
     1
  3
Normal
350
F
100
AcDbDictionaryWithDefault
340
F
  0
DICTIONARY
  5
1C
102
{ACAD_REACTORS
330
C
102
}
330
C
100
AcDbDictionary
281
     1
  3
Standard
350
1D
  0
DICTIONARY
  5
1C4
102
{ACAD_REACTORS
330
C
102
}
330
C
100
AcDbDictionary
281
     1
  3
CTABLESTYLE
350
1C5
  0
LAYOUT
  5
25
102
{ACAD_REACTORS
330
19
102
}
330
19
100
AcDbPlotSettings
  1

  2
PDF reDirect v2
  4
User66
  6

 40
3.174999952316284
 41
3.174999952316284
 42
3.17498779296875
 43
3.17498779296875
 44
420.0
 45
594.0
 46
0.0
 47
0.0
 48
0.0
 49
0.0
140
0.0
141
0.0
142
1.0
143
1.0
 70
 11952
 72
     1
 73
     1
 74
     2
  7
C:\Users\ck\AppData\Roaming\Autodesk\AutoCAD 2005\R16.1\jpn\Plot Styles\black.ctb
 75
    16
147
1.0
 76
     0
 77
     2
 78
   300
148
592.0
149
0.0
100
AcDbLayout
  1
Model
 70
     1
 71
     0
 10
0.0
 20
0.0
 11
12.0
 21
9.0
 12
0.0
 22
0.0
 32
0.0
 14
0.0
 24
0.0
 34
0.0
 15
0.0
 25
0.0
 35
0.0
146
0.0
 13
0.0
 23
0.0
 33
0.0
 16
1.0
 26
0.0
 36
0.0
 17
0.0
 27
1.0
 37
0.0
 76
     0
330
22
1001
ACAD_PSEXT
1000
PDF reDirect v2
1000
PDF reDirect Pro
1000
PDF_REDIRECT_PORT:
1000
PDF reDirect provided by EXP Systems
1070
     0
  0
LAYOUT
  5
21
102
{ACAD_REACTORS
330
19
102
}
330
19
100
AcDbPlotSettings
  1

  2
PDF reDirect v2
  4

  6

 40
0.0
 41
0.0
 42
0.0
 43
0.0
 44
0.0
 45
0.0
 46
0.0
 47
0.0
 48
0.0
 49
0.0
140
0.0
141
0.0
142
1.0
143
1.0
 70
   688
 72
     0
 73
     0
 74
     5
  7
C:\Users\ck\AppData\Roaming\Autodesk\AutoCAD 2005\R16.1\jpn\Plot Styles\black.ctb
 75
    16
147
1.0
 76
     0
 77
     2
 78
   300
148
0.0
149
0.0
100
AcDbLayout
  1
レイアウト1
 70
     1
 71
     1
 10
-592.0
 20
0.0
 11
0.0
 21
418.0
 12
0.0
 22
0.0
 32
0.0
 14
1.000000000000000E+20
 24
1.000000000000000E+20
 34
1.000000000000000E+20
 15
-1.000000000000000E+20
 25
-1.000000000000000E+20
 35
-1.000000000000000E+20
146
0.0
 13
0.0
 23
0.0
 33
0.0
 16
1.0
 26
0.0
 36
0.0
 17
0.0
 27
1.0
 37
0.0
 76
     0
330
1E
  0
MLINESTYLE
  5
17
102
{ACAD_REACTORS
330
16
102
}
330
16
100
AcDbMlineStyle
  2
STANDARD
 70
     0
  3

 62
   256
 51
90.0
 52
90.0
 71
     2
 49
0.5
 62
   256
  6
BYLAYER
 49
-0.5
 62
   256
  6
BYLAYER
  0
ACDBPLACEHOLDER
  5
F
102
{ACAD_REACTORS
330
E
102
}
330
E
  0
TABLESTYLE
  5
1D
102
{ACAD_REACTORS
330
1C
102
}
330
1C
100
AcDbTableStyle
  3
Standard
 70
     0
 71
     0
 40
0.06
 41
0.06
280
     0
281
     0
  7
STANDARD
140
0.18
170
     2
 62
     0
 63
     7
283
     0
274
    -2
284
     1
 64
     0
275
    -2
285
     1
 65
     0
276
    -2
286
     1
 66
     0
277
    -2
287
     1
 67
     0
278
    -2
288
     1
 68
     0
279
    -2
289
     1
 69
     0
  7
STANDARD
140
0.25
170
     5
 62
     0
 63
     7
283
     0
274
    -2
284
     1
 64
     0
275
    -2
285
     1
 65
     0
276
    -2
286
     1
 66
     0
277
    -2
287
     1
 67
     0
278
    -2
288
     1
 68
     0
279
    -2
289
     1
 69
     0
  7
STANDARD
140
0.18
170
     5
 62
     0
 63
     7
283
     0
274
    -2
284
     1
 64
     0
275
    -2
285
     1
 65
     0
276
    -2
286
     1
 66
     0
277
    -2
287
     1
 67
     0
278
    -2
288
     1
 68
     0
279
    -2
289
     1
 69
     0
  0
DICTIONARYVAR
  5
1C5
102
{ACAD_REACTORS
330
1C4
102
}
330
1C4
100
DictionaryVariables
280
     0
  1
STANDARD
  0
ENDSEC
  0
EOF
