  0
SECTION
  2
HEADER
  9
$ACADVER
  1
AC1018
  9
$ACADMAINTVER
 70
    39
  9
$DWGCODEPAGE
  3
ANSI_932
  9
$INSBASE
 10
0.0
 20
0.0
 30
0.0
  9
$EXTMIN
 10
-563.879637260781
 20
59.43182477288861
 30
-0.0015258207003583
  9
$EXTMAX
 10
-50.02587758613026
 20
376.2995004364052
 30
0.0000000349246037
  9
$LIMMIN
 10
-592.0
 20
0.0
  9
$LIMMAX
 10
0.0
 20
418.0
  9
$ORTHOMODE
 70
     0
  9
$REGENMODE
 70
     1
  9
$FILLMODE
 70
     1
  9
$QTEXTMODE
 70
     0
  9
$MIRRTEXT
 70
     0
  9
$LTSCALE
 40
1.0
  9
$ATTMODE
 70
     1
  9
$TEXTSIZE
 40
0.2
  9
$TRACEWID
 40
0.05
  9
$TEXTSTYLE
  7
STANDARD
  9
$CLAYER
  8
0
  9
$CELTYPE
  6
CONTINUOUS
  9
$CECOLOR
 62
   256
  9
$CELTSCALE
 40
1.0
  9
$DISPSILH
 70
     0
  9
$DIMSCALE
 40
1.0
  9
$DIMASZ
 40
1.0
  9
$DIMEXO
 40
2.54
  9
$DIMDLI
 40
0.38
  9
$DIMRND
 40
0.0
  9
$DIMDLE
 40
0.0
  9
$DIMEXE
 40
2.54
  9
$DIMTP
 40
0.0
  9
$DIMTM
 40
0.0
  9
$DIMTXT
 40
3.0
  9
$DIMCEN
 40
0.09
  9
$DIMTSZ
 40
0.0
  9
$DIMTOL
 70
     0
  9
$DIMLIM
 70
     0
  9
$DIMTIH
 70
     0
  9
$DIMTOH
 70
     0
  9
$DIMSE1
 70
     0
  9
$DIMSE2
 70
     0
  9
$DIMTAD
 70
     1
  9
$DIMZIN
 70
     0
  9
$DIMBLK
  1

  9
$DIMASO
 70
     1
  9
$DIMSHO
 70
     0
  9
$DIMPOST
  1

  9
$DIMAPOST
  1

  9
$DIMALT
 70
     0
  9
$DIMALTD
 70
     2
  9
$DIMALTF
 40
25.4
  9
$DIMLFAC
 40
1.0
  9
$DIMTOFL
 70
     0
  9
$DIMTVP
 40
1.0
  9
$DIMTIX
 70
     0
  9
$DIMSOXD
 70
     0
  9
$DIMSAH
 70
     1
  9
$DIMBLK1
  1

  9
$DIMBLK2
  1

  9
$DIMSTYLE
  2
DIMSTYLE1
  9
$DIMCLRD
 70
     0
  9
$DIMCLRE
 70
     0
  9
$DIMCLRT
 70
     0
  9
$DIMTFAC
 40
1.0
  9
$DIMGAP
 40
1.5
  9
$DIMJUST
 70
     0
  9
$DIMSD1
 70
     0
  9
$DIMSD2
 70
     0
  9
$DIMTOLJ
 70
     1
  9
$DIMTZIN
 70
     0
  9
$DIMALTZ
 70
     0
  9
$DIMALTTZ
 70
     0
  9
$DIMUPT
 70
     0
  9
$DIMDEC
 70
     4
  9
$DIMTDEC
 70
     4
  9
$DIMALTU
 70
     2
  9
$DIMALTTD
 70
     2
  9
$DIMTXSTY
  7
STANDARD
  9
$DIMAUNIT
 70
     0
  9
$DIMADEC
 70
     0
  9
$DIMALTRND
 40
0.0
  9
$DIMAZIN
 70
     0
  9
$DIMDSEP
 70
    46
  9
$DIMATFIT
 70
     3
  9
$DIMFRAC
 70
     0
  9
$DIMLDRBLK
  1

  9
$DIMLUNIT
 70
     2
  9
$DIMLWD
 70
    -2
  9
$DIMLWE
 70
    -2
  9
$DIMTMOVE
 70
     0
  9
$LUNITS
 70
     2
  9
$LUPREC
 70
     4
  9
$SKETCHINC
 40
0.1
  9
$FILLETRAD
 40
0.0
  9
$AUNITS
 70
     0
  9
$AUPREC
 70
     0
  9
$MENU
  1
.
  9
$ELEVATION
 40
0.0
  9
$PELEVATION
 40
0.0
  9
$THICKNESS
 40
0.0
  9
$LIMCHECK
 70
     0
  9
$CHAMFERA
 40
0.0
  9
$CHAMFERB
 40
0.0
  9
$CHAMFERC
 40
0.0
  9
$CHAMFERD
 40
0.0
  9
$SKPOLY
 70
     0
  9
$TDCREATE
 40
2457701.451138785
  9
$TDUCREATE
 40
2457701.076138785
  9
$TDUPDATE
 40
2457701.451709236
  9
$TDUUPDATE
 40
2457701.076709236
  9
$TDINDWG
 40
0.0005716088
  9
$TDUSRTIMER
 40
0.0005716088
  9
$USRTIMER
 70
     1
  9
$ANGBASE
 50
0.0
  9
$ANGDIR
 70
     0
  9
$PDMODE
 70
     0
  9
$PDSIZE
 40
0.0
  9
$PLINEWID
 40
0.0
  9
$SPLFRAME
 70
     0
  9
$SPLINETYPE
 70
     6
  9
$SPLINESEGS
 70
     8
  9
$HANDSEED
  5
367
  9
$SURFTAB1
 70
     6
  9
$SURFTAB2
 70
     6
  9
$SURFTYPE
 70
     6
  9
$SURFU
 70
     6
  9
$SURFV
 70
     6
  9
$UCSBASE
  2

  9
$UCSNAME
  2

  9
$UCSORG
 10
0.0
 20
0.0
 30
0.0
  9
$UCSXDIR
 10
1.0
 20
0.0
 30
0.0
  9
$UCSYDIR
 10
0.0
 20
1.0
 30
0.0
  9
$UCSORTHOREF
  2

  9
$UCSORTHOVIEW
 70
     0
  9
$UCSORGTOP
 10
0.0
 20
0.0
 30
0.0
  9
$UCSORGBOTTOM
 10
0.0
 20
0.0
 30
0.0
  9
$UCSORGLEFT
 10
0.0
 20
0.0
 30
0.0
  9
$UCSORGRIGHT
 10
0.0
 20
0.0
 30
0.0
  9
$UCSORGFRONT
 10
0.0
 20
0.0
 30
0.0
  9
$UCSORGBACK
 10
0.0
 20
0.0
 30
0.0
  9
$PUCSBASE
  2

  9
$PUCSNAME
  2

  9
$PUCSORG
 10
0.0
 20
0.0
 30
0.0
  9
$PUCSXDIR
 10
1.0
 20
0.0
 30
0.0
  9
$PUCSYDIR
 10
0.0
 20
1.0
 30
0.0
  9
$PUCSORTHOREF
  2

  9
$PUCSORTHOVIEW
 70
     0
  9
$PUCSORGTOP
 10
0.0
 20
0.0
 30
0.0
  9
$PUCSORGBOTTOM
 10
0.0
 20
0.0
 30
0.0
  9
$PUCSORGLEFT
 10
0.0
 20
0.0
 30
0.0
  9
$PUCSORGRIGHT
 10
0.0
 20
0.0
 30
0.0
  9
$PUCSORGFRONT
 10
0.0
 20
0.0
 30
0.0
  9
$PUCSORGBACK
 10
0.0
 20
0.0
 30
0.0
  9
$USERI1
 70
     0
  9
$USERI2
 70
     0
  9
$USERI3
 70
     0
  9
$USERI4
 70
     0
  9
$USERI5
 70
     0
  9
$USERR1
 40
0.0
  9
$USERR2
 40
0.0
  9
$USERR3
 40
0.0
  9
$USERR4
 40
0.0
  9
$USERR5
 40
0.0
  9
$WORLDVIEW
 70
     1
  9
$SHADEDGE
 70
     3
  9
$SHADEDIF
 70
    70
  9
$TILEMODE
 70
     1
  9
$MAXACTVP
 70
    64
  9
$PINSBASE
 10
0.0
 20
0.0
 30
0.0
  9
$PLIMCHECK
 70
     0
  9
$PEXTMIN
 10
1.000000000000000E+20
 20
1.000000000000000E+20
 30
1.000000000000000E+20
  9
$PEXTMAX
 10
-1.000000000000000E+20
 20
-1.000000000000000E+20
 30
-1.000000000000000E+20
  9
$PLIMMIN
 10
-592.0
 20
0.0
  9
$PLIMMAX
 10
0.0
 20
418.0
  9
$UNITMODE
 70
     0
  9
$VISRETAIN
 70
     1
  9
$PLINEGEN
 70
     0
  9
$PSLTSCALE
 70
     1
  9
$TREEDEPTH
 70
  3020
  9
$CMLSTYLE
  2
Standard
  9
$CMLJUST
 70
     0
  9
$CMLSCALE
 40
1.0
  9
$PROXYGRAPHICS
 70
     1
  9
$MEASUREMENT
 70
     0
  9
$CELWEIGHT
370
    -1
  9
$ENDCAPS
280
     0
  9
$JOINSTYLE
280
     0
  9
$LWDISPLAY
290
     0
  9
$INSUNITS
 70
     0
  9
$HYPERLINKBASE
  1

  9
$STYLESHEET
  1

  9
$XEDIT
290
     1
  9
$CEPSNTYPE
380
     0
  9
$PSTYLEMODE
290
     1
  9
$FINGERPRINTGUID
  2
{90DB7402-84B7-4EC3-B0A3-4161ABD2C50F}
  9
$VERSIONGUID
  2
{3634963A-7D8F-4219-8410-443E0DB45A67}
  9
$EXTNAMES
290
     1
  9
$PSVPSCALE
 40
0.0
  9
$OLESTARTUP
290
     0
  9
$SORTENTS
280
   127
  9
$INDEXCTL
280
     0
  9
$HIDETEXT
280
     0
  9
$XCLIPFRAME
290
     0
  9
$HALOGAP
280
     0
  9
$OBSCOLOR
 70
   257
  9
$OBSLTYPE
280
     0
  9
$INTERSECTIONDISPLAY
280
     0
  9
$INTERSECTIONCOLOR
 70
   257
  9
$DIMASSOC
280
     1
  9
$PROJECTNAME
  1

  0
ENDSEC
  0
SECTION
  2
CLASSES
  0
CLASS
  1
ACDBDICTIONARYWDFLT
  2
AcDbDictionaryWithDefault
  3
ObjectDBX Classes
 90
        0
 91
        1
280
     0
281
     0
  0
CLASS
  1
TABLESTYLE
  2
AcDbTableStyle
  3
ObjectDBX Classes
 90
     2047
 91
        1
280
     0
281
     0
  0
CLASS
  1
DICTIONARYVAR
  2
AcDbDictionaryVar
  3
ObjectDBX Classes
 90
        0
 91
        1
280
     0
281
     0
  0
ENDSEC
  0
SECTION
  2
TABLES
  0
TABLE
  2
VPORT
  5
8
330
0
100
AcDbSymbolTable
 70
     2
  0
VPORT
  5
366
330
8
100
AcDbSymbolTableRecord
100
AcDbViewportTableRecord
  2
*Active
 70
     0
 10
0.0
 20
0.0
 11
1.0
 21
1.0
 12
-296.0
 22
209.0
 13
0.0
 23
0.0
 14
1.0
 24
1.0
 15
0.0
 25
0.0
 16
0.0
 26
0.0
 36
1.0
 17
0.0
 27
0.0
 37
0.0
 40
421.2999999999999
 41
1.56258234519104
 42
50.0
 43
0.0
 44
0.0
 50
0.0
 51
0.0
 71
     0
 72
   100
 73
     1
 74
     1
 75
     0
 76
     0
 77
     0
 78
     0
281
     0
 65
     1
110
0.0
120
0.0
130
0.0
111
1.0
121
0.0
131
0.0
112
0.0
122
1.0
132
0.0
 79
     0
146
0.0
  0
ENDTAB
  0
TABLE
  2
LTYPE
  5
5
330
0
100
AcDbSymbolTable
 70
     6
  0
LTYPE
  5
13
330
5
100
AcDbSymbolTableRecord
100
AcDbLinetypeTableRecord
  2
ByBlock
 70
     0
  3

 72
    65
 73
     0
 40
0.0
  0
LTYPE
  5
14
330
5
100
AcDbSymbolTableRecord
100
AcDbLinetypeTableRecord
  2
ByLayer
 70
     0
  3

 72
    65
 73
     0
 40
0.0
  0
LTYPE
  5
15
330
5
100
AcDbSymbolTableRecord
100
AcDbLinetypeTableRecord
  2
CONTINUOUS
 70
     0
  3
Solid line
 72
    65
 73
     0
 40
0.0
  0
LTYPE
  5
26
330
5
100
AcDbSymbolTableRecord
100
AcDbLinetypeTableRecord
  2
DASHED
 70
     0
  3
__ __ __ __ __ __ __ __ __ __ __ __ __ __ __
 72
    65
 73
     2
 40
3.5
 49
2.0
 74
     0
 49
-1.5
 74
     0
  0
LTYPE
  5
27
330
5
100
AcDbSymbolTableRecord
100
AcDbLinetypeTableRecord
  2
CENTER
 70
     0
  3
____ _ ____ _ ____ _ ____ _ ____ _ ____ _ ____
 72
    65
 73
     4
 40
17.5
 49
13.0
 74
     0
 49
-1.5
 74
     0
 49
1.5
 74
     0
 49
-1.5
 74
     0
  0
LTYPE
  5
28
330
5
100
AcDbSymbolTableRecord
100
AcDbLinetypeTableRecord
  2
PHANTOM
 70
     0
  3
_____ _ _ _____ _ _ _____ _ _ _____ _ _ ____  
 72
    65
 73
     6
 40
15.5
 49
8.0
 74
     0
 49
-1.5
 74
     0
 49
1.5
 74
     0
 49
-1.5
 74
     0
 49
1.5
 74
     0
 49
-1.5
 74
     0
  0
LTYPE
  5
29
330
5
100
AcDbSymbolTableRecord
100
AcDbLinetypeTableRecord
  2
DOT
 70
     0
  3
. . . . . . . . . . . . . . . . . . . . . . . .
 72
    65
 73
     2
 40
0.25
 49
0.0
 74
     0
 49
-0.25
 74
     0
  0
LTYPE
  5
2A
330
5
100
AcDbSymbolTableRecord
100
AcDbLinetypeTableRecord
  2
HIDDEN
 70
     0
  3
__ __ __ __ __ __ __ __ __ __ __ __ __ __ __
 72
    65
 73
     2
 40
3.5
 49
2.0
 74
     0
 49
-1.5
 74
     0
  0
ENDTAB
  0
TABLE
  2
LAYER
  5
2
330
0
100
AcDbSymbolTable
 70
     2
  0
LAYER
  5
10
330
2
100
AcDbSymbolTableRecord
100
AcDbLayerTableRecord
  2
0
 70
     0
 62
     7
  6
CONTINUOUS
370
    -3
390
F
  0
LAYER
  5
2B
330
2
100
AcDbSymbolTableRecord
100
AcDbLayerTableRecord
  2
DEFPOINTS
 70
     0
 62
     7
  6
CONTINUOUS
290
     0
370
    -3
390
F
  0
ENDTAB
  0
TABLE
  2
STYLE
  5
3
330
0
100
AcDbSymbolTable
 70
     2
  0
STYLE
  5
11
330
3
100
AcDbSymbolTableRecord
100
AcDbTextStyleTableRecord
  2
STANDARD
 70
     0
 40
0.0
 41
1.0
 50
0.0
 71
     0
 42
0.2
  3

  4

1001
ACAD
1000
MS Gothic
1071
    32817
  0
ENDTAB
  0
TABLE
  2
VIEW
  5
6
330
0
100
AcDbSymbolTable
 70
     0
  0
ENDTAB
  0
TABLE
  2
UCS
  5
7
330
0
100
AcDbSymbolTable
 70
     0
  0
ENDTAB
  0
TABLE
  2
APPID
  5
9
330
0
100
AcDbSymbolTable
 70
     2
  0
APPID
  5
12
330
9
100
AcDbSymbolTableRecord
100
AcDbRegAppTableRecord
  2
ACAD
 70
     0
  0
APPID
  5
35B
330
9
100
AcDbSymbolTableRecord
100
AcDbRegAppTableRecord
  2
ACAD_PSEXT
 70
     0
  0
ENDTAB
  0
TABLE
  2
DIMSTYLE
  5
A
330
0
100
AcDbSymbolTable
 70
    12
100
AcDbDimStyleTable
 71
     1
340
2C
  0
DIMSTYLE
105
2C
102
{ACAD_REACTORS
330
34C
102
}
330
A
100
AcDbSymbolTableRecord
100
AcDbDimStyleTableRecord
  2
DIMSTYLE1
 70
     0
 41
1.0
 42
2.54
 44
2.54
 73
     0
 74
     0
 77
     1
140
3.0
145
1.0
147
1.5
172
     1
173
     1
279
     2
340
11
  0
DIMSTYLE
105
2D
102
{ACAD_REACTORS
330
34D
102
}
330
A
100
AcDbSymbolTableRecord
100
AcDbDimStyleTableRecord
  2
DIMSTYLE2
 70
     0
 41
1.0
 42
2.54
 44
2.54
 73
     0
 74
     0
 77
     1
140
3.0
145
1.0
147
1.5
172
     1
173
     1
279
     2
340
11
  0
DIMSTYLE
105
2E
102
{ACAD_REACTORS
330
34E
102
}
330
A
100
AcDbSymbolTableRecord
100
AcDbDimStyleTableRecord
  2
DIMSTYLE3
 70
     0
 41
1.0
 42
2.54
 44
2.54
 73
     0
 74
     0
 77
     1
140
3.0
145
1.0
147
1.5
172
     1
173
     1
279
     2
340
11
  0
DIMSTYLE
105
2F
102
{ACAD_REACTORS
330
34F
102
}
330
A
100
AcDbSymbolTableRecord
100
AcDbDimStyleTableRecord
  2
DIMSTYLE4
 70
     0
 41
1.0
 42
2.54
 44
2.54
 73
     0
 74
     0
 77
     1
140
3.0
145
1.0
147
1.5
172
     1
173
     1
279
     2
340
11
  0
DIMSTYLE
105
30
102
{ACAD_REACTORS
330
350
102
}
330
A
100
AcDbSymbolTableRecord
100
AcDbDimStyleTableRecord
  2
DIMSTYLE5
 70
     0
 41
1.0
 42
2.54
 44
2.54
 73
     0
 74
     0
 77
     1
140
3.0
145
1.0
147
1.5
172
     1
173
     1
279
     2
340
11
  0
DIMSTYLE
105
31
102
{ACAD_REACTORS
330
351
102
}
330
A
100
AcDbSymbolTableRecord
100
AcDbDimStyleTableRecord
  2
DIMSTYLE6
 70
     0
 41
1.0
 42
2.54
 44
2.54
 73
     0
 74
     0
 77
     1
140
3.0
145
1.0
147
1.5
172
     1
173
     1
279
     2
340
11
  0
DIMSTYLE
105
32
102
{ACAD_REACTORS
330
353
102
}
330
A
100
AcDbSymbolTableRecord
100
AcDbDimStyleTableRecord
  2
DIMSTYLE7
 70
     0
 41
1.0
 42
2.54
 44
2.54
 73
     0
 74
     0
 77
     1
140
3.0
145
1.0
147
1.5
172
     1
173
     1
279
     2
340
11
  0
DIMSTYLE
105
33
102
{ACAD_REACTORS
330
354
102
}
330
A
100
AcDbSymbolTableRecord
100
AcDbDimStyleTableRecord
  2
DIMSTYLE8
 70
     0
 41
1.0
 42
2.54
 44
2.54
 73
     0
 74
     0
 77
     1
140
3.0
145
1.0
147
1.5
172
     1
173
     1
279
     2
340
11
  0
DIMSTYLE
105
34
102
{ACAD_REACTORS
330
356
102
}
330
A
100
AcDbSymbolTableRecord
100
AcDbDimStyleTableRecord
  2
DIMSTYLE9
 70
     0
 41
1.0
 42
2.54
 44
2.54
 73
     0
 74
     0
 75
     1
 76
     1
 77
     1
140
3.0
145
1.0
147
1.5
172
     1
173
     1
279
     2
340
11
  0
DIMSTYLE
105
35
102
{ACAD_REACTORS
330
357
102
}
330
A
100
AcDbSymbolTableRecord
100
AcDbDimStyleTableRecord
  2
DIMSTYLE10
 70
     0
 41
1.0
 42
2.54
 44
2.54
 73
     0
 74
     0
 75
     1
 76
     1
 77
     1
140
3.0
145
1.0
147
1.5
172
     1
173
     1
279
     2
340
11
  0
DIMSTYLE
105
36
102
{ACAD_REACTORS
330
358
102
}
330
A
100
AcDbSymbolTableRecord
100
AcDbDimStyleTableRecord
  2
DIMSTYLE11
 70
     0
 41
1.0
 42
2.54
 44
2.54
 73
     0
 74
     0
 75
     1
 76
     1
 77
     1
140
3.0
145
1.0
147
1.5
172
     1
173
     1
279
     2
340
11
  0
ENDTAB
  0
TABLE
  2
BLOCK_RECORD
  5
1
330
0
100
AcDbSymbolTable
 70
    15
  0
BLOCK_RECORD
  5
22
330
1
100
AcDbSymbolTableRecord
100
AcDbBlockTableRecord
  2
*Model_Space
340
25
  0
BLOCK_RECORD
  5
1E
330
1
100
AcDbSymbolTableRecord
100
AcDbBlockTableRecord
  2
*Paper_Space
340
21
  0
BLOCK_RECORD
  5
3A
330
1
100
AcDbSymbolTableRecord
100
AcDbBlockTableRecord
  2
_OPEN30
340
0
102
{BLKREFS
331
43
331
44
331
4F
331
50
331
5B
331
5C
331
65
331
66
331
72
331
74
331
7F
331
80
331
8A
331
8B
331
95
331
96
331
A1
331
A2
331
AB
331
AC
331
B5
331
B6
102
}
  0
BLOCK_RECORD
  5
40
330
1
100
AcDbSymbolTableRecord
100
AcDbBlockTableRecord
  2
*D1
340
0
  0
BLOCK_RECORD
  5
4C
330
1
100
AcDbSymbolTableRecord
100
AcDbBlockTableRecord
  2
*D2
340
0
  0
BLOCK_RECORD
  5
58
330
1
100
AcDbSymbolTableRecord
100
AcDbBlockTableRecord
  2
*D3
340
0
  0
BLOCK_RECORD
  5
62
330
1
100
AcDbSymbolTableRecord
100
AcDbBlockTableRecord
  2
*D4
340
0
  0
BLOCK_RECORD
  5
6E
330
1
100
AcDbSymbolTableRecord
100
AcDbBlockTableRecord
  2
*D5
340
0
  0
BLOCK_RECORD
  5
7C
330
1
100
AcDbSymbolTableRecord
100
AcDbBlockTableRecord
  2
*D6
340
0
  0
BLOCK_RECORD
  5
87
330
1
100
AcDbSymbolTableRecord
100
AcDbBlockTableRecord
  2
*D7
340
0
  0
BLOCK_RECORD
  5
92
330
1
100
AcDbSymbolTableRecord
100
AcDbBlockTableRecord
  2
*D8
340
0
  0
BLOCK_RECORD
  5
9D
330
1
100
AcDbSymbolTableRecord
100
AcDbBlockTableRecord
  2
*D9
340
0
  0
BLOCK_RECORD
  5
A7
330
1
100
AcDbSymbolTableRecord
100
AcDbBlockTableRecord
  2
*D10
340
0
  0
BLOCK_RECORD
  5
B1
330
1
100
AcDbSymbolTableRecord
100
AcDbBlockTableRecord
  2
*D11
340
0
  0
BLOCK_RECORD
  5
BB
330
1
100
AcDbSymbolTableRecord
100
AcDbBlockTableRecord
  2
KOZU0001
340
0
102
{BLKREFS
331
352
102
}
  0
BLOCK_RECORD
  5
C4
330
1
100
AcDbSymbolTableRecord
100
AcDbBlockTableRecord
  2
KOZU0002
340
0
102
{BLKREFS
331
355
102
}
  0
ENDTAB
  0
ENDSEC
  0
SECTION
  2
BLOCKS
  0
BLOCK
  5
23
330
22
100
AcDbEntity
  8
0
100
AcDbBlockBegin
  2
*Model_Space
 70
     0
 10
0.0
 20
0.0
 30
0.0
  3
*Model_Space
  1

  0
ENDBLK
  5
24
330
22
100
AcDbEntity
  8
0
100
AcDbBlockEnd
  0
BLOCK
  5
1F
330
1E
100
AcDbEntity
 67
     1
  8
0
100
AcDbBlockBegin
  2
*Paper_Space
 70
     0
 10
0.0
 20
0.0
 30
0.0
  3
*Paper_Space
  1

  0
ENDBLK
  5
20
330
1E
100
AcDbEntity
 67
     1
  8
0
100
AcDbBlockEnd
  0
BLOCK
  5
3B
330
3A
100
AcDbEntity
  8
0
100
AcDbBlockBegin
  2
_OPEN30
 70
     0
 10
0.0
 20
0.0
 30
0.0
  3
_OPEN30
  1

  0
LINE
  5
3C
330
3A
100
AcDbEntity
  8
0
  6
ByBlock
 62
     0
100
AcDbLine
 10
0.0
 20
0.0
 30
0.0
 11
-2.999999999999993
 21
-1.000000000000017
 31
0.0
  0
LINE
  5
3D
330
3A
100
AcDbEntity
  8
0
  6
ByBlock
 62
     0
100
AcDbLine
 10
0.0
 20
0.0
 30
0.0
 11
-3.000000000000006
 21
0.9999999999999815
 31
0.0
  0
LINE
  5
3E
330
3A
100
AcDbEntity
  8
0
  6
ByBlock
 62
     0
100
AcDbLine
 10
0.0
 20
0.0
 30
0.0
 11
-3.0
 21
0.0
 31
0.0
  0
ENDBLK
  5
3F
330
3A
100
AcDbEntity
  8
0
100
AcDbBlockEnd
  0
BLOCK
  5
41
330
40
100
AcDbEntity
  8
0
100
AcDbBlockBegin
  2
*D1
 70
     1
 10
0.0
 20
0.0
 30
0.0
  3
*D1
  1

  0
LINE
  5
42
330
40
100
AcDbEntity
  8
0
  6
Continuous
 62
     7
100
AcDbLine
 10
-170.9337768554688
 20
116.8429870605469
 30
0.0
 11
-102.9337692260742
 21
116.8429870605469
 31
0.0
  0
INSERT
  5
43
330
40
100
AcDbEntity
  8
0
  6
Continuous
 62
     7
100
AcDbBlockReference
  2
_OPEN30
 10
-173.9337768554688
 20
116.8429870605469
 30
0.0
 50
180.0000000000004
  0
INSERT
  5
44
330
40
100
AcDbEntity
  8
0
  6
Continuous
 62
     7
100
AcDbBlockReference
  2
_OPEN30
 10
-99.93376922607422
 20
116.8429870605469
 30
0.0
  0
LINE
  5
45
330
40
100
AcDbEntity
  8
0
  6
Continuous
 62
     7
100
AcDbLine
 10
-173.9337768554686
 20
184.3279351806641
 30
0.0
 11
-173.9337768554688
 21
114.5569915771484
 31
0.0
  0
LINE
  5
46
330
40
100
AcDbEntity
  8
0
  6
Continuous
 62
     7
100
AcDbLine
 10
-99.93376922607421
 20
183.3279351806641
 30
0.0
 11
-99.93376922607422
 21
114.5569915771484
 31
0.0
  0
TEXT
  5
47
330
40
100
AcDbEntity
  8
0
  6
Continuous
 62
     7
100
AcDbText
 10
-139.5037769675255
 20
117.5929870605469
 30
0.0
 40
3.0
  1
74
 41
1.028000020980834
100
AcDbText
  0
POINT
  5
48
330
40
100
AcDbEntity
  8
DEFPOINTS
  6
Continuous
 62
     7
100
AcDbPoint
 10
-173.9337768554688
 20
186.8679351806641
 30
0.0
  0
POINT
  5
49
330
40
100
AcDbEntity
  8
DEFPOINTS
  6
Continuous
 62
     7
100
AcDbPoint
 10
-99.93376922607422
 20
185.8679351806641
 30
0.0
  0
POINT
  5
4A
330
40
100
AcDbEntity
  8
DEFPOINTS
  6
Continuous
 62
     7
100
AcDbPoint
 10
-99.93376922607422
 20
116.8429870605469
 30
0.0
  0
ENDBLK
  5
4B
330
40
100
AcDbEntity
  8
0
100
AcDbBlockEnd
  0
BLOCK
  5
4D
330
4C
100
AcDbEntity
  8
0
100
AcDbBlockBegin
  2
*D2
 70
     1
 10
0.0
 20
0.0
 30
0.0
  3
*D2
  1

  0
LINE
  5
4E
330
4C
100
AcDbEntity
  8
0
  6
Continuous
 62
     7
100
AcDbLine
 10
-70.15733337402345
 20
187.8679351806641
 30
0.0
 11
-70.15733337402341
 21
278.8679504394531
 31
0.0
  0
INSERT
  5
4F
330
4C
100
AcDbEntity
  8
0
  6
Continuous
 62
     7
100
AcDbBlockReference
  2
_OPEN30
 10
-70.15733337402344
 20
184.8679351806641
 30
0.0
 50
270.0000000000005
  0
INSERT
  5
50
330
4C
100
AcDbEntity
  8
0
  6
Continuous
 62
     7
100
AcDbBlockReference
  2
_OPEN30
 10
-70.15733337402344
 20
281.8679504394531
 30
0.0
 50
90.00000000000019
  0
LINE
  5
51
330
4C
100
AcDbEntity
  8
0
  6
Continuous
 62
     7
100
AcDbLine
 10
-98.39376922607421
 20
184.8679351806641
 30
0.0
 11
-67.87133026123047
 21
184.8679351806641
 31
0.0
  0
LINE
  5
52
330
4C
100
AcDbEntity
  8
0
  6
Continuous
 62
     7
100
AcDbLine
 10
-98.39376922607421
 20
281.8679504394531
 30
0.0
 11
-67.87133026123047
 21
281.8679504394531
 31
0.0
  0
TEXT
  5
53
330
4C
100
AcDbEntity
  8
0
  6
Continuous
 62
     7
100
AcDbText
 10
-70.90733319611806
 20
229.2979349762192
 30
0.0
 40
3.0
  1
%%C97
 50
90.00000250447815
 41
0.9498249830693319
100
AcDbText
  0
POINT
  5
54
330
4C
100
AcDbEntity
  8
DEFPOINTS
  6
Continuous
 62
     7
100
AcDbPoint
 10
-100.9337692260742
 20
184.8679351806641
 30
0.0
  0
POINT
  5
55
330
4C
100
AcDbEntity
  8
DEFPOINTS
  6
Continuous
 62
     7
100
AcDbPoint
 10
-100.9337692260742
 20
281.8679504394531
 30
0.0
  0
POINT
  5
56
330
4C
100
AcDbEntity
  8
DEFPOINTS
  6
Continuous
 62
     7
100
AcDbPoint
 10
-70.15733337402344
 20
281.8679504394531
 30
0.0
  0
ENDBLK
  5
57
330
4C
100
AcDbEntity
  8
0
100
AcDbBlockEnd
  0
BLOCK
  5
59
330
58
100
AcDbEntity
  8
0
100
AcDbBlockBegin
  2
*D3
 70
     1
 10
0.0
 20
0.0
 30
0.0
  3
*D3
  1

  0
LINE
  5
5A
330
58
100
AcDbEntity
  8
0
  6
Continuous
 62
     7
100
AcDbLine
 10
-156.9337768554688
 20
244.3941040039061
 30
0.0
 11
-238.9337768554689
 21
244.3941040039063
 31
0.0
  0
INSERT
  5
5B
330
58
100
AcDbEntity
  8
0
  6
Continuous
 62
     7
100
AcDbBlockReference
  2
_OPEN30
 10
-153.9337768554688
 20
244.3941040039063
 30
0.0
  0
INSERT
  5
5C
330
58
100
AcDbEntity
  8
0
  6
Continuous
 62
     7
100
AcDbBlockReference
  2
_OPEN30
 10
-241.9337768554688
 20
244.3941040039063
 30
0.0
 50
180.0000000000004
  0
TEXT
  5
5D
330
58
100
AcDbEntity
  8
0
  6
Continuous
 62
     7
100
AcDbText
 10
-211.1620411276817
 20
245.1441040039064
 30
0.0
 40
3.0
  1
88
 41
1.028000020980834
100
AcDbText
  0
POINT
  5
5E
330
58
100
AcDbEntity
  8
DEFPOINTS
  6
Continuous
 62
     7
100
AcDbPoint
 10
-153.9337768554688
 20
233.3679351806641
 30
0.0
  0
POINT
  5
5F
330
58
100
AcDbEntity
  8
DEFPOINTS
  6
Continuous
 62
     7
100
AcDbPoint
 10
-241.9337768554688
 20
347.3679504394531
 30
0.0
  0
POINT
  5
60
330
58
100
AcDbEntity
  8
DEFPOINTS
  6
Continuous
 62
     7
100
AcDbPoint
 10
-241.9337768554688
 20
244.3941040039063
 30
0.0
  0
ENDBLK
  5
61
330
58
100
AcDbEntity
  8
0
100
AcDbBlockEnd
  0
BLOCK
  5
63
330
62
100
AcDbEntity
  8
0
100
AcDbBlockBegin
  2
*D4
 70
     1
 10
0.0
 20
0.0
 30
0.0
  3
*D4
  1

  0
LINE
  5
64
330
62
100
AcDbEntity
  8
0
  6
Continuous
 62
     7
100
AcDbLine
 10
-238.9337768554689
 20
372.1805419921875
 30
0.0
 11
-141.9337768554688
 21
372.1805419921875
 31
0.0
  0
INSERT
  5
65
330
62
100
AcDbEntity
  8
0
  6
Continuous
 62
     7
100
AcDbBlockReference
  2
_OPEN30
 10
-241.9337768554688
 20
372.1805419921875
 30
0.0
 50
180.0000000000004
  0
INSERT
  5
66
330
62
100
AcDbEntity
  8
0
  6
Continuous
 62
     7
100
AcDbBlockReference
  2
_OPEN30
 10
-138.9337768554687
 20
372.1805419921875
 30
0.0
  0
LINE
  5
67
330
62
100
AcDbEntity
  8
0
  6
Continuous
 62
     7
100
AcDbLine
 10
-241.9337768554688
 20
349.9079504394532
 30
0.0
 11
-241.9337768554688
 21
374.4665222167969
 31
0.0
  0
LINE
  5
68
330
62
100
AcDbEntity
  8
0
  6
Continuous
 62
     7
100
AcDbLine
 10
-138.9337768554687
 20
331.4079504394532
 30
0.0
 11
-138.9337768554687
 21
374.4665222167969
 31
0.0
  0
TEXT
  5
69
330
62
100
AcDbEntity
  8
0
  6
Continuous
 62
     7
100
AcDbText
 10
-208.0037775635719
 20
372.9305419921875
 30
0.0
 40
3.0
  1
１０３　（９５～１１１）
 41
0.8436974815103043
100
AcDbText
  0
POINT
  5
6A
330
62
100
AcDbEntity
  8
DEFPOINTS
  6
Continuous
 62
     7
100
AcDbPoint
 10
-241.9337768554688
 20
347.3679504394531
 30
0.0
  0
POINT
  5
6B
330
62
100
AcDbEntity
  8
DEFPOINTS
  6
Continuous
 62
     7
100
AcDbPoint
 10
-138.9337768554687
 20
328.8679504394531
 30
0.0
  0
POINT
  5
6C
330
62
100
AcDbEntity
  8
DEFPOINTS
  6
Continuous
 62
     7
100
AcDbPoint
 10
-138.9337768554687
 20
372.1805419921875
 30
0.0
  0
ENDBLK
  5
6D
330
62
100
AcDbEntity
  8
0
100
AcDbBlockEnd
  0
BLOCK
  5
6F
330
6E
100
AcDbEntity
  8
0
100
AcDbBlockBegin
  2
*D5
 70
     1
 10
0.0
 20
0.0
 30
0.0
  3
*D5
  1

  0
LINE
  5
70
330
6E
100
AcDbEntity
  8
0
  6
Continuous
 62
     7
100
AcDbLine
 10
-135.4337768554688
 20
372.1805419921875
 30
0.0
 11
-121.5747909545898
 21
372.1805419921875
 31
0.0
  0
LINE
  5
71
330
6E
100
AcDbEntity
  8
0
  6
Continuous
 62
     7
100
AcDbLine
 10
-138.9337768554687
 20
372.1805419921875
 30
0.0
 11
-135.4337768554688
 21
372.1805419921875
 31
0.0
  0
INSERT
  5
72
330
6E
100
AcDbEntity
  8
0
  6
Continuous
 62
     7
100
AcDbBlockReference
  2
_OPEN30
 10
-138.9337768554687
 20
372.1805419921875
 30
0.0
 50
0.0000000000003562
  0
LINE
  5
73
330
6E
100
AcDbEntity
  8
0
  6
Continuous
 62
     7
100
AcDbLine
 10
-141.9337768554688
 20
372.1805419921875
 30
0.0
 11
-145.2837768554687
 21
372.1805419921873
 31
0.0
  0
INSERT
  5
74
330
6E
100
AcDbEntity
  8
0
  6
Continuous
 62
     7
100
AcDbBlockReference
  2
_OPEN30
 10
-135.4337768554688
 20
372.1805419921875
 30
0.0
 50
180.0
  0
LINE
  5
75
330
6E
100
AcDbEntity
  8
0
  6
Continuous
 62
     7
100
AcDbLine
 10
-132.4337768554687
 20
372.1805419921875
 30
0.0
 11
-129.0837768554688
 21
372.1805419921875
 31
0.0
  0
LINE
  5
76
330
6E
100
AcDbEntity
  8
0
  6
Continuous
 62
     7
100
AcDbLine
 10
-135.4337768554688
 20
332.9079504394532
 30
0.0
 11
-135.4337768554688
 21
374.4665222167969
 31
0.0
  0
TEXT
  5
77
330
6E
100
AcDbEntity
  8
0
  6
Continuous
 62
     7
100
AcDbText
 10
-129.7147908210754
 20
372.9305419921875
 30
0.0
 40
3.0
  1
3.5
 41
1.356666684150696
100
AcDbText
  0
POINT
  5
78
330
6E
100
AcDbEntity
  8
DEFPOINTS
  6
Continuous
 62
     7
100
AcDbPoint
 10
-138.9337768554687
 20
374.4665222167969
 30
0.0
  0
POINT
  5
79
330
6E
100
AcDbEntity
  8
DEFPOINTS
  6
Continuous
 62
     7
100
AcDbPoint
 10
-135.4337768554688
 20
330.3679504394531
 30
0.0
  0
POINT
  5
7A
330
6E
100
AcDbEntity
  8
DEFPOINTS
  6
Continuous
 62
     7
100
AcDbPoint
 10
-135.4337768554688
 20
372.1805419921875
 30
0.0
  0
ENDBLK
  5
7B
330
6E
100
AcDbEntity
  8
0
100
AcDbBlockEnd
  0
BLOCK
  5
7D
330
7C
100
AcDbEntity
  8
0
100
AcDbBlockBegin
  2
*D6
 70
     1
 10
0.0
 20
0.0
 30
0.0
  3
*D6
  1

  0
LINE
  5
7E
330
7C
100
AcDbEntity
  8
0
  6
Continuous
 62
     7
100
AcDbLine
 10
-141.9337768554688
 20
360.1519165039063
 30
0.0
 11
-170.9337768554688
 21
360.1519165039063
 31
0.0
  0
INSERT
  5
7F
330
7C
100
AcDbEntity
  8
0
  6
Continuous
 62
     7
100
AcDbBlockReference
  2
_OPEN30
 10
-138.9337768554687
 20
360.1519165039063
 30
0.0
  0
INSERT
  5
80
330
7C
100
AcDbEntity
  8
0
  6
Continuous
 62
     7
100
AcDbBlockReference
  2
_OPEN30
 10
-173.9337768554688
 20
360.1519165039063
 30
0.0
 50
180.0000000000004
  0
LINE
  5
81
330
7C
100
AcDbEntity
  8
0
  6
Continuous
 62
     7
100
AcDbLine
 10
-173.9337768554688
 20
282.4079504394532
 30
0.0
 11
-173.9337768554688
 21
362.4379272460938
 31
0.0
  0
TEXT
  5
82
330
7C
100
AcDbEntity
  8
0
  6
Continuous
 62
     7
100
AcDbText
 10
-159.0037769675255
 20
360.9019165039063
 30
0.0
 40
3.0
  1
35
 41
1.028000020980834
100
AcDbText
  0
POINT
  5
83
330
7C
100
AcDbEntity
  8
DEFPOINTS
  6
Continuous
 62
     7
100
AcDbPoint
 10
-138.9337768554687
 20
374.4665222167969
 30
0.0
  0
POINT
  5
84
330
7C
100
AcDbEntity
  8
DEFPOINTS
  6
Continuous
 62
     7
100
AcDbPoint
 10
-173.9337768554688
 20
279.8679504394531
 30
0.0
  0
POINT
  5
85
330
7C
100
AcDbEntity
  8
DEFPOINTS
  6
Continuous
 62
     7
100
AcDbPoint
 10
-173.9337768554688
 20
360.1519165039063
 30
0.0
  0
ENDBLK
  5
86
330
7C
100
AcDbEntity
  8
0
100
AcDbBlockEnd
  0
BLOCK
  5
88
330
87
100
AcDbEntity
  8
0
100
AcDbBlockBegin
  2
*D7
 70
     1
 10
0.0
 20
0.0
 30
0.0
  3
*D7
  1

  0
LINE
  5
89
330
87
100
AcDbEntity
  8
0
  6
Continuous
 62
     7
100
AcDbLine
 10
-107.2143402099609
 20
181.8679351806641
 30
0.0
 11
-107.214340209961
 21
170.8679351806641
 31
0.0
  0
INSERT
  5
8A
330
87
100
AcDbEntity
  8
0
  6
Continuous
 62
     7
100
AcDbBlockReference
  2
_OPEN30
 10
-107.2143402099609
 20
184.8679351806641
 30
0.0
 50
90.00000000000019
  0
INSERT
  5
8B
330
87
100
AcDbEntity
  8
0
  6
Continuous
 62
     7
100
AcDbBlockReference
  2
_OPEN30
 10
-107.2143402099609
 20
167.8679351806641
 30
0.0
 50
270.0000000000005
  0
LINE
  5
8C
330
87
100
AcDbEntity
  8
0
  6
Continuous
 62
     7
100
AcDbLine
 10
-131.4171838378906
 20
167.8679351806641
 30
0.0
 11
-104.9283447265625
 21
167.8679351806641
 31
0.0
  0
TEXT
  5
8D
330
87
100
AcDbEntity
  8
0
  6
Continuous
 62
     7
100
AcDbText
 10
-107.9643400976227
 20
173.7979350358238
 30
0.0
 40
3.0
  1
17
 50
90.00000250447815
 41
1.285000026226043
100
AcDbText
  0
POINT
  5
8E
330
87
100
AcDbEntity
  8
DEFPOINTS
  6
Continuous
 62
     7
100
AcDbPoint
 10
-100.9337692260742
 20
184.8679351806641
 30
0.0
  0
POINT
  5
8F
330
87
100
AcDbEntity
  8
DEFPOINTS
  6
Continuous
 62
     7
100
AcDbPoint
 10
-133.9571838378906
 20
167.8679351806641
 30
0.0
  0
POINT
  5
90
330
87
100
AcDbEntity
  8
DEFPOINTS
  6
Continuous
 62
     7
100
AcDbPoint
 10
-107.2143402099609
 20
167.8679351806641
 30
0.0
  0
ENDBLK
  5
91
330
87
100
AcDbEntity
  8
0
100
AcDbBlockEnd
  0
BLOCK
  5
93
330
92
100
AcDbEntity
  8
0
100
AcDbBlockBegin
  2
*D8
 70
     1
 10
0.0
 20
0.0
 30
0.0
  3
*D8
  1

  0
LINE
  5
94
330
92
100
AcDbEntity
  8
0
  6
Continuous
 62
     7
100
AcDbLine
 10
-132.4337768554687
 20
156.5197601318359
 30
0.0
 11
-118.4337692260742
 21
156.5197601318359
 31
0.0
  0
INSERT
  5
95
330
92
100
AcDbEntity
  8
0
  6
Continuous
 62
     7
100
AcDbBlockReference
  2
_OPEN30
 10
-135.4337768554688
 20
156.5197601318359
 30
0.0
 50
180.0000000000004
  0
INSERT
  5
96
330
92
100
AcDbEntity
  8
0
  6
Continuous
 62
     7
100
AcDbBlockReference
  2
_OPEN30
 10
-115.4337692260742
 20
156.5197601318359
 30
0.0
  0
LINE
  5
97
330
92
100
AcDbEntity
  8
0
  6
Continuous
 62
     7
100
AcDbLine
 10
-115.4337692260742
 20
180.3279351806641
 30
0.0
 11
-115.4337692260742
 21
154.2337493896484
 31
0.0
  0
TEXT
  5
98
330
92
100
AcDbEntity
  8
0
  6
Continuous
 62
     7
100
AcDbText
 10
-128.003769338131
 20
157.2697601318359
 30
0.0
 40
3.0
  1
20
 41
1.101428593908038
100
AcDbText
  0
POINT
  5
99
330
92
100
AcDbEntity
  8
DEFPOINTS
  6
Continuous
 62
     7
100
AcDbPoint
 10
-135.4337768554688
 20
136.3679351806641
 30
0.0
  0
POINT
  5
9A
330
92
100
AcDbEntity
  8
DEFPOINTS
  6
Continuous
 62
     7
100
AcDbPoint
 10
-115.4337692260742
 20
182.8679351806641
 30
0.0
  0
POINT
  5
9B
330
92
100
AcDbEntity
  8
DEFPOINTS
  6
Continuous
 62
     7
100
AcDbPoint
 10
-115.4337692260742
 20
156.5197601318359
 30
0.0
  0
ENDBLK
  5
9C
330
92
100
AcDbEntity
  8
0
100
AcDbBlockEnd
  0
BLOCK
  5
9E
330
9D
100
AcDbEntity
  8
0
100
AcDbBlockBegin
  2
*D9
 70
     1
 10
0.0
 20
0.0
 30
0.0
  3
*D9
  1

  0
LINE
  5
9F
330
9D
100
AcDbEntity
  8
0
  6
Continuous
 62
     7
100
AcDbLine
 10
-391.4643859863281
 20
321.7357788085938
 30
0.0
 11
-368.6564025878906
 21
370.6563720703125
 31
0.0
  0
LINE
  5
A0
330
9D
100
AcDbEntity
  8
0
  6
Continuous
 62
     7
100
AcDbLine
 10
-472.5951552214095
 20
147.7191171406906
 30
0.0
 11
-392.7320542512467
 21
319.0167684794265
 31
0.0
  0
INSERT
  5
A1
330
9D
100
AcDbEntity
  8
0
  6
Continuous
 62
     7
100
AcDbBlockReference
  2
_OPEN30
 10
-473.8628234863281
 20
145.0001068115234
 30
0.0
 50
245.0039304731509
  0
INSERT
  5
A2
330
9D
100
AcDbEntity
  8
0
  6
Continuous
 62
     7
100
AcDbBlockReference
  2
_OPEN30
 10
-391.4643859863281
 20
321.7357788085938
 30
0.0
 50
65.00393047315028
  0
TEXT
  5
A3
330
9D
100
AcDbEntity
  8
0
  6
Continuous
 62
     7
100
AcDbText
 10
-382.9181058278697
 20
341.8441191002627
 30
0.0
 40
3.0
  1
%%C１９５（防水皿外径）
 50
65.00000067042492
 41
0.8440126077968535
100
AcDbText
  0
POINT
  5
A4
330
9D
100
AcDbEntity
  8
DEFPOINTS
  6
Continuous
 62
     7
100
AcDbPoint
 10
-473.8628234863281
 20
145.0001068115234
 30
0.0
  0
POINT
  5
A5
330
9D
100
AcDbEntity
  8
DEFPOINTS
  6
Continuous
 62
     7
100
AcDbPoint
 10
-391.4643859863281
 20
321.7357788085938
 30
0.0
  0
ENDBLK
  5
A6
330
9D
100
AcDbEntity
  8
0
100
AcDbBlockEnd
  0
BLOCK
  5
A8
330
A7
100
AcDbEntity
  8
0
100
AcDbBlockBegin
  2
*D10
 70
     1
 10
0.0
 20
0.0
 30
0.0
  3
*D10
  1

  0
LINE
  5
A9
330
A7
100
AcDbEntity
  8
0
  6
Continuous
 62
     7
100
AcDbLine
 10
-362.7003784179688
 20
322.7323913574219
 30
0.0
 11
-337.4883728027344
 21
355.6224060058594
 31
0.0
  0
LINE
  5
AA
330
A7
100
AcDbEntity
  8
0
  6
Continuous
 62
     7
100
AcDbLine
 10
-500.8017034025436
 20
142.574062326055
 30
0.0
 11
-364.5255060701126
 21
320.3514442657418
 31
0.0
  0
INSERT
  5
AB
330
A7
100
AcDbEntity
  8
0
  6
Continuous
 62
     7
100
AcDbBlockReference
  2
_OPEN30
 10
-502.6268310546875
 20
140.193115234375
 30
0.0
 50
232.5278387720593
  0
INSERT
  5
AC
330
A7
100
AcDbEntity
  8
0
  6
Continuous
 62
     7
100
AcDbBlockReference
  2
_OPEN30
 10
-362.7003784179688
 20
322.7323913574219
 30
0.0
 50
52.52783877205857
  0
TEXT
  5
AD
330
A7
100
AcDbEntity
  8
0
  6
Continuous
 62
     7
100
AcDbText
 10
-357.6427652303583
 20
330.5758516617354
 30
0.0
 40
3.0
  1
%%C２３０（目皿受外径）
 50
52.49999975339831
 41
0.8440126077968535
100
AcDbText
  0
POINT
  5
AE
330
A7
100
AcDbEntity
  8
DEFPOINTS
  6
Continuous
 62
     7
100
AcDbPoint
 10
-502.6268310546875
 20
140.193115234375
 30
0.0
  0
POINT
  5
AF
330
A7
100
AcDbEntity
  8
DEFPOINTS
  6
Continuous
 62
     7
100
AcDbPoint
 10
-362.7003784179688
 20
322.7323913574219
 30
0.0
  0
ENDBLK
  5
B0
330
A7
100
AcDbEntity
  8
0
100
AcDbBlockEnd
  0
BLOCK
  5
B2
330
B1
100
AcDbEntity
  8
0
100
AcDbBlockBegin
  2
*D11
 70
     1
 10
0.0
 20
0.0
 30
0.0
  3
*D11
  1

  0
LINE
  5
B3
330
B1
100
AcDbEntity
  8
0
  6
Continuous
 62
     7
100
AcDbLine
 10
-347.5920104980469
 20
292.1510620117188
 30
0.0
 11
-309.1855163574219
 21
319.5494689941406
 31
0.0
  0
LINE
  5
B4
330
B1
100
AcDbEntity
  8
0
  6
Continuous
 62
     7
100
AcDbLine
 10
-515.2929823836289
 20
172.516677598871
 30
0.0
 11
-350.0342576066056
 21
290.4088137341368
 31
0.0
  0
INSERT
  5
B5
330
B1
100
AcDbEntity
  8
0
  6
Continuous
 62
     7
100
AcDbBlockReference
  2
_OPEN30
 10
-517.7352294921875
 20
170.7744293212891
 30
0.0
 50
215.503270540357
  0
INSERT
  5
B6
330
B1
100
AcDbEntity
  8
0
  6
Continuous
 62
     7
100
AcDbBlockReference
  2
_OPEN30
 10
-347.5920104980469
 20
292.1510620117188
 30
0.0
 50
35.50327054035628
  0
TEXT
  5
B7
330
B1
100
AcDbEntity
  8
0
  6
Continuous
 62
     7
100
AcDbText
 10
-333.3438826358271
 20
303.2376958023796
 30
0.0
 40
3.0
  1
%%C２０９（目皿外径）
 50
35.50000041869507
 41
0.8443929326254473
100
AcDbText
  0
POINT
  5
B8
330
B1
100
AcDbEntity
  8
DEFPOINTS
  6
Continuous
 62
     7
100
AcDbPoint
 10
-517.7352294921875
 20
170.7744293212891
 30
0.0
  0
POINT
  5
B9
330
B1
100
AcDbEntity
  8
DEFPOINTS
  6
Continuous
 62
     7
100
AcDbPoint
 10
-347.5920104980469
 20
292.1510620117188
 30
0.0
  0
ENDBLK
  5
BA
330
B1
100
AcDbEntity
  8
0
100
AcDbBlockEnd
  0
BLOCK
  5
BC
330
BB
100
AcDbEntity
  8
0
100
AcDbBlockBegin
  2
KOZU0001
 70
     0
 10
0.0
 20
0.0
 30
0.0
  3
KOZU0001
  1

  0
LINE
  5
BD
330
BB
100
AcDbEntity
  8
0
  6
Continuous
 62
     7
100
AcDbLine
 10
0.0
 20
0.0
 30
0.0
 11
37.61566162109375
 21
32.14813232421875
 31
0.0
  0
LINE
  5
BE
330
BB
100
AcDbEntity
  8
0
  6
Continuous
 62
     7
100
AcDbLine
 10
37.61566162109375
 20
32.14813232421875
 30
0.0
 11
63.33676528930664
 21
32.14813232421875
 31
0.0
  0
LINE
  5
BF
330
BB
100
AcDbEntity
  8
0
  6
Continuous
 62
     7
100
AcDbLine
 10
0.0
 20
0.0
 30
0.0
 11
1.630882190128585
 21
2.709284643945959
 31
0.0
  0
LINE
  5
C0
330
BB
100
AcDbEntity
  8
0
  6
Continuous
 62
     7
100
AcDbLine
 10
0.0
 20
0.0
 30
0.0
 11
2.930276538470444
 21
1.188898401079617
 31
0.0
  0
TEXT
  5
C1
330
BB
100
AcDbEntity
  8
0
  6
Continuous
 62
     7
100
AcDbText
 10
38.60303425788879
 20
32.89813232421875
 30
0.0
 40
3.0
  1
配管接続口
 41
0.8487395020950888
100
AcDbText
  0
TEXT
  5
C2
330
BB
100
AcDbEntity
  8
0
  6
Continuous
 62
     7
100
AcDbText
 10
38.60303425788879
 20
27.63313232421875
 30
0.0
 40
3.0
  1
Ｒｃ３（８０Ａ）
 41
0.8454512278006642
100
AcDbText
  0
ENDBLK
  5
C3
330
BB
100
AcDbEntity
  8
0
100
AcDbBlockEnd
  0
BLOCK
  5
C5
330
C4
100
AcDbEntity
  8
0
100
AcDbBlockBegin
  2
KOZU0002
 70
     0
 10
0.0
 20
0.0
 30
0.0
  3
KOZU0002
  1

  0
LINE
  5
C6
330
C4
100
AcDbEntity
  8
0
  6
Continuous
 62
     7
100
AcDbLine
 10
0.0
 20
0.0
 30
0.0
 11
40.1627197265625
 21
-41.80574035644531
 31
0.0
  0
LINE
  5
C7
330
C4
100
AcDbEntity
  8
0
  6
Continuous
 62
     7
100
AcDbLine
 10
40.1627197265625
 20
-41.80574035644531
 30
0.0
 11
65.88381958007814
 21
-41.80574035644531
 31
0.0
  0
LINE
  5
C8
330
C4
100
AcDbEntity
  8
0
  6
Continuous
 62
     7
100
AcDbLine
 10
0.0
 20
0.0
 30
0.0
 11
2.799517510897195
 21
-1.470612697544793
 31
0.0
  0
LINE
  5
C9
330
C4
100
AcDbEntity
  8
0
  6
Continuous
 62
     7
100
AcDbLine
 10
0.0
 20
0.0
 30
0.0
 11
1.35724639019088
 21
-2.856200664574151
 31
0.0
  0
TEXT
  5
CA
330
C4
100
AcDbEntity
  8
0
  6
Continuous
 62
     7
100
AcDbText
 10
41.57039570808411
 20
-41.05574035644531
 30
0.0
 40
3.0
  1
共廻り防止用羽根
 41
0.8454512278006642
100
AcDbText
  0
TEXT
  5
CB
330
C4
100
AcDbEntity
  8
0
  6
Continuous
 62
     7
100
AcDbText
 10
41.57039570808411
 20
-46.32074035644531
 30
0.0
 40
3.0
  1
３ヶ所
 41
0.8550420278260688
100
AcDbText
  0
ENDBLK
  5
CC
330
C4
100
AcDbEntity
  8
0
100
AcDbBlockEnd
  0
ENDSEC
  0
SECTION
  2
ENTITIES
  0
POINT
  5
CD
330
22
100
AcDbEntity
  8
0
  6
Continuous
 62
     7
100
AcDbPoint
 10
-135.4337768554688
 20
233.3679351806641
 30
0.0
  0
POINT
  5
CE
330
22
100
AcDbEntity
  8
0
  6
Continuous
 62
     7
100
AcDbPoint
 10
-432.6636047363281
 20
233.3679351806641
 30
0.0
  0
POINT
  5
CF
330
22
100
AcDbEntity
  8
0
  6
Continuous
 62
     7
100
AcDbPoint
 10
-135.4337768554688
 20
233.3679351806641
 30
0.0
  0
POINT
  5
D0
330
22
100
AcDbEntity
  8
0
  6
Continuous
 62
     7
100
AcDbPoint
 10
-432.6636047363281
 20
233.3679351806641
 30
0.0
  0
POINT
  5
D1
330
22
100
AcDbEntity
  8
0
  6
Continuous
 62
     7
100
AcDbPoint
 10
-99.93376922607422
 20
277.3079223632813
 30
0.0
  0
POINT
  5
D2
330
22
100
AcDbEntity
  8
0
  6
Continuous
 62
     7
100
AcDbPoint
 10
-134.3647766113281
 20
276.231903076172
 30
0.0
  0
POINT
  5
D3
330
22
100
AcDbEntity
  8
0
  6
Continuous
 62
     7
100
AcDbPoint
 10
-99.93376922607422
 20
276.231903076172
 30
0.0
  0
POINT
  5
D4
330
22
100
AcDbEntity
  8
0
  6
Continuous
 62
     7
100
AcDbPoint
 10
-117.1492691040039
 20
276.7699279785156
 30
0.0
  0
POINT
  5
D5
330
22
100
AcDbEntity
  8
0
  6
Continuous
 62
     7
100
AcDbPoint
 10
-108.5415191650391
 20
277.0389404296875
 30
0.0
  0
POINT
  5
D6
330
22
100
AcDbEntity
  8
0
  6
Continuous
 62
     7
100
AcDbPoint
 10
-112.8453979492188
 20
276.9044189453125
 30
0.0
  0
POINT
  5
D7
330
22
100
AcDbEntity
  8
0
  6
Continuous
 62
     7
100
AcDbPoint
 10
-114.9973297119141
 20
276.8371887207031
 30
0.0
  0
LINE
  5
D8
330
22
100
AcDbEntity
  8
0
  6
Continuous
 62
     7
100
AcDbLine
 10
-134.4337768554688
 20
281.8679504394531
 30
0.0
 11
-100.9337692260742
 21
281.8679504394531
 31
0.0
  0
LINE
  5
D9
330
22
100
AcDbEntity
  8
0
  6
Continuous
 62
     7
100
AcDbLine
 10
-132.9337768554688
 20
274.8009033203125
 30
0.0
 11
-101.4570999145508
 21
275.7846069335938
 31
0.0
  0
LINE
  5
DA
330
22
100
AcDbEntity
  8
0
  6
Continuous
 62
     7
100
AcDbLine
 10
-99.93376922607422
 20
277.3079223632813
 30
0.0
 11
-134.3647766113281
 21
276.231903076172
 31
0.0
  0
LINE
  5
DB
330
22
100
AcDbEntity
  8
0
  6
Continuous
 62
     7
100
AcDbLine
 10
-99.93376922607422
 20
277.3079223632813
 30
0.0
 11
-101.4570999145508
 21
275.7846069335938
 31
0.0
  0
LINE
  5
DC
330
22
100
AcDbEntity
  8
0
  6
Continuous
 62
     7
100
AcDbLine
 10
-132.9337768554688
 20
274.8009033203125
 30
0.0
 11
-134.3647766113281
 21
276.231903076172
 31
0.0
  0
LINE
  5
DD
330
22
100
AcDbEntity
  8
0
  6
Continuous
 62
     7
100
AcDbLine
 10
-134.3647766113281
 20
276.231903076172
 30
0.0
 11
-138.9337768554687
 21
276.231903076172
 31
0.0
  0
LINE
  5
DE
330
22
100
AcDbEntity
  8
0
  6
Continuous
 62
     7
100
AcDbLine
 10
-140.4087677001952
 20
275.8329467773438
 30
0.0
 11
-138.9337768554687
 21
277.3079223632813
 31
0.0
  0
LINE
  5
DF
330
22
100
AcDbEntity
  8
0
  6
Continuous
 62
     7
100
AcDbLine
 10
-137.9337768554687
 20
314.1203308105469
 30
0.0
 11
-138.9337768554687
 21
313.1203308105469
 31
0.0
  0
LINE
  5
E0
330
22
100
AcDbEntity
  8
0
  6
Continuous
 62
     7
100
AcDbLine
 10
-135.9337768554688
 20
330.8679504394531
 30
0.0
 11
-136.9337768554688
 21
330.8679504394531
 31
0.0
  0
LINE
  5
E1
330
22
100
AcDbEntity
  8
0
  6
Continuous
 62
     7
100
AcDbLine
 10
-137.9337768554687
 20
314.1203308105469
 30
0.0
 11
-138.9337768554687
 21
315.1203308105469
 31
0.0
  0
LINE
  5
E2
330
22
100
AcDbEntity
  8
0
  6
Continuous
 62
     7
100
AcDbLine
 10
-186.8884582519531
 20
275.8179321289063
 30
0.0
 11
-188.3884582519531
 21
277.3179321289063
 31
0.0
  0
LINE
  5
E3
330
22
100
AcDbEntity
  8
0
  6
Continuous
 62
     7
100
AcDbLine
 10
-173.9337768554688
 20
276.1679382324219
 30
0.0
 11
-173.9337768554688
 21
279.8679504394531
 31
0.0
  0
LINE
  5
E4
330
22
100
AcDbEntity
  8
0
  6
Continuous
 62
     7
100
AcDbLine
 10
-173.9337768554688
 20
277.3079223632813
 30
0.0
 11
-172.4587707519531
 21
275.8329467773438
 31
0.0
  0
LINE
  5
E5
330
22
100
AcDbEntity
  8
0
  6
Continuous
 62
     7
100
AcDbLine
 10
-241.9337768554688
 20
236.3679351806641
 30
0.0
 11
-238.9337768554689
 21
236.3679351806641
 31
0.0
  0
LINE
  5
E6
330
22
100
AcDbEntity
  8
0
  6
Continuous
 62
     7
100
AcDbLine
 10
-225.9233551025391
 20
310.30126953125
 30
0.0
 11
-236.9337768554689
 21
310.30126953125
 31
0.0
  0
LINE
  5
E7
330
22
100
AcDbEntity
  8
0
  6
Continuous
 62
     7
100
AcDbLine
 10
-236.9337768554689
 20
334.8679504394531
 30
0.0
 11
-232.5318450927734
 21
334.8679504394531
 31
0.0
  0
LINE
  5
E8
330
22
100
AcDbEntity
  8
0
  6
Continuous
 62
     7
100
AcDbLine
 10
-236.9337768554689
 20
341.3679504394531
 30
0.0
 11
-232.8205261230469
 21
341.3679504394531
 31
0.0
  0
LINE
  5
E9
330
22
100
AcDbEntity
  8
0
  6
Continuous
 62
     7
100
AcDbLine
 10
-241.9337768554688
 20
338.3679504394531
 30
0.0
 11
-236.9337768554689
 21
338.3679504394531
 31
0.0
  0
LINE
  5
EA
330
22
100
AcDbEntity
  8
0
  6
Continuous
 62
     7
100
AcDbLine
 10
-236.9337768554689
 20
338.3679504394531
 30
0.0
 11
-236.9337768554689
 21
334.8679504394531
 31
0.0
  0
LINE
  5
EB
330
22
100
AcDbEntity
  8
0
  6
Continuous
 62
     7
100
AcDbLine
 10
-237.9337768554688
 20
347.3679504394531
 30
0.0
 11
-237.9337768554688
 21
342.3679504394531
 31
0.0
  0
LINE
  5
EC
330
22
100
AcDbEntity
  8
0
  6
Continuous
 62
     7
100
AcDbLine
 10
-241.9337768554688
 20
337.8679504394531
 30
0.0
 11
-236.9337768554689
 21
337.8679504394531
 31
0.0
  0
LINE
  5
ED
330
22
100
AcDbEntity
  8
0
  6
Continuous
 62
     7
100
AcDbLine
 10
-238.9337768554689
 20
334.8679504394531
 30
0.0
 11
-236.9337768554689
 21
334.8679504394531
 31
0.0
  0
LINE
  5
EE
330
22
100
AcDbEntity
  8
0
  6
Continuous
 62
     7
100
AcDbLine
 10
-240.9337768554689
 20
348.3679504394531
 30
0.0
 11
-238.9337768554689
 21
348.3679504394531
 31
0.0
  0
LINE
  5
EF
330
22
100
AcDbEntity
  8
0
  6
Continuous
 62
     7
100
AcDbLine
 10
-241.9337768554688
 20
303.4679260253906
 30
0.0
 11
-238.9337768554689
 21
303.4679260253906
 31
0.0
  0
LINE
  5
F0
330
22
100
AcDbEntity
  8
0
  6
Continuous
 62
     7
100
AcDbLine
 10
-241.9337768554688
 20
330.8679504394531
 30
0.0
 11
-238.9337768554689
 21
330.8679504394531
 31
0.0
  0
LINE
  5
F1
330
22
100
AcDbEntity
  8
0
  6
Continuous
 62
     7
100
AcDbLine
 10
-135.9337768554688
 20
135.8679351806641
 30
0.0
 11
-136.9337768554688
 21
135.8679351806641
 31
0.0
  0
LINE
  5
F2
330
22
100
AcDbEntity
  8
0
  6
Continuous
 62
     7
100
AcDbLine
 10
-134.4337768554688
 20
184.8679351806641
 30
0.0
 11
-100.9337692260742
 21
184.8679351806641
 31
0.0
  0
LINE
  5
F3
330
22
100
AcDbEntity
  8
0
  6
Continuous
 62
     7
100
AcDbLine
 10
-135.4337768554688
 20
167.8679351806641
 30
0.0
 11
-133.9571838378906
 21
167.8679351806641
 31
0.0
  0
LINE
  5
F4
330
22
100
AcDbEntity
  8
0
  6
Continuous
 62
     7
100
AcDbLine
 10
-115.4337692260742
 20
184.8679351806641
 30
0.0
 11
-115.4337692260742
 21
182.8679351806641
 31
0.0
  0
LINE
  5
F5
330
22
100
AcDbEntity
  8
0
  6
Continuous
 62
     7
100
AcDbLine
 10
-117.4337692260742
 20
180.8679351806641
 30
0.0
 11
-118.4337692260742
 21
180.8679351806641
 31
0.0
  0
LINE
  5
F6
330
22
100
AcDbEntity
  8
0
  6
Continuous
 62
     7
100
AcDbLine
 10
-225.7005462646484
 20
297.30126953125
 30
0.0
 11
-236.9337768554689
 21
297.30126953125
 31
0.0
  0
LINE
  5
F7
330
22
100
AcDbEntity
  8
0
  6
Continuous
 62
     7
100
AcDbLine
 10
-241.9337768554688
 20
266.0179443359375
 30
0.0
 11
-238.9337768554689
 21
266.0179443359375
 31
0.0
  0
LINE
  5
F8
330
22
100
AcDbEntity
  8
0
  6
Continuous
 62
     7
100
AcDbLine
 10
-241.9337768554688
 20
271.0679321289063
 30
0.0
 11
-238.9337768554689
 21
271.0679321289063
 31
0.0
  0
LINE
  5
F9
330
22
100
AcDbEntity
  8
0
  6
Continuous
 62
     7
100
AcDbLine
 10
-188.3884582519531
 20
277.3179321289063
 30
0.0
 11
-191.2224426269531
 21
277.3179321289063
 31
0.0
  0
LINE
  5
FA
330
22
100
AcDbEntity
  8
0
  6
Continuous
 62
     7
100
AcDbLine
 10
-154.9337768554688
 20
273.3679504394531
 30
0.0
 11
-191.2512969970703
 21
273.3679504394531
 31
0.0
  0
LINE
  5
FB
330
22
100
AcDbEntity
  8
0
  6
Continuous
 62
     7
100
AcDbLine
 10
-153.9337768554688
 20
275.8179321289063
 30
0.0
 11
-186.8884582519531
 21
275.8179321289063
 31
0.0
  0
LINE
  5
FC
330
22
100
AcDbEntity
  8
0
  6
Continuous
 62
     7
100
AcDbLine
 10
-155.4337768554688
 20
277.3179321289063
 30
0.0
 11
-188.3884582519531
 21
277.3179321289063
 31
0.0
  0
LINE
  5
FD
330
22
100
AcDbEntity
  8
0
  6
Continuous
 62
     7
100
AcDbLine
 10
-153.9337768554688
 20
275.8179321289063
 30
0.0
 11
-155.4337768554688
 21
277.3179321289063
 31
0.0
  0
LINE
  5
FE
330
22
100
AcDbEntity
  8
0
  6
Continuous
 62
     7
100
AcDbLine
 10
-153.9337768554688
 20
274.3679504394531
 30
0.0
 11
-153.9337768554688
 21
275.8179321289063
 31
0.0
  0
LINE
  5
FF
330
22
100
AcDbEntity
  8
0
  6
Continuous
 62
     7
100
AcDbLine
 10
-237.9337768554688
 20
125.3679351806641
 30
0.0
 11
-232.8205261230469
 21
125.3679351806641
 31
0.0
  0
LINE
  5
100
330
22
100
AcDbEntity
  8
0
  6
Continuous
 62
     7
100
AcDbLine
 10
-237.9337768554688
 20
119.3679351806641
 30
0.0
 11
-237.9337768554688
 21
125.3679351806641
 31
0.0
  0
LINE
  5
101
330
22
100
AcDbEntity
  8
0
  6
Continuous
 62
     7
100
AcDbLine
 10
-240.9337768554689
 20
118.3679351806641
 30
0.0
 11
-238.9337768554689
 21
118.3679351806641
 31
0.0
  0
LINE
  5
102
330
22
100
AcDbEntity
  8
0
  6
Continuous
 62
     7
100
AcDbLine
 10
-173.9337768554688
 20
190.9179382324219
 30
0.0
 11
-186.8884582519531
 21
190.9179382324219
 31
0.0
  0
LINE
  5
103
330
22
100
AcDbEntity
  8
0
  6
Continuous
 62
     7
100
AcDbLine
 10
-173.9337768554688
 20
189.4179382324219
 30
0.0
 11
-188.3884582519531
 21
189.4179382324219
 31
0.0
  0
LINE
  5
104
330
22
100
AcDbEntity
  8
0
  6
Continuous
 62
     7
100
AcDbLine
 10
-188.3884582519531
 20
189.4179382324219
 30
0.0
 11
-191.2224426269531
 21
189.4179382324219
 31
0.0
  0
LINE
  5
105
330
22
100
AcDbEntity
  8
0
  6
Continuous
 62
     7
100
AcDbLine
 10
-186.8884582519531
 20
190.9179382324219
 30
0.0
 11
-188.3884582519531
 21
189.4179382324219
 31
0.0
  0
LINE
  5
106
330
22
100
AcDbEntity
  8
0
  6
Continuous
 62
     7
100
AcDbLine
 10
-228.4904022216797
 20
338.8679504394531
 30
0.0
 11
-193.8205108642578
 21
278.8179321289063
 31
0.0
  0
LINE
  5
107
330
22
100
AcDbEntity
  8
0
  6
Continuous
 62
     7
100
AcDbLine
 10
-137.9337768554687
 20
298.1179504394532
 30
0.0
 11
-138.9337768554687
 21
299.1179504394531
 31
0.0
  0
LINE
  5
108
330
22
100
AcDbEntity
  8
0
  6
Continuous
 62
     7
100
AcDbLine
 10
-137.9337768554687
 20
298.1179504394532
 30
0.0
 11
-138.9337768554687
 21
297.1179504394531
 31
0.0
  0
LINE
  5
109
330
22
100
AcDbEntity
  8
0
  6
Continuous
 62
     7
100
AcDbLine
 10
-135.4337768554688
 20
282.8679504394531
 30
0.0
 11
-135.4337768554688
 21
330.3679504394531
 31
0.0
  0
LINE
  5
10A
330
22
100
AcDbEntity
  8
0
  6
Continuous
 62
     7
100
AcDbLine
 10
-228.4904022216797
 20
127.8679351806641
 30
0.0
 11
-193.8205108642578
 21
187.9179382324219
 31
0.0
  0
LINE
  5
10B
330
22
100
AcDbEntity
  8
0
  6
Continuous
 62
     7
100
AcDbLine
 10
-138.9337768554687
 20
137.8679351806641
 30
0.0
 11
-138.9337768554687
 21
233.3679351806641
 31
0.0
  0
LINE
  5
10C
330
22
100
AcDbEntity
  8
0
  6
Continuous
 62
     7
100
AcDbLine
 10
-135.4337768554688
 20
233.3679351806641
 30
0.0
 11
-135.4337768554688
 21
136.3679351806641
 31
0.0
  0
LINE
  5
10D
330
22
100
AcDbEntity
  8
0
  6
Continuous
 62
     7
100
AcDbLine
 10
-241.9337768554688
 20
347.1665954589844
 30
0.0
 11
-240.732421875
 21
348.3679504394531
 31
0.0
  0
LINE
  5
10E
330
22
100
AcDbEntity
  8
0
  6
Continuous
 62
     7
100
AcDbLine
 10
-241.9337768554688
 20
344.3381652832031
 30
0.0
 11
-238.2147369384766
 21
348.0571899414063
 31
0.0
  0
LINE
  5
10F
330
22
100
AcDbEntity
  8
0
  6
Continuous
 62
     7
100
AcDbLine
 10
-241.9337768554688
 20
338.6813049316406
 30
0.0
 11
-237.9337768554688
 21
342.6813049316406
 31
0.0
  0
LINE
  5
110
330
22
100
AcDbEntity
  8
0
  6
Continuous
 62
     7
100
AcDbLine
 10
-239.4187164306641
 20
338.3679504394531
 30
0.0
 11
-236.4187164306641
 21
341.3679504394531
 31
0.0
  0
LINE
  5
111
330
22
100
AcDbEntity
  8
0
  6
Continuous
 62
     7
100
AcDbLine
 10
-236.9337768554689
 20
338.0244445800781
 30
0.0
 11
-233.5902862548828
 21
341.3679504394531
 31
0.0
  0
LINE
  5
112
330
22
100
AcDbEntity
  8
0
  6
Continuous
 62
     7
100
AcDbLine
 10
-236.9337768554689
 20
335.196044921875
 30
0.0
 11
-231.0947418212891
 21
341.0350646972656
 31
0.0
  0
LINE
  5
113
330
22
100
AcDbEntity
  8
0
  6
Continuous
 62
     7
100
AcDbLine
 10
-234.4334411621094
 20
334.8679504394531
 30
0.0
 11
-229.3583831787109
 21
339.9429931640625
 31
0.0
  0
LINE
  5
114
330
22
100
AcDbEntity
  8
0
  6
Continuous
 62
     7
100
AcDbLine
 10
-231.6881103515625
 20
334.7848510742188
 30
0.0
 11
-228.1663208007813
 21
338.3066101074219
 31
0.0
  0
LINE
  5
115
330
22
100
AcDbEntity
  8
0
  6
Continuous
 62
     7
100
AcDbLine
 10
-229.6799774169922
 20
333.9645385742188
 30
0.0
 11
-227.1310424804688
 21
336.5134887695313
 31
0.0
  0
LINE
  5
116
330
22
100
AcDbEntity
  8
0
  6
Continuous
 62
     7
100
AcDbLine
 10
-228.2962036132814
 20
332.5198974609375
 30
0.0
 11
-226.0957641601563
 21
334.7203369140625
 31
0.0
  0
LINE
  5
117
330
22
100
AcDbEntity
  8
0
  6
Continuous
 62
     7
100
AcDbLine
 10
-227.2566528320314
 20
330.7310180664063
 30
0.0
 11
-225.0605010986328
 21
332.9271850585938
 31
0.0
  0
LINE
  5
118
330
22
100
AcDbEntity
  8
0
  6
Continuous
 62
     7
100
AcDbLine
 10
-226.2213745117188
 20
328.9378662109375
 30
0.0
 11
-224.0252227783203
 21
331.134033203125
 31
0.0
  0
LINE
  5
119
330
22
100
AcDbEntity
  8
0
  6
Continuous
 62
     7
100
AcDbLine
 10
-225.1860961914063
 20
327.1447143554688
 30
0.0
 11
-222.9899444580078
 21
329.3408813476563
 31
0.0
  0
LINE
  5
11A
330
22
100
AcDbEntity
  8
0
  6
Continuous
 62
     7
100
AcDbLine
 10
-224.1508178710938
 20
325.3515625
 30
0.0
 11
-221.9546661376953
 21
327.5477294921875
 31
0.0
  0
LINE
  5
11B
330
22
100
AcDbEntity
  8
0
  6
Continuous
 62
     7
100
AcDbLine
 10
-223.1155395507813
 20
323.5584106445313
 30
0.0
 11
-220.9193878173828
 21
325.7545776367188
 31
0.0
  0
LINE
  5
11C
330
22
100
AcDbEntity
  8
0
  6
Continuous
 62
     7
100
AcDbLine
 10
-222.0802612304688
 20
321.7652587890625
 30
0.0
 11
-219.8841094970703
 21
323.96142578125
 31
0.0
  0
LINE
  5
11D
330
22
100
AcDbEntity
  8
0
  6
Continuous
 62
     7
100
AcDbLine
 10
-221.0449829101563
 20
319.9721069335938
 30
0.0
 11
-218.8488311767578
 21
322.1682739257813
 31
0.0
  0
LINE
  5
11E
330
22
100
AcDbEntity
  8
0
  6
Continuous
 62
     7
100
AcDbLine
 10
-220.0097198486328
 20
318.178955078125
 30
0.0
 11
-217.8135528564453
 21
320.3751220703125
 31
0.0
  0
LINE
  5
11F
330
22
100
AcDbEntity
  8
0
  6
Continuous
 62
     7
100
AcDbLine
 10
-218.9744415283203
 20
316.3858032226563
 30
0.0
 11
-216.7782897949219
 21
318.5819702148438
 31
0.0
  0
LINE
  5
120
330
22
100
AcDbEntity
  8
0
  6
Continuous
 62
     7
100
AcDbLine
 10
-217.9391632080078
 20
314.5926513671875
 30
0.0
 11
-215.7430114746094
 21
316.788818359375
 31
0.0
  0
LINE
  5
121
330
22
100
AcDbEntity
  8
0
  6
Continuous
 62
     7
100
AcDbLine
 10
-216.9038848876953
 20
312.7994995117188
 30
0.0
 11
-214.7077331542969
 21
314.9956665039063
 31
0.0
  0
LINE
  5
122
330
22
100
AcDbEntity
  8
0
  6
Continuous
 62
     7
100
AcDbLine
 10
-215.8686065673828
 20
311.00634765625
 30
0.0
 11
-213.6724548339844
 21
313.2025146484375
 31
0.0
  0
LINE
  5
123
330
22
100
AcDbEntity
  8
0
  6
Continuous
 62
     7
100
AcDbLine
 10
-214.8333282470703
 20
309.2131958007813
 30
0.0
 11
-212.6371765136719
 21
311.4093627929688
 31
0.0
  0
LINE
  5
124
330
22
100
AcDbEntity
  8
0
  6
Continuous
 62
     7
100
AcDbLine
 10
-213.7980499267578
 20
307.4200439453125
 30
0.0
 11
-211.6018981933594
 21
309.6162109375
 31
0.0
  0
LINE
  5
125
330
22
100
AcDbEntity
  8
0
  6
Continuous
 62
     7
100
AcDbLine
 10
-212.7627868652344
 20
305.6268920898438
 30
0.0
 11
-210.5666198730469
 21
307.8230590820313
 31
0.0
  0
LINE
  5
126
330
22
100
AcDbEntity
  8
0
  6
Continuous
 62
     7
100
AcDbLine
 10
-211.7275085449219
 20
303.8337707519531
 30
0.0
 11
-209.5313568115234
 21
306.0299072265625
 31
0.0
  0
LINE
  5
127
330
22
100
AcDbEntity
  8
0
  6
Continuous
 62
     7
100
AcDbLine
 10
-210.6922302246094
 20
302.0406188964844
 30
0.0
 11
-208.4960784912109
 21
304.2367553710938
 31
0.0
  0
LINE
  5
128
330
22
100
AcDbEntity
  8
0
  6
Continuous
 62
     7
100
AcDbLine
 10
-209.6569519042969
 20
300.2474670410156
 30
0.0
 11
-207.4608001708984
 21
302.443603515625
 31
0.0
  0
LINE
  5
129
330
22
100
AcDbEntity
  8
0
  6
Continuous
 62
     7
100
AcDbLine
 10
-208.6216735839844
 20
298.4543151855469
 30
0.0
 11
-206.4255218505859
 21
300.6504516601563
 31
0.0
  0
LINE
  5
12A
330
22
100
AcDbEntity
  8
0
  6
Continuous
 62
     7
100
AcDbLine
 10
-207.5863952636719
 20
296.6611633300781
 30
0.0
 11
-205.3902435302734
 21
298.8572998046875
 31
0.0
  0
LINE
  5
12B
330
22
100
AcDbEntity
  8
0
  6
Continuous
 62
     7
100
AcDbLine
 10
-206.5511169433594
 20
294.8680114746094
 30
0.0
 11
-204.3549652099609
 21
297.0641479492188
 31
0.0
  0
LINE
  5
12C
330
22
100
AcDbEntity
  8
0
  6
Continuous
 62
     7
100
AcDbLine
 10
-205.5158538818359
 20
293.0748596191406
 30
0.0
 11
-203.3196868896484
 21
295.27099609375
 31
0.0
  0
LINE
  5
12D
330
22
100
AcDbEntity
  8
0
  6
Continuous
 62
     7
100
AcDbLine
 10
-204.4805755615234
 20
291.2817077636719
 30
0.0
 11
-202.284423828125
 21
293.4778442382813
 31
0.0
  0
LINE
  5
12E
330
22
100
AcDbEntity
  8
0
  6
Continuous
 62
     7
100
AcDbLine
 10
-203.4452972412109
 20
289.4885559082031
 30
0.0
 11
-201.2491455078125
 21
291.6846923828125
 31
0.0
  0
LINE
  5
12F
330
22
100
AcDbEntity
  8
0
  6
Continuous
 62
     7
100
AcDbLine
 10
-202.4100189208984
 20
287.6954040527344
 30
0.0
 11
-200.2138671875
 21
289.8915405273438
 31
0.0
  0
LINE
  5
130
330
22
100
AcDbEntity
  8
0
  6
Continuous
 62
     7
100
AcDbLine
 10
-201.3747406005859
 20
285.9022521972656
 30
0.0
 11
-199.1785888671875
 21
288.098388671875
 31
0.0
  0
LINE
  5
131
330
22
100
AcDbEntity
  8
0
  6
Continuous
 62
     7
100
AcDbLine
 10
-200.3394622802734
 20
284.1091003417968
 30
0.0
 11
-198.143310546875
 21
286.3052368164063
 31
0.0
  0
LINE
  5
132
330
22
100
AcDbEntity
  8
0
  6
Continuous
 62
     7
100
AcDbLine
 10
-199.3041839599609
 20
282.3159484863282
 30
0.0
 11
-197.1080322265625
 21
284.5120849609375
 31
0.0
  0
LINE
  5
133
330
22
100
AcDbEntity
  8
0
  6
Continuous
 62
     7
100
AcDbLine
 10
-198.2689056396484
 20
280.5227966308594
 30
0.0
 11
-196.07275390625
 21
282.7189331054688
 31
0.0
  0
LINE
  5
134
330
22
100
AcDbEntity
  8
0
  6
Continuous
 62
     7
100
AcDbLine
 10
-197.233642578125
 20
278.7296447753906
 30
0.0
 11
-195.0374908447266
 21
280.92578125
 31
0.0
  0
LINE
  5
135
330
22
100
AcDbEntity
  8
0
  6
Continuous
 62
     7
100
AcDbLine
 10
-196.1983642578125
 20
276.9364929199219
 30
0.0
 11
-194.0022125244141
 21
279.1326293945313
 31
0.0
  0
LINE
  5
136
330
22
100
AcDbEntity
  8
0
  6
Continuous
 62
     7
100
AcDbLine
 10
-195.1043090820313
 20
275.2021179199219
 30
0.0
 11
-192.6040649414063
 21
277.7023620605469
 31
0.0
  0
LINE
  5
137
330
22
100
AcDbEntity
  8
0
  6
Continuous
 62
     7
100
AcDbLine
 10
-193.5439300537109
 20
273.9340515136719
 30
0.0
 11
-190.1600646972656
 21
277.3179321289063
 31
0.0
  0
LINE
  5
138
330
22
100
AcDbEntity
  8
0
  6
Continuous
 62
     7
100
AcDbLine
 10
-191.2813873291016
 20
273.3681640625
 30
0.0
 11
-187.8600463867188
 21
276.7895202636719
 31
0.0
  0
LINE
  5
139
330
22
100
AcDbEntity
  8
0
  6
Continuous
 62
     7
100
AcDbLine
 10
-188.4532012939453
 20
273.3679504394531
 30
0.0
 11
-186.0032043457031
 21
275.8179321289063
 31
0.0
  0
LINE
  5
13A
330
22
100
AcDbEntity
  8
0
  6
Continuous
 62
     7
100
AcDbLine
 10
-185.6247863769531
 20
273.3679504394531
 30
0.0
 11
-183.1747741699219
 21
275.8179321289063
 31
0.0
  0
LINE
  5
13B
330
22
100
AcDbEntity
  8
0
  6
Continuous
 62
     7
100
AcDbLine
 10
-182.7963562011719
 20
273.3679504394531
 30
0.0
 11
-180.3463592529297
 21
275.8179321289063
 31
0.0
  0
LINE
  5
13C
330
22
100
AcDbEntity
  8
0
  6
Continuous
 62
     7
100
AcDbLine
 10
-179.9679260253906
 20
273.3679504394531
 30
0.0
 11
-177.5179290771484
 21
275.8179321289063
 31
0.0
  0
LINE
  5
13D
330
22
100
AcDbEntity
  8
0
  6
Continuous
 62
     7
100
AcDbLine
 10
-177.1394958496094
 20
273.3679504394531
 30
0.0
 11
-174.6894989013672
 21
275.8179321289063
 31
0.0
  0
LINE
  5
13E
330
22
100
AcDbEntity
  8
0
  6
Continuous
 62
     7
100
AcDbLine
 10
-174.3110656738281
 20
273.3679504394531
 30
0.0
 11
-171.8610687255859
 21
275.8179321289063
 31
0.0
  0
LINE
  5
13F
330
22
100
AcDbEntity
  8
0
  6
Continuous
 62
     7
100
AcDbLine
 10
-171.4826507568359
 20
273.3679504394531
 30
0.0
 11
-169.0326385498047
 21
275.8179321289063
 31
0.0
  0
LINE
  5
140
330
22
100
AcDbEntity
  8
0
  6
Continuous
 62
     7
100
AcDbLine
 10
-168.6542205810547
 20
273.3679504394531
 30
0.0
 11
-166.2042236328125
 21
275.8179321289063
 31
0.0
  0
LINE
  5
141
330
22
100
AcDbEntity
  8
0
  6
Continuous
 62
     7
100
AcDbLine
 10
-165.8257904052734
 20
273.3679504394531
 30
0.0
 11
-163.3757934570313
 21
275.8179321289063
 31
0.0
  0
LINE
  5
142
330
22
100
AcDbEntity
  8
0
  6
Continuous
 62
     7
100
AcDbLine
 10
-162.9973602294922
 20
273.3679504394531
 30
0.0
 11
-160.54736328125
 21
275.8179321289063
 31
0.0
  0
LINE
  5
143
330
22
100
AcDbEntity
  8
0
  6
Continuous
 62
     7
100
AcDbLine
 10
-160.1689300537109
 20
273.3679504394531
 30
0.0
 11
-157.7189331054688
 21
275.8179321289063
 31
0.0
  0
LINE
  5
144
330
22
100
AcDbEntity
  8
0
  6
Continuous
 62
     7
100
AcDbLine
 10
-157.3405151367188
 20
273.3679504394531
 30
0.0
 11
-154.8905029296875
 21
275.8179321289063
 31
0.0
  0
LINE
  5
145
330
22
100
AcDbEntity
  8
0
  6
Continuous
 62
     7
100
AcDbLine
 10
-241.9337768554688
 20
298.4679260253906
 30
0.0
 11
-238.9337768554689
 21
298.4679260253906
 31
0.0
  0
LINE
  5
146
330
22
100
AcDbEntity
  8
0
  6
Continuous
 62
     7
100
AcDbLine
 10
-228.2017211914063
 20
332.3679504394531
 30
0.0
 11
-195.3177337646484
 21
275.4112243652344
 31
0.0
  0
LINE
  5
147
330
22
100
AcDbEntity
  8
0
  6
Continuous
 62
     7
100
AcDbLine
 10
-143.9337768554688
 20
185.8679351806641
 30
0.0
 11
-172.9337768554688
 21
185.8679351806641
 31
0.0
  0
LINE
  5
148
330
22
100
AcDbEntity
  8
0
  6
Continuous
 62
     7
100
AcDbLine
 10
-138.9337768554687
 20
327.3931274414063
 30
0.0
 11
-135.5980224609375
 21
330.7288513183594
 31
0.0
  0
LINE
  5
149
330
22
100
AcDbEntity
  8
0
  6
Continuous
 62
     7
100
AcDbLine
 10
-138.9337768554687
 20
323.1504821777344
 30
0.0
 11
-135.4337768554688
 21
326.6504821777344
 31
0.0
  0
LINE
  5
14A
330
22
100
AcDbEntity
  8
0
  6
Continuous
 62
     7
100
AcDbLine
 10
-138.9337768554687
 20
318.9078369140625
 30
0.0
 11
-135.4337768554688
 21
322.4078369140625
 31
0.0
  0
LINE
  5
14B
330
22
100
AcDbEntity
  8
0
  6
Continuous
 62
     7
100
AcDbLine
 10
-138.7061920166016
 20
314.8927612304688
 30
0.0
 11
-135.4337768554688
 21
318.1651916503906
 31
0.0
  0
LINE
  5
14C
330
22
100
AcDbEntity
  8
0
  6
Continuous
 62
     7
100
AcDbLine
 10
-173.9337768554688
 20
279.6651916503906
 30
0.0
 11
-172.7310333251953
 21
280.8679504394531
 31
0.0
  0
LINE
  5
14D
330
22
100
AcDbEntity
  8
0
  6
Continuous
 62
     7
100
AcDbLine
 10
-138.9337768554687
 20
310.4225463867188
 30
0.0
 11
-135.4337768554688
 21
313.9225463867188
 31
0.0
  0
LINE
  5
14E
330
22
100
AcDbEntity
  8
0
  6
Continuous
 62
     7
100
AcDbLine
 10
-172.0483856201172
 20
277.3079223632813
 30
0.0
 11
-168.4883880615234
 21
280.8679504394531
 31
0.0
  0
LINE
  5
14F
330
22
100
AcDbEntity
  8
0
  6
Continuous
 62
     7
100
AcDbLine
 10
-138.9337768554687
 20
306.1799011230469
 30
0.0
 11
-135.4337768554688
 21
309.6799011230469
 31
0.0
  0
LINE
  5
150
330
22
100
AcDbEntity
  8
0
  6
Continuous
 62
     7
100
AcDbLine
 10
-167.8057403564453
 20
277.3079223632813
 30
0.0
 11
-164.2457427978516
 21
280.8679504394531
 31
0.0
  0
LINE
  5
151
330
22
100
AcDbEntity
  8
0
  6
Continuous
 62
     7
100
AcDbLine
 10
-138.9337768554687
 20
301.937255859375
 30
0.0
 11
-135.4337768554688
 21
305.437255859375
 31
0.0
  0
LINE
  5
152
330
22
100
AcDbEntity
  8
0
  6
Continuous
 62
     7
100
AcDbLine
 10
-163.5631103515625
 20
277.3079223632813
 30
0.0
 11
-160.0031127929688
 21
280.8679504394531
 31
0.0
  0
LINE
  5
153
330
22
100
AcDbEntity
  8
0
  6
Continuous
 62
     7
100
AcDbLine
 10
-138.2221221923828
 20
298.4062805175781
 30
0.0
 11
-135.4337768554688
 21
301.1946411132813
 31
0.0
  0
LINE
  5
154
330
22
100
AcDbEntity
  8
0
  6
Continuous
 62
     7
100
AcDbLine
 10
-159.3204650878906
 20
277.3079223632813
 30
0.0
 11
-155.7604675292969
 21
280.8679504394531
 31
0.0
  0
LINE
  5
155
330
22
100
AcDbEntity
  8
0
  6
Continuous
 62
     7
100
AcDbLine
 10
-138.9337768554687
 20
293.4519958496094
 30
0.0
 11
-135.4337768554688
 21
296.9519958496094
 31
0.0
  0
LINE
  5
156
330
22
100
AcDbEntity
  8
0
  6
Continuous
 62
     7
100
AcDbLine
 10
-155.0778198242188
 20
277.3079223632813
 30
0.0
 11
-151.517822265625
 21
280.8679504394531
 31
0.0
  0
LINE
  5
157
330
22
100
AcDbEntity
  8
0
  6
Continuous
 62
     7
100
AcDbLine
 10
-138.9337768554687
 20
289.2093505859375
 30
0.0
 11
-135.4337768554688
 21
292.7093505859375
 31
0.0
  0
LINE
  5
158
330
22
100
AcDbEntity
  8
0
  6
Continuous
 62
     7
100
AcDbLine
 10
-150.8351898193359
 20
277.3079223632813
 30
0.0
 11
-147.2751770019531
 21
280.8679504394531
 31
0.0
  0
LINE
  5
159
330
22
100
AcDbEntity
  8
0
  6
Continuous
 62
     7
100
AcDbLine
 10
-139.0393524169922
 20
284.8611145019532
 30
0.0
 11
-135.4337768554688
 21
288.4667053222656
 31
0.0
  0
LINE
  5
15A
330
22
100
AcDbEntity
  8
0
  6
Continuous
 62
     7
100
AcDbLine
 10
-146.5925445556641
 20
277.3079223632813
 30
0.0
 11
-142.9269561767578
 21
280.9735107421875
 31
0.0
  0
LINE
  5
15B
330
22
100
AcDbEntity
  8
0
  6
Continuous
 62
     7
100
AcDbLine
 10
-142.3498992919922
 20
277.3079223632813
 30
0.0
 11
-135.4337768554688
 21
284.2240600585938
 31
0.0
  0
LINE
  5
15C
330
22
100
AcDbEntity
  8
0
  6
Continuous
 62
     7
100
AcDbLine
 10
-138.2648010253906
 20
277.150390625
 30
0.0
 11
-133.5472564697266
 21
281.8679504394531
 31
0.0
  0
LINE
  5
15D
330
22
100
AcDbEntity
  8
0
  6
Continuous
 62
     7
100
AcDbLine
 10
-134.8308715820313
 20
276.3416748046875
 30
0.0
 11
-129.3046264648437
 21
281.8679504394531
 31
0.0
  0
LINE
  5
15E
330
22
100
AcDbEntity
  8
0
  6
Continuous
 62
     7
100
AcDbLine
 10
-130.5797119140625
 20
276.3501892089844
 30
0.0
 11
-125.0619812011719
 21
281.8679504394531
 31
0.0
  0
LINE
  5
15F
330
22
100
AcDbEntity
  8
0
  6
Continuous
 62
     7
100
AcDbLine
 10
-126.2002029418945
 20
276.487060546875
 30
0.0
 11
-120.8193359375
 21
281.8679504394531
 31
0.0
  0
LINE
  5
160
330
22
100
AcDbEntity
  8
0
  6
Continuous
 62
     7
100
AcDbLine
 10
-121.8207015991211
 20
276.6239318847656
 30
0.0
 11
-116.5766983032227
 21
281.8679504394531
 31
0.0
  0
LINE
  5
161
330
22
100
AcDbEntity
  8
0
  6
Continuous
 62
     7
100
AcDbLine
 10
-117.4411926269531
 20
276.7608032226563
 30
0.0
 11
-112.3340606689453
 21
281.8679504394531
 31
0.0
  0
LINE
  5
162
330
22
100
AcDbEntity
  8
0
  6
Continuous
 62
     7
100
AcDbLine
 10
-113.0616836547852
 20
276.8976745605469
 30
0.0
 11
-108.0914154052734
 21
281.8679504394531
 31
0.0
  0
LINE
  5
163
330
22
100
AcDbEntity
  8
0
  6
Continuous
 62
     7
100
AcDbLine
 10
-108.6821746826172
 20
277.0345458984375
 30
0.0
 11
-103.8487777709961
 21
281.8679504394531
 31
0.0
  0
LINE
  5
164
330
22
100
AcDbEntity
  8
0
  6
Continuous
 62
     7
100
AcDbLine
 10
-104.3026733398438
 20
277.1714172363281
 30
0.0
 11
-100.0954284667969
 21
281.3786315917969
 31
0.0
  0
LINE
  5
165
330
22
100
AcDbEntity
  8
0
  6
Continuous
 62
     7
100
AcDbLine
 10
-172.4587707519531
 20
275.8329467773438
 30
0.0
 11
-140.4087677001952
 21
275.8329467773438
 31
0.0
  0
LINE
  5
166
330
22
100
AcDbEntity
  8
0
  6
Continuous
 62
     7
100
AcDbLine
 10
-173.9337768554688
 20
277.3079223632813
 30
0.0
 11
-138.9337768554687
 21
277.3079223632813
 31
0.0
  0
LINE
  5
167
330
22
100
AcDbEntity
  8
0
  6
Continuous
 62
     7
100
AcDbLine
 10
-143.9337768554688
 20
280.8679504394531
 30
0.0
 11
-172.9337768554688
 21
280.8679504394531
 31
0.0
  0
LINE
  5
168
330
22
100
AcDbEntity
  8
0
  6
Continuous
 62
     7
100
AcDbLine
 10
-138.9337768554687
 20
328.8679504394531
 30
0.0
 11
-138.9337768554687
 21
285.8679504394531
 31
0.0
  0
LINE
  5
169
330
22
100
AcDbEntity
  8
0
  6
Continuous
 62
     7
100
AcDbLine
 10
-237.9337768554688
 20
125.3679351806641
 30
0.0
 11
-237.9337768554688
 21
233.3679351806641
 31
0.0
  0
LINE
  5
16A
330
22
100
AcDbEntity
  8
0
  6
Continuous
 62
     7
100
AcDbLine
 10
-173.9337768554688
 20
186.8679351806641
 30
0.0
 11
-173.9337768554688
 21
233.3679351806641
 31
0.0
  0
LINE
  5
16B
330
22
100
AcDbEntity
  8
0
  6
Continuous
 62
     7
100
AcDbLine
 10
-186.8884582519531
 20
190.9179382324219
 30
0.0
 11
-186.8884582519531
 21
233.3679351806641
 31
0.0
  0
LINE
  5
16C
330
22
100
AcDbEntity
  8
0
  6
Continuous
 62
     7
100
AcDbLine
 10
-229.9337768554688
 20
130.3679351806641
 30
0.0
 11
-229.9337768554688
 21
233.3679351806641
 31
0.0
  0
LINE
  5
16D
330
22
100
AcDbEntity
  8
0
  6
Continuous
 62
     7
100
AcDbLine
 10
-192.7224426269531
 20
190.1731262207031
 30
0.0
 11
-192.7224426269531
 21
233.3679351806641
 31
0.0
  0
LINE
  5
16E
330
22
100
AcDbEntity
  8
0
  6
CENTER
 62
     7
100
AcDbLine
 10
-94.05783843994141
 20
233.3679351806641
 30
0.0
 11
-251.7371368408203
 21
233.3679351806641
 31
0.0
  0
LINE
  5
16F
330
22
100
AcDbEntity
  8
0
  6
Continuous
 62
     7
100
AcDbLine
 10
-238.242431640625
 20
337.8679504394531
 30
0.0
 11
-236.9337768554689
 21
336.5592651367188
 31
0.0
  0
LINE
  5
170
330
22
100
AcDbEntity
  8
0
  6
Continuous
 62
     7
100
AcDbLine
 10
-238.9495391845703
 20
337.8679504394531
 30
0.0
 11
-236.9337768554689
 21
335.8521728515625
 31
0.0
  0
LINE
  5
171
330
22
100
AcDbEntity
  8
0
  6
Continuous
 62
     7
100
AcDbLine
 10
-241.0708618164064
 20
337.8679504394531
 30
0.0
 11
-238.0708618164063
 21
334.8679504394531
 31
0.0
  0
LINE
  5
172
330
22
100
AcDbEntity
  8
0
  6
Continuous
 62
     7
100
AcDbLine
 10
-241.7779693603516
 20
337.8679504394531
 30
0.0
 11
-238.7779693603516
 21
334.8679504394531
 31
0.0
  0
LINE
  5
173
330
22
100
AcDbEntity
  8
0
  6
Continuous
 62
     7
100
AcDbLine
 10
-241.9337768554688
 20
335.9024353027344
 30
0.0
 11
-238.9337768554689
 21
332.9024353027344
 31
0.0
  0
LINE
  5
174
330
22
100
AcDbEntity
  8
0
  6
Continuous
 62
     7
100
AcDbLine
 10
-241.9337768554688
 20
335.1953125
 30
0.0
 11
-238.9337768554689
 21
332.1953125
 31
0.0
  0
LINE
  5
175
330
22
100
AcDbEntity
  8
0
  6
Continuous
 62
     7
100
AcDbLine
 10
-241.9337768554688
 20
333.0740051269531
 30
0.0
 11
-239.7277221679688
 21
330.8679504394531
 31
0.0
  0
LINE
  5
176
330
22
100
AcDbEntity
  8
0
  6
Continuous
 62
     7
100
AcDbLine
 10
-241.9337768554688
 20
332.3668823242188
 30
0.0
 11
-240.434814453125
 21
330.8679504394531
 31
0.0
  0
LINE
  5
177
330
22
100
AcDbEntity
  8
0
  6
Continuous
 62
     7
100
AcDbLine
 10
-240.6119842529297
 20
303.4679260253906
 30
0.0
 11
-238.9337768554689
 21
301.7897338867188
 31
0.0
  0
LINE
  5
178
330
22
100
AcDbEntity
  8
0
  6
Continuous
 62
     7
100
AcDbLine
 10
-241.319091796875
 20
303.4679260253906
 30
0.0
 11
-238.9337768554689
 21
301.0826110839844
 31
0.0
  0
LINE
  5
179
330
22
100
AcDbEntity
  8
0
  6
Continuous
 62
     7
100
AcDbLine
 10
-241.9337768554688
 20
301.9613037109375
 30
0.0
 11
-238.9337768554689
 21
298.9613037109375
 31
0.0
  0
LINE
  5
17A
330
22
100
AcDbEntity
  8
0
  6
Continuous
 62
     7
100
AcDbLine
 10
-241.9337768554688
 20
301.2541809082031
 30
0.0
 11
-239.1475219726563
 21
298.4679260253906
 31
0.0
  0
LINE
  5
17B
330
22
100
AcDbEntity
  8
0
  6
Continuous
 62
     7
100
AcDbLine
 10
-241.9337768554688
 20
299.1328735351563
 30
0.0
 11
-241.2688446044922
 21
298.4679260253906
 31
0.0
  0
LINE
  5
17C
330
22
100
AcDbEntity
  8
0
  6
Continuous
 62
     7
100
AcDbLine
 10
-239.3246917724609
 20
271.0679321289063
 30
0.0
 11
-238.9337768554689
 21
270.6770324707031
 31
0.0
  0
LINE
  5
17D
330
22
100
AcDbEntity
  8
0
  6
Continuous
 62
     7
100
AcDbLine
 10
-240.0317993164063
 20
271.0679321289063
 30
0.0
 11
-238.9337768554689
 21
269.9699096679688
 31
0.0
  0
LINE
  5
17E
330
22
100
AcDbEntity
  8
0
  6
Continuous
 62
     7
100
AcDbLine
 10
-241.9337768554688
 20
270.848602294922
 30
0.0
 11
-238.9337768554689
 21
267.8486022949219
 31
0.0
  0
LINE
  5
17F
330
22
100
AcDbEntity
  8
0
  6
Continuous
 62
     7
100
AcDbLine
 10
-241.9337768554688
 20
270.1414794921875
 30
0.0
 11
-238.9337768554689
 21
267.1414794921875
 31
0.0
  0
LINE
  5
180
330
22
100
AcDbEntity
  8
0
  6
Continuous
 62
     7
100
AcDbLine
 10
-241.9337768554688
 20
268.0201721191405
 30
0.0
 11
-239.9315338134766
 21
266.0179443359375
 31
0.0
  0
LINE
  5
181
330
22
100
AcDbEntity
  8
0
  6
Continuous
 62
     7
100
AcDbLine
 10
-241.9337768554688
 20
267.3130493164063
 30
0.0
 11
-240.6386413574219
 21
266.0179443359375
 31
0.0
  0
LINE
  5
182
330
22
100
AcDbEntity
  8
0
  6
Continuous
 62
     7
100
AcDbLine
 10
-239.2729187011719
 20
236.3679351806641
 30
0.0
 11
-238.9337768554689
 21
236.0287933349609
 31
0.0
  0
LINE
  5
183
330
22
100
AcDbEntity
  8
0
  6
Continuous
 62
     7
100
AcDbLine
 10
-241.3942413330078
 20
236.3679351806641
 30
0.0
 11
-238.9337768554689
 21
233.907470703125
 31
0.0
  0
LINE
  5
184
330
22
100
AcDbEntity
  8
0
  6
Continuous
 62
     7
100
AcDbLine
 10
-241.9337768554688
 20
236.2003631591797
 30
0.0
 11
-239.1013488769531
 21
233.3679351806641
 31
0.0
  0
LINE
  5
185
330
22
100
AcDbEntity
  8
0
  6
Continuous
 62
     7
100
AcDbLine
 10
-241.9337768554688
 20
234.0790405273438
 30
0.0
 11
-241.2226715087891
 21
233.3679351806641
 31
0.0
  0
LINE
  5
186
330
22
100
AcDbEntity
  8
0
  6
Continuous
 62
     7
100
AcDbLine
 10
-241.9337768554688
 20
233.3719329833984
 30
0.0
 11
-241.9297790527344
 21
233.3679351806641
 31
0.0
  0
LINE
  5
187
330
22
100
AcDbEntity
  8
0
  6
Continuous
 62
     7
100
AcDbLine
 10
-238.9337768554689
 20
233.3679351806641
 30
0.0
 11
-238.9337768554689
 21
334.8679504394531
 31
0.0
  0
LINE
  5
188
330
22
100
AcDbEntity
  8
0
  6
Continuous
 62
     7
100
AcDbLine
 10
-236.9337768554689
 20
334.8679504394531
 30
0.0
 11
-236.9337768554689
 21
233.3679351806641
 31
0.0
  0
LINE
  5
189
330
22
100
AcDbEntity
  8
0
  6
Continuous
 62
     7
100
AcDbLine
 10
-241.9337768554688
 20
119.3679351806641
 30
0.0
 11
-241.9337768554688
 21
347.3679504394531
 31
0.0
  0
LINE
  5
18A
330
22
100
AcDbEntity
  8
0
  6
Continuous
 62
     7
100
AcDbLine
 10
-153.9337768554688
 20
233.3679351806641
 30
0.0
 11
-153.9337768554688
 21
273.9798583984375
 31
0.0
  0
LINE
  5
18B
330
22
100
AcDbEntity
  8
0
  6
Continuous
 62
     7
100
AcDbLine
 10
-132.9337768554688
 20
274.8009033203125
 30
0.0
 11
-132.9337768554688
 21
233.3679351806641
 31
0.0
  0
LINE
  5
18C
330
22
100
AcDbEntity
  8
0
  6
Continuous
 62
     7
100
AcDbLine
 10
-134.3647766113281
 20
276.231903076172
 30
0.0
 11
-134.3647766113281
 21
233.3679351806641
 31
0.0
  0
LINE
  5
18D
330
22
100
AcDbEntity
  8
0
  6
Continuous
 62
     7
100
AcDbLine
 10
-140.4087677001952
 20
233.3679351806641
 30
0.0
 11
-140.4087677001952
 21
275.8329467773438
 31
0.0
  0
LINE
  5
18E
330
22
100
AcDbEntity
  8
0
  6
Continuous
 62
     7
100
AcDbLine
 10
-138.9337768554687
 20
277.3079223632813
 30
0.0
 11
-138.9337768554687
 21
233.3679351806641
 31
0.0
  0
LINE
  5
18F
330
22
100
AcDbEntity
  8
0
  6
Continuous
 62
     7
100
AcDbLine
 10
-99.93376922607422
 20
185.8679351806641
 30
0.0
 11
-99.93376922607422
 21
280.8679504394531
 31
0.0
  0
LINE
  5
190
330
22
100
AcDbEntity
  8
0
  6
Continuous
 62
     7
100
AcDbLine
 10
-101.4570999145508
 20
275.7846069335938
 30
0.0
 11
-101.4570999145508
 21
233.3679351806641
 31
0.0
  0
LINE
  5
191
330
22
100
AcDbEntity
  8
0
  6
Continuous
 62
     7
100
AcDbLine
 10
-195.5814361572265
 20
275.8679504394531
 30
0.0
 11
-195.5814361572265
 21
233.3679351806641
 31
0.0
  0
LINE
  5
192
330
22
100
AcDbEntity
  8
0
  6
Continuous
 62
     7
100
AcDbLine
 10
-191.2512969970703
 20
273.3679504394531
 30
0.0
 11
-191.2512969970703
 21
233.3679351806641
 31
0.0
  0
LINE
  5
193
330
22
100
AcDbEntity
  8
0
  6
Continuous
 62
     7
100
AcDbLine
 10
-401.4136047363281
 20
319.6022644042969
 30
0.0
 11
-401.4136047363281
 21
305.2356262207031
 31
0.0
  0
LINE
  5
194
330
22
100
AcDbEntity
  8
0
  6
Continuous
 62
     7
100
AcDbLine
 10
-429.4136047363281
 20
326.1460876464844
 30
0.0
 11
-429.4136047363281
 21
304.3794250488281
 31
0.0
  0
LINE
  5
195
330
22
100
AcDbEntity
  8
0
  6
Continuous
 62
     7
100
AcDbLine
 10
-424.4136047363281
 20
325.4655151367188
 30
0.0
 11
-424.4136047363281
 21
307.1624450683594
 31
0.0
  0
LINE
  5
196
330
22
100
AcDbEntity
  8
0
  6
Continuous
 62
     7
100
AcDbLine
 10
-417.9136047363281
 20
325.4655151367188
 30
0.0
 11
-417.9136047363281
 21
307.1624450683594
 31
0.0
  0
LINE
  5
197
330
22
100
AcDbEntity
  8
0
  6
Continuous
 62
     7
100
AcDbLine
 10
-394.9136047363282
 20
319.6022644042969
 30
0.0
 11
-394.9136047363282
 21
305.2356262207031
 31
0.0
  0
LINE
  5
198
330
22
100
AcDbEntity
  8
0
  6
Continuous
 62
     7
100
AcDbLine
 10
-363.7654418945313
 20
305.0743713378906
 30
0.0
 11
-363.3027954101563
 21
305.0743713378906
 31
0.0
  0
LINE
  5
199
330
22
100
AcDbEntity
  8
0
  6
Continuous
 62
     7
100
AcDbLine
 10
-362.8401489257813
 20
305.0743713378906
 30
0.0
 11
-363.3027954101563
 21
305.0743713378906
 31
0.0
  0
LINE
  5
19A
330
22
100
AcDbEntity
  8
0
  6
Continuous
 62
     7
100
AcDbLine
 10
-406.4136047363281
 20
264.9460754394531
 30
0.0
 11
-406.4136047363281
 21
237.2794189453125
 31
0.0
  0
LINE
  5
19B
330
22
100
AcDbEntity
  8
0
  6
Continuous
 62
     7
100
AcDbLine
 10
-360.4136047363281
 20
261.6460876464844
 30
0.0
 11
-360.4136047363281
 21
237.2794189453125
 31
0.0
  0
LINE
  5
19C
330
22
100
AcDbEntity
  8
0
  6
Continuous
 62
     7
100
AcDbLine
 10
-343.9136047363281
 20
261.2064514160156
 30
0.0
 11
-343.9136047363281
 21
237.2794189453125
 31
0.0
  0
LINE
  5
19D
330
22
100
AcDbEntity
  8
0
  6
Continuous
 62
     7
100
AcDbLine
 10
-429.4136047363281
 20
260.362762451172
 30
0.0
 11
-429.4136047363281
 21
238.2127532958984
 31
0.0
  0
LINE
  5
19E
330
22
100
AcDbEntity
  8
0
  6
Continuous
 62
     7
100
AcDbLine
 10
-412.9136047363281
 20
264.9460754394531
 30
0.0
 11
-412.9136047363281
 21
237.2794189453125
 31
0.0
  0
LINE
  5
19F
330
22
100
AcDbEntity
  8
0
  6
Continuous
 62
     7
100
AcDbLine
 10
-378.4136047363281
 20
266.6460876464844
 30
0.0
 11
-378.4136047363281
 21
237.2794189453125
 31
0.0
  0
LINE
  5
1A0
330
22
100
AcDbEntity
  8
0
  6
Continuous
 62
     7
100
AcDbLine
 10
-389.9136047363281
 20
260.4460754394531
 30
0.0
 11
-389.9136047363281
 21
237.2794189453125
 31
0.0
  0
LINE
  5
1A1
330
22
100
AcDbEntity
  8
0
  6
Continuous
 62
     7
100
AcDbLine
 10
-371.9136047363281
 20
266.6460876464844
 30
0.0
 11
-371.9136047363281
 21
237.2794189453125
 31
0.0
  0
LINE
  5
1A2
330
22
100
AcDbEntity
  8
0
  6
Continuous
 62
     7
100
AcDbLine
 10
-401.4136047363281
 20
251.6460876464844
 30
0.0
 11
-401.4136047363281
 21
237.2794189453125
 31
0.0
  0
LINE
  5
1A3
330
22
100
AcDbEntity
  8
0
  6
Continuous
 62
     7
100
AcDbLine
 10
-355.4136047363281
 20
246.6460876464844
 30
0.0
 11
-355.4136047363281
 21
237.2794189453125
 31
0.0
  0
LINE
  5
1A4
330
22
100
AcDbEntity
  8
0
  6
Continuous
 62
     7
100
AcDbLine
 10
-348.9136047363281
 20
246.6460876464844
 30
0.0
 11
-348.9136047363281
 21
237.2794189453125
 31
0.0
  0
LINE
  5
1A5
330
22
100
AcDbEntity
  8
0
  6
Continuous
 62
     7
100
AcDbLine
 10
-417.9136047363281
 20
255.4960784912109
 30
0.0
 11
-417.9136047363281
 21
237.2794189453125
 31
0.0
  0
LINE
  5
1A6
330
22
100
AcDbEntity
  8
0
  6
Continuous
 62
     7
100
AcDbLine
 10
-424.4136047363281
 20
255.4960784912109
 30
0.0
 11
-424.4136047363281
 21
237.2794189453125
 31
0.0
  0
LINE
  5
1A7
330
22
100
AcDbEntity
  8
0
  6
Continuous
 62
     7
100
AcDbLine
 10
-394.9136047363282
 20
251.6460876464844
 30
0.0
 11
-394.9136047363282
 21
237.2794189453125
 31
0.0
  0
LINE
  5
1A8
330
22
100
AcDbEntity
  8
0
  6
Continuous
 62
     7
100
AcDbLine
 10
-337.4136047363281
 20
252.2879180908203
 30
0.0
 11
-337.4136047363281
 21
237.2794189453125
 31
0.0
  0
LINE
  5
1A9
330
22
100
AcDbEntity
  8
0
  6
Continuous
 62
     7
100
AcDbLine
 10
-383.4136047363281
 20
280.4460754394531
 30
0.0
 11
-383.4136047363281
 21
271.0794067382813
 31
0.0
  0
LINE
  5
1AA
330
22
100
AcDbEntity
  8
0
  6
Continuous
 62
     7
100
AcDbLine
 10
-412.9136047363281
 20
284.9460754394531
 30
0.0
 11
-412.9136047363281
 21
275.5794067382813
 31
0.0
  0
LINE
  5
1AB
330
22
100
AcDbEntity
  8
0
  6
Continuous
 62
     7
100
AcDbLine
 10
-389.9136047363281
 20
280.4460754394531
 30
0.0
 11
-389.9136047363281
 21
271.0794067382813
 31
0.0
  0
LINE
  5
1AC
330
22
100
AcDbEntity
  8
0
  6
Continuous
 62
     7
100
AcDbLine
 10
-429.4136047363281
 20
292.812744140625
 30
0.0
 11
-429.4136047363281
 21
272.9127502441406
 31
0.0
  0
LINE
  5
1AD
330
22
100
AcDbEntity
  8
0
  6
Continuous
 62
     7
100
AcDbLine
 10
-406.4136047363281
 20
284.9460754394531
 30
0.0
 11
-406.4136047363281
 21
275.5794067382813
 31
0.0
  0
LINE
  5
1AE
330
22
100
AcDbEntity
  8
0
  6
Continuous
 62
     7
100
AcDbLine
 10
-363.7654418945313
 20
296.5982360839844
 30
0.0
 11
-363.3027954101563
 21
296.5982360839844
 31
0.0
  0
LINE
  5
1AF
330
22
100
AcDbEntity
  8
0
  6
Continuous
 62
     7
100
AcDbLine
 10
-366.9136047363281
 20
291.1460876464844
 30
0.0
 11
-366.9136047363281
 21
272.2794189453125
 31
0.0
  0
LINE
  5
1B0
330
22
100
AcDbEntity
  8
0
  6
Continuous
 62
     7
100
AcDbLine
 10
-362.8401489257813
 20
296.5982360839844
 30
0.0
 11
-363.3027954101563
 21
296.5982360839844
 31
0.0
  0
LINE
  5
1B1
330
22
100
AcDbEntity
  8
0
  6
Continuous
 62
     7
100
AcDbLine
 10
-360.4136047363281
 20
291.1460876464844
 30
0.0
 11
-360.4136047363281
 21
272.2794189453125
 31
0.0
  0
LINE
  5
1B2
330
22
100
AcDbEntity
  8
0
  6
Continuous
 62
     7
100
AcDbLine
 10
-366.9136047363281
 20
261.6460876464844
 30
0.0
 11
-366.9136047363281
 21
237.2794189453125
 31
0.0
  0
LINE
  5
1B3
330
22
100
AcDbEntity
  8
0
  6
Continuous
 62
     7
100
AcDbLine
 10
-383.4136047363281
 20
260.4460754394531
 30
0.0
 11
-383.4136047363281
 21
237.2794189453125
 31
0.0
  0
LINE
  5
1B4
330
22
100
AcDbEntity
  8
0
  6
Continuous
 62
     7
100
AcDbLine
 10
-502.0367736816406
 20
305.08642578125
 30
0.0
 11
-501.5737915039062
 21
305.08642578125
 31
0.0
  0
LINE
  5
1B5
330
22
100
AcDbEntity
  8
0
  6
Continuous
 62
     7
100
AcDbLine
 10
-502.0367736816406
 20
305.08642578125
 30
0.0
 11
-502.4997863769531
 21
305.08642578125
 31
0.0
  0
LINE
  5
1B6
330
22
100
AcDbEntity
  8
0
  6
Continuous
 62
     7
100
AcDbLine
 10
-470.4136047363281
 20
319.4288330078125
 30
0.0
 11
-470.4136047363281
 21
305.2356262207031
 31
0.0
  0
LINE
  5
1B7
330
22
100
AcDbEntity
  8
0
  6
Continuous
 62
     7
100
AcDbLine
 10
-463.9136047363281
 20
319.4288330078125
 30
0.0
 11
-463.9136047363281
 21
305.2356262207031
 31
0.0
  0
LINE
  5
1B8
330
22
100
AcDbEntity
  8
0
  6
Continuous
 62
     7
100
AcDbLine
 10
-440.9136047363281
 20
325.4655151367188
 30
0.0
 11
-440.9136047363281
 21
307.1624450683594
 31
0.0
  0
LINE
  5
1B9
330
22
100
AcDbEntity
  8
0
  6
Continuous
 62
     7
100
AcDbLine
 10
-394.9136047363282
 20
294.5992431640625
 30
0.0
 11
-394.9136047363282
 21
262.2794189453125
 31
0.0
  0
LINE
  5
1BA
330
22
100
AcDbEntity
  8
0
  6
Continuous
 62
     7
100
AcDbLine
 10
-355.4136047363281
 20
280.9728088378906
 30
0.0
 11
-355.4136047363281
 21
257.2794189453125
 31
0.0
  0
LINE
  5
1BB
330
22
100
AcDbEntity
  8
0
  6
Continuous
 62
     7
100
AcDbLine
 10
-348.9136047363281
 20
280.9728088378906
 30
0.0
 11
-348.9136047363281
 21
257.2794189453125
 31
0.0
  0
LINE
  5
1BC
330
22
100
AcDbEntity
  8
0
  6
Continuous
 62
     7
100
AcDbLine
 10
-401.4136047363281
 20
294.5992431640625
 30
0.0
 11
-401.4136047363281
 21
262.2794189453125
 31
0.0
  0
LINE
  5
1BD
330
22
100
AcDbEntity
  8
0
  6
Continuous
 62
     7
100
AcDbLine
 10
-424.4136047363281
 20
296.5291137695313
 30
0.0
 11
-424.4136047363281
 21
266.1624450683594
 31
0.0
  0
LINE
  5
1BE
330
22
100
AcDbEntity
  8
0
  6
Continuous
 62
     7
100
AcDbLine
 10
-417.9136047363281
 20
296.5291137695313
 30
0.0
 11
-417.9136047363281
 21
266.1624450683594
 31
0.0
  0
LINE
  5
1BF
330
22
100
AcDbEntity
  8
0
  6
Continuous
 62
     7
100
AcDbLine
 10
-504.9136047363281
 20
261.6460876464844
 30
0.0
 11
-504.9136047363281
 21
237.2794189453125
 31
0.0
  0
LINE
  5
1C0
330
22
100
AcDbEntity
  8
0
  6
Continuous
 62
     7
100
AcDbLine
 10
-475.4136047363281
 20
260.4460754394531
 30
0.0
 11
-475.4136047363281
 21
237.2794189453125
 31
0.0
  0
LINE
  5
1C1
330
22
100
AcDbEntity
  8
0
  6
Continuous
 62
     7
100
AcDbLine
 10
-498.4136047363281
 20
261.6460876464844
 30
0.0
 11
-498.4136047363281
 21
237.2794189453125
 31
0.0
  0
LINE
  5
1C2
330
22
100
AcDbEntity
  8
0
  6
Continuous
 62
     7
100
AcDbLine
 10
-493.413604736328
 20
266.6460876464844
 30
0.0
 11
-493.413604736328
 21
237.2794189453125
 31
0.0
  0
LINE
  5
1C3
330
22
100
AcDbEntity
  8
0
  6
Continuous
 62
     7
100
AcDbLine
 10
-486.9136047363281
 20
266.6460876464844
 30
0.0
 11
-486.9136047363281
 21
237.2794189453125
 31
0.0
  0
LINE
  5
1C4
330
22
100
AcDbEntity
  8
0
  6
Continuous
 62
     7
100
AcDbLine
 10
-481.9136047363281
 20
260.4460754394531
 30
0.0
 11
-481.9136047363281
 21
237.2794189453125
 31
0.0
  0
LINE
  5
1C5
330
22
100
AcDbEntity
  8
0
  6
Continuous
 62
     7
100
AcDbLine
 10
-521.4136352539063
 20
261.2064514160156
 30
0.0
 11
-521.4136352539063
 21
237.2794189453125
 31
0.0
  0
LINE
  5
1C6
330
22
100
AcDbEntity
  8
0
  6
Continuous
 62
     7
100
AcDbLine
 10
-527.9136352539063
 20
252.2879180908203
 30
0.0
 11
-527.9136352539063
 21
237.2794189453125
 31
0.0
  0
LINE
  5
1C7
330
22
100
AcDbEntity
  8
0
  6
Continuous
 62
     7
100
AcDbLine
 10
-509.913604736328
 20
246.6460876464844
 30
0.0
 11
-509.913604736328
 21
237.2794189453125
 31
0.0
  0
LINE
  5
1C8
330
22
100
AcDbEntity
  8
0
  6
Continuous
 62
     7
100
AcDbLine
 10
-516.4136352539063
 20
246.6460876464844
 30
0.0
 11
-516.4136352539063
 21
237.2794189453125
 31
0.0
  0
LINE
  5
1C9
330
22
100
AcDbEntity
  8
0
  6
Continuous
 62
     7
100
AcDbLine
 10
-463.9136047363281
 20
251.6460876464844
 30
0.0
 11
-463.9136047363281
 21
237.2794189453125
 31
0.0
  0
LINE
  5
1CA
330
22
100
AcDbEntity
  8
0
  6
Continuous
 62
     7
100
AcDbLine
 10
-470.4136047363281
 20
251.6460876464844
 30
0.0
 11
-470.4136047363281
 21
237.2794189453125
 31
0.0
  0
LINE
  5
1CB
330
22
100
AcDbEntity
  8
0
  6
Continuous
 62
     7
100
AcDbLine
 10
-440.9136047363281
 20
296.5291137695313
 30
0.0
 11
-440.9136047363281
 21
266.1624450683594
 31
0.0
  0
LINE
  5
1CC
330
22
100
AcDbEntity
  8
0
  6
Continuous
 62
     7
100
AcDbLine
 10
-440.9136047363281
 20
255.4960784912109
 30
0.0
 11
-440.9136047363281
 21
237.2794189453125
 31
0.0
  0
LINE
  5
1CD
330
22
100
AcDbEntity
  8
0
  6
Continuous
 62
     7
100
AcDbLine
 10
-447.413604736328
 20
325.4655151367188
 30
0.0
 11
-447.413604736328
 21
307.1624450683594
 31
0.0
  0
LINE
  5
1CE
330
22
100
AcDbEntity
  8
0
  6
Continuous
 62
     7
100
AcDbLine
 10
-504.9136047363281
 20
291.1460876464844
 30
0.0
 11
-504.9136047363281
 21
272.2794189453125
 31
0.0
  0
LINE
  5
1CF
330
22
100
AcDbEntity
  8
0
  6
Continuous
 62
     7
100
AcDbLine
 10
-502.0367736816406
 20
296.5599365234375
 30
0.0
 11
-502.4997863769531
 21
296.5599365234375
 31
0.0
  0
LINE
  5
1D0
330
22
100
AcDbEntity
  8
0
  6
Continuous
 62
     7
100
AcDbLine
 10
-502.0367736816406
 20
296.5599365234375
 30
0.0
 11
-501.5737915039062
 21
296.5599365234375
 31
0.0
  0
LINE
  5
1D1
330
22
100
AcDbEntity
  8
0
  6
Continuous
 62
     7
100
AcDbLine
 10
-470.4136047363281
 20
294.4992370605469
 30
0.0
 11
-470.4136047363281
 21
262.2794189453125
 31
0.0
  0
LINE
  5
1D2
330
22
100
AcDbEntity
  8
0
  6
Continuous
 62
     7
100
AcDbLine
 10
-463.9136047363281
 20
294.4992370605469
 30
0.0
 11
-463.9136047363281
 21
262.2794189453125
 31
0.0
  0
LINE
  5
1D3
330
22
100
AcDbEntity
  8
0
  6
Continuous
 62
     7
100
AcDbLine
 10
-516.4136352539063
 20
280.9728088378906
 30
0.0
 11
-516.4136352539063
 21
257.2794189453125
 31
0.0
  0
LINE
  5
1D4
330
22
100
AcDbEntity
  8
0
  6
Continuous
 62
     7
100
AcDbLine
 10
-509.913604736328
 20
280.9728088378906
 30
0.0
 11
-509.913604736328
 21
257.2794189453125
 31
0.0
  0
LINE
  5
1D5
330
22
100
AcDbEntity
  8
0
  6
Continuous
 62
     7
100
AcDbLine
 10
-498.4136047363281
 20
291.1460876464844
 30
0.0
 11
-498.4136047363281
 21
272.2794189453125
 31
0.0
  0
LINE
  5
1D6
330
22
100
AcDbEntity
  8
0
  6
Continuous
 62
     7
100
AcDbLine
 10
-481.9136047363281
 20
280.4460754394531
 30
0.0
 11
-481.9136047363281
 21
271.0794067382813
 31
0.0
  0
LINE
  5
1D7
330
22
100
AcDbEntity
  8
0
  6
Continuous
 62
     7
100
AcDbLine
 10
-475.4136047363281
 20
280.4460754394531
 30
0.0
 11
-475.4136047363281
 21
271.0794067382813
 31
0.0
  0
LINE
  5
1D8
330
22
100
AcDbEntity
  8
0
  6
Continuous
 62
     7
100
AcDbLine
 10
-348.9136047363281
 20
181.9526824951172
 30
0.0
 11
-348.9136047363281
 21
205.6460876464844
 31
0.0
  0
LINE
  5
1D9
330
22
100
AcDbEntity
  8
0
  6
Continuous
 62
     7
100
AcDbLine
 10
-366.9136047363281
 20
171.7794189453125
 30
0.0
 11
-366.9136047363281
 21
190.6460876464844
 31
0.0
  0
LINE
  5
1DA
330
22
100
AcDbEntity
  8
0
  6
Continuous
 62
     7
100
AcDbLine
 10
-360.4136047363281
 20
171.7794189453125
 30
0.0
 11
-360.4136047363281
 21
190.6460876464844
 31
0.0
  0
LINE
  5
1DB
330
22
100
AcDbEntity
  8
0
  6
Continuous
 62
     7
100
AcDbLine
 10
-447.413604736328
 20
296.5291137695313
 30
0.0
 11
-447.413604736328
 21
266.1624450683594
 31
0.0
  0
LINE
  5
1DC
330
22
100
AcDbEntity
  8
0
  6
Continuous
 62
     7
100
AcDbLine
 10
-458.9136047363281
 20
284.8460693359375
 30
0.0
 11
-458.9136047363281
 21
275.3794250488281
 31
0.0
  0
LINE
  5
1DD
330
22
100
AcDbEntity
  8
0
  6
Continuous
 62
     7
100
AcDbLine
 10
-452.4136047363281
 20
284.8460693359375
 30
0.0
 11
-452.4136047363281
 21
275.3794250488281
 31
0.0
  0
LINE
  5
1DE
330
22
100
AcDbEntity
  8
0
  6
Continuous
 62
     7
100
AcDbLine
 10
-452.4136047363281
 20
264.74609375
 30
0.0
 11
-452.4136047363281
 21
237.2794189453125
 31
0.0
  0
LINE
  5
1DF
330
22
100
AcDbEntity
  8
0
  6
Continuous
 62
     7
100
AcDbLine
 10
-458.9136047363281
 20
264.74609375
 30
0.0
 11
-458.9136047363281
 21
237.2794189453125
 31
0.0
  0
LINE
  5
1E0
330
22
100
AcDbEntity
  8
0
  6
Continuous
 62
     7
100
AcDbLine
 10
-447.413604736328
 20
255.4960784912109
 30
0.0
 11
-447.413604736328
 21
237.2794189453125
 31
0.0
  0
LINE
  5
1E1
330
22
100
AcDbEntity
  8
0
  6
Continuous
 62
     7
100
AcDbLine
 10
-383.4136047363281
 20
182.4794158935547
 30
0.0
 11
-383.4136047363281
 21
191.8460845947265
 31
0.0
  0
LINE
  5
1E2
330
22
100
AcDbEntity
  8
0
  6
Continuous
 62
     7
100
AcDbLine
 10
-394.9136047363282
 20
168.4262542724609
 30
0.0
 11
-394.9136047363282
 21
200.6460876464844
 31
0.0
  0
LINE
  5
1E3
330
22
100
AcDbEntity
  8
0
  6
Continuous
 62
     7
100
AcDbLine
 10
-401.4136047363281
 20
168.4262542724609
 30
0.0
 11
-401.4136047363281
 21
200.6460876464844
 31
0.0
  0
LINE
  5
1E4
330
22
100
AcDbEntity
  8
0
  6
Continuous
 62
     7
100
AcDbLine
 10
-429.4136047363281
 20
170.1127471923828
 30
0.0
 11
-429.4136047363281
 21
190.0127563476563
 31
0.0
  0
LINE
  5
1E5
330
22
100
AcDbEntity
  8
0
  6
Continuous
 62
     7
100
AcDbLine
 10
-406.4136047363281
 20
178.0794219970703
 30
0.0
 11
-406.4136047363281
 21
187.5460815429688
 31
0.0
  0
LINE
  5
1E6
330
22
100
AcDbEntity
  8
0
  6
Continuous
 62
     7
100
AcDbLine
 10
-412.9136047363281
 20
178.0794219970703
 30
0.0
 11
-412.9136047363281
 21
187.5460815429688
 31
0.0
  0
LINE
  5
1E7
330
22
100
AcDbEntity
  8
0
  6
Continuous
 62
     7
100
AcDbLine
 10
-389.9136047363281
 20
182.4794158935547
 30
0.0
 11
-389.9136047363281
 21
191.8460845947265
 31
0.0
  0
LINE
  5
1E8
330
22
100
AcDbEntity
  8
0
  6
Continuous
 62
     7
100
AcDbLine
 10
-355.4136047363281
 20
181.9526824951172
 30
0.0
 11
-355.4136047363281
 21
205.6460876464844
 31
0.0
  0
LINE
  5
1E9
330
22
100
AcDbEntity
  8
0
  6
Continuous
 62
     7
100
AcDbLine
 10
-363.2897033691406
 20
157.8390655517578
 30
0.0
 11
-362.8266906738281
 21
157.8390655517578
 31
0.0
  0
LINE
  5
1EA
330
22
100
AcDbEntity
  8
0
  6
Continuous
 62
     7
100
AcDbLine
 10
-363.2897033691406
 20
157.8390655517578
 30
0.0
 11
-363.752685546875
 21
157.8390655517578
 31
0.0
  0
LINE
  5
1EB
330
22
100
AcDbEntity
  8
0
  6
Continuous
 62
     7
100
AcDbLine
 10
-363.752685546875
 20
157.8390655517578
 30
0.0
 11
-364.2100524902344
 21
161.1819458007813
 31
0.0
  0
LINE
  5
1EC
330
22
100
AcDbEntity
  8
0
  6
Continuous
 62
     7
100
AcDbLine
 10
-367.5277709960938
 20
162.5649719238281
 30
0.0
 11
-367.5277709960938
 21
162.1023101806641
 31
0.0
  0
LINE
  5
1ED
330
22
100
AcDbEntity
  8
0
  6
Continuous
 62
     7
100
AcDbLine
 10
-378.4136047363281
 20
196.2794189453125
 30
0.0
 11
-378.4136047363281
 21
225.6460876464844
 31
0.0
  0
LINE
  5
1EE
330
22
100
AcDbEntity
  8
0
  6
Continuous
 62
     7
100
AcDbLine
 10
-383.4136047363281
 20
202.4794158935547
 30
0.0
 11
-383.4136047363281
 21
225.6460876464844
 31
0.0
  0
LINE
  5
1EF
330
22
100
AcDbEntity
  8
0
  6
Continuous
 62
     7
100
AcDbLine
 10
-401.4136047363281
 20
211.2794189453125
 30
0.0
 11
-401.4136047363281
 21
225.6460876464844
 31
0.0
  0
LINE
  5
1F0
330
22
100
AcDbEntity
  8
0
  6
Continuous
 62
     7
100
AcDbLine
 10
-424.4136047363281
 20
207.4294128417969
 30
0.0
 11
-424.4136047363281
 21
225.6460876464844
 31
0.0
  0
LINE
  5
1F1
330
22
100
AcDbEntity
  8
0
  6
Continuous
 62
     7
100
AcDbLine
 10
-389.9136047363281
 20
202.4794158935547
 30
0.0
 11
-389.9136047363281
 21
225.6460876464844
 31
0.0
  0
LINE
  5
1F2
330
22
100
AcDbEntity
  8
0
  6
Continuous
 62
     7
100
AcDbLine
 10
-394.9136047363282
 20
211.2794189453125
 30
0.0
 11
-394.9136047363282
 21
225.6460876464844
 31
0.0
  0
LINE
  5
1F3
330
22
100
AcDbEntity
  8
0
  6
Continuous
 62
     7
100
AcDbLine
 10
-406.4136047363281
 20
198.1794128417969
 30
0.0
 11
-406.4136047363281
 21
225.6460876464844
 31
0.0
  0
LINE
  5
1F4
330
22
100
AcDbEntity
  8
0
  6
Continuous
 62
     7
100
AcDbLine
 10
-417.9136047363281
 20
207.4294128417969
 30
0.0
 11
-417.9136047363281
 21
225.6460876464844
 31
0.0
  0
LINE
  5
1F5
330
22
100
AcDbEntity
  8
0
  6
Continuous
 62
     7
100
AcDbLine
 10
-429.4136047363281
 20
202.562744140625
 30
0.0
 11
-429.4136047363281
 21
222.4627532958984
 31
0.0
  0
LINE
  5
1F6
330
22
100
AcDbEntity
  8
0
  6
Continuous
 62
     7
100
AcDbLine
 10
-412.9136047363281
 20
198.1794128417969
 30
0.0
 11
-412.9136047363281
 21
225.6460876464844
 31
0.0
  0
LINE
  5
1F7
330
22
100
AcDbEntity
  8
0
  6
Continuous
 62
     7
100
AcDbLine
 10
-355.4136047363281
 20
216.2794189453125
 30
0.0
 11
-355.4136047363281
 21
225.6460876464844
 31
0.0
  0
LINE
  5
1F8
330
22
100
AcDbEntity
  8
0
  6
Continuous
 62
     7
100
AcDbLine
 10
-348.9136047363281
 20
216.2794189453125
 30
0.0
 11
-348.9136047363281
 21
225.6460876464844
 31
0.0
  0
LINE
  5
1F9
330
22
100
AcDbEntity
  8
0
  6
Continuous
 62
     7
100
AcDbLine
 10
-371.9136047363281
 20
196.2794189453125
 30
0.0
 11
-371.9136047363281
 21
225.6460876464844
 31
0.0
  0
LINE
  5
1FA
330
22
100
AcDbEntity
  8
0
  6
Continuous
 62
     7
100
AcDbLine
 10
-360.4136047363281
 20
201.2794189453125
 30
0.0
 11
-360.4136047363281
 21
225.6460876464844
 31
0.0
  0
LINE
  5
1FB
330
22
100
AcDbEntity
  8
0
  6
Continuous
 62
     7
100
AcDbLine
 10
-366.9136047363281
 20
201.2794189453125
 30
0.0
 11
-366.9136047363281
 21
225.6460876464844
 31
0.0
  0
LINE
  5
1FC
330
22
100
AcDbEntity
  8
0
  6
Continuous
 62
     7
100
AcDbLine
 10
-337.4136047363281
 20
210.6375885009766
 30
0.0
 11
-337.4136047363281
 21
225.6460876464844
 31
0.0
  0
LINE
  5
1FD
330
22
100
AcDbEntity
  8
0
  6
Continuous
 62
     7
100
AcDbLine
 10
-343.9136047363281
 20
201.7190551757813
 30
0.0
 11
-343.9136047363281
 21
225.6460876464844
 31
0.0
  0
LINE
  5
1FE
330
22
100
AcDbEntity
  8
0
  6
Continuous
 62
     7
100
AcDbLine
 10
-470.4136047363281
 20
168.4262542724609
 30
0.0
 11
-470.4136047363281
 21
200.6460876464844
 31
0.0
  0
LINE
  5
1FF
330
22
100
AcDbEntity
  8
0
  6
Continuous
 62
     7
100
AcDbLine
 10
-463.9136047363281
 20
168.4262542724609
 30
0.0
 11
-463.9136047363281
 21
200.6460876464844
 31
0.0
  0
LINE
  5
200
330
22
100
AcDbEntity
  8
0
  6
Continuous
 62
     7
100
AcDbLine
 10
-475.4136047363281
 20
182.4794158935547
 30
0.0
 11
-475.4136047363281
 21
191.8460845947265
 31
0.0
  0
LINE
  5
201
330
22
100
AcDbEntity
  8
0
  6
Continuous
 62
     7
100
AcDbLine
 10
-394.9136047363282
 20
143.4966583251953
 30
0.0
 11
-394.9136047363282
 21
157.6898803710938
 31
0.0
  0
LINE
  5
202
330
22
100
AcDbEntity
  8
0
  6
Continuous
 62
     7
100
AcDbLine
 10
-429.4136047363281
 20
137.7127532958984
 30
0.0
 11
-429.4136047363281
 21
157.6127471923828
 31
0.0
  0
LINE
  5
203
330
22
100
AcDbEntity
  8
0
  6
Continuous
 62
     7
100
AcDbLine
 10
-417.9136047363281
 20
137.4599914550781
 30
0.0
 11
-417.9136047363281
 21
155.7630462646484
 31
0.0
  0
LINE
  5
204
330
22
100
AcDbEntity
  8
0
  6
Continuous
 62
     7
100
AcDbLine
 10
-424.4136047363281
 20
137.4599914550781
 30
0.0
 11
-424.4136047363281
 21
155.7630462646484
 31
0.0
  0
LINE
  5
205
330
22
100
AcDbEntity
  8
0
  6
Continuous
 62
     7
100
AcDbLine
 10
-401.4136047363281
 20
143.4966583251953
 30
0.0
 11
-401.4136047363281
 21
157.6898803710938
 31
0.0
  0
LINE
  5
206
330
22
100
AcDbEntity
  8
0
  6
Continuous
 62
     7
100
AcDbLine
 10
-359.0516052246094
 20
161.6396636962891
 30
0.0
 11
-362.3693237304688
 21
161.1819458007813
 31
0.0
  0
LINE
  5
207
330
22
100
AcDbEntity
  8
0
  6
Continuous
 62
     7
100
AcDbLine
 10
-359.0516052246094
 20
162.5649719238281
 30
0.0
 11
-359.0516052246094
 21
162.1023101806641
 31
0.0
  0
LINE
  5
208
330
22
100
AcDbEntity
  8
0
  6
Continuous
 62
     7
100
AcDbLine
 10
-359.0516052246094
 20
161.6396636962891
 30
0.0
 11
-359.0516052246094
 21
162.1023101806641
 31
0.0
  0
LINE
  5
209
330
22
100
AcDbEntity
  8
0
  6
Continuous
 62
     7
100
AcDbLine
 10
-367.5277709960938
 20
161.6396636962891
 30
0.0
 11
-367.5277709960938
 21
162.1023101806641
 31
0.0
  0
LINE
  5
20A
330
22
100
AcDbEntity
  8
0
  6
Continuous
 62
     7
100
AcDbLine
 10
-367.5277709960938
 20
161.6396636962891
 30
0.0
 11
-364.2100524902344
 21
161.1819458007813
 31
0.0
  0
LINE
  5
20B
330
22
100
AcDbEntity
  8
0
  6
Continuous
 62
     7
100
AcDbLine
 10
-362.8266906738281
 20
157.8390655517578
 30
0.0
 11
-362.3693237304688
 21
161.1819458007813
 31
0.0
  0
LINE
  5
20C
330
22
100
AcDbEntity
  8
0
  6
Continuous
 62
     7
100
AcDbLine
 10
-458.9136047363281
 20
178.0794219970703
 30
0.0
 11
-458.9136047363281
 21
187.5460815429688
 31
0.0
  0
LINE
  5
20D
330
22
100
AcDbEntity
  8
0
  6
Continuous
 62
     7
100
AcDbLine
 10
-452.4136047363281
 20
178.0794219970703
 30
0.0
 11
-452.4136047363281
 21
187.5460815429688
 31
0.0
  0
LINE
  5
20E
330
22
100
AcDbEntity
  8
0
  6
Continuous
 62
     7
100
AcDbLine
 10
-504.9136047363281
 20
171.7794189453125
 30
0.0
 11
-504.9136047363281
 21
190.6460876464844
 31
0.0
  0
LINE
  5
20F
330
22
100
AcDbEntity
  8
0
  6
Continuous
 62
     7
100
AcDbLine
 10
-516.4136352539063
 20
181.9526824951172
 30
0.0
 11
-516.4136352539063
 21
205.6460876464844
 31
0.0
  0
LINE
  5
210
330
22
100
AcDbEntity
  8
0
  6
Continuous
 62
     7
100
AcDbLine
 10
-509.913604736328
 20
181.9526824951172
 30
0.0
 11
-509.913604736328
 21
205.6460876464844
 31
0.0
  0
LINE
  5
211
330
22
100
AcDbEntity
  8
0
  6
Continuous
 62
     7
100
AcDbLine
 10
-498.4136047363281
 20
171.7794189453125
 30
0.0
 11
-498.4136047363281
 21
190.6460876464844
 31
0.0
  0
LINE
  5
212
330
22
100
AcDbEntity
  8
0
  6
Continuous
 62
     7
100
AcDbLine
 10
-481.9136047363281
 20
182.4794158935547
 30
0.0
 11
-481.9136047363281
 21
191.8460845947265
 31
0.0
  0
LINE
  5
213
330
22
100
AcDbEntity
  8
0
  6
Continuous
 62
     7
100
AcDbLine
 10
-440.9136047363281
 20
137.4599914550781
 30
0.0
 11
-440.9136047363281
 21
155.7630462646484
 31
0.0
  0
LINE
  5
214
330
22
100
AcDbEntity
  8
0
  6
Continuous
 62
     7
100
AcDbLine
 10
-504.9136047363281
 20
201.2794189453125
 30
0.0
 11
-504.9136047363281
 21
225.6460876464844
 31
0.0
  0
LINE
  5
215
330
22
100
AcDbEntity
  8
0
  6
Continuous
 62
     7
100
AcDbLine
 10
-527.9136352539063
 20
210.6375885009766
 30
0.0
 11
-527.9136352539063
 21
225.6460876464844
 31
0.0
  0
LINE
  5
216
330
22
100
AcDbEntity
  8
0
  6
Continuous
 62
     7
100
AcDbLine
 10
-516.4136352539063
 20
216.2794189453125
 30
0.0
 11
-516.4136352539063
 21
225.6460876464844
 31
0.0
  0
LINE
  5
217
330
22
100
AcDbEntity
  8
0
  6
Continuous
 62
     7
100
AcDbLine
 10
-509.913604736328
 20
216.2794189453125
 30
0.0
 11
-509.913604736328
 21
225.6460876464844
 31
0.0
  0
LINE
  5
218
330
22
100
AcDbEntity
  8
0
  6
Continuous
 62
     7
100
AcDbLine
 10
-521.4136352539063
 20
201.7190551757813
 30
0.0
 11
-521.4136352539063
 21
225.6460876464844
 31
0.0
  0
LINE
  5
219
330
22
100
AcDbEntity
  8
0
  6
Continuous
 62
     7
100
AcDbLine
 10
-498.4136047363281
 20
201.2794189453125
 30
0.0
 11
-498.4136047363281
 21
225.6460876464844
 31
0.0
  0
LINE
  5
21A
330
22
100
AcDbEntity
  8
0
  6
Continuous
 62
     7
100
AcDbLine
 10
-486.9136047363281
 20
196.2794189453125
 30
0.0
 11
-486.9136047363281
 21
225.6460876464844
 31
0.0
  0
LINE
  5
21B
330
22
100
AcDbEntity
  8
0
  6
Continuous
 62
     7
100
AcDbLine
 10
-481.9136047363281
 20
202.4794158935547
 30
0.0
 11
-481.9136047363281
 21
225.6460876464844
 31
0.0
  0
LINE
  5
21C
330
22
100
AcDbEntity
  8
0
  6
Continuous
 62
     7
100
AcDbLine
 10
-452.4136047363281
 20
198.1794128417969
 30
0.0
 11
-452.4136047363281
 21
225.6460876464844
 31
0.0
  0
LINE
  5
21D
330
22
100
AcDbEntity
  8
0
  6
Continuous
 62
     7
100
AcDbLine
 10
-440.9136047363281
 20
207.4294128417969
 30
0.0
 11
-440.9136047363281
 21
225.6460876464844
 31
0.0
  0
LINE
  5
21E
330
22
100
AcDbEntity
  8
0
  6
Continuous
 62
     7
100
AcDbLine
 10
-447.413604736328
 20
207.4294128417969
 30
0.0
 11
-447.413604736328
 21
225.6460876464844
 31
0.0
  0
LINE
  5
21F
330
22
100
AcDbEntity
  8
0
  6
Continuous
 62
     7
100
AcDbLine
 10
-475.4136047363281
 20
202.4794158935547
 30
0.0
 11
-475.4136047363281
 21
225.6460876464844
 31
0.0
  0
LINE
  5
220
330
22
100
AcDbEntity
  8
0
  6
Continuous
 62
     7
100
AcDbLine
 10
-470.4136047363281
 20
211.2794189453125
 30
0.0
 11
-470.4136047363281
 21
225.6460876464844
 31
0.0
  0
LINE
  5
221
330
22
100
AcDbEntity
  8
0
  6
Continuous
 62
     7
100
AcDbLine
 10
-463.9136047363281
 20
211.2794189453125
 30
0.0
 11
-463.9136047363281
 21
225.6460876464844
 31
0.0
  0
LINE
  5
222
330
22
100
AcDbEntity
  8
0
  6
Continuous
 62
     7
100
AcDbLine
 10
-458.9136047363281
 20
198.1794128417969
 30
0.0
 11
-458.9136047363281
 21
225.6460876464844
 31
0.0
  0
LINE
  5
223
330
22
100
AcDbEntity
  8
0
  6
Continuous
 62
     7
100
AcDbLine
 10
-493.413604736328
 20
196.2794189453125
 30
0.0
 11
-493.413604736328
 21
225.6460876464844
 31
0.0
  0
LINE
  5
224
330
22
100
AcDbEntity
  8
0
  6
Continuous
 62
     7
100
AcDbLine
 10
-447.413604736328
 20
137.4599914550781
 30
0.0
 11
-447.413604736328
 21
155.7630462646484
 31
0.0
  0
LINE
  5
225
330
22
100
AcDbEntity
  8
0
  6
Continuous
 62
     7
100
AcDbLine
 10
-506.2869262695313
 20
161.6262054443359
 30
0.0
 11
-502.9440612792968
 21
161.1688385009766
 31
0.0
  0
LINE
  5
226
330
22
100
AcDbEntity
  8
0
  6
Continuous
 62
     7
100
AcDbLine
 10
-502.486328125
 20
157.8511352539063
 30
0.0
 11
-502.9440612792968
 21
161.1688385009766
 31
0.0
  0
LINE
  5
227
330
22
100
AcDbEntity
  8
0
  6
Continuous
 62
     7
100
AcDbLine
 10
-501.5610351562499
 20
157.8511352539063
 30
0.0
 11
-501.1033020019531
 21
161.1688385009766
 31
0.0
  0
LINE
  5
228
330
22
100
AcDbEntity
  8
0
  6
Continuous
 62
     7
100
AcDbLine
 10
-497.7604370117187
 20
161.6262054443359
 30
0.0
 11
-501.1033020019531
 21
161.1688385009766
 31
0.0
  0
LINE
  5
229
330
22
100
AcDbEntity
  8
0
  6
Continuous
 62
     7
100
AcDbLine
 10
-506.2869262695313
 20
162.0892028808594
 30
0.0
 11
-506.2869262695313
 21
162.5522003173828
 31
0.0
  0
LINE
  5
22A
330
22
100
AcDbEntity
  8
0
  6
Continuous
 62
     7
100
AcDbLine
 10
-506.2869262695313
 20
162.0892028808594
 30
0.0
 11
-506.2869262695313
 21
161.6262054443359
 31
0.0
  0
LINE
  5
22B
330
22
100
AcDbEntity
  8
0
  6
Continuous
 62
     7
100
AcDbLine
 10
-501.5610351562499
 20
157.8511352539063
 30
0.0
 11
-502.0236816406249
 21
157.8511352539063
 31
0.0
  0
LINE
  5
22C
330
22
100
AcDbEntity
  8
0
  6
Continuous
 62
     7
100
AcDbLine
 10
-502.486328125
 20
157.8511352539063
 30
0.0
 11
-502.0236816406249
 21
157.8511352539063
 31
0.0
  0
LINE
  5
22D
330
22
100
AcDbEntity
  8
0
  6
Continuous
 62
     7
100
AcDbLine
 10
-497.7604370117187
 20
162.0892028808594
 30
0.0
 11
-497.7604370117187
 21
162.5522003173828
 31
0.0
  0
LINE
  5
22E
330
22
100
AcDbEntity
  8
0
  6
Continuous
 62
     7
100
AcDbLine
 10
-497.7604370117187
 20
162.0892028808594
 30
0.0
 11
-497.7604370117187
 21
161.6262054443359
 31
0.0
  0
LINE
  5
22F
330
22
100
AcDbEntity
  8
0
  6
Continuous
 62
     7
100
AcDbLine
 10
-470.4136047363281
 20
143.4966583251953
 30
0.0
 11
-470.4136047363281
 21
157.6898803710938
 31
0.0
  0
LINE
  5
230
330
22
100
AcDbEntity
  8
0
  6
Continuous
 62
     7
100
AcDbLine
 10
-463.9136047363281
 20
143.4966583251953
 30
0.0
 11
-463.9136047363281
 21
157.6898803710938
 31
0.0
  0
LINE
  5
231
330
22
100
AcDbEntity
  8
0
  6
Continuous
 62
     7
100
AcDbLine
 10
-359.03955078125
 20
300.8363037109375
 30
0.0
 11
-359.03955078125
 21
300.373291015625
 31
0.0
  0
LINE
  5
232
330
22
100
AcDbEntity
  8
0
  6
Continuous
 62
     7
100
AcDbLine
 10
-359.03955078125
 20
301.2992858886719
 30
0.0
 11
-362.3824462890625
 21
301.7566528320313
 31
0.0
  0
LINE
  5
233
330
22
100
AcDbEntity
  8
0
  6
Continuous
 62
     7
100
AcDbLine
 10
-406.4136047363281
 20
323.3352966308594
 30
0.0
 11
-406.4136047363281
 21
295.5824584960938
 31
0.0
  0
LINE
  5
234
330
22
100
AcDbEntity
  8
0
  6
Continuous
 62
     7
100
AcDbLine
 10
-412.9136047363281
 20
323.3352966308594
 30
0.0
 11
-412.9136047363281
 21
295.5824584960938
 31
0.0
  0
LINE
  5
235
330
22
100
AcDbEntity
  8
0
  6
Continuous
 62
     7
100
AcDbLine
 10
-367.5660705566406
 20
300.8363037109375
 30
0.0
 11
-367.5660705566406
 21
300.373291015625
 31
0.0
  0
LINE
  5
236
330
22
100
AcDbEntity
  8
0
  6
Continuous
 62
     7
100
AcDbLine
 10
-367.5660705566406
 20
300.8363037109375
 30
0.0
 11
-367.5660705566406
 21
301.2992858886719
 31
0.0
  0
LINE
  5
237
330
22
100
AcDbEntity
  8
0
  6
Continuous
 62
     7
100
AcDbLine
 10
-371.9136047363281
 20
306.5663146972656
 30
0.0
 11
-371.9136047363281
 21
277.2794189453125
 31
0.0
  0
LINE
  5
238
330
22
100
AcDbEntity
  8
0
  6
Continuous
 62
     7
100
AcDbLine
 10
-363.7654418945313
 20
305.0743713378906
 30
0.0
 11
-364.2231750488281
 21
301.7566528320313
 31
0.0
  0
LINE
  5
239
330
22
100
AcDbEntity
  8
0
  6
Continuous
 62
     7
100
AcDbLine
 10
-362.8401489257813
 20
296.5982360839844
 30
0.0
 11
-362.3824462890625
 21
299.9159240722656
 31
0.0
  0
LINE
  5
23A
330
22
100
AcDbEntity
  8
0
  6
Continuous
 62
     7
100
AcDbLine
 10
-363.7654418945313
 20
296.5982360839844
 30
0.0
 11
-364.2231750488281
 21
299.9159240722656
 31
0.0
  0
LINE
  5
23B
330
22
100
AcDbEntity
  8
0
  6
Continuous
 62
     7
100
AcDbLine
 10
-367.5660705566406
 20
300.373291015625
 30
0.0
 11
-364.2231750488281
 21
299.9159240722656
 31
0.0
  0
LINE
  5
23C
330
22
100
AcDbEntity
  8
0
  6
Continuous
 62
     7
100
AcDbLine
 10
-367.5660705566406
 20
301.2992858886719
 30
0.0
 11
-364.2231750488281
 21
301.7566528320313
 31
0.0
  0
LINE
  5
23D
330
22
100
AcDbEntity
  8
0
  6
Continuous
 62
     7
100
AcDbLine
 10
-362.8401489257813
 20
305.0743713378906
 30
0.0
 11
-362.3824462890625
 21
301.7566528320313
 31
0.0
  0
LINE
  5
23E
330
22
100
AcDbEntity
  8
0
  6
Continuous
 62
     7
100
AcDbLine
 10
-452.4136047363281
 20
323.161865234375
 30
0.0
 11
-452.4136047363281
 21
295.5824584960938
 31
0.0
  0
LINE
  5
23F
330
22
100
AcDbEntity
  8
0
  6
Continuous
 62
     7
100
AcDbLine
 10
-506.2748718261718
 20
300.3605346679688
 30
0.0
 11
-506.2748718261718
 21
300.8231811523438
 31
0.0
  0
LINE
  5
240
330
22
100
AcDbEntity
  8
0
  6
Continuous
 62
     7
100
AcDbLine
 10
-502.4997863769531
 20
296.5599365234375
 30
0.0
 11
-502.9571533203125
 21
299.9028015136719
 31
0.0
  0
LINE
  5
241
330
22
100
AcDbEntity
  8
0
  6
Continuous
 62
     7
100
AcDbLine
 10
-501.5737915039062
 20
296.5599365234375
 30
0.0
 11
-501.1164245605469
 21
299.9028015136719
 31
0.0
  0
LINE
  5
242
330
22
100
AcDbEntity
  8
0
  6
Continuous
 62
     7
100
AcDbLine
 10
-506.2748718261718
 20
300.3605346679688
 30
0.0
 11
-502.9571533203125
 21
299.9028015136719
 31
0.0
  0
LINE
  5
243
330
22
100
AcDbEntity
  8
0
  6
Continuous
 62
     7
100
AcDbLine
 10
-506.2748718261718
 20
301.2858276367188
 30
0.0
 11
-502.9571533203125
 21
301.7435607910156
 31
0.0
  0
LINE
  5
244
330
22
100
AcDbEntity
  8
0
  6
Continuous
 62
     7
100
AcDbLine
 10
-501.5737915039062
 20
305.08642578125
 30
0.0
 11
-501.1164245605469
 21
301.7435607910156
 31
0.0
  0
LINE
  5
245
330
22
100
AcDbEntity
  8
0
  6
Continuous
 62
     7
100
AcDbLine
 10
-502.4997863769531
 20
305.08642578125
 30
0.0
 11
-502.9571533203125
 21
301.7435607910156
 31
0.0
  0
LINE
  5
246
330
22
100
AcDbEntity
  8
0
  6
Continuous
 62
     7
100
AcDbLine
 10
-497.7987060546874
 20
300.3605346679688
 30
0.0
 11
-501.1164245605469
 21
299.9028015136719
 31
0.0
  0
LINE
  5
247
330
22
100
AcDbEntity
  8
0
  6
Continuous
 62
     7
100
AcDbLine
 10
-497.7987060546874
 20
301.2858276367188
 30
0.0
 11
-501.1164245605469
 21
301.7435607910156
 31
0.0
  0
LINE
  5
248
330
22
100
AcDbEntity
  8
0
  6
Continuous
 62
     7
100
AcDbLine
 10
-506.2748718261718
 20
301.2858276367188
 30
0.0
 11
-506.2748718261718
 21
300.8231811523438
 31
0.0
  0
LINE
  5
249
330
22
100
AcDbEntity
  8
0
  6
Continuous
 62
     7
100
AcDbLine
 10
-493.413604736328
 20
306.5663146972656
 30
0.0
 11
-493.413604736328
 21
277.2794189453125
 31
0.0
  0
LINE
  5
24A
330
22
100
AcDbEntity
  8
0
  6
Continuous
 62
     7
100
AcDbLine
 10
-497.7987060546874
 20
300.3605346679688
 30
0.0
 11
-497.7987060546874
 21
300.8231811523438
 31
0.0
  0
LINE
  5
24B
330
22
100
AcDbEntity
  8
0
  6
Continuous
 62
     7
100
AcDbLine
 10
-497.7987060546874
 20
301.2858276367188
 30
0.0
 11
-497.7987060546874
 21
300.8231811523438
 31
0.0
  0
LINE
  5
24C
330
22
100
AcDbEntity
  8
0
  6
Continuous
 62
     7
100
AcDbLine
 10
-486.9136047363281
 20
306.5663146972656
 30
0.0
 11
-486.9136047363281
 21
277.2794189453125
 31
0.0
  0
LINE
  5
24D
330
22
100
AcDbEntity
  8
0
  6
Continuous
 62
     7
100
AcDbLine
 10
-481.9136047363281
 20
314.0059814453125
 30
0.0
 11
-481.9136047363281
 21
291.1824340820313
 31
0.0
  0
LINE
  5
24E
330
22
100
AcDbEntity
  8
0
  6
Continuous
 62
     7
100
AcDbLine
 10
-475.4136047363281
 20
314.0059814453125
 30
0.0
 11
-475.4136047363281
 21
291.1824340820313
 31
0.0
  0
LINE
  5
24F
330
22
100
AcDbEntity
  8
0
  6
Continuous
 62
     7
100
AcDbLine
 10
-378.4136047363281
 20
306.5663146972656
 30
0.0
 11
-378.4136047363281
 21
277.2794189453125
 31
0.0
  0
LINE
  5
250
330
22
100
AcDbEntity
  8
0
  6
Continuous
 62
     7
100
AcDbLine
 10
-383.4136047363281
 20
314.1794128417969
 30
0.0
 11
-383.4136047363281
 21
291.0824584960938
 31
0.0
  0
LINE
  5
251
330
22
100
AcDbEntity
  8
0
  6
Continuous
 62
     7
100
AcDbLine
 10
-389.9136047363281
 20
314.1794128417969
 30
0.0
 11
-389.9136047363281
 21
291.0824584960938
 31
0.0
  0
LINE
  5
252
330
22
100
AcDbEntity
  8
0
  6
Continuous
 62
     7
100
AcDbLine
 10
-359.03955078125
 20
300.373291015625
 30
0.0
 11
-362.3824462890625
 21
299.9159240722656
 31
0.0
  0
LINE
  5
253
330
22
100
AcDbEntity
  8
0
  6
Continuous
 62
     7
100
AcDbLine
 10
-359.03955078125
 20
300.8363037109375
 30
0.0
 11
-359.03955078125
 21
301.2992858886719
 31
0.0
  0
LINE
  5
254
330
22
100
AcDbEntity
  8
0
  6
Continuous
 62
     7
100
AcDbLine
 10
-481.9136047363281
 20
148.9195251464844
 30
0.0
 11
-481.9136047363281
 21
171.7430572509766
 31
0.0
  0
LINE
  5
255
330
22
100
AcDbEntity
  8
0
  6
Continuous
 62
     7
100
AcDbLine
 10
-493.413604736328
 20
156.3591918945313
 30
0.0
 11
-493.413604736328
 21
185.6460876464844
 31
0.0
  0
LINE
  5
256
330
22
100
AcDbEntity
  8
0
  6
Continuous
 62
     7
100
AcDbLine
 10
-475.4136047363281
 20
148.9195251464844
 30
0.0
 11
-475.4136047363281
 21
171.7430572509766
 31
0.0
  0
LINE
  5
257
330
22
100
AcDbEntity
  8
0
  6
Continuous
 62
     7
100
AcDbLine
 10
-440.9136047363281
 20
166.3963775634766
 30
0.0
 11
-440.9136047363281
 21
196.7630462646484
 31
0.0
  0
LINE
  5
258
330
22
100
AcDbEntity
  8
0
  6
Continuous
 62
     7
100
AcDbLine
 10
-378.4136047363281
 20
156.3591918945313
 30
0.0
 11
-378.4136047363281
 21
185.6460876464844
 31
0.0
  0
LINE
  5
259
330
22
100
AcDbEntity
  8
0
  6
Continuous
 62
     7
100
AcDbLine
 10
-383.4136047363281
 20
148.9195251464844
 30
0.0
 11
-383.4136047363281
 21
171.7430572509766
 31
0.0
  0
LINE
  5
25A
330
22
100
AcDbEntity
  8
0
  6
Continuous
 62
     7
100
AcDbLine
 10
-389.9136047363281
 20
148.9195251464844
 30
0.0
 11
-389.9136047363281
 21
171.7430572509766
 31
0.0
  0
LINE
  5
25B
330
22
100
AcDbEntity
  8
0
  6
Continuous
 62
     7
100
AcDbLine
 10
-412.9136047363281
 20
139.7636413574219
 30
0.0
 11
-412.9136047363281
 21
167.3430480957031
 31
0.0
  0
LINE
  5
25C
330
22
100
AcDbEntity
  8
0
  6
Continuous
 62
     7
100
AcDbLine
 10
-406.4136047363281
 20
139.7636413574219
 30
0.0
 11
-406.4136047363281
 21
167.3430480957031
 31
0.0
  0
LINE
  5
25D
330
22
100
AcDbEntity
  8
0
  6
Continuous
 62
     7
100
AcDbLine
 10
-417.9136047363281
 20
166.3963775634766
 30
0.0
 11
-417.9136047363281
 21
196.7630462646484
 31
0.0
  0
LINE
  5
25E
330
22
100
AcDbEntity
  8
0
  6
Continuous
 62
     7
100
AcDbLine
 10
-424.4136047363281
 20
166.3963775634766
 30
0.0
 11
-424.4136047363281
 21
196.7630462646484
 31
0.0
  0
LINE
  5
25F
330
22
100
AcDbEntity
  8
0
  6
Continuous
 62
     7
100
AcDbLine
 10
-359.0516052246094
 20
162.5649719238281
 30
0.0
 11
-362.3693237304688
 21
163.0226898193359
 31
0.0
  0
LINE
  5
260
330
22
100
AcDbEntity
  8
0
  6
Continuous
 62
     7
100
AcDbLine
 10
-371.9136047363281
 20
156.3591918945313
 30
0.0
 11
-371.9136047363281
 21
185.6460876464844
 31
0.0
  0
LINE
  5
261
330
22
100
AcDbEntity
  8
0
  6
Continuous
 62
     7
100
AcDbLine
 10
-362.8266906738281
 20
166.3655700683594
 30
0.0
 11
-362.3693237304688
 21
163.0226898193359
 31
0.0
  0
LINE
  5
262
330
22
100
AcDbEntity
  8
0
  6
Continuous
 62
     7
100
AcDbLine
 10
-363.2897033691406
 20
166.3655700683594
 30
0.0
 11
-363.752685546875
 21
166.3655700683594
 31
0.0
  0
LINE
  5
263
330
22
100
AcDbEntity
  8
0
  6
Continuous
 62
     7
100
AcDbLine
 10
-367.5277709960938
 20
162.5649719238281
 30
0.0
 11
-364.2100524902344
 21
163.0226898193359
 31
0.0
  0
LINE
  5
264
330
22
100
AcDbEntity
  8
0
  6
Continuous
 62
     7
100
AcDbLine
 10
-363.2897033691406
 20
166.3655700683594
 30
0.0
 11
-362.8266906738281
 21
166.3655700683594
 31
0.0
  0
LINE
  5
265
330
22
100
AcDbEntity
  8
0
  6
Continuous
 62
     7
100
AcDbLine
 10
-363.752685546875
 20
166.3655700683594
 30
0.0
 11
-364.2100524902344
 21
163.0226898193359
 31
0.0
  0
LINE
  5
266
330
22
100
AcDbEntity
  8
0
  6
Continuous
 62
     7
100
AcDbLine
 10
-458.9136047363281
 20
323.161865234375
 30
0.0
 11
-458.9136047363281
 21
295.5824584960938
 31
0.0
  0
LINE
  5
267
330
22
100
AcDbEntity
  8
0
  6
Continuous
 62
     7
100
AcDbLine
 10
-435.9136047363281
 20
260.362762451172
 30
0.0
 11
-435.9136047363281
 21
238.2127532958984
 31
0.0
  0
LINE
  5
268
330
22
100
AcDbEntity
  8
0
  6
Continuous
 62
     7
100
AcDbLine
 10
-447.413604736328
 20
166.3963775634766
 30
0.0
 11
-447.413604736328
 21
196.7630462646484
 31
0.0
  0
LINE
  5
269
330
22
100
AcDbEntity
  8
0
  6
Continuous
 62
     7
100
AcDbLine
 10
-452.4136047363281
 20
139.7636413574219
 30
0.0
 11
-452.4136047363281
 21
167.3430480957031
 31
0.0
  0
LINE
  5
26A
330
22
100
AcDbEntity
  8
0
  6
Continuous
 62
     7
100
AcDbLine
 10
-458.9136047363281
 20
139.7636413574219
 30
0.0
 11
-458.9136047363281
 21
167.3430480957031
 31
0.0
  0
LINE
  5
26B
330
22
100
AcDbEntity
  8
0
  6
Continuous
 62
     7
100
AcDbLine
 10
-501.5610351562499
 20
166.3272705078125
 30
0.0
 11
-502.0236816406249
 21
166.3272705078125
 31
0.0
  0
LINE
  5
26C
330
22
100
AcDbEntity
  8
0
  6
Continuous
 62
     7
100
AcDbLine
 10
-501.5610351562499
 20
166.3272705078125
 30
0.0
 11
-501.1033020019531
 21
163.0095672607422
 31
0.0
  0
LINE
  5
26D
330
22
100
AcDbEntity
  8
0
  6
Continuous
 62
     7
100
AcDbLine
 10
-502.486328125
 20
166.3272705078125
 30
0.0
 11
-502.9440612792968
 21
163.0095672607422
 31
0.0
  0
LINE
  5
26E
330
22
100
AcDbEntity
  8
0
  6
Continuous
 62
     7
100
AcDbLine
 10
-502.486328125
 20
166.3272705078125
 30
0.0
 11
-502.0236816406249
 21
166.3272705078125
 31
0.0
  0
LINE
  5
26F
330
22
100
AcDbEntity
  8
0
  6
Continuous
 62
     7
100
AcDbLine
 10
-506.2869262695313
 20
162.5522003173828
 30
0.0
 11
-502.9440612792968
 21
163.0095672607422
 31
0.0
  0
LINE
  5
270
330
22
100
AcDbEntity
  8
0
  6
Continuous
 62
     7
100
AcDbLine
 10
-497.7604370117187
 20
162.5522003173828
 30
0.0
 11
-501.1033020019531
 21
163.0095672607422
 31
0.0
  0
LINE
  5
271
330
22
100
AcDbEntity
  8
0
  6
Continuous
 62
     7
100
AcDbLine
 10
-486.9136047363281
 20
156.3591918945313
 30
0.0
 11
-486.9136047363281
 21
185.6460876464844
 31
0.0
  0
LINE
  5
272
330
22
100
AcDbEntity
  8
0
  6
Continuous
 62
     7
100
AcDbLine
 10
-435.9136047363281
 20
202.562744140625
 30
0.0
 11
-435.9136047363281
 21
222.4627532958984
 31
0.0
  0
LINE
  5
273
330
22
100
AcDbEntity
  8
0
  6
Continuous
 62
     7
100
AcDbLine
 10
-435.9136047363281
 20
170.1127471923828
 30
0.0
 11
-435.9136047363281
 21
190.0127563476563
 31
0.0
  0
LINE
  5
274
330
22
100
AcDbEntity
  8
0
  6
Continuous
 62
     7
100
AcDbLine
 10
-435.9136047363281
 20
137.7127532958984
 30
0.0
 11
-435.9136047363281
 21
157.6127471923828
 31
0.0
  0
LINE
  5
275
330
22
100
AcDbEntity
  8
0
  6
Continuous
 62
     7
100
AcDbLine
 10
-435.9136047363281
 20
326.1460876464844
 30
0.0
 11
-435.9136047363281
 21
304.3794250488281
 31
0.0
  0
LINE
  5
276
330
22
100
AcDbEntity
  8
0
  6
Continuous
 62
     7
100
AcDbLine
 10
-435.9136047363281
 20
292.812744140625
 30
0.0
 11
-435.9136047363281
 21
272.9127502441406
 31
0.0
  0
LINE
  5
277
330
22
100
AcDbEntity
  8
0
  6
CENTER
 62
     7
100
AcDbLine
 10
-305.7956848144531
 20
233.3679351806641
 30
0.0
 11
-563.8636474609374
 21
233.3679351806641
 31
0.0
  0
LINE
  5
278
330
22
100
AcDbEntity
  8
0
  6
CENTER
 62
     7
100
AcDbLine
 10
-432.6636047363281
 20
104.6309127807617
 30
0.0
 11
-432.6636047363281
 21
356.8945922851563
 31
0.0
  0
ARC
  5
279
330
22
100
AcDbEntity
  8
0
  6
Continuous
 62
     7
100
AcDbCircle
 10
-100.9337692260742
 20
280.8679504394531
 30
0.0
 40
1.0
100
AcDbArc
 50
0.0
 51
90.00000000000019
  0
ARC
  5
27A
330
22
100
AcDbEntity
  8
0
  6
Continuous
 62
     7
100
AcDbCircle
 10
-134.4337768554688
 20
282.8679504394531
 30
0.0
 40
1.0
100
AcDbArc
 50
180.0000000000004
 51
270.0000000000005
  0
ARC
  5
27B
330
22
100
AcDbEntity
  8
0
  6
Continuous
 62
     7
100
AcDbCircle
 10
-143.9337768554688
 20
285.8679504394531
 30
0.0
 40
5.0
100
AcDbArc
 50
270.0000000000005
 51
0.0
  0
ARC
  5
27C
330
22
100
AcDbEntity
  8
0
  6
Continuous
 62
     7
100
AcDbCircle
 10
-136.9337768554688
 20
328.8679504394531
 30
0.0
 40
2.0
100
AcDbArc
 50
90.00000000000019
 51
180.0000000000004
  0
ARC
  5
27D
330
22
100
AcDbEntity
  8
0
  6
Continuous
 62
     7
100
AcDbCircle
 10
-135.9337768554688
 20
330.3679504394531
 30
0.0
 40
0.5
100
AcDbArc
 50
0.0
 51
90.00000000000019
  0
ARC
  5
27E
330
22
100
AcDbEntity
  8
0
  6
Continuous
 62
     7
100
AcDbCircle
 10
-191.2224426269531
 20
280.3179321289063
 30
0.0
 40
3.0
100
AcDbArc
 50
210.0000761467314
 51
270.0000000000005
  0
ARC
  5
27F
330
22
100
AcDbEntity
  8
0
  6
Continuous
 62
     7
100
AcDbCircle
 10
-191.2512969970703
 20
278.3679504394531
 30
0.0
 40
5.0
100
AcDbArc
 50
209.9999304360001
 51
270.0000000000005
  0
ARC
  5
280
330
22
100
AcDbEntity
  8
0
  6
Continuous
 62
     7
100
AcDbCircle
 10
-172.9337768554688
 20
279.8679504394531
 30
0.0
 40
1.0
100
AcDbArc
 50
90.00000000000019
 51
180.0000000000004
  0
ARC
  5
281
330
22
100
AcDbEntity
  8
0
  6
Continuous
 62
     7
100
AcDbCircle
 10
-232.8205261230469
 20
336.3679504394531
 30
0.0
 40
5.0
100
AcDbArc
 50
30.00001786228407
 51
90.00000000000019
  0
ARC
  5
282
330
22
100
AcDbEntity
  8
0
  6
Continuous
 62
     7
100
AcDbCircle
 10
-232.5318450927734
 20
329.8679504394531
 30
0.0
 40
5.0
100
AcDbArc
 50
30.00001786228407
 51
90.00000000000019
  0
ARC
  5
283
330
22
100
AcDbEntity
  8
0
  6
Continuous
 62
     7
100
AcDbCircle
 10
-236.9337768554689
 20
342.3679504394531
 30
0.0
 40
1.0
100
AcDbArc
 50
180.0000000000004
 51
270.0000000000005
  0
ARC
  5
284
330
22
100
AcDbEntity
  8
0
  6
Continuous
 62
     7
100
AcDbCircle
 10
-238.9337768554689
 20
347.3679504394531
 30
0.0
 40
1.0
100
AcDbArc
 50
0.0
 51
90.00000000000019
  0
ARC
  5
285
330
22
100
AcDbEntity
  8
0
  6
Continuous
 62
     7
100
AcDbCircle
 10
-240.9337768554689
 20
347.3679504394531
 30
0.0
 40
1.0
100
AcDbArc
 50
90.00000000000019
 51
180.0000000000004
  0
ARC
  5
286
330
22
100
AcDbEntity
  8
0
  6
Continuous
 62
     7
100
AcDbCircle
 10
-236.2242736816406
 20
302.5477600097656
 30
0.0
 40
12.89286136627197
100
AcDbArc
 50
358.904531247404
 51
36.968805292143
  0
ARC
  5
287
330
22
100
AcDbEntity
  8
0
  6
Continuous
 62
     7
100
AcDbCircle
 10
-136.9337768554688
 20
137.8679351806641
 30
0.0
 40
2.0
100
AcDbArc
 50
180.0000000000004
 51
270.0000000000005
  0
ARC
  5
288
330
22
100
AcDbEntity
  8
0
  6
Continuous
 62
     7
100
AcDbCircle
 10
-100.9337692260742
 20
185.8679351806641
 30
0.0
 40
1.0
100
AcDbArc
 50
270.0000000000005
 51
0.0
  0
ARC
  5
289
330
22
100
AcDbEntity
  8
0
  6
Continuous
 62
     7
100
AcDbCircle
 10
-115.8634948730469
 20
164.0697784423828
 30
0.0
 40
17.0
100
AcDbArc
 50
98.69604263790776
 51
162.2318549080127
  0
ARC
  5
28A
330
22
100
AcDbEntity
  8
0
  6
Continuous
 62
     7
100
AcDbCircle
 10
-134.4337768554688
 20
183.8679351806641
 30
0.0
 40
1.0
100
AcDbArc
 50
90.00000000000019
 51
180.0000000000004
  0
ARC
  5
28B
330
22
100
AcDbEntity
  8
0
  6
Continuous
 62
     7
100
AcDbCircle
 10
-133.9571838378906
 20
169.8679351806641
 30
0.0
 40
2.0
100
AcDbArc
 50
270.0000000000005
 51
342.2317638604965
  0
ARC
  5
28C
330
22
100
AcDbEntity
  8
0
  6
Continuous
 62
     7
100
AcDbCircle
 10
-143.9337768554688
 20
180.8679351806641
 30
0.0
 40
5.0
100
AcDbArc
 50
0.0
 51
90.00000000000019
  0
ARC
  5
28D
330
22
100
AcDbEntity
  8
0
  6
Continuous
 62
     7
100
AcDbCircle
 10
-117.4337692260742
 20
182.8679351806641
 30
0.0
 40
2.0
100
AcDbArc
 50
270.0000000000005
 51
0.0
  0
ARC
  5
28E
330
22
100
AcDbEntity
  8
0
  6
Continuous
 62
     7
100
AcDbCircle
 10
-154.9337768554688
 20
274.3679504394531
 30
0.0
 40
1.0
100
AcDbArc
 50
270.0000000000005
 51
0.0
  0
ARC
  5
28F
330
22
100
AcDbEntity
  8
0
  6
Continuous
 62
     7
100
AcDbCircle
 10
-232.8205261230469
 20
130.3679351806641
 30
0.0
 40
5.0
100
AcDbArc
 50
270.0000000000005
 51
329.9999821377166
  0
ARC
  5
290
330
22
100
AcDbEntity
  8
0
  6
Continuous
 62
     7
100
AcDbCircle
 10
-240.9337768554689
 20
119.3679351806641
 30
0.0
 40
1.0
100
AcDbArc
 50
180.0000000000004
 51
270.0000000000005
  0
ARC
  5
291
330
22
100
AcDbEntity
  8
0
  6
Continuous
 62
     7
100
AcDbCircle
 10
-238.9337768554689
 20
119.3679351806641
 30
0.0
 40
1.0
100
AcDbArc
 50
270.0000000000005
 51
0.0
  0
ARC
  5
292
330
22
100
AcDbEntity
  8
0
  6
Continuous
 62
     7
100
AcDbCircle
 10
-172.9337768554688
 20
186.8679351806641
 30
0.0
 40
1.0
100
AcDbArc
 50
180.0000000000004
 51
270.0000000000005
  0
ARC
  5
293
330
22
100
AcDbEntity
  8
0
  6
Continuous
 62
     7
100
AcDbCircle
 10
-191.2224426269531
 20
186.4179382324219
 30
0.0
 40
3.0
100
AcDbArc
 50
90.00000000000019
 51
149.9999238532694
  0
ARC
  5
294
330
22
100
AcDbEntity
  8
0
  6
Continuous
 62
     7
100
AcDbCircle
 10
-135.9337768554688
 20
136.3679351806641
 30
0.0
 40
0.5
100
AcDbArc
 50
270.0000000000005
 51
0.0
  0
ARC
  5
295
330
22
100
AcDbEntity
  8
0
  6
Continuous
 62
     7
100
AcDbCircle
 10
-228.1288757324219
 20
301.5108947753906
 30
0.0
 40
4.859811782836914
100
AcDbArc
 50
299.9785708329917
 51
9.359874809973236
  0
ARC
  5
296
330
22
100
AcDbEntity
  8
0
  6
Continuous
 62
     7
100
AcDbCircle
 10
-398.1636047363281
 20
319.1356201171875
 30
0.0
 40
3.283333301544189
100
AcDbArc
 50
8.170846990122083
 51
171.8291530098779
  0
ARC
  5
297
330
22
100
AcDbEntity
  8
0
  6
Continuous
 62
     7
100
AcDbCircle
 10
-421.1636047363281
 20
307.6291198730469
 30
0.0
 40
3.283333301544189
100
AcDbArc
 50
171.8286258693895
 51
8.171374130610477
  0
ARC
  5
298
330
22
100
AcDbEntity
  8
0
  6
Continuous
 62
     7
100
AcDbCircle
 10
-398.1636047363281
 20
305.7022705078125
 30
0.0
 40
3.283333301544189
100
AcDbArc
 50
171.8286258693895
 51
8.171374130610477
  0
ARC
  5
299
330
22
100
AcDbEntity
  8
0
  6
Continuous
 62
     7
100
AcDbCircle
 10
-421.1636047363281
 20
324.9988403320313
 30
0.0
 40
3.283333301544189
100
AcDbArc
 50
351.8286258693902
 51
171.8286258693895
  0
ARC
  5
29A
330
22
100
AcDbEntity
  8
0
  6
Continuous
 62
     7
100
AcDbCircle
 10
-409.6636047363281
 20
322.8686218261719
 30
0.0
 40
3.283333301544189
100
AcDbArc
 50
8.171374130610477
 51
171.8286258693895
  0
ARC
  5
29B
330
22
100
AcDbEntity
  8
0
  6
Continuous
 62
     7
100
AcDbCircle
 10
-375.1636047363281
 20
237.7460784912109
 30
0.0
 40
3.283333301544189
100
AcDbArc
 50
171.8286258693895
 51
8.171374130610477
  0
ARC
  5
29C
330
22
100
AcDbEntity
  8
0
  6
Continuous
 62
     7
100
AcDbCircle
 10
-386.6636047363281
 20
237.7460784912109
 30
0.0
 40
3.283333301544189
100
AcDbArc
 50
171.8286258693895
 51
8.171374130610477
  0
ARC
  5
29D
330
22
100
AcDbEntity
  8
0
  6
Continuous
 62
     7
100
AcDbCircle
 10
-421.1636047363281
 20
237.7460784912109
 30
0.0
 40
3.283333301544189
100
AcDbArc
 50
171.8286258693895
 51
8.171374130610477
  0
ARC
  5
29E
330
22
100
AcDbEntity
  8
0
  6
Continuous
 62
     7
100
AcDbCircle
 10
-398.1636047363281
 20
237.7460784912109
 30
0.0
 40
3.283333301544189
100
AcDbArc
 50
171.8286258693895
 51
8.171374130610477
  0
ARC
  5
29F
330
22
100
AcDbEntity
  8
0
  6
Continuous
 62
     7
100
AcDbCircle
 10
-409.6636047363281
 20
237.7460784912109
 30
0.0
 40
3.283333301544189
100
AcDbArc
 50
171.8286258693895
 51
8.171374130610477
  0
ARC
  5
2A0
330
22
100
AcDbEntity
  8
0
  6
Continuous
 62
     7
100
AcDbCircle
 10
-363.6636047363281
 20
237.7460784912109
 30
0.0
 40
3.283333301544189
100
AcDbArc
 50
171.8286258693895
 51
8.171374130610477
  0
ARC
  5
2A1
330
22
100
AcDbEntity
  8
0
  6
Continuous
 62
     7
100
AcDbCircle
 10
-352.1636047363281
 20
237.7460784912109
 30
0.0
 40
3.283333301544189
100
AcDbArc
 50
171.8286258693895
 51
8.171374130610477
  0
ARC
  5
2A2
330
22
100
AcDbEntity
  8
0
  6
Continuous
 62
     7
100
AcDbCircle
 10
-340.6636047363281
 20
237.7460784912109
 30
0.0
 40
3.283333301544189
100
AcDbArc
 50
171.8286258693895
 51
8.171374130610477
  0
ARC
  5
2A3
330
22
100
AcDbEntity
  8
0
  6
Continuous
 62
     7
100
AcDbCircle
 10
-386.6636047363281
 20
313.7127380371094
 30
0.0
 40
3.283333301544189
100
AcDbArc
 50
8.171374130610477
 51
171.8286258693895
  0
ARC
  5
2A4
330
22
100
AcDbEntity
  8
0
  6
Continuous
 62
     7
100
AcDbCircle
 10
-375.1636047363281
 20
306.0996398925781
 30
0.0
 40
3.283333301544189
100
AcDbArc
 50
8.171374130610477
 51
171.8286258693895
  0
ARC
  5
2A5
330
22
100
AcDbEntity
  8
0
  6
Continuous
 62
     7
100
AcDbCircle
 10
-375.1636047363281
 20
266.179412841797
 30
0.0
 40
3.283333301544189
100
AcDbArc
 50
351.8286258693902
 51
188.1713741306112
  0
ARC
  5
2A6
330
22
100
AcDbEntity
  8
0
  6
Continuous
 62
     7
100
AcDbCircle
 10
-375.1636047363281
 20
277.74609375
 30
0.0
 40
3.283333301544189
100
AcDbArc
 50
171.8291530098779
 51
8.170846990122083
  0
ARC
  5
2A7
330
22
100
AcDbEntity
  8
0
  6
Continuous
 62
     7
100
AcDbCircle
 10
-386.6636047363281
 20
271.5460815429688
 30
0.0
 40
3.283333301544189
100
AcDbArc
 50
171.8286258693895
 51
8.171374130610477
  0
ARC
  5
2A8
330
22
100
AcDbEntity
  8
0
  6
Continuous
 62
     7
100
AcDbCircle
 10
-386.6636047363281
 20
279.9794311523438
 30
0.0
 40
3.283333301544189
100
AcDbArc
 50
351.8286258693902
 51
188.1713741306112
  0
ARC
  5
2A9
330
22
100
AcDbEntity
  8
0
  6
Continuous
 62
     7
100
AcDbCircle
 10
-386.6636047363281
 20
291.5491027832031
 30
0.0
 40
3.283333301544189
100
AcDbArc
 50
171.8286258693895
 51
8.171374130610477
  0
ARC
  5
2AA
330
22
100
AcDbEntity
  8
0
  6
Continuous
 62
     7
100
AcDbCircle
 10
-398.1636047363281
 20
251.1794128417969
 30
0.0
 40
3.283333301544189
100
AcDbArc
 50
351.8288894394603
 51
188.1711105605411
  0
ARC
  5
2AB
330
22
100
AcDbEntity
  8
0
  6
Continuous
 62
     7
100
AcDbCircle
 10
-352.1636047363281
 20
246.1794128417969
 30
0.0
 40
3.283333301544189
100
AcDbArc
 50
351.8288894394603
 51
188.1711105605411
  0
ARC
  5
2AC
330
22
100
AcDbEntity
  8
0
  6
Continuous
 62
     7
100
AcDbCircle
 10
-398.1636047363281
 20
294.1325988769531
 30
0.0
 40
3.283333301544189
100
AcDbArc
 50
351.8286258693902
 51
188.1713741306112
  0
ARC
  5
2AD
330
22
100
AcDbEntity
  8
0
  6
Continuous
 62
     7
100
AcDbCircle
 10
-409.6636047363281
 20
276.0460815429688
 30
0.0
 40
3.283333301544189
100
AcDbArc
 50
171.8286258693895
 51
8.171374130610477
  0
ARC
  5
2AE
330
22
100
AcDbEntity
  8
0
  6
Continuous
 62
     7
100
AcDbCircle
 10
-409.6636047363281
 20
284.4794311523438
 30
0.0
 40
3.283333301544189
100
AcDbArc
 50
351.8286258693902
 51
188.1713741306112
  0
ARC
  5
2AF
330
22
100
AcDbEntity
  8
0
  6
Continuous
 62
     7
100
AcDbCircle
 10
-409.6636047363281
 20
296.0491027832031
 30
0.0
 40
3.283333301544189
100
AcDbArc
 50
171.8286258693895
 51
8.171374130610477
  0
ARC
  5
2B0
330
22
100
AcDbEntity
  8
0
  6
Continuous
 62
     7
100
AcDbCircle
 10
-363.6636047363281
 20
272.74609375
 30
0.0
 40
3.283333301544189
100
AcDbArc
 50
171.8291530098779
 51
8.170846990122083
  0
ARC
  5
2B1
330
22
100
AcDbEntity
  8
0
  6
Continuous
 62
     7
100
AcDbCircle
 10
-363.6636047363281
 20
290.6794128417969
 30
0.0
 40
3.283333301544189
100
AcDbArc
 50
8.171374130610477
 51
171.8286258693895
  0
ARC
  5
2B2
330
22
100
AcDbEntity
  8
0
  6
Continuous
 62
     7
100
AcDbCircle
 10
-352.1636047363281
 20
280.5061340332031
 30
0.0
 40
3.283333301544189
100
AcDbArc
 50
8.171374130610477
 51
171.8286258693895
  0
ARC
  5
2B3
330
22
100
AcDbEntity
  8
0
  6
Continuous
 62
     7
100
AcDbCircle
 10
-455.6636047363281
 20
322.8686218261719
 30
0.0
 40
3.283333301544189
100
AcDbArc
 50
351.8291530098786
 51
188.1708469901228
  0
ARC
  5
2B4
330
22
100
AcDbEntity
  8
0
  6
Continuous
 62
     7
100
AcDbCircle
 10
-490.1636047363281
 20
306.0996398925781
 30
0.0
 40
3.283333301544189
100
AcDbArc
 50
351.8286258693902
 51
188.1713741306112
  0
ARC
  5
2B5
330
22
100
AcDbEntity
  8
0
  6
Continuous
 62
     7
100
AcDbCircle
 10
-478.663604736328
 20
313.7127380371094
 30
0.0
 40
3.283333301544189
100
AcDbArc
 50
351.8291530098786
 51
188.1708469901228
  0
ARC
  5
2B6
330
22
100
AcDbEntity
  8
0
  6
Continuous
 62
     7
100
AcDbCircle
 10
-467.1636047363281
 20
305.7022705078125
 30
0.0
 40
3.283333301544189
100
AcDbArc
 50
171.8286258693895
 51
8.171374130610477
  0
ARC
  5
2B7
330
22
100
AcDbEntity
  8
0
  6
Continuous
 62
     7
100
AcDbCircle
 10
-467.1636047363281
 20
319.1356201171875
 30
0.0
 40
3.283333301544189
100
AcDbArc
 50
351.8286258693902
 51
188.1713741306112
  0
ARC
  5
2B8
330
22
100
AcDbEntity
  8
0
  6
Continuous
 62
     7
100
AcDbCircle
 10
-341.9136047363281
 20
261.2064514160156
 30
0.0
 40
2.0
100
AcDbArc
 50
18.14659096807063
 51
180.0000000000004
  0
ARC
  5
2B9
330
22
100
AcDbEntity
  8
0
  6
Continuous
 62
     7
100
AcDbCircle
 10
-421.1636047363281
 20
266.6291198730469
 30
0.0
 40
3.283333301544189
100
AcDbArc
 50
171.8286258693895
 51
8.171374130610477
  0
ARC
  5
2BA
330
22
100
AcDbEntity
  8
0
  6
Continuous
 62
     7
100
AcDbCircle
 10
-386.6636047363281
 20
259.9794311523438
 30
0.0
 40
3.283333301544189
100
AcDbArc
 50
351.8286258693902
 51
188.1713741306112
  0
ARC
  5
2BB
330
22
100
AcDbEntity
  8
0
  6
Continuous
 62
     7
100
AcDbCircle
 10
-363.6636047363281
 20
261.1794128417969
 30
0.0
 40
3.283333301544189
100
AcDbArc
 50
351.8286258693902
 51
188.1713741306112
  0
ARC
  5
2BC
330
22
100
AcDbEntity
  8
0
  6
Continuous
 62
     7
100
AcDbCircle
 10
-421.1636047363281
 20
255.0294189453125
 30
0.0
 40
3.283333301544189
100
AcDbArc
 50
351.8286258693902
 51
188.1713741306112
  0
ARC
  5
2BD
330
22
100
AcDbEntity
  8
0
  6
Continuous
 62
     7
100
AcDbCircle
 10
-398.1636047363281
 20
262.74609375
 30
0.0
 40
3.283333301544189
100
AcDbArc
 50
171.8291530098779
 51
8.170846990122083
  0
ARC
  5
2BE
330
22
100
AcDbEntity
  8
0
  6
Continuous
 62
     7
100
AcDbCircle
 10
-352.1636047363281
 20
257.74609375
 30
0.0
 40
3.283333301544189
100
AcDbArc
 50
171.8291530098779
 51
8.170846990122083
  0
ARC
  5
2BF
330
22
100
AcDbEntity
  8
0
  6
Continuous
 62
     7
100
AcDbCircle
 10
-432.6636047363281
 20
231.4627532958984
 30
0.0
 40
97.5
100
AcDbArc
 50
12.33290294476902
 51
18.14677294297143
  0
ARC
  5
2C0
330
22
100
AcDbEntity
  8
0
  6
Continuous
 62
     7
100
AcDbCircle
 10
-409.6636047363281
 20
264.4794311523438
 30
0.0
 40
3.283333301544189
100
AcDbArc
 50
351.8286258693902
 51
188.1713741306112
  0
ARC
  5
2C1
330
22
100
AcDbEntity
  8
0
  6
Continuous
 62
     7
100
AcDbCircle
 10
-501.6636047363281
 20
237.7460784912109
 30
0.0
 40
3.283333301544189
100
AcDbArc
 50
171.8286258693895
 51
8.171374130610477
  0
ARC
  5
2C2
330
22
100
AcDbEntity
  8
0
  6
Continuous
 62
     7
100
AcDbCircle
 10
-524.6636352539063
 20
237.7460784912109
 30
0.0
 40
3.283333301544189
100
AcDbArc
 50
171.8286258693895
 51
8.171374130610477
  0
ARC
  5
2C3
330
22
100
AcDbEntity
  8
0
  6
Continuous
 62
     7
100
AcDbCircle
 10
-490.1636047363281
 20
237.7460784912109
 30
0.0
 40
3.283333301544189
100
AcDbArc
 50
171.8286258693895
 51
8.171374130610477
  0
ARC
  5
2C4
330
22
100
AcDbEntity
  8
0
  6
Continuous
 62
     7
100
AcDbCircle
 10
-478.663604736328
 20
237.7460784912109
 30
0.0
 40
3.283333301544189
100
AcDbArc
 50
171.8286258693895
 51
8.171374130610477
  0
ARC
  5
2C5
330
22
100
AcDbEntity
  8
0
  6
Continuous
 62
     7
100
AcDbCircle
 10
-513.1636352539064
 20
237.7460784912109
 30
0.0
 40
3.283333301544189
100
AcDbArc
 50
171.8286258693895
 51
8.171298438119343
  0
ARC
  5
2C6
330
22
100
AcDbEntity
  8
0
  6
Continuous
 62
     7
100
AcDbCircle
 10
-444.1636047363281
 20
237.7460784912109
 30
0.0
 40
3.283333301544189
100
AcDbArc
 50
171.8286258693895
 51
8.171374130610477
  0
ARC
  5
2C7
330
22
100
AcDbEntity
  8
0
  6
Continuous
 62
     7
100
AcDbCircle
 10
-467.1636047363281
 20
237.7460784912109
 30
0.0
 40
3.283333301544189
100
AcDbArc
 50
171.8286258693895
 51
8.171374130610477
  0
ARC
  5
2C8
330
22
100
AcDbEntity
  8
0
  6
Continuous
 62
     7
100
AcDbCircle
 10
-455.6636047363281
 20
237.7460784912109
 30
0.0
 40
3.283333301544189
100
AcDbArc
 50
171.8286258693895
 51
8.171374130610477
  0
ARC
  5
2C9
330
22
100
AcDbEntity
  8
0
  6
Continuous
 62
     7
100
AcDbCircle
 10
-444.1636047363281
 20
324.9988403320313
 30
0.0
 40
3.283333301544189
100
AcDbArc
 50
351.8286258693902
 51
188.1713741306112
  0
ARC
  5
2CA
330
22
100
AcDbEntity
  8
0
  6
Continuous
 62
     7
100
AcDbCircle
 10
-444.1636047363281
 20
307.6291198730469
 30
0.0
 40
3.283333301544189
100
AcDbArc
 50
171.8286258693895
 51
8.171374130610477
  0
ARC
  5
2CB
330
22
100
AcDbEntity
  8
0
  6
Continuous
 62
     7
100
AcDbCircle
 10
-501.6636047363281
 20
290.6794128417969
 30
0.0
 40
3.283333301544189
100
AcDbArc
 50
351.8286258693902
 51
188.1713741306112
  0
ARC
  5
2CC
330
22
100
AcDbEntity
  8
0
  6
Continuous
 62
     7
100
AcDbCircle
 10
-467.1636047363281
 20
262.74609375
 30
0.0
 40
3.283333301544189
100
AcDbArc
 50
171.8291530098779
 51
8.170846990122083
  0
ARC
  5
2CD
330
22
100
AcDbEntity
  8
0
  6
Continuous
 62
     7
100
AcDbCircle
 10
-490.1636047363281
 20
266.179412841797
 30
0.0
 40
3.283333301544189
100
AcDbArc
 50
351.8286258693902
 51
188.1713741306112
  0
ARC
  5
2CE
330
22
100
AcDbEntity
  8
0
  6
Continuous
 62
     7
100
AcDbCircle
 10
-478.663604736328
 20
259.9794311523438
 30
0.0
 40
3.283333301544189
100
AcDbArc
 50
351.8286258693902
 51
188.1713741306112
  0
ARC
  5
2CF
330
22
100
AcDbEntity
  8
0
  6
Continuous
 62
     7
100
AcDbCircle
 10
-523.4136352539064
 20
261.2064514160156
 30
0.0
 40
2.0
100
AcDbArc
 50
0.0
 51
161.8534090319294
  0
ARC
  5
2D0
330
22
100
AcDbEntity
  8
0
  6
Continuous
 62
     7
100
AcDbCircle
 10
-432.6636047363281
 20
231.4627532958984
 30
0.0
 40
97.5
100
AcDbArc
 50
161.8532326424959
 51
167.6671008856985
  0
ARC
  5
2D1
330
22
100
AcDbEntity
  8
0
  6
Continuous
 62
     7
100
AcDbCircle
 10
-513.1636352539064
 20
257.74609375
 30
0.0
 40
3.283333301544189
100
AcDbArc
 50
171.8291530098779
 51
8.170771302380785
  0
ARC
  5
2D2
330
22
100
AcDbEntity
  8
0
  6
Continuous
 62
     7
100
AcDbCircle
 10
-513.1636352539064
 20
246.1794128417969
 30
0.0
 40
3.283333301544189
100
AcDbArc
 50
351.8289651295767
 51
188.1711105605411
  0
ARC
  5
2D3
330
22
100
AcDbEntity
  8
0
  6
Continuous
 62
     7
100
AcDbCircle
 10
-513.1636352539064
 20
280.5061340332031
 30
0.0
 40
3.283333301544189
100
AcDbArc
 50
351.8292286976199
 51
188.1708469901228
  0
ARC
  5
2D4
330
22
100
AcDbEntity
  8
0
  6
Continuous
 62
     7
100
AcDbCircle
 10
-467.1636047363281
 20
251.1794128417969
 30
0.0
 40
3.283333301544189
100
AcDbArc
 50
351.8288894394603
 51
188.1711105605411
  0
ARC
  5
2D5
330
22
100
AcDbEntity
  8
0
  6
Continuous
 62
     7
100
AcDbCircle
 10
-490.1636047363281
 20
277.74609375
 30
0.0
 40
3.283333301544189
100
AcDbArc
 50
171.8291530098779
 51
8.170846990122083
  0
ARC
  5
2D6
330
22
100
AcDbEntity
  8
0
  6
Continuous
 62
     7
100
AcDbCircle
 10
-478.663604736328
 20
271.5460815429688
 30
0.0
 40
3.283333301544189
100
AcDbArc
 50
171.8286258693895
 51
8.171374130610477
  0
ARC
  5
2D7
330
22
100
AcDbEntity
  8
0
  6
Continuous
 62
     7
100
AcDbCircle
 10
-478.663604736328
 20
291.6491088867188
 30
0.0
 40
3.283333301544189
100
AcDbArc
 50
171.8286258693895
 51
8.171374130610477
  0
ARC
  5
2D8
330
22
100
AcDbEntity
  8
0
  6
Continuous
 62
     7
100
AcDbCircle
 10
-478.663604736328
 20
279.9794311523438
 30
0.0
 40
3.283333301544189
100
AcDbArc
 50
351.8286258693902
 51
188.1713741306112
  0
ARC
  5
2D9
330
22
100
AcDbEntity
  8
0
  6
Continuous
 62
     7
100
AcDbCircle
 10
-467.1636047363281
 20
294.0325927734375
 30
0.0
 40
3.283333301544189
100
AcDbArc
 50
351.8286258693902
 51
188.1713741306112
  0
ARC
  5
2DA
330
22
100
AcDbEntity
  8
0
  6
Continuous
 62
     7
100
AcDbCircle
 10
-352.1636047363281
 20
182.4193572998047
 30
0.0
 40
3.283333301544189
100
AcDbArc
 50
171.8288894394597
 51
8.171110560540375
  0
ARC
  5
2DB
330
22
100
AcDbEntity
  8
0
  6
Continuous
 62
     7
100
AcDbCircle
 10
-352.1636047363281
 20
216.7460784912109
 30
0.0
 40
3.283333301544189
100
AcDbArc
 50
171.8286258693895
 51
8.171374130610477
  0
ARC
  5
2DC
330
22
100
AcDbEntity
  8
0
  6
Continuous
 62
     7
100
AcDbCircle
 10
-352.1636047363281
 20
205.1794128417969
 30
0.0
 40
3.283333301544189
100
AcDbArc
 50
351.8288894394603
 51
188.1711105605411
  0
ARC
  5
2DD
330
22
100
AcDbEntity
  8
0
  6
Continuous
 62
     7
100
AcDbCircle
 10
-363.6636047363281
 20
190.1794128417969
 30
0.0
 40
3.283333301544189
100
AcDbArc
 50
351.8288894394603
 51
188.1711105605411
  0
ARC
  5
2DE
330
22
100
AcDbEntity
  8
0
  6
Continuous
 62
     7
100
AcDbCircle
 10
-363.6636047363281
 20
201.7460784912109
 30
0.0
 40
3.283333301544189
100
AcDbArc
 50
171.8286258693895
 51
8.171374130610477
  0
ARC
  5
2DF
330
22
100
AcDbEntity
  8
0
  6
Continuous
 62
     7
100
AcDbCircle
 10
-363.6636047363281
 20
172.2460784912109
 30
0.0
 40
3.283333301544189
100
AcDbArc
 50
171.8286258693895
 51
8.171374130610477
  0
ARC
  5
2E0
330
22
100
AcDbEntity
  8
0
  6
Continuous
 62
     7
100
AcDbCircle
 10
-341.9136047363281
 20
201.7190551757813
 30
0.0
 40
2.0
100
AcDbArc
 50
180.0000000000004
 51
341.852993639729
  0
ARC
  5
2E1
330
22
100
AcDbEntity
  8
0
  6
Continuous
 62
     7
100
AcDbCircle
 10
-432.6636047363281
 20
231.4627532958984
 30
0.0
 40
97.5
100
AcDbArc
 50
341.8532185362093
 51
347.6670970552317
  0
ARC
  5
2E2
330
22
100
AcDbEntity
  8
0
  6
Continuous
 62
     7
100
AcDbCircle
 10
-455.6636047363281
 20
264.2794189453125
 30
0.0
 40
3.283333301544189
100
AcDbArc
 50
351.8286258693902
 51
188.1713741306112
  0
ARC
  5
2E3
330
22
100
AcDbEntity
  8
0
  6
Continuous
 62
     7
100
AcDbCircle
 10
-444.1636047363281
 20
255.0294189453125
 30
0.0
 40
3.283333301544189
100
AcDbArc
 50
351.8286258693902
 51
188.1713741306112
  0
ARC
  5
2E4
330
22
100
AcDbEntity
  8
0
  6
Continuous
 62
     7
100
AcDbCircle
 10
-444.1636047363281
 20
266.6291198730469
 30
0.0
 40
3.283333301544189
100
AcDbArc
 50
171.8286258693895
 51
8.171374130610477
  0
ARC
  5
2E5
330
22
100
AcDbEntity
  8
0
  6
Continuous
 62
     7
100
AcDbCircle
 10
-455.6636047363281
 20
275.8460693359375
 30
0.0
 40
3.283333301544189
100
AcDbArc
 50
171.8286258693895
 51
8.171374130610477
  0
ARC
  5
2E6
330
22
100
AcDbEntity
  8
0
  6
Continuous
 62
     7
100
AcDbCircle
 10
-455.6636047363281
 20
296.0491027832031
 30
0.0
 40
3.283333301544189
100
AcDbArc
 50
171.8286258693895
 51
8.171374130610477
  0
ARC
  5
2E7
330
22
100
AcDbEntity
  8
0
  6
Continuous
 62
     7
100
AcDbCircle
 10
-455.6636047363281
 20
284.3794250488281
 30
0.0
 40
3.283333301544189
100
AcDbArc
 50
351.8286258693902
 51
188.1713741306112
  0
ARC
  5
2E8
330
22
100
AcDbEntity
  8
0
  6
Continuous
 62
     7
100
AcDbCircle
 10
-501.6636047363281
 20
261.1794128417969
 30
0.0
 40
3.283333301544189
100
AcDbArc
 50
351.8286258693902
 51
188.1713741306112
  0
ARC
  5
2E9
330
22
100
AcDbEntity
  8
0
  6
Continuous
 62
     7
100
AcDbCircle
 10
-501.6636047363281
 20
272.74609375
 30
0.0
 40
3.283333301544189
100
AcDbArc
 50
171.8291530098779
 51
8.170846990122083
  0
ARC
  5
2EA
330
22
100
AcDbEntity
  8
0
  6
Continuous
 62
     7
100
AcDbCircle
 10
-421.1636047363281
 20
225.1794128417969
 30
0.0
 40
3.283333301544189
100
AcDbArc
 50
351.8288894394603
 51
188.1711105605411
  0
ARC
  5
2EB
330
22
100
AcDbEntity
  8
0
  6
Continuous
 62
     7
100
AcDbCircle
 10
-363.6636047363281
 20
225.1794128417969
 30
0.0
 40
3.283333301544189
100
AcDbArc
 50
351.8288894394603
 51
188.1711105605411
  0
ARC
  5
2EC
330
22
100
AcDbEntity
  8
0
  6
Continuous
 62
     7
100
AcDbCircle
 10
-352.1636047363281
 20
225.1794128417969
 30
0.0
 40
3.283333301544189
100
AcDbArc
 50
351.8288894394603
 51
188.1711105605411
  0
ARC
  5
2ED
330
22
100
AcDbEntity
  8
0
  6
Continuous
 62
     7
100
AcDbCircle
 10
-340.6636047363281
 20
225.1794128417969
 30
0.0
 40
3.283333301544189
100
AcDbArc
 50
351.8288894394603
 51
188.1711105605411
  0
ARC
  5
2EE
330
22
100
AcDbEntity
  8
0
  6
Continuous
 62
     7
100
AcDbCircle
 10
-375.1636047363281
 20
196.7460784912109
 30
0.0
 40
3.283333301544189
100
AcDbArc
 50
171.8286258693895
 51
8.171374130610477
  0
ARC
  5
2EF
330
22
100
AcDbEntity
  8
0
  6
Continuous
 62
     7
100
AcDbCircle
 10
-386.6636047363281
 20
171.2763824462891
 30
0.0
 40
3.283333301544189
100
AcDbArc
 50
351.8288894394603
 51
188.1711105605411
  0
ARC
  5
2F0
330
22
100
AcDbEntity
  8
0
  6
Continuous
 62
     7
100
AcDbCircle
 10
-375.1636047363281
 20
185.1794128417969
 30
0.0
 40
3.283333301544189
100
AcDbArc
 50
351.8288894394603
 51
188.1711105605411
  0
ARC
  5
2F1
330
22
100
AcDbEntity
  8
0
  6
Continuous
 62
     7
100
AcDbCircle
 10
-386.6636047363281
 20
191.3794097900391
 30
0.0
 40
3.283333301544189
100
AcDbArc
 50
351.8288894394603
 51
188.1711105605411
  0
ARC
  5
2F2
330
22
100
AcDbEntity
  8
0
  6
Continuous
 62
     7
100
AcDbCircle
 10
-386.6636047363281
 20
202.9460754394531
 30
0.0
 40
3.283333301544189
100
AcDbArc
 50
171.8286258693895
 51
8.171374130610477
  0
ARC
  5
2F3
330
22
100
AcDbEntity
  8
0
  6
Continuous
 62
     7
100
AcDbCircle
 10
-386.6636047363281
 20
182.9460754394531
 30
0.0
 40
3.283333301544189
100
AcDbArc
 50
171.8286258693895
 51
8.171374130610477
  0
ARC
  5
2F4
330
22
100
AcDbEntity
  8
0
  6
Continuous
 62
     7
100
AcDbCircle
 10
-421.1636047363281
 20
207.8960876464844
 30
0.0
 40
3.283333301544189
100
AcDbArc
 50
171.8288894394597
 51
8.171110560540375
  0
ARC
  5
2F5
330
22
100
AcDbEntity
  8
0
  6
Continuous
 62
     7
100
AcDbCircle
 10
-398.1636047363281
 20
211.7460784912109
 30
0.0
 40
3.283333301544189
100
AcDbArc
 50
171.8286258693895
 51
8.171374130610477
  0
ARC
  5
2F6
330
22
100
AcDbEntity
  8
0
  6
Continuous
 62
     7
100
AcDbCircle
 10
-409.6636047363281
 20
178.5460815429688
 30
0.0
 40
3.283333301544189
100
AcDbArc
 50
171.8286258693895
 51
8.171374130610477
  0
ARC
  5
2F7
330
22
100
AcDbEntity
  8
0
  6
Continuous
 62
     7
100
AcDbCircle
 10
-421.1636047363281
 20
196.29638671875
 30
0.0
 40
3.283333301544189
100
AcDbArc
 50
351.8286258693902
 51
188.1713741306112
  0
ARC
  5
2F8
330
22
100
AcDbEntity
  8
0
  6
Continuous
 62
     7
100
AcDbCircle
 10
-409.6636047363281
 20
198.6460876464844
 30
0.0
 40
3.283333301544189
100
AcDbArc
 50
171.8288894394597
 51
8.171110560540375
  0
ARC
  5
2F9
330
22
100
AcDbEntity
  8
0
  6
Continuous
 62
     7
100
AcDbCircle
 10
-409.6636047363281
 20
187.0794219970703
 30
0.0
 40
3.283333301544189
100
AcDbArc
 50
351.8286258693902
 51
188.1713741306112
  0
ARC
  5
2FA
330
22
100
AcDbEntity
  8
0
  6
Continuous
 62
     7
100
AcDbCircle
 10
-398.1636047363281
 20
200.1794128417969
 30
0.0
 40
3.283333301544189
100
AcDbArc
 50
351.8288894394603
 51
188.1711105605411
  0
ARC
  5
2FB
330
22
100
AcDbEntity
  8
0
  6
Continuous
 62
     7
100
AcDbCircle
 10
-386.6636047363281
 20
225.1794128417969
 30
0.0
 40
3.283333301544189
100
AcDbArc
 50
351.8288894394603
 51
188.1711105605411
  0
ARC
  5
2FC
330
22
100
AcDbEntity
  8
0
  6
Continuous
 62
     7
100
AcDbCircle
 10
-375.1636047363281
 20
225.1794128417969
 30
0.0
 40
3.283333301544189
100
AcDbArc
 50
351.8288894394603
 51
188.1711105605411
  0
ARC
  5
2FD
330
22
100
AcDbEntity
  8
0
  6
Continuous
 62
     7
100
AcDbCircle
 10
-409.6636047363281
 20
225.1794128417969
 30
0.0
 40
3.283333301544189
100
AcDbArc
 50
351.8288894394603
 51
188.1711105605411
  0
ARC
  5
2FE
330
22
100
AcDbEntity
  8
0
  6
Continuous
 62
     7
100
AcDbCircle
 10
-398.1636047363281
 20
225.1794128417969
 30
0.0
 40
3.283333301544189
100
AcDbArc
 50
351.8288894394603
 51
188.1711105605411
  0
ARC
  5
2FF
330
22
100
AcDbEntity
  8
0
  6
Continuous
 62
     7
100
AcDbCircle
 10
-478.663604736328
 20
202.9460754394531
 30
0.0
 40
3.283333301544189
100
AcDbArc
 50
171.8286258693895
 51
8.171374130610477
  0
ARC
  5
300
330
22
100
AcDbEntity
  8
0
  6
Continuous
 62
     7
100
AcDbCircle
 10
-478.663604736328
 20
182.9460754394531
 30
0.0
 40
3.283333301544189
100
AcDbArc
 50
171.8286258693895
 51
8.171374130610477
  0
ARC
  5
301
330
22
100
AcDbEntity
  8
0
  6
Continuous
 62
     7
100
AcDbCircle
 10
-467.1636047363281
 20
200.1794128417969
 30
0.0
 40
3.283333301544189
100
AcDbArc
 50
351.8288894394603
 51
188.1711105605411
  0
ARC
  5
302
330
22
100
AcDbEntity
  8
0
  6
Continuous
 62
     7
100
AcDbCircle
 10
-467.1636047363281
 20
211.7460784912109
 30
0.0
 40
3.283333301544189
100
AcDbArc
 50
171.8286258693895
 51
8.171374130610477
  0
ARC
  5
303
330
22
100
AcDbEntity
  8
0
  6
Continuous
 62
     7
100
AcDbCircle
 10
-386.6636047363281
 20
149.2127532958984
 30
0.0
 40
3.283333301544189
100
AcDbArc
 50
171.8288894394597
 51
8.171110560540375
  0
ARC
  5
304
330
22
100
AcDbEntity
  8
0
  6
Continuous
 62
     7
100
AcDbCircle
 10
-375.1636047363281
 20
156.8258514404297
 30
0.0
 40
3.283333301544189
100
AcDbArc
 50
171.8286258693895
 51
8.171374130610477
  0
ARC
  5
305
330
22
100
AcDbEntity
  8
0
  6
Continuous
 62
     7
100
AcDbCircle
 10
-421.1636047363281
 20
137.9266662597656
 30
0.0
 40
3.283333301544189
100
AcDbArc
 50
171.8288894394597
 51
8.171110560540375
  0
ARC
  5
306
330
22
100
AcDbEntity
  8
0
  6
Continuous
 62
     7
100
AcDbCircle
 10
-409.6636047363281
 20
140.0568695068359
 30
0.0
 40
3.283333301544189
100
AcDbArc
 50
171.8288894394597
 51
8.171110560540375
  0
ARC
  5
307
330
22
100
AcDbEntity
  8
0
  6
Continuous
 62
     7
100
AcDbCircle
 10
-398.1636047363281
 20
157.2232208251953
 30
0.0
 40
3.283333301544189
100
AcDbArc
 50
351.8288894394603
 51
188.1711105605411
  0
ARC
  5
308
330
22
100
AcDbEntity
  8
0
  6
Continuous
 62
     7
100
AcDbCircle
 10
-398.1636047363281
 20
143.7898864746094
 30
0.0
 40
3.283333301544189
100
AcDbArc
 50
171.8286258693895
 51
8.171374130610477
  0
ARC
  5
309
330
22
100
AcDbEntity
  8
0
  6
Continuous
 62
     7
100
AcDbCircle
 10
-421.1636047363281
 20
155.29638671875
 30
0.0
 40
3.283333301544189
100
AcDbArc
 50
351.8286258693902
 51
188.1713741306112
  0
ARC
  5
30A
330
22
100
AcDbEntity
  8
0
  6
Continuous
 62
     7
100
AcDbCircle
 10
-455.6636047363281
 20
225.1794128417969
 30
0.0
 40
3.283333301544189
100
AcDbArc
 50
351.8288894394603
 51
188.1711105605411
  0
ARC
  5
30B
330
22
100
AcDbEntity
  8
0
  6
Continuous
 62
     7
100
AcDbCircle
 10
-444.1636047363281
 20
207.8960876464844
 30
0.0
 40
3.283333301544189
100
AcDbArc
 50
171.8288894394597
 51
8.171110560540375
  0
ARC
  5
30C
330
22
100
AcDbEntity
  8
0
  6
Continuous
 62
     7
100
AcDbCircle
 10
-444.1636047363281
 20
196.29638671875
 30
0.0
 40
3.283333301544189
100
AcDbArc
 50
351.8286258693902
 51
188.1713741306112
  0
ARC
  5
30D
330
22
100
AcDbEntity
  8
0
  6
Continuous
 62
     7
100
AcDbCircle
 10
-455.6636047363281
 20
198.6460876464844
 30
0.0
 40
3.283333301544189
100
AcDbArc
 50
171.8288894394597
 51
8.171110560540375
  0
ARC
  5
30E
330
22
100
AcDbEntity
  8
0
  6
Continuous
 62
     7
100
AcDbCircle
 10
-455.6636047363281
 20
187.0794219970703
 30
0.0
 40
3.283333301544189
100
AcDbArc
 50
351.8286258693902
 51
188.1713741306112
  0
ARC
  5
30F
330
22
100
AcDbEntity
  8
0
  6
Continuous
 62
     7
100
AcDbCircle
 10
-455.6636047363281
 20
178.5460815429688
 30
0.0
 40
3.283333301544189
100
AcDbArc
 50
171.8286258693895
 51
8.171374130610477
  0
ARC
  5
310
330
22
100
AcDbEntity
  8
0
  6
Continuous
 62
     7
100
AcDbCircle
 10
-501.6636047363281
 20
190.1794128417969
 30
0.0
 40
3.283333301544189
100
AcDbArc
 50
351.8288894394603
 51
188.1711105605411
  0
ARC
  5
311
330
22
100
AcDbEntity
  8
0
  6
Continuous
 62
     7
100
AcDbCircle
 10
-501.6636047363281
 20
201.7460784912109
 30
0.0
 40
3.283333301544189
100
AcDbArc
 50
171.8286258693895
 51
8.171374130610477
  0
ARC
  5
312
330
22
100
AcDbEntity
  8
0
  6
Continuous
 62
     7
100
AcDbCircle
 10
-501.6636047363281
 20
172.2460784912109
 30
0.0
 40
3.283333301544189
100
AcDbArc
 50
171.8286258693895
 51
8.171374130610477
  0
ARC
  5
313
330
22
100
AcDbEntity
  8
0
  6
Continuous
 62
     7
100
AcDbCircle
 10
-513.1636352539064
 20
182.4193572998047
 30
0.0
 40
3.283333301544189
100
AcDbArc
 50
171.8288894394597
 51
8.171034870424152
  0
ARC
  5
314
330
22
100
AcDbEntity
  8
0
  6
Continuous
 62
     7
100
AcDbCircle
 10
-523.4136352539064
 20
201.7190551757813
 30
0.0
 40
2.0
100
AcDbArc
 50
198.1470063602724
 51
0.0
  0
ARC
  5
315
330
22
100
AcDbEntity
  8
0
  6
Continuous
 62
     7
100
AcDbCircle
 10
-432.6636047363281
 20
231.4627532958984
 30
0.0
 40
97.5
100
AcDbArc
 50
192.3328991143021
 51
198.1467758783226
  0
ARC
  5
316
330
22
100
AcDbEntity
  8
0
  6
Continuous
 62
     7
100
AcDbCircle
 10
-513.1636352539064
 20
216.7460784912109
 30
0.0
 40
3.283333301544189
100
AcDbArc
 50
171.8286258693895
 51
8.171298438119343
  0
ARC
  5
317
330
22
100
AcDbEntity
  8
0
  6
Continuous
 62
     7
100
AcDbCircle
 10
-513.1636352539064
 20
205.1794128417969
 30
0.0
 40
3.283333301544189
100
AcDbArc
 50
351.8289651295767
 51
188.1711105605411
  0
ARC
  5
318
330
22
100
AcDbEntity
  8
0
  6
Continuous
 62
     7
100
AcDbCircle
 10
-490.1636047363281
 20
185.1794128417969
 30
0.0
 40
3.283333301544189
100
AcDbArc
 50
351.8288894394603
 51
188.1711105605411
  0
ARC
  5
319
330
22
100
AcDbEntity
  8
0
  6
Continuous
 62
     7
100
AcDbCircle
 10
-490.1636047363281
 20
196.7460784912109
 30
0.0
 40
3.283333301544189
100
AcDbArc
 50
171.8286258693895
 51
8.171374130610477
  0
ARC
  5
31A
330
22
100
AcDbEntity
  8
0
  6
Continuous
 62
     7
100
AcDbCircle
 10
-478.663604736328
 20
171.2763824462891
 30
0.0
 40
3.283333301544189
100
AcDbArc
 50
351.8288894394603
 51
188.1711105605411
  0
ARC
  5
31B
330
22
100
AcDbEntity
  8
0
  6
Continuous
 62
     7
100
AcDbCircle
 10
-478.663604736328
 20
191.3794097900391
 30
0.0
 40
3.283333301544189
100
AcDbArc
 50
351.8288894394603
 51
188.1711105605411
  0
ARC
  5
31C
330
22
100
AcDbEntity
  8
0
  6
Continuous
 62
     7
100
AcDbCircle
 10
-467.1636047363281
 20
143.7898864746094
 30
0.0
 40
3.283333301544189
100
AcDbArc
 50
171.8286258693895
 51
8.171374130610477
  0
ARC
  5
31D
330
22
100
AcDbEntity
  8
0
  6
Continuous
 62
     7
100
AcDbCircle
 10
-501.6636047363281
 20
225.1794128417969
 30
0.0
 40
3.283333301544189
100
AcDbArc
 50
351.8288894394603
 51
188.1711105605411
  0
ARC
  5
31E
330
22
100
AcDbEntity
  8
0
  6
Continuous
 62
     7
100
AcDbCircle
 10
-524.6636352539063
 20
225.1794128417969
 30
0.0
 40
3.283333301544189
100
AcDbArc
 50
351.8288894394603
 51
188.1711105605411
  0
ARC
  5
31F
330
22
100
AcDbEntity
  8
0
  6
Continuous
 62
     7
100
AcDbCircle
 10
-490.1636047363281
 20
225.1794128417969
 30
0.0
 40
3.283333301544189
100
AcDbArc
 50
351.8288894394603
 51
188.1711105605411
  0
ARC
  5
320
330
22
100
AcDbEntity
  8
0
  6
Continuous
 62
     7
100
AcDbCircle
 10
-478.663604736328
 20
225.1794128417969
 30
0.0
 40
3.283333301544189
100
AcDbArc
 50
351.8288894394603
 51
188.1711105605411
  0
ARC
  5
321
330
22
100
AcDbEntity
  8
0
  6
Continuous
 62
     7
100
AcDbCircle
 10
-513.1636352539064
 20
225.1794128417969
 30
0.0
 40
3.283333301544189
100
AcDbArc
 50
351.8289651295767
 51
188.1711105605411
  0
ARC
  5
322
330
22
100
AcDbEntity
  8
0
  6
Continuous
 62
     7
100
AcDbCircle
 10
-444.1636047363281
 20
225.1794128417969
 30
0.0
 40
3.283333301544189
100
AcDbArc
 50
351.8288894394603
 51
188.1711105605411
  0
ARC
  5
323
330
22
100
AcDbEntity
  8
0
  6
Continuous
 62
     7
100
AcDbCircle
 10
-467.1636047363281
 20
225.1794128417969
 30
0.0
 40
3.283333301544189
100
AcDbArc
 50
351.8288894394603
 51
188.1711105605411
  0
ARC
  5
324
330
22
100
AcDbEntity
  8
0
  6
Continuous
 62
     7
100
AcDbCircle
 10
-444.1636047363281
 20
155.29638671875
 30
0.0
 40
3.283333301544189
100
AcDbArc
 50
351.8286258693902
 51
188.1713741306112
  0
ARC
  5
325
330
22
100
AcDbEntity
  8
0
  6
Continuous
 62
     7
100
AcDbCircle
 10
-444.1636047363281
 20
137.9266662597656
 30
0.0
 40
3.283333301544189
100
AcDbArc
 50
171.8288894394597
 51
8.171110560540375
  0
ARC
  5
326
330
22
100
AcDbEntity
  8
0
  6
Continuous
 62
     7
100
AcDbCircle
 10
-455.6636047363281
 20
140.0568695068359
 30
0.0
 40
3.283333301544189
100
AcDbArc
 50
171.8288894394597
 51
8.171110560540375
  0
ARC
  5
327
330
22
100
AcDbEntity
  8
0
  6
Continuous
 62
     7
100
AcDbCircle
 10
-490.1636047363281
 20
156.8258514404297
 30
0.0
 40
3.283333301544189
100
AcDbArc
 50
171.8286258693895
 51
8.171374130610477
  0
ARC
  5
328
330
22
100
AcDbEntity
  8
0
  6
Continuous
 62
     7
100
AcDbCircle
 10
-478.663604736328
 20
149.2127532958984
 30
0.0
 40
3.283333301544189
100
AcDbArc
 50
171.8288894394597
 51
8.171110560540375
  0
ARC
  5
329
330
22
100
AcDbEntity
  8
0
  6
Continuous
 62
     7
100
AcDbCircle
 10
-467.1636047363281
 20
157.2232208251953
 30
0.0
 40
3.283333301544189
100
AcDbArc
 50
351.8288894394603
 51
188.1711105605411
  0
CIRCLE
  5
32A
330
22
100
AcDbEntity
  8
0
  6
Continuous
 62
     7
100
AcDbCircle
 10
-363.3027954101563
 20
300.8363037109375
 30
0.0
 40
5.5
  0
ARC
  5
32B
330
22
100
AcDbEntity
  8
0
  6
Continuous
 62
     7
100
AcDbCircle
 10
-421.1636047363281
 20
296.0624389648438
 30
0.0
 40
3.283333301544189
100
AcDbArc
 50
351.8291530098786
 51
188.1708469901228
  0
CIRCLE
  5
32C
330
22
100
AcDbEntity
  8
0
  6
Continuous
 62
     7
100
AcDbCircle
 10
-363.3027954101563
 20
300.8363037109375
 30
0.0
 40
5.0
  0
ARC
  5
32D
330
22
100
AcDbEntity
  8
0
  6
Continuous
 62
     7
100
AcDbCircle
 10
-444.1636047363281
 20
296.0624389648438
 30
0.0
 40
3.283333301544189
100
AcDbArc
 50
351.8291530098786
 51
188.1708469901228
  0
CIRCLE
  5
32E
330
22
100
AcDbEntity
  8
0
  6
Continuous
 62
     7
100
AcDbCircle
 10
-502.0367736816406
 20
300.8231811523438
 30
0.0
 40
5.5
  0
CIRCLE
  5
32F
330
22
100
AcDbEntity
  8
0
  6
Continuous
 62
     7
100
AcDbCircle
 10
-502.0367736816406
 20
300.8231811523438
 30
0.0
 40
5.0
  0
ARC
  5
330
330
22
100
AcDbEntity
  8
0
  6
Continuous
 62
     7
100
AcDbCircle
 10
-467.1636047363281
 20
168.8929138183594
 30
0.0
 40
3.283333301544189
100
AcDbArc
 50
171.8286258693895
 51
8.171374130610477
  0
ARC
  5
331
330
22
100
AcDbEntity
  8
0
  6
Continuous
 62
     7
100
AcDbCircle
 10
-398.1636047363281
 20
168.8929138183594
 30
0.0
 40
3.283333301544189
100
AcDbArc
 50
171.8286258693895
 51
8.171374130610477
  0
ARC
  5
332
330
22
100
AcDbEntity
  8
0
  6
Continuous
 62
     7
100
AcDbCircle
 10
-421.1636047363281
 20
166.8630523681641
 30
0.0
 40
3.283333301544189
100
AcDbArc
 50
171.8288894394597
 51
8.171110560540375
  0
ARC
  5
333
330
22
100
AcDbEntity
  8
0
  6
Continuous
 62
     7
100
AcDbCircle
 10
-409.6636047363281
 20
166.8763885498047
 30
0.0
 40
3.283333301544189
100
AcDbArc
 50
351.8288894394603
 51
188.1711105605411
  0
CIRCLE
  5
334
330
22
100
AcDbEntity
  8
0
  6
Continuous
 62
     7
100
AcDbCircle
 10
-363.2897033691406
 20
162.1023101806641
 30
0.0
 40
5.5
  0
CIRCLE
  5
335
330
22
100
AcDbEntity
  8
0
  6
Continuous
 62
     7
100
AcDbCircle
 10
-363.2897033691406
 20
162.1023101806641
 30
0.0
 40
5.0
  0
ARC
  5
336
330
22
100
AcDbEntity
  8
0
  6
Continuous
 62
     7
100
AcDbCircle
 10
-432.6636047363281
 20
237.7460784912109
 30
0.0
 40
3.283333301544189
100
AcDbArc
 50
171.8286258693895
 51
8.171374130610477
  0
ARC
  5
337
330
22
100
AcDbEntity
  8
0
  6
Continuous
 62
     7
100
AcDbCircle
 10
-444.1636047363281
 20
166.8630523681641
 30
0.0
 40
3.283333301544189
100
AcDbArc
 50
171.8288894394597
 51
8.171110560540375
  0
ARC
  5
338
330
22
100
AcDbEntity
  8
0
  6
Continuous
 62
     7
100
AcDbCircle
 10
-455.6636047363281
 20
166.8763885498047
 30
0.0
 40
3.283333301544189
100
AcDbArc
 50
351.8288894394603
 51
188.1711105605411
  0
CIRCLE
  5
339
330
22
100
AcDbEntity
  8
0
  6
Continuous
 62
     7
100
AcDbCircle
 10
-502.0236816406249
 20
162.0892028808594
 30
0.0
 40
5.0
  0
CIRCLE
  5
33A
330
22
100
AcDbEntity
  8
0
  6
Continuous
 62
     7
100
AcDbCircle
 10
-502.0236816406249
 20
162.0892028808594
 30
0.0
 40
5.5
  0
ARC
  5
33B
330
22
100
AcDbEntity
  8
0
  6
Continuous
 62
     7
100
AcDbCircle
 10
-432.6636047363281
 20
222.9294128417969
 30
0.0
 40
3.283333301544189
100
AcDbArc
 50
351.8288894394603
 51
188.1711105605411
  0
ARC
  5
33C
330
22
100
AcDbEntity
  8
0
  6
Continuous
 62
     7
100
AcDbCircle
 10
-432.6636047363281
 20
137.2460784912109
 30
0.0
 40
3.283333301544189
100
AcDbArc
 50
171.8286258693895
 51
8.171374130610477
  0
ARC
  5
33D
330
22
100
AcDbEntity
  8
0
  6
Continuous
 62
     7
100
AcDbCircle
 10
-432.6636047363281
 20
169.6460876464844
 30
0.0
 40
3.283333301544189
100
AcDbArc
 50
171.8288894394597
 51
8.171110560540375
  0
ARC
  5
33E
330
22
100
AcDbEntity
  8
0
  6
Continuous
 62
     7
100
AcDbCircle
 10
-432.6636047363281
 20
158.0794219970703
 30
0.0
 40
3.283333301544189
100
AcDbArc
 50
351.8286258693902
 51
188.1713741306112
  0
ARC
  5
33F
330
22
100
AcDbEntity
  8
0
  6
Continuous
 62
     7
100
AcDbCircle
 10
-432.6636047363281
 20
202.0960845947266
 30
0.0
 40
3.283333301544189
100
AcDbArc
 50
171.8288894394597
 51
8.171110560540375
  0
ARC
  5
340
330
22
100
AcDbEntity
  8
0
  6
Continuous
 62
     7
100
AcDbCircle
 10
-432.6636047363281
 20
190.4794158935547
 30
0.0
 40
3.283333301544189
100
AcDbArc
 50
351.8288894394603
 51
188.1711105605411
  0
ARC
  5
341
330
22
100
AcDbEntity
  8
0
  6
Continuous
 62
     7
100
AcDbCircle
 10
-432.6636047363281
 20
260.8294067382813
 30
0.0
 40
3.283333301544189
100
AcDbArc
 50
351.8291530098786
 51
188.1708469901228
  0
ARC
  5
342
330
22
100
AcDbEntity
  8
0
  6
Continuous
 62
     7
100
AcDbCircle
 10
-432.6636047363281
 20
325.6794128417969
 30
0.0
 40
3.283333301544189
100
AcDbArc
 50
8.171374130610477
 51
171.8286258693895
  0
ARC
  5
343
330
22
100
AcDbEntity
  8
0
  6
Continuous
 62
     7
100
AcDbCircle
 10
-432.6636047363281
 20
304.8460693359375
 30
0.0
 40
3.283333301544189
100
AcDbArc
 50
188.1708469901228
 51
351.8291530098786
  0
ARC
  5
344
330
22
100
AcDbEntity
  8
0
  6
Continuous
 62
     7
100
AcDbCircle
 10
-432.6636047363281
 20
272.4460754394531
 30
0.0
 40
3.283333301544189
100
AcDbArc
 50
171.8286258693895
 51
8.171374130610477
  0
ARC
  5
345
330
22
100
AcDbEntity
  8
0
  6
Continuous
 62
     7
100
AcDbCircle
 10
-432.6636047363281
 20
293.2794189453125
 30
0.0
 40
3.283333301544189
100
AcDbArc
 50
351.8286258693902
 51
188.1713741306112
  0
CIRCLE
  5
346
330
22
100
AcDbEntity
  8
0
  6
DASHED
 62
     7
100
AcDbCircle
 10
-432.6636047363281
 20
233.3679351806641
 30
0.0
 40
97.5
  0
CIRCLE
  5
347
330
22
100
AcDbEntity
  8
0
  6
Continuous
 62
     7
100
AcDbCircle
 10
-432.6636047363281
 20
231.4627532958984
 30
0.0
 40
105.0
  0
CIRCLE
  5
348
330
22
100
AcDbEntity
  8
0
  6
Continuous
 62
     7
100
AcDbCircle
 10
-432.6636047363281
 20
231.4627532958984
 30
0.0
 40
104.5
  0
CIRCLE
  5
349
330
22
100
AcDbEntity
  8
0
  6
Continuous
 62
     7
100
AcDbCircle
 10
-432.6636047363281
 20
231.4627532958984
 30
0.0
 40
115.0
  0
CIRCLE
  5
34A
330
22
100
AcDbEntity
  8
0
  6
DASHED
 62
     7
100
AcDbCircle
 10
-432.6636047363281
 20
231.4627532958984
 30
0.0
 40
41.0
  0
TEXT
  5
34B
330
22
100
AcDbEntity
  8
0
  6
Continuous
 62
     7
100
AcDbText
 10
-323.029839515686
 20
60.71831512451172
 30
0.0
 40
7.0
  1
DL-CU80
 41
1.02406786948659
100
AcDbText
  0
DIMENSION
  5
34C
330
22
100
AcDbEntity
  8
0
  6
Continuous
 62
     7
100
AcDbDimension
  2
*D1
 10
-99.93376922607422
 20
116.8429870605469
 30
0.0
 11
-136.9337768554688
 21
116.8429870605469
 31
0.0
 71
     5
 42
-1.0
  3
DIMSTYLE1
100
AcDbAlignedDimension
 13
-173.9337768554688
 23
186.8679351806641
 33
0.0
 14
-99.93376922607422
 24
185.8679351806641
 34
0.0
100
AcDbRotatedDimension
  0
DIMENSION
  5
34D
330
22
100
AcDbEntity
  8
0
  6
Continuous
 62
     7
100
AcDbDimension
  2
*D2
 10
-70.15733337402344
 20
281.8679504394531
 30
0.0
 11
-70.15733337402344
 21
233.3679351806641
 31
0.0
 71
     5
 42
-1.0
  3
DIMSTYLE2
100
AcDbAlignedDimension
 13
-100.9337692260742
 23
184.8679351806641
 33
0.0
 14
-100.9337692260742
 24
281.8679504394531
 34
0.0
 50
90.0
100
AcDbRotatedDimension
  0
DIMENSION
  5
34E
330
22
100
AcDbEntity
  8
0
  6
Continuous
 62
     7
100
AcDbDimension
  2
*D3
 10
-241.9337768554688
 20
244.3941040039063
 30
0.0
 11
-208.592041015625
 21
244.3941040039063
 31
0.0
 71
     5
 42
-1.0
  3
DIMSTYLE3
100
AcDbAlignedDimension
 13
-153.9337768554688
 23
233.3679351806641
 33
0.0
 14
-241.9337768554688
 24
347.3679504394531
 34
0.0
100
AcDbRotatedDimension
  0
DIMENSION
  5
34F
330
22
100
AcDbEntity
  8
0
  6
Continuous
 62
     7
100
AcDbDimension
  2
*D4
 10
-138.9337768554687
 20
372.1805419921875
 30
0.0
 11
-190.4337768554688
 21
372.1805419921875
 31
0.0
 71
     5
 42
-1.0
  3
DIMSTYLE4
100
AcDbAlignedDimension
 13
-241.9337768554688
 23
347.3679504394531
 33
0.0
 14
-138.9337768554687
 24
328.8679504394531
 34
0.0
100
AcDbRotatedDimension
  0
DIMENSION
  5
350
330
22
100
AcDbEntity
  8
0
  6
Continuous
 62
     7
100
AcDbDimension
  2
*D5
 10
-135.4337768554688
 20
372.1805419921875
 30
0.0
 11
-125.6447906494141
 21
372.1805419921875
 31
0.0
 71
     5
 42
-1.0
  3
DIMSTYLE5
100
AcDbAlignedDimension
 13
-138.9337768554687
 23
374.4665222167969
 33
0.0
 14
-135.4337768554688
 24
330.3679504394531
 34
0.0
100
AcDbRotatedDimension
  0
DIMENSION
  5
351
330
22
100
AcDbEntity
  8
0
  6
Continuous
 62
     7
100
AcDbDimension
  2
*D6
 10
-173.9337768554688
 20
360.1519165039063
 30
0.0
 11
-156.4337768554688
 21
360.1519165039063
 31
0.0
 71
     5
 42
-1.0
  3
DIMSTYLE6
100
AcDbAlignedDimension
 13
-138.9337768554687
 23
374.4665222167969
 33
0.0
 14
-173.9337768554688
 24
279.8679504394531
 34
0.0
100
AcDbRotatedDimension
  0
INSERT
  5
352
330
22
100
AcDbEntity
  8
0
  6
Continuous
 62
     7
100
AcDbBlockReference
  2
KOZU0001
 10
-114.9973297119141
 20
276.8371887207031
 30
0.0
  0
DIMENSION
  5
353
330
22
100
AcDbEntity
  8
0
  6
Continuous
 62
     7
100
AcDbDimension
  2
*D7
 10
-107.2143402099609
 20
167.8679351806641
 30
0.0
 11
-107.2143402099609
 21
176.3679351806641
 31
0.0
 71
     5
 42
-1.0
  3
DIMSTYLE7
100
AcDbAlignedDimension
 13
-100.9337692260742
 23
184.8679351806641
 33
0.0
 14
-133.9571838378906
 24
167.8679351806641
 34
0.0
 50
90.0
100
AcDbRotatedDimension
  0
DIMENSION
  5
354
330
22
100
AcDbEntity
  8
0
  6
Continuous
 62
     7
100
AcDbDimension
  2
*D8
 10
-115.4337692260742
 20
156.5197601318359
 30
0.0
 11
-125.4337692260742
 21
156.5197601318359
 31
0.0
 71
     5
 42
-1.0
  3
DIMSTYLE8
100
AcDbAlignedDimension
 13
-135.4337768554688
 23
136.3679351806641
 33
0.0
 14
-115.4337692260742
 24
182.8679351806641
 34
0.0
100
AcDbRotatedDimension
  0
INSERT
  5
355
330
22
100
AcDbEntity
  8
0
  6
Continuous
 62
     7
100
AcDbBlockReference
  2
KOZU0002
 10
-130.4424743652344
 20
180.3265228271484
 30
0.0
  0
DIMENSION
  5
356
330
22
100
AcDbEntity
  8
0
  6
Continuous
 62
     7
100
AcDbDimension
  2
*D9
 10
-473.8628271155135
 20
145.0001012400812
 30
0.0
 11
-375.4468994140625
 21
356.0915222167969
 31
0.0
 70
     3
 71
     5
 42
-1.0
  3
DIMSTYLE9
100
AcDbDiametricDimension
 15
-391.4643823571428
 25
321.735769121247
 35
0.0
 40
0.0
  0
DIMENSION
  5
357
330
22
100
AcDbEntity
  8
0
  6
Continuous
 62
     7
100
AcDbDimension
  2
*D10
 10
-502.626830075873
 20
140.1931137650661
 30
0.0
 11
-347.2649536132813
 21
342.8684692382813
 31
0.0
 70
     3
 71
     5
 42
-1.0
  3
DIMSTYLE10
100
AcDbDiametricDimension
 15
-362.7003793967833
 25
322.7323928267308
 35
0.0
 40
0.0
  0
DIMENSION
  5
358
330
22
100
AcDbEntity
  8
0
  6
Continuous
 62
     7
100
AcDbDimension
  2
*D11
 10
-517.7352071037399
 20
170.7744309377959
 30
0.0
 11
-321.0466918945313
 21
311.0879516601563
 31
0.0
 70
     3
 71
     5
 42
-1.0
  3
DIMSTYLE11
100
AcDbDiametricDimension
 15
-347.5920023689163
 25
292.151075654001
 35
0.0
 40
0.0
  0
ENDSEC
  0
SECTION
  2
OBJECTS
  0
DICTIONARY
  5
C
330
0
100
AcDbDictionary
281
     1
  3
ACAD_COLOR
350
1B
  3
ACAD_GROUP
350
D
  3
ACAD_LAYOUT
350
19
  3
ACAD_MATERIAL
350
1A
  3
ACAD_MLINESTYLE
350
16
  3
ACAD_PLOTSETTINGS
350
18
  3
ACAD_PLOTSTYLENAME
350
E
  3
ACAD_TABLESTYLE
350
1C
  3
AcDbVariableDictionary
350
364
  0
DICTIONARY
  5
1B
102
{ACAD_REACTORS
330
C
102
}
330
C
100
AcDbDictionary
281
     1
  0
DICTIONARY
  5
D
102
{ACAD_REACTORS
330
C
102
}
330
C
100
AcDbDictionary
281
     1
  0
DICTIONARY
  5
19
102
{ACAD_REACTORS
330
C
102
}
330
C
100
AcDbDictionary
281
     1
  3
Model
350
25
  3
レイアウト1
350
21
  0
DICTIONARY
  5
1A
102
{ACAD_REACTORS
330
C
102
}
330
C
100
AcDbDictionary
281
     1
  0
DICTIONARY
  5
16
102
{ACAD_REACTORS
330
C
102
}
330
C
100
AcDbDictionary
281
     1
  3
Standard
350
17
  0
DICTIONARY
  5
18
102
{ACAD_REACTORS
330
C
102
}
330
C
100
AcDbDictionary
281
     1
  0
ACDBDICTIONARYWDFLT
  5
E
102
{ACAD_REACTORS
330
C
102
}
330
C
100
AcDbDictionary
281
     1
  3
Normal
350
F
100
AcDbDictionaryWithDefault
340
F
  0
DICTIONARY
  5
1C
102
{ACAD_REACTORS
330
C
102
}
330
C
100
AcDbDictionary
281
     1
  3
Standard
350
1D
  0
DICTIONARY
  5
364
102
{ACAD_REACTORS
330
C
102
}
330
C
100
AcDbDictionary
281
     1
  3
CTABLESTYLE
350
365
  0
LAYOUT
  5
25
102
{ACAD_REACTORS
330
19
102
}
330
19
100
AcDbPlotSettings
  1

  2
PDF reDirect v2
  4
User66
  6

 40
3.174999952316284
 41
3.174999952316284
 42
3.17498779296875
 43
3.17498779296875
 44
420.0
 45
594.0
 46
0.0
 47
0.0
 48
0.0
 49
0.0
140
0.0
141
0.0
142
1.0
143
1.0
 70
 11952
 72
     1
 73
     1
 74
     2
  7
C:\Users\ck\AppData\Roaming\Autodesk\AutoCAD 2005\R16.1\jpn\Plot Styles\black.ctb
 75
    16
147
1.0
 76
     0
 77
     2
 78
   300
148
592.0
149
0.0
100
AcDbLayout
  1
Model
 70
     1
 71
     0
 10
0.0
 20
0.0
 11
12.0
 21
9.0
 12
0.0
 22
0.0
 32
0.0
 14
0.0
 24
0.0
 34
0.0
 15
0.0
 25
0.0
 35
0.0
146
0.0
 13
0.0
 23
0.0
 33
0.0
 16
1.0
 26
0.0
 36
0.0
 17
0.0
 27
1.0
 37
0.0
 76
     0
330
22
1001
ACAD_PSEXT
1000
PDF reDirect v2
1000
PDF reDirect Pro
1000
PDF_REDIRECT_PORT:
1000
PDF reDirect provided by EXP Systems
1070
     0
  0
LAYOUT
  5
21
102
{ACAD_REACTORS
330
19
102
}
330
19
100
AcDbPlotSettings
  1

  2
PDF reDirect v2
  4

  6

 40
0.0
 41
0.0
 42
0.0
 43
0.0
 44
0.0
 45
0.0
 46
0.0
 47
0.0
 48
0.0
 49
0.0
140
0.0
141
0.0
142
1.0
143
1.0
 70
   688
 72
     0
 73
     0
 74
     5
  7
C:\Users\ck\AppData\Roaming\Autodesk\AutoCAD 2005\R16.1\jpn\Plot Styles\black.ctb
 75
    16
147
1.0
 76
     0
 77
     2
 78
   300
148
0.0
149
0.0
100
AcDbLayout
  1
レイアウト1
 70
     1
 71
     1
 10
-592.0
 20
0.0
 11
0.0
 21
418.0
 12
0.0
 22
0.0
 32
0.0
 14
1.000000000000000E+20
 24
1.000000000000000E+20
 34
1.000000000000000E+20
 15
-1.000000000000000E+20
 25
-1.000000000000000E+20
 35
-1.000000000000000E+20
146
0.0
 13
0.0
 23
0.0
 33
0.0
 16
1.0
 26
0.0
 36
0.0
 17
0.0
 27
1.0
 37
0.0
 76
     0
330
1E
  0
MLINESTYLE
  5
17
102
{ACAD_REACTORS
330
16
102
}
330
16
100
AcDbMlineStyle
  2
STANDARD
 70
     0
  3

 62
   256
 51
90.0
 52
90.0
 71
     2
 49
0.5
 62
   256
  6
BYLAYER
 49
-0.5
 62
   256
  6
BYLAYER
  0
ACDBPLACEHOLDER
  5
F
102
{ACAD_REACTORS
330
E
102
}
330
E
  0
TABLESTYLE
  5
1D
102
{ACAD_REACTORS
330
1C
102
}
330
1C
100
AcDbTableStyle
  3
Standard
 70
     0
 71
     0
 40
0.06
 41
0.06
280
     0
281
     0
  7
STANDARD
140
0.18
170
     2
 62
     0
 63
     7
283
     0
274
    -2
284
     1
 64
     0
275
    -2
285
     1
 65
     0
276
    -2
286
     1
 66
     0
277
    -2
287
     1
 67
     0
278
    -2
288
     1
 68
     0
279
    -2
289
     1
 69
     0
  7
STANDARD
140
0.25
170
     5
 62
     0
 63
     7
283
     0
274
    -2
284
     1
 64
     0
275
    -2
285
     1
 65
     0
276
    -2
286
     1
 66
     0
277
    -2
287
     1
 67
     0
278
    -2
288
     1
 68
     0
279
    -2
289
     1
 69
     0
  7
STANDARD
140
0.18
170
     5
 62
     0
 63
     7
283
     0
274
    -2
284
     1
 64
     0
275
    -2
285
     1
 65
     0
276
    -2
286
     1
 66
     0
277
    -2
287
     1
 67
     0
278
    -2
288
     1
 68
     0
279
    -2
289
     1
 69
     0
  0
DICTIONARYVAR
  5
365
102
{ACAD_REACTORS
330
364
102
}
330
364
100
DictionaryVariables
280
     0
  1
STANDARD
  0
ENDSEC
  0
EOF
