  0
SECTION
  2
HEADER
  9
$ACADVER
  1
AC1018
  9
$ACADMAINTVER
 70
    39
  9
$DWGCODEPAGE
  3
ANSI_932
  9
$INSBASE
 10
0.0
 20
0.0
 30
0.0
  9
$EXTMIN
 10
-563.587903609718
 20
18.19821306713652
 30
-0.0015258207003583
  9
$EXTMAX
 10
-285.2697279929066
 20
561.2588209214838
 30
0.0000000349246037
  9
$LIMMIN
 10
-839.0
 20
0.0
  9
$LIMMAX
 10
0.0
 20
591.0
  9
$ORTHOMODE
 70
     0
  9
$REGENMODE
 70
     1
  9
$FILLMODE
 70
     1
  9
$QTEXTMODE
 70
     0
  9
$MIRRTEXT
 70
     0
  9
$LTSCALE
 40
1.0
  9
$ATTMODE
 70
     1
  9
$TEXTSIZE
 40
0.2
  9
$TRACEWID
 40
0.05
  9
$TEXTSTYLE
  7
STANDARD
  9
$CLAYER
  8
0
  9
$CELTYPE
  6
CONTINUOUS
  9
$CECOLOR
 62
   256
  9
$CELTSCALE
 40
1.0
  9
$DISPSILH
 70
     0
  9
$DIMSCALE
 40
1.0
  9
$DIMASZ
 40
1.0
  9
$DIMEXO
 40
2.54
  9
$DIMDLI
 40
0.38
  9
$DIMRND
 40
0.0
  9
$DIMDLE
 40
0.0
  9
$DIMEXE
 40
2.54
  9
$DIMTP
 40
0.0
  9
$DIMTM
 40
0.0
  9
$DIMTXT
 40
3.0
  9
$DIMCEN
 40
0.09
  9
$DIMTSZ
 40
0.0
  9
$DIMTOL
 70
     0
  9
$DIMLIM
 70
     0
  9
$DIMTIH
 70
     0
  9
$DIMTOH
 70
     0
  9
$DIMSE1
 70
     0
  9
$DIMSE2
 70
     0
  9
$DIMTAD
 70
     1
  9
$DIMZIN
 70
     0
  9
$DIMBLK
  1

  9
$DIMASO
 70
     1
  9
$DIMSHO
 70
     0
  9
$DIMPOST
  1

  9
$DIMAPOST
  1

  9
$DIMALT
 70
     0
  9
$DIMALTD
 70
     2
  9
$DIMALTF
 40
25.4
  9
$DIMLFAC
 40
1.0
  9
$DIMTOFL
 70
     0
  9
$DIMTVP
 40
1.0
  9
$DIMTIX
 70
     0
  9
$DIMSOXD
 70
     0
  9
$DIMSAH
 70
     1
  9
$DIMBLK1
  1

  9
$DIMBLK2
  1

  9
$DIMSTYLE
  2
DIMSTYLE1
  9
$DIMCLRD
 70
     0
  9
$DIMCLRE
 70
     0
  9
$DIMCLRT
 70
     0
  9
$DIMTFAC
 40
1.0
  9
$DIMGAP
 40
1.5
  9
$DIMJUST
 70
     0
  9
$DIMSD1
 70
     0
  9
$DIMSD2
 70
     0
  9
$DIMTOLJ
 70
     1
  9
$DIMTZIN
 70
     0
  9
$DIMALTZ
 70
     0
  9
$DIMALTTZ
 70
     0
  9
$DIMUPT
 70
     0
  9
$DIMDEC
 70
     4
  9
$DIMTDEC
 70
     4
  9
$DIMALTU
 70
     2
  9
$DIMALTTD
 70
     2
  9
$DIMTXSTY
  7
STANDARD
  9
$DIMAUNIT
 70
     0
  9
$DIMADEC
 70
     0
  9
$DIMALTRND
 40
0.0
  9
$DIMAZIN
 70
     0
  9
$DIMDSEP
 70
    46
  9
$DIMATFIT
 70
     3
  9
$DIMFRAC
 70
     0
  9
$DIMLDRBLK
  1

  9
$DIMLUNIT
 70
     2
  9
$DIMLWD
 70
    -2
  9
$DIMLWE
 70
    -2
  9
$DIMTMOVE
 70
     0
  9
$LUNITS
 70
     2
  9
$LUPREC
 70
     4
  9
$SKETCHINC
 40
0.1
  9
$FILLETRAD
 40
0.0
  9
$AUNITS
 70
     0
  9
$AUPREC
 70
     0
  9
$MENU
  1
.
  9
$ELEVATION
 40
0.0
  9
$PELEVATION
 40
0.0
  9
$THICKNESS
 40
0.0
  9
$LIMCHECK
 70
     0
  9
$CHAMFERA
 40
0.0
  9
$CHAMFERB
 40
0.0
  9
$CHAMFERC
 40
0.0
  9
$CHAMFERD
 40
0.0
  9
$SKPOLY
 70
     0
  9
$TDCREATE
 40
2457694.665493519
  9
$TDUCREATE
 40
2457694.290493519
  9
$TDUPDATE
 40
2457694.666224838
  9
$TDUUPDATE
 40
2457694.291224838
  9
$TDINDWG
 40
0.0007325926
  9
$TDUSRTIMER
 40
0.0007325926
  9
$USRTIMER
 70
     1
  9
$ANGBASE
 50
0.0
  9
$ANGDIR
 70
     0
  9
$PDMODE
 70
     0
  9
$PDSIZE
 40
0.0
  9
$PLINEWID
 40
0.0
  9
$SPLFRAME
 70
     0
  9
$SPLINETYPE
 70
     6
  9
$SPLINESEGS
 70
     8
  9
$HANDSEED
  5
45B
  9
$SURFTAB1
 70
     6
  9
$SURFTAB2
 70
     6
  9
$SURFTYPE
 70
     6
  9
$SURFU
 70
     6
  9
$SURFV
 70
     6
  9
$UCSBASE
  2

  9
$UCSNAME
  2

  9
$UCSORG
 10
0.0
 20
0.0
 30
0.0
  9
$UCSXDIR
 10
1.0
 20
0.0
 30
0.0
  9
$UCSYDIR
 10
0.0
 20
1.0
 30
0.0
  9
$UCSORTHOREF
  2

  9
$UCSORTHOVIEW
 70
     0
  9
$UCSORGTOP
 10
0.0
 20
0.0
 30
0.0
  9
$UCSORGBOTTOM
 10
0.0
 20
0.0
 30
0.0
  9
$UCSORGLEFT
 10
0.0
 20
0.0
 30
0.0
  9
$UCSORGRIGHT
 10
0.0
 20
0.0
 30
0.0
  9
$UCSORGFRONT
 10
0.0
 20
0.0
 30
0.0
  9
$UCSORGBACK
 10
0.0
 20
0.0
 30
0.0
  9
$PUCSBASE
  2

  9
$PUCSNAME
  2

  9
$PUCSORG
 10
0.0
 20
0.0
 30
0.0
  9
$PUCSXDIR
 10
1.0
 20
0.0
 30
0.0
  9
$PUCSYDIR
 10
0.0
 20
1.0
 30
0.0
  9
$PUCSORTHOREF
  2

  9
$PUCSORTHOVIEW
 70
     0
  9
$PUCSORGTOP
 10
0.0
 20
0.0
 30
0.0
  9
$PUCSORGBOTTOM
 10
0.0
 20
0.0
 30
0.0
  9
$PUCSORGLEFT
 10
0.0
 20
0.0
 30
0.0
  9
$PUCSORGRIGHT
 10
0.0
 20
0.0
 30
0.0
  9
$PUCSORGFRONT
 10
0.0
 20
0.0
 30
0.0
  9
$PUCSORGBACK
 10
0.0
 20
0.0
 30
0.0
  9
$USERI1
 70
     0
  9
$USERI2
 70
     0
  9
$USERI3
 70
     0
  9
$USERI4
 70
     0
  9
$USERI5
 70
     0
  9
$USERR1
 40
0.0
  9
$USERR2
 40
0.0
  9
$USERR3
 40
0.0
  9
$USERR4
 40
0.0
  9
$USERR5
 40
0.0
  9
$WORLDVIEW
 70
     1
  9
$SHADEDGE
 70
     3
  9
$SHADEDIF
 70
    70
  9
$TILEMODE
 70
     1
  9
$MAXACTVP
 70
    64
  9
$PINSBASE
 10
0.0
 20
0.0
 30
0.0
  9
$PLIMCHECK
 70
     0
  9
$PEXTMIN
 10
1.000000000000000E+20
 20
1.000000000000000E+20
 30
1.000000000000000E+20
  9
$PEXTMAX
 10
-1.000000000000000E+20
 20
-1.000000000000000E+20
 30
-1.000000000000000E+20
  9
$PLIMMIN
 10
-839.0
 20
0.0
  9
$PLIMMAX
 10
0.0
 20
591.0
  9
$UNITMODE
 70
     0
  9
$VISRETAIN
 70
     1
  9
$PLINEGEN
 70
     0
  9
$PSLTSCALE
 70
     1
  9
$TREEDEPTH
 70
  3020
  9
$CMLSTYLE
  2
Standard
  9
$CMLJUST
 70
     0
  9
$CMLSCALE
 40
1.0
  9
$PROXYGRAPHICS
 70
     1
  9
$MEASUREMENT
 70
     0
  9
$CELWEIGHT
370
    -1
  9
$ENDCAPS
280
     0
  9
$JOINSTYLE
280
     0
  9
$LWDISPLAY
290
     0
  9
$INSUNITS
 70
     0
  9
$HYPERLINKBASE
  1

  9
$STYLESHEET
  1

  9
$XEDIT
290
     1
  9
$CEPSNTYPE
380
     0
  9
$PSTYLEMODE
290
     1
  9
$FINGERPRINTGUID
  2
{E889A408-3457-46FE-B67A-1BD2959A6F84}
  9
$VERSIONGUID
  2
{76D88854-C9F0-4B99-9DAD-CD523B808349}
  9
$EXTNAMES
290
     1
  9
$PSVPSCALE
 40
0.0
  9
$OLESTARTUP
290
     0
  9
$SORTENTS
280
   127
  9
$INDEXCTL
280
     0
  9
$HIDETEXT
280
     0
  9
$XCLIPFRAME
290
     0
  9
$HALOGAP
280
     0
  9
$OBSCOLOR
 70
   257
  9
$OBSLTYPE
280
     0
  9
$INTERSECTIONDISPLAY
280
     0
  9
$INTERSECTIONCOLOR
 70
   257
  9
$DIMASSOC
280
     1
  9
$PROJECTNAME
  1

  0
ENDSEC
  0
SECTION
  2
CLASSES
  0
CLASS
  1
ACDBDICTIONARYWDFLT
  2
AcDbDictionaryWithDefault
  3
ObjectDBX Classes
 90
        0
 91
        1
280
     0
281
     0
  0
CLASS
  1
TABLESTYLE
  2
AcDbTableStyle
  3
ObjectDBX Classes
 90
     2047
 91
        1
280
     0
281
     0
  0
CLASS
  1
DICTIONARYVAR
  2
AcDbDictionaryVar
  3
ObjectDBX Classes
 90
        0
 91
        1
280
     0
281
     0
  0
ENDSEC
  0
SECTION
  2
TABLES
  0
TABLE
  2
VPORT
  5
8
330
0
100
AcDbSymbolTable
 70
     2
  0
VPORT
  5
45A
330
8
100
AcDbSymbolTableRecord
100
AcDbViewportTableRecord
  2
*Active
 70
     0
 10
0.0
 20
0.0
 11
1.0
 21
1.0
 12
-419.5
 22
295.5
 13
0.0
 23
0.0
 14
1.0
 24
1.0
 15
0.0
 25
0.0
 16
0.0
 26
0.0
 36
1.0
 17
0.0
 27
0.0
 37
0.0
 40
595.6657894736842
 41
1.56258234519104
 42
50.0
 43
0.0
 44
0.0
 50
0.0
 51
0.0
 71
     0
 72
   100
 73
     1
 74
     1
 75
     0
 76
     0
 77
     0
 78
     0
281
     0
 65
     1
110
0.0
120
0.0
130
0.0
111
1.0
121
0.0
131
0.0
112
0.0
122
1.0
132
0.0
 79
     0
146
0.0
  0
ENDTAB
  0
TABLE
  2
LTYPE
  5
5
330
0
100
AcDbSymbolTable
 70
     6
  0
LTYPE
  5
13
330
5
100
AcDbSymbolTableRecord
100
AcDbLinetypeTableRecord
  2
ByBlock
 70
     0
  3

 72
    65
 73
     0
 40
0.0
  0
LTYPE
  5
14
330
5
100
AcDbSymbolTableRecord
100
AcDbLinetypeTableRecord
  2
ByLayer
 70
     0
  3

 72
    65
 73
     0
 40
0.0
  0
LTYPE
  5
15
330
5
100
AcDbSymbolTableRecord
100
AcDbLinetypeTableRecord
  2
CONTINUOUS
 70
     0
  3
Solid line
 72
    65
 73
     0
 40
0.0
  0
LTYPE
  5
26
330
5
100
AcDbSymbolTableRecord
100
AcDbLinetypeTableRecord
  2
DASHED
 70
     0
  3
__ __ __ __ __ __ __ __ __ __ __ __ __ __ __
 72
    65
 73
     2
 40
3.5
 49
2.0
 74
     0
 49
-1.5
 74
     0
  0
LTYPE
  5
27
330
5
100
AcDbSymbolTableRecord
100
AcDbLinetypeTableRecord
  2
CENTER
 70
     0
  3
____ _ ____ _ ____ _ ____ _ ____ _ ____ _ ____
 72
    65
 73
     4
 40
17.5
 49
13.0
 74
     0
 49
-1.5
 74
     0
 49
1.5
 74
     0
 49
-1.5
 74
     0
  0
LTYPE
  5
28
330
5
100
AcDbSymbolTableRecord
100
AcDbLinetypeTableRecord
  2
PHANTOM
 70
     0
  3
_____ _ _ _____ _ _ _____ _ _ _____ _ _ ____  
 72
    65
 73
     6
 40
15.5
 49
8.0
 74
     0
 49
-1.5
 74
     0
 49
1.5
 74
     0
 49
-1.5
 74
     0
 49
1.5
 74
     0
 49
-1.5
 74
     0
  0
LTYPE
  5
29
330
5
100
AcDbSymbolTableRecord
100
AcDbLinetypeTableRecord
  2
DOT
 70
     0
  3
. . . . . . . . . . . . . . . . . . . . . . . .
 72
    65
 73
     2
 40
0.25
 49
0.0
 74
     0
 49
-0.25
 74
     0
  0
LTYPE
  5
2A
330
5
100
AcDbSymbolTableRecord
100
AcDbLinetypeTableRecord
  2
HIDDEN
 70
     0
  3
__ __ __ __ __ __ __ __ __ __ __ __ __ __ __
 72
    65
 73
     2
 40
3.5
 49
2.0
 74
     0
 49
-1.5
 74
     0
  0
ENDTAB
  0
TABLE
  2
LAYER
  5
2
330
0
100
AcDbSymbolTable
 70
     2
  0
LAYER
  5
10
330
2
100
AcDbSymbolTableRecord
100
AcDbLayerTableRecord
  2
0
 70
     0
 62
     7
  6
CONTINUOUS
370
    -3
390
F
  0
LAYER
  5
2B
330
2
100
AcDbSymbolTableRecord
100
AcDbLayerTableRecord
  2
DEFPOINTS
 70
     0
 62
     7
  6
CONTINUOUS
290
     0
370
    -3
390
F
  0
ENDTAB
  0
TABLE
  2
STYLE
  5
3
330
0
100
AcDbSymbolTable
 70
     2
  0
STYLE
  5
11
330
3
100
AcDbSymbolTableRecord
100
AcDbTextStyleTableRecord
  2
STANDARD
 70
     0
 40
0.0
 41
1.0
 50
0.0
 71
     0
 42
0.2
  3

  4

1001
ACAD
1000
MS Gothic
1071
    32817
  0
ENDTAB
  0
TABLE
  2
VIEW
  5
6
330
0
100
AcDbSymbolTable
 70
     0
  0
ENDTAB
  0
TABLE
  2
UCS
  5
7
330
0
100
AcDbSymbolTable
 70
     0
  0
ENDTAB
  0
TABLE
  2
APPID
  5
9
330
0
100
AcDbSymbolTable
 70
     2
  0
APPID
  5
12
330
9
100
AcDbSymbolTableRecord
100
AcDbRegAppTableRecord
  2
ACAD
 70
     0
  0
APPID
  5
44F
330
9
100
AcDbSymbolTableRecord
100
AcDbRegAppTableRecord
  2
ACAD_PSEXT
 70
     0
  0
ENDTAB
  0
TABLE
  2
DIMSTYLE
  5
A
330
0
100
AcDbSymbolTable
 70
    14
100
AcDbDimStyleTable
 71
     1
340
2C
  0
DIMSTYLE
105
2C
102
{ACAD_REACTORS
330
43E
102
}
330
A
100
AcDbSymbolTableRecord
100
AcDbDimStyleTableRecord
  2
DIMSTYLE1
 70
     0
 41
1.0
 42
2.54
 44
2.54
 73
     0
 74
     0
 77
     1
140
3.0
145
1.0
147
1.5
172
     1
173
     1
279
     2
340
11
  0
DIMSTYLE
105
2D
102
{ACAD_REACTORS
330
440
102
}
330
A
100
AcDbSymbolTableRecord
100
AcDbDimStyleTableRecord
  2
DIMSTYLE2
 70
     0
 41
1.0
 42
2.54
 44
2.54
 73
     0
 74
     0
 77
     1
140
3.0
145
1.0
147
1.5
172
     1
173
     1
279
     2
340
11
  0
DIMSTYLE
105
2E
102
{ACAD_REACTORS
330
441
102
}
330
A
100
AcDbSymbolTableRecord
100
AcDbDimStyleTableRecord
  2
DIMSTYLE3
 70
     0
 41
1.0
 42
2.54
 44
2.54
 73
     0
 74
     0
 77
     1
140
3.0
145
1.0
147
1.5
172
     1
173
     1
279
     2
340
11
  0
DIMSTYLE
105
2F
102
{ACAD_REACTORS
330
442
102
}
330
A
100
AcDbSymbolTableRecord
100
AcDbDimStyleTableRecord
  2
DIMSTYLE4
 70
     0
 41
1.0
 42
2.54
 44
2.54
 73
     0
 74
     0
 77
     1
140
3.0
145
1.0
147
1.5
172
     1
173
     1
279
     2
340
11
  0
DIMSTYLE
105
30
102
{ACAD_REACTORS
330
444
102
}
330
A
100
AcDbSymbolTableRecord
100
AcDbDimStyleTableRecord
  2
DIMSTYLE5
 70
     0
 41
1.0
 42
2.54
 44
2.54
 73
     0
 74
     0
 77
     1
140
3.0
145
1.0
147
1.5
172
     1
173
     1
279
     2
340
11
  0
DIMSTYLE
105
31
102
{ACAD_REACTORS
330
445
102
}
330
A
100
AcDbSymbolTableRecord
100
AcDbDimStyleTableRecord
  2
DIMSTYLE6
 70
     0
 41
1.0
 42
2.54
 44
2.54
 73
     0
 74
     0
 77
     1
140
3.0
145
1.0
147
1.5
172
     1
173
     1
279
     2
340
11
  0
DIMSTYLE
105
32
102
{ACAD_REACTORS
330
446
102
}
330
A
100
AcDbSymbolTableRecord
100
AcDbDimStyleTableRecord
  2
DIMSTYLE7
 70
     0
 41
1.0
 42
2.54
 44
2.54
 73
     0
 74
     0
 77
     1
140
3.0
145
1.0
147
1.5
172
     1
173
     1
279
     2
340
11
  0
DIMSTYLE
105
33
102
{ACAD_REACTORS
330
447
102
}
330
A
100
AcDbSymbolTableRecord
100
AcDbDimStyleTableRecord
  2
DIMSTYLE8
 70
     0
 41
1.0
 42
2.54
 44
2.54
 73
     0
 74
     0
 77
     1
140
3.0
145
1.0
147
1.5
172
     1
173
     1
279
     2
340
11
  0
DIMSTYLE
105
34
102
{ACAD_REACTORS
330
448
102
}
330
A
100
AcDbSymbolTableRecord
100
AcDbDimStyleTableRecord
  2
DIMSTYLE9
 70
     0
 41
1.0
 42
2.54
 44
2.54
 73
     0
 74
     0
 77
     1
140
3.0
145
1.0
147
1.5
172
     1
173
     1
279
     2
340
11
  0
DIMSTYLE
105
35
102
{ACAD_REACTORS
330
449
102
}
330
A
100
AcDbSymbolTableRecord
100
AcDbDimStyleTableRecord
  2
DIMSTYLE10
 70
     0
 41
1.0
 42
2.54
 44
2.54
 73
     0
 74
     0
 77
     1
140
3.0
145
1.0
147
1.5
172
     1
173
     1
279
     2
340
11
  0
DIMSTYLE
105
36
102
{ACAD_REACTORS
330
44A
102
}
330
A
100
AcDbSymbolTableRecord
100
AcDbDimStyleTableRecord
  2
DIMSTYLE11
 70
     0
 41
1.0
 42
2.54
 44
2.54
 73
     0
 74
     0
 75
     1
 76
     1
 77
     1
140
3.0
145
1.0
147
1.5
172
     1
173
     1
279
     2
340
11
  0
DIMSTYLE
105
37
102
{ACAD_REACTORS
330
44B
102
}
330
A
100
AcDbSymbolTableRecord
100
AcDbDimStyleTableRecord
  2
DIMSTYLE12
 70
     0
 41
1.0
 42
2.54
 44
2.54
 73
     0
 74
     0
 75
     1
 76
     1
 77
     1
140
3.0
145
1.0
147
1.5
172
     1
173
     1
279
     2
340
11
  0
DIMSTYLE
105
38
102
{ACAD_REACTORS
330
44C
102
}
330
A
100
AcDbSymbolTableRecord
100
AcDbDimStyleTableRecord
  2
DIMSTYLE13
 70
     0
 41
1.0
 42
2.54
 44
2.54
 73
     0
 74
     0
 75
     1
 76
     1
 77
     1
140
3.0
145
1.0
147
1.5
172
     1
173
     1
279
     2
340
11
  0
ENDTAB
  0
TABLE
  2
BLOCK_RECORD
  5
1
330
0
100
AcDbSymbolTable
 70
    17
  0
BLOCK_RECORD
  5
22
330
1
100
AcDbSymbolTableRecord
100
AcDbBlockTableRecord
  2
*Model_Space
340
25
  0
BLOCK_RECORD
  5
1E
330
1
100
AcDbSymbolTableRecord
100
AcDbBlockTableRecord
  2
*Paper_Space
340
21
  0
BLOCK_RECORD
  5
3C
330
1
100
AcDbSymbolTableRecord
100
AcDbBlockTableRecord
  2
_OPEN30
340
0
102
{BLKREFS
331
45
331
46
331
51
331
52
331
5D
331
5E
331
68
331
69
331
73
331
74
331
7D
331
7E
331
88
331
89
331
95
331
97
331
A2
331
A3
331
AD
331
AE
331
B9
331
BA
331
C3
331
C4
331
CD
331
CE
102
}
  0
BLOCK_RECORD
  5
42
330
1
100
AcDbSymbolTableRecord
100
AcDbBlockTableRecord
  2
*D1
340
0
  0
BLOCK_RECORD
  5
4E
330
1
100
AcDbSymbolTableRecord
100
AcDbBlockTableRecord
  2
*D2
340
0
  0
BLOCK_RECORD
  5
5A
330
1
100
AcDbSymbolTableRecord
100
AcDbBlockTableRecord
  2
*D3
340
0
  0
BLOCK_RECORD
  5
65
330
1
100
AcDbSymbolTableRecord
100
AcDbBlockTableRecord
  2
*D4
340
0
  0
BLOCK_RECORD
  5
70
330
1
100
AcDbSymbolTableRecord
100
AcDbBlockTableRecord
  2
*D5
340
0
  0
BLOCK_RECORD
  5
7A
330
1
100
AcDbSymbolTableRecord
100
AcDbBlockTableRecord
  2
*D6
340
0
  0
BLOCK_RECORD
  5
85
330
1
100
AcDbSymbolTableRecord
100
AcDbBlockTableRecord
  2
*D7
340
0
  0
BLOCK_RECORD
  5
91
330
1
100
AcDbSymbolTableRecord
100
AcDbBlockTableRecord
  2
*D8
340
0
  0
BLOCK_RECORD
  5
9F
330
1
100
AcDbSymbolTableRecord
100
AcDbBlockTableRecord
  2
*D9
340
0
  0
BLOCK_RECORD
  5
AA
330
1
100
AcDbSymbolTableRecord
100
AcDbBlockTableRecord
  2
*D10
340
0
  0
BLOCK_RECORD
  5
B5
330
1
100
AcDbSymbolTableRecord
100
AcDbBlockTableRecord
  2
*D11
340
0
  0
BLOCK_RECORD
  5
BF
330
1
100
AcDbSymbolTableRecord
100
AcDbBlockTableRecord
  2
*D12
340
0
  0
BLOCK_RECORD
  5
C9
330
1
100
AcDbSymbolTableRecord
100
AcDbBlockTableRecord
  2
*D13
340
0
  0
BLOCK_RECORD
  5
D3
330
1
100
AcDbSymbolTableRecord
100
AcDbBlockTableRecord
  2
KOZU0001
340
0
102
{BLKREFS
331
43F
102
}
  0
BLOCK_RECORD
  5
DC
330
1
100
AcDbSymbolTableRecord
100
AcDbBlockTableRecord
  2
KOZU0002
340
0
102
{BLKREFS
331
443
102
}
  0
ENDTAB
  0
ENDSEC
  0
SECTION
  2
BLOCKS
  0
BLOCK
  5
23
330
22
100
AcDbEntity
  8
0
100
AcDbBlockBegin
  2
*Model_Space
 70
     0
 10
0.0
 20
0.0
 30
0.0
  3
*Model_Space
  1

  0
ENDBLK
  5
24
330
22
100
AcDbEntity
  8
0
100
AcDbBlockEnd
  0
BLOCK
  5
1F
330
1E
100
AcDbEntity
 67
     1
  8
0
100
AcDbBlockBegin
  2
*Paper_Space
 70
     0
 10
0.0
 20
0.0
 30
0.0
  3
*Paper_Space
  1

  0
ENDBLK
  5
20
330
1E
100
AcDbEntity
 67
     1
  8
0
100
AcDbBlockEnd
  0
BLOCK
  5
3D
330
3C
100
AcDbEntity
  8
0
100
AcDbBlockBegin
  2
_OPEN30
 70
     0
 10
0.0
 20
0.0
 30
0.0
  3
_OPEN30
  1

  0
LINE
  5
3E
330
3C
100
AcDbEntity
  8
0
  6
ByBlock
 62
     0
100
AcDbLine
 10
0.0
 20
0.0
 30
0.0
 11
-2.999999999999993
 21
-1.000000000000017
 31
0.0
  0
LINE
  5
3F
330
3C
100
AcDbEntity
  8
0
  6
ByBlock
 62
     0
100
AcDbLine
 10
0.0
 20
0.0
 30
0.0
 11
-3.000000000000006
 21
0.9999999999999815
 31
0.0
  0
LINE
  5
40
330
3C
100
AcDbEntity
  8
0
  6
ByBlock
 62
     0
100
AcDbLine
 10
0.0
 20
0.0
 30
0.0
 11
-3.0
 21
0.0
 31
0.0
  0
ENDBLK
  5
41
330
3C
100
AcDbEntity
  8
0
100
AcDbBlockEnd
  0
BLOCK
  5
43
330
42
100
AcDbEntity
  8
0
100
AcDbBlockBegin
  2
*D1
 70
     1
 10
0.0
 20
0.0
 30
0.0
  3
*D1
  1

  0
LINE
  5
44
330
42
100
AcDbEntity
  8
0
  6
Continuous
 62
     7
100
AcDbLine
 10
-486.3881225585938
 20
35.54355621337891
 30
0.0
 11
-395.3881225585938
 21
35.54355621337889
 31
0.0
  0
INSERT
  5
45
330
42
100
AcDbEntity
  8
0
  6
Continuous
 62
     7
100
AcDbBlockReference
  2
_OPEN30
 10
-489.3881225585937
 20
35.54355621337891
 30
0.0
 50
180.0000000000004
  0
INSERT
  5
46
330
42
100
AcDbEntity
  8
0
  6
Continuous
 62
     7
100
AcDbBlockReference
  2
_OPEN30
 10
-392.3881225585938
 20
35.54355621337891
 30
0.0
  0
LINE
  5
47
330
42
100
AcDbEntity
  8
0
  6
Continuous
 62
     7
100
AcDbLine
 10
-489.3881225585937
 20
66.0448388671875
 30
0.0
 11
-489.3881225585937
 21
33.25755310058595
 31
0.0
  0
LINE
  5
48
330
42
100
AcDbEntity
  8
0
  6
Continuous
 62
     7
100
AcDbLine
 10
-392.3881225585938
 20
66.0448388671875
 30
0.0
 11
-392.3881225585938
 21
33.25755310058595
 31
0.0
  0
TEXT
  5
49
330
42
100
AcDbEntity
  8
0
  6
Continuous
 62
     7
100
AcDbText
 10
-444.9581227302551
 20
36.29355621337891
 30
0.0
 40
3.0
  1
%%C97
 41
0.9498249830693319
100
AcDbText
  0
POINT
  5
4A
330
42
100
AcDbEntity
  8
DEFPOINTS
  6
Continuous
 62
     7
100
AcDbPoint
 10
-489.3881225585937
 20
68.5848388671875
 30
0.0
  0
POINT
  5
4B
330
42
100
AcDbEntity
  8
DEFPOINTS
  6
Continuous
 62
     7
100
AcDbPoint
 10
-392.3881225585938
 20
68.5848388671875
 30
0.0
  0
POINT
  5
4C
330
42
100
AcDbEntity
  8
DEFPOINTS
  6
Continuous
 62
     7
100
AcDbPoint
 10
-392.3881225585938
 20
35.54355621337891
 30
0.0
  0
ENDBLK
  5
4D
330
42
100
AcDbEntity
  8
0
100
AcDbBlockEnd
  0
BLOCK
  5
4F
330
4E
100
AcDbEntity
  8
0
100
AcDbBlockBegin
  2
*D2
 70
     1
 10
0.0
 20
0.0
 30
0.0
  3
*D2
  1

  0
LINE
  5
50
330
4E
100
AcDbEntity
  8
0
  6
Continuous
 62
     7
100
AcDbLine
 10
-552.6486206054689
 20
70.5848388671875
 30
0.0
 11
-552.6486206054689
 21
138.5848388671875
 31
0.0
  0
INSERT
  5
51
330
4E
100
AcDbEntity
  8
0
  6
Continuous
 62
     7
100
AcDbBlockReference
  2
_OPEN30
 10
-552.6486206054689
 20
67.5848388671875
 30
0.0
 50
270.0000000000005
  0
INSERT
  5
52
330
4E
100
AcDbEntity
  8
0
  6
Continuous
 62
     7
100
AcDbBlockReference
  2
_OPEN30
 10
-552.6486206054689
 20
141.5848388671875
 30
0.0
 50
90.00000000000019
  0
LINE
  5
53
330
4E
100
AcDbEntity
  8
0
  6
Continuous
 62
     7
100
AcDbLine
 10
-490.9281225585938
 20
67.58483886718749
 30
0.0
 11
-554.9346313476563
 21
67.5848388671875
 31
0.0
  0
LINE
  5
54
330
4E
100
AcDbEntity
  8
0
  6
Continuous
 62
     7
100
AcDbLine
 10
-489.9281225585938
 20
141.5848388671875
 30
0.0
 11
-554.9346313476563
 21
141.5848388671875
 31
0.0
  0
TEXT
  5
55
330
4E
100
AcDbEntity
  8
0
  6
Continuous
 62
     7
100
AcDbText
 10
-553.3986204931304
 20
102.0148387223472
 30
0.0
 40
3.0
  1
74
 50
90.00000250447815
 41
1.028000020980834
100
AcDbText
  0
POINT
  5
56
330
4E
100
AcDbEntity
  8
DEFPOINTS
  6
Continuous
 62
     7
100
AcDbPoint
 10
-488.3881225585938
 20
67.5848388671875
 30
0.0
  0
POINT
  5
57
330
4E
100
AcDbEntity
  8
DEFPOINTS
  6
Continuous
 62
     7
100
AcDbPoint
 10
-487.3881225585938
 20
141.5848388671875
 30
0.0
  0
POINT
  5
58
330
4E
100
AcDbEntity
  8
DEFPOINTS
  6
Continuous
 62
     7
100
AcDbPoint
 10
-552.6486206054689
 20
141.5848388671875
 30
0.0
  0
ENDBLK
  5
59
330
4E
100
AcDbEntity
  8
0
100
AcDbBlockEnd
  0
BLOCK
  5
5B
330
5A
100
AcDbEntity
  8
0
100
AcDbBlockBegin
  2
*D3
 70
     1
 10
0.0
 20
0.0
 30
0.0
  3
*D3
  1

  0
LINE
  5
5C
330
5A
100
AcDbEntity
  8
0
  6
Continuous
 62
     7
100
AcDbLine
 10
-492.3881225585938
 20
76.51613616943357
 30
0.0
 11
-503.3881225585938
 21
76.51613616943359
 31
0.0
  0
INSERT
  5
5D
330
5A
100
AcDbEntity
  8
0
  6
Continuous
 62
     7
100
AcDbBlockReference
  2
_OPEN30
 10
-489.3881225585937
 20
76.51613616943359
 30
0.0
  0
INSERT
  5
5E
330
5A
100
AcDbEntity
  8
0
  6
Continuous
 62
     7
100
AcDbBlockReference
  2
_OPEN30
 10
-506.3881225585937
 20
76.51613616943359
 30
0.0
 50
180.0000000000004
  0
LINE
  5
5F
330
5A
100
AcDbEntity
  8
0
  6
Continuous
 62
     7
100
AcDbLine
 10
-506.3881225585937
 20
99.06824584960936
 30
0.0
 11
-506.3881225585937
 21
74.23013305664063
 31
0.0
  0
TEXT
  5
60
330
5A
100
AcDbEntity
  8
0
  6
Continuous
 62
     7
100
AcDbText
 10
-500.4581226706505
 20
77.26613616943359
 30
0.0
 40
3.0
  1
17
 41
1.285000026226043
100
AcDbText
  0
POINT
  5
61
330
5A
100
AcDbEntity
  8
DEFPOINTS
  6
Continuous
 62
     7
100
AcDbPoint
 10
-489.3881225585937
 20
68.5848388671875
 30
0.0
  0
POINT
  5
62
330
5A
100
AcDbEntity
  8
DEFPOINTS
  6
Continuous
 62
     7
100
AcDbPoint
 10
-506.3881225585937
 20
101.6082458496094
 30
0.0
  0
POINT
  5
63
330
5A
100
AcDbEntity
  8
DEFPOINTS
  6
Continuous
 62
     7
100
AcDbPoint
 10
-506.3881225585937
 20
76.51613616943359
 30
0.0
  0
ENDBLK
  5
64
330
5A
100
AcDbEntity
  8
0
100
AcDbBlockEnd
  0
BLOCK
  5
66
330
65
100
AcDbEntity
  8
0
100
AcDbBlockBegin
  2
*D4
 70
     1
 10
0.0
 20
0.0
 30
0.0
  3
*D4
  1

  0
LINE
  5
67
330
65
100
AcDbEntity
  8
0
  6
Continuous
 62
     7
100
AcDbLine
 10
-513.60498046875
 20
100.0848388671875
 30
0.0
 11
-513.60498046875
 21
86.08483886718749
 31
0.0
  0
INSERT
  5
68
330
65
100
AcDbEntity
  8
0
  6
Continuous
 62
     7
100
AcDbBlockReference
  2
_OPEN30
 10
-513.60498046875
 20
103.0848388671875
 30
0.0
 50
90.00000000000019
  0
INSERT
  5
69
330
65
100
AcDbEntity
  8
0
  6
Continuous
 62
     7
100
AcDbBlockReference
  2
_OPEN30
 10
-513.60498046875
 20
83.0848388671875
 30
0.0
 50
270.0000000000005
  0
LINE
  5
6A
330
65
100
AcDbEntity
  8
0
  6
Continuous
 62
     7
100
AcDbLine
 10
-493.9281225585938
 20
83.08483886718748
 30
0.0
 11
-515.8909912109375
 21
83.0848388671875
 31
0.0
  0
TEXT
  5
6B
330
65
100
AcDbEntity
  8
0
  6
Continuous
 62
     7
100
AcDbText
 10
-514.3549803564117
 20
90.51483872234722
 30
0.0
 40
3.0
  1
20
 50
90.00000250447815
 41
1.101428593908038
100
AcDbText
  0
POINT
  5
6C
330
65
100
AcDbEntity
  8
DEFPOINTS
  6
Continuous
 62
     7
100
AcDbPoint
 10
-494.3881225585938
 20
103.0848388671875
 30
0.0
  0
POINT
  5
6D
330
65
100
AcDbEntity
  8
DEFPOINTS
  6
Continuous
 62
     7
100
AcDbPoint
 10
-491.3881225585938
 20
83.0848388671875
 30
0.0
  0
POINT
  5
6E
330
65
100
AcDbEntity
  8
DEFPOINTS
  6
Continuous
 62
     7
100
AcDbPoint
 10
-513.60498046875
 20
83.0848388671875
 30
0.0
  0
ENDBLK
  5
6F
330
65
100
AcDbEntity
  8
0
100
AcDbBlockEnd
  0
BLOCK
  5
71
330
70
100
AcDbEntity
  8
0
100
AcDbBlockBegin
  2
*D5
 70
     1
 10
0.0
 20
0.0
 30
0.0
  3
*D5
  1

  0
LINE
  5
72
330
70
100
AcDbEntity
  8
0
  6
Continuous
 62
     7
100
AcDbLine
 10
-430.2547607421875
 20
124.5848388671875
 30
0.0
 11
-430.2547607421875
 21
218.5848388671875
 31
0.0
  0
INSERT
  5
73
330
70
100
AcDbEntity
  8
0
  6
Continuous
 62
     7
100
AcDbBlockReference
  2
_OPEN30
 10
-430.2547607421875
 20
121.5848388671875
 30
0.0
 50
270.0000000000005
  0
INSERT
  5
74
330
70
100
AcDbEntity
  8
0
  6
Continuous
 62
     7
100
AcDbBlockReference
  2
_OPEN30
 10
-430.2547607421875
 20
221.5848388671875
 30
0.0
 50
90.00000000000019
  0
TEXT
  5
75
330
70
100
AcDbEntity
  8
0
  6
Continuous
 62
     7
100
AcDbText
 10
-431.0047605642821
 20
167.5148386627426
 30
0.0
 40
3.0
  1
100
 50
90.00000250447815
 41
1.320000017011488
100
AcDbText
  0
POINT
  5
76
330
70
100
AcDbEntity
  8
DEFPOINTS
  6
Continuous
 62
     7
100
AcDbPoint
 10
-440.8881225585938
 20
121.5848388671875
 30
0.0
  0
POINT
  5
77
330
70
100
AcDbEntity
  8
DEFPOINTS
  6
Continuous
 62
     7
100
AcDbPoint
 10
-421.8428649902343
 20
221.5848388671875
 30
0.0
  0
POINT
  5
78
330
70
100
AcDbEntity
  8
DEFPOINTS
  6
Continuous
 62
     7
100
AcDbPoint
 10
-430.2547607421875
 20
221.5848388671875
 30
0.0
  0
ENDBLK
  5
79
330
70
100
AcDbEntity
  8
0
100
AcDbBlockEnd
  0
BLOCK
  5
7B
330
7A
100
AcDbEntity
  8
0
100
AcDbBlockBegin
  2
*D6
 70
     1
 10
0.0
 20
0.0
 30
0.0
  3
*D6
  1

  0
LINE
  5
7C
330
7A
100
AcDbEntity
  8
0
  6
Continuous
 62
     7
100
AcDbLine
 10
-421.0578613281249
 20
124.5848388671875
 30
0.0
 11
-421.0578613281249
 21
168.5848388671875
 31
0.0
  0
INSERT
  5
7D
330
7A
100
AcDbEntity
  8
0
  6
Continuous
 62
     7
100
AcDbBlockReference
  2
_OPEN30
 10
-421.0578613281249
 20
121.5848388671875
 30
0.0
 50
270.0000000000005
  0
INSERT
  5
7E
330
7A
100
AcDbEntity
  8
0
  6
Continuous
 62
     7
100
AcDbBlockReference
  2
_OPEN30
 10
-421.0578613281249
 20
171.5848388671875
 30
0.0
 50
90.00000000000019
  0
LINE
  5
7F
330
7A
100
AcDbEntity
  8
0
  6
Continuous
 62
     7
100
AcDbLine
 10
-400.9781103515625
 20
171.5848388671875
 30
0.0
 11
-423.3438415527343
 21
171.5848388671875
 31
0.0
  0
TEXT
  5
80
330
7A
100
AcDbEntity
  8
0
  6
Continuous
 62
     7
100
AcDbText
 10
-421.8078612157866
 20
144.0148387223471
 30
0.0
 40
3.0
  1
50
 50
90.00000250447815
 41
1.101428593908038
100
AcDbText
  0
POINT
  5
81
330
7A
100
AcDbEntity
  8
DEFPOINTS
  6
Continuous
 62
     7
100
AcDbPoint
 10
-440.8881225585938
 20
121.5848388671875
 30
0.0
  0
POINT
  5
82
330
7A
100
AcDbEntity
  8
DEFPOINTS
  6
Continuous
 62
     7
100
AcDbPoint
 10
-398.4381103515625
 20
171.5848388671875
 30
0.0
  0
POINT
  5
83
330
7A
100
AcDbEntity
  8
DEFPOINTS
  6
Continuous
 62
     7
100
AcDbPoint
 10
-421.0578613281249
 20
171.5848388671875
 30
0.0
  0
ENDBLK
  5
84
330
7A
100
AcDbEntity
  8
0
100
AcDbBlockEnd
  0
BLOCK
  5
86
330
85
100
AcDbEntity
  8
0
100
AcDbBlockBegin
  2
*D7
 70
     1
 10
0.0
 20
0.0
 30
0.0
  3
*D7
  1

  0
LINE
  5
87
330
85
100
AcDbEntity
  8
0
  6
Continuous
 62
     7
100
AcDbLine
 10
-295.3773803710938
 20
109.5848388671875
 30
0.0
 11
-295.3773803710938
 21
275.5848388671875
 31
0.0
  0
INSERT
  5
88
330
85
100
AcDbEntity
  8
0
  6
Continuous
 62
     7
100
AcDbBlockReference
  2
_OPEN30
 10
-295.3773803710938
 20
106.5848388671875
 30
0.0
 50
270.0000000000005
  0
INSERT
  5
89
330
85
100
AcDbEntity
  8
0
  6
Continuous
 62
     7
100
AcDbBlockReference
  2
_OPEN30
 10
-295.3773803710938
 20
278.5848388671875
 30
0.0
 50
90.00000000000019
  0
LINE
  5
8A
330
85
100
AcDbEntity
  8
0
  6
Continuous
 62
     7
100
AcDbLine
 10
-342.8481225585937
 20
106.5848388671875
 30
0.0
 11
-293.0913696289063
 21
106.5848388671875
 31
0.0
  0
LINE
  5
8B
330
85
100
AcDbEntity
  8
0
  6
Continuous
 62
     7
100
AcDbLine
 10
-324.3483972167969
 20
278.5848388671875
 30
0.0
 11
-293.0913696289063
 21
278.5848388671875
 31
0.0
  0
TEXT
  5
8C
330
85
100
AcDbEntity
  8
0
  6
Continuous
 62
     7
100
AcDbText
 10
-296.1273795375175
 20
173.5148380666962
 30
0.0
 40
3.0
  1
１７２　（１５８～１８０）
 50
90.00000250447815
 41
0.8434321120058422
100
AcDbText
  0
POINT
  5
8D
330
85
100
AcDbEntity
  8
DEFPOINTS
  6
Continuous
 62
     7
100
AcDbPoint
 10
-345.3881225585938
 20
106.5848388671875
 30
0.0
  0
POINT
  5
8E
330
85
100
AcDbEntity
  8
DEFPOINTS
  6
Continuous
 62
     7
100
AcDbPoint
 10
-326.8883972167969
 20
278.5848388671875
 30
0.0
  0
POINT
  5
8F
330
85
100
AcDbEntity
  8
DEFPOINTS
  6
Continuous
 62
     7
100
AcDbPoint
 10
-295.3773803710938
 20
278.5848388671875
 30
0.0
  0
ENDBLK
  5
90
330
85
100
AcDbEntity
  8
0
100
AcDbBlockEnd
  0
BLOCK
  5
92
330
91
100
AcDbEntity
  8
0
100
AcDbBlockBegin
  2
*D8
 70
     1
 10
0.0
 20
0.0
 30
0.0
  3
*D8
  1

  0
LINE
  5
93
330
91
100
AcDbEntity
  8
0
  6
Continuous
 62
     7
100
AcDbLine
 10
-295.3773803710938
 20
103.0848388671875
 30
0.0
 11
-295.3773803710938
 21
87.39040374755859
 31
0.0
  0
LINE
  5
94
330
91
100
AcDbEntity
  8
0
  6
Continuous
 62
     7
100
AcDbLine
 10
-295.3773803710938
 20
106.5848388671875
 30
0.0
 11
-295.3773803710938
 21
103.0848388671875
 31
0.0
  0
INSERT
  5
95
330
91
100
AcDbEntity
  8
0
  6
Continuous
 62
     7
100
AcDbBlockReference
  2
_OPEN30
 10
-295.3773803710938
 20
106.5848388671875
 30
0.0
 50
270.0000000000002
  0
LINE
  5
96
330
91
100
AcDbEntity
  8
0
  6
Continuous
 62
     7
100
AcDbLine
 10
-295.3773803710938
 20
109.5848388671875
 30
0.0
 11
-295.3773803710938
 21
112.9348388671875
 31
0.0
  0
INSERT
  5
97
330
91
100
AcDbEntity
  8
0
  6
Continuous
 62
     7
100
AcDbBlockReference
  2
_OPEN30
 10
-295.3773803710938
 20
103.0848388671875
 30
0.0
 50
90.00000000000049
  0
LINE
  5
98
330
91
100
AcDbEntity
  8
0
  6
Continuous
 62
     7
100
AcDbLine
 10
-295.3773803710938
 20
100.0848388671875
 30
0.0
 11
-295.3773803710937
 21
96.73483886718752
 31
0.0
  0
LINE
  5
99
330
91
100
AcDbEntity
  8
0
  6
Continuous
 62
     7
100
AcDbLine
 10
-341.3481225585937
 20
103.0848388671875
 30
0.0
 11
-293.0913696289063
 21
103.0848388671875
 31
0.0
  0
TEXT
  5
9A
330
91
100
AcDbEntity
  8
0
  6
Continuous
 62
     7
100
AcDbText
 10
-296.1273801931883
 20
87.39040323793789
 30
0.0
 40
3.0
  1
3.5
 50
90.00000250447815
 41
1.356666684150696
100
AcDbText
  0
POINT
  5
9B
330
91
100
AcDbEntity
  8
DEFPOINTS
  6
Continuous
 62
     7
100
AcDbPoint
 10
-293.0913696289063
 20
106.5848388671875
 30
0.0
  0
POINT
  5
9C
330
91
100
AcDbEntity
  8
DEFPOINTS
  6
Continuous
 62
     7
100
AcDbPoint
 10
-343.8881225585938
 20
103.0848388671875
 30
0.0
  0
POINT
  5
9D
330
91
100
AcDbEntity
  8
DEFPOINTS
  6
Continuous
 62
     7
100
AcDbPoint
 10
-295.3773803710938
 20
103.0848388671875
 30
0.0
  0
ENDBLK
  5
9E
330
91
100
AcDbEntity
  8
0
100
AcDbBlockEnd
  0
BLOCK
  5
A0
330
9F
100
AcDbEntity
  8
0
100
AcDbBlockBegin
  2
*D9
 70
     1
 10
0.0
 20
0.0
 30
0.0
  3
*D9
  1

  0
LINE
  5
A1
330
9F
100
AcDbEntity
  8
0
  6
Continuous
 62
     7
100
AcDbLine
 10
-311.7418212890625
 20
275.5848388671875
 30
0.0
 11
-311.7418212890625
 21
204.5848388671875
 31
0.0
  0
INSERT
  5
A2
330
9F
100
AcDbEntity
  8
0
  6
Continuous
 62
     7
100
AcDbBlockReference
  2
_OPEN30
 10
-311.7418212890625
 20
278.5848388671875
 30
0.0
 50
90.00000000000019
  0
INSERT
  5
A3
330
9F
100
AcDbEntity
  8
0
  6
Continuous
 62
     7
100
AcDbBlockReference
  2
_OPEN30
 10
-311.7418212890625
 20
201.5848388671875
 30
0.0
 50
270.0000000000005
  0
LINE
  5
A4
330
9F
100
AcDbEntity
  8
0
  6
Continuous
 62
     7
100
AcDbLine
 10
-388.8483972167969
 20
201.5848388671875
 30
0.0
 11
-309.455810546875
 21
201.5848388671875
 31
0.0
  0
TEXT
  5
A5
330
9F
100
AcDbEntity
  8
0
  6
Continuous
 62
     7
100
AcDbText
 10
-312.4918211767242
 20
237.5148387223472
 30
0.0
 40
3.0
  1
77
 50
90.00000250447815
 41
1.028000020980834
100
AcDbText
  0
POINT
  5
A6
330
9F
100
AcDbEntity
  8
DEFPOINTS
  6
Continuous
 62
     7
100
AcDbPoint
 10
-326.8883972167969
 20
278.5848388671875
 30
0.0
  0
POINT
  5
A7
330
9F
100
AcDbEntity
  8
DEFPOINTS
  6
Continuous
 62
     7
100
AcDbPoint
 10
-391.3883972167969
 20
201.5848388671875
 30
0.0
  0
POINT
  5
A8
330
9F
100
AcDbEntity
  8
DEFPOINTS
  6
Continuous
 62
     7
100
AcDbPoint
 10
-311.7418212890625
 20
201.5848388671875
 30
0.0
  0
ENDBLK
  5
A9
330
9F
100
AcDbEntity
  8
0
100
AcDbBlockEnd
  0
BLOCK
  5
AB
330
AA
100
AcDbEntity
  8
0
100
AcDbBlockBegin
  2
*D10
 70
     1
 10
0.0
 20
0.0
 30
0.0
  3
*D10
  1

  0
LINE
  5
AC
330
AA
100
AcDbEntity
  8
0
  6
Continuous
 62
     7
100
AcDbLine
 10
-311.7418212890625
 20
109.5848388671875
 30
0.0
 11
-311.7418212890625
 21
138.5848388671875
 31
0.0
  0
INSERT
  5
AD
330
AA
100
AcDbEntity
  8
0
  6
Continuous
 62
     7
100
AcDbBlockReference
  2
_OPEN30
 10
-311.7418212890625
 20
106.5848388671875
 30
0.0
 50
270.0000000000005
  0
INSERT
  5
AE
330
AA
100
AcDbEntity
  8
0
  6
Continuous
 62
     7
100
AcDbBlockReference
  2
_OPEN30
 10
-311.7418212890625
 20
141.5848388671875
 30
0.0
 50
90.00000000000019
  0
LINE
  5
AF
330
AA
100
AcDbEntity
  8
0
  6
Continuous
 62
     7
100
AcDbLine
 10
-391.8481225585937
 20
141.5848388671875
 30
0.0
 11
-309.455810546875
 21
141.5848388671875
 31
0.0
  0
TEXT
  5
B0
330
AA
100
AcDbEntity
  8
0
  6
Continuous
 62
     7
100
AcDbText
 10
-312.4918211767242
 20
121.5148387223472
 30
0.0
 40
3.0
  1
35
 50
90.00000250447815
 41
1.028000020980834
100
AcDbText
  0
POINT
  5
B1
330
AA
100
AcDbEntity
  8
DEFPOINTS
  6
Continuous
 62
     7
100
AcDbPoint
 10
-293.0913696289063
 20
106.5848388671875
 30
0.0
  0
POINT
  5
B2
330
AA
100
AcDbEntity
  8
DEFPOINTS
  6
Continuous
 62
     7
100
AcDbPoint
 10
-394.3881225585938
 20
141.5848388671875
 30
0.0
  0
POINT
  5
B3
330
AA
100
AcDbEntity
  8
DEFPOINTS
  6
Continuous
 62
     7
100
AcDbPoint
 10
-311.7418212890625
 20
141.5848388671875
 30
0.0
  0
ENDBLK
  5
B4
330
AA
100
AcDbEntity
  8
0
100
AcDbBlockEnd
  0
BLOCK
  5
B6
330
B5
100
AcDbEntity
  8
0
100
AcDbBlockBegin
  2
*D11
 70
     1
 10
0.0
 20
0.0
 30
0.0
  3
*D11
  1

  0
LINE
  5
B7
330
B5
100
AcDbEntity
  8
0
  6
Continuous
 62
     7
100
AcDbLine
 10
-351.390625
 20
513.4879150390625
 30
0.0
 11
-316.4703674316406
 21
541.6654052734375
 31
0.0
  0
LINE
  5
B8
330
B5
100
AcDbEntity
  8
0
  6
Continuous
 62
     7
100
AcDbLine
 10
-528.0509031345063
 20
370.9391109171091
 30
0.0
 11
-353.7253419826811
 21
511.6040104207813
 31
0.0
  0
INSERT
  5
B9
330
B5
100
AcDbEntity
  8
0
  6
Continuous
 62
     7
100
AcDbBlockReference
  2
_OPEN30
 10
-530.3856201171875
 20
369.0552062988281
 30
0.0
 50
218.9003790395325
  0
INSERT
  5
BA
330
B5
100
AcDbEntity
  8
0
  6
Continuous
 62
     7
100
AcDbBlockReference
  2
_OPEN30
 10
-351.390625
 20
513.4879150390625
 30
0.0
 50
38.90037903953175
  0
TEXT
  5
BB
330
B5
100
AcDbEntity
  8
0
  6
Continuous
 62
     7
100
AcDbText
 10
-344.2887478805713
 20
520.1823289311302
 30
0.0
 40
3.0
  1
%%C２３０　（目皿受外径）
 50
38.90000028563571
 41
0.8436974815103043
100
AcDbText
  0
POINT
  5
BC
330
B5
100
AcDbEntity
  8
DEFPOINTS
  6
Continuous
 62
     7
100
AcDbPoint
 10
-530.3856201171875
 20
369.0552062988281
 30
0.0
  0
POINT
  5
BD
330
B5
100
AcDbEntity
  8
DEFPOINTS
  6
Continuous
 62
     7
100
AcDbPoint
 10
-351.390625
 20
513.4879150390625
 30
0.0
  0
ENDBLK
  5
BE
330
B5
100
AcDbEntity
  8
0
100
AcDbBlockEnd
  0
BLOCK
  5
C0
330
BF
100
AcDbEntity
  8
0
100
AcDbBlockBegin
  2
*D12
 70
     1
 10
0.0
 20
0.0
 30
0.0
  3
*D12
  1

  0
LINE
  5
C1
330
BF
100
AcDbEntity
  8
0
  6
Continuous
 62
     7
100
AcDbLine
 10
-348.1946105957031
 20
489.5226135253905
 30
0.0
 11
-300.0282897949219
 21
514.5952758789063
 31
0.0
  0
LINE
  5
C2
330
BF
100
AcDbEntity
  8
0
  6
Continuous
 62
     7
100
AcDbLine
 10
-530.920546491332
 20
394.4057056015438
 30
0.0
 11
-350.8556681082774
 21
488.1374157363468
 31
0.0
  0
INSERT
  5
C3
330
BF
100
AcDbEntity
  8
0
  6
Continuous
 62
     7
100
AcDbBlockReference
  2
_OPEN30
 10
-533.5816040039063
 20
393.0205078125
 30
0.0
 50
207.4989654064154
  0
INSERT
  5
C4
330
BF
100
AcDbEntity
  8
0
  6
Continuous
 62
     7
100
AcDbBlockReference
  2
_OPEN30
 10
-348.1946105957031
 20
489.5226135253905
 30
0.0
 50
27.49896540641466
  0
TEXT
  5
C5
330
BF
100
AcDbEntity
  8
0
  6
Continuous
 62
     7
100
AcDbText
 10
-328.8832910120642
 20
500.4201896394254
 30
0.0
 40
3.0
  1
%%C２０９　（目皿外径）
 50
27.49999962689236
 41
0.8440126077968535
100
AcDbText
  0
POINT
  5
C6
330
BF
100
AcDbEntity
  8
DEFPOINTS
  6
Continuous
 62
     7
100
AcDbPoint
 10
-533.5816040039063
 20
393.0205078125
 30
0.0
  0
POINT
  5
C7
330
BF
100
AcDbEntity
  8
DEFPOINTS
  6
Continuous
 62
     7
100
AcDbPoint
 10
-348.1946105957031
 20
489.5226135253905
 30
0.0
  0
ENDBLK
  5
C8
330
BF
100
AcDbEntity
  8
0
100
AcDbBlockEnd
  0
BLOCK
  5
CA
330
C9
100
AcDbEntity
  8
0
100
AcDbBlockBegin
  2
*D13
 70
     1
 10
0.0
 20
0.0
 30
0.0
  3
*D13
  1

  0
LINE
  5
CB
330
C9
100
AcDbEntity
  8
0
  6
Continuous
 62
     7
100
AcDbLine
 10
-347.2803649902344
 20
470.4501037597656
 30
0.0
 11
-287.8424072265625
 21
487.767822265625
 31
0.0
  0
LINE
  5
CC
330
C9
100
AcDbEntity
  8
0
  6
Continuous
 62
     7
100
AcDbLine
 10
-531.6156107257437
 20
416.7425618843816
 30
0.0
 11
-350.1606038738657
 21
469.6109232230401
 31
0.0
  0
INSERT
  5
CD
330
C9
100
AcDbEntity
  8
0
  6
Continuous
 62
     7
100
AcDbBlockReference
  2
_OPEN30
 10
-534.495849609375
 20
415.9033813476563
 30
0.0
 50
196.2439026806599
  0
INSERT
  5
CE
330
C9
100
AcDbEntity
  8
0
  6
Continuous
 62
     7
100
AcDbBlockReference
  2
_OPEN30
 10
-347.2803649902344
 20
470.4501037597656
 30
0.0
 50
16.24390268065919
  0
TEXT
  5
CF
330
C9
100
AcDbEntity
  8
0
  6
Continuous
 62
     7
100
AcDbText
 10
-321.7926331365425
 20
478.6713737465736
 30
0.0
 40
3.0
  1
%%C１９５　（防水皿外径）
 50
16.19999976778715
 41
0.8436974815103043
100
AcDbText
  0
POINT
  5
D0
330
C9
100
AcDbEntity
  8
DEFPOINTS
  6
Continuous
 62
     7
100
AcDbPoint
 10
-534.495849609375
 20
415.9033813476563
 30
0.0
  0
POINT
  5
D1
330
C9
100
AcDbEntity
  8
DEFPOINTS
  6
Continuous
 62
     7
100
AcDbPoint
 10
-347.2803649902344
 20
470.4501037597656
 30
0.0
  0
ENDBLK
  5
D2
330
C9
100
AcDbEntity
  8
0
100
AcDbBlockEnd
  0
BLOCK
  5
D4
330
D3
100
AcDbEntity
  8
0
100
AcDbBlockBegin
  2
KOZU0001
 70
     0
 10
0.0
 20
0.0
 30
0.0
  3
KOZU0001
  1

  0
LINE
  5
D5
330
D3
100
AcDbEntity
  8
0
  6
Continuous
 62
     7
100
AcDbLine
 10
0.0
 20
0.0
 30
0.0
 11
32.12396240234375
 21
-39.38149642944336
 31
0.0
  0
LINE
  5
D6
330
D3
100
AcDbEntity
  8
0
  6
Continuous
 62
     7
100
AcDbLine
 10
32.12396240234375
 20
-39.38149642944336
 30
0.0
 11
60.8402099609375
 21
-39.38149642944336
 31
0.0
  0
LINE
  5
D7
330
D3
100
AcDbEntity
  8
0
  6
Continuous
 62
     7
100
AcDbLine
 10
0.0
 20
0.0
 30
0.0
 11
2.671166551980177
 21
-1.692592464706828
 31
0.0
  0
LINE
  5
D8
330
D3
100
AcDbEntity
  8
0
  6
Continuous
 62
     7
100
AcDbLine
 10
0.0
 20
0.0
 30
0.0
 11
1.121377762760044
 21
-2.956773902953568
 31
0.0
  0
TEXT
  5
D9
330
D3
100
AcDbEntity
  8
0
  6
Continuous
 62
     7
100
AcDbText
 10
35.98020863533021
 20
-38.63149642944336
 30
0.0
 40
3.0
  1
配管接続口
 41
0.8487395020950888
100
AcDbText
  0
TEXT
  5
DA
330
D3
100
AcDbEntity
  8
0
  6
Continuous
 62
     7
100
AcDbText
 10
35.98020863533021
 20
-43.89649642944336
 30
0.0
 40
3.0
  1
Ｒｃ３（８０Ａ）
 41
0.8454512278006642
100
AcDbText
  0
ENDBLK
  5
DB
330
D3
100
AcDbEntity
  8
0
100
AcDbBlockEnd
  0
BLOCK
  5
DD
330
DC
100
AcDbEntity
  8
0
100
AcDbBlockBegin
  2
KOZU0002
 70
     0
 10
0.0
 20
0.0
 30
0.0
  3
KOZU0002
  1

  0
LINE
  5
DE
330
DC
100
AcDbEntity
  8
0
  6
Continuous
 62
     7
100
AcDbLine
 10
0.0
 20
0.0
 30
0.0
 11
-29.27713012695313
 21
-47.31998062133789
 31
0.0
  0
LINE
  5
DF
330
DC
100
AcDbEntity
  8
0
  6
Continuous
 62
     7
100
AcDbLine
 10
-29.27713012695313
 20
-47.31998062133789
 30
0.0
 11
-58.74185180664063
 21
-47.31998062133789
 31
0.0
  0
LINE
  5
E0
330
DC
100
AcDbEntity
  8
0
  6
Continuous
 62
     7
100
AcDbLine
 10
0.0
 20
0.0
 30
0.0
 11
-0.7280373698687857
 21
-3.077330269580198
 31
0.0
  0
LINE
  5
E1
330
DC
100
AcDbEntity
  8
0
  6
Continuous
 62
     7
100
AcDbLine
 10
0.0
 20
0.0
 30
0.0
 11
-2.428828057643147
 21
-2.025041793742888
 31
0.0
  0
TEXT
  5
E2
330
DC
100
AcDbEntity
  8
0
  6
Continuous
 62
     7
100
AcDbText
 10
-57.0218209028244
 20
-46.56998062133789
 30
0.0
 40
3.0
  1
共廻り防止用羽根
 41
0.8454512278006642
100
AcDbText
  0
TEXT
  5
E3
330
DC
100
AcDbEntity
  8
0
  6
Continuous
 62
     7
100
AcDbText
 10
-57.0218209028244
 20
-51.83498062133789
 30
0.0
 40
3.0
  1
３ヶ所
 41
0.8550420278260688
100
AcDbText
  0
ENDBLK
  5
E4
330
DC
100
AcDbEntity
  8
0
100
AcDbBlockEnd
  0
ENDSEC
  0
SECTION
  2
ENTITIES
  0
POINT
  5
E5
330
22
100
AcDbEntity
  8
0
  6
Continuous
 62
     7
100
AcDbPoint
 10
-440.8881225585938
 20
103.0848388671875
 30
0.0
  0
POINT
  5
E6
330
22
100
AcDbEntity
  8
0
  6
Continuous
 62
     7
100
AcDbPoint
 10
-440.8881225585938
 20
443.1767272949218
 30
0.0
  0
POINT
  5
E7
330
22
100
AcDbEntity
  8
0
  6
Continuous
 62
     7
100
AcDbPoint
 10
-440.8881225585938
 20
103.0848388671875
 30
0.0
  0
POINT
  5
E8
330
22
100
AcDbEntity
  8
0
  6
Continuous
 62
     7
100
AcDbPoint
 10
-440.8881225585938
 20
443.1767272949218
 30
0.0
  0
POINT
  5
E9
330
22
100
AcDbEntity
  8
0
  6
Continuous
 62
     7
100
AcDbPoint
 10
-440.8881225585938
 20
278.5848388671875
 30
0.0
  0
POINT
  5
EA
330
22
100
AcDbEntity
  8
0
  6
Continuous
 62
     7
100
AcDbPoint
 10
-396.9481201171875
 20
67.5848388671875
 30
0.0
  0
POINT
  5
EB
330
22
100
AcDbEntity
  8
0
  6
Continuous
 62
     7
100
AcDbPoint
 10
-398.0241394042969
 20
102.0158386230469
 30
0.0
  0
POINT
  5
EC
330
22
100
AcDbEntity
  8
0
  6
Continuous
 62
     7
100
AcDbPoint
 10
-397.4861145019531
 20
84.80033874511718
 30
0.0
  0
POINT
  5
ED
330
22
100
AcDbEntity
  8
0
  6
Continuous
 62
     7
100
AcDbPoint
 10
-398.4381103515625
 20
171.5848388671875
 30
0.0
  0
LINE
  5
EE
330
22
100
AcDbEntity
  8
0
  6
Continuous
 62
     7
100
AcDbLine
 10
-336.3883972167969
 20
278.0848388671875
 30
0.0
 11
-336.8883972167969
 21
278.5848388671875
 31
0.0
  0
LINE
  5
EF
330
22
100
AcDbEntity
  8
0
  6
Continuous
 62
     7
100
AcDbLine
 10
-325.8883972167969
 20
277.5848388671875
 30
0.0
 11
-325.8883972167969
 21
275.5848388671875
 31
0.0
  0
LINE
  5
F0
330
22
100
AcDbEntity
  8
0
  6
Continuous
 62
     7
100
AcDbLine
 10
-326.8883972167969
 20
274.5848388671875
 30
0.0
 11
-331.8883972167969
 21
274.5848388671875
 31
0.0
  0
LINE
  5
F1
330
22
100
AcDbEntity
  8
0
  6
Continuous
 62
     7
100
AcDbLine
 10
-398.8883972167969
 20
229.5848388671875
 30
0.0
 11
-440.8883972167968
 21
229.5848388671875
 31
0.0
  0
LINE
  5
F2
330
22
100
AcDbEntity
  8
0
  6
Continuous
 62
     7
100
AcDbLine
 10
-399.0771789550781
 20
231.8348388671875
 30
0.0
 11
-440.8883972167968
 21
231.8348388671875
 31
0.0
  0
LINE
  5
F3
330
22
100
AcDbEntity
  8
0
  6
Continuous
 62
     7
100
AcDbLine
 10
-555.8883666992188
 20
277.5848388671875
 30
0.0
 11
-555.8883666992188
 21
275.5848388671875
 31
0.0
  0
LINE
  5
F4
330
22
100
AcDbEntity
  8
0
  6
Continuous
 62
     7
100
AcDbLine
 10
-554.8883666992188
 20
274.5848388671875
 30
0.0
 11
-548.8883666992188
 21
274.5848388671875
 31
0.0
  0
LINE
  5
F5
330
22
100
AcDbEntity
  8
0
  6
Continuous
 62
     7
100
AcDbLine
 10
-396.9481201171875
 20
141.5848388671875
 30
0.0
 11
-394.3881225585938
 21
141.5848388671875
 31
0.0
  0
LINE
  5
F6
330
22
100
AcDbEntity
  8
0
  6
Continuous
 62
     7
100
AcDbLine
 10
-396.9481201171875
 20
141.5848388671875
 30
0.0
 11
-398.4231262207032
 21
140.1098327636719
 31
0.0
  0
LINE
  5
F7
330
22
100
AcDbEntity
  8
0
  6
Continuous
 62
     7
100
AcDbLine
 10
-399.8883972167969
 20
230.7891235351563
 30
0.0
 11
-399.8883972167969
 21
230.5848388671875
 31
0.0
  0
LINE
  5
F8
330
22
100
AcDbEntity
  8
0
  6
Continuous
 62
     7
100
AcDbLine
 10
-396.9383850097656
 20
201.5848388671875
 30
0.0
 11
-398.4384155273438
 21
203.2140045166016
 31
0.0
  0
LINE
  5
F9
330
22
100
AcDbEntity
  8
0
  6
Continuous
 62
     7
100
AcDbLine
 10
-398.4384155273438
 20
203.2140045166016
 30
0.0
 11
-398.9064636230469
 21
218.1901092529297
 31
0.0
  0
LINE
  5
FA
330
22
100
AcDbEntity
  8
0
  6
Continuous
 62
     7
100
AcDbLine
 10
-396.9383850097656
 20
201.5848388671875
 30
0.0
 11
-397.5009155273438
 21
219.5848388671875
 31
0.0
  0
LINE
  5
FB
330
22
100
AcDbEntity
  8
0
  6
Continuous
 62
     7
100
AcDbLine
 10
-398.9064636230469
 20
218.1901092529297
 30
0.0
 11
-397.5009155273438
 21
219.5848388671875
 31
0.0
  0
LINE
  5
FC
330
22
100
AcDbEntity
  8
0
  6
Continuous
 62
     7
100
AcDbLine
 10
-398.1903381347656
 20
193.0561370849609
 30
0.0
 11
-399.0819091796875
 21
221.5848388671875
 31
0.0
  0
LINE
  5
FD
330
22
100
AcDbEntity
  8
0
  6
Continuous
 62
     7
100
AcDbLine
 10
-396.6515197753906
 20
191.5173187255859
 30
0.0
 11
-397.5430908203125
 21
220.0460205078125
 31
0.0
  0
LINE
  5
FE
330
22
100
AcDbEntity
  8
0
  6
Continuous
 62
     7
100
AcDbLine
 10
-398.8883972167969
 20
229.5848388671875
 30
0.0
 11
-398.9533996582031
 21
229.5848388671875
 31
0.0
  0
LINE
  5
FF
330
22
100
AcDbEntity
  8
0
  6
Continuous
 62
     7
100
AcDbLine
 10
-396.9533996582031
 20
220.0848388671875
 30
0.0
 11
-396.9533996582031
 21
227.5848388671875
 31
0.0
  0
LINE
  5
100
330
22
100
AcDbEntity
  8
0
  6
Continuous
 62
     7
100
AcDbLine
 10
-399.0819091796875
 20
221.5848388671875
 30
0.0
 11
-397.5430908203125
 21
220.0460205078125
 31
0.0
  0
LINE
  5
101
330
22
100
AcDbEntity
  8
0
  6
Continuous
 62
     7
100
AcDbLine
 10
-390.3883972167969
 20
202.5848388671875
 30
0.0
 11
-390.3883972167969
 21
230.5004425048828
 31
0.0
  0
LINE
  5
102
330
22
100
AcDbEntity
  8
0
  6
Continuous
 62
     7
100
AcDbLine
 10
-391.3883972167969
 20
201.5848388671875
 30
0.0
 11
-390.3883972167969
 21
202.5848388671875
 31
0.0
  0
LINE
  5
103
330
22
100
AcDbEntity
  8
0
  6
Continuous
 62
     7
100
AcDbLine
 10
-396.9661254882813
 20
201.5848388671875
 30
0.0
 11
-391.3883972167969
 21
201.5848388671875
 31
0.0
  0
LINE
  5
104
330
22
100
AcDbEntity
  8
0
  6
Continuous
 62
     7
100
AcDbLine
 10
-396.3381042480469
 20
173.6848449707031
 30
0.0
 11
-396.3381042480469
 21
191.2039337158203
 31
0.0
  0
LINE
  5
105
330
22
100
AcDbEntity
  8
0
  6
Continuous
 62
     7
100
AcDbLine
 10
-398.4381103515625
 20
171.5848388671875
 30
0.0
 11
-396.3381042480469
 21
173.6848449707031
 31
0.0
  0
LINE
  5
106
330
22
100
AcDbEntity
  8
0
  6
Continuous
 62
     7
100
AcDbLine
 10
-398.1903381347656
 20
193.0561370849609
 30
0.0
 11
-396.3381042480469
 21
191.2039337158203
 31
0.0
  0
LINE
  5
107
330
22
100
AcDbEntity
  8
0
  6
Continuous
 62
     7
100
AcDbLine
 10
-440.8881225585938
 20
221.5848388671875
 30
0.0
 11
-399.0819091796875
 21
221.5848388671875
 31
0.0
  0
LINE
  5
108
330
22
100
AcDbEntity
  8
0
  6
Continuous
 62
     7
100
AcDbLine
 10
-398.4381103515625
 20
121.5848388671875
 30
0.0
 11
-396.9481201171875
 21
123.074836730957
 31
0.0
  0
LINE
  5
109
330
22
100
AcDbEntity
  8
0
  6
Continuous
 62
     7
100
AcDbLine
 10
-376.1381225585938
 20
105.5848388671875
 30
0.0
 11
-377.1381225585938
 21
106.5848388671875
 31
0.0
  0
LINE
  5
10A
330
22
100
AcDbEntity
  8
0
  6
Continuous
 62
     7
100
AcDbLine
 10
-376.1381225585938
 20
105.5848388671875
 30
0.0
 11
-375.1381225585938
 21
106.5848388671875
 31
0.0
  0
LINE
  5
10B
330
22
100
AcDbEntity
  8
0
  6
Continuous
 62
     7
100
AcDbLine
 10
-396.9481201171875
 20
67.5848388671875
 30
0.0
 11
-398.0241394042969
 21
102.0158386230469
 31
0.0
  0
LINE
  5
10C
330
22
100
AcDbEntity
  8
0
  6
Continuous
 62
     7
100
AcDbLine
 10
-396.9481201171875
 20
67.5848388671875
 30
0.0
 11
-398.471435546875
 21
69.10816955566406
 31
0.0
  0
LINE
  5
10D
330
22
100
AcDbEntity
  8
0
  6
Continuous
 62
     7
100
AcDbLine
 10
-399.4551391601563
 20
100.5848388671875
 30
0.0
 11
-398.0241394042969
 21
102.0158386230469
 31
0.0
  0
LINE
  5
10E
330
22
100
AcDbEntity
  8
0
  6
Continuous
 62
     7
100
AcDbLine
 10
-396.9481201171875
 20
106.5848388671875
 30
0.0
 11
-440.8881225585938
 21
106.5848388671875
 31
0.0
  0
LINE
  5
10F
330
22
100
AcDbEntity
  8
0
  6
Continuous
 62
     7
100
AcDbLine
 10
-398.471435546875
 20
69.10816955566406
 30
0.0
 11
-440.8881225585938
 21
69.10816955566406
 31
0.0
  0
LINE
  5
110
330
22
100
AcDbEntity
  8
0
  6
Continuous
 62
     7
100
AcDbLine
 10
-440.8881225585938
 20
108.0598373413086
 30
0.0
 11
-398.4231262207032
 21
108.0598373413086
 31
0.0
  0
LINE
  5
111
330
22
100
AcDbEntity
  8
0
  6
Continuous
 62
     7
100
AcDbLine
 10
-398.0241394042969
 20
102.0158386230469
 30
0.0
 11
-440.8881225585938
 21
102.0158386230469
 31
0.0
  0
LINE
  5
112
330
22
100
AcDbEntity
  8
0
  6
Continuous
 62
     7
100
AcDbLine
 10
-399.4551391601563
 20
100.5848388671875
 30
0.0
 11
-440.8881225585938
 21
100.5848388671875
 31
0.0
  0
LINE
  5
113
330
22
100
AcDbEntity
  8
0
  6
Continuous
 62
     7
100
AcDbLine
 10
-440.8881225585938
 20
121.5848388671875
 30
0.0
 11
-398.4381103515625
 21
121.5848388671875
 31
0.0
  0
LINE
  5
114
330
22
100
AcDbEntity
  8
0
  6
Continuous
 62
     7
100
AcDbLine
 10
-360.1357116699219
 20
105.5848388671875
 30
0.0
 11
-359.1357116699219
 21
106.5848388671875
 31
0.0
  0
LINE
  5
115
330
22
100
AcDbEntity
  8
0
  6
Continuous
 62
     7
100
AcDbLine
 10
-360.1357116699219
 20
105.5848388671875
 30
0.0
 11
-361.1357116699219
 21
106.5848388671875
 31
0.0
  0
LINE
  5
116
330
22
100
AcDbEntity
  8
0
  6
Continuous
 62
     7
100
AcDbLine
 10
-343.3881225585938
 20
103.5848388671875
 30
0.0
 11
-343.3881225585938
 21
104.5848388671875
 31
0.0
  0
LINE
  5
117
330
22
100
AcDbEntity
  8
0
  6
Continuous
 62
     7
100
AcDbLine
 10
-488.3883972167969
 20
202.5848388671875
 30
0.0
 11
-487.3883972167968
 21
201.5848388671875
 31
0.0
  0
LINE
  5
118
330
22
100
AcDbEntity
  8
0
  6
Continuous
 62
     7
100
AcDbLine
 10
-491.3878479003906
 20
202.5848388671875
 30
0.0
 11
-491.3878479003906
 21
233.3868713378906
 31
0.0
  0
LINE
  5
119
330
22
100
AcDbEntity
  8
0
  6
Continuous
 62
     7
100
AcDbLine
 10
-491.3878479003906
 20
202.5848388671875
 30
0.0
 11
-491.3878479003906
 21
233.3868713378906
 31
0.0
  0
LINE
  5
11A
330
22
100
AcDbEntity
  8
0
  6
Continuous
 62
     7
100
AcDbLine
 10
-462.4410400390624
 20
201.5848388671875
 30
0.0
 11
-462.4410400390624
 21
229.6176910400391
 31
0.0
  0
LINE
  5
11B
330
22
100
AcDbEntity
  8
0
  6
Continuous
 62
     7
100
AcDbLine
 10
-488.3883972167969
 20
202.5848388671875
 30
0.0
 11
-468.6493835449218
 21
202.5848388671875
 31
0.0
  0
LINE
  5
11C
330
22
100
AcDbEntity
  8
0
  6
Continuous
 62
     7
100
AcDbLine
 10
-488.3883972167969
 20
202.5848388671875
 30
0.0
 11
-488.3883972167969
 21
228.7684020996094
 31
0.0
  0
LINE
  5
11D
330
22
100
AcDbEntity
  8
0
  6
Continuous
 62
     7
100
AcDbLine
 10
-468.1539001464844
 20
201.5848388671875
 30
0.0
 11
-468.1539001464844
 21
231.0038452148438
 31
0.0
  0
LINE
  5
11E
330
22
100
AcDbEntity
  8
0
  6
Continuous
 62
     7
100
AcDbLine
 10
-485.1247253417969
 20
191.5173187255859
 30
0.0
 11
-484.8100891113281
 21
201.5848388671875
 31
0.0
  0
LINE
  5
11F
330
22
100
AcDbEntity
  8
0
  6
Continuous
 62
     7
100
AcDbLine
 10
-483.5859069824218
 20
193.0561370849609
 30
0.0
 11
-483.3193664550781
 21
201.5848388671875
 31
0.0
  0
LINE
  5
120
330
22
100
AcDbEntity
  8
0
  6
Continuous
 62
     7
100
AcDbLine
 10
-469.2484436035156
 20
229.6176910400391
 30
0.0
 11
-487.3346862792969
 21
229.6176910400391
 31
0.0
  0
LINE
  5
121
330
22
100
AcDbEntity
  8
0
  6
Continuous
 62
     7
100
AcDbLine
 10
-483.5859069824218
 20
193.0561370849609
 30
0.0
 11
-485.4381103515625
 21
191.2039337158203
 31
0.0
  0
LINE
  5
122
330
22
100
AcDbEntity
  8
0
  6
Continuous
 62
     7
100
AcDbLine
 10
-483.3381042480469
 20
171.5848388671875
 30
0.0
 11
-485.4381103515625
 21
173.6848449707031
 31
0.0
  0
LINE
  5
123
330
22
100
AcDbEntity
  8
0
  6
Continuous
 62
     7
100
AcDbLine
 10
-485.4381103515625
 20
173.6848449707031
 30
0.0
 11
-485.4381103515625
 21
191.2039337158203
 31
0.0
  0
LINE
  5
124
330
22
100
AcDbEntity
  8
0
  6
Continuous
 62
     7
100
AcDbLine
 10
-490.3878479003906
 20
201.5848388671875
 30
0.0
 11
-491.3878479003906
 21
202.5848388671875
 31
0.0
  0
LINE
  5
125
330
22
100
AcDbEntity
  8
0
  6
Continuous
 62
     7
100
AcDbLine
 10
-399.4551391601563
 20
100.5848388671875
 30
0.0
 11
-398.471435546875
 21
69.10816955566406
 31
0.0
  0
LINE
  5
126
330
22
100
AcDbEntity
  8
0
  6
Continuous
 62
     7
100
AcDbLine
 10
-392.3881225585938
 20
102.0848388671875
 30
0.0
 11
-392.3881225585938
 21
68.5848388671875
 31
0.0
  0
LINE
  5
127
330
22
100
AcDbEntity
  8
0
  6
Continuous
 62
     7
100
AcDbLine
 10
-398.4231262207032
 20
108.0598373413086
 30
0.0
 11
-396.9481201171875
 21
106.5848388671875
 31
0.0
  0
LINE
  5
128
330
22
100
AcDbEntity
  8
0
  6
Continuous
 62
     7
100
AcDbLine
 10
-398.0241394042969
 20
102.0158386230469
 30
0.0
 11
-398.0241394042969
 21
106.5848388671875
 31
0.0
  0
LINE
  5
129
330
22
100
AcDbEntity
  8
0
  6
Continuous
 62
     7
100
AcDbLine
 10
-538.3881225585938
 20
103.5848388671875
 30
0.0
 11
-538.3881225585938
 21
104.5848388671875
 31
0.0
  0
LINE
  5
12A
330
22
100
AcDbEntity
  8
0
  6
Continuous
 62
     7
100
AcDbLine
 10
-489.3881225585937
 20
75.38704681396485
 30
0.0
 11
-489.3881225585937
 21
70.37901306152344
 31
0.0
  0
LINE
  5
12B
330
22
100
AcDbEntity
  8
0
  6
Continuous
 62
     7
100
AcDbLine
 10
-506.3881225585937
 20
103.0848388671875
 30
0.0
 11
-506.3881225585937
 21
101.6082458496094
 31
0.0
  0
LINE
  5
12C
330
22
100
AcDbEntity
  8
0
  6
Continuous
 62
     7
100
AcDbLine
 10
-489.3881225585937
 20
83.0848388671875
 30
0.0
 11
-491.3881225585938
 21
83.0848388671875
 31
0.0
  0
LINE
  5
12D
330
22
100
AcDbEntity
  8
0
  6
Continuous
 62
     7
100
AcDbLine
 10
-493.3881225585937
 20
85.0848388671875
 30
0.0
 11
-493.3881225585937
 21
86.08483886718749
 31
0.0
  0
LINE
  5
12E
330
22
100
AcDbEntity
  8
0
  6
Continuous
 62
     7
100
AcDbLine
 10
-489.3881225585937
 20
102.0848388671875
 30
0.0
 11
-489.3881225585937
 21
68.5848388671875
 31
0.0
  0
LINE
  5
12F
330
22
100
AcDbEntity
  8
0
  6
Continuous
 62
     7
100
AcDbLine
 10
-484.828125
 20
141.5848388671875
 30
0.0
 11
-484.828125
 21
173.0748443603516
 31
0.0
  0
LINE
  5
130
330
22
100
AcDbEntity
  8
0
  6
Continuous
 62
     7
100
AcDbLine
 10
-483.3381042480469
 20
141.5848388671875
 30
0.0
 11
-483.3381042480469
 21
171.5848388671875
 31
0.0
  0
LINE
  5
131
330
22
100
AcDbEntity
  8
0
  6
Continuous
 62
     7
100
AcDbLine
 10
-339.8883972167969
 20
275.5848388671875
 30
0.0
 11
-440.8883972167968
 21
275.5848388671875
 31
0.0
  0
LINE
  5
132
330
22
100
AcDbEntity
  8
0
  6
Continuous
 62
     7
100
AcDbLine
 10
-536.3881225585938
 20
106.5848388671875
 30
0.0
 11
-493.3881225585937
 21
106.5848388671875
 31
0.0
  0
LINE
  5
133
330
22
100
AcDbEntity
  8
0
  6
Continuous
 62
     7
100
AcDbLine
 10
-546.3883666992188
 20
265.1414489746094
 30
0.0
 11
-490.8883972167968
 21
233.0985260009766
 31
0.0
  0
LINE
  5
134
330
22
100
AcDbEntity
  8
0
  6
Continuous
 62
     7
100
AcDbLine
 10
-391.3881225585938
 20
103.0848388671875
 30
0.0
 11
-343.8881225585938
 21
103.0848388671875
 31
0.0
  0
LINE
  5
135
330
22
100
AcDbEntity
  8
0
  6
Continuous
 62
     7
100
AcDbLine
 10
-388.3881225585938
 20
106.5848388671875
 30
0.0
 11
-345.3881225585938
 21
106.5848388671875
 31
0.0
  0
LINE
  5
136
330
22
100
AcDbEntity
  8
0
  6
Continuous
 62
     7
100
AcDbLine
 10
-341.8883972167969
 20
264.852783203125
 30
0.0
 11
-399.3883972167969
 21
231.6551513671875
 31
0.0
  0
LINE
  5
137
330
22
100
AcDbEntity
  8
0
  6
Continuous
 62
     7
100
AcDbLine
 10
-335.3883972167969
 20
265.1414489746094
 30
0.0
 11
-387.8883972167969
 21
234.8305816650391
 31
0.0
  0
LINE
  5
138
330
22
100
AcDbEntity
  8
0
  6
Continuous
 62
     7
100
AcDbLine
 10
-396.9481201171875
 20
141.5848388671875
 30
0.0
 11
-396.9481201171875
 21
106.5848388671875
 31
0.0
  0
LINE
  5
139
330
22
100
AcDbEntity
  8
0
  6
Continuous
 62
     7
100
AcDbLine
 10
-548.8883666992188
 20
274.5848388671875
 30
0.0
 11
-440.8883972167968
 21
274.5848388671875
 31
0.0
  0
LINE
  5
13A
330
22
100
AcDbEntity
  8
0
  6
Continuous
 62
     7
100
AcDbLine
 10
-554.8883666992188
 20
278.5848388671875
 30
0.0
 11
-326.8883972167969
 21
278.5848388671875
 31
0.0
  0
LINE
  5
13B
330
22
100
AcDbEntity
  8
0
  6
Continuous
 62
     7
100
AcDbLine
 10
-488.3881225585938
 20
111.5848388671875
 30
0.0
 11
-488.3881225585938
 21
140.5848388671875
 31
0.0
  0
LINE
  5
13C
330
22
100
AcDbEntity
  8
0
  6
Continuous
 62
     7
100
AcDbLine
 10
-396.9481201171875
 20
123.074836730957
 30
0.0
 11
-396.9481201171875
 21
173.0748443603516
 31
0.0
  0
LINE
  5
13D
330
22
100
AcDbEntity
  8
0
  6
Continuous
 62
     7
100
AcDbLine
 10
-398.4381103515625
 20
121.5848388671875
 30
0.0
 11
-398.4381103515625
 21
171.5848388671875
 31
0.0
  0
LINE
  5
13E
330
22
100
AcDbEntity
  8
0
  6
Continuous
 62
     7
100
AcDbLine
 10
-421.8428649902343
 20
221.5848388671875
 30
0.0
 11
-415.663116455078
 21
221.5848388671875
 31
0.0
  0
LINE
  5
13F
330
22
100
AcDbEntity
  8
0
  6
Continuous
 62
     7
100
AcDbLine
 10
-400.3381042480468
 20
218.6678466796875
 30
0.0
 11
-399.0315551757813
 21
219.9743957519531
 31
0.0
  0
LINE
  5
140
330
22
100
AcDbEntity
  8
0
  6
Continuous
 62
     7
100
AcDbLine
 10
-400.3381042480468
 20
215.1323089599609
 30
0.0
 11
-398.9244384765625
 21
216.5459899902344
 31
0.0
  0
LINE
  5
141
330
22
100
AcDbEntity
  8
0
  6
Continuous
 62
     7
100
AcDbLine
 10
-400.3381042480468
 20
211.5967712402344
 30
0.0
 11
-398.8172912597656
 21
213.1175994873047
 31
0.0
  0
LINE
  5
142
330
22
100
AcDbEntity
  8
0
  6
Continuous
 62
     7
100
AcDbLine
 10
-400.3381042480468
 20
208.0612335205078
 30
0.0
 11
-398.7101440429688
 21
209.689208984375
 31
0.0
  0
LINE
  5
143
330
22
100
AcDbEntity
  8
0
  6
Continuous
 62
     7
100
AcDbLine
 10
-400.3381042480468
 20
204.5257110595703
 30
0.0
 11
-398.6029968261719
 21
206.2608184814453
 31
0.0
  0
LINE
  5
144
330
22
100
AcDbEntity
  8
0
  6
Continuous
 62
     7
100
AcDbLine
 10
-400.3381042480468
 20
200.9901733398439
 30
0.0
 11
-398.495849609375
 21
202.8324279785156
 31
0.0
  0
LINE
  5
145
330
22
100
AcDbEntity
  8
0
  6
Continuous
 62
     7
100
AcDbLine
 10
-400.3381042480468
 20
197.4546356201172
 30
0.0
 11
-398.3887023925781
 21
199.4040374755859
 31
0.0
  0
LINE
  5
146
330
22
100
AcDbEntity
  8
0
  6
Continuous
 62
     7
100
AcDbLine
 10
-400.3381042480468
 20
193.9190979003906
 30
0.0
 11
-398.2815856933594
 21
195.9756469726563
 31
0.0
  0
LINE
  5
147
330
22
100
AcDbEntity
  8
0
  6
Continuous
 62
     7
100
AcDbLine
 10
-400.3381042480468
 20
190.3835754394531
 30
0.0
 11
-397.9279479980469
 21
192.7937469482422
 31
0.0
  0
LINE
  5
148
330
22
100
AcDbEntity
  8
0
  6
Continuous
 62
     7
100
AcDbLine
 10
-400.3381042480468
 20
186.8480377197266
 30
0.0
 11
-396.3381042480469
 21
190.8480377197266
 31
0.0
  0
LINE
  5
149
330
22
100
AcDbEntity
  8
0
  6
Continuous
 62
     7
100
AcDbLine
 10
-400.3381042480468
 20
183.3125
 30
0.0
 11
-396.3381042480469
 21
187.3125
 31
0.0
  0
LINE
  5
14A
330
22
100
AcDbEntity
  8
0
  6
Continuous
 62
     7
100
AcDbLine
 10
-400.3381042480468
 20
179.7769622802734
 30
0.0
 11
-396.3381042480469
 21
183.7769622802734
 31
0.0
  0
LINE
  5
14B
330
22
100
AcDbEntity
  8
0
  6
Continuous
 62
     7
100
AcDbLine
 10
-400.3381042480468
 20
176.2414398193359
 30
0.0
 11
-396.3381042480469
 21
180.2414398193359
 31
0.0
  0
LINE
  5
14C
330
22
100
AcDbEntity
  8
0
  6
Continuous
 62
     7
100
AcDbLine
 10
-400.3381042480468
 20
172.7059020996094
 30
0.0
 11
-396.3381042480469
 21
176.7059020996094
 31
0.0
  0
LINE
  5
14D
330
22
100
AcDbEntity
  8
0
  6
Continuous
 62
     7
100
AcDbLine
 10
-400.3381042480468
 20
169.1703643798828
 30
0.0
 11
-398.4381103515625
 21
171.0703735351563
 31
0.0
  0
LINE
  5
14E
330
22
100
AcDbEntity
  8
0
  6
Continuous
 62
     7
100
AcDbLine
 10
-400.3381042480468
 20
165.6348266601563
 30
0.0
 11
-398.4381103515625
 21
167.5348358154297
 31
0.0
  0
LINE
  5
14F
330
22
100
AcDbEntity
  8
0
  6
Continuous
 62
     7
100
AcDbLine
 10
-400.3381042480468
 20
162.0993041992188
 30
0.0
 11
-398.4381103515625
 21
163.9992980957031
 31
0.0
  0
LINE
  5
150
330
22
100
AcDbEntity
  8
0
  6
Continuous
 62
     7
100
AcDbLine
 10
-400.3381042480468
 20
158.5637664794922
 30
0.0
 11
-398.4381103515625
 21
160.4637603759766
 31
0.0
  0
LINE
  5
151
330
22
100
AcDbEntity
  8
0
  6
Continuous
 62
     7
100
AcDbLine
 10
-400.3381042480468
 20
151.4926910400391
 30
0.0
 11
-398.4381103515625
 21
153.3927001953125
 31
0.0
  0
LINE
  5
152
330
22
100
AcDbEntity
  8
0
  6
Continuous
 62
     7
100
AcDbLine
 10
-400.3381042480468
 20
147.9571685791016
 30
0.0
 11
-398.4381103515625
 21
149.8571624755859
 31
0.0
  0
LINE
  5
153
330
22
100
AcDbEntity
  8
0
  6
Continuous
 62
     7
100
AcDbLine
 10
-400.3381042480468
 20
144.421630859375
 30
0.0
 11
-398.4381103515625
 21
146.3216247558594
 31
0.0
  0
LINE
  5
154
330
22
100
AcDbEntity
  8
0
  6
Continuous
 62
     7
100
AcDbLine
 10
-400.3381042480468
 20
140.8860931396484
 30
0.0
 11
-398.4381103515625
 21
142.7861022949219
 31
0.0
  0
LINE
  5
155
330
22
100
AcDbEntity
  8
0
  6
Continuous
 62
     7
100
AcDbLine
 10
-400.3381042480468
 20
137.3505554199219
 30
0.0
 11
-398.4381103515625
 21
139.2505645751953
 31
0.0
  0
LINE
  5
156
330
22
100
AcDbEntity
  8
0
  6
Continuous
 62
     7
100
AcDbLine
 10
-400.3381042480468
 20
133.8150329589844
 30
0.0
 11
-398.4381103515625
 21
135.7150268554688
 31
0.0
  0
LINE
  5
157
330
22
100
AcDbEntity
  8
0
  6
Continuous
 62
     7
100
AcDbLine
 10
-400.3381042480468
 20
130.2794952392578
 30
0.0
 11
-398.4381103515625
 21
132.1794891357422
 31
0.0
  0
LINE
  5
158
330
22
100
AcDbEntity
  8
0
  6
Continuous
 62
     7
100
AcDbLine
 10
-400.3381042480468
 20
126.7439575195313
 30
0.0
 11
-398.4381103515625
 21
128.6439666748047
 31
0.0
  0
LINE
  5
159
330
22
100
AcDbEntity
  8
0
  6
Continuous
 62
     7
100
AcDbLine
 10
-400.3381042480468
 20
123.2084274291992
 30
0.0
 11
-398.4381103515625
 21
125.108428955078
 31
0.0
  0
LINE
  5
15A
330
22
100
AcDbEntity
  8
0
  6
Continuous
 62
     7
100
AcDbLine
 10
-400.3381042480468
 20
121.5848388671875
 30
0.0
 11
-400.3381042480468
 21
221.5848388671875
 31
0.0
  0
LINE
  5
15B
330
22
100
AcDbEntity
  8
0
  6
Continuous
 62
     7
100
AcDbLine
 10
-366.8881225585938
 20
106.5848388671875
 30
0.0
 11
-358.8652038574219
 21
106.5848388671875
 31
0.0
  0
LINE
  5
15C
330
22
100
AcDbEntity
  8
0
  6
Continuous
 62
     7
100
AcDbLine
 10
-396.9481201171875
 20
138.900390625
 30
0.0
 11
-394.2843017578125
 21
141.5641937255859
 31
0.0
  0
LINE
  5
15D
330
22
100
AcDbEntity
  8
0
  6
Continuous
 62
     7
100
AcDbLine
 10
-396.9481201171875
 20
134.6577606201172
 30
0.0
 11
-393.3881225585938
 21
138.2177581787109
 31
0.0
  0
LINE
  5
15E
330
22
100
AcDbEntity
  8
0
  6
Continuous
 62
     7
100
AcDbLine
 10
-396.9481201171875
 20
130.4151153564452
 30
0.0
 11
-393.3881225585938
 21
133.9751129150391
 31
0.0
  0
LINE
  5
15F
330
22
100
AcDbEntity
  8
0
  6
Continuous
 62
     7
100
AcDbLine
 10
-396.9481201171875
 20
126.1724700927734
 30
0.0
 11
-393.3881225585938
 21
129.7324676513672
 31
0.0
  0
LINE
  5
160
330
22
100
AcDbEntity
  8
0
  6
Continuous
 62
     7
100
AcDbLine
 10
-396.9481201171875
 20
121.9298324584961
 30
0.0
 11
-393.3881225585938
 21
125.4898300170898
 31
0.0
  0
LINE
  5
161
330
22
100
AcDbEntity
  8
0
  6
Continuous
 62
     7
100
AcDbLine
 10
-396.9481201171875
 20
117.6871871948242
 30
0.0
 11
-393.3881225585938
 21
121.2471923828125
 31
0.0
  0
LINE
  5
162
330
22
100
AcDbEntity
  8
0
  6
Continuous
 62
     7
100
AcDbLine
 10
-396.9481201171875
 20
113.4445495605469
 30
0.0
 11
-393.3881225585938
 21
117.0045471191406
 31
0.0
  0
LINE
  5
163
330
22
100
AcDbEntity
  8
0
  6
Continuous
 62
     7
100
AcDbLine
 10
-396.9481201171875
 20
109.2019119262695
 30
0.0
 11
-393.3881225585938
 21
112.7619094848633
 31
0.0
  0
LINE
  5
164
330
22
100
AcDbEntity
  8
0
  6
Continuous
 62
     7
100
AcDbLine
 10
-397.4488830566406
 20
104.4585037231445
 30
0.0
 11
-392.73876953125
 21
109.1686248779297
 31
0.0
  0
LINE
  5
165
330
22
100
AcDbEntity
  8
0
  6
Continuous
 62
     7
100
AcDbLine
 10
-397.9521484375
 20
99.71258544921877
 30
0.0
 11
-390.5607604980469
 21
107.1039962768555
 31
0.0
  0
LINE
  5
166
330
22
100
AcDbEntity
  8
0
  6
Continuous
 62
     7
100
AcDbLine
 10
-390.3372497558594
 20
103.0848388671875
 30
0.0
 11
-386.8372497558594
 21
106.5848388671875
 31
0.0
  0
LINE
  5
167
330
22
100
AcDbEntity
  8
0
  6
Continuous
 62
     7
100
AcDbLine
 10
-397.8235778808594
 20
95.59851837158204
 30
0.0
 11
-392.3881225585938
 21
101.0339889526367
 31
0.0
  0
LINE
  5
168
330
22
100
AcDbEntity
  8
0
  6
Continuous
 62
     7
100
AcDbLine
 10
-386.0946350097656
 20
103.0848388671875
 30
0.0
 11
-382.5946350097656
 21
106.5848388671875
 31
0.0
  0
LINE
  5
169
330
22
100
AcDbEntity
  8
0
  6
Continuous
 62
     7
100
AcDbLine
 10
-397.6950073242188
 20
91.48444366455079
 30
0.0
 11
-392.3881225585938
 21
96.79134368896484
 31
0.0
  0
LINE
  5
16A
330
22
100
AcDbEntity
  8
0
  6
Continuous
 62
     7
100
AcDbLine
 10
-381.8519897460938
 20
103.0848388671875
 30
0.0
 11
-378.3519897460938
 21
106.5848388671875
 31
0.0
  0
LINE
  5
16B
330
22
100
AcDbEntity
  8
0
  6
Continuous
 62
     7
100
AcDbLine
 10
-397.5664367675781
 20
87.37037658691406
 30
0.0
 11
-392.3881225585938
 21
92.54870605468751
 31
0.0
  0
LINE
  5
16C
330
22
100
AcDbEntity
  8
0
  6
Continuous
 62
     7
100
AcDbLine
 10
-377.6093444824219
 20
103.0848388671875
 30
0.0
 11
-374.1093444824219
 21
106.5848388671875
 31
0.0
  0
LINE
  5
16D
330
22
100
AcDbEntity
  8
0
  6
Continuous
 62
     7
100
AcDbLine
 10
-397.4378662109375
 20
83.25630950927735
 30
0.0
 11
-392.3881225585938
 21
88.30606842041015
 31
0.0
  0
LINE
  5
16E
330
22
100
AcDbEntity
  8
0
  6
Continuous
 62
     7
100
AcDbLine
 10
-373.36669921875
 20
103.0848388671875
 30
0.0
 11
-369.86669921875
 21
106.5848388671875
 31
0.0
  0
LINE
  5
16F
330
22
100
AcDbEntity
  8
0
  6
Continuous
 62
     7
100
AcDbLine
 10
-397.3092956542969
 20
79.1422348022461
 30
0.0
 11
-392.3881225585938
 21
84.06342315673828
 31
0.0
  0
LINE
  5
170
330
22
100
AcDbEntity
  8
0
  6
Continuous
 62
     7
100
AcDbLine
 10
-369.1240539550781
 20
103.0848388671875
 30
0.0
 11
-365.6240539550781
 21
106.5848388671875
 31
0.0
  0
LINE
  5
171
330
22
100
AcDbEntity
  8
0
  6
Continuous
 62
     7
100
AcDbLine
 10
-397.1807250976563
 20
75.02816772460938
 30
0.0
 11
-392.3881225585938
 21
79.82078552246093
 31
0.0
  0
LINE
  5
172
330
22
100
AcDbEntity
  8
0
  6
Continuous
 62
     7
100
AcDbLine
 10
-364.8814086914063
 20
103.0848388671875
 30
0.0
 11
-361.3814086914063
 21
106.5848388671875
 31
0.0
  0
LINE
  5
173
330
22
100
AcDbEntity
  8
0
  6
Continuous
 62
     7
100
AcDbLine
 10
-397.0521545410156
 20
70.91410064697265
 30
0.0
 11
-392.3881225585938
 21
75.57814025878906
 31
0.0
  0
LINE
  5
174
330
22
100
AcDbEntity
  8
0
  6
Continuous
 62
     7
100
AcDbLine
 10
-360.6387634277344
 20
103.0848388671875
 30
0.0
 11
-357.1387634277344
 21
106.5848388671875
 31
0.0
  0
LINE
  5
175
330
22
100
AcDbEntity
  8
0
  6
Continuous
 62
     7
100
AcDbLine
 10
-396.1387634277344
 20
67.5848388671875
 30
0.0
 11
-392.3881225585938
 21
71.33550262451172
 31
0.0
  0
LINE
  5
176
330
22
100
AcDbEntity
  8
0
  6
Continuous
 62
     7
100
AcDbLine
 10
-356.3961486816406
 20
103.0848388671875
 30
0.0
 11
-352.8961486816406
 21
106.5848388671875
 31
0.0
  0
LINE
  5
177
330
22
100
AcDbEntity
  8
0
  6
Continuous
 62
     7
100
AcDbLine
 10
-352.1535034179688
 20
103.0848388671875
 30
0.0
 11
-348.6535034179688
 21
106.5848388671875
 31
0.0
  0
LINE
  5
178
330
22
100
AcDbEntity
  8
0
  6
Continuous
 62
     7
100
AcDbLine
 10
-347.9108581542969
 20
103.0848388671875
 30
0.0
 11
-344.5869750976563
 21
106.4087066650391
 31
0.0
  0
LINE
  5
179
330
22
100
AcDbEntity
  8
0
  6
Continuous
 62
     7
100
AcDbLine
 10
-393.3881225585938
 20
111.5848388671875
 30
0.0
 11
-393.3881225585938
 21
140.5848388671875
 31
0.0
  0
LINE
  5
17A
330
22
100
AcDbEntity
  8
0
  6
Continuous
 62
     7
100
AcDbLine
 10
-398.4231262207032
 20
140.1098327636719
 30
0.0
 11
-398.4231262207032
 21
108.0598373413086
 31
0.0
  0
LINE
  5
17B
330
22
100
AcDbEntity
  8
0
  6
Continuous
 62
     7
100
AcDbLine
 10
-489.0582580566406
 20
232.3091583251953
 30
0.0
 11
-440.8883972167968
 21
232.3091583251953
 31
0.0
  0
LINE
  5
17C
330
22
100
AcDbEntity
  8
0
  6
Continuous
 62
     7
100
AcDbLine
 10
-462.0445861816405
 20
202.5848388671875
 30
0.0
 11
-440.8883972167968
 21
202.5848388671875
 31
0.0
  0
LINE
  5
17D
330
22
100
AcDbEntity
  8
0
  6
Continuous
 62
     7
100
AcDbLine
 10
-461.5755310058593
 20
229.6176910400391
 30
0.0
 11
-440.8883972167968
 21
229.6176910400391
 31
0.0
  0
LINE
  5
17E
330
22
100
AcDbEntity
  8
0
  6
Continuous
 62
     7
100
AcDbLine
 10
-490.3878479003906
 20
201.5848388671875
 30
0.0
 11
-440.8881225585938
 21
201.5848388671875
 31
0.0
  0
LINE
  5
17F
330
22
100
AcDbEntity
  8
0
  6
Continuous
 62
     7
100
AcDbLine
 10
-483.3381042480469
 20
171.5848388671875
 30
0.0
 11
-440.8881225585938
 21
171.5848388671875
 31
0.0
  0
LINE
  5
180
330
22
100
AcDbEntity
  8
0
  6
Continuous
 62
     7
100
AcDbLine
 10
-483.5859069824218
 20
193.0561370849609
 30
0.0
 11
-440.8881225585938
 21
193.0561370849609
 31
0.0
  0
LINE
  5
181
330
22
100
AcDbEntity
  8
0
  6
Continuous
 62
     7
100
AcDbLine
 10
-487.3881225585938
 20
141.5848388671875
 30
0.0
 11
-440.8881225585938
 21
141.5848388671875
 31
0.0
  0
LINE
  5
182
330
22
100
AcDbEntity
  8
0
  6
Continuous
 62
     7
100
AcDbLine
 10
-488.3881225585938
 20
67.5848388671875
 30
0.0
 11
-393.3881225585938
 21
67.5848388671875
 31
0.0
  0
LINE
  5
183
330
22
100
AcDbEntity
  8
0
  6
Continuous
 62
     7
100
AcDbLine
 10
-327.041015625
 20
278.5848388671875
 30
0.0
 11
-325.8883972167969
 21
277.4322204589844
 31
0.0
  0
LINE
  5
184
330
22
100
AcDbEntity
  8
0
  6
Continuous
 62
     7
100
AcDbLine
 10
-327.5713500976563
 20
278.5848388671875
 30
0.0
 11
-325.8883972167969
 21
276.9018859863281
 31
0.0
  0
LINE
  5
185
330
22
100
AcDbEntity
  8
0
  6
Continuous
 62
     7
100
AcDbLine
 10
-329.1623229980469
 20
278.5848388671875
 30
0.0
 11
-325.933837890625
 21
275.3563537597656
 31
0.0
  0
LINE
  5
186
330
22
100
AcDbEntity
  8
0
  6
Continuous
 62
     7
100
AcDbLine
 10
-329.6926574707031
 20
278.5848388671875
 30
0.0
 11
-326.1028747558594
 21
274.9950561523438
 31
0.0
  0
LINE
  5
187
330
22
100
AcDbEntity
  8
0
  6
Continuous
 62
     7
100
AcDbLine
 10
-331.2836608886719
 20
278.5848388671875
 30
0.0
 11
-327.2836608886719
 21
274.5848388671875
 31
0.0
  0
LINE
  5
188
330
22
100
AcDbEntity
  8
0
  6
Continuous
 62
     7
100
AcDbLine
 10
-331.81396484375
 20
278.5848388671875
 30
0.0
 11
-327.81396484375
 21
274.5848388671875
 31
0.0
  0
LINE
  5
189
330
22
100
AcDbEntity
  8
0
  6
Continuous
 62
     7
100
AcDbLine
 10
-333.4049682617188
 20
278.5848388671875
 30
0.0
 11
-329.4049682617188
 21
274.5848388671875
 31
0.0
  0
LINE
  5
18A
330
22
100
AcDbEntity
  8
0
  6
Continuous
 62
     7
100
AcDbLine
 10
-333.935302734375
 20
278.5848388671875
 30
0.0
 11
-329.935302734375
 21
274.5848388671875
 31
0.0
  0
LINE
  5
18B
330
22
100
AcDbEntity
  8
0
  6
Continuous
 62
     7
100
AcDbLine
 10
-335.5262756347656
 20
278.5848388671875
 30
0.0
 11
-331.5262756347656
 21
274.5848388671875
 31
0.0
  0
LINE
  5
18C
330
22
100
AcDbEntity
  8
0
  6
Continuous
 62
     7
100
AcDbLine
 10
-335.8883972167969
 20
278.4166259765625
 30
0.0
 11
-332.0287170410156
 21
274.5569152832031
 31
0.0
  0
LINE
  5
18D
330
22
100
AcDbEntity
  8
0
  6
Continuous
 62
     7
100
AcDbLine
 10
-335.8883972167969
 20
276.8256225585938
 30
0.0
 11
-332.8484497070313
 21
273.7856750488281
 31
0.0
  0
LINE
  5
18E
330
22
100
AcDbEntity
  8
0
  6
Continuous
 62
     7
100
AcDbLine
 10
-335.8883972167969
 20
276.2952880859375
 30
0.0
 11
-332.8883972167969
 21
273.2952880859375
 31
0.0
  0
LINE
  5
18F
330
22
100
AcDbEntity
  8
0
  6
Continuous
 62
     7
100
AcDbLine
 10
-335.8883972167969
 20
274.7043151855469
 30
0.0
 11
-332.8883972167969
 21
271.7043151855469
 31
0.0
  0
LINE
  5
190
330
22
100
AcDbEntity
  8
0
  6
Continuous
 62
     7
100
AcDbLine
 10
-335.8883972167969
 20
274.1739807128906
 30
0.0
 11
-332.8883972167969
 21
271.1739807128906
 31
0.0
  0
LINE
  5
191
330
22
100
AcDbEntity
  8
0
  6
Continuous
 62
     7
100
AcDbLine
 10
-336.8902587890625
 20
273.5848388671875
 30
0.0
 11
-332.8883972167969
 21
269.5829772949219
 31
0.0
  0
LINE
  5
192
330
22
100
AcDbEntity
  8
0
  6
Continuous
 62
     7
100
AcDbLine
 10
-337.4205932617188
 20
273.5848388671875
 30
0.0
 11
-332.9147338867188
 21
269.0789794921875
 31
0.0
  0
LINE
  5
193
330
22
100
AcDbEntity
  8
0
  6
Continuous
 62
     7
100
AcDbLine
 10
-339.0115661621094
 20
273.5848388671875
 30
0.0
 11
-333.2082824707031
 21
267.7815246582031
 31
0.0
  0
LINE
  5
194
330
22
100
AcDbEntity
  8
0
  6
Continuous
 62
     7
100
AcDbLine
 10
-339.3883972167969
 20
273.4313354492188
 30
0.0
 11
-333.3494262695313
 21
267.3923645019531
 31
0.0
  0
LINE
  5
195
330
22
100
AcDbEntity
  8
0
  6
Continuous
 62
     7
100
AcDbLine
 10
-339.3883972167969
 20
271.84033203125
 30
0.0
 11
-333.9514465332031
 21
266.4033813476563
 31
0.0
  0
LINE
  5
196
330
22
100
AcDbEntity
  8
0
  6
Continuous
 62
     7
100
AcDbLine
 10
-339.3883972167969
 20
271.3100280761719
 30
0.0
 11
-334.2047119140625
 21
266.1263427734375
 31
0.0
  0
LINE
  5
197
330
22
100
AcDbEntity
  8
0
  6
Continuous
 62
     7
100
AcDbLine
 10
-339.3883972167969
 20
269.7190246582031
 30
0.0
 11
-335.051025390625
 21
265.3816528320313
 31
0.0
  0
LINE
  5
198
330
22
100
AcDbEntity
  8
0
  6
Continuous
 62
     7
100
AcDbLine
 10
-339.388427734375
 20
269.188720703125
 30
0.0
 11
-335.3586120605469
 21
265.1589050292969
 31
0.0
  0
LINE
  5
199
330
22
100
AcDbEntity
  8
0
  6
Continuous
 62
     7
100
AcDbLine
 10
-339.6036376953125
 20
267.8129577636719
 30
0.0
 11
-336.3670959472656
 21
264.576416015625
 31
0.0
  0
LINE
  5
19A
330
22
100
AcDbEntity
  8
0
  6
Continuous
 62
     7
100
AcDbLine
 10
-339.7288513183594
 20
267.4078369140625
 30
0.0
 11
-336.7033081054688
 21
264.3822937011719
 31
0.0
  0
LINE
  5
19B
330
22
100
AcDbEntity
  8
0
  6
Continuous
 62
     7
100
AcDbLine
 10
-340.2681884765625
 20
266.3561706542969
 30
0.0
 11
-337.7119750976563
 21
263.7999572753906
 31
0.0
  0
LINE
  5
19C
330
22
100
AcDbEntity
  8
0
  6
Continuous
 62
     7
100
AcDbLine
 10
-340.5086364746094
 20
266.0662841796875
 30
0.0
 11
-338.0481872558594
 21
263.6058349609375
 31
0.0
  0
LINE
  5
19D
330
22
100
AcDbEntity
  8
0
  6
Continuous
 62
     7
100
AcDbLine
 10
-341.307861328125
 20
265.2745361328125
 30
0.0
 11
-339.0568237304688
 21
263.0234985351563
 31
0.0
  0
LINE
  5
19E
330
22
100
AcDbEntity
  8
0
  6
Continuous
 62
     7
100
AcDbLine
 10
-341.6005554199219
 20
265.0368957519531
 30
0.0
 11
-339.3930358886719
 21
262.8293762207031
 31
0.0
  0
LINE
  5
19F
330
22
100
AcDbEntity
  8
0
  6
Continuous
 62
     7
100
AcDbLine
 10
-342.5978393554688
 20
264.4431762695313
 30
0.0
 11
-340.4017028808594
 21
262.2470397949219
 31
0.0
  0
LINE
  5
1A0
330
22
100
AcDbEntity
  8
0
  6
Continuous
 62
     7
100
AcDbLine
 10
-342.9340515136719
 20
264.2490844726563
 30
0.0
 11
-340.7379150390625
 21
262.0529174804688
 31
0.0
  0
LINE
  5
1A1
330
22
100
AcDbEntity
  8
0
  6
Continuous
 62
     7
100
AcDbLine
 10
-343.9427185058594
 20
263.666717529297
 30
0.0
 11
-341.7465515136719
 21
261.4705810546875
 31
0.0
  0
LINE
  5
1A2
330
22
100
AcDbEntity
  8
0
  6
Continuous
 62
     7
100
AcDbLine
 10
-344.2789306640625
 20
263.4726257324219
 30
0.0
 11
-342.082763671875
 21
261.2764587402344
 31
0.0
  0
LINE
  5
1A3
330
22
100
AcDbEntity
  8
0
  6
Continuous
 62
     7
100
AcDbLine
 10
-345.2875671386719
 20
262.8902893066406
 30
0.0
 11
-343.0914306640625
 21
260.6941223144531
 31
0.0
  0
LINE
  5
1A4
330
22
100
AcDbEntity
  8
0
  6
Continuous
 62
     7
100
AcDbLine
 10
-345.623779296875
 20
262.6961669921875
 30
0.0
 11
-343.4276428222656
 21
260.5
 31
0.0
  0
LINE
  5
1A5
330
22
100
AcDbEntity
  8
0
  6
Continuous
 62
     7
100
AcDbLine
 10
-346.6324462890625
 20
262.1138305664063
 30
0.0
 11
-344.436279296875
 21
259.9176635742188
 31
0.0
  0
LINE
  5
1A6
330
22
100
AcDbEntity
  8
0
  6
Continuous
 62
     7
100
AcDbLine
 10
-346.9686584472656
 20
261.919708251953
 30
0.0
 11
-344.7724914550781
 21
259.7235412597656
 31
0.0
  0
LINE
  5
1A7
330
22
100
AcDbEntity
  8
0
  6
Continuous
 62
     7
100
AcDbLine
 10
-347.977294921875
 20
261.3373718261719
 30
0.0
 11
-345.7811279296875
 21
259.1412048339844
 31
0.0
  0
LINE
  5
1A8
330
22
100
AcDbEntity
  8
0
  6
Continuous
 62
     7
100
AcDbLine
 10
-348.3135070800781
 20
261.1432495117188
 30
0.0
 11
-346.1173706054688
 21
258.9470825195313
 31
0.0
  0
LINE
  5
1A9
330
22
100
AcDbEntity
  8
0
  6
Continuous
 62
     7
100
AcDbLine
 10
-349.3221435546875
 20
260.5609130859375
 30
0.0
 11
-347.1260070800781
 21
258.36474609375
 31
0.0
  0
LINE
  5
1AA
330
22
100
AcDbEntity
  8
0
  6
Continuous
 62
     7
100
AcDbLine
 10
-349.6583862304688
 20
260.3667907714844
 30
0.0
 11
-347.4622192382813
 21
258.1706237792969
 31
0.0
  0
LINE
  5
1AB
330
22
100
AcDbEntity
  8
0
  6
Continuous
 62
     7
100
AcDbLine
 10
-350.6670227050781
 20
259.7844543457031
 30
0.0
 11
-348.4708557128906
 21
257.5882873535156
 31
0.0
  0
LINE
  5
1AC
330
22
100
AcDbEntity
  8
0
  6
Continuous
 62
     7
100
AcDbLine
 10
-351.0032348632813
 20
259.59033203125
 30
0.0
 11
-348.8070983886719
 21
257.3941650390625
 31
0.0
  0
LINE
  5
1AD
330
22
100
AcDbEntity
  8
0
  6
Continuous
 62
     7
100
AcDbLine
 10
-352.0118713378906
 20
259.0079956054688
 30
0.0
 11
-349.8157348632813
 21
256.8118286132813
 31
0.0
  0
LINE
  5
1AE
330
22
100
AcDbEntity
  8
0
  6
Continuous
 62
     7
100
AcDbLine
 10
-352.3481140136719
 20
258.8138732910156
 30
0.0
 11
-350.1519470214844
 21
256.6177368164063
 31
0.0
  0
LINE
  5
1AF
330
22
100
AcDbEntity
  8
0
  6
Continuous
 62
     7
100
AcDbLine
 10
-353.3567504882813
 20
258.2315368652345
 30
0.0
 11
-351.1605834960938
 21
256.035369873047
 31
0.0
  0
LINE
  5
1B0
330
22
100
AcDbEntity
  8
0
  6
Continuous
 62
     7
100
AcDbLine
 10
-353.6929626464844
 20
258.0374145507813
 30
0.0
 11
-351.496826171875
 21
255.8412628173828
 31
0.0
  0
LINE
  5
1B1
330
22
100
AcDbEntity
  8
0
  6
Continuous
 62
     7
100
AcDbLine
 10
-354.7015991210938
 20
257.455078125
 30
0.0
 11
-352.5054626464844
 21
255.2589263916016
 31
0.0
  0
LINE
  5
1B2
330
22
100
AcDbEntity
  8
0
  6
Continuous
 62
     7
100
AcDbLine
 10
-355.037841796875
 20
257.2609558105469
 30
0.0
 11
-352.8416748046875
 21
255.0648040771484
 31
0.0
  0
LINE
  5
1B3
330
22
100
AcDbEntity
  8
0
  6
Continuous
 62
     7
100
AcDbLine
 10
-356.0464782714844
 20
256.6786193847656
 30
0.0
 11
-353.8503112792969
 21
254.4824676513672
 31
0.0
  0
LINE
  5
1B4
330
22
100
AcDbEntity
  8
0
  6
Continuous
 62
     7
100
AcDbLine
 10
-356.3826904296875
 20
256.4844970703125
 30
0.0
 11
-354.1865234375
 21
254.2883453369141
 31
0.0
  0
LINE
  5
1B5
330
22
100
AcDbEntity
  8
0
  6
Continuous
 62
     7
100
AcDbLine
 10
-357.3913269042969
 20
255.9021606445313
 30
0.0
 11
-355.1951904296875
 21
253.7060089111328
 31
0.0
  0
LINE
  5
1B6
330
22
100
AcDbEntity
  8
0
  6
Continuous
 62
     7
100
AcDbLine
 10
-357.7275390625
 20
255.7080535888672
 30
0.0
 11
-355.5314025878906
 21
253.5119018554688
 31
0.0
  0
LINE
  5
1B7
330
22
100
AcDbEntity
  8
0
  6
Continuous
 62
     7
100
AcDbLine
 10
-358.7362060546875
 20
255.1257019042969
 30
0.0
 11
-356.5400390625
 21
252.9295501708984
 31
0.0
  0
LINE
  5
1B8
330
22
100
AcDbEntity
  8
0
  6
Continuous
 62
     7
100
AcDbLine
 10
-359.0724182128906
 20
254.9315948486328
 30
0.0
 11
-356.8762512207031
 21
252.7354431152344
 31
0.0
  0
LINE
  5
1B9
330
22
100
AcDbEntity
  8
0
  6
Continuous
 62
     7
100
AcDbLine
 10
-360.0810546875
 20
254.3492431640625
 30
0.0
 11
-357.8849182128906
 21
252.1530914306641
 31
0.0
  0
LINE
  5
1BA
330
22
100
AcDbEntity
  8
0
  6
Continuous
 62
     7
100
AcDbLine
 10
-360.4172668457031
 20
254.1551361083984
 30
0.0
 11
-358.2211303710938
 21
251.958984375
 31
0.0
  0
LINE
  5
1BB
330
22
100
AcDbEntity
  8
0
  6
Continuous
 62
     7
100
AcDbLine
 10
-361.4259338378906
 20
253.5727844238281
 30
0.0
 11
-359.2297668457031
 21
251.3766326904297
 31
0.0
  0
LINE
  5
1BC
330
22
100
AcDbEntity
  8
0
  6
Continuous
 62
     7
100
AcDbLine
 10
-361.7621459960938
 20
253.3786773681641
 30
0.0
 11
-359.5659790039063
 21
251.1825256347656
 31
0.0
  0
LINE
  5
1BD
330
22
100
AcDbEntity
  8
0
  6
Continuous
 62
     7
100
AcDbLine
 10
-362.7707824707031
 20
252.7963256835938
 30
0.0
 11
-360.5746459960938
 21
250.6001739501953
 31
0.0
  0
LINE
  5
1BE
330
22
100
AcDbEntity
  8
0
  6
Continuous
 62
     7
100
AcDbLine
 10
-363.1069946289063
 20
252.6022186279297
 30
0.0
 11
-360.9108581542969
 21
250.4060668945313
 31
0.0
  0
LINE
  5
1BF
330
22
100
AcDbEntity
  8
0
  6
Continuous
 62
     7
100
AcDbLine
 10
-364.1156616210938
 20
252.0198822021484
 30
0.0
 11
-361.9194946289063
 21
249.82373046875
 31
0.0
  0
LINE
  5
1C0
330
22
100
AcDbEntity
  8
0
  6
Continuous
 62
     7
100
AcDbLine
 10
-364.4518737792969
 20
251.8257598876953
 30
0.0
 11
-362.2557067871094
 21
249.6296081542969
 31
0.0
  0
LINE
  5
1C1
330
22
100
AcDbEntity
  8
0
  6
Continuous
 62
     7
100
AcDbLine
 10
-365.4605102539063
 20
251.2434234619141
 30
0.0
 11
-363.2643737792969
 21
249.0472717285156
 31
0.0
  0
LINE
  5
1C2
330
22
100
AcDbEntity
  8
0
  6
Continuous
 62
     7
100
AcDbLine
 10
-365.7967224121094
 20
251.0493011474609
 30
0.0
 11
-363.6005859375
 21
248.8531494140625
 31
0.0
  0
LINE
  5
1C3
330
22
100
AcDbEntity
  8
0
  6
Continuous
 62
     7
100
AcDbLine
 10
-366.8053894042969
 20
250.4669647216797
 30
0.0
 11
-364.6092224121094
 21
248.2708129882813
 31
0.0
  0
LINE
  5
1C4
330
22
100
AcDbEntity
  8
0
  6
Continuous
 62
     7
100
AcDbLine
 10
-367.1416015625
 20
250.2728424072266
 30
0.0
 11
-364.9454345703125
 21
248.0766906738281
 31
0.0
  0
LINE
  5
1C5
330
22
100
AcDbEntity
  8
0
  6
Continuous
 62
     7
100
AcDbLine
 10
-368.1502380371094
 20
249.6905059814453
 30
0.0
 11
-365.9541015625
 21
247.4943542480469
 31
0.0
  0
LINE
  5
1C6
330
22
100
AcDbEntity
  8
0
  6
Continuous
 62
     7
100
AcDbLine
 10
-368.4864501953125
 20
249.4963836669922
 30
0.0
 11
-366.2903137207031
 21
247.3002319335938
 31
0.0
  0
LINE
  5
1C7
330
22
100
AcDbEntity
  8
0
  6
Continuous
 62
     7
100
AcDbLine
 10
-369.4951171875
 20
248.9140472412109
 30
0.0
 11
-367.2989501953125
 21
246.7178955078125
 31
0.0
  0
LINE
  5
1C8
330
22
100
AcDbEntity
  8
0
  6
Continuous
 62
     7
100
AcDbLine
 10
-369.8313293457031
 20
248.7199249267578
 30
0.0
 11
-367.6351623535156
 21
246.5237731933594
 31
0.0
  0
LINE
  5
1C9
330
22
100
AcDbEntity
  8
0
  6
Continuous
 62
     7
100
AcDbLine
 10
-370.8399658203125
 20
248.1375885009766
 30
0.0
 11
-368.6438293457031
 21
245.9414367675781
 31
0.0
  0
LINE
  5
1CA
330
22
100
AcDbEntity
  8
0
  6
Continuous
 62
     7
100
AcDbLine
 10
-371.1761779785156
 20
247.9434814453125
 30
0.0
 11
-368.9800415039063
 21
245.7473297119141
 31
0.0
  0
LINE
  5
1CB
330
22
100
AcDbEntity
  8
0
  6
Continuous
 62
     7
100
AcDbLine
 10
-372.1848449707031
 20
247.3611297607422
 30
0.0
 11
-369.9886779785156
 21
245.1649780273438
 31
0.0
  0
LINE
  5
1CC
330
22
100
AcDbEntity
  8
0
  6
Continuous
 62
     7
100
AcDbLine
 10
-372.5210571289063
 20
247.1670227050781
 30
0.0
 11
-370.3248901367188
 21
244.9708709716797
 31
0.0
  0
LINE
  5
1CD
330
22
100
AcDbEntity
  8
0
  6
Continuous
 62
     7
100
AcDbLine
 10
-373.5296936035156
 20
246.5846710205078
 30
0.0
 11
-371.3335571289063
 21
244.3885192871094
 31
0.0
  0
LINE
  5
1CE
330
22
100
AcDbEntity
  8
0
  6
Continuous
 62
     7
100
AcDbLine
 10
-373.8659057617188
 20
246.3905639648438
 30
0.0
 11
-371.6697692871094
 21
244.1944122314453
 31
0.0
  0
LINE
  5
1CF
330
22
100
AcDbEntity
  8
0
  6
Continuous
 62
     7
100
AcDbLine
 10
-374.8745727539063
 20
245.8082122802734
 30
0.0
 11
-372.6784057617188
 21
243.612060546875
 31
0.0
  0
LINE
  5
1D0
330
22
100
AcDbEntity
  8
0
  6
Continuous
 62
     7
100
AcDbLine
 10
-375.2107849121094
 20
245.6141052246094
 30
0.0
 11
-373.0146179199219
 21
243.4179534912109
 31
0.0
  0
LINE
  5
1D1
330
22
100
AcDbEntity
  8
0
  6
Continuous
 62
     7
100
AcDbLine
 10
-376.2194213867188
 20
245.0317535400391
 30
0.0
 11
-374.0232849121094
 21
242.8356018066406
 31
0.0
  0
LINE
  5
1D2
330
22
100
AcDbEntity
  8
0
  6
Continuous
 62
     7
100
AcDbLine
 10
-376.5556335449219
 20
244.837646484375
 30
0.0
 11
-374.3594970703125
 21
242.6414947509766
 31
0.0
  0
LINE
  5
1D3
330
22
100
AcDbEntity
  8
0
  6
Continuous
 62
     7
100
AcDbLine
 10
-377.5643005371094
 20
244.2553100585938
 30
0.0
 11
-375.3681335449219
 21
242.0591583251953
 31
0.0
  0
LINE
  5
1D4
330
22
100
AcDbEntity
  8
0
  6
Continuous
 62
     7
100
AcDbLine
 10
-377.9005126953125
 20
244.0611877441406
 30
0.0
 11
-375.704345703125
 21
241.8650360107422
 31
0.0
  0
LINE
  5
1D5
330
22
100
AcDbEntity
  8
0
  6
Continuous
 62
     7
100
AcDbLine
 10
-378.9091491699219
 20
243.4788513183594
 30
0.0
 11
-376.7129821777344
 21
241.2826995849609
 31
0.0
  0
LINE
  5
1D6
330
22
100
AcDbEntity
  8
0
  6
Continuous
 62
     7
100
AcDbLine
 10
-379.245361328125
 20
243.2847290039063
 30
0.0
 11
-377.0492248535156
 21
241.0885772705078
 31
0.0
  0
LINE
  5
1D7
330
22
100
AcDbEntity
  8
0
  6
Continuous
 62
     7
100
AcDbLine
 10
-380.2539978027344
 20
242.702392578125
 30
0.0
 11
-378.057861328125
 21
240.5062408447266
 31
0.0
  0
LINE
  5
1D8
330
22
100
AcDbEntity
  8
0
  6
Continuous
 62
     7
100
AcDbLine
 10
-380.5902404785156
 20
242.5082702636719
 30
0.0
 11
-378.3940734863281
 21
240.3121185302734
 31
0.0
  0
LINE
  5
1D9
330
22
100
AcDbEntity
  8
0
  6
Continuous
 62
     7
100
AcDbLine
 10
-381.598876953125
 20
241.9259338378906
 30
0.0
 11
-379.4027099609375
 21
239.7297821044922
 31
0.0
  0
LINE
  5
1DA
330
22
100
AcDbEntity
  8
0
  6
Continuous
 62
     7
100
AcDbLine
 10
-381.9350891113281
 20
241.7318115234375
 30
0.0
 11
-379.7389526367188
 21
239.5356597900391
 31
0.0
  0
LINE
  5
1DB
330
22
100
AcDbEntity
  8
0
  6
Continuous
 62
     7
100
AcDbLine
 10
-382.9437255859375
 20
241.1494750976563
 30
0.0
 11
-380.7475891113281
 21
238.9533233642578
 31
0.0
  0
LINE
  5
1DC
330
22
100
AcDbEntity
  8
0
  6
Continuous
 62
     7
100
AcDbLine
 10
-383.2799682617188
 20
240.9553680419922
 30
0.0
 11
-381.0838012695313
 21
238.7592010498047
 31
0.0
  0
LINE
  5
1DD
330
22
100
AcDbEntity
  8
0
  6
Continuous
 62
     7
100
AcDbLine
 10
-384.2886047363281
 20
240.3730163574219
 30
0.0
 11
-382.0924377441406
 21
238.1768646240234
 31
0.0
  0
LINE
  5
1DE
330
22
100
AcDbEntity
  8
0
  6
Continuous
 62
     7
100
AcDbLine
 10
-384.6248168945313
 20
240.1789093017578
 30
0.0
 11
-382.4286499023438
 21
237.9827575683594
 31
0.0
  0
LINE
  5
1DF
330
22
100
AcDbEntity
  8
0
  6
Continuous
 62
     7
100
AcDbLine
 10
-385.6334533691406
 20
239.5965576171875
 30
0.0
 11
-383.4373168945313
 21
237.4004058837891
 31
0.0
  0
LINE
  5
1E0
330
22
100
AcDbEntity
  8
0
  6
Continuous
 62
     7
100
AcDbLine
 10
-385.9696655273438
 20
239.4024505615234
 30
0.0
 11
-383.7735290527344
 21
237.206298828125
 31
0.0
  0
LINE
  5
1E1
330
22
100
AcDbEntity
  8
0
  6
Continuous
 62
     7
100
AcDbLine
 10
-386.9783325195313
 20
238.8200988769531
 30
0.0
 11
-384.7821655273438
 21
236.6239471435547
 31
0.0
  0
LINE
  5
1E2
330
22
100
AcDbEntity
  8
0
  6
Continuous
 62
     7
100
AcDbLine
 10
-387.3145446777344
 20
238.6259918212891
 30
0.0
 11
-385.1183776855469
 21
236.4298400878906
 31
0.0
  0
LINE
  5
1E3
330
22
100
AcDbEntity
  8
0
  6
Continuous
 62
     7
100
AcDbLine
 10
-388.3231811523438
 20
238.0436401367188
 30
0.0
 11
-386.1270446777344
 21
235.8474884033203
 31
0.0
  0
LINE
  5
1E4
330
22
100
AcDbEntity
  8
0
  6
Continuous
 62
     7
100
AcDbLine
 10
-388.6593933105469
 20
237.8495330810547
 30
0.0
 11
-386.4632568359375
 21
235.6533813476563
 31
0.0
  0
LINE
  5
1E5
330
22
100
AcDbEntity
  8
0
  6
Continuous
 62
     7
100
AcDbLine
 10
-389.6680603027344
 20
237.2671966552734
 30
0.0
 11
-387.4718933105469
 21
235.0710296630859
 31
0.0
  0
LINE
  5
1E6
330
22
100
AcDbEntity
  8
0
  6
Continuous
 62
     7
100
AcDbLine
 10
-390.0042724609375
 20
237.0730743408203
 30
0.0
 11
-387.80810546875
 21
234.8769226074219
 31
0.0
  0
LINE
  5
1E7
330
22
100
AcDbEntity
  8
0
  6
Continuous
 62
     7
100
AcDbLine
 10
-391.0129089355469
 20
236.4907379150391
 30
0.0
 11
-388.7240295410156
 21
234.2018280029297
 31
0.0
  0
LINE
  5
1E8
330
22
100
AcDbEntity
  8
0
  6
Continuous
 62
     7
100
AcDbLine
 10
-391.34912109375
 20
236.2966156005859
 30
0.0
 11
-388.9966735839844
 21
233.9441528320314
 31
0.0
  0
LINE
  5
1E9
330
22
100
AcDbEntity
  8
0
  6
Continuous
 62
     7
100
AcDbLine
 10
-392.3577880859375
 20
235.7142791748047
 30
0.0
 11
-389.6759033203125
 21
233.0324096679688
 31
0.0
  0
LINE
  5
1EA
330
22
100
AcDbEntity
  8
0
  6
Continuous
 62
     7
100
AcDbLine
 10
-392.6940002441406
 20
235.5201568603516
 30
0.0
 11
-389.8622741699219
 21
232.6884307861328
 31
0.0
  0
LINE
  5
1EB
330
22
100
AcDbEntity
  8
0
  6
Continuous
 62
     7
100
AcDbLine
 10
-393.70263671875
 20
234.9378204345703
 30
0.0
 11
-390.2824096679688
 21
231.517578125
 31
0.0
  0
LINE
  5
1EC
330
22
100
AcDbEntity
  8
0
  6
Continuous
 62
     7
100
AcDbLine
 10
-394.0388488769531
 20
234.7436981201172
 30
0.0
 11
-390.3350524902344
 21
231.0398864746094
 31
0.0
  0
LINE
  5
1ED
330
22
100
AcDbEntity
  8
0
  6
Continuous
 62
     7
100
AcDbLine
 10
-395.0475158691406
 20
234.1613616943359
 30
0.0
 11
-390.3883972167969
 21
229.5022430419922
 31
0.0
  0
LINE
  5
1EE
330
22
100
AcDbEntity
  8
0
  6
Continuous
 62
     7
100
AcDbLine
 10
-395.3837280273438
 20
233.9672393798828
 30
0.0
 11
-390.3883972167969
 21
228.971923828125
 31
0.0
  0
LINE
  5
1EF
330
22
100
AcDbEntity
  8
0
  6
Continuous
 62
     7
100
AcDbLine
 10
-396.3923645019531
 20
233.3849029541016
 30
0.0
 11
-390.3883972167969
 21
227.3809356689453
 31
0.0
  0
LINE
  5
1F0
330
22
100
AcDbEntity
  8
0
  6
Continuous
 62
     7
100
AcDbLine
 10
-396.7285766601563
 20
233.1907958984375
 30
0.0
 11
-390.3883972167969
 21
226.8506011962891
 31
0.0
  0
LINE
  5
1F1
330
22
100
AcDbEntity
  8
0
  6
Continuous
 62
     7
100
AcDbLine
 10
-397.7372436523438
 20
232.6084442138672
 30
0.0
 11
-390.3883972167969
 21
225.2596130371094
 31
0.0
  0
LINE
  5
1F2
330
22
100
AcDbEntity
  8
0
  6
Continuous
 62
     7
100
AcDbLine
 10
-398.0734558105469
 20
232.4143371582031
 30
0.0
 11
-390.3883972167969
 21
224.7292785644531
 31
0.0
  0
LINE
  5
1F3
330
22
100
AcDbEntity
  8
0
  6
Continuous
 62
     7
100
AcDbLine
 10
-399.0820922851563
 20
231.8319854736328
 30
0.0
 11
-390.3883972167969
 21
223.1382904052734
 31
0.0
  0
LINE
  5
1F4
330
22
100
AcDbEntity
  8
0
  6
Continuous
 62
     7
100
AcDbLine
 10
-399.4151000976563
 20
231.6346588134766
 30
0.0
 11
-390.3883972167969
 21
222.6079559326172
 31
0.0
  0
LINE
  5
1F5
330
22
100
AcDbEntity
  8
0
  6
Continuous
 62
     7
100
AcDbLine
 10
-396.9533996582031
 20
227.5819702148438
 30
0.0
 11
-390.3883972167969
 21
221.0169677734375
 31
0.0
  0
LINE
  5
1F6
330
22
100
AcDbEntity
  8
0
  6
Continuous
 62
     7
100
AcDbLine
 10
-399.872314453125
 20
230.5008850097656
 30
0.0
 11
-398.9728088378906
 21
229.6013946533203
 31
0.0
  0
LINE
  5
1F7
330
22
100
AcDbEntity
  8
0
  6
Continuous
 62
     7
100
AcDbLine
 10
-396.9533996582031
 20
227.0516357421875
 30
0.0
 11
-390.3883972167969
 21
220.4866333007813
 31
0.0
  0
LINE
  5
1F8
330
22
100
AcDbEntity
  8
0
  6
Continuous
 62
     7
100
AcDbLine
 10
-396.9533996582031
 20
225.4606475830078
 30
0.0
 11
-390.3883972167969
 21
218.8956451416016
 31
0.0
  0
LINE
  5
1F9
330
22
100
AcDbEntity
  8
0
  6
Continuous
 62
     7
100
AcDbLine
 10
-396.9533996582031
 20
224.9303131103516
 30
0.0
 11
-390.3883972167969
 21
218.3653106689453
 31
0.0
  0
LINE
  5
1FA
330
22
100
AcDbEntity
  8
0
  6
Continuous
 62
     7
100
AcDbLine
 10
-396.9533996582031
 20
223.3393249511719
 30
0.0
 11
-390.3883972167969
 21
216.7743225097656
 31
0.0
  0
LINE
  5
1FB
330
22
100
AcDbEntity
  8
0
  6
Continuous
 62
     7
100
AcDbLine
 10
-396.9533996582031
 20
222.8089904785156
 30
0.0
 11
-390.3883972167969
 21
216.2440032958984
 31
0.0
  0
LINE
  5
1FC
330
22
100
AcDbEntity
  8
0
  6
Continuous
 62
     7
100
AcDbLine
 10
-396.9533996582031
 20
221.2180023193359
 30
0.0
 11
-390.3883972167969
 21
214.6529998779297
 31
0.0
  0
LINE
  5
1FD
330
22
100
AcDbEntity
  8
0
  6
Continuous
 62
     7
100
AcDbLine
 10
-396.9533996582031
 20
220.6876831054688
 30
0.0
 11
-390.3883972167969
 21
214.1226806640625
 31
0.0
  0
LINE
  5
1FE
330
22
100
AcDbEntity
  8
0
  6
Continuous
 62
     7
100
AcDbLine
 10
-397.3991394042969
 20
219.5424194335938
 30
0.0
 11
-390.3883972167969
 21
212.5316925048828
 31
0.0
  0
LINE
  5
1FF
330
22
100
AcDbEntity
  8
0
  6
Continuous
 62
     7
100
AcDbLine
 10
-397.4857177734375
 20
219.0986938476563
 30
0.0
 11
-390.3883972167969
 21
212.0013580322266
 31
0.0
  0
LINE
  5
200
330
22
100
AcDbEntity
  8
0
  6
Continuous
 62
     7
100
AcDbLine
 10
-397.4344177246094
 20
217.4563751220703
 30
0.0
 11
-390.3883972167969
 21
210.4103698730469
 31
0.0
  0
LINE
  5
201
330
22
100
AcDbEntity
  8
0
  6
Continuous
 62
     7
100
AcDbLine
 10
-397.4172973632813
 20
216.908935546875
 30
0.0
 11
-390.3883972167969
 21
209.8800354003906
 31
0.0
  0
LINE
  5
202
330
22
100
AcDbEntity
  8
0
  6
Continuous
 62
     7
100
AcDbLine
 10
-397.365966796875
 20
215.2666168212891
 30
0.0
 11
-390.3883972167969
 21
208.2890472412109
 31
0.0
  0
LINE
  5
203
330
22
100
AcDbEntity
  8
0
  6
Continuous
 62
     7
100
AcDbLine
 10
-397.348876953125
 20
214.7191772460939
 30
0.0
 11
-390.3883972167969
 21
207.7587127685547
 31
0.0
  0
LINE
  5
204
330
22
100
AcDbEntity
  8
0
  6
Continuous
 62
     7
100
AcDbLine
 10
-397.2975463867188
 20
213.0768737792969
 30
0.0
 11
-390.3883972167969
 21
206.167724609375
 31
0.0
  0
LINE
  5
205
330
22
100
AcDbEntity
  8
0
  6
Continuous
 62
     7
100
AcDbLine
 10
-397.2804260253906
 20
212.5294342041016
 30
0.0
 11
-390.3883972167969
 21
205.6373901367188
 31
0.0
  0
LINE
  5
206
330
22
100
AcDbEntity
  8
0
  6
Continuous
 62
     7
100
AcDbLine
 10
-397.2290954589844
 20
210.8871154785156
 30
0.0
 11
-390.3883972167969
 21
204.0464019775391
 31
0.0
  0
LINE
  5
207
330
22
100
AcDbEntity
  8
0
  6
Continuous
 62
     7
100
AcDbLine
 10
-397.2120056152344
 20
210.3396759033203
 30
0.0
 11
-390.3883972167969
 21
203.5160675048828
 31
0.0
  0
LINE
  5
208
330
22
100
AcDbEntity
  8
0
  6
Continuous
 62
     7
100
AcDbLine
 10
-397.1606750488281
 20
208.6973571777344
 30
0.0
 11
-390.71826171875
 21
202.2549591064453
 31
0.0
  0
LINE
  5
209
330
22
100
AcDbEntity
  8
0
  6
Continuous
 62
     7
100
AcDbLine
 10
-397.1435546875
 20
208.1499176025391
 30
0.0
 11
-390.9834289550781
 21
201.9897918701172
 31
0.0
  0
LINE
  5
20A
330
22
100
AcDbEntity
  8
0
  6
Continuous
 62
     7
100
AcDbLine
 10
-397.0922241210938
 20
206.5076141357422
 30
0.0
 11
-392.1694641113281
 21
201.5848388671875
 31
0.0
  0
LINE
  5
20B
330
22
100
AcDbEntity
  8
0
  6
Continuous
 62
     7
100
AcDbLine
 10
-397.0751342773438
 20
205.9601745605469
 30
0.0
 11
-392.6997985839844
 21
201.5848388671875
 31
0.0
  0
LINE
  5
20C
330
22
100
AcDbEntity
  8
0
  6
Continuous
 62
     7
100
AcDbLine
 10
-397.0238037109375
 20
204.3178558349609
 30
0.0
 11
-394.2908020019531
 21
201.5848388671875
 31
0.0
  0
LINE
  5
20D
330
22
100
AcDbEntity
  8
0
  6
Continuous
 62
     7
100
AcDbLine
 10
-397.0066833496094
 20
203.7704162597656
 30
0.0
 11
-394.8211059570313
 21
201.5848388671875
 31
0.0
  0
LINE
  5
20E
330
22
100
AcDbEntity
  8
0
  6
Continuous
 62
     7
100
AcDbLine
 10
-396.9553833007813
 20
202.1280975341797
 30
0.0
 11
-396.412109375
 21
201.5848388671875
 31
0.0
  0
LINE
  5
20F
330
22
100
AcDbEntity
  8
0
  6
Continuous
 62
     7
100
AcDbLine
 10
-335.8883972167969
 20
278.5848388671875
 30
0.0
 11
-335.8883972167969
 21
273.5848388671875
 31
0.0
  0
LINE
  5
210
330
22
100
AcDbEntity
  8
0
  6
Continuous
 62
     7
100
AcDbLine
 10
-336.3883972167969
 20
278.0848388671875
 30
0.0
 11
-336.3883972167969
 21
274.0848388671875
 31
0.0
  0
LINE
  5
211
330
22
100
AcDbEntity
  8
0
  6
Continuous
 62
     7
100
AcDbLine
 10
-376.9550476074219
 20
262.3516235351563
 30
0.0
 11
-376.9550476074219
 21
273.5848388671875
 31
0.0
  0
LINE
  5
212
330
22
100
AcDbEntity
  8
0
  6
Continuous
 62
     7
100
AcDbLine
 10
-339.3883972167969
 20
275.0848388671875
 30
0.0
 11
-339.3883972167969
 21
274.0848388671875
 31
0.0
  0
LINE
  5
213
330
22
100
AcDbEntity
  8
0
  6
Continuous
 62
     7
100
AcDbLine
 10
-338.8883972167969
 20
273.5848388671875
 30
0.0
 11
-336.8883972167969
 21
273.5848388671875
 31
0.0
  0
LINE
  5
214
330
22
100
AcDbEntity
  8
0
  6
Continuous
 62
     7
100
AcDbLine
 10
-336.3883972167969
 20
274.0848388671875
 30
0.0
 11
-336.8883972167969
 21
273.5848388671875
 31
0.0
  0
LINE
  5
215
330
22
100
AcDbEntity
  8
0
  6
Continuous
 62
     7
100
AcDbLine
 10
-339.3883972167969
 20
273.5848388671875
 30
0.0
 11
-339.3883972167969
 21
269.1829223632813
 31
0.0
  0
LINE
  5
216
330
22
100
AcDbEntity
  8
0
  6
Continuous
 62
     7
100
AcDbLine
 10
-363.9550476074219
 20
262.5744323730469
 30
0.0
 11
-363.9550476074219
 21
273.5848388671875
 31
0.0
  0
LINE
  5
217
330
22
100
AcDbEntity
  8
0
  6
Continuous
 62
     7
100
AcDbLine
 10
-332.8883972167969
 20
273.5848388671875
 30
0.0
 11
-332.8883972167969
 21
269.4715881347656
 31
0.0
  0
LINE
  5
218
330
22
100
AcDbEntity
  8
0
  6
Continuous
 62
     7
100
AcDbLine
 10
-335.8883972167969
 20
273.5848388671875
 30
0.0
 11
-346.8883972167969
 21
273.5848388671875
 31
0.0
  0
LINE
  5
219
330
22
100
AcDbEntity
  8
0
  6
Continuous
 62
     7
100
AcDbLine
 10
-339.3883972167969
 20
274.0848388671875
 30
0.0
 11
-338.8883972167969
 21
273.5848388671875
 31
0.0
  0
LINE
  5
21A
330
22
100
AcDbEntity
  8
0
  6
CENTER
 62
     7
100
AcDbLine
 10
-440.8881225585938
 20
62.67554473876953
 30
0.0
 11
-440.8881225585938
 21
285.4605712890625
 31
0.0
  0
LINE
  5
21B
330
22
100
AcDbEntity
  8
0
  6
Continuous
 62
     7
100
AcDbLine
 10
-548.8883666992188
 20
274.5848388671875
 30
0.0
 11
-548.8883666992188
 21
269.4715881347656
 31
0.0
  0
LINE
  5
21C
330
22
100
AcDbEntity
  8
0
  6
Continuous
 62
     7
100
AcDbLine
 10
-440.8883972167968
 20
278.4786682128906
 30
0.0
 11
-440.7822265624999
 21
278.5848388671875
 31
0.0
  0
LINE
  5
21D
330
22
100
AcDbEntity
  8
0
  6
Continuous
 62
     7
100
AcDbLine
 10
-440.8883972167968
 20
277.064453125
 30
0.0
 11
-439.3680114746094
 21
278.5848388671875
 31
0.0
  0
LINE
  5
21E
330
22
100
AcDbEntity
  8
0
  6
Continuous
 62
     7
100
AcDbLine
 10
-440.8883972167968
 20
275.6502380371094
 30
0.0
 11
-437.9537963867187
 21
278.5848388671875
 31
0.0
  0
LINE
  5
21F
330
22
100
AcDbEntity
  8
0
  6
Continuous
 62
     7
100
AcDbLine
 10
-439.5395812988281
 20
275.5848388671875
 30
0.0
 11
-436.5395812988281
 21
278.5848388671875
 31
0.0
  0
LINE
  5
220
330
22
100
AcDbEntity
  8
0
  6
Continuous
 62
     7
100
AcDbLine
 10
-438.1253662109375
 20
275.5848388671875
 30
0.0
 11
-435.1253662109375
 21
278.5848388671875
 31
0.0
  0
LINE
  5
221
330
22
100
AcDbEntity
  8
0
  6
Continuous
 62
     7
100
AcDbLine
 10
-436.7111511230469
 20
275.5848388671875
 30
0.0
 11
-433.7111511230468
 21
278.5848388671875
 31
0.0
  0
LINE
  5
222
330
22
100
AcDbEntity
  8
0
  6
Continuous
 62
     7
100
AcDbLine
 10
-435.2969360351563
 20
275.5848388671875
 30
0.0
 11
-432.2969360351563
 21
278.5848388671875
 31
0.0
  0
LINE
  5
223
330
22
100
AcDbEntity
  8
0
  6
Continuous
 62
     7
100
AcDbLine
 10
-433.8827209472656
 20
275.5848388671875
 30
0.0
 11
-430.8827209472656
 21
278.5848388671875
 31
0.0
  0
LINE
  5
224
330
22
100
AcDbEntity
  8
0
  6
Continuous
 62
     7
100
AcDbLine
 10
-432.4685058593749
 20
275.5848388671875
 30
0.0
 11
-429.4685058593749
 21
278.5848388671875
 31
0.0
  0
LINE
  5
225
330
22
100
AcDbEntity
  8
0
  6
Continuous
 62
     7
100
AcDbLine
 10
-431.0542907714843
 20
275.5848388671875
 30
0.0
 11
-428.0542907714844
 21
278.5848388671875
 31
0.0
  0
LINE
  5
226
330
22
100
AcDbEntity
  8
0
  6
Continuous
 62
     7
100
AcDbLine
 10
-429.6400756835938
 20
275.5848388671875
 30
0.0
 11
-426.6400756835937
 21
278.5848388671875
 31
0.0
  0
LINE
  5
227
330
22
100
AcDbEntity
  8
0
  6
Continuous
 62
     7
100
AcDbLine
 10
-428.2258605957031
 20
275.5848388671875
 30
0.0
 11
-425.2258605957031
 21
278.5848388671875
 31
0.0
  0
LINE
  5
228
330
22
100
AcDbEntity
  8
0
  6
Continuous
 62
     7
100
AcDbLine
 10
-426.8116455078125
 20
275.5848388671875
 30
0.0
 11
-423.8116455078125
 21
278.5848388671875
 31
0.0
  0
LINE
  5
229
330
22
100
AcDbEntity
  8
0
  6
Continuous
 62
     7
100
AcDbLine
 10
-425.3974304199219
 20
275.5848388671875
 30
0.0
 11
-422.3974304199218
 21
278.5848388671875
 31
0.0
  0
LINE
  5
22A
330
22
100
AcDbEntity
  8
0
  6
Continuous
 62
     7
100
AcDbLine
 10
-423.9832153320312
 20
275.5848388671875
 30
0.0
 11
-420.9832153320313
 21
278.5848388671875
 31
0.0
  0
LINE
  5
22B
330
22
100
AcDbEntity
  8
0
  6
Continuous
 62
     7
100
AcDbLine
 10
-422.5690002441406
 20
275.5848388671875
 30
0.0
 11
-419.5690002441406
 21
278.5848388671875
 31
0.0
  0
LINE
  5
22C
330
22
100
AcDbEntity
  8
0
  6
Continuous
 62
     7
100
AcDbLine
 10
-421.15478515625
 20
275.5848388671875
 30
0.0
 11
-418.1547851562499
 21
278.5848388671875
 31
0.0
  0
LINE
  5
22D
330
22
100
AcDbEntity
  8
0
  6
Continuous
 62
     7
100
AcDbLine
 10
-419.7405700683593
 20
275.5848388671875
 30
0.0
 11
-416.7405700683593
 21
278.5848388671875
 31
0.0
  0
LINE
  5
22E
330
22
100
AcDbEntity
  8
0
  6
Continuous
 62
     7
100
AcDbLine
 10
-418.3263854980468
 20
275.5848388671875
 30
0.0
 11
-415.3263854980468
 21
278.5848388671875
 31
0.0
  0
LINE
  5
22F
330
22
100
AcDbEntity
  8
0
  6
Continuous
 62
     7
100
AcDbLine
 10
-416.9121704101563
 20
275.5848388671875
 30
0.0
 11
-413.9121704101563
 21
278.5848388671875
 31
0.0
  0
LINE
  5
230
330
22
100
AcDbEntity
  8
0
  6
Continuous
 62
     7
100
AcDbLine
 10
-415.4979553222656
 20
275.5848388671875
 30
0.0
 11
-412.4979553222656
 21
278.5848388671875
 31
0.0
  0
LINE
  5
231
330
22
100
AcDbEntity
  8
0
  6
Continuous
 62
     7
100
AcDbLine
 10
-414.0837402343749
 20
275.5848388671875
 30
0.0
 11
-411.083740234375
 21
278.5848388671875
 31
0.0
  0
LINE
  5
232
330
22
100
AcDbEntity
  8
0
  6
Continuous
 62
     7
100
AcDbLine
 10
-412.6695251464843
 20
275.5848388671875
 30
0.0
 11
-409.6695251464844
 21
278.5848388671875
 31
0.0
  0
LINE
  5
233
330
22
100
AcDbEntity
  8
0
  6
Continuous
 62
     7
100
AcDbLine
 10
-411.2553100585937
 20
275.5848388671875
 30
0.0
 11
-408.2553100585938
 21
278.5848388671875
 31
0.0
  0
LINE
  5
234
330
22
100
AcDbEntity
  8
0
  6
Continuous
 62
     7
100
AcDbLine
 10
-409.8410949707031
 20
275.5848388671875
 30
0.0
 11
-406.8410949707031
 21
278.5848388671875
 31
0.0
  0
LINE
  5
235
330
22
100
AcDbEntity
  8
0
  6
Continuous
 62
     7
100
AcDbLine
 10
-408.4268798828125
 20
275.5848388671875
 30
0.0
 11
-405.4268798828124
 21
278.5848388671875
 31
0.0
  0
LINE
  5
236
330
22
100
AcDbEntity
  8
0
  6
Continuous
 62
     7
100
AcDbLine
 10
-407.0126647949218
 20
275.5848388671875
 30
0.0
 11
-404.0126647949218
 21
278.5848388671875
 31
0.0
  0
LINE
  5
237
330
22
100
AcDbEntity
  8
0
  6
Continuous
 62
     7
100
AcDbLine
 10
-405.5984497070313
 20
275.5848388671875
 30
0.0
 11
-402.5984497070313
 21
278.5848388671875
 31
0.0
  0
LINE
  5
238
330
22
100
AcDbEntity
  8
0
  6
Continuous
 62
     7
100
AcDbLine
 10
-404.1842346191406
 20
275.5848388671875
 30
0.0
 11
-401.1842346191405
 21
278.5848388671875
 31
0.0
  0
LINE
  5
239
330
22
100
AcDbEntity
  8
0
  6
Continuous
 62
     7
100
AcDbLine
 10
-402.7700195312499
 20
275.5848388671875
 30
0.0
 11
-399.77001953125
 21
278.5848388671875
 31
0.0
  0
LINE
  5
23A
330
22
100
AcDbEntity
  8
0
  6
Continuous
 62
     7
100
AcDbLine
 10
-401.3558044433593
 20
275.5848388671875
 30
0.0
 11
-398.3558044433594
 21
278.5848388671875
 31
0.0
  0
LINE
  5
23B
330
22
100
AcDbEntity
  8
0
  6
Continuous
 62
     7
100
AcDbLine
 10
-399.9415893554688
 20
275.5848388671875
 30
0.0
 11
-396.9415893554688
 21
278.5848388671875
 31
0.0
  0
LINE
  5
23C
330
22
100
AcDbEntity
  8
0
  6
Continuous
 62
     7
100
AcDbLine
 10
-398.5273742675781
 20
275.5848388671875
 30
0.0
 11
-395.5273742675781
 21
278.5848388671875
 31
0.0
  0
LINE
  5
23D
330
22
100
AcDbEntity
  8
0
  6
Continuous
 62
     7
100
AcDbLine
 10
-397.1131591796875
 20
275.5848388671875
 30
0.0
 11
-394.1131591796875
 21
278.5848388671875
 31
0.0
  0
LINE
  5
23E
330
22
100
AcDbEntity
  8
0
  6
Continuous
 62
     7
100
AcDbLine
 10
-395.6989440917969
 20
275.5848388671875
 30
0.0
 11
-392.6989440917969
 21
278.5848388671875
 31
0.0
  0
LINE
  5
23F
330
22
100
AcDbEntity
  8
0
  6
Continuous
 62
     7
100
AcDbLine
 10
-394.2847290039063
 20
275.5848388671875
 30
0.0
 11
-391.2847290039063
 21
278.5848388671875
 31
0.0
  0
LINE
  5
240
330
22
100
AcDbEntity
  8
0
  6
Continuous
 62
     7
100
AcDbLine
 10
-392.8705139160156
 20
275.5848388671875
 30
0.0
 11
-389.8705139160156
 21
278.5848388671875
 31
0.0
  0
LINE
  5
241
330
22
100
AcDbEntity
  8
0
  6
Continuous
 62
     7
100
AcDbLine
 10
-391.456298828125
 20
275.5848388671875
 30
0.0
 11
-388.456298828125
 21
278.5848388671875
 31
0.0
  0
LINE
  5
242
330
22
100
AcDbEntity
  8
0
  6
Continuous
 62
     7
100
AcDbLine
 10
-390.0421142578125
 20
275.5848388671875
 30
0.0
 11
-387.0421142578125
 21
278.5848388671875
 31
0.0
  0
LINE
  5
243
330
22
100
AcDbEntity
  8
0
  6
Continuous
 62
     7
100
AcDbLine
 10
-388.6278991699219
 20
275.5848388671875
 30
0.0
 11
-385.6278991699219
 21
278.5848388671875
 31
0.0
  0
LINE
  5
244
330
22
100
AcDbEntity
  8
0
  6
Continuous
 62
     7
100
AcDbLine
 10
-387.2136840820313
 20
275.5848388671875
 30
0.0
 11
-384.2136840820313
 21
278.5848388671875
 31
0.0
  0
LINE
  5
245
330
22
100
AcDbEntity
  8
0
  6
Continuous
 62
     7
100
AcDbLine
 10
-385.7994689941406
 20
275.5848388671875
 30
0.0
 11
-382.7994689941406
 21
278.5848388671875
 31
0.0
  0
LINE
  5
246
330
22
100
AcDbEntity
  8
0
  6
Continuous
 62
     7
100
AcDbLine
 10
-384.38525390625
 20
275.5848388671875
 30
0.0
 11
-381.38525390625
 21
278.5848388671875
 31
0.0
  0
LINE
  5
247
330
22
100
AcDbEntity
  8
0
  6
Continuous
 62
     7
100
AcDbLine
 10
-382.9710388183594
 20
275.5848388671875
 30
0.0
 11
-379.9710388183594
 21
278.5848388671875
 31
0.0
  0
LINE
  5
248
330
22
100
AcDbEntity
  8
0
  6
Continuous
 62
     7
100
AcDbLine
 10
-381.5568237304688
 20
275.5848388671875
 30
0.0
 11
-378.5568237304688
 21
278.5848388671875
 31
0.0
  0
LINE
  5
249
330
22
100
AcDbEntity
  8
0
  6
Continuous
 62
     7
100
AcDbLine
 10
-380.1426086425781
 20
275.5848388671875
 30
0.0
 11
-377.1426086425781
 21
278.5848388671875
 31
0.0
  0
LINE
  5
24A
330
22
100
AcDbEntity
  8
0
  6
Continuous
 62
     7
100
AcDbLine
 10
-378.7283935546875
 20
275.5848388671875
 30
0.0
 11
-375.7283935546875
 21
278.5848388671875
 31
0.0
  0
LINE
  5
24B
330
22
100
AcDbEntity
  8
0
  6
Continuous
 62
     7
100
AcDbLine
 10
-377.3141784667969
 20
275.5848388671875
 30
0.0
 11
-374.3141784667969
 21
278.5848388671875
 31
0.0
  0
LINE
  5
24C
330
22
100
AcDbEntity
  8
0
  6
Continuous
 62
     7
100
AcDbLine
 10
-375.8999633789063
 20
275.5848388671875
 30
0.0
 11
-372.8999633789063
 21
278.5848388671875
 31
0.0
  0
LINE
  5
24D
330
22
100
AcDbEntity
  8
0
  6
Continuous
 62
     7
100
AcDbLine
 10
-374.4857482910156
 20
275.5848388671875
 30
0.0
 11
-371.4857482910156
 21
278.5848388671875
 31
0.0
  0
LINE
  5
24E
330
22
100
AcDbEntity
  8
0
  6
Continuous
 62
     7
100
AcDbLine
 10
-373.071533203125
 20
275.5848388671875
 30
0.0
 11
-370.071533203125
 21
278.5848388671875
 31
0.0
  0
LINE
  5
24F
330
22
100
AcDbEntity
  8
0
  6
Continuous
 62
     7
100
AcDbLine
 10
-371.6573181152344
 20
275.5848388671875
 30
0.0
 11
-368.6573181152344
 21
278.5848388671875
 31
0.0
  0
LINE
  5
250
330
22
100
AcDbEntity
  8
0
  6
Continuous
 62
     7
100
AcDbLine
 10
-370.2431030273438
 20
275.5848388671875
 30
0.0
 11
-367.2431030273438
 21
278.5848388671875
 31
0.0
  0
LINE
  5
251
330
22
100
AcDbEntity
  8
0
  6
Continuous
 62
     7
100
AcDbLine
 10
-368.8288879394531
 20
275.5848388671875
 30
0.0
 11
-365.8288879394531
 21
278.5848388671875
 31
0.0
  0
LINE
  5
252
330
22
100
AcDbEntity
  8
0
  6
Continuous
 62
     7
100
AcDbLine
 10
-367.4146728515625
 20
275.5848388671875
 30
0.0
 11
-364.4146728515625
 21
278.5848388671875
 31
0.0
  0
LINE
  5
253
330
22
100
AcDbEntity
  8
0
  6
Continuous
 62
     7
100
AcDbLine
 10
-366.0004577636719
 20
275.5848388671875
 30
0.0
 11
-363.0004577636719
 21
278.5848388671875
 31
0.0
  0
LINE
  5
254
330
22
100
AcDbEntity
  8
0
  6
Continuous
 62
     7
100
AcDbLine
 10
-364.5862426757813
 20
275.5848388671875
 30
0.0
 11
-361.5862426757813
 21
278.5848388671875
 31
0.0
  0
LINE
  5
255
330
22
100
AcDbEntity
  8
0
  6
Continuous
 62
     7
100
AcDbLine
 10
-363.1720275878906
 20
275.5848388671875
 30
0.0
 11
-360.1720275878906
 21
278.5848388671875
 31
0.0
  0
LINE
  5
256
330
22
100
AcDbEntity
  8
0
  6
Continuous
 62
     7
100
AcDbLine
 10
-361.7578430175781
 20
275.5848388671875
 30
0.0
 11
-358.7578430175781
 21
278.5848388671875
 31
0.0
  0
LINE
  5
257
330
22
100
AcDbEntity
  8
0
  6
Continuous
 62
     7
100
AcDbLine
 10
-360.3436279296875
 20
275.5848388671875
 30
0.0
 11
-357.3436279296875
 21
278.5848388671875
 31
0.0
  0
LINE
  5
258
330
22
100
AcDbEntity
  8
0
  6
Continuous
 62
     7
100
AcDbLine
 10
-358.9294128417969
 20
275.5848388671875
 30
0.0
 11
-355.9294128417969
 21
278.5848388671875
 31
0.0
  0
LINE
  5
259
330
22
100
AcDbEntity
  8
0
  6
Continuous
 62
     7
100
AcDbLine
 10
-357.5151977539063
 20
275.5848388671875
 30
0.0
 11
-354.5151977539063
 21
278.5848388671875
 31
0.0
  0
LINE
  5
25A
330
22
100
AcDbEntity
  8
0
  6
Continuous
 62
     7
100
AcDbLine
 10
-356.1009826660156
 20
275.5848388671875
 30
0.0
 11
-353.1009826660156
 21
278.5848388671875
 31
0.0
  0
LINE
  5
25B
330
22
100
AcDbEntity
  8
0
  6
Continuous
 62
     7
100
AcDbLine
 10
-354.686767578125
 20
275.5848388671875
 30
0.0
 11
-351.686767578125
 21
278.5848388671875
 31
0.0
  0
LINE
  5
25C
330
22
100
AcDbEntity
  8
0
  6
Continuous
 62
     7
100
AcDbLine
 10
-353.2725524902344
 20
275.5848388671875
 30
0.0
 11
-350.2725524902344
 21
278.5848388671875
 31
0.0
  0
LINE
  5
25D
330
22
100
AcDbEntity
  8
0
  6
Continuous
 62
     7
100
AcDbLine
 10
-351.8583374023438
 20
275.5848388671875
 30
0.0
 11
-348.8583374023438
 21
278.5848388671875
 31
0.0
  0
LINE
  5
25E
330
22
100
AcDbEntity
  8
0
  6
Continuous
 62
     7
100
AcDbLine
 10
-350.4441223144531
 20
275.5848388671875
 30
0.0
 11
-347.4441223144531
 21
278.5848388671875
 31
0.0
  0
LINE
  5
25F
330
22
100
AcDbEntity
  8
0
  6
Continuous
 62
     7
100
AcDbLine
 10
-349.0299072265625
 20
275.5848388671875
 30
0.0
 11
-346.0299072265625
 21
278.5848388671875
 31
0.0
  0
LINE
  5
260
330
22
100
AcDbEntity
  8
0
  6
Continuous
 62
     7
100
AcDbLine
 10
-347.6156921386719
 20
275.5848388671875
 30
0.0
 11
-344.6156921386719
 21
278.5848388671875
 31
0.0
  0
LINE
  5
261
330
22
100
AcDbEntity
  8
0
  6
Continuous
 62
     7
100
AcDbLine
 10
-346.2014770507813
 20
275.5848388671875
 30
0.0
 11
-343.2014770507813
 21
278.5848388671875
 31
0.0
  0
LINE
  5
262
330
22
100
AcDbEntity
  8
0
  6
Continuous
 62
     7
100
AcDbLine
 10
-344.7872619628906
 20
275.5848388671875
 30
0.0
 11
-341.7872619628906
 21
278.5848388671875
 31
0.0
  0
LINE
  5
263
330
22
100
AcDbEntity
  8
0
  6
Continuous
 62
     7
100
AcDbLine
 10
-343.373046875
 20
275.5848388671875
 30
0.0
 11
-340.373046875
 21
278.5848388671875
 31
0.0
  0
LINE
  5
264
330
22
100
AcDbEntity
  8
0
  6
Continuous
 62
     7
100
AcDbLine
 10
-341.9588317871094
 20
275.5848388671875
 30
0.0
 11
-338.9588317871094
 21
278.5848388671875
 31
0.0
  0
LINE
  5
265
330
22
100
AcDbEntity
  8
0
  6
Continuous
 62
     7
100
AcDbLine
 10
-340.5446166992188
 20
275.5848388671875
 30
0.0
 11
-337.5446166992188
 21
278.5848388671875
 31
0.0
  0
LINE
  5
266
330
22
100
AcDbEntity
  8
0
  6
Continuous
 62
     7
100
AcDbLine
 10
-339.4545593261719
 20
275.2606811523438
 30
0.0
 11
-336.5093994140625
 21
278.205841064453
 31
0.0
  0
LINE
  5
267
330
22
100
AcDbEntity
  8
0
  6
Continuous
 62
     7
100
AcDbLine
 10
-339.3023071289063
 20
273.9987487792969
 30
0.0
 11
-336.3883972167969
 21
276.9126281738281
 31
0.0
  0
LINE
  5
268
330
22
100
AcDbEntity
  8
0
  6
Continuous
 62
     7
100
AcDbLine
 10
-338.3019714355469
 20
273.5848388671875
 30
0.0
 11
-336.3883972167969
 21
275.4984436035156
 31
0.0
  0
LINE
  5
269
330
22
100
AcDbEntity
  8
0
  6
Continuous
 62
     7
100
AcDbLine
 10
-346.8883972167969
 20
273.5848388671875
 30
0.0
 11
-440.8883972167968
 21
273.5848388671875
 31
0.0
  0
LINE
  5
26A
330
22
100
AcDbEntity
  8
0
  6
Continuous
 62
     7
100
AcDbLine
 10
-543.8883666992189
 20
266.5848388671875
 30
0.0
 11
-440.8883972167968
 21
266.5848388671875
 31
0.0
  0
LINE
  5
26B
330
22
100
AcDbEntity
  8
0
  6
Continuous
 62
     7
100
AcDbLine
 10
-537.8881225585939
 20
103.0848388671875
 30
0.0
 11
-440.8881225585938
 21
103.0848388671875
 31
0.0
  0
LINE
  5
26C
330
22
100
AcDbEntity
  8
0
  6
Continuous
 62
     7
100
AcDbLine
 10
-493.3881225585937
 20
106.5848388671875
 30
0.0
 11
-440.8881225585938
 21
106.5848388671875
 31
0.0
  0
LINE
  5
26D
330
22
100
AcDbEntity
  8
0
  6
Continuous
 62
     7
100
AcDbLine
 10
-363.6381225585938
 20
456.4548950195312
 30
0.0
 11
-363.6381225585938
 21
447.0882263183593
 31
0.0
  0
LINE
  5
26E
330
22
100
AcDbEntity
  8
0
  6
Continuous
 62
     7
100
AcDbLine
 10
-363.6381225585938
 20
490.7816162109375
 30
0.0
 11
-363.6381225585938
 21
467.0882263183593
 31
0.0
  0
LINE
  5
26F
330
22
100
AcDbEntity
  8
0
  6
Continuous
 62
     7
100
AcDbLine
 10
-345.6381225585938
 20
462.0967102050781
 30
0.0
 11
-345.6381225585938
 21
447.0882263183593
 31
0.0
  0
LINE
  5
270
330
22
100
AcDbEntity
  8
0
  6
Continuous
 62
     7
100
AcDbLine
 10
-375.7905578613281
 20
511.1080932617188
 30
0.0
 11
-372.4476928710938
 21
511.565460205078
 31
0.0
  0
LINE
  5
271
330
22
100
AcDbEntity
  8
0
  6
Continuous
 62
     7
100
AcDbLine
 10
-437.6381225585937
 20
470.1715393066406
 30
0.0
 11
-437.6381225585937
 21
448.0215454101562
 31
0.0
  0
LINE
  5
272
330
22
100
AcDbEntity
  8
0
  6
Continuous
 62
     7
100
AcDbLine
 10
-437.6381225585937
 20
502.6215515136718
 30
0.0
 11
-437.6381225585937
 21
482.7215576171875
 31
0.0
  0
LINE
  5
273
330
22
100
AcDbEntity
  8
0
  6
Continuous
 62
     7
100
AcDbLine
 10
-437.6381225585937
 20
535.9548950195313
 30
0.0
 11
-437.6381225585937
 21
514.188232421875
 31
0.0
  0
LINE
  5
274
330
22
100
AcDbEntity
  8
0
  6
Continuous
 62
     7
100
AcDbLine
 10
-432.6381225585937
 20
535.2742919921874
 30
0.0
 11
-432.6381225585937
 21
516.9712524414063
 31
0.0
  0
LINE
  5
275
330
22
100
AcDbEntity
  8
0
  6
Continuous
 62
     7
100
AcDbLine
 10
-432.6381225585937
 20
465.3048706054688
 30
0.0
 11
-432.6381225585937
 21
447.0882263183593
 31
0.0
  0
LINE
  5
276
330
22
100
AcDbEntity
  8
0
  6
Continuous
 62
     7
100
AcDbLine
 10
-432.6381225585937
 20
506.3379211425781
 30
0.0
 11
-432.6381225585937
 21
475.9712524414062
 31
0.0
  0
LINE
  5
277
330
22
100
AcDbEntity
  8
0
  6
Continuous
 62
     7
100
AcDbLine
 10
-352.1381225585938
 20
471.0152587890624
 30
0.0
 11
-352.1381225585938
 21
447.0882263183593
 31
0.0
  0
LINE
  5
278
330
22
100
AcDbEntity
  8
0
  6
Continuous
 62
     7
100
AcDbLine
 10
-357.1381225585938
 20
456.4548950195312
 30
0.0
 11
-357.1381225585938
 21
447.0882263183593
 31
0.0
  0
LINE
  5
279
330
22
100
AcDbEntity
  8
0
  6
Continuous
 62
     7
100
AcDbLine
 10
-357.1381225585938
 20
490.7816162109375
 30
0.0
 11
-357.1381225585938
 21
467.0882263183593
 31
0.0
  0
LINE
  5
27A
330
22
100
AcDbEntity
  8
0
  6
Continuous
 62
     7
100
AcDbLine
 10
-371.0646667480469
 20
514.8831787109375
 30
0.0
 11
-371.5273132324219
 21
514.8831787109375
 31
0.0
  0
LINE
  5
27B
330
22
100
AcDbEntity
  8
0
  6
Continuous
 62
     7
100
AcDbLine
 10
-371.0646667480469
 20
506.4070129394531
 30
0.0
 11
-371.5273132324219
 21
506.4070129394531
 31
0.0
  0
LINE
  5
27C
330
22
100
AcDbEntity
  8
0
  6
Continuous
 62
     7
100
AcDbLine
 10
-371.9899597167969
 20
506.4070129394531
 30
0.0
 11
-372.4476928710938
 21
509.7247314453125
 31
0.0
  0
LINE
  5
27D
330
22
100
AcDbEntity
  8
0
  6
Continuous
 62
     7
100
AcDbLine
 10
-398.1381225585938
 20
490.2548828125
 30
0.0
 11
-398.1381225585938
 21
480.8882141113281
 31
0.0
  0
LINE
  5
27E
330
22
100
AcDbEntity
  8
0
  6
Continuous
 62
     7
100
AcDbLine
 10
-391.6381225585938
 20
490.2548828125
 30
0.0
 11
-391.6381225585938
 21
480.8882141113281
 31
0.0
  0
LINE
  5
27F
330
22
100
AcDbEntity
  8
0
  6
Continuous
 62
     7
100
AcDbLine
 10
-409.6381225585938
 20
529.4110717773438
 30
0.0
 11
-409.6381225585938
 21
515.04443359375
 31
0.0
  0
LINE
  5
280
330
22
100
AcDbEntity
  8
0
  6
Continuous
 62
     7
100
AcDbLine
 10
-409.6381225585938
 20
504.4080505371093
 30
0.0
 11
-409.6381225585938
 21
472.0882263183593
 31
0.0
  0
LINE
  5
281
330
22
100
AcDbEntity
  8
0
  6
Continuous
 62
     7
100
AcDbLine
 10
-375.7905578613281
 20
510.6451110839843
 30
0.0
 11
-375.7905578613281
 21
510.1820983886718
 31
0.0
  0
LINE
  5
282
330
22
100
AcDbEntity
  8
0
  6
Continuous
 62
     7
100
AcDbLine
 10
-371.9899597167969
 20
514.8831787109375
 30
0.0
 11
-371.5273132324219
 21
514.8831787109375
 31
0.0
  0
LINE
  5
283
330
22
100
AcDbEntity
  8
0
  6
Continuous
 62
     7
100
AcDbLine
 10
-375.1381225585938
 20
471.4548950195313
 30
0.0
 11
-375.1381225585938
 21
447.0882263183593
 31
0.0
  0
LINE
  5
284
330
22
100
AcDbEntity
  8
0
  6
Continuous
 62
     7
100
AcDbLine
 10
-371.9899597167969
 20
514.8831787109375
 30
0.0
 11
-372.4476928710938
 21
511.565460205078
 31
0.0
  0
LINE
  5
285
330
22
100
AcDbEntity
  8
0
  6
Continuous
 62
     7
100
AcDbLine
 10
-391.6381225585938
 20
470.2548828124999
 30
0.0
 11
-391.6381225585938
 21
447.0882263183593
 31
0.0
  0
LINE
  5
286
330
22
100
AcDbEntity
  8
0
  6
Continuous
 62
     7
100
AcDbLine
 10
-371.9899597167969
 20
506.4070129394531
 30
0.0
 11
-371.5273132324219
 21
506.4070129394531
 31
0.0
  0
LINE
  5
287
330
22
100
AcDbEntity
  8
0
  6
Continuous
 62
     7
100
AcDbLine
 10
-375.7905578613281
 20
510.1820983886718
 30
0.0
 11
-372.4476928710938
 21
509.7247314453125
 31
0.0
  0
LINE
  5
288
330
22
100
AcDbEntity
  8
0
  6
Continuous
 62
     7
100
AcDbLine
 10
-426.1381225585938
 20
535.2742919921874
 30
0.0
 11
-426.1381225585938
 21
516.9712524414063
 31
0.0
  0
LINE
  5
289
330
22
100
AcDbEntity
  8
0
  6
Continuous
 62
     7
100
AcDbLine
 10
-403.1381225585938
 20
504.4080505371093
 30
0.0
 11
-403.1381225585938
 21
472.0882263183593
 31
0.0
  0
LINE
  5
28A
330
22
100
AcDbEntity
  8
0
  6
Continuous
 62
     7
100
AcDbLine
 10
-403.1381225585938
 20
529.4110717773438
 30
0.0
 11
-403.1381225585938
 21
515.04443359375
 31
0.0
  0
LINE
  5
28B
330
22
100
AcDbEntity
  8
0
  6
Continuous
 62
     7
100
AcDbLine
 10
-386.6381225585938
 20
476.4548950195313
 30
0.0
 11
-386.6381225585938
 21
447.0882263183593
 31
0.0
  0
LINE
  5
28C
330
22
100
AcDbEntity
  8
0
  6
Continuous
 62
     7
100
AcDbLine
 10
-421.1381225585937
 20
474.7548828124999
 30
0.0
 11
-421.1381225585937
 21
447.0882263183593
 31
0.0
  0
LINE
  5
28D
330
22
100
AcDbEntity
  8
0
  6
Continuous
 62
     7
100
AcDbLine
 10
-421.1381225585937
 20
533.1441040039063
 30
0.0
 11
-421.1381225585937
 21
505.3912353515625
 31
0.0
  0
LINE
  5
28E
330
22
100
AcDbEntity
  8
0
  6
Continuous
 62
     7
100
AcDbLine
 10
-414.6381225585938
 20
533.1441040039063
 30
0.0
 11
-414.6381225585938
 21
505.3912353515625
 31
0.0
  0
LINE
  5
28F
330
22
100
AcDbEntity
  8
0
  6
Continuous
 62
     7
100
AcDbLine
 10
-414.6381225585938
 20
474.7548828124999
 30
0.0
 11
-414.6381225585938
 21
447.0882263183593
 31
0.0
  0
LINE
  5
290
330
22
100
AcDbEntity
  8
0
  6
Continuous
 62
     7
100
AcDbLine
 10
-375.7905578613281
 20
510.6451110839843
 30
0.0
 11
-375.7905578613281
 21
511.1080932617188
 31
0.0
  0
LINE
  5
291
330
22
100
AcDbEntity
  8
0
  6
Continuous
 62
     7
100
AcDbLine
 10
-375.1381225585938
 20
500.9548950195313
 30
0.0
 11
-375.1381225585938
 21
482.0882263183594
 31
0.0
  0
LINE
  5
292
330
22
100
AcDbEntity
  8
0
  6
Continuous
 62
     7
100
AcDbLine
 10
-398.1381225585938
 20
470.2548828124999
 30
0.0
 11
-398.1381225585938
 21
447.0882263183593
 31
0.0
  0
LINE
  5
293
330
22
100
AcDbEntity
  8
0
  6
Continuous
 62
     7
100
AcDbLine
 10
-380.1381225585938
 20
516.3751220703125
 30
0.0
 11
-380.1381225585938
 21
487.0882263183593
 31
0.0
  0
LINE
  5
294
330
22
100
AcDbEntity
  8
0
  6
Continuous
 62
     7
100
AcDbLine
 10
-386.6381225585938
 20
516.3751220703125
 30
0.0
 11
-386.6381225585938
 21
487.0882263183593
 31
0.0
  0
LINE
  5
295
330
22
100
AcDbEntity
  8
0
  6
Continuous
 62
     7
100
AcDbLine
 10
-391.6381225585938
 20
523.9882202148439
 30
0.0
 11
-391.6381225585938
 21
500.8912353515625
 31
0.0
  0
LINE
  5
296
330
22
100
AcDbEntity
  8
0
  6
Continuous
 62
     7
100
AcDbLine
 10
-398.1381225585938
 20
523.9882202148439
 30
0.0
 11
-398.1381225585938
 21
500.8912353515625
 31
0.0
  0
LINE
  5
297
330
22
100
AcDbEntity
  8
0
  6
Continuous
 62
     7
100
AcDbLine
 10
-432.6381225585937
 20
376.2052001953125
 30
0.0
 11
-432.6381225585937
 21
406.5718688964843
 31
0.0
  0
LINE
  5
298
330
22
100
AcDbEntity
  8
0
  6
Continuous
 62
     7
100
AcDbLine
 10
-357.1381225585938
 20
391.7615051269531
 30
0.0
 11
-357.1381225585938
 21
415.4548950195312
 31
0.0
  0
LINE
  5
299
330
22
100
AcDbEntity
  8
0
  6
Continuous
 62
     7
100
AcDbLine
 10
-363.6381225585938
 20
391.7615051269531
 30
0.0
 11
-363.6381225585938
 21
415.4548950195312
 31
0.0
  0
LINE
  5
29A
330
22
100
AcDbEntity
  8
0
  6
Continuous
 62
     7
100
AcDbLine
 10
-380.1381225585938
 20
476.4548950195313
 30
0.0
 11
-380.1381225585938
 21
447.0882263183593
 31
0.0
  0
LINE
  5
29B
330
22
100
AcDbEntity
  8
0
  6
Continuous
 62
     7
100
AcDbLine
 10
-403.1381225585938
 20
461.4548950195312
 30
0.0
 11
-403.1381225585938
 21
447.0882263183593
 31
0.0
  0
LINE
  5
29C
330
22
100
AcDbEntity
  8
0
  6
Continuous
 62
     7
100
AcDbLine
 10
-409.6381225585938
 20
461.4548950195312
 30
0.0
 11
-409.6381225585938
 21
447.0882263183593
 31
0.0
  0
LINE
  5
29D
330
22
100
AcDbEntity
  8
0
  6
Continuous
 62
     7
100
AcDbLine
 10
-421.1381225585937
 20
494.7548828124999
 30
0.0
 11
-421.1381225585937
 21
485.3882141113281
 31
0.0
  0
LINE
  5
29E
330
22
100
AcDbEntity
  8
0
  6
Continuous
 62
     7
100
AcDbLine
 10
-414.6381225585938
 20
494.7548828124999
 30
0.0
 11
-414.6381225585938
 21
485.3882141113281
 31
0.0
  0
LINE
  5
29F
330
22
100
AcDbEntity
  8
0
  6
Continuous
 62
     7
100
AcDbLine
 10
-426.1381225585938
 20
465.3048706054688
 30
0.0
 11
-426.1381225585938
 21
447.0882263183593
 31
0.0
  0
LINE
  5
2A0
330
22
100
AcDbEntity
  8
0
  6
Continuous
 62
     7
100
AcDbLine
 10
-426.1381225585938
 20
506.3379211425781
 30
0.0
 11
-426.1381225585938
 21
475.9712524414062
 31
0.0
  0
LINE
  5
2A1
330
22
100
AcDbEntity
  8
0
  6
Continuous
 62
     7
100
AcDbLine
 10
-375.7522888183594
 20
372.373779296875
 30
0.0
 11
-375.7522888183594
 21
371.9111022949219
 31
0.0
  0
LINE
  5
2A2
330
22
100
AcDbEntity
  8
0
  6
Continuous
 62
     7
100
AcDbLine
 10
-375.7522888183594
 20
371.4484558105469
 30
0.0
 11
-375.7522888183594
 21
371.9111022949219
 31
0.0
  0
LINE
  5
2A3
330
22
100
AcDbEntity
  8
0
  6
Continuous
 62
     7
100
AcDbLine
 10
-371.5141906738281
 20
376.1743774414063
 30
0.0
 11
-371.9772033691406
 21
376.1743774414063
 31
0.0
  0
LINE
  5
2A4
330
22
100
AcDbEntity
  8
0
  6
Continuous
 62
     7
100
AcDbLine
 10
-375.7522888183594
 20
372.373779296875
 30
0.0
 11
-372.4345703125
 21
372.8314819335938
 31
0.0
  0
LINE
  5
2A5
330
22
100
AcDbEntity
  8
0
  6
Continuous
 62
     7
100
AcDbLine
 10
-371.5141906738281
 20
376.1743774414063
 30
0.0
 11
-371.0512084960938
 21
376.1743774414063
 31
0.0
  0
LINE
  5
2A6
330
22
100
AcDbEntity
  8
0
  6
Continuous
 62
     7
100
AcDbLine
 10
-371.9772033691406
 20
376.1743774414063
 30
0.0
 11
-372.4345703125
 21
372.8314819335938
 31
0.0
  0
LINE
  5
2A7
330
22
100
AcDbEntity
  8
0
  6
Continuous
 62
     7
100
AcDbLine
 10
-371.5141906738281
 20
367.6478576660156
 30
0.0
 11
-371.0512084960938
 21
367.6478576660156
 31
0.0
  0
LINE
  5
2A8
330
22
100
AcDbEntity
  8
0
  6
Continuous
 62
     7
100
AcDbLine
 10
-375.7522888183594
 20
371.4484558105469
 30
0.0
 11
-372.4345703125
 21
370.9907531738281
 31
0.0
  0
LINE
  5
2A9
330
22
100
AcDbEntity
  8
0
  6
Continuous
 62
     7
100
AcDbLine
 10
-403.1381225585938
 20
353.3054809570313
 30
0.0
 11
-403.1381225585938
 21
367.4986877441406
 31
0.0
  0
LINE
  5
2AA
330
22
100
AcDbEntity
  8
0
  6
Continuous
 62
     7
100
AcDbLine
 10
-398.1381225585938
 20
358.7283325195313
 30
0.0
 11
-398.1381225585938
 21
381.5518493652344
 31
0.0
  0
LINE
  5
2AB
330
22
100
AcDbEntity
  8
0
  6
Continuous
 62
     7
100
AcDbLine
 10
-391.6381225585938
 20
358.7283325195313
 30
0.0
 11
-391.6381225585938
 21
381.5518493652344
 31
0.0
  0
LINE
  5
2AC
330
22
100
AcDbEntity
  8
0
  6
Continuous
 62
     7
100
AcDbLine
 10
-437.6381225585937
 20
347.5215454101563
 30
0.0
 11
-437.6381225585937
 21
367.4215393066406
 31
0.0
  0
LINE
  5
2AD
330
22
100
AcDbEntity
  8
0
  6
Continuous
 62
     7
100
AcDbLine
 10
-437.6381225585937
 20
379.9215393066406
 30
0.0
 11
-437.6381225585937
 21
399.8215637207031
 31
0.0
  0
LINE
  5
2AE
330
22
100
AcDbEntity
  8
0
  6
Continuous
 62
     7
100
AcDbLine
 10
-432.6381225585937
 20
347.268798828125
 30
0.0
 11
-432.6381225585937
 21
365.5718688964844
 31
0.0
  0
LINE
  5
2AF
330
22
100
AcDbEntity
  8
0
  6
Continuous
 62
     7
100
AcDbLine
 10
-403.1381225585938
 20
378.2350463867188
 30
0.0
 11
-403.1381225585938
 21
410.4548950195312
 31
0.0
  0
LINE
  5
2B0
330
22
100
AcDbEntity
  8
0
  6
Continuous
 62
     7
100
AcDbLine
 10
-409.6381225585938
 20
378.2350463867188
 30
0.0
 11
-409.6381225585938
 21
410.4548950195312
 31
0.0
  0
LINE
  5
2B1
330
22
100
AcDbEntity
  8
0
  6
Continuous
 62
     7
100
AcDbLine
 10
-426.1381225585938
 20
376.2052001953125
 30
0.0
 11
-426.1381225585938
 21
406.5718688964843
 31
0.0
  0
LINE
  5
2B2
330
22
100
AcDbEntity
  8
0
  6
Continuous
 62
     7
100
AcDbLine
 10
-426.1381225585938
 20
347.268798828125
 30
0.0
 11
-426.1381225585938
 21
365.5718688964844
 31
0.0
  0
LINE
  5
2B3
330
22
100
AcDbEntity
  8
0
  6
Continuous
 62
     7
100
AcDbLine
 10
-371.9772033691406
 20
367.6478576660156
 30
0.0
 11
-372.4345703125
 21
370.9907531738281
 31
0.0
  0
LINE
  5
2B4
330
22
100
AcDbEntity
  8
0
  6
Continuous
 62
     7
100
AcDbLine
 10
-409.6381225585938
 20
353.3054809570313
 30
0.0
 11
-409.6381225585938
 21
367.4986877441406
 31
0.0
  0
LINE
  5
2B5
330
22
100
AcDbEntity
  8
0
  6
Continuous
 62
     7
100
AcDbLine
 10
-398.1381225585938
 20
392.2882080078125
 30
0.0
 11
-398.1381225585938
 21
401.6548767089843
 31
0.0
  0
LINE
  5
2B6
330
22
100
AcDbEntity
  8
0
  6
Continuous
 62
     7
100
AcDbLine
 10
-414.6381225585938
 20
349.5724487304688
 30
0.0
 11
-414.6381225585938
 21
377.15185546875
 31
0.0
  0
LINE
  5
2B7
330
22
100
AcDbEntity
  8
0
  6
Continuous
 62
     7
100
AcDbLine
 10
-391.6381225585938
 20
392.2882080078125
 30
0.0
 11
-391.6381225585938
 21
401.6548767089843
 31
0.0
  0
LINE
  5
2B8
330
22
100
AcDbEntity
  8
0
  6
Continuous
 62
     7
100
AcDbLine
 10
-375.1381225585938
 20
381.5882263183594
 30
0.0
 11
-375.1381225585938
 21
400.4548950195313
 31
0.0
  0
LINE
  5
2B9
330
22
100
AcDbEntity
  8
0
  6
Continuous
 62
     7
100
AcDbLine
 10
-380.1381225585938
 20
366.1679992675781
 30
0.0
 11
-380.1381225585938
 21
395.4548950195313
 31
0.0
  0
LINE
  5
2BA
330
22
100
AcDbEntity
  8
0
  6
Continuous
 62
     7
100
AcDbLine
 10
-386.6381225585938
 20
366.1679992675781
 30
0.0
 11
-386.6381225585938
 21
395.4548950195313
 31
0.0
  0
LINE
  5
2BB
330
22
100
AcDbEntity
  8
0
  6
Continuous
 62
     7
100
AcDbLine
 10
-371.5141906738281
 20
367.6478576660156
 30
0.0
 11
-371.9772033691406
 21
367.6478576660156
 31
0.0
  0
LINE
  5
2BC
330
22
100
AcDbEntity
  8
0
  6
Continuous
 62
     7
100
AcDbLine
 10
-467.1381225585938
 20
532.9706420898438
 30
0.0
 11
-467.1381225585938
 21
505.3912353515625
 31
0.0
  0
LINE
  5
2BD
330
22
100
AcDbEntity
  8
0
  6
Continuous
 62
     7
100
AcDbLine
 10
-467.1381225585938
 20
494.6548767089844
 30
0.0
 11
-467.1381225585938
 21
485.188232421875
 31
0.0
  0
LINE
  5
2BE
330
22
100
AcDbEntity
  8
0
  6
Continuous
 62
     7
100
AcDbLine
 10
-449.1381225585937
 20
535.2742919921874
 30
0.0
 11
-449.1381225585937
 21
516.9712524414063
 31
0.0
  0
LINE
  5
2BF
330
22
100
AcDbEntity
  8
0
  6
Continuous
 62
     7
100
AcDbLine
 10
-478.6381225585937
 20
504.3080444335938
 30
0.0
 11
-478.6381225585937
 21
472.0882263183593
 31
0.0
  0
LINE
  5
2C0
330
22
100
AcDbEntity
  8
0
  6
Continuous
 62
     7
100
AcDbLine
 10
-483.6381225585937
 20
470.2548828124999
 30
0.0
 11
-483.6381225585937
 21
447.0882263183593
 31
0.0
  0
LINE
  5
2C1
330
22
100
AcDbEntity
  8
0
  6
Continuous
 62
     7
100
AcDbLine
 10
-490.1381225585938
 20
470.2548828124999
 30
0.0
 11
-490.1381225585938
 21
447.0882263183593
 31
0.0
  0
LINE
  5
2C2
330
22
100
AcDbEntity
  8
0
  6
Continuous
 62
     7
100
AcDbLine
 10
-472.1381225585938
 20
504.3080444335938
 30
0.0
 11
-472.1381225585938
 21
472.0882263183593
 31
0.0
  0
LINE
  5
2C3
330
22
100
AcDbEntity
  8
0
  6
Continuous
 62
     7
100
AcDbLine
 10
-449.1381225585937
 20
506.3379211425781
 30
0.0
 11
-449.1381225585937
 21
475.9712524414062
 31
0.0
  0
LINE
  5
2C4
330
22
100
AcDbEntity
  8
0
  6
Continuous
 62
     7
100
AcDbLine
 10
-460.6381225585938
 20
494.6548767089844
 30
0.0
 11
-460.6381225585938
 21
485.188232421875
 31
0.0
  0
LINE
  5
2C5
330
22
100
AcDbEntity
  8
0
  6
Continuous
 62
     7
100
AcDbLine
 10
-490.1381225585938
 20
523.8147583007814
 30
0.0
 11
-490.1381225585938
 21
500.9912414550781
 31
0.0
  0
LINE
  5
2C6
330
22
100
AcDbEntity
  8
0
  6
Continuous
 62
     7
100
AcDbLine
 10
-472.1381225585938
 20
529.2376098632813
 30
0.0
 11
-472.1381225585938
 21
515.04443359375
 31
0.0
  0
LINE
  5
2C7
330
22
100
AcDbEntity
  8
0
  6
Continuous
 62
     7
100
AcDbLine
 10
-472.1381225585938
 20
461.4548950195312
 30
0.0
 11
-472.1381225585938
 21
447.0882263183593
 31
0.0
  0
LINE
  5
2C8
330
22
100
AcDbEntity
  8
0
  6
Continuous
 62
     7
100
AcDbLine
 10
-460.6381225585938
 20
474.5548706054687
 30
0.0
 11
-460.6381225585938
 21
447.0882263183593
 31
0.0
  0
LINE
  5
2C9
330
22
100
AcDbEntity
  8
0
  6
Continuous
 62
     7
100
AcDbLine
 10
-467.1381225585938
 20
474.5548706054687
 30
0.0
 11
-467.1381225585938
 21
447.0882263183593
 31
0.0
  0
LINE
  5
2CA
330
22
100
AcDbEntity
  8
0
  6
Continuous
 62
     7
100
AcDbLine
 10
-414.6381225585938
 20
387.8882141113281
 30
0.0
 11
-414.6381225585938
 21
397.3548889160156
 31
0.0
  0
LINE
  5
2CB
330
22
100
AcDbEntity
  8
0
  6
Continuous
 62
     7
100
AcDbLine
 10
-421.1381225585937
 20
349.5724487304688
 30
0.0
 11
-421.1381225585937
 21
377.15185546875
 31
0.0
  0
LINE
  5
2CC
330
22
100
AcDbEntity
  8
0
  6
Continuous
 62
     7
100
AcDbLine
 10
-421.1381225585937
 20
387.8882141113281
 30
0.0
 11
-421.1381225585937
 21
397.3548889160156
 31
0.0
  0
LINE
  5
2CD
330
22
100
AcDbEntity
  8
0
  6
Continuous
 62
     7
100
AcDbLine
 10
-455.6381225585938
 20
535.2742919921874
 30
0.0
 11
-455.6381225585938
 21
516.9712524414063
 31
0.0
  0
LINE
  5
2CE
330
22
100
AcDbEntity
  8
0
  6
Continuous
 62
     7
100
AcDbLine
 10
-501.6381225585938
 20
476.4548950195313
 30
0.0
 11
-501.6381225585938
 21
447.0882263183593
 31
0.0
  0
LINE
  5
2CF
330
22
100
AcDbEntity
  8
0
  6
Continuous
 62
     7
100
AcDbLine
 10
-478.6381225585937
 20
461.4548950195312
 30
0.0
 11
-478.6381225585937
 21
447.0882263183593
 31
0.0
  0
LINE
  5
2D0
330
22
100
AcDbEntity
  8
0
  6
Continuous
 62
     7
100
AcDbLine
 10
-490.1381225585938
 20
490.2548828125
 30
0.0
 11
-490.1381225585938
 21
480.8882141113281
 31
0.0
  0
LINE
  5
2D1
330
22
100
AcDbEntity
  8
0
  6
Continuous
 62
     7
100
AcDbLine
 10
-449.1381225585937
 20
465.3048706054688
 30
0.0
 11
-449.1381225585937
 21
447.0882263183593
 31
0.0
  0
LINE
  5
2D2
330
22
100
AcDbEntity
  8
0
  6
Continuous
 62
     7
100
AcDbLine
 10
-495.1381225585937
 20
516.3751220703125
 30
0.0
 11
-495.1381225585937
 21
487.0882263183593
 31
0.0
  0
LINE
  5
2D3
330
22
100
AcDbEntity
  8
0
  6
Continuous
 62
     7
100
AcDbLine
 10
-501.6381225585938
 20
516.3751220703125
 30
0.0
 11
-501.6381225585938
 21
487.0882263183593
 31
0.0
  0
LINE
  5
2D4
330
22
100
AcDbEntity
  8
0
  6
Continuous
 62
     7
100
AcDbLine
 10
-495.1381225585937
 20
476.4548950195313
 30
0.0
 11
-495.1381225585937
 21
447.0882263183593
 31
0.0
  0
LINE
  5
2D5
330
22
100
AcDbEntity
  8
0
  6
Continuous
 62
     7
100
AcDbLine
 10
-483.6381225585937
 20
490.2548828125
 30
0.0
 11
-483.6381225585937
 21
480.8882141113281
 31
0.0
  0
LINE
  5
2D6
330
22
100
AcDbEntity
  8
0
  6
Continuous
 62
     7
100
AcDbLine
 10
-478.6381225585937
 20
529.2376098632813
 30
0.0
 11
-478.6381225585937
 21
515.04443359375
 31
0.0
  0
LINE
  5
2D7
330
22
100
AcDbEntity
  8
0
  6
Continuous
 62
     7
100
AcDbLine
 10
-483.6381225585937
 20
523.8147583007814
 30
0.0
 11
-483.6381225585937
 21
500.9912414550781
 31
0.0
  0
LINE
  5
2D8
330
22
100
AcDbEntity
  8
0
  6
Continuous
 62
     7
100
AcDbLine
 10
-506.0232238769531
 20
511.0946350097655
 30
0.0
 11
-506.0232238769531
 21
510.6319885253906
 31
0.0
  0
LINE
  5
2D9
330
22
100
AcDbEntity
  8
0
  6
Continuous
 62
     7
100
AcDbLine
 10
-509.7983093261718
 20
514.895263671875
 30
0.0
 11
-509.3409118652344
 21
511.5523681640625
 31
0.0
  0
LINE
  5
2DA
330
22
100
AcDbEntity
  8
0
  6
Continuous
 62
     7
100
AcDbLine
 10
-510.7243041992187
 20
514.895263671875
 30
0.0
 11
-511.1816711425781
 21
511.5523681640625
 31
0.0
  0
LINE
  5
2DB
330
22
100
AcDbEntity
  8
0
  6
Continuous
 62
     7
100
AcDbLine
 10
-510.2612915039062
 20
514.895263671875
 30
0.0
 11
-510.7243041992187
 21
514.895263671875
 31
0.0
  0
LINE
  5
2DC
330
22
100
AcDbEntity
  8
0
  6
Continuous
 62
     7
100
AcDbLine
 10
-514.4993896484375
 20
510.1693420410156
 30
0.0
 11
-511.1816711425781
 21
509.7116088867188
 31
0.0
  0
LINE
  5
2DD
330
22
100
AcDbEntity
  8
0
  6
Continuous
 62
     7
100
AcDbLine
 10
-506.6381225585938
 20
500.9548950195313
 30
0.0
 11
-506.6381225585938
 21
482.0882263183594
 31
0.0
  0
LINE
  5
2DE
330
22
100
AcDbEntity
  8
0
  6
Continuous
 62
     7
100
AcDbLine
 10
-518.1381225585938
 20
490.7816162109375
 30
0.0
 11
-518.1381225585938
 21
467.0882263183593
 31
0.0
  0
LINE
  5
2DF
330
22
100
AcDbEntity
  8
0
  6
Continuous
 62
     7
100
AcDbLine
 10
-518.1381225585938
 20
456.4548950195312
 30
0.0
 11
-518.1381225585938
 21
447.0882263183593
 31
0.0
  0
LINE
  5
2E0
330
22
100
AcDbEntity
  8
0
  6
Continuous
 62
     7
100
AcDbLine
 10
-514.4993896484375
 20
511.0946350097655
 30
0.0
 11
-514.4993896484375
 21
510.6319885253906
 31
0.0
  0
LINE
  5
2E1
330
22
100
AcDbEntity
  8
0
  6
Continuous
 62
     7
100
AcDbLine
 10
-513.1381225585938
 20
500.9548950195313
 30
0.0
 11
-513.1381225585938
 21
482.0882263183594
 31
0.0
  0
LINE
  5
2E2
330
22
100
AcDbEntity
  8
0
  6
Continuous
 62
     7
100
AcDbLine
 10
-514.4993896484375
 20
510.1693420410156
 30
0.0
 11
-514.4993896484375
 21
510.6319885253906
 31
0.0
  0
LINE
  5
2E3
330
22
100
AcDbEntity
  8
0
  6
Continuous
 62
     7
100
AcDbLine
 10
-513.1381225585938
 20
471.4548950195313
 30
0.0
 11
-513.1381225585938
 21
447.0882263183593
 31
0.0
  0
LINE
  5
2E4
330
22
100
AcDbEntity
  8
0
  6
Continuous
 62
     7
100
AcDbLine
 10
-460.6381225585938
 20
532.9706420898438
 30
0.0
 11
-460.6381225585938
 21
505.3912353515625
 31
0.0
  0
LINE
  5
2E5
330
22
100
AcDbEntity
  8
0
  6
Continuous
 62
     7
100
AcDbLine
 10
-455.6381225585938
 20
465.3048706054688
 30
0.0
 11
-455.6381225585938
 21
447.0882263183593
 31
0.0
  0
LINE
  5
2E6
330
22
100
AcDbEntity
  8
0
  6
Continuous
 62
     7
100
AcDbLine
 10
-455.6381225585938
 20
506.3379211425781
 30
0.0
 11
-455.6381225585938
 21
475.9712524414062
 31
0.0
  0
LINE
  5
2E7
330
22
100
AcDbEntity
  8
0
  6
Continuous
 62
     7
100
AcDbLine
 10
-524.6381225585938
 20
456.4548950195312
 30
0.0
 11
-524.6381225585938
 21
447.0882263183593
 31
0.0
  0
LINE
  5
2E8
330
22
100
AcDbEntity
  8
0
  6
Continuous
 62
     7
100
AcDbLine
 10
-536.1381225585938
 20
462.0967102050781
 30
0.0
 11
-536.1381225585938
 21
447.0882263183593
 31
0.0
  0
LINE
  5
2E9
330
22
100
AcDbEntity
  8
0
  6
Continuous
 62
     7
100
AcDbLine
 10
-524.6381225585938
 20
490.7816162109375
 30
0.0
 11
-524.6381225585938
 21
467.0882263183593
 31
0.0
  0
LINE
  5
2EA
330
22
100
AcDbEntity
  8
0
  6
Continuous
 62
     7
100
AcDbLine
 10
-529.6381225585938
 20
471.0152587890624
 30
0.0
 11
-529.6381225585938
 21
447.0882263183593
 31
0.0
  0
LINE
  5
2EB
330
22
100
AcDbEntity
  8
0
  6
Continuous
 62
     7
100
AcDbLine
 10
-506.0232238769531
 20
510.1693420410156
 30
0.0
 11
-509.3409118652344
 21
509.7116088867188
 31
0.0
  0
LINE
  5
2EC
330
22
100
AcDbEntity
  8
0
  6
Continuous
 62
     7
100
AcDbLine
 10
-506.0232238769531
 20
511.0946350097655
 30
0.0
 11
-509.3409118652344
 21
511.5523681640625
 31
0.0
  0
LINE
  5
2ED
330
22
100
AcDbEntity
  8
0
  6
Continuous
 62
     7
100
AcDbLine
 10
-506.6381225585938
 20
471.4548950195313
 30
0.0
 11
-506.6381225585938
 21
447.0882263183593
 31
0.0
  0
LINE
  5
2EE
330
22
100
AcDbEntity
  8
0
  6
Continuous
 62
     7
100
AcDbLine
 10
-510.7243041992187
 20
506.3687438964843
 30
0.0
 11
-511.1816711425781
 21
509.7116088867188
 31
0.0
  0
LINE
  5
2EF
330
22
100
AcDbEntity
  8
0
  6
Continuous
 62
     7
100
AcDbLine
 10
-509.7983093261718
 20
506.3687438964843
 30
0.0
 11
-509.3409118652344
 21
509.7116088867188
 31
0.0
  0
LINE
  5
2F0
330
22
100
AcDbEntity
  8
0
  6
Continuous
 62
     7
100
AcDbLine
 10
-506.0232238769531
 20
510.1693420410156
 30
0.0
 11
-506.0232238769531
 21
510.6319885253906
 31
0.0
  0
LINE
  5
2F1
330
22
100
AcDbEntity
  8
0
  6
Continuous
 62
     7
100
AcDbLine
 10
-510.2612915039062
 20
506.3687438964843
 30
0.0
 11
-509.7983093261718
 21
506.3687438964843
 31
0.0
  0
LINE
  5
2F2
330
22
100
AcDbEntity
  8
0
  6
Continuous
 62
     7
100
AcDbLine
 10
-510.2612915039062
 20
514.895263671875
 30
0.0
 11
-509.7983093261718
 21
514.895263671875
 31
0.0
  0
LINE
  5
2F3
330
22
100
AcDbEntity
  8
0
  6
Continuous
 62
     7
100
AcDbLine
 10
-510.2612915039062
 20
506.3687438964843
 30
0.0
 11
-510.7243041992187
 21
506.3687438964843
 31
0.0
  0
LINE
  5
2F4
330
22
100
AcDbEntity
  8
0
  6
Continuous
 62
     7
100
AcDbLine
 10
-514.4993896484375
 20
511.0946350097655
 30
0.0
 11
-511.1816711425781
 21
511.5523681640625
 31
0.0
  0
LINE
  5
2F5
330
22
100
AcDbEntity
  8
0
  6
Continuous
 62
     7
100
AcDbLine
 10
-472.1381225585938
 20
378.2350463867188
 30
0.0
 11
-472.1381225585938
 21
410.4548950195312
 31
0.0
  0
LINE
  5
2F6
330
22
100
AcDbEntity
  8
0
  6
Continuous
 62
     7
100
AcDbLine
 10
-455.6381225585938
 20
347.268798828125
 30
0.0
 11
-455.6381225585938
 21
365.5718688964844
 31
0.0
  0
LINE
  5
2F7
330
22
100
AcDbEntity
  8
0
  6
Continuous
 62
     7
100
AcDbLine
 10
-455.6381225585938
 20
376.2052001953125
 30
0.0
 11
-455.6381225585938
 21
406.5718688964843
 31
0.0
  0
LINE
  5
2F8
330
22
100
AcDbEntity
  8
0
  6
Continuous
 62
     7
100
AcDbLine
 10
-467.1381225585938
 20
387.8882141113281
 30
0.0
 11
-467.1381225585938
 21
397.3548889160156
 31
0.0
  0
LINE
  5
2F9
330
22
100
AcDbEntity
  8
0
  6
Continuous
 62
     7
100
AcDbLine
 10
-490.1381225585938
 20
392.2882080078125
 30
0.0
 11
-490.1381225585938
 21
401.6548767089843
 31
0.0
  0
LINE
  5
2FA
330
22
100
AcDbEntity
  8
0
  6
Continuous
 62
     7
100
AcDbLine
 10
-483.6381225585937
 20
392.2882080078125
 30
0.0
 11
-483.6381225585937
 21
401.6548767089843
 31
0.0
  0
LINE
  5
2FB
330
22
100
AcDbEntity
  8
0
  6
Continuous
 62
     7
100
AcDbLine
 10
-460.6381225585938
 20
387.8882141113281
 30
0.0
 11
-460.6381225585938
 21
397.3548889160156
 31
0.0
  0
LINE
  5
2FC
330
22
100
AcDbEntity
  8
0
  6
Continuous
 62
     7
100
AcDbLine
 10
-449.1381225585937
 20
347.268798828125
 30
0.0
 11
-449.1381225585937
 21
365.5718688964844
 31
0.0
  0
LINE
  5
2FD
330
22
100
AcDbEntity
  8
0
  6
Continuous
 62
     7
100
AcDbLine
 10
-449.1381225585937
 20
376.2052001953125
 30
0.0
 11
-449.1381225585937
 21
406.5718688964843
 31
0.0
  0
LINE
  5
2FE
330
22
100
AcDbEntity
  8
0
  6
Continuous
 62
     7
100
AcDbLine
 10
-472.1381225585938
 20
353.3054809570313
 30
0.0
 11
-472.1381225585938
 21
367.4986877441406
 31
0.0
  0
LINE
  5
2FF
330
22
100
AcDbEntity
  8
0
  6
Continuous
 62
     7
100
AcDbLine
 10
-501.6381225585938
 20
366.1679992675781
 30
0.0
 11
-501.6381225585938
 21
395.4548950195313
 31
0.0
  0
LINE
  5
300
330
22
100
AcDbEntity
  8
0
  6
Continuous
 62
     7
100
AcDbLine
 10
-510.7108459472656
 20
376.1360778808594
 30
0.0
 11
-511.1685485839843
 21
372.8183898925781
 31
0.0
  0
LINE
  5
301
330
22
100
AcDbEntity
  8
0
  6
Continuous
 62
     7
100
AcDbLine
 10
-510.7108459472656
 20
376.1360778808594
 30
0.0
 11
-510.2481994628906
 21
376.1360778808594
 31
0.0
  0
LINE
  5
302
330
22
100
AcDbEntity
  8
0
  6
Continuous
 62
     7
100
AcDbLine
 10
-514.5114135742188
 20
372.3609924316406
 30
0.0
 11
-511.1685485839843
 21
372.8183898925781
 31
0.0
  0
LINE
  5
303
330
22
100
AcDbEntity
  8
0
  6
Continuous
 62
     7
100
AcDbLine
 10
-509.7855224609374
 20
376.1360778808594
 30
0.0
 11
-509.3278198242187
 21
372.8183898925781
 31
0.0
  0
LINE
  5
304
330
22
100
AcDbEntity
  8
0
  6
Continuous
 62
     7
100
AcDbLine
 10
-514.5114135742188
 20
371.8980102539063
 30
0.0
 11
-514.5114135742188
 21
372.3609924316406
 31
0.0
  0
LINE
  5
305
330
22
100
AcDbEntity
  8
0
  6
Continuous
 62
     7
100
AcDbLine
 10
-514.5114135742188
 20
371.8980102539063
 30
0.0
 11
-514.5114135742188
 21
371.4349975585938
 31
0.0
  0
LINE
  5
306
330
22
100
AcDbEntity
  8
0
  6
Continuous
 62
     7
100
AcDbLine
 10
-518.1381225585938
 20
391.7615051269531
 30
0.0
 11
-518.1381225585938
 21
415.4548950195312
 31
0.0
  0
LINE
  5
307
330
22
100
AcDbEntity
  8
0
  6
Continuous
 62
     7
100
AcDbLine
 10
-513.1381225585938
 20
381.5882263183594
 30
0.0
 11
-513.1381225585938
 21
400.4548950195313
 31
0.0
  0
LINE
  5
308
330
22
100
AcDbEntity
  8
0
  6
Continuous
 62
     7
100
AcDbLine
 10
-478.6381225585937
 20
378.2350463867188
 30
0.0
 11
-478.6381225585937
 21
410.4548950195312
 31
0.0
  0
LINE
  5
309
330
22
100
AcDbEntity
  8
0
  6
Continuous
 62
     7
100
AcDbLine
 10
-495.1381225585937
 20
366.1679992675781
 30
0.0
 11
-495.1381225585937
 21
395.4548950195313
 31
0.0
  0
LINE
  5
30A
330
22
100
AcDbEntity
  8
0
  6
Continuous
 62
     7
100
AcDbLine
 10
-478.6381225585937
 20
353.3054809570313
 30
0.0
 11
-478.6381225585937
 21
367.4986877441406
 31
0.0
  0
LINE
  5
30B
330
22
100
AcDbEntity
  8
0
  6
Continuous
 62
     7
100
AcDbLine
 10
-490.1381225585938
 20
358.7283325195313
 30
0.0
 11
-490.1381225585938
 21
381.5518493652344
 31
0.0
  0
LINE
  5
30C
330
22
100
AcDbEntity
  8
0
  6
Continuous
 62
     7
100
AcDbLine
 10
-483.6381225585937
 20
358.7283325195313
 30
0.0
 11
-483.6381225585937
 21
381.5518493652344
 31
0.0
  0
LINE
  5
30D
330
22
100
AcDbEntity
  8
0
  6
Continuous
 62
     7
100
AcDbLine
 10
-460.6381225585938
 20
349.5724487304688
 30
0.0
 11
-460.6381225585938
 21
377.15185546875
 31
0.0
  0
LINE
  5
30E
330
22
100
AcDbEntity
  8
0
  6
Continuous
 62
     7
100
AcDbLine
 10
-467.1381225585938
 20
349.5724487304688
 30
0.0
 11
-467.1381225585938
 21
377.15185546875
 31
0.0
  0
LINE
  5
30F
330
22
100
AcDbEntity
  8
0
  6
Continuous
 62
     7
100
AcDbLine
 10
-524.6381225585938
 20
391.7615051269531
 30
0.0
 11
-524.6381225585938
 21
415.4548950195312
 31
0.0
  0
LINE
  5
310
330
22
100
AcDbEntity
  8
0
  6
Continuous
 62
     7
100
AcDbLine
 10
-514.5114135742188
 20
371.4349975585938
 30
0.0
 11
-511.1685485839843
 21
370.9776306152344
 31
0.0
  0
LINE
  5
311
330
22
100
AcDbEntity
  8
0
  6
Continuous
 62
     7
100
AcDbLine
 10
-505.9849243164062
 20
371.8980102539063
 30
0.0
 11
-505.9849243164062
 21
371.4349975585938
 31
0.0
  0
LINE
  5
312
330
22
100
AcDbEntity
  8
0
  6
Continuous
 62
     7
100
AcDbLine
 10
-509.7855224609374
 20
376.1360778808594
 30
0.0
 11
-510.2481994628906
 21
376.1360778808594
 31
0.0
  0
LINE
  5
313
330
22
100
AcDbEntity
  8
0
  6
Continuous
 62
     7
100
AcDbLine
 10
-505.9849243164062
 20
371.8980102539063
 30
0.0
 11
-505.9849243164062
 21
372.3609924316406
 31
0.0
  0
LINE
  5
314
330
22
100
AcDbEntity
  8
0
  6
Continuous
 62
     7
100
AcDbLine
 10
-505.9849243164062
 20
371.4349975585938
 30
0.0
 11
-509.3278198242187
 21
370.9776306152344
 31
0.0
  0
LINE
  5
315
330
22
100
AcDbEntity
  8
0
  6
Continuous
 62
     7
100
AcDbLine
 10
-505.9849243164062
 20
372.3609924316406
 30
0.0
 11
-509.3278198242187
 21
372.8183898925781
 31
0.0
  0
LINE
  5
316
330
22
100
AcDbEntity
  8
0
  6
Continuous
 62
     7
100
AcDbLine
 10
-509.7855224609374
 20
367.6599426269531
 30
0.0
 11
-510.2481994628906
 21
367.6599426269531
 31
0.0
  0
LINE
  5
317
330
22
100
AcDbEntity
  8
0
  6
Continuous
 62
     7
100
AcDbLine
 10
-510.7108459472656
 20
367.6599426269531
 30
0.0
 11
-510.2481994628906
 21
367.6599426269531
 31
0.0
  0
LINE
  5
318
330
22
100
AcDbEntity
  8
0
  6
Continuous
 62
     7
100
AcDbLine
 10
-510.7108459472656
 20
367.6599426269531
 30
0.0
 11
-511.1685485839843
 21
370.9776306152344
 31
0.0
  0
LINE
  5
319
330
22
100
AcDbEntity
  8
0
  6
Continuous
 62
     7
100
AcDbLine
 10
-509.7855224609374
 20
367.6599426269531
 30
0.0
 11
-509.3278198242187
 21
370.9776306152344
 31
0.0
  0
LINE
  5
31A
330
22
100
AcDbEntity
  8
0
  6
Continuous
 62
     7
100
AcDbLine
 10
-506.6381225585938
 20
381.5882263183594
 30
0.0
 11
-506.6381225585938
 21
400.4548950195313
 31
0.0
  0
LINE
  5
31B
330
22
100
AcDbEntity
  8
0
  6
Continuous
 62
     7
100
AcDbLine
 10
-367.2640686035156
 20
510.6451110839843
 30
0.0
 11
-367.2640686035156
 21
511.1080932617188
 31
0.0
  0
LINE
  5
31C
330
22
100
AcDbEntity
  8
0
  6
Continuous
 62
     7
100
AcDbLine
 10
-368.6381225585938
 20
471.4548950195313
 30
0.0
 11
-368.6381225585938
 21
447.0882263183593
 31
0.0
  0
LINE
  5
31D
330
22
100
AcDbEntity
  8
0
  6
Continuous
 62
     7
100
AcDbLine
 10
-367.276123046875
 20
372.373779296875
 30
0.0
 11
-367.276123046875
 21
371.9111022949219
 31
0.0
  0
LINE
  5
31E
330
22
100
AcDbEntity
  8
0
  6
Continuous
 62
     7
100
AcDbLine
 10
-367.276123046875
 20
371.4484558105469
 30
0.0
 11
-367.276123046875
 21
371.9111022949219
 31
0.0
  0
LINE
  5
31F
330
22
100
AcDbEntity
  8
0
  6
Continuous
 62
     7
100
AcDbLine
 10
-367.276123046875
 20
371.4484558105469
 30
0.0
 11
-370.5938415527344
 21
370.9907531738281
 31
0.0
  0
LINE
  5
320
330
22
100
AcDbEntity
  8
0
  6
Continuous
 62
     7
100
AcDbLine
 10
-371.0512084960938
 20
367.6478576660156
 30
0.0
 11
-370.5938415527344
 21
370.9907531738281
 31
0.0
  0
LINE
  5
321
330
22
100
AcDbEntity
  8
0
  6
Continuous
 62
     7
100
AcDbLine
 10
-368.6381225585938
 20
381.5882263183594
 30
0.0
 11
-368.6381225585938
 21
400.4548950195313
 31
0.0
  0
LINE
  5
322
330
22
100
AcDbEntity
  8
0
  6
Continuous
 62
     7
100
AcDbLine
 10
-367.276123046875
 20
372.373779296875
 30
0.0
 11
-370.5938415527344
 21
372.8314819335938
 31
0.0
  0
LINE
  5
323
330
22
100
AcDbEntity
  8
0
  6
Continuous
 62
     7
100
AcDbLine
 10
-371.0512084960938
 20
376.1743774414063
 30
0.0
 11
-370.5938415527344
 21
372.8314819335938
 31
0.0
  0
LINE
  5
324
330
22
100
AcDbEntity
  8
0
  6
Continuous
 62
     7
100
AcDbLine
 10
-367.2640686035156
 20
510.6451110839843
 30
0.0
 11
-367.2640686035156
 21
510.1820983886718
 31
0.0
  0
LINE
  5
325
330
22
100
AcDbEntity
  8
0
  6
Continuous
 62
     7
100
AcDbLine
 10
-368.6381225585938
 20
500.9548950195313
 30
0.0
 11
-368.6381225585938
 21
482.0882263183594
 31
0.0
  0
LINE
  5
326
330
22
100
AcDbEntity
  8
0
  6
Continuous
 62
     7
100
AcDbLine
 10
-367.2640686035156
 20
511.1080932617188
 30
0.0
 11
-370.60693359375
 21
511.565460205078
 31
0.0
  0
LINE
  5
327
330
22
100
AcDbEntity
  8
0
  6
Continuous
 62
     7
100
AcDbLine
 10
-371.0646667480469
 20
514.8831787109375
 30
0.0
 11
-370.60693359375
 21
511.565460205078
 31
0.0
  0
LINE
  5
328
330
22
100
AcDbEntity
  8
0
  6
Continuous
 62
     7
100
AcDbLine
 10
-367.2640686035156
 20
510.1820983886718
 30
0.0
 11
-370.60693359375
 21
509.7247314453125
 31
0.0
  0
LINE
  5
329
330
22
100
AcDbEntity
  8
0
  6
Continuous
 62
     7
100
AcDbLine
 10
-371.0646667480469
 20
506.4070129394531
 30
0.0
 11
-370.60693359375
 21
509.7247314453125
 31
0.0
  0
LINE
  5
32A
330
22
100
AcDbEntity
  8
0
  6
Continuous
 62
     7
100
AcDbLine
 10
-409.6381225585938
 20
421.0882263183593
 30
0.0
 11
-409.6381225585938
 21
435.4548950195312
 31
0.0
  0
LINE
  5
32B
330
22
100
AcDbEntity
  8
0
  6
Continuous
 62
     7
100
AcDbLine
 10
-421.1381225585937
 20
407.9882202148437
 30
0.0
 11
-421.1381225585937
 21
435.4548950195312
 31
0.0
  0
LINE
  5
32C
330
22
100
AcDbEntity
  8
0
  6
Continuous
 62
     7
100
AcDbLine
 10
-414.6381225585938
 20
407.9882202148437
 30
0.0
 11
-414.6381225585938
 21
435.4548950195312
 31
0.0
  0
LINE
  5
32D
330
22
100
AcDbEntity
  8
0
  6
Continuous
 62
     7
100
AcDbLine
 10
-426.1381225585938
 20
417.2382202148438
 30
0.0
 11
-426.1381225585938
 21
435.4548950195312
 31
0.0
  0
LINE
  5
32E
330
22
100
AcDbEntity
  8
0
  6
Continuous
 62
     7
100
AcDbLine
 10
-368.6381225585938
 20
411.0882263183594
 30
0.0
 11
-368.6381225585938
 21
435.4548950195312
 31
0.0
  0
LINE
  5
32F
330
22
100
AcDbEntity
  8
0
  6
Continuous
 62
     7
100
AcDbLine
 10
-391.6381225585938
 20
412.2882080078125
 30
0.0
 11
-391.6381225585938
 21
435.4548950195312
 31
0.0
  0
LINE
  5
330
330
22
100
AcDbEntity
  8
0
  6
Continuous
 62
     7
100
AcDbLine
 10
-380.1381225585938
 20
406.0882263183593
 30
0.0
 11
-380.1381225585938
 21
435.4548950195312
 31
0.0
  0
LINE
  5
331
330
22
100
AcDbEntity
  8
0
  6
Continuous
 62
     7
100
AcDbLine
 10
-386.6381225585938
 20
406.0882263183593
 30
0.0
 11
-386.6381225585938
 21
435.4548950195312
 31
0.0
  0
LINE
  5
332
330
22
100
AcDbEntity
  8
0
  6
CENTER
 62
     7
100
AcDbLine
 10
-440.8881225585938
 20
321.3828735351563
 30
0.0
 11
-440.8881225585938
 21
561.2338256835938
 31
0.0
  0
LINE
  5
333
330
22
100
AcDbEntity
  8
0
  6
Continuous
 62
     7
100
AcDbLine
 10
-437.6381225585937
 20
412.3715515136718
 30
0.0
 11
-437.6381225585937
 21
432.2715454101563
 31
0.0
  0
LINE
  5
334
330
22
100
AcDbEntity
  8
0
  6
Continuous
 62
     7
100
AcDbLine
 10
-432.6381225585937
 20
417.2382202148438
 30
0.0
 11
-432.6381225585937
 21
435.4548950195312
 31
0.0
  0
LINE
  5
335
330
22
100
AcDbEntity
  8
0
  6
Continuous
 62
     7
100
AcDbLine
 10
-524.6381225585938
 20
426.0882263183593
 30
0.0
 11
-524.6381225585938
 21
435.4548950195312
 31
0.0
  0
LINE
  5
336
330
22
100
AcDbEntity
  8
0
  6
Continuous
 62
     7
100
AcDbLine
 10
-518.1381225585938
 20
426.0882263183593
 30
0.0
 11
-518.1381225585938
 21
435.4548950195312
 31
0.0
  0
LINE
  5
337
330
22
100
AcDbEntity
  8
0
  6
Continuous
 62
     7
100
AcDbLine
 10
-529.6381225585938
 20
411.5278625488281
 30
0.0
 11
-529.6381225585938
 21
435.4548950195312
 31
0.0
  0
LINE
  5
338
330
22
100
AcDbEntity
  8
0
  6
Continuous
 62
     7
100
AcDbLine
 10
-501.6381225585938
 20
406.0882263183593
 30
0.0
 11
-501.6381225585938
 21
435.4548950195312
 31
0.0
  0
LINE
  5
339
330
22
100
AcDbEntity
  8
0
  6
Continuous
 62
     7
100
AcDbLine
 10
-513.1381225585938
 20
411.0882263183594
 30
0.0
 11
-513.1381225585938
 21
435.4548950195312
 31
0.0
  0
LINE
  5
33A
330
22
100
AcDbEntity
  8
0
  6
Continuous
 62
     7
100
AcDbLine
 10
-506.6381225585938
 20
411.0882263183594
 30
0.0
 11
-506.6381225585938
 21
435.4548950195312
 31
0.0
  0
LINE
  5
33B
330
22
100
AcDbEntity
  8
0
  6
Continuous
 62
     7
100
AcDbLine
 10
-490.1381225585938
 20
412.2882080078125
 30
0.0
 11
-490.1381225585938
 21
435.4548950195312
 31
0.0
  0
LINE
  5
33C
330
22
100
AcDbEntity
  8
0
  6
Continuous
 62
     7
100
AcDbLine
 10
-460.6381225585938
 20
407.9882202148437
 30
0.0
 11
-460.6381225585938
 21
435.4548950195312
 31
0.0
  0
LINE
  5
33D
330
22
100
AcDbEntity
  8
0
  6
Continuous
 62
     7
100
AcDbLine
 10
-483.6381225585937
 20
412.2882080078125
 30
0.0
 11
-483.6381225585937
 21
435.4548950195312
 31
0.0
  0
LINE
  5
33E
330
22
100
AcDbEntity
  8
0
  6
Continuous
 62
     7
100
AcDbLine
 10
-467.1381225585938
 20
407.9882202148437
 30
0.0
 11
-467.1381225585938
 21
435.4548950195312
 31
0.0
  0
LINE
  5
33F
330
22
100
AcDbEntity
  8
0
  6
Continuous
 62
     7
100
AcDbLine
 10
-449.1381225585937
 20
417.2382202148438
 30
0.0
 11
-449.1381225585937
 21
435.4548950195312
 31
0.0
  0
LINE
  5
340
330
22
100
AcDbEntity
  8
0
  6
Continuous
 62
     7
100
AcDbLine
 10
-455.6381225585938
 20
417.2382202148438
 30
0.0
 11
-455.6381225585938
 21
435.4548950195312
 31
0.0
  0
LINE
  5
341
330
22
100
AcDbEntity
  8
0
  6
Continuous
 62
     7
100
AcDbLine
 10
-495.1381225585937
 20
406.0882263183593
 30
0.0
 11
-495.1381225585937
 21
435.4548950195312
 31
0.0
  0
LINE
  5
342
330
22
100
AcDbEntity
  8
0
  6
Continuous
 62
     7
100
AcDbLine
 10
-536.1381225585938
 20
420.4463806152343
 30
0.0
 11
-536.1381225585938
 21
435.4548950195312
 31
0.0
  0
LINE
  5
343
330
22
100
AcDbEntity
  8
0
  6
Continuous
 62
     7
100
AcDbLine
 10
-478.6381225585937
 20
421.0882263183593
 30
0.0
 11
-478.6381225585937
 21
435.4548950195312
 31
0.0
  0
LINE
  5
344
330
22
100
AcDbEntity
  8
0
  6
Continuous
 62
     7
100
AcDbLine
 10
-472.1381225585938
 20
421.0882263183593
 30
0.0
 11
-472.1381225585938
 21
435.4548950195312
 31
0.0
  0
LINE
  5
345
330
22
100
AcDbEntity
  8
0
  6
Continuous
 62
     7
100
AcDbLine
 10
-363.6381225585938
 20
426.0882263183593
 30
0.0
 11
-363.6381225585938
 21
435.4548950195312
 31
0.0
  0
LINE
  5
346
330
22
100
AcDbEntity
  8
0
  6
Continuous
 62
     7
100
AcDbLine
 10
-357.1381225585938
 20
426.0882263183593
 30
0.0
 11
-357.1381225585938
 21
435.4548950195312
 31
0.0
  0
LINE
  5
347
330
22
100
AcDbEntity
  8
0
  6
Continuous
 62
     7
100
AcDbLine
 10
-352.1381225585938
 20
411.5278625488281
 30
0.0
 11
-352.1381225585938
 21
435.4548950195312
 31
0.0
  0
LINE
  5
348
330
22
100
AcDbEntity
  8
0
  6
Continuous
 62
     7
100
AcDbLine
 10
-375.1381225585938
 20
411.0882263183594
 30
0.0
 11
-375.1381225585938
 21
435.4548950195312
 31
0.0
  0
LINE
  5
349
330
22
100
AcDbEntity
  8
0
  6
Continuous
 62
     7
100
AcDbLine
 10
-398.1381225585938
 20
412.2882080078125
 30
0.0
 11
-398.1381225585938
 21
435.4548950195312
 31
0.0
  0
LINE
  5
34A
330
22
100
AcDbEntity
  8
0
  6
Continuous
 62
     7
100
AcDbLine
 10
-345.6381225585938
 20
420.4463806152343
 30
0.0
 11
-345.6381225585938
 21
435.4548950195312
 31
0.0
  0
LINE
  5
34B
330
22
100
AcDbEntity
  8
0
  6
Continuous
 62
     7
100
AcDbLine
 10
-403.1381225585938
 20
421.0882263183593
 30
0.0
 11
-403.1381225585938
 21
435.4548950195312
 31
0.0
  0
LINE
  5
34C
330
22
100
AcDbEntity
  8
0
  6
Continuous
 62
     7
100
AcDbLine
 10
-444.1381225585938
 20
470.1715393066406
 30
0.0
 11
-444.1381225585938
 21
448.0215454101562
 31
0.0
  0
LINE
  5
34D
330
22
100
AcDbEntity
  8
0
  6
CENTER
 62
     7
100
AcDbLine
 10
-314.7542724609375
 20
443.1767272949218
 30
0.0
 11
-563.5248413085937
 21
443.1767272949218
 31
0.0
  0
LINE
  5
34E
330
22
100
AcDbEntity
  8
0
  6
Continuous
 62
     7
100
AcDbLine
 10
-444.1381225585938
 20
412.3715515136718
 30
0.0
 11
-444.1381225585938
 21
432.2715454101563
 31
0.0
  0
LINE
  5
34F
330
22
100
AcDbEntity
  8
0
  6
Continuous
 62
     7
100
AcDbLine
 10
-444.1381225585938
 20
347.5215454101563
 30
0.0
 11
-444.1381225585938
 21
367.4215393066406
 31
0.0
  0
LINE
  5
350
330
22
100
AcDbEntity
  8
0
  6
Continuous
 62
     7
100
AcDbLine
 10
-444.1381225585938
 20
379.9215393066406
 30
0.0
 11
-444.1381225585938
 21
399.8215637207031
 31
0.0
  0
LINE
  5
351
330
22
100
AcDbEntity
  8
0
  6
Continuous
 62
     7
100
AcDbLine
 10
-444.1381225585938
 20
502.6215515136718
 30
0.0
 11
-444.1381225585938
 21
482.7215576171875
 31
0.0
  0
LINE
  5
352
330
22
100
AcDbEntity
  8
0
  6
Continuous
 62
     7
100
AcDbLine
 10
-444.1381225585938
 20
535.9548950195313
 30
0.0
 11
-444.1381225585938
 21
514.188232421875
 31
0.0
  0
ARC
  5
353
330
22
100
AcDbEntity
  8
0
  6
Continuous
 62
     7
100
AcDbCircle
 10
-326.8883972167969
 20
277.5848388671875
 30
0.0
 40
1.0
100
AcDbArc
 50
0.0
 51
90.00000000000019
  0
ARC
  5
354
330
22
100
AcDbEntity
  8
0
  6
Continuous
 62
     7
100
AcDbCircle
 10
-326.8883972167969
 20
275.5848388671875
 30
0.0
 40
1.0
100
AcDbArc
 50
270.0000000000005
 51
0.0
  0
ARC
  5
355
330
22
100
AcDbEntity
  8
0
  6
Continuous
 62
     7
100
AcDbCircle
 10
-339.8883972167969
 20
275.0848388671875
 30
0.0
 40
0.5
100
AcDbArc
 50
0.0
 51
90.00000000000019
  0
ARC
  5
356
330
22
100
AcDbEntity
  8
0
  6
Continuous
 62
     7
100
AcDbCircle
 10
-554.8883666992188
 20
277.5848388671875
 30
0.0
 40
1.0
100
AcDbArc
 50
90.00000000000019
 51
180.0000000000004
  0
ARC
  5
357
330
22
100
AcDbEntity
  8
0
  6
Continuous
 62
     7
100
AcDbCircle
 10
-554.8883666992188
 20
275.5848388671875
 30
0.0
 40
1.0
100
AcDbArc
 50
180.0000000000004
 51
270.0000000000005
  0
ARC
  5
358
330
22
100
AcDbEntity
  8
0
  6
Continuous
 62
     7
100
AcDbCircle
 10
-398.8883972167969
 20
230.7891235351563
 30
0.0
 40
1.0
100
AcDbArc
 50
119.9999304359993
 51
180.0000000000004
  0
ARC
  5
359
330
22
100
AcDbEntity
  8
0
  6
Continuous
 62
     7
100
AcDbCircle
 10
-385.3883972167969
 20
230.5004425048828
 30
0.0
 40
5.0
100
AcDbArc
 50
119.9999304359993
 51
180.0000000000004
  0
ARC
  5
35A
330
22
100
AcDbEntity
  8
0
  6
Continuous
 62
     7
100
AcDbCircle
 10
-397.4533996582031
 20
220.0848388671875
 30
0.0
 40
0.5
100
AcDbArc
 50
270.0000000000005
 51
0.0
  0
ARC
  5
35B
330
22
100
AcDbEntity
  8
0
  6
Continuous
 62
     7
100
AcDbCircle
 10
-398.8883972167969
 20
230.5848388671875
 30
0.0
 40
1.0
100
AcDbArc
 50
180.0000000000004
 51
270.0000000000005
  0
ARC
  5
35C
330
22
100
AcDbEntity
  8
0
  6
Continuous
 62
     7
100
AcDbCircle
 10
-372.7454223632813
 20
264.7799377441406
 30
0.0
 40
4.859811782836914
100
AcDbArc
 50
209.9784150038464
 51
279.3598748099739
  0
ARC
  5
35D
330
22
100
AcDbEntity
  8
0
  6
Continuous
 62
     7
100
AcDbCircle
 10
-398.9533996582031
 20
227.5848388671875
 30
0.0
 40
2.0
100
AcDbArc
 50
0.0
 51
90.00000000000019
  0
ARC
  5
35E
330
22
100
AcDbEntity
  8
0
  6
Continuous
 62
     7
100
AcDbCircle
 10
-393.3881225585938
 20
68.5848388671875
 30
0.0
 40
1.0
100
AcDbArc
 50
270.0000000000005
 51
0.0
  0
ARC
  5
35F
330
22
100
AcDbEntity
  8
0
  6
Continuous
 62
     7
100
AcDbCircle
 10
-345.3881225585938
 20
104.5848388671875
 30
0.0
 40
2.0
100
AcDbArc
 50
0.0
 51
90.00000000000019
  0
ARC
  5
360
330
22
100
AcDbEntity
  8
0
  6
Continuous
 62
     7
100
AcDbCircle
 10
-343.8881225585938
 20
103.5848388671875
 30
0.0
 40
0.5
100
AcDbArc
 50
270.0000000000005
 51
0.0
  0
ARC
  5
361
330
22
100
AcDbEntity
  8
0
  6
Continuous
 62
     7
100
AcDbCircle
 10
-394.3881225585938
 20
140.5848388671875
 30
0.0
 40
1.0
100
AcDbArc
 50
0.0
 51
90.00000000000019
  0
ARC
  5
362
330
22
100
AcDbEntity
  8
0
  6
Continuous
 62
     7
100
AcDbCircle
 10
-487.3881225585938
 20
140.5848388671875
 30
0.0
 40
1.0
100
AcDbArc
 50
90.00000000000019
 51
180.0000000000004
  0
ARC
  5
363
330
22
100
AcDbEntity
  8
0
  6
Continuous
 62
     7
100
AcDbCircle
 10
-466.7156372070313
 20
193.0751495361328
 30
0.0
 40
9.522980690002439
100
AcDbArc
 50
63.328652682142
 51
93.02787590646829
  0
ARC
  5
364
330
22
100
AcDbEntity
  8
0
  6
Continuous
 62
     7
100
AcDbCircle
 10
-466.5432434082031
 20
201.0158386230469
 30
0.0
 40
1.708203315734863
100
AcDbArc
 50
113.2906589445077
 51
160.5431017157958
  0
ARC
  5
365
330
22
100
AcDbEntity
  8
0
  6
Continuous
 62
     7
100
AcDbCircle
 10
-493.3883972167969
 20
228.7684020996094
 30
0.0
 40
5.0
100
AcDbArc
 50
0.0
 51
59.99998213771593
  0
ARC
  5
366
330
22
100
AcDbEntity
  8
0
  6
Continuous
 62
     7
100
AcDbCircle
 10
-391.3881225585938
 20
102.0848388671875
 30
0.0
 40
1.0
100
AcDbArc
 50
90.00000000000019
 51
180.0000000000004
  0
ARC
  5
367
330
22
100
AcDbEntity
  8
0
  6
Continuous
 62
     7
100
AcDbCircle
 10
-388.3881225585938
 20
111.5848388671875
 30
0.0
 40
5.0
100
AcDbArc
 50
180.0000000000004
 51
270.0000000000005
  0
ARC
  5
368
330
22
100
AcDbEntity
  8
0
  6
Continuous
 62
     7
100
AcDbCircle
 10
-537.8881225585939
 20
103.5848388671875
 30
0.0
 40
0.5
100
AcDbArc
 50
180.0000000000004
 51
270.0000000000005
  0
ARC
  5
369
330
22
100
AcDbEntity
  8
0
  6
Continuous
 62
     7
100
AcDbCircle
 10
-536.3881225585938
 20
104.5848388671875
 30
0.0
 40
2.0
100
AcDbArc
 50
90.00000000000019
 51
180.0000000000004
  0
ARC
  5
36A
330
22
100
AcDbEntity
  8
0
  6
Continuous
 62
     7
100
AcDbCircle
 10
-504.3881225585938
 20
101.6082458496094
 30
0.0
 40
2.0
100
AcDbArc
 50
180.0000000000004
 51
252.232113442842
  0
ARC
  5
36B
330
22
100
AcDbEntity
  8
0
  6
Continuous
 62
     7
100
AcDbCircle
 10
-493.3881225585937
 20
111.5848388671875
 30
0.0
 40
5.0
100
AcDbArc
 50
270.0000000000005
 51
0.0
  0
ARC
  5
36C
330
22
100
AcDbEntity
  8
0
  6
Continuous
 62
     7
100
AcDbCircle
 10
-510.1862792968749
 20
83.51456451416016
 30
0.0
 40
17.0
100
AcDbArc
 50
8.696034862492508
 51
72.23180593384426
  0
ARC
  5
36D
330
22
100
AcDbEntity
  8
0
  6
Continuous
 62
     7
100
AcDbCircle
 10
-488.3881225585938
 20
68.5848388671875
 30
0.0
 40
1.0
100
AcDbArc
 50
180.0000000000004
 51
270.0000000000005
  0
ARC
  5
36E
330
22
100
AcDbEntity
  8
0
  6
Continuous
 62
     7
100
AcDbCircle
 10
-490.3881225585938
 20
102.0848388671875
 30
0.0
 40
1.0
100
AcDbArc
 50
0.0
 51
90.00000000000019
  0
ARC
  5
36F
330
22
100
AcDbEntity
  8
0
  6
Continuous
 62
     7
100
AcDbCircle
 10
-491.3881225585938
 20
85.0848388671875
 30
0.0
 40
2.0
100
AcDbArc
 50
180.0000000000004
 51
270.0000000000005
  0
ARC
  5
370
330
22
100
AcDbEntity
  8
0
  6
Continuous
 62
     7
100
AcDbCircle
 10
-371.7085571289063
 20
272.8753356933594
 30
0.0
 40
12.89286136627197
100
AcDbArc
 50
268.904531247404
 51
306.9688460717396
  0
ARC
  5
371
330
22
100
AcDbEntity
  8
0
  6
Continuous
 62
     7
100
AcDbCircle
 10
-337.8883972167969
 20
269.4715881347656
 30
0.0
 40
5.0
100
AcDbArc
 50
299.9999304360001
 51
0.0
  0
ARC
  5
372
330
22
100
AcDbEntity
  8
0
  6
Continuous
 62
     7
100
AcDbCircle
 10
-344.3883972167969
 20
269.1829223632813
 30
0.0
 40
5.0
100
AcDbArc
 50
299.9999304360001
 51
0.0
  0
ARC
  5
373
330
22
100
AcDbEntity
  8
0
  6
Continuous
 62
     7
100
AcDbCircle
 10
-543.8883666992189
 20
269.4715881347656
 30
0.0
 40
5.0
100
AcDbArc
 50
180.0000000000004
 51
240.0000695640013
  0
ARC
  5
374
330
22
100
AcDbEntity
  8
0
  6
Continuous
 62
     7
100
AcDbCircle
 10
-331.8883972167969
 20
273.5848388671875
 30
0.0
 40
1.0
100
AcDbArc
 50
90.00000000000019
 51
180.0000000000004
  0
ARC
  5
375
330
22
100
AcDbEntity
  8
0
  6
Continuous
 62
     7
100
AcDbCircle
 10
-440.8881225585938
 20
441.2715454101562
 30
0.0
 40
97.5
100
AcDbArc
 50
12.33290294476902
 51
18.14677587832189
  0
ARC
  5
376
330
22
100
AcDbEntity
  8
0
  6
Continuous
 62
     7
100
AcDbCircle
 10
-429.3881225585938
 20
505.8712463378906
 30
0.0
 40
3.283333301544189
100
AcDbArc
 50
351.8286258693902
 51
188.1713741306112
  0
ARC
  5
377
330
22
100
AcDbEntity
  8
0
  6
Continuous
 62
     7
100
AcDbCircle
 10
-429.3881225585938
 20
434.9882202148438
 30
0.0
 40
3.283333301544189
100
AcDbArc
 50
351.8286258693902
 51
188.1713741306112
  0
ARC
  5
378
330
22
100
AcDbEntity
  8
0
  6
Continuous
 62
     7
100
AcDbCircle
 10
-429.3881225585938
 20
534.8076171875
 30
0.0
 40
3.283333301544189
100
AcDbArc
 50
351.8286258693902
 51
171.8286258693895
  0
ARC
  5
379
330
22
100
AcDbEntity
  8
0
  6
Continuous
 62
     7
100
AcDbCircle
 10
-429.3881225585938
 20
464.8382263183593
 30
0.0
 40
3.283333301544189
100
AcDbArc
 50
351.8286258693902
 51
188.1713741306112
  0
ARC
  5
37A
330
22
100
AcDbEntity
  8
0
  6
Continuous
 62
     7
100
AcDbCircle
 10
-429.3881225585938
 20
447.5548706054688
 30
0.0
 40
3.283333301544189
100
AcDbArc
 50
171.8286258693895
 51
8.171374130610477
  0
ARC
  5
37B
330
22
100
AcDbEntity
  8
0
  6
Continuous
 62
     7
100
AcDbCircle
 10
-429.3881225585938
 20
517.4379272460938
 30
0.0
 40
3.283333301544189
100
AcDbArc
 50
171.8286258693895
 51
8.171374130610477
  0
ARC
  5
37C
330
22
100
AcDbEntity
  8
0
  6
Continuous
 62
     7
100
AcDbCircle
 10
-429.3881225585938
 20
476.4379272460938
 30
0.0
 40
3.283333301544189
100
AcDbArc
 50
171.8291530098779
 51
8.170846990122083
  0
ARC
  5
37D
330
22
100
AcDbEntity
  8
0
  6
Continuous
 62
     7
100
AcDbCircle
 10
-348.8881225585938
 20
434.9882202148438
 30
0.0
 40
3.283333301544189
100
AcDbArc
 50
351.8286258693902
 51
188.1713741306112
  0
ARC
  5
37E
330
22
100
AcDbEntity
  8
0
  6
Continuous
 62
     7
100
AcDbCircle
 10
-360.3881225585938
 20
434.9882202148438
 30
0.0
 40
3.283333301544189
100
AcDbArc
 50
351.8286258693902
 51
188.1713741306112
  0
ARC
  5
37F
330
22
100
AcDbEntity
  8
0
  6
Continuous
 62
     7
100
AcDbCircle
 10
-350.1381225585938
 20
471.0152587890624
 30
0.0
 40
2.0
100
AcDbArc
 50
18.14631868123702
 51
180.0000000000004
  0
ARC
  5
380
330
22
100
AcDbEntity
  8
0
  6
Continuous
 62
     7
100
AcDbCircle
 10
-360.3881225585938
 20
467.5548706054688
 30
0.0
 40
3.283333301544189
100
AcDbArc
 50
171.8286258693895
 51
8.171374130610477
  0
ARC
  5
381
330
22
100
AcDbEntity
  8
0
  6
Continuous
 62
     7
100
AcDbCircle
 10
-360.3881225585938
 20
455.9882202148438
 30
0.0
 40
3.283333301544189
100
AcDbArc
 50
351.8286258693902
 51
188.1713741306112
  0
ARC
  5
382
330
22
100
AcDbEntity
  8
0
  6
Continuous
 62
     7
100
AcDbCircle
 10
-360.3881225585938
 20
447.5548706054688
 30
0.0
 40
3.283333301544189
100
AcDbArc
 50
171.8286258693895
 51
8.171374130610477
  0
ARC
  5
383
330
22
100
AcDbEntity
  8
0
  6
Continuous
 62
     7
100
AcDbCircle
 10
-348.8881225585938
 20
447.5548706054688
 30
0.0
 40
3.283333301544189
100
AcDbArc
 50
171.8286258693895
 51
8.171374130610477
  0
ARC
  5
384
330
22
100
AcDbEntity
  8
0
  6
Continuous
 62
     7
100
AcDbCircle
 10
-360.3881225585938
 20
490.3149414062499
 30
0.0
 40
3.283333301544189
100
AcDbArc
 50
8.171374130610477
 51
171.8286258693895
  0
ARC
  5
385
330
22
100
AcDbEntity
  8
0
  6
Continuous
 62
     7
100
AcDbCircle
 10
-394.8881225585938
 20
469.7882080078125
 30
0.0
 40
3.283333301544189
100
AcDbArc
 50
351.8291530098786
 51
188.1708469901228
  0
ARC
  5
386
330
22
100
AcDbEntity
  8
0
  6
Continuous
 62
     7
100
AcDbCircle
 10
-406.3881225585937
 20
472.5548706054688
 30
0.0
 40
3.283333301544189
100
AcDbArc
 50
171.8286258693895
 51
8.171374130610477
  0
ARC
  5
387
330
22
100
AcDbEntity
  8
0
  6
Continuous
 62
     7
100
AcDbCircle
 10
-406.3881225585937
 20
447.5548706054688
 30
0.0
 40
3.283333301544189
100
AcDbArc
 50
171.8286258693895
 51
8.171374130610477
  0
ARC
  5
388
330
22
100
AcDbEntity
  8
0
  6
Continuous
 62
     7
100
AcDbCircle
 10
-383.3881225585938
 20
447.5548706054688
 30
0.0
 40
3.283333301544189
100
AcDbArc
 50
171.8286258693895
 51
8.171374130610477
  0
ARC
  5
389
330
22
100
AcDbEntity
  8
0
  6
Continuous
 62
     7
100
AcDbCircle
 10
-406.3881225585937
 20
503.9413757324219
 30
0.0
 40
3.283333301544189
100
AcDbArc
 50
351.8291530098786
 51
188.1708469901228
  0
ARC
  5
38A
330
22
100
AcDbEntity
  8
0
  6
Continuous
 62
     7
100
AcDbCircle
 10
-406.3881225585937
 20
515.5111083984374
 30
0.0
 40
3.283333301544189
100
AcDbArc
 50
171.829680151759
 51
8.17031984824097
  0
ARC
  5
38B
330
22
100
AcDbEntity
  8
0
  6
Continuous
 62
     7
100
AcDbCircle
 10
-383.3881225585938
 20
487.5548706054687
 30
0.0
 40
3.283333301544189
100
AcDbArc
 50
171.8286258693895
 51
8.171374130610477
  0
ARC
  5
38C
330
22
100
AcDbEntity
  8
0
  6
Continuous
 62
     7
100
AcDbCircle
 10
-394.8881225585938
 20
481.3548889160156
 30
0.0
 40
3.283333301544189
100
AcDbArc
 50
171.8286258693895
 51
8.171374130610477
  0
ARC
  5
38D
330
22
100
AcDbEntity
  8
0
  6
Continuous
 62
     7
100
AcDbCircle
 10
-383.3881225585938
 20
475.9882202148438
 30
0.0
 40
3.283333301544189
100
AcDbArc
 50
351.8286258693902
 51
188.1713741306112
  0
ARC
  5
38E
330
22
100
AcDbEntity
  8
0
  6
Continuous
 62
     7
100
AcDbCircle
 10
-406.3881225585937
 20
460.9882202148438
 30
0.0
 40
3.283333301544189
100
AcDbArc
 50
351.8286258693902
 51
188.1713741306112
  0
ARC
  5
38F
330
22
100
AcDbEntity
  8
0
  6
Continuous
 62
     7
100
AcDbCircle
 10
-394.8881225585938
 20
447.5548706054688
 30
0.0
 40
3.283333301544189
100
AcDbArc
 50
171.8286258693895
 51
8.171374130610477
  0
ARC
  5
390
330
22
100
AcDbEntity
  8
0
  6
Continuous
 62
     7
100
AcDbCircle
 10
-394.8881225585938
 20
523.5215454101563
 30
0.0
 40
3.283333301544189
100
AcDbArc
 50
8.171374130610477
 51
171.8286258693895
  0
ARC
  5
391
330
22
100
AcDbEntity
  8
0
  6
Continuous
 62
     7
100
AcDbCircle
 10
-394.8881225585938
 20
489.7882080078125
 30
0.0
 40
3.283333301544189
100
AcDbArc
 50
351.8291530098786
 51
188.1708469901228
  0
ARC
  5
392
330
22
100
AcDbEntity
  8
0
  6
Continuous
 62
     7
100
AcDbCircle
 10
-394.8881225585938
 20
501.3579101562499
 30
0.0
 40
3.283333301544189
100
AcDbArc
 50
171.8286258693895
 51
8.171374130610477
  0
ARC
  5
393
330
22
100
AcDbEntity
  8
0
  6
Continuous
 62
     7
100
AcDbCircle
 10
-417.8881225585937
 20
447.5548706054688
 30
0.0
 40
3.283333301544189
100
AcDbArc
 50
171.8286258693895
 51
8.171374130610477
  0
ARC
  5
394
330
22
100
AcDbEntity
  8
0
  6
Continuous
 62
     7
100
AcDbCircle
 10
-417.8881225585937
 20
494.2882080078125
 30
0.0
 40
3.283333301544189
100
AcDbArc
 50
351.8291530098786
 51
188.1708469901228
  0
ARC
  5
395
330
22
100
AcDbEntity
  8
0
  6
Continuous
 62
     7
100
AcDbCircle
 10
-417.8881225585937
 20
505.8579101562499
 30
0.0
 40
3.283333301544189
100
AcDbArc
 50
171.8286258693895
 51
8.171374130610477
  0
ARC
  5
396
330
22
100
AcDbEntity
  8
0
  6
Continuous
 62
     7
100
AcDbCircle
 10
-417.8881225585937
 20
474.2882080078125
 30
0.0
 40
3.283333301544189
100
AcDbArc
 50
351.8291530098786
 51
188.1708469901228
  0
ARC
  5
397
330
22
100
AcDbEntity
  8
0
  6
Continuous
 62
     7
100
AcDbCircle
 10
-417.8881225585937
 20
532.6774291992188
 30
0.0
 40
3.283333301544189
100
AcDbArc
 50
8.171374130610477
 51
171.8286258693895
  0
ARC
  5
398
330
22
100
AcDbEntity
  8
0
  6
Continuous
 62
     7
100
AcDbCircle
 10
-383.3881225585938
 20
515.908447265625
 30
0.0
 40
3.283333301544189
100
AcDbArc
 50
8.171374130610477
 51
171.8286258693895
  0
ARC
  5
399
330
22
100
AcDbEntity
  8
0
  6
Continuous
 62
     7
100
AcDbCircle
 10
-406.3881225585937
 20
528.9443969726563
 30
0.0
 40
3.283333301544189
100
AcDbArc
 50
8.171374130610477
 51
171.8286258693895
  0
ARC
  5
39A
330
22
100
AcDbEntity
  8
0
  6
Continuous
 62
     7
100
AcDbCircle
 10
-360.3881225585938
 20
414.9882202148438
 30
0.0
 40
3.283333301544189
100
AcDbArc
 50
351.8286258693902
 51
188.1713741306112
  0
ARC
  5
39B
330
22
100
AcDbEntity
  8
0
  6
Continuous
 62
     7
100
AcDbCircle
 10
-350.1381225585938
 20
411.5278625488281
 30
0.0
 40
2.0
100
AcDbArc
 50
180.0000000000004
 51
341.8528505470876
  0
ARC
  5
39C
330
22
100
AcDbEntity
  8
0
  6
Continuous
 62
     7
100
AcDbCircle
 10
-360.3881225585938
 20
392.2281494140625
 30
0.0
 40
3.283333301544189
100
AcDbArc
 50
171.8286258693895
 51
8.171374130610477
  0
ARC
  5
39D
330
22
100
AcDbEntity
  8
0
  6
Continuous
 62
     7
100
AcDbCircle
 10
-440.8881225585938
 20
441.2715454101562
 30
0.0
 40
97.5
100
AcDbArc
 50
341.8532241216788
 51
347.6670970552317
  0
ARC
  5
39E
330
22
100
AcDbEntity
  8
0
  6
Continuous
 62
     7
100
AcDbCircle
 10
-406.3881225585937
 20
434.9882202148438
 30
0.0
 40
3.283333301544189
100
AcDbArc
 50
351.8286258693902
 51
188.1713741306112
  0
ARC
  5
39F
330
22
100
AcDbEntity
  8
0
  6
Continuous
 62
     7
100
AcDbCircle
 10
-383.3881225585938
 20
434.9882202148438
 30
0.0
 40
3.283333301544189
100
AcDbArc
 50
351.8286258693902
 51
188.1713741306112
  0
ARC
  5
3A0
330
22
100
AcDbEntity
  8
0
  6
Continuous
 62
     7
100
AcDbCircle
 10
-417.8881225585937
 20
434.9882202148438
 30
0.0
 40
3.283333301544189
100
AcDbArc
 50
351.8286258693902
 51
188.1713741306112
  0
ARC
  5
3A1
330
22
100
AcDbEntity
  8
0
  6
Continuous
 62
     7
100
AcDbCircle
 10
-394.8881225585938
 20
434.9882202148438
 30
0.0
 40
3.283333301544189
100
AcDbArc
 50
351.8286258693902
 51
188.1713741306112
  0
ARC
  5
3A2
330
22
100
AcDbEntity
  8
0
  6
Continuous
 62
     7
100
AcDbCircle
 10
-417.8881225585937
 20
485.8548889160156
 30
0.0
 40
3.283333301544189
100
AcDbArc
 50
171.8286258693895
 51
8.171374130610477
  0
ARC
  5
3A3
330
22
100
AcDbEntity
  8
0
  6
Continuous
 62
     7
100
AcDbCircle
 10
-383.3881225585938
 20
406.5548706054688
 30
0.0
 40
3.283333301544189
100
AcDbArc
 50
171.8286258693895
 51
8.171374130610477
  0
ARC
  5
3A4
330
22
100
AcDbEntity
  8
0
  6
Continuous
 62
     7
100
AcDbCircle
 10
-383.3881225585938
 20
394.9882202148438
 30
0.0
 40
3.283333301544189
100
AcDbArc
 50
351.8286258693902
 51
188.1713741306112
  0
ARC
  5
3A5
330
22
100
AcDbEntity
  8
0
  6
Continuous
 62
     7
100
AcDbCircle
 10
-394.8881225585938
 20
401.188232421875
 30
0.0
 40
3.283333301544189
100
AcDbArc
 50
351.8286258693902
 51
188.1713741306112
  0
ARC
  5
3A6
330
22
100
AcDbEntity
  8
0
  6
Continuous
 62
     7
100
AcDbCircle
 10
-406.3881225585937
 20
378.7017211914063
 30
0.0
 40
3.283333301544189
100
AcDbArc
 50
171.8286258693895
 51
8.171374130610477
  0
ARC
  5
3A7
330
22
100
AcDbEntity
  8
0
  6
Continuous
 62
     7
100
AcDbCircle
 10
-394.8881225585938
 20
381.085205078125
 30
0.0
 40
3.283333301544189
100
AcDbArc
 50
351.8286258693902
 51
188.1713741306112
  0
ARC
  5
3A8
330
22
100
AcDbEntity
  8
0
  6
Continuous
 62
     7
100
AcDbCircle
 10
-406.3881225585937
 20
421.5548706054688
 30
0.0
 40
3.283333301544189
100
AcDbArc
 50
171.8286258693895
 51
8.171374130610477
  0
ARC
  5
3A9
330
22
100
AcDbEntity
  8
0
  6
Continuous
 62
     7
100
AcDbCircle
 10
-429.3881225585938
 20
417.7048950195312
 30
0.0
 40
3.283333301544189
100
AcDbArc
 50
171.8291530098779
 51
8.170846990122083
  0
ARC
  5
3AA
330
22
100
AcDbEntity
  8
0
  6
Continuous
 62
     7
100
AcDbCircle
 10
-429.3881225585938
 20
406.1051940917968
 30
0.0
 40
3.283333301544189
100
AcDbArc
 50
351.8286258693902
 51
188.1713741306112
  0
ARC
  5
3AB
330
22
100
AcDbEntity
  8
0
  6
Continuous
 62
     7
100
AcDbCircle
 10
-429.3881225585938
 20
365.1051940917969
 30
0.0
 40
3.283333301544189
100
AcDbArc
 50
351.8286258693902
 51
188.1713741306112
  0
ARC
  5
3AC
330
22
100
AcDbEntity
  8
0
  6
Continuous
 62
     7
100
AcDbCircle
 10
-429.3881225585938
 20
376.6718444824219
 30
0.0
 40
3.283333301544189
100
AcDbArc
 50
171.8286258693895
 51
8.171374130610477
  0
ARC
  5
3AD
330
22
100
AcDbEntity
  8
0
  6
Continuous
 62
     7
100
AcDbCircle
 10
-429.3881225585938
 20
347.7354736328125
 30
0.0
 40
3.283333301544189
100
AcDbArc
 50
171.8291530098779
 51
8.170846990122083
  0
ARC
  5
3AE
330
22
100
AcDbEntity
  8
0
  6
Continuous
 62
     7
100
AcDbCircle
 10
-417.8881225585937
 20
388.3548889160156
 30
0.0
 40
3.283333301544189
100
AcDbArc
 50
171.8286258693895
 51
8.171374130610477
  0
ARC
  5
3AF
330
22
100
AcDbEntity
  8
0
  6
Continuous
 62
     7
100
AcDbCircle
 10
-406.3881225585937
 20
409.9882202148438
 30
0.0
 40
3.283333301544189
100
AcDbArc
 50
351.8286258693902
 51
188.1713741306112
  0
ARC
  5
3B0
330
22
100
AcDbEntity
  8
0
  6
Continuous
 62
     7
100
AcDbCircle
 10
-394.8881225585938
 20
412.7548828124999
 30
0.0
 40
3.283333301544189
100
AcDbArc
 50
171.8286258693895
 51
8.171374130610477
  0
ARC
  5
3B1
330
22
100
AcDbEntity
  8
0
  6
Continuous
 62
     7
100
AcDbCircle
 10
-406.3881225585937
 20
353.5986938476563
 30
0.0
 40
3.283333301544189
100
AcDbArc
 50
171.8286258693895
 51
8.171374130610477
  0
ARC
  5
3B2
330
22
100
AcDbEntity
  8
0
  6
Continuous
 62
     7
100
AcDbCircle
 10
-383.3881225585938
 20
366.6346435546875
 30
0.0
 40
3.283333301544189
100
AcDbArc
 50
171.8286258693895
 51
8.171374130610477
  0
ARC
  5
3B3
330
22
100
AcDbEntity
  8
0
  6
Continuous
 62
     7
100
AcDbCircle
 10
-394.8881225585938
 20
359.0215454101563
 30
0.0
 40
3.283333301544189
100
AcDbArc
 50
171.8286258693895
 51
8.171374130610477
  0
ARC
  5
3B4
330
22
100
AcDbEntity
  8
0
  6
Continuous
 62
     7
100
AcDbCircle
 10
-406.3881225585937
 20
367.0320129394531
 30
0.0
 40
3.283333301544189
100
AcDbArc
 50
351.8291530098786
 51
188.1708469901228
  0
ARC
  5
3B5
330
22
100
AcDbEntity
  8
0
  6
Continuous
 62
     7
100
AcDbCircle
 10
-417.8881225585937
 20
408.4548950195313
 30
0.0
 40
3.283333301544189
100
AcDbArc
 50
171.8291530098779
 51
8.170846990122083
  0
ARC
  5
3B6
330
22
100
AcDbEntity
  8
0
  6
Continuous
 62
     7
100
AcDbCircle
 10
-417.8881225585937
 20
396.8882141113281
 30
0.0
 40
3.283333301544189
100
AcDbArc
 50
351.8286258693902
 51
188.1713741306112
  0
ARC
  5
3B7
330
22
100
AcDbEntity
  8
0
  6
Continuous
 62
     7
100
AcDbCircle
 10
-417.8881225585937
 20
376.6851806640625
 30
0.0
 40
3.283333301544189
100
AcDbArc
 50
351.8291530098786
 51
188.1708469901228
  0
ARC
  5
3B8
330
22
100
AcDbEntity
  8
0
  6
Continuous
 62
     7
100
AcDbCircle
 10
-417.8881225585937
 20
349.8656616210938
 30
0.0
 40
3.283333301544189
100
AcDbArc
 50
171.8286258693895
 51
8.171374130610477
  0
ARC
  5
3B9
330
22
100
AcDbEntity
  8
0
  6
Continuous
 62
     7
100
AcDbCircle
 10
-394.8881225585938
 20
392.7548828125
 30
0.0
 40
3.283333301544189
100
AcDbArc
 50
171.8286258693895
 51
8.171374130610477
  0
ARC
  5
3BA
330
22
100
AcDbEntity
  8
0
  6
Continuous
 62
     7
100
AcDbCircle
 10
-463.8881225585937
 20
474.0882263183594
 30
0.0
 40
3.283333301544189
100
AcDbArc
 50
351.8286258693902
 51
188.1713741306112
  0
ARC
  5
3BB
330
22
100
AcDbEntity
  8
0
  6
Continuous
 62
     7
100
AcDbCircle
 10
-463.8881225585937
 20
532.6774291992188
 30
0.0
 40
3.283333301544189
100
AcDbArc
 50
351.8286258693902
 51
188.1713741306112
  0
ARC
  5
3BC
330
22
100
AcDbEntity
  8
0
  6
Continuous
 62
     7
100
AcDbCircle
 10
-475.3881225585938
 20
515.5111083984374
 30
0.0
 40
3.283333301544189
100
AcDbArc
 50
171.829680151759
 51
8.17031984824097
  0
ARC
  5
3BD
330
22
100
AcDbEntity
  8
0
  6
Continuous
 62
     7
100
AcDbCircle
 10
-463.8881225585937
 20
505.8579101562499
 30
0.0
 40
3.283333301544189
100
AcDbArc
 50
171.8286258693895
 51
8.171374130610477
  0
ARC
  5
3BE
330
22
100
AcDbEntity
  8
0
  6
Continuous
 62
     7
100
AcDbCircle
 10
-486.8881225585938
 20
489.7882080078125
 30
0.0
 40
3.283333301544189
100
AcDbArc
 50
351.8291530098786
 51
188.1708469901228
  0
ARC
  5
3BF
330
22
100
AcDbEntity
  8
0
  6
Continuous
 62
     7
100
AcDbCircle
 10
-486.8881225585938
 20
447.5548706054688
 30
0.0
 40
3.283333301544189
100
AcDbArc
 50
171.8286258693895
 51
8.171374130610477
  0
ARC
  5
3C0
330
22
100
AcDbEntity
  8
0
  6
Continuous
 62
     7
100
AcDbCircle
 10
-486.8881225585938
 20
523.5215454101563
 30
0.0
 40
3.283333301544189
100
AcDbArc
 50
351.8286258693902
 51
188.1713741306112
  0
ARC
  5
3C1
330
22
100
AcDbEntity
  8
0
  6
Continuous
 62
     7
100
AcDbCircle
 10
-475.3881225585938
 20
460.9882202148438
 30
0.0
 40
3.283333301544189
100
AcDbArc
 50
351.8286258693902
 51
188.1713741306112
  0
ARC
  5
3C2
330
22
100
AcDbEntity
  8
0
  6
Continuous
 62
     7
100
AcDbCircle
 10
-475.3881225585938
 20
528.9443969726563
 30
0.0
 40
3.283333301544189
100
AcDbArc
 50
351.8286258693902
 51
188.1713741306112
  0
ARC
  5
3C3
330
22
100
AcDbEntity
  8
0
  6
Continuous
 62
     7
100
AcDbCircle
 10
-475.3881225585938
 20
503.8414001464843
 30
0.0
 40
3.283333301544189
100
AcDbArc
 50
351.8286258693902
 51
188.1713741306112
  0
ARC
  5
3C4
330
22
100
AcDbEntity
  8
0
  6
Continuous
 62
     7
100
AcDbCircle
 10
-475.3881225585938
 20
447.5548706054688
 30
0.0
 40
3.283333301544189
100
AcDbArc
 50
171.8286258693895
 51
8.171374130610477
  0
ARC
  5
3C5
330
22
100
AcDbEntity
  8
0
  6
Continuous
 62
     7
100
AcDbCircle
 10
-463.8881225585937
 20
447.5548706054688
 30
0.0
 40
3.283333301544189
100
AcDbArc
 50
171.8286258693895
 51
8.171374130610477
  0
ARC
  5
3C6
330
22
100
AcDbEntity
  8
0
  6
Continuous
 62
     7
100
AcDbCircle
 10
-475.3881225585938
 20
472.5548706054688
 30
0.0
 40
3.283333301544189
100
AcDbArc
 50
171.8286258693895
 51
8.171374130610477
  0
ARC
  5
3C7
330
22
100
AcDbEntity
  8
0
  6
Continuous
 62
     7
100
AcDbCircle
 10
-486.8881225585938
 20
469.7882080078125
 30
0.0
 40
3.283333301544189
100
AcDbArc
 50
351.8291530098786
 51
188.1708469901228
  0
ARC
  5
3C8
330
22
100
AcDbEntity
  8
0
  6
Continuous
 62
     7
100
AcDbCircle
 10
-486.8881225585938
 20
501.4579162597656
 30
0.0
 40
3.283333301544189
100
AcDbArc
 50
171.8286258693895
 51
8.171374130610477
  0
ARC
  5
3C9
330
22
100
AcDbEntity
  8
0
  6
Continuous
 62
     7
100
AcDbCircle
 10
-498.3881225585938
 20
475.9882202148438
 30
0.0
 40
3.283333301544189
100
AcDbArc
 50
351.8286258693902
 51
188.1713741306112
  0
ARC
  5
3CA
330
22
100
AcDbEntity
  8
0
  6
Continuous
 62
     7
100
AcDbCircle
 10
-498.3881225585938
 20
487.5548706054687
 30
0.0
 40
3.283333301544189
100
AcDbArc
 50
171.8286258693895
 51
8.171374130610477
  0
ARC
  5
3CB
330
22
100
AcDbEntity
  8
0
  6
Continuous
 62
     7
100
AcDbCircle
 10
-498.3881225585938
 20
515.908447265625
 30
0.0
 40
3.283333301544189
100
AcDbArc
 50
351.8286258693902
 51
188.1713741306112
  0
ARC
  5
3CC
330
22
100
AcDbEntity
  8
0
  6
Continuous
 62
     7
100
AcDbCircle
 10
-498.3881225585938
 20
447.5548706054688
 30
0.0
 40
3.283333301544189
100
AcDbArc
 50
171.8286258693895
 51
8.171374130610477
  0
ARC
  5
3CD
330
22
100
AcDbEntity
  8
0
  6
Continuous
 62
     7
100
AcDbCircle
 10
-463.8881225585937
 20
494.188232421875
 30
0.0
 40
3.283333301544189
100
AcDbArc
 50
351.8286258693902
 51
188.1713741306112
  0
ARC
  5
3CE
330
22
100
AcDbEntity
  8
0
  6
Continuous
 62
     7
100
AcDbCircle
 10
-463.8881225585937
 20
485.6548767089844
 30
0.0
 40
3.283333301544189
100
AcDbArc
 50
171.8286258693895
 51
8.171374130610477
  0
ARC
  5
3CF
330
22
100
AcDbEntity
  8
0
  6
Continuous
 62
     7
100
AcDbCircle
 10
-486.8881225585938
 20
481.3548889160156
 30
0.0
 40
3.283333301544189
100
AcDbArc
 50
171.8286258693895
 51
8.171374130610477
  0
ARC
  5
3D0
330
22
100
AcDbEntity
  8
0
  6
Continuous
 62
     7
100
AcDbCircle
 10
-509.8881225585937
 20
447.5548706054688
 30
0.0
 40
3.283333301544189
100
AcDbArc
 50
171.8286258693895
 51
8.171374130610477
  0
ARC
  5
3D1
330
22
100
AcDbEntity
  8
0
  6
Continuous
 62
     7
100
AcDbCircle
 10
-509.8881225585937
 20
470.9882202148437
 30
0.0
 40
3.283333301544189
100
AcDbArc
 50
351.8286258693902
 51
188.1713741306112
  0
ARC
  5
3D2
330
22
100
AcDbEntity
  8
0
  6
Continuous
 62
     7
100
AcDbCircle
 10
-509.8881225585937
 20
482.5548706054687
 30
0.0
 40
3.283333301544189
100
AcDbArc
 50
171.8286258693895
 51
8.171374130610477
  0
CIRCLE
  5
3D3
330
22
100
AcDbEntity
  8
0
  6
Continuous
 62
     7
100
AcDbCircle
 10
-510.2612915039062
 20
510.6319885253906
 30
0.0
 40
5.0
  0
ARC
  5
3D4
330
22
100
AcDbEntity
  8
0
  6
Continuous
 62
     7
100
AcDbCircle
 10
-452.3881225585937
 20
464.8382263183593
 30
0.0
 40
3.283333301544189
100
AcDbArc
 50
351.8286258693902
 51
188.1713741306112
  0
ARC
  5
3D5
330
22
100
AcDbEntity
  8
0
  6
Continuous
 62
     7
100
AcDbCircle
 10
-452.3881225585937
 20
505.8712463378906
 30
0.0
 40
3.283333301544189
100
AcDbArc
 50
351.8286258693902
 51
188.1713741306112
  0
ARC
  5
3D6
330
22
100
AcDbEntity
  8
0
  6
Continuous
 62
     7
100
AcDbCircle
 10
-452.3881225585937
 20
447.5548706054688
 30
0.0
 40
3.283333301544189
100
AcDbArc
 50
171.8286258693895
 51
8.171374130610477
  0
ARC
  5
3D7
330
22
100
AcDbEntity
  8
0
  6
Continuous
 62
     7
100
AcDbCircle
 10
-452.3881225585937
 20
534.8076171875
 30
0.0
 40
3.283333301544189
100
AcDbArc
 50
351.8286258693902
 51
188.1713741306112
  0
ARC
  5
3D8
330
22
100
AcDbEntity
  8
0
  6
Continuous
 62
     7
100
AcDbCircle
 10
-452.3881225585937
 20
517.4379272460938
 30
0.0
 40
3.283333301544189
100
AcDbArc
 50
171.8286258693895
 51
8.171374130610477
  0
ARC
  5
3D9
330
22
100
AcDbEntity
  8
0
  6
Continuous
 62
     7
100
AcDbCircle
 10
-452.3881225585937
 20
476.4379272460938
 30
0.0
 40
3.283333301544189
100
AcDbArc
 50
171.8291530098779
 51
8.170846990122083
  0
ARC
  5
3DA
330
22
100
AcDbEntity
  8
0
  6
Continuous
 62
     7
100
AcDbCircle
 10
-531.6381225585939
 20
471.0152587890624
 30
0.0
 40
2.0
100
AcDbArc
 50
0.0
 51
161.8534090319294
  0
ARC
  5
3DB
330
22
100
AcDbEntity
  8
0
  6
Continuous
 62
     7
100
AcDbCircle
 10
-532.8881225585938
 20
447.5548706054688
 30
0.0
 40
3.283333301544189
100
AcDbArc
 50
171.8286258693895
 51
8.171374130610477
  0
ARC
  5
3DC
330
22
100
AcDbEntity
  8
0
  6
Continuous
 62
     7
100
AcDbCircle
 10
-440.8881225585938
 20
441.2715454101562
 30
0.0
 40
97.5
100
AcDbArc
 50
161.8532185362085
 51
167.667097055231
  0
ARC
  5
3DD
330
22
100
AcDbEntity
  8
0
  6
Continuous
 62
     7
100
AcDbCircle
 10
-486.8881225585938
 20
434.9882202148438
 30
0.0
 40
3.283333301544189
100
AcDbArc
 50
351.8286258693902
 51
188.1713741306112
  0
ARC
  5
3DE
330
22
100
AcDbEntity
  8
0
  6
Continuous
 62
     7
100
AcDbCircle
 10
-475.3881225585938
 20
434.9882202148438
 30
0.0
 40
3.283333301544189
100
AcDbArc
 50
351.8286258693902
 51
188.1713741306112
  0
ARC
  5
3DF
330
22
100
AcDbEntity
  8
0
  6
Continuous
 62
     7
100
AcDbCircle
 10
-463.8881225585937
 20
434.9882202148438
 30
0.0
 40
3.283333301544189
100
AcDbArc
 50
351.8286258693902
 51
188.1713741306112
  0
ARC
  5
3E0
330
22
100
AcDbEntity
  8
0
  6
Continuous
 62
     7
100
AcDbCircle
 10
-509.8881225585937
 20
434.9882202148438
 30
0.0
 40
3.283333301544189
100
AcDbArc
 50
351.8286258693902
 51
188.1713741306112
  0
ARC
  5
3E1
330
22
100
AcDbEntity
  8
0
  6
Continuous
 62
     7
100
AcDbCircle
 10
-498.3881225585938
 20
434.9882202148438
 30
0.0
 40
3.283333301544189
100
AcDbArc
 50
351.8286258693902
 51
188.1713741306112
  0
ARC
  5
3E2
330
22
100
AcDbEntity
  8
0
  6
Continuous
 62
     7
100
AcDbCircle
 10
-452.3881225585937
 20
434.9882202148438
 30
0.0
 40
3.283333301544189
100
AcDbArc
 50
351.8286258693902
 51
188.1713741306112
  0
ARC
  5
3E3
330
22
100
AcDbEntity
  8
0
  6
Continuous
 62
     7
100
AcDbCircle
 10
-509.8881225585937
 20
500.4882202148437
 30
0.0
 40
3.283333301544189
100
AcDbArc
 50
351.8286258693902
 51
188.1713741306112
  0
CIRCLE
  5
3E4
330
22
100
AcDbEntity
  8
0
  6
Continuous
 62
     7
100
AcDbCircle
 10
-510.2612915039062
 20
510.6319885253906
 30
0.0
 40
5.5
  0
ARC
  5
3E5
330
22
100
AcDbEntity
  8
0
  6
Continuous
 62
     7
100
AcDbCircle
 10
-486.8881225585938
 20
392.7548828125
 30
0.0
 40
3.283333301544189
100
AcDbArc
 50
171.8286258693895
 51
8.171374130610477
  0
ARC
  5
3E6
330
22
100
AcDbEntity
  8
0
  6
Continuous
 62
     7
100
AcDbCircle
 10
-463.8881225585937
 20
388.3548889160156
 30
0.0
 40
3.283333301544189
100
AcDbArc
 50
171.8286258693895
 51
8.171374130610477
  0
ARC
  5
3E7
330
22
100
AcDbEntity
  8
0
  6
Continuous
 62
     7
100
AcDbCircle
 10
-452.3881225585937
 20
406.1051940917968
 30
0.0
 40
3.283333301544189
100
AcDbArc
 50
351.8286258693902
 51
188.1713741306112
  0
ARC
  5
3E8
330
22
100
AcDbEntity
  8
0
  6
Continuous
 62
     7
100
AcDbCircle
 10
-452.3881225585937
 20
376.6718444824219
 30
0.0
 40
3.283333301544189
100
AcDbArc
 50
171.8286258693895
 51
8.171374130610477
  0
ARC
  5
3E9
330
22
100
AcDbEntity
  8
0
  6
Continuous
 62
     7
100
AcDbCircle
 10
-452.3881225585937
 20
417.7048950195312
 30
0.0
 40
3.283333301544189
100
AcDbArc
 50
171.8291530098779
 51
8.170846990122083
  0
ARC
  5
3EA
330
22
100
AcDbEntity
  8
0
  6
Continuous
 62
     7
100
AcDbCircle
 10
-475.3881225585938
 20
421.5548706054688
 30
0.0
 40
3.283333301544189
100
AcDbArc
 50
171.8286258693895
 51
8.171374130610477
  0
ARC
  5
3EB
330
22
100
AcDbEntity
  8
0
  6
Continuous
 62
     7
100
AcDbCircle
 10
-486.8881225585938
 20
401.188232421875
 30
0.0
 40
3.283333301544189
100
AcDbArc
 50
351.8286258693902
 51
188.1713741306112
  0
ARC
  5
3EC
330
22
100
AcDbEntity
  8
0
  6
Continuous
 62
     7
100
AcDbCircle
 10
-463.8881225585937
 20
408.4548950195313
 30
0.0
 40
3.283333301544189
100
AcDbArc
 50
171.8291530098779
 51
8.170846990122083
  0
ARC
  5
3ED
330
22
100
AcDbEntity
  8
0
  6
Continuous
 62
     7
100
AcDbCircle
 10
-463.8881225585937
 20
396.8882141113281
 30
0.0
 40
3.283333301544189
100
AcDbArc
 50
351.8286258693902
 51
188.1713741306112
  0
ARC
  5
3EE
330
22
100
AcDbEntity
  8
0
  6
Continuous
 62
     7
100
AcDbCircle
 10
-452.3881225585937
 20
365.1051940917969
 30
0.0
 40
3.283333301544189
100
AcDbArc
 50
351.8286258693902
 51
188.1713741306112
  0
ARC
  5
3EF
330
22
100
AcDbEntity
  8
0
  6
Continuous
 62
     7
100
AcDbCircle
 10
-452.3881225585937
 20
347.7354736328125
 30
0.0
 40
3.283333301544189
100
AcDbArc
 50
171.8291530098779
 51
8.170846990122083
  0
ARC
  5
3F0
330
22
100
AcDbEntity
  8
0
  6
Continuous
 62
     7
100
AcDbCircle
 10
-475.3881225585938
 20
367.0320129394531
 30
0.0
 40
3.283333301544189
100
AcDbArc
 50
351.8291530098786
 51
188.1708469901228
  0
ARC
  5
3F1
330
22
100
AcDbEntity
  8
0
  6
Continuous
 62
     7
100
AcDbCircle
 10
-498.3881225585938
 20
366.6346435546875
 30
0.0
 40
3.283333301544189
100
AcDbArc
 50
171.8286258693895
 51
8.171374130610477
  0
ARC
  5
3F2
330
22
100
AcDbEntity
  8
0
  6
Continuous
 62
     7
100
AcDbCircle
 10
-532.8881225585938
 20
434.9882202148438
 30
0.0
 40
3.283333301544189
100
AcDbArc
 50
351.8286258693902
 51
188.1713741306112
  0
ARC
  5
3F3
330
22
100
AcDbEntity
  8
0
  6
Continuous
 62
     7
100
AcDbCircle
 10
-486.8881225585938
 20
412.7548828124999
 30
0.0
 40
3.283333301544189
100
AcDbArc
 50
171.8286258693895
 51
8.171374130610477
  0
ARC
  5
3F4
330
22
100
AcDbEntity
  8
0
  6
Continuous
 62
     7
100
AcDbCircle
 10
-475.3881225585938
 20
409.9882202148438
 30
0.0
 40
3.283333301544189
100
AcDbArc
 50
351.8286258693902
 51
188.1713741306112
  0
ARC
  5
3F5
330
22
100
AcDbEntity
  8
0
  6
Continuous
 62
     7
100
AcDbCircle
 10
-498.3881225585938
 20
394.9882202148438
 30
0.0
 40
3.283333301544189
100
AcDbArc
 50
351.8286258693902
 51
188.1713741306112
  0
ARC
  5
3F6
330
22
100
AcDbEntity
  8
0
  6
Continuous
 62
     7
100
AcDbCircle
 10
-498.3881225585938
 20
406.5548706054688
 30
0.0
 40
3.283333301544189
100
AcDbArc
 50
171.8286258693895
 51
8.171374130610477
  0
ARC
  5
3F7
330
22
100
AcDbEntity
  8
0
  6
Continuous
 62
     7
100
AcDbCircle
 10
-463.8881225585937
 20
376.6851806640625
 30
0.0
 40
3.283333301544189
100
AcDbArc
 50
351.8291530098786
 51
188.1708469901228
  0
ARC
  5
3F8
330
22
100
AcDbEntity
  8
0
  6
Continuous
 62
     7
100
AcDbCircle
 10
-463.8881225585937
 20
349.8656616210938
 30
0.0
 40
3.283333301544189
100
AcDbArc
 50
171.8286258693895
 51
8.171374130610477
  0
ARC
  5
3F9
330
22
100
AcDbEntity
  8
0
  6
Continuous
 62
     7
100
AcDbCircle
 10
-475.3881225585938
 20
353.5986938476563
 30
0.0
 40
3.283333301544189
100
AcDbArc
 50
171.8286258693895
 51
8.171374130610477
  0
ARC
  5
3FA
330
22
100
AcDbEntity
  8
0
  6
Continuous
 62
     7
100
AcDbCircle
 10
-486.8881225585938
 20
381.085205078125
 30
0.0
 40
3.283333301544189
100
AcDbArc
 50
351.8286258693902
 51
188.1713741306112
  0
ARC
  5
3FB
330
22
100
AcDbEntity
  8
0
  6
Continuous
 62
     7
100
AcDbCircle
 10
-475.3881225585938
 20
378.7017211914063
 30
0.0
 40
3.283333301544189
100
AcDbArc
 50
171.8286258693895
 51
8.171374130610477
  0
ARC
  5
3FC
330
22
100
AcDbEntity
  8
0
  6
Continuous
 62
     7
100
AcDbCircle
 10
-486.8881225585938
 20
359.0215454101563
 30
0.0
 40
3.283333301544189
100
AcDbArc
 50
171.8286258693895
 51
8.171374130610477
  0
ARC
  5
3FD
330
22
100
AcDbEntity
  8
0
  6
Continuous
 62
     7
100
AcDbCircle
 10
-440.8881225585938
 20
441.2715454101562
 30
0.0
 40
97.5
100
AcDbArc
 50
192.3329029447696
 51
198.1467814637922
  0
ARC
  5
3FE
330
22
100
AcDbEntity
  8
0
  6
Continuous
 62
     7
100
AcDbCircle
 10
-531.6381225585939
 20
411.5278625488281
 30
0.0
 40
2.0
100
AcDbArc
 50
198.1474217504994
 51
0.0
  0
ARC
  5
3FF
330
22
100
AcDbEntity
  8
0
  6
Continuous
 62
     7
100
AcDbCircle
 10
-509.8881225585937
 20
399.9882202148438
 30
0.0
 40
3.283333301544189
100
AcDbArc
 50
351.8286258693902
 51
188.1713741306112
  0
ARC
  5
400
330
22
100
AcDbEntity
  8
0
  6
Continuous
 62
     7
100
AcDbCircle
 10
-509.8881225585937
 20
411.5548706054688
 30
0.0
 40
3.283333301544189
100
AcDbArc
 50
171.8286258693895
 51
8.171374130610477
  0
CIRCLE
  5
401
330
22
100
AcDbEntity
  8
0
  6
Continuous
 62
     7
100
AcDbCircle
 10
-510.2481994628906
 20
371.8980102539063
 30
0.0
 40
5.5
  0
CIRCLE
  5
402
330
22
100
AcDbEntity
  8
0
  6
Continuous
 62
     7
100
AcDbCircle
 10
-510.2481994628906
 20
371.8980102539063
 30
0.0
 40
5.0
  0
ARC
  5
403
330
22
100
AcDbEntity
  8
0
  6
Continuous
 62
     7
100
AcDbCircle
 10
-509.8881225585937
 20
382.0548706054688
 30
0.0
 40
3.283333301544189
100
AcDbArc
 50
171.8286258693895
 51
8.171374130610477
  0
ARC
  5
404
330
22
100
AcDbEntity
  8
0
  6
Continuous
 62
     7
100
AcDbCircle
 10
-371.8881225585938
 20
500.4882202148437
 30
0.0
 40
3.283333301544189
100
AcDbArc
 50
8.171374130610477
 51
171.8286258693895
  0
ARC
  5
405
330
22
100
AcDbEntity
  8
0
  6
Continuous
 62
     7
100
AcDbCircle
 10
-371.8881225585938
 20
447.5548706054688
 30
0.0
 40
3.283333301544189
100
AcDbArc
 50
171.8286258693895
 51
8.171374130610477
  0
ARC
  5
406
330
22
100
AcDbEntity
  8
0
  6
Continuous
 62
     7
100
AcDbCircle
 10
-371.8881225585938
 20
482.5548706054687
 30
0.0
 40
3.283333301544189
100
AcDbArc
 50
171.8286258693895
 51
8.171374130610477
  0
CIRCLE
  5
407
330
22
100
AcDbEntity
  8
0
  6
Continuous
 62
     7
100
AcDbCircle
 10
-371.5273132324219
 20
510.6451110839843
 30
0.0
 40
5.0
  0
ARC
  5
408
330
22
100
AcDbEntity
  8
0
  6
Continuous
 62
     7
100
AcDbCircle
 10
-371.8881225585938
 20
470.9882202148437
 30
0.0
 40
3.283333301544189
100
AcDbArc
 50
351.8286258693902
 51
188.1713741306112
  0
ARC
  5
409
330
22
100
AcDbEntity
  8
0
  6
Continuous
 62
     7
100
AcDbCircle
 10
-521.3881225585939
 20
447.5548706054688
 30
0.0
 40
3.283333301544189
100
AcDbArc
 50
171.8286258693895
 51
8.171374130610477
  0
ARC
  5
40A
330
22
100
AcDbEntity
  8
0
  6
Continuous
 62
     7
100
AcDbCircle
 10
-521.3881225585939
 20
490.3149414062499
 30
0.0
 40
3.283333301544189
100
AcDbArc
 50
351.8286258693902
 51
188.1713741306112
  0
ARC
  5
40B
330
22
100
AcDbEntity
  8
0
  6
Continuous
 62
     7
100
AcDbCircle
 10
-521.3881225585939
 20
455.9882202148438
 30
0.0
 40
3.283333301544189
100
AcDbArc
 50
351.8286258693902
 51
188.1713741306112
  0
ARC
  5
40C
330
22
100
AcDbEntity
  8
0
  6
Continuous
 62
     7
100
AcDbCircle
 10
-521.3881225585939
 20
467.5548706054688
 30
0.0
 40
3.283333301544189
100
AcDbArc
 50
171.8286258693895
 51
8.171374130610477
  0
CIRCLE
  5
40D
330
22
100
AcDbEntity
  8
0
  6
Continuous
 62
     7
100
AcDbCircle
 10
-371.5141906738281
 20
371.9111022949219
 30
0.0
 40
5.5
  0
ARC
  5
40E
330
22
100
AcDbEntity
  8
0
  6
Continuous
 62
     7
100
AcDbCircle
 10
-371.8881225585938
 20
399.9882202148438
 30
0.0
 40
3.283333301544189
100
AcDbArc
 50
351.8286258693902
 51
188.1713741306112
  0
ARC
  5
40F
330
22
100
AcDbEntity
  8
0
  6
Continuous
 62
     7
100
AcDbCircle
 10
-371.8881225585938
 20
411.5548706054688
 30
0.0
 40
3.283333301544189
100
AcDbArc
 50
171.8286258693895
 51
8.171374130610477
  0
ARC
  5
410
330
22
100
AcDbEntity
  8
0
  6
Continuous
 62
     7
100
AcDbCircle
 10
-371.8881225585938
 20
382.0548706054688
 30
0.0
 40
3.283333301544189
100
AcDbArc
 50
171.8286258693895
 51
8.171374130610477
  0
CIRCLE
  5
411
330
22
100
AcDbEntity
  8
0
  6
Continuous
 62
     7
100
AcDbCircle
 10
-371.5141906738281
 20
371.9111022949219
 30
0.0
 40
5.0
  0
ARC
  5
412
330
22
100
AcDbEntity
  8
0
  6
Continuous
 62
     7
100
AcDbCircle
 10
-371.8881225585938
 20
434.9882202148438
 30
0.0
 40
3.283333301544189
100
AcDbArc
 50
351.8286258693902
 51
188.1713741306112
  0
CIRCLE
  5
413
330
22
100
AcDbEntity
  8
0
  6
Continuous
 62
     7
100
AcDbCircle
 10
-371.5273132324219
 20
510.6451110839843
 30
0.0
 40
5.5
  0
ARC
  5
414
330
22
100
AcDbEntity
  8
0
  6
Continuous
 62
     7
100
AcDbCircle
 10
-360.3881225585938
 20
426.5548706054688
 30
0.0
 40
3.283333301544189
100
AcDbArc
 50
171.8286258693895
 51
8.171374130610477
  0
ARC
  5
415
330
22
100
AcDbEntity
  8
0
  6
Continuous
 62
     7
100
AcDbCircle
 10
-521.3881225585939
 20
414.9882202148438
 30
0.0
 40
3.283333301544189
100
AcDbArc
 50
351.8286258693902
 51
188.1713741306112
  0
ARC
  5
416
330
22
100
AcDbEntity
  8
0
  6
Continuous
 62
     7
100
AcDbCircle
 10
-521.3881225585939
 20
392.2281494140625
 30
0.0
 40
3.283333301544189
100
AcDbArc
 50
171.8286258693895
 51
8.171374130610477
  0
ARC
  5
417
330
22
100
AcDbEntity
  8
0
  6
Continuous
 62
     7
100
AcDbCircle
 10
-521.3881225585939
 20
434.9882202148438
 30
0.0
 40
3.283333301544189
100
AcDbArc
 50
351.8286258693902
 51
188.1713741306112
  0
ARC
  5
418
330
22
100
AcDbEntity
  8
0
  6
Continuous
 62
     7
100
AcDbCircle
 10
-521.3881225585939
 20
426.5548706054688
 30
0.0
 40
3.283333301544189
100
AcDbArc
 50
171.8286258693895
 51
8.171374130610477
  0
ARC
  5
419
330
22
100
AcDbEntity
  8
0
  6
Continuous
 62
     7
100
AcDbCircle
 10
-440.8881225585938
 20
535.4882202148438
 30
0.0
 40
3.283333301544189
100
AcDbArc
 50
8.171374130610477
 51
171.8286258693895
  0
ARC
  5
41A
330
22
100
AcDbEntity
  8
0
  6
Continuous
 62
     7
100
AcDbCircle
 10
-440.8881225585938
 20
514.6549072265624
 30
0.0
 40
3.283333301544189
100
AcDbArc
 50
188.1713741306112
 51
351.8286258693902
  0
ARC
  5
41B
330
22
100
AcDbEntity
  8
0
  6
Continuous
 62
     7
100
AcDbCircle
 10
-440.8881225585938
 20
503.0882263183594
 30
0.0
 40
3.283333301544189
100
AcDbArc
 50
351.8286258693902
 51
188.1713741306112
  0
CIRCLE
  5
41C
330
22
100
AcDbEntity
  8
0
  6
Continuous
 62
     7
100
AcDbCircle
 10
-440.8881225585938
 20
441.2715454101562
 30
0.0
 40
115.0
  0
CIRCLE
  5
41D
330
22
100
AcDbEntity
  8
0
  6
DASHED
 62
     7
100
AcDbCircle
 10
-440.8881225585938
 20
441.2715454101562
 30
0.0
 40
41.0
  0
CIRCLE
  5
41E
330
22
100
AcDbEntity
  8
0
  6
DASHED
 62
     7
100
AcDbCircle
 10
-440.8881225585938
 20
443.1767272949218
 30
0.0
 40
97.5
  0
CIRCLE
  5
41F
330
22
100
AcDbEntity
  8
0
  6
Continuous
 62
     7
100
AcDbCircle
 10
-440.8881225585938
 20
441.2715454101562
 30
0.0
 40
105.0
  0
CIRCLE
  5
420
330
22
100
AcDbEntity
  8
0
  6
Continuous
 62
     7
100
AcDbCircle
 10
-440.8881225585938
 20
441.2715454101562
 30
0.0
 40
104.5
  0
ARC
  5
421
330
22
100
AcDbEntity
  8
0
  6
Continuous
 62
     7
100
AcDbCircle
 10
-440.8881225585938
 20
432.7382202148438
 30
0.0
 40
3.283333301544189
100
AcDbArc
 50
351.8286258693902
 51
188.1713741306112
  0
ARC
  5
422
330
22
100
AcDbEntity
  8
0
  6
Continuous
 62
     7
100
AcDbCircle
 10
-440.8881225585938
 20
411.9048767089843
 30
0.0
 40
3.283333301544189
100
AcDbArc
 50
171.8286258693895
 51
8.171374130610477
  0
ARC
  5
423
330
22
100
AcDbEntity
  8
0
  6
Continuous
 62
     7
100
AcDbCircle
 10
-440.8881225585938
 20
400.2882080078125
 30
0.0
 40
3.283333301544189
100
AcDbArc
 50
351.8291530098786
 51
188.1708469901228
  0
ARC
  5
424
330
22
100
AcDbEntity
  8
0
  6
Continuous
 62
     7
100
AcDbCircle
 10
-440.8881225585938
 20
379.4548950195313
 30
0.0
 40
3.283333301544189
100
AcDbArc
 50
171.8291530098779
 51
8.170846990122083
  0
ARC
  5
425
330
22
100
AcDbEntity
  8
0
  6
Continuous
 62
     7
100
AcDbCircle
 10
-440.8881225585938
 20
347.0548706054688
 30
0.0
 40
3.283333301544189
100
AcDbArc
 50
171.8286258693895
 51
8.171374130610477
  0
ARC
  5
426
330
22
100
AcDbEntity
  8
0
  6
Continuous
 62
     7
100
AcDbCircle
 10
-440.8881225585938
 20
367.8882141113281
 30
0.0
 40
3.283333301544189
100
AcDbArc
 50
351.8286258693902
 51
188.1713741306112
  0
ARC
  5
427
330
22
100
AcDbEntity
  8
0
  6
Continuous
 62
     7
100
AcDbCircle
 10
-440.8881225585938
 20
470.6382141113281
 30
0.0
 40
3.283333301544189
100
AcDbArc
 50
351.8286258693902
 51
188.1713741306112
  0
ARC
  5
428
330
22
100
AcDbEntity
  8
0
  6
Continuous
 62
     7
100
AcDbCircle
 10
-440.8881225585938
 20
447.5548706054688
 30
0.0
 40
3.283333301544189
100
AcDbArc
 50
171.8286258693895
 51
8.171374130610477
  0
ARC
  5
429
330
22
100
AcDbEntity
  8
0
  6
Continuous
 62
     7
100
AcDbCircle
 10
-440.8881225585938
 20
482.2548828124999
 30
0.0
 40
3.283333301544189
100
AcDbArc
 50
171.8286258693895
 51
8.171374130610477
  0
LWPOLYLINE
  5
42A
330
22
100
AcDbEntity
  8
0
  6
Continuous
 62
     7
100
AcDbPolyline
 90
       17
 70
     0
 43
0.0
 10
-462.4410228471113
 20
229.6176910400128
 42
0.0401679067373618
 10
-462.612166985182
 20
230.0269233135495
 42
0.0401679067373618
 10
-462.8524096717382
 20
230.42562511226
 42
0.0401679067373618
 10
-463.1555689174143
 20
230.8035369343251
 42
0.0401679067373618
 10
-463.513843747039
 20
231.1509342511914
 42
0.0401679067373618
 10
-463.9180149364248
 20
231.4588777417525
 42
0.0401679067373618
 10
-464.3576822439221
 20
231.7194433213621
 42
0.0401679067373618
 10
-464.8215320322321
 20
231.9259260465096
 42
0.0401679067373618
 10
-465.2976283939613
 20
232.0730126482278
 42
0.0401679067373618
 10
-465.7737202895985
 20
232.1569182545577
 42
0.0401679067373618
 10
-466.2375567945552
 20
232.1754837838911
 42
0.0401679067373618
 10
-466.6772023432489
 20
232.1282315030385
 42
0.0401679067373618
 10
-467.0813438582841
 20
232.016377320388
 42
0.0401679067373618
 10
-467.4395818615993
 20
231.8427994978235
 42
0.0401679067373618
 10
-467.7426980766318
 20
231.6119645865174
 42
0.0401679067373618
 10
-467.9828926354865
 20
231.3298124924345
 42
0.0401679067373618
 10
-468.1539847872322
 20
231.0036036290767
 42
-1.0
  0
TEXT
  5
43D
330
22
100
AcDbEntity
  8
0
  6
Continuous
 62
     7
100
AcDbText
 10
-379.2821893692017
 20
19.5162467956543
 30
0.0
 40
7.0
  1
DL-CS80
 41
1.02406786948659
100
AcDbText
  0
DIMENSION
  5
43E
330
22
100
AcDbEntity
  8
0
  6
Continuous
 62
     7
100
AcDbDimension
  2
*D1
 10
-392.3881225585938
 20
35.54355621337891
 30
0.0
 11
-440.8881225585938
 21
35.54355621337891
 31
0.0
 71
     5
 42
-1.0
  3
DIMSTYLE1
100
AcDbAlignedDimension
 13
-489.3881225585937
 23
68.5848388671875
 33
0.0
 14
-392.3881225585938
 24
68.5848388671875
 34
0.0
100
AcDbRotatedDimension
  0
INSERT
  5
43F
330
22
100
AcDbEntity
  8
0
  6
Continuous
 62
     7
100
AcDbBlockReference
  2
KOZU0001
 10
-397.4861145019531
 20
84.80033874511718
 30
0.0
  0
DIMENSION
  5
440
330
22
100
AcDbEntity
  8
0
  6
Continuous
 62
     7
100
AcDbDimension
  2
*D2
 10
-552.6486206054689
 20
141.5848388671875
 30
0.0
 11
-552.6486206054689
 21
104.5848388671875
 31
0.0
 71
     5
 42
-1.0
  3
DIMSTYLE2
100
AcDbAlignedDimension
 13
-488.3881225585938
 23
67.5848388671875
 33
0.0
 14
-487.3881225585938
 24
141.5848388671875
 34
0.0
 50
90.0
100
AcDbRotatedDimension
  0
DIMENSION
  5
441
330
22
100
AcDbEntity
  8
0
  6
Continuous
 62
     7
100
AcDbDimension
  2
*D3
 10
-506.3881225585937
 20
76.51613616943359
 30
0.0
 11
-497.8881225585937
 21
76.51613616943359
 31
0.0
 71
     5
 42
-1.0
  3
DIMSTYLE3
100
AcDbAlignedDimension
 13
-489.3881225585937
 23
68.5848388671875
 33
0.0
 14
-506.3881225585937
 24
101.6082458496094
 34
0.0
100
AcDbRotatedDimension
  0
DIMENSION
  5
442
330
22
100
AcDbEntity
  8
0
  6
Continuous
 62
     7
100
AcDbDimension
  2
*D4
 10
-513.60498046875
 20
83.0848388671875
 30
0.0
 11
-513.60498046875
 21
93.0848388671875
 31
0.0
 71
     5
 42
-1.0
  3
DIMSTYLE4
100
AcDbAlignedDimension
 13
-494.3881225585938
 23
103.0848388671875
 33
0.0
 14
-491.3881225585938
 24
83.0848388671875
 34
0.0
 50
90.0
100
AcDbRotatedDimension
  0
INSERT
  5
443
330
22
100
AcDbEntity
  8
0
  6
Continuous
 62
     7
100
AcDbBlockReference
  2
KOZU0002
 10
-496.0386047363281
 20
98.31575012207032
 30
0.0
  0
DIMENSION
  5
444
330
22
100
AcDbEntity
  8
0
  6
Continuous
 62
     7
100
AcDbDimension
  2
*D5
 10
-430.2547607421875
 20
221.5848388671875
 30
0.0
 11
-430.2547607421875
 21
171.5848388671875
 31
0.0
 71
     5
 42
-1.0
  3
DIMSTYLE5
100
AcDbAlignedDimension
 13
-440.8881225585938
 23
121.5848388671875
 33
0.0
 14
-421.8428649902343
 24
221.5848388671875
 34
0.0
 50
90.0
100
AcDbRotatedDimension
  0
DIMENSION
  5
445
330
22
100
AcDbEntity
  8
0
  6
Continuous
 62
     7
100
AcDbDimension
  2
*D6
 10
-421.0578613281249
 20
171.5848388671875
 30
0.0
 11
-421.0578613281249
 21
146.5848388671875
 31
0.0
 71
     5
 42
-1.0
  3
DIMSTYLE6
100
AcDbAlignedDimension
 13
-440.8881225585938
 23
121.5848388671875
 33
0.0
 14
-398.4381103515625
 24
171.5848388671875
 34
0.0
 50
90.0
100
AcDbRotatedDimension
  0
DIMENSION
  5
446
330
22
100
AcDbEntity
  8
0
  6
Continuous
 62
     7
100
AcDbDimension
  2
*D7
 10
-295.3773803710938
 20
278.5848388671875
 30
0.0
 11
-295.3773803710938
 21
192.5848388671875
 31
0.0
 71
     5
 42
-1.0
  3
DIMSTYLE7
100
AcDbAlignedDimension
 13
-345.3881225585938
 23
106.5848388671875
 33
0.0
 14
-326.8883972167969
 24
278.5848388671875
 34
0.0
 50
90.0
100
AcDbRotatedDimension
  0
DIMENSION
  5
447
330
22
100
AcDbEntity
  8
0
  6
Continuous
 62
     7
100
AcDbDimension
  2
*D8
 10
-295.3773803710938
 20
103.0848388671875
 30
0.0
 11
-295.3773803710938
 21
91.46040344238279
 31
0.0
 71
     5
 42
-1.0
  3
DIMSTYLE8
100
AcDbAlignedDimension
 13
-293.0913696289063
 23
106.5848388671875
 33
0.0
 14
-343.8881225585938
 24
103.0848388671875
 34
0.0
 50
90.0
100
AcDbRotatedDimension
  0
DIMENSION
  5
448
330
22
100
AcDbEntity
  8
0
  6
Continuous
 62
     7
100
AcDbDimension
  2
*D9
 10
-311.7418212890625
 20
201.5848388671875
 30
0.0
 11
-311.7418212890625
 21
240.0848388671875
 31
0.0
 71
     5
 42
-1.0
  3
DIMSTYLE9
100
AcDbAlignedDimension
 13
-326.8883972167969
 23
278.5848388671875
 33
0.0
 14
-391.3883972167969
 24
201.5848388671875
 34
0.0
 50
90.0
100
AcDbRotatedDimension
  0
DIMENSION
  5
449
330
22
100
AcDbEntity
  8
0
  6
Continuous
 62
     7
100
AcDbDimension
  2
*D10
 10
-311.7418212890625
 20
141.5848388671875
 30
0.0
 11
-311.7418212890625
 21
124.0848388671875
 31
0.0
 71
     5
 42
-1.0
  3
DIMSTYLE10
100
AcDbAlignedDimension
 13
-293.0913696289063
 23
106.5848388671875
 33
0.0
 14
-394.3881225585938
 24
141.5848388671875
 34
0.0
 50
90.0
100
AcDbRotatedDimension
  0
DIMENSION
  5
44A
330
22
100
AcDbEntity
  8
0
  6
Continuous
 62
     7
100
AcDbDimension
  2
*D11
 10
-530.38560218492
 20
369.0551958725666
 30
0.0
 11
-330.14404296875
 21
530.6319580078125
 31
0.0
 70
     3
 71
     5
 42
-1.0
  3
DIMSTYLE11
100
AcDbDiametricDimension
 15
-351.3906429322676
 25
513.4878949477458
 35
0.0
 40
0.0
  0
DIMENSION
  5
44B
330
22
100
AcDbEntity
  8
0
  6
Continuous
 62
     7
100
AcDbDimension
  2
*D12
 10
-533.5816306931014
 20
393.0204982741823
 30
0.0
 11
-314.28271484375
 21
507.1752319335938
 31
0.0
 70
     3
 71
     5
 42
-1.0
  3
DIMSTYLE12
100
AcDbDiametricDimension
 15
-348.1946144240861
 25
489.5225925461302
 35
0.0
 40
0.0
  0
DIMENSION
  5
44C
330
22
100
AcDbEntity
  8
0
  6
Continuous
 62
     7
100
AcDbDimension
  2
*D13
 10
-534.4958855420713
 20
415.9033573302647
 30
0.0
 11
-304.7110290527344
 21
482.8530273437499
 31
0.0
 70
     3
 71
     5
 42
-1.0
  3
DIMSTYLE13
100
AcDbDiametricDimension
 15
-347.2803595751161
 25
470.4500972595791
 35
0.0
 40
0.0
  0
ENDSEC
  0
SECTION
  2
OBJECTS
  0
DICTIONARY
  5
C
330
0
100
AcDbDictionary
281
     1
  3
ACAD_COLOR
350
1B
  3
ACAD_GROUP
350
D
  3
ACAD_LAYOUT
350
19
  3
ACAD_MATERIAL
350
1A
  3
ACAD_MLINESTYLE
350
16
  3
ACAD_PLOTSETTINGS
350
18
  3
ACAD_PLOTSTYLENAME
350
E
  3
ACAD_TABLESTYLE
350
1C
  3
AcDbVariableDictionary
350
458
  0
DICTIONARY
  5
1B
102
{ACAD_REACTORS
330
C
102
}
330
C
100
AcDbDictionary
281
     1
  0
DICTIONARY
  5
D
102
{ACAD_REACTORS
330
C
102
}
330
C
100
AcDbDictionary
281
     1
  0
DICTIONARY
  5
19
102
{ACAD_REACTORS
330
C
102
}
330
C
100
AcDbDictionary
281
     1
  3
Model
350
25
  3
レイアウト1
350
21
  0
DICTIONARY
  5
1A
102
{ACAD_REACTORS
330
C
102
}
330
C
100
AcDbDictionary
281
     1
  0
DICTIONARY
  5
16
102
{ACAD_REACTORS
330
C
102
}
330
C
100
AcDbDictionary
281
     1
  3
Standard
350
17
  0
DICTIONARY
  5
18
102
{ACAD_REACTORS
330
C
102
}
330
C
100
AcDbDictionary
281
     1
  0
ACDBDICTIONARYWDFLT
  5
E
102
{ACAD_REACTORS
330
C
102
}
330
C
100
AcDbDictionary
281
     1
  3
Normal
350
F
100
AcDbDictionaryWithDefault
340
F
  0
DICTIONARY
  5
1C
102
{ACAD_REACTORS
330
C
102
}
330
C
100
AcDbDictionary
281
     1
  3
Standard
350
1D
  0
DICTIONARY
  5
458
102
{ACAD_REACTORS
330
C
102
}
330
C
100
AcDbDictionary
281
     1
  3
CTABLESTYLE
350
459
  0
LAYOUT
  5
25
102
{ACAD_REACTORS
330
19
102
}
330
19
100
AcDbPlotSettings
  1

  2
PDF reDirect v2
  4
User120
  6

 40
3.174999952316284
 41
3.174999952316284
 42
3.17498779296875
 43
3.17498779296875
 44
594.0
 45
841.0
 46
0.0
 47
0.0
 48
0.0
 49
0.0
140
0.0
141
0.0
142
1.0
143
1.0
 70
 11952
 72
     1
 73
     1
 74
     2
  7
C:\Users\ck\AppData\Roaming\Autodesk\AutoCAD 2005\R16.1\jpn\Plot Styles\black.ctb
 75
    16
147
1.0
 76
     0
 77
     2
 78
   300
148
839.0
149
0.0
100
AcDbLayout
  1
Model
 70
     1
 71
     0
 10
0.0
 20
0.0
 11
12.0
 21
9.0
 12
0.0
 22
0.0
 32
0.0
 14
0.0
 24
0.0
 34
0.0
 15
0.0
 25
0.0
 35
0.0
146
0.0
 13
0.0
 23
0.0
 33
0.0
 16
1.0
 26
0.0
 36
0.0
 17
0.0
 27
1.0
 37
0.0
 76
     0
330
22
1001
ACAD_PSEXT
1000
PDF reDirect v2
1000
PDF reDirect Pro
1000
PDF_REDIRECT_PORT:
1000
PDF reDirect provided by EXP Systems
1070
     0
  0
LAYOUT
  5
21
102
{ACAD_REACTORS
330
19
102
}
330
19
100
AcDbPlotSettings
  1

  2
PDF reDirect v2
  4

  6

 40
0.0
 41
0.0
 42
0.0
 43
0.0
 44
0.0
 45
0.0
 46
0.0
 47
0.0
 48
0.0
 49
0.0
140
0.0
141
0.0
142
1.0
143
1.0
 70
   688
 72
     0
 73
     0
 74
     5
  7
C:\Users\ck\AppData\Roaming\Autodesk\AutoCAD 2005\R16.1\jpn\Plot Styles\black.ctb
 75
    16
147
1.0
 76
     0
 77
     2
 78
   300
148
0.0
149
0.0
100
AcDbLayout
  1
レイアウト1
 70
     1
 71
     1
 10
-839.0
 20
0.0
 11
0.0
 21
591.0
 12
0.0
 22
0.0
 32
0.0
 14
1.000000000000000E+20
 24
1.000000000000000E+20
 34
1.000000000000000E+20
 15
-1.000000000000000E+20
 25
-1.000000000000000E+20
 35
-1.000000000000000E+20
146
0.0
 13
0.0
 23
0.0
 33
0.0
 16
1.0
 26
0.0
 36
0.0
 17
0.0
 27
1.0
 37
0.0
 76
     0
330
1E
  0
MLINESTYLE
  5
17
102
{ACAD_REACTORS
330
16
102
}
330
16
100
AcDbMlineStyle
  2
STANDARD
 70
     0
  3

 62
   256
 51
90.0
 52
90.0
 71
     2
 49
0.5
 62
   256
  6
BYLAYER
 49
-0.5
 62
   256
  6
BYLAYER
  0
ACDBPLACEHOLDER
  5
F
102
{ACAD_REACTORS
330
E
102
}
330
E
  0
TABLESTYLE
  5
1D
102
{ACAD_REACTORS
330
1C
102
}
330
1C
100
AcDbTableStyle
  3
Standard
 70
     0
 71
     0
 40
0.06
 41
0.06
280
     0
281
     0
  7
STANDARD
140
0.18
170
     2
 62
     0
 63
     7
283
     0
274
    -2
284
     1
 64
     0
275
    -2
285
     1
 65
     0
276
    -2
286
     1
 66
     0
277
    -2
287
     1
 67
     0
278
    -2
288
     1
 68
     0
279
    -2
289
     1
 69
     0
  7
STANDARD
140
0.25
170
     5
 62
     0
 63
     7
283
     0
274
    -2
284
     1
 64
     0
275
    -2
285
     1
 65
     0
276
    -2
286
     1
 66
     0
277
    -2
287
     1
 67
     0
278
    -2
288
     1
 68
     0
279
    -2
289
     1
 69
     0
  7
STANDARD
140
0.18
170
     5
 62
     0
 63
     7
283
     0
274
    -2
284
     1
 64
     0
275
    -2
285
     1
 65
     0
276
    -2
286
     1
 66
     0
277
    -2
287
     1
 67
     0
278
    -2
288
     1
 68
     0
279
    -2
289
     1
 69
     0
  0
DICTIONARYVAR
  5
459
102
{ACAD_REACTORS
330
458
102
}
330
458
100
DictionaryVariables
280
     0
  1
STANDARD
  0
ENDSEC
  0
EOF
