  0
SECTION
  2
HEADER
  9
$ACADVER
  1
AC1018
  9
$ACADMAINTVER
 70
    39
  9
$DWGCODEPAGE
  3
ANSI_932
  9
$INSBASE
 10
0.0
 20
0.0
 30
0.0
  9
$EXTMIN
 10
-556.8027778693972
 20
45.25204610644368
 30
-0.0015258207003583
  9
$EXTMAX
 10
-310.0418380070964
 20
538.353242281537
 30
0.0000000349246037
  9
$LIMMIN
 10
-839.0
 20
0.0
  9
$LIMMAX
 10
0.0
 20
591.0
  9
$ORTHOMODE
 70
     0
  9
$REGENMODE
 70
     1
  9
$FILLMODE
 70
     1
  9
$QTEXTMODE
 70
     0
  9
$MIRRTEXT
 70
     0
  9
$LTSCALE
 40
1.0
  9
$ATTMODE
 70
     1
  9
$TEXTSIZE
 40
0.2
  9
$TRACEWID
 40
0.05
  9
$TEXTSTYLE
  7
STANDARD
  9
$CLAYER
  8
0
  9
$CELTYPE
  6
CONTINUOUS
  9
$CECOLOR
 62
   256
  9
$CELTSCALE
 40
1.0
  9
$DISPSILH
 70
     0
  9
$DIMSCALE
 40
1.0
  9
$DIMASZ
 40
1.0
  9
$DIMEXO
 40
2.54
  9
$DIMDLI
 40
0.38
  9
$DIMRND
 40
0.0
  9
$DIMDLE
 40
0.0
  9
$DIMEXE
 40
2.54
  9
$DIMTP
 40
0.0
  9
$DIMTM
 40
0.0
  9
$DIMTXT
 40
3.0
  9
$DIMCEN
 40
0.09
  9
$DIMTSZ
 40
0.0
  9
$DIMTOL
 70
     0
  9
$DIMLIM
 70
     0
  9
$DIMTIH
 70
     0
  9
$DIMTOH
 70
     0
  9
$DIMSE1
 70
     0
  9
$DIMSE2
 70
     0
  9
$DIMTAD
 70
     1
  9
$DIMZIN
 70
     0
  9
$DIMBLK
  1

  9
$DIMASO
 70
     1
  9
$DIMSHO
 70
     0
  9
$DIMPOST
  1

  9
$DIMAPOST
  1

  9
$DIMALT
 70
     0
  9
$DIMALTD
 70
     2
  9
$DIMALTF
 40
25.4
  9
$DIMLFAC
 40
1.0
  9
$DIMTOFL
 70
     0
  9
$DIMTVP
 40
1.0
  9
$DIMTIX
 70
     0
  9
$DIMSOXD
 70
     0
  9
$DIMSAH
 70
     1
  9
$DIMBLK1
  1

  9
$DIMBLK2
  1

  9
$DIMSTYLE
  2
DIMSTYLE1
  9
$DIMCLRD
 70
     0
  9
$DIMCLRE
 70
     0
  9
$DIMCLRT
 70
     0
  9
$DIMTFAC
 40
1.0
  9
$DIMGAP
 40
1.5
  9
$DIMJUST
 70
     0
  9
$DIMSD1
 70
     0
  9
$DIMSD2
 70
     0
  9
$DIMTOLJ
 70
     1
  9
$DIMTZIN
 70
     0
  9
$DIMALTZ
 70
     0
  9
$DIMALTTZ
 70
     0
  9
$DIMUPT
 70
     0
  9
$DIMDEC
 70
     4
  9
$DIMTDEC
 70
     4
  9
$DIMALTU
 70
     2
  9
$DIMALTTD
 70
     2
  9
$DIMTXSTY
  7
STANDARD
  9
$DIMAUNIT
 70
     0
  9
$DIMADEC
 70
     0
  9
$DIMALTRND
 40
0.0
  9
$DIMAZIN
 70
     0
  9
$DIMDSEP
 70
    46
  9
$DIMATFIT
 70
     3
  9
$DIMFRAC
 70
     0
  9
$DIMLDRBLK
  1

  9
$DIMLUNIT
 70
     2
  9
$DIMLWD
 70
    -2
  9
$DIMLWE
 70
    -2
  9
$DIMTMOVE
 70
     0
  9
$LUNITS
 70
     2
  9
$LUPREC
 70
     4
  9
$SKETCHINC
 40
0.1
  9
$FILLETRAD
 40
0.0
  9
$AUNITS
 70
     0
  9
$AUPREC
 70
     0
  9
$MENU
  1
.
  9
$ELEVATION
 40
0.0
  9
$PELEVATION
 40
0.0
  9
$THICKNESS
 40
0.0
  9
$LIMCHECK
 70
     0
  9
$CHAMFERA
 40
0.0
  9
$CHAMFERB
 40
0.0
  9
$CHAMFERC
 40
0.0
  9
$CHAMFERD
 40
0.0
  9
$SKPOLY
 70
     0
  9
$TDCREATE
 40
2457694.663088067
  9
$TDUCREATE
 40
2457694.288088067
  9
$TDUPDATE
 40
2457694.663684792
  9
$TDUUPDATE
 40
2457694.288684792
  9
$TDINDWG
 40
0.0005978819
  9
$TDUSRTIMER
 40
0.0005978819
  9
$USRTIMER
 70
     1
  9
$ANGBASE
 50
0.0
  9
$ANGDIR
 70
     0
  9
$PDMODE
 70
     0
  9
$PDSIZE
 40
0.0
  9
$PLINEWID
 40
0.0
  9
$SPLFRAME
 70
     0
  9
$SPLINETYPE
 70
     6
  9
$SPLINESEGS
 70
     8
  9
$HANDSEED
  5
3A1
  9
$SURFTAB1
 70
     6
  9
$SURFTAB2
 70
     6
  9
$SURFTYPE
 70
     6
  9
$SURFU
 70
     6
  9
$SURFV
 70
     6
  9
$UCSBASE
  2

  9
$UCSNAME
  2

  9
$UCSORG
 10
0.0
 20
0.0
 30
0.0
  9
$UCSXDIR
 10
1.0
 20
0.0
 30
0.0
  9
$UCSYDIR
 10
0.0
 20
1.0
 30
0.0
  9
$UCSORTHOREF
  2

  9
$UCSORTHOVIEW
 70
     0
  9
$UCSORGTOP
 10
0.0
 20
0.0
 30
0.0
  9
$UCSORGBOTTOM
 10
0.0
 20
0.0
 30
0.0
  9
$UCSORGLEFT
 10
0.0
 20
0.0
 30
0.0
  9
$UCSORGRIGHT
 10
0.0
 20
0.0
 30
0.0
  9
$UCSORGFRONT
 10
0.0
 20
0.0
 30
0.0
  9
$UCSORGBACK
 10
0.0
 20
0.0
 30
0.0
  9
$PUCSBASE
  2

  9
$PUCSNAME
  2

  9
$PUCSORG
 10
0.0
 20
0.0
 30
0.0
  9
$PUCSXDIR
 10
1.0
 20
0.0
 30
0.0
  9
$PUCSYDIR
 10
0.0
 20
1.0
 30
0.0
  9
$PUCSORTHOREF
  2

  9
$PUCSORTHOVIEW
 70
     0
  9
$PUCSORGTOP
 10
0.0
 20
0.0
 30
0.0
  9
$PUCSORGBOTTOM
 10
0.0
 20
0.0
 30
0.0
  9
$PUCSORGLEFT
 10
0.0
 20
0.0
 30
0.0
  9
$PUCSORGRIGHT
 10
0.0
 20
0.0
 30
0.0
  9
$PUCSORGFRONT
 10
0.0
 20
0.0
 30
0.0
  9
$PUCSORGBACK
 10
0.0
 20
0.0
 30
0.0
  9
$USERI1
 70
     0
  9
$USERI2
 70
     0
  9
$USERI3
 70
     0
  9
$USERI4
 70
     0
  9
$USERI5
 70
     0
  9
$USERR1
 40
0.0
  9
$USERR2
 40
0.0
  9
$USERR3
 40
0.0
  9
$USERR4
 40
0.0
  9
$USERR5
 40
0.0
  9
$WORLDVIEW
 70
     1
  9
$SHADEDGE
 70
     3
  9
$SHADEDIF
 70
    70
  9
$TILEMODE
 70
     1
  9
$MAXACTVP
 70
    64
  9
$PINSBASE
 10
0.0
 20
0.0
 30
0.0
  9
$PLIMCHECK
 70
     0
  9
$PEXTMIN
 10
1.000000000000000E+20
 20
1.000000000000000E+20
 30
1.000000000000000E+20
  9
$PEXTMAX
 10
-1.000000000000000E+20
 20
-1.000000000000000E+20
 30
-1.000000000000000E+20
  9
$PLIMMIN
 10
-839.0
 20
0.0
  9
$PLIMMAX
 10
0.0
 20
591.0
  9
$UNITMODE
 70
     0
  9
$VISRETAIN
 70
     1
  9
$PLINEGEN
 70
     0
  9
$PSLTSCALE
 70
     1
  9
$TREEDEPTH
 70
  3020
  9
$CMLSTYLE
  2
Standard
  9
$CMLJUST
 70
     0
  9
$CMLSCALE
 40
1.0
  9
$PROXYGRAPHICS
 70
     1
  9
$MEASUREMENT
 70
     0
  9
$CELWEIGHT
370
    -1
  9
$ENDCAPS
280
     0
  9
$JOINSTYLE
280
     0
  9
$LWDISPLAY
290
     0
  9
$INSUNITS
 70
     0
  9
$HYPERLINKBASE
  1

  9
$STYLESHEET
  1

  9
$XEDIT
290
     1
  9
$CEPSNTYPE
380
     0
  9
$PSTYLEMODE
290
     1
  9
$FINGERPRINTGUID
  2
{AD950C66-03DA-4721-B5BB-0FDD37E129B7}
  9
$VERSIONGUID
  2
{BE6A6791-9147-46BE-B50E-4ED06EFA5ED3}
  9
$EXTNAMES
290
     1
  9
$PSVPSCALE
 40
0.0
  9
$OLESTARTUP
290
     0
  9
$SORTENTS
280
   127
  9
$INDEXCTL
280
     0
  9
$HIDETEXT
280
     0
  9
$XCLIPFRAME
290
     0
  9
$HALOGAP
280
     0
  9
$OBSCOLOR
 70
   257
  9
$OBSLTYPE
280
     0
  9
$INTERSECTIONDISPLAY
280
     0
  9
$INTERSECTIONCOLOR
 70
   257
  9
$DIMASSOC
280
     1
  9
$PROJECTNAME
  1

  0
ENDSEC
  0
SECTION
  2
CLASSES
  0
CLASS
  1
ACDBDICTIONARYWDFLT
  2
AcDbDictionaryWithDefault
  3
ObjectDBX Classes
 90
        0
 91
        1
280
     0
281
     0
  0
CLASS
  1
TABLESTYLE
  2
AcDbTableStyle
  3
ObjectDBX Classes
 90
     2047
 91
        1
280
     0
281
     0
  0
CLASS
  1
DICTIONARYVAR
  2
AcDbDictionaryVar
  3
ObjectDBX Classes
 90
        0
 91
        1
280
     0
281
     0
  0
ENDSEC
  0
SECTION
  2
TABLES
  0
TABLE
  2
VPORT
  5
8
330
0
100
AcDbSymbolTable
 70
     2
  0
VPORT
  5
3A0
330
8
100
AcDbSymbolTableRecord
100
AcDbViewportTableRecord
  2
*Active
 70
     0
 10
0.0
 20
0.0
 11
1.0
 21
1.0
 12
-419.5
 22
295.5
 13
0.0
 23
0.0
 14
1.0
 24
1.0
 15
0.0
 25
0.0
 16
0.0
 26
0.0
 36
1.0
 17
0.0
 27
0.0
 37
0.0
 40
595.6657894736842
 41
1.56258234519104
 42
50.0
 43
0.0
 44
0.0
 50
0.0
 51
0.0
 71
     0
 72
   100
 73
     1
 74
     1
 75
     0
 76
     0
 77
     0
 78
     0
281
     0
 65
     1
110
0.0
120
0.0
130
0.0
111
1.0
121
0.0
131
0.0
112
0.0
122
1.0
132
0.0
 79
     0
146
0.0
  0
ENDTAB
  0
TABLE
  2
LTYPE
  5
5
330
0
100
AcDbSymbolTable
 70
     6
  0
LTYPE
  5
13
330
5
100
AcDbSymbolTableRecord
100
AcDbLinetypeTableRecord
  2
ByBlock
 70
     0
  3

 72
    65
 73
     0
 40
0.0
  0
LTYPE
  5
14
330
5
100
AcDbSymbolTableRecord
100
AcDbLinetypeTableRecord
  2
ByLayer
 70
     0
  3

 72
    65
 73
     0
 40
0.0
  0
LTYPE
  5
15
330
5
100
AcDbSymbolTableRecord
100
AcDbLinetypeTableRecord
  2
CONTINUOUS
 70
     0
  3
Solid line
 72
    65
 73
     0
 40
0.0
  0
LTYPE
  5
26
330
5
100
AcDbSymbolTableRecord
100
AcDbLinetypeTableRecord
  2
DASHED
 70
     0
  3
__ __ __ __ __ __ __ __ __ __ __ __ __ __ __
 72
    65
 73
     2
 40
3.5
 49
2.0
 74
     0
 49
-1.5
 74
     0
  0
LTYPE
  5
27
330
5
100
AcDbSymbolTableRecord
100
AcDbLinetypeTableRecord
  2
CENTER
 70
     0
  3
____ _ ____ _ ____ _ ____ _ ____ _ ____ _ ____
 72
    65
 73
     4
 40
17.5
 49
13.0
 74
     0
 49
-1.5
 74
     0
 49
1.5
 74
     0
 49
-1.5
 74
     0
  0
LTYPE
  5
28
330
5
100
AcDbSymbolTableRecord
100
AcDbLinetypeTableRecord
  2
PHANTOM
 70
     0
  3
_____ _ _ _____ _ _ _____ _ _ _____ _ _ ____  
 72
    65
 73
     6
 40
15.5
 49
8.0
 74
     0
 49
-1.5
 74
     0
 49
1.5
 74
     0
 49
-1.5
 74
     0
 49
1.5
 74
     0
 49
-1.5
 74
     0
  0
LTYPE
  5
29
330
5
100
AcDbSymbolTableRecord
100
AcDbLinetypeTableRecord
  2
DOT
 70
     0
  3
. . . . . . . . . . . . . . . . . . . . . . . .
 72
    65
 73
     2
 40
0.25
 49
0.0
 74
     0
 49
-0.25
 74
     0
  0
LTYPE
  5
2A
330
5
100
AcDbSymbolTableRecord
100
AcDbLinetypeTableRecord
  2
HIDDEN
 70
     0
  3
__ __ __ __ __ __ __ __ __ __ __ __ __ __ __
 72
    65
 73
     2
 40
3.5
 49
2.0
 74
     0
 49
-1.5
 74
     0
  0
ENDTAB
  0
TABLE
  2
LAYER
  5
2
330
0
100
AcDbSymbolTable
 70
     2
  0
LAYER
  5
10
330
2
100
AcDbSymbolTableRecord
100
AcDbLayerTableRecord
  2
0
 70
     0
 62
     7
  6
CONTINUOUS
370
    -3
390
F
  0
LAYER
  5
2B
330
2
100
AcDbSymbolTableRecord
100
AcDbLayerTableRecord
  2
DEFPOINTS
 70
     0
 62
     7
  6
CONTINUOUS
290
     0
370
    -3
390
F
  0
ENDTAB
  0
TABLE
  2
STYLE
  5
3
330
0
100
AcDbSymbolTable
 70
     2
  0
STYLE
  5
11
330
3
100
AcDbSymbolTableRecord
100
AcDbTextStyleTableRecord
  2
STANDARD
 70
     0
 40
0.0
 41
1.0
 50
0.0
 71
     0
 42
0.2
  3

  4

1001
ACAD
1000
MS Gothic
1071
    32817
  0
ENDTAB
  0
TABLE
  2
VIEW
  5
6
330
0
100
AcDbSymbolTable
 70
     0
  0
ENDTAB
  0
TABLE
  2
UCS
  5
7
330
0
100
AcDbSymbolTable
 70
     0
  0
ENDTAB
  0
TABLE
  2
APPID
  5
9
330
0
100
AcDbSymbolTable
 70
     2
  0
APPID
  5
12
330
9
100
AcDbSymbolTableRecord
100
AcDbRegAppTableRecord
  2
ACAD
 70
     0
  0
APPID
  5
395
330
9
100
AcDbSymbolTableRecord
100
AcDbRegAppTableRecord
  2
ACAD_PSEXT
 70
     0
  0
ENDTAB
  0
TABLE
  2
DIMSTYLE
  5
A
330
0
100
AcDbSymbolTable
 70
    14
100
AcDbDimStyleTable
 71
     1
340
2C
  0
DIMSTYLE
105
2C
102
{ACAD_REACTORS
330
384
102
}
330
A
100
AcDbSymbolTableRecord
100
AcDbDimStyleTableRecord
  2
DIMSTYLE1
 70
     0
 41
1.0
 42
2.54
 44
2.54
 73
     0
 74
     0
 77
     1
140
3.0
145
1.0
147
1.5
172
     1
173
     1
279
     2
340
11
  0
DIMSTYLE
105
2D
102
{ACAD_REACTORS
330
385
102
}
330
A
100
AcDbSymbolTableRecord
100
AcDbDimStyleTableRecord
  2
DIMSTYLE2
 70
     0
 41
1.0
 42
2.54
 44
2.54
 73
     0
 74
     0
 77
     1
140
3.0
145
1.0
147
1.5
172
     1
173
     1
279
     2
340
11
  0
DIMSTYLE
105
2E
102
{ACAD_REACTORS
330
386
102
}
330
A
100
AcDbSymbolTableRecord
100
AcDbDimStyleTableRecord
  2
DIMSTYLE3
 70
     0
 41
1.0
 42
2.54
 44
2.54
 73
     0
 74
     0
 77
     1
140
3.0
145
1.0
147
1.5
172
     1
173
     1
279
     2
340
11
  0
DIMSTYLE
105
2F
102
{ACAD_REACTORS
330
387
102
}
330
A
100
AcDbSymbolTableRecord
100
AcDbDimStyleTableRecord
  2
DIMSTYLE4
 70
     0
 41
1.0
 42
2.54
 44
2.54
 73
     0
 74
     0
 77
     1
140
3.0
145
1.0
147
1.5
172
     1
173
     1
279
     2
340
11
  0
DIMSTYLE
105
30
102
{ACAD_REACTORS
330
388
102
}
330
A
100
AcDbSymbolTableRecord
100
AcDbDimStyleTableRecord
  2
DIMSTYLE5
 70
     0
 41
1.0
 42
2.54
 44
2.54
 73
     0
 74
     0
 77
     1
140
3.0
145
1.0
147
1.5
172
     1
173
     1
279
     2
340
11
  0
DIMSTYLE
105
31
102
{ACAD_REACTORS
330
389
102
}
330
A
100
AcDbSymbolTableRecord
100
AcDbDimStyleTableRecord
  2
DIMSTYLE6
 70
     0
 41
1.0
 42
2.54
 44
2.54
 73
     0
 74
     0
 77
     1
140
3.0
145
1.0
147
1.5
172
     1
173
     1
279
     2
340
11
  0
DIMSTYLE
105
32
102
{ACAD_REACTORS
330
38A
102
}
330
A
100
AcDbSymbolTableRecord
100
AcDbDimStyleTableRecord
  2
DIMSTYLE7
 70
     0
 41
1.0
 42
2.54
 44
2.54
 73
     0
 74
     0
 77
     1
140
3.0
145
1.0
147
1.5
172
     1
173
     1
279
     2
340
11
  0
DIMSTYLE
105
33
102
{ACAD_REACTORS
330
38B
102
}
330
A
100
AcDbSymbolTableRecord
100
AcDbDimStyleTableRecord
  2
DIMSTYLE8
 70
     0
 41
1.0
 42
2.54
 44
2.54
 73
     0
 74
     0
 77
     1
140
3.0
145
1.0
147
1.5
172
     1
173
     1
279
     2
340
11
  0
DIMSTYLE
105
34
102
{ACAD_REACTORS
330
38C
102
}
330
A
100
AcDbSymbolTableRecord
100
AcDbDimStyleTableRecord
  2
DIMSTYLE9
 70
     0
 41
1.0
 42
2.54
 44
2.54
 73
     0
 74
     0
 77
     1
140
3.0
145
1.0
147
1.5
172
     1
173
     1
279
     2
340
11
  0
DIMSTYLE
105
35
102
{ACAD_REACTORS
330
38D
102
}
330
A
100
AcDbSymbolTableRecord
100
AcDbDimStyleTableRecord
  2
DIMSTYLE10
 70
     0
 41
1.0
 42
2.54
 44
2.54
 73
     0
 74
     0
 77
     1
140
3.0
145
1.0
147
1.5
172
     1
173
     1
279
     2
340
11
  0
DIMSTYLE
105
36
102
{ACAD_REACTORS
330
390
102
}
330
A
100
AcDbSymbolTableRecord
100
AcDbDimStyleTableRecord
  2
DIMSTYLE11
 70
     0
 41
1.0
 42
2.54
 44
2.54
 73
     0
 74
     0
 75
     1
 76
     1
 77
     1
140
3.0
145
1.0
147
1.5
172
     1
173
     1
279
     2
340
11
  0
DIMSTYLE
105
37
102
{ACAD_REACTORS
330
391
102
}
330
A
100
AcDbSymbolTableRecord
100
AcDbDimStyleTableRecord
  2
DIMSTYLE12
 70
     0
 41
1.0
 42
2.54
 44
2.54
 73
     0
 74
     0
 75
     1
 76
     1
 77
     1
140
3.0
145
1.0
147
1.5
172
     1
173
     1
279
     2
340
11
  0
DIMSTYLE
105
38
102
{ACAD_REACTORS
330
392
102
}
330
A
100
AcDbSymbolTableRecord
100
AcDbDimStyleTableRecord
  2
DIMSTYLE13
 70
     0
 41
1.0
 42
2.54
 44
2.54
 73
     0
 74
     0
 75
     1
 76
     1
 77
     1
140
3.0
145
1.0
147
1.5
172
     1
173
     1
279
     2
340
11
  0
ENDTAB
  0
TABLE
  2
BLOCK_RECORD
  5
1
330
0
100
AcDbSymbolTable
 70
    17
  0
BLOCK_RECORD
  5
22
330
1
100
AcDbSymbolTableRecord
100
AcDbBlockTableRecord
  2
*Model_Space
340
25
  0
BLOCK_RECORD
  5
1E
330
1
100
AcDbSymbolTableRecord
100
AcDbBlockTableRecord
  2
*Paper_Space
340
21
  0
BLOCK_RECORD
  5
3C
330
1
100
AcDbSymbolTableRecord
100
AcDbBlockTableRecord
  2
_OPEN30
340
0
102
{BLKREFS
331
45
331
46
331
50
331
51
331
5B
331
5D
331
68
331
69
331
74
331
75
331
7F
331
80
331
8A
331
8B
331
96
331
97
331
A2
331
A3
331
AD
331
AE
331
B9
331
BA
331
C3
331
C4
331
CD
331
CE
102
}
  0
BLOCK_RECORD
  5
42
330
1
100
AcDbSymbolTableRecord
100
AcDbBlockTableRecord
  2
*D1
340
0
  0
BLOCK_RECORD
  5
4D
330
1
100
AcDbSymbolTableRecord
100
AcDbBlockTableRecord
  2
*D2
340
0
  0
BLOCK_RECORD
  5
57
330
1
100
AcDbSymbolTableRecord
100
AcDbBlockTableRecord
  2
*D3
340
0
  0
BLOCK_RECORD
  5
65
330
1
100
AcDbSymbolTableRecord
100
AcDbBlockTableRecord
  2
*D4
340
0
  0
BLOCK_RECORD
  5
71
330
1
100
AcDbSymbolTableRecord
100
AcDbBlockTableRecord
  2
*D5
340
0
  0
BLOCK_RECORD
  5
7C
330
1
100
AcDbSymbolTableRecord
100
AcDbBlockTableRecord
  2
*D6
340
0
  0
BLOCK_RECORD
  5
87
330
1
100
AcDbSymbolTableRecord
100
AcDbBlockTableRecord
  2
*D7
340
0
  0
BLOCK_RECORD
  5
93
330
1
100
AcDbSymbolTableRecord
100
AcDbBlockTableRecord
  2
*D8
340
0
  0
BLOCK_RECORD
  5
9F
330
1
100
AcDbSymbolTableRecord
100
AcDbBlockTableRecord
  2
*D9
340
0
  0
BLOCK_RECORD
  5
AA
330
1
100
AcDbSymbolTableRecord
100
AcDbBlockTableRecord
  2
*D10
340
0
  0
BLOCK_RECORD
  5
B5
330
1
100
AcDbSymbolTableRecord
100
AcDbBlockTableRecord
  2
*D11
340
0
  0
BLOCK_RECORD
  5
BF
330
1
100
AcDbSymbolTableRecord
100
AcDbBlockTableRecord
  2
*D12
340
0
  0
BLOCK_RECORD
  5
C9
330
1
100
AcDbSymbolTableRecord
100
AcDbBlockTableRecord
  2
*D13
340
0
  0
BLOCK_RECORD
  5
D3
330
1
100
AcDbSymbolTableRecord
100
AcDbBlockTableRecord
  2
KOZU0001
340
0
102
{BLKREFS
331
38E
102
}
  0
BLOCK_RECORD
  5
DC
330
1
100
AcDbSymbolTableRecord
100
AcDbBlockTableRecord
  2
KOZU0002
340
0
102
{BLKREFS
331
38F
102
}
  0
ENDTAB
  0
ENDSEC
  0
SECTION
  2
BLOCKS
  0
BLOCK
  5
23
330
22
100
AcDbEntity
  8
0
100
AcDbBlockBegin
  2
*Model_Space
 70
     0
 10
0.0
 20
0.0
 30
0.0
  3
*Model_Space
  1

  0
ENDBLK
  5
24
330
22
100
AcDbEntity
  8
0
100
AcDbBlockEnd
  0
BLOCK
  5
1F
330
1E
100
AcDbEntity
 67
     1
  8
0
100
AcDbBlockBegin
  2
*Paper_Space
 70
     0
 10
0.0
 20
0.0
 30
0.0
  3
*Paper_Space
  1

  0
ENDBLK
  5
20
330
1E
100
AcDbEntity
 67
     1
  8
0
100
AcDbBlockEnd
  0
BLOCK
  5
3D
330
3C
100
AcDbEntity
  8
0
100
AcDbBlockBegin
  2
_OPEN30
 70
     0
 10
0.0
 20
0.0
 30
0.0
  3
_OPEN30
  1

  0
LINE
  5
3E
330
3C
100
AcDbEntity
  8
0
  6
ByBlock
 62
     0
100
AcDbLine
 10
0.0
 20
0.0
 30
0.0
 11
-2.999999999999993
 21
-1.000000000000017
 31
0.0
  0
LINE
  5
3F
330
3C
100
AcDbEntity
  8
0
  6
ByBlock
 62
     0
100
AcDbLine
 10
0.0
 20
0.0
 30
0.0
 11
-3.000000000000006
 21
0.9999999999999815
 31
0.0
  0
LINE
  5
40
330
3C
100
AcDbEntity
  8
0
  6
ByBlock
 62
     0
100
AcDbLine
 10
0.0
 20
0.0
 30
0.0
 11
-3.0
 21
0.0
 31
0.0
  0
ENDBLK
  5
41
330
3C
100
AcDbEntity
  8
0
100
AcDbBlockEnd
  0
BLOCK
  5
43
330
42
100
AcDbEntity
  8
0
100
AcDbBlockBegin
  2
*D1
 70
     1
 10
0.0
 20
0.0
 30
0.0
  3
*D1
  1

  0
LINE
  5
44
330
42
100
AcDbEntity
  8
0
  6
Continuous
 62
     7
100
AcDbLine
 10
-421.0578613281249
 20
151.5848388671875
 30
0.0
 11
-421.0578613281249
 21
195.0856781005859
 31
0.0
  0
INSERT
  5
45
330
42
100
AcDbEntity
  8
0
  6
Continuous
 62
     7
100
AcDbBlockReference
  2
_OPEN30
 10
-421.0578613281249
 20
148.5848388671875
 30
0.0
 50
270.0000000000005
  0
INSERT
  5
46
330
42
100
AcDbEntity
  8
0
  6
Continuous
 62
     7
100
AcDbBlockReference
  2
_OPEN30
 10
-421.0578613281249
 20
198.0856781005859
 30
0.0
 50
90.00000000000019
  0
LINE
  5
47
330
42
100
AcDbEntity
  8
0
  6
Continuous
 62
     7
100
AcDbLine
 10
-405.8381262207031
 20
198.0856781005859
 30
0.0
 11
-423.3438415527343
 21
198.0856781005859
 31
0.0
  0
TEXT
  5
48
330
42
100
AcDbEntity
  8
0
  6
Continuous
 62
     7
100
AcDbText
 10
-421.8078612157866
 20
170.7652507096519
 30
0.0
 40
3.0
  1
50
 50
90.00000250447815
 41
1.101428593908038
100
AcDbText
  0
POINT
  5
49
330
42
100
AcDbEntity
  8
DEFPOINTS
  6
Continuous
 62
     7
100
AcDbPoint
 10
-404.7731018066405
 20
148.5848388671875
 30
0.0
  0
POINT
  5
4A
330
42
100
AcDbEntity
  8
DEFPOINTS
  6
Continuous
 62
     7
100
AcDbPoint
 10
-403.2981262207031
 20
198.0856781005859
 30
0.0
  0
POINT
  5
4B
330
42
100
AcDbEntity
  8
DEFPOINTS
  6
Continuous
 62
     7
100
AcDbPoint
 10
-421.0578613281249
 20
198.0856781005859
 30
0.0
  0
ENDBLK
  5
4C
330
42
100
AcDbEntity
  8
0
100
AcDbBlockEnd
  0
BLOCK
  5
4E
330
4D
100
AcDbEntity
  8
0
100
AcDbBlockBegin
  2
*D2
 70
     1
 10
0.0
 20
0.0
 30
0.0
  3
*D2
  1

  0
LINE
  5
4F
330
4D
100
AcDbEntity
  8
0
  6
Continuous
 62
     7
100
AcDbLine
 10
-430.2547607421875
 20
151.5848388671875
 30
0.0
 11
-430.2547607421875
 21
245.5848388671875
 31
0.0
  0
INSERT
  5
50
330
4D
100
AcDbEntity
  8
0
  6
Continuous
 62
     7
100
AcDbBlockReference
  2
_OPEN30
 10
-430.2547607421875
 20
148.5848388671875
 30
0.0
 50
270.0000000000005
  0
INSERT
  5
51
330
4D
100
AcDbEntity
  8
0
  6
Continuous
 62
     7
100
AcDbBlockReference
  2
_OPEN30
 10
-430.2547607421875
 20
248.5848388671875
 30
0.0
 50
90.00000000000019
  0
TEXT
  5
52
330
4D
100
AcDbEntity
  8
0
  6
Continuous
 62
     7
100
AcDbText
 10
-431.0047605642821
 20
194.5148386627426
 30
0.0
 40
3.0
  1
100
 50
90.00000250447815
 41
1.320000017011488
100
AcDbText
  0
POINT
  5
53
330
4D
100
AcDbEntity
  8
DEFPOINTS
  6
Continuous
 62
     7
100
AcDbPoint
 10
-440.8881225585938
 20
148.5848388671875
 30
0.0
  0
POINT
  5
54
330
4D
100
AcDbEntity
  8
DEFPOINTS
  6
Continuous
 62
     7
100
AcDbPoint
 10
-440.8881225585938
 20
248.5848388671875
 30
0.0
  0
POINT
  5
55
330
4D
100
AcDbEntity
  8
DEFPOINTS
  6
Continuous
 62
     7
100
AcDbPoint
 10
-430.2547607421875
 20
248.5848388671875
 30
0.0
  0
ENDBLK
  5
56
330
4D
100
AcDbEntity
  8
0
100
AcDbBlockEnd
  0
BLOCK
  5
58
330
57
100
AcDbEntity
  8
0
100
AcDbBlockBegin
  2
*D3
 70
     1
 10
0.0
 20
0.0
 30
0.0
  3
*D3
  1

  0
LINE
  5
59
330
57
100
AcDbEntity
  8
0
  6
Continuous
 62
     7
100
AcDbLine
 10
-312.3336791992188
 20
133.0848388671875
 30
0.0
 11
-312.3336791992188
 21
116.2995758056641
 31
0.0
  0
LINE
  5
5A
330
57
100
AcDbEntity
  8
0
  6
Continuous
 62
     7
100
AcDbLine
 10
-312.3336791992188
 20
133.0848388671875
 30
0.0
 11
-312.3336791992188
 21
136.5848388671875
 31
0.0
  0
INSERT
  5
5B
330
57
100
AcDbEntity
  8
0
  6
Continuous
 62
     7
100
AcDbBlockReference
  2
_OPEN30
 10
-312.3336791992188
 20
133.0848388671875
 30
0.0
 50
90.00000000000049
  0
LINE
  5
5C
330
57
100
AcDbEntity
  8
0
  6
Continuous
 62
     7
100
AcDbLine
 10
-312.3336791992188
 20
130.0848388671875
 30
0.0
 11
-312.3336791992187
 21
126.7348388671875
 31
0.0
  0
INSERT
  5
5D
330
57
100
AcDbEntity
  8
0
  6
Continuous
 62
     7
100
AcDbBlockReference
  2
_OPEN30
 10
-312.3336791992188
 20
136.5848388671875
 30
0.0
 50
270.0000000000002
  0
LINE
  5
5E
330
57
100
AcDbEntity
  8
0
  6
Continuous
 62
     7
100
AcDbLine
 10
-312.3336791992188
 20
139.5848388671875
 30
0.0
 11
-312.3336791992188
 21
142.9348388671875
 31
0.0
  0
LINE
  5
5F
330
57
100
AcDbEntity
  8
0
  6
Continuous
 62
     7
100
AcDbLine
 10
-347.8481225585937
 20
133.0848388671875
 30
0.0
 11
-310.0476684570313
 21
133.0848388671875
 31
0.0
  0
TEXT
  5
60
330
57
100
AcDbEntity
  8
0
  6
Continuous
 62
     7
100
AcDbText
 10
-313.0836790213133
 20
116.2995752960434
 30
0.0
 40
3.0
  1
3.5
 50
90.00000250447815
 41
1.356666684150696
100
AcDbText
  0
POINT
  5
61
330
57
100
AcDbEntity
  8
DEFPOINTS
  6
Continuous
 62
     7
100
AcDbPoint
 10
-350.3881225585938
 20
133.0848388671875
 30
0.0
  0
POINT
  5
62
330
57
100
AcDbEntity
  8
DEFPOINTS
  6
Continuous
 62
     7
100
AcDbPoint
 10
-310.0476684570313
 20
136.5848388671875
 30
0.0
  0
POINT
  5
63
330
57
100
AcDbEntity
  8
DEFPOINTS
  6
Continuous
 62
     7
100
AcDbPoint
 10
-312.3336791992188
 20
136.5848388671875
 30
0.0
  0
ENDBLK
  5
64
330
57
100
AcDbEntity
  8
0
100
AcDbBlockEnd
  0
BLOCK
  5
66
330
65
100
AcDbEntity
  8
0
100
AcDbBlockBegin
  2
*D4
 70
     1
 10
0.0
 20
0.0
 30
0.0
  3
*D4
  1

  0
LINE
  5
67
330
65
100
AcDbEntity
  8
0
  6
Continuous
 62
     7
100
AcDbLine
 10
-312.3336791992188
 20
139.5848388671875
 30
0.0
 11
-312.3336791992188
 21
282.5848388671875
 31
0.0
  0
INSERT
  5
68
330
65
100
AcDbEntity
  8
0
  6
Continuous
 62
     7
100
AcDbBlockReference
  2
_OPEN30
 10
-312.3336791992188
 20
136.5848388671875
 30
0.0
 50
270.0000000000005
  0
INSERT
  5
69
330
65
100
AcDbEntity
  8
0
  6
Continuous
 62
     7
100
AcDbBlockReference
  2
_OPEN30
 10
-312.3336791992188
 20
285.5848388671875
 30
0.0
 50
90.00000000000019
  0
LINE
  5
6A
330
65
100
AcDbEntity
  8
0
  6
Continuous
 62
     7
100
AcDbLine
 10
-349.3481225585937
 20
136.5848388671875
 30
0.0
 11
-310.0476684570313
 21
136.5848388671875
 31
0.0
  0
LINE
  5
6B
330
65
100
AcDbEntity
  8
0
  6
Continuous
 62
     7
100
AcDbLine
 10
-361.8481225585937
 20
285.5848388671875
 30
0.0
 11
-310.0476684570313
 21
285.5848388671875
 31
0.0
  0
TEXT
  5
6C
330
65
100
AcDbEntity
  8
0
  6
Continuous
 62
     7
100
AcDbText
 10
-313.0836783656425
 20
192.0148380666962
 30
0.0
 40
3.0
  1
１４９　（１３９～１５８）
 50
90.00000250447815
 41
0.8434321120058422
100
AcDbText
  0
POINT
  5
6D
330
65
100
AcDbEntity
  8
DEFPOINTS
  6
Continuous
 62
     7
100
AcDbPoint
 10
-351.8881225585938
 20
136.5848388671875
 30
0.0
  0
POINT
  5
6E
330
65
100
AcDbEntity
  8
DEFPOINTS
  6
Continuous
 62
     7
100
AcDbPoint
 10
-364.3881225585938
 20
285.5848388671875
 30
0.0
  0
POINT
  5
6F
330
65
100
AcDbEntity
  8
DEFPOINTS
  6
Continuous
 62
     7
100
AcDbPoint
 10
-312.3336791992188
 20
285.5848388671875
 30
0.0
  0
ENDBLK
  5
70
330
65
100
AcDbEntity
  8
0
100
AcDbBlockEnd
  0
BLOCK
  5
72
330
71
100
AcDbEntity
  8
0
100
AcDbBlockBegin
  2
*D5
 70
     1
 10
0.0
 20
0.0
 30
0.0
  3
*D5
  1

  0
LINE
  5
73
330
71
100
AcDbEntity
  8
0
  6
Continuous
 62
     7
100
AcDbLine
 10
-327.46435546875
 20
139.5848388671875
 30
0.0
 11
-327.46435546875
 21
165.5848388671875
 31
0.0
  0
INSERT
  5
74
330
71
100
AcDbEntity
  8
0
  6
Continuous
 62
     7
100
AcDbBlockReference
  2
_OPEN30
 10
-327.46435546875
 20
136.5848388671875
 30
0.0
 50
270.0000000000005
  0
INSERT
  5
75
330
71
100
AcDbEntity
  8
0
  6
Continuous
 62
     7
100
AcDbBlockReference
  2
_OPEN30
 10
-327.46435546875
 20
168.5848388671875
 30
0.0
 50
90.00000000000019
  0
LINE
  5
76
330
71
100
AcDbEntity
  8
0
  6
Continuous
 62
     7
100
AcDbLine
 10
-398.3481225585937
 20
168.5848388671875
 30
0.0
 11
-325.1783447265625
 21
168.5848388671875
 31
0.0
  0
TEXT
  5
77
330
71
100
AcDbEntity
  8
0
  6
Continuous
 62
     7
100
AcDbText
 10
-328.2143553564117
 20
150.0148387223472
 30
0.0
 40
3.0
  1
32
 50
90.00000250447815
 41
1.028000020980834
100
AcDbText
  0
POINT
  5
78
330
71
100
AcDbEntity
  8
DEFPOINTS
  6
Continuous
 62
     7
100
AcDbPoint
 10
-310.0476684570313
 20
136.5848388671875
 30
0.0
  0
POINT
  5
79
330
71
100
AcDbEntity
  8
DEFPOINTS
  6
Continuous
 62
     7
100
AcDbPoint
 10
-400.8881225585938
 20
168.5848388671875
 30
0.0
  0
POINT
  5
7A
330
71
100
AcDbEntity
  8
DEFPOINTS
  6
Continuous
 62
     7
100
AcDbPoint
 10
-327.46435546875
 20
168.5848388671875
 30
0.0
  0
ENDBLK
  5
7B
330
71
100
AcDbEntity
  8
0
100
AcDbBlockEnd
  0
BLOCK
  5
7D
330
7C
100
AcDbEntity
  8
0
100
AcDbBlockBegin
  2
*D6
 70
     1
 10
0.0
 20
0.0
 30
0.0
  3
*D6
  1

  0
LINE
  5
7E
330
7C
100
AcDbEntity
  8
0
  6
Continuous
 62
     7
100
AcDbLine
 10
-327.46435546875
 20
282.5848388671875
 30
0.0
 11
-327.46435546875
 21
233.5848388671875
 31
0.0
  0
INSERT
  5
7F
330
7C
100
AcDbEntity
  8
0
  6
Continuous
 62
     7
100
AcDbBlockReference
  2
_OPEN30
 10
-327.46435546875
 20
285.5848388671875
 30
0.0
 50
90.00000000000019
  0
INSERT
  5
80
330
7C
100
AcDbEntity
  8
0
  6
Continuous
 62
     7
100
AcDbBlockReference
  2
_OPEN30
 10
-327.46435546875
 20
230.5848388671875
 30
0.0
 50
270.0000000000005
  0
LINE
  5
81
330
7C
100
AcDbEntity
  8
0
  6
Continuous
 62
     7
100
AcDbLine
 10
-398.3481225585937
 20
230.5848388671875
 30
0.0
 11
-325.1783447265625
 21
230.5848388671875
 31
0.0
  0
TEXT
  5
82
330
7C
100
AcDbEntity
  8
0
  6
Continuous
 62
     7
100
AcDbText
 10
-328.2143553564117
 20
255.5148387223472
 30
0.0
 40
3.0
  1
55
 50
90.00000250447815
 41
1.028000020980834
100
AcDbText
  0
POINT
  5
83
330
7C
100
AcDbEntity
  8
DEFPOINTS
  6
Continuous
 62
     7
100
AcDbPoint
 10
-310.0476684570313
 20
285.5848388671875
 30
0.0
  0
POINT
  5
84
330
7C
100
AcDbEntity
  8
DEFPOINTS
  6
Continuous
 62
     7
100
AcDbPoint
 10
-400.8881225585938
 20
230.5848388671875
 30
0.0
  0
POINT
  5
85
330
7C
100
AcDbEntity
  8
DEFPOINTS
  6
Continuous
 62
     7
100
AcDbPoint
 10
-327.46435546875
 20
230.5848388671875
 30
0.0
  0
ENDBLK
  5
86
330
7C
100
AcDbEntity
  8
0
100
AcDbBlockEnd
  0
BLOCK
  5
88
330
87
100
AcDbEntity
  8
0
100
AcDbBlockBegin
  2
*D7
 70
     1
 10
0.0
 20
0.0
 30
0.0
  3
*D7
  1

  0
LINE
  5
89
330
87
100
AcDbEntity
  8
0
  6
Continuous
 62
     7
100
AcDbLine
 10
-479.3881225585938
 20
65.5435562133789
 30
0.0
 11
-402.3881225585937
 21
65.54355621337889
 31
0.0
  0
INSERT
  5
8A
330
87
100
AcDbEntity
  8
0
  6
Continuous
 62
     7
100
AcDbBlockReference
  2
_OPEN30
 10
-482.3881225585938
 20
65.5435562133789
 30
0.0
 50
180.0000000000004
  0
INSERT
  5
8B
330
87
100
AcDbEntity
  8
0
  6
Continuous
 62
     7
100
AcDbBlockReference
  2
_OPEN30
 10
-399.3881225585938
 20
65.5435562133789
 30
0.0
  0
LINE
  5
8C
330
87
100
AcDbEntity
  8
0
  6
Continuous
 62
     7
100
AcDbLine
 10
-482.3881225585938
 20
99.04483886718749
 30
0.0
 11
-482.3881225585938
 21
63.25755310058593
 31
0.0
  0
LINE
  5
8D
330
87
100
AcDbEntity
  8
0
  6
Continuous
 62
     7
100
AcDbLine
 10
-399.3881225585938
 20
99.04483886718749
 30
0.0
 11
-399.3881225585938
 21
63.25755310058593
 31
0.0
  0
TEXT
  5
8E
330
87
100
AcDbEntity
  8
0
  6
Continuous
 62
     7
100
AcDbText
 10
-444.9581227302551
 20
66.2935562133789
 30
0.0
 40
3.0
  1
%%C83
 41
0.9498249830693319
100
AcDbText
  0
POINT
  5
8F
330
87
100
AcDbEntity
  8
DEFPOINTS
  6
Continuous
 62
     7
100
AcDbPoint
 10
-482.3881225585938
 20
101.5848388671875
 30
0.0
  0
POINT
  5
90
330
87
100
AcDbEntity
  8
DEFPOINTS
  6
Continuous
 62
     7
100
AcDbPoint
 10
-399.3881225585938
 20
101.5848388671875
 30
0.0
  0
POINT
  5
91
330
87
100
AcDbEntity
  8
DEFPOINTS
  6
Continuous
 62
     7
100
AcDbPoint
 10
-399.3881225585938
 20
65.5435562133789
 30
0.0
  0
ENDBLK
  5
92
330
87
100
AcDbEntity
  8
0
100
AcDbBlockEnd
  0
BLOCK
  5
94
330
93
100
AcDbEntity
  8
0
100
AcDbBlockBegin
  2
*D8
 70
     1
 10
0.0
 20
0.0
 30
0.0
  3
*D8
  1

  0
LINE
  5
95
330
93
100
AcDbEntity
  8
0
  6
Continuous
 62
     7
100
AcDbLine
 10
-552.6486206054689
 20
103.5848388671875
 30
0.0
 11
-552.6486206054689
 21
165.5848388671875
 31
0.0
  0
INSERT
  5
96
330
93
100
AcDbEntity
  8
0
  6
Continuous
 62
     7
100
AcDbBlockReference
  2
_OPEN30
 10
-552.6486206054689
 20
100.5848388671875
 30
0.0
 50
270.0000000000005
  0
INSERT
  5
97
330
93
100
AcDbEntity
  8
0
  6
Continuous
 62
     7
100
AcDbBlockReference
  2
_OPEN30
 10
-552.6486206054689
 20
168.5848388671875
 30
0.0
 50
90.00000000000019
  0
LINE
  5
98
330
93
100
AcDbEntity
  8
0
  6
Continuous
 62
     7
100
AcDbLine
 10
-483.9281225585938
 20
100.5848388671875
 30
0.0
 11
-554.9346313476563
 21
100.5848388671875
 31
0.0
  0
LINE
  5
99
330
93
100
AcDbEntity
  8
0
  6
Continuous
 62
     7
100
AcDbLine
 10
-483.4281225585938
 20
168.5848388671875
 30
0.0
 11
-554.9346313476563
 21
168.5848388671875
 31
0.0
  0
TEXT
  5
9A
330
93
100
AcDbEntity
  8
0
  6
Continuous
 62
     7
100
AcDbText
 10
-553.3986204931304
 20
132.0148387223472
 30
0.0
 40
3.0
  1
68
 50
90.00000250447815
 41
1.028000020980834
100
AcDbText
  0
POINT
  5
9B
330
93
100
AcDbEntity
  8
DEFPOINTS
  6
Continuous
 62
     7
100
AcDbPoint
 10
-481.3881225585937
 20
100.5848388671875
 30
0.0
  0
POINT
  5
9C
330
93
100
AcDbEntity
  8
DEFPOINTS
  6
Continuous
 62
     7
100
AcDbPoint
 10
-480.8881225585937
 20
168.5848388671875
 30
0.0
  0
POINT
  5
9D
330
93
100
AcDbEntity
  8
DEFPOINTS
  6
Continuous
 62
     7
100
AcDbPoint
 10
-552.6486206054689
 20
168.5848388671875
 30
0.0
  0
ENDBLK
  5
9E
330
93
100
AcDbEntity
  8
0
100
AcDbBlockEnd
  0
BLOCK
  5
A0
330
9F
100
AcDbEntity
  8
0
100
AcDbBlockBegin
  2
*D9
 70
     1
 10
0.0
 20
0.0
 30
0.0
  3
*D9
  1

  0
LINE
  5
A1
330
9F
100
AcDbEntity
  8
0
  6
Continuous
 62
     7
100
AcDbLine
 10
-485.3881225585937
 20
106.5161361694336
 30
0.0
 11
-495.3881225585938
 21
106.5161361694336
 31
0.0
  0
INSERT
  5
A2
330
9F
100
AcDbEntity
  8
0
  6
Continuous
 62
     7
100
AcDbBlockReference
  2
_OPEN30
 10
-482.3881225585938
 20
106.5161361694336
 30
0.0
  0
INSERT
  5
A3
330
9F
100
AcDbEntity
  8
0
  6
Continuous
 62
     7
100
AcDbBlockReference
  2
_OPEN30
 10
-498.3881225585938
 20
106.5161361694336
 30
0.0
 50
180.0000000000004
  0
LINE
  5
A4
330
9F
100
AcDbEntity
  8
0
  6
Continuous
 62
     7
100
AcDbLine
 10
-498.3881225585938
 20
129.0438775634766
 30
0.0
 11
-498.3881225585938
 21
104.2301330566406
 31
0.0
  0
TEXT
  5
A5
330
9F
100
AcDbEntity
  8
0
  6
Continuous
 62
     7
100
AcDbText
 10
-492.9581226706504
 20
107.2661361694336
 30
0.0
 40
3.0
  1
16
 41
1.285000026226043
100
AcDbText
  0
POINT
  5
A6
330
9F
100
AcDbEntity
  8
DEFPOINTS
  6
Continuous
 62
     7
100
AcDbPoint
 10
-482.3881225585938
 20
101.5848388671875
 30
0.0
  0
POINT
  5
A7
330
9F
100
AcDbEntity
  8
DEFPOINTS
  6
Continuous
 62
     7
100
AcDbPoint
 10
-498.3881225585938
 20
131.5838775634766
 30
0.0
  0
POINT
  5
A8
330
9F
100
AcDbEntity
  8
DEFPOINTS
  6
Continuous
 62
     7
100
AcDbPoint
 10
-498.3881225585938
 20
106.5161361694336
 30
0.0
  0
ENDBLK
  5
A9
330
9F
100
AcDbEntity
  8
0
100
AcDbBlockEnd
  0
BLOCK
  5
AB
330
AA
100
AcDbEntity
  8
0
100
AcDbBlockBegin
  2
*D10
 70
     1
 10
0.0
 20
0.0
 30
0.0
  3
*D10
  1

  0
LINE
  5
AC
330
AA
100
AcDbEntity
  8
0
  6
Continuous
 62
     7
100
AcDbLine
 10
-506.9379577636718
 20
130.0848388671875
 30
0.0
 11
-506.9379577636718
 21
118.0848388671875
 31
0.0
  0
INSERT
  5
AD
330
AA
100
AcDbEntity
  8
0
  6
Continuous
 62
     7
100
AcDbBlockReference
  2
_OPEN30
 10
-506.9379577636718
 20
133.0848388671875
 30
0.0
 50
90.00000000000019
  0
INSERT
  5
AE
330
AA
100
AcDbEntity
  8
0
  6
Continuous
 62
     7
100
AcDbBlockReference
  2
_OPEN30
 10
-506.9379577636718
 20
115.0848388671875
 30
0.0
 50
270.0000000000005
  0
LINE
  5
AF
330
AA
100
AcDbEntity
  8
0
  6
Continuous
 62
     7
100
AcDbLine
 10
-486.9281225585938
 20
115.0848388671875
 30
0.0
 11
-509.2239685058594
 21
115.0848388671875
 31
0.0
  0
TEXT
  5
B0
330
AA
100
AcDbEntity
  8
0
  6
Continuous
 62
     7
100
AcDbText
 10
-507.6879576513335
 20
121.5148387223472
 30
0.0
 40
3.0
  1
18
 50
90.00000250447815
 41
1.285000026226043
100
AcDbText
  0
POINT
  5
B1
330
AA
100
AcDbEntity
  8
DEFPOINTS
  6
Continuous
 62
     7
100
AcDbPoint
 10
-487.3881225585938
 20
133.0848388671875
 30
0.0
  0
POINT
  5
B2
330
AA
100
AcDbEntity
  8
DEFPOINTS
  6
Continuous
 62
     7
100
AcDbPoint
 10
-484.3881225585938
 20
115.0848388671875
 30
0.0
  0
POINT
  5
B3
330
AA
100
AcDbEntity
  8
DEFPOINTS
  6
Continuous
 62
     7
100
AcDbPoint
 10
-506.9379577636718
 20
115.0848388671875
 30
0.0
  0
ENDBLK
  5
B4
330
AA
100
AcDbEntity
  8
0
100
AcDbBlockEnd
  0
BLOCK
  5
B6
330
B5
100
AcDbEntity
  8
0
100
AcDbBlockBegin
  2
*D11
 70
     1
 10
0.0
 20
0.0
 30
0.0
  3
*D11
  1

  0
LINE
  5
B7
330
B5
100
AcDbEntity
  8
0
  6
Continuous
 62
     7
100
AcDbLine
 10
-368.4430541992188
 20
498.2467956542969
 30
0.0
 11
-336.2952880859375
 21
522.684326171875
 31
0.0
  0
LINE
  5
B8
330
B5
100
AcDbEntity
  8
0
  6
Continuous
 62
     7
100
AcDbLine
 10
-510.9448917704429
 20
389.922185854093
 30
0.0
 11
-370.8313533467446
 21
496.4312992533288
 31
0.0
  0
INSERT
  5
B9
330
B5
100
AcDbEntity
  8
0
  6
Continuous
 62
     7
100
AcDbBlockReference
  2
_OPEN30
 10
-513.3331909179688
 20
388.106689453125
 30
0.0
 50
217.2407496941359
  0
INSERT
  5
BA
330
B5
100
AcDbEntity
  8
0
  6
Continuous
 62
     7
100
AcDbBlockReference
  2
_OPEN30
 10
-368.4430541992188
 20
498.2467956542969
 30
0.0
 50
37.24074969413523
  0
TEXT
  5
BB
330
B5
100
AcDbEntity
  8
0
  6
Continuous
 62
     7
100
AcDbText
 10
-362.3422781085945
 20
503.8408397750727
 30
0.0
 40
3.0
  1
%%C１８２（防水皿外径）
 50
37.20000035216539
 41
0.8440126077968535
100
AcDbText
  0
POINT
  5
BC
330
B5
100
AcDbEntity
  8
DEFPOINTS
  6
Continuous
 62
     7
100
AcDbPoint
 10
-513.3331909179688
 20
388.106689453125
 30
0.0
  0
POINT
  5
BD
330
B5
100
AcDbEntity
  8
DEFPOINTS
  6
Continuous
 62
     7
100
AcDbPoint
 10
-368.4430541992188
 20
498.2467956542969
 30
0.0
  0
ENDBLK
  5
BE
330
B5
100
AcDbEntity
  8
0
100
AcDbBlockEnd
  0
BLOCK
  5
C0
330
BF
100
AcDbEntity
  8
0
100
AcDbBlockBegin
  2
*D12
 70
     1
 10
0.0
 20
0.0
 30
0.0
  3
*D12
  1

  0
LINE
  5
C1
330
BF
100
AcDbEntity
  8
0
  6
Continuous
 62
     7
100
AcDbLine
 10
-368.9201049804688
 20
471.9318237304688
 30
0.0
 11
-318.3876647949219
 21
492.1222839355468
 31
0.0
  0
LINE
  5
C2
330
BF
100
AcDbEntity
  8
0
  6
Continuous
 62
     7
100
AcDbLine
 10
-510.0702816526946
 20
415.5347312622996
 30
0.0
 11
-371.7059634644928
 21
470.8187233275441
 31
0.0
  0
INSERT
  5
C3
330
BF
100
AcDbEntity
  8
0
  6
Continuous
 62
     7
100
AcDbBlockReference
  2
_OPEN30
 10
-512.8561401367188
 20
414.4216308593749
 30
0.0
 50
201.7793680309434
  0
INSERT
  5
C4
330
BF
100
AcDbEntity
  8
0
  6
Continuous
 62
     7
100
AcDbBlockReference
  2
_OPEN30
 10
-368.9201049804688
 20
471.9318237304688
 30
0.0
 50
21.77936803094265
  0
TEXT
  5
C5
330
BF
100
AcDbEntity
  8
0
  6
Continuous
 62
     7
100
AcDbText
 10
-348.5098710954189
 20
480.8882424933862
 30
0.0
 40
3.0
  1
%%C１５５（目皿受外径）
 50
21.80000015129432
 41
0.8440126077968535
100
AcDbText
  0
POINT
  5
C6
330
BF
100
AcDbEntity
  8
DEFPOINTS
  6
Continuous
 62
     7
100
AcDbPoint
 10
-512.8561401367188
 20
414.4216308593749
 30
0.0
  0
POINT
  5
C7
330
BF
100
AcDbEntity
  8
DEFPOINTS
  6
Continuous
 62
     7
100
AcDbPoint
 10
-368.9201049804688
 20
471.9318237304688
 30
0.0
  0
ENDBLK
  5
C8
330
BF
100
AcDbEntity
  8
0
100
AcDbBlockEnd
  0
BLOCK
  5
CA
330
C9
100
AcDbEntity
  8
0
100
AcDbBlockBegin
  2
*D13
 70
     1
 10
0.0
 20
0.0
 30
0.0
  3
*D13
  1

  0
LINE
  5
CB
330
C9
100
AcDbEntity
  8
0
  6
Continuous
 62
     7
100
AcDbLine
 10
-374.8292541503906
 20
454.0723571777343
 30
0.0
 11
-316.1445922851563
 21
463.7444763183593
 31
0.0
  0
LINE
  5
CC
330
C9
100
AcDbEntity
  8
0
  6
Continuous
 62
     7
100
AcDbLine
 10
-504.0854664528332
 20
432.7689912457874
 30
0.0
 11
-377.7893199241201
 21
453.5844938616343
 31
0.0
  0
INSERT
  5
CD
330
C9
100
AcDbEntity
  8
0
  6
Continuous
 62
     7
100
AcDbBlockReference
  2
_OPEN30
 10
-507.0455322265624
 20
432.2811279296875
 30
0.0
 50
189.3590674244951
  0
INSERT
  5
CE
330
C9
100
AcDbEntity
  8
0
  6
Continuous
 62
     7
100
AcDbBlockReference
  2
_OPEN30
 10
-374.8292541503906
 20
454.0723571777343
 30
0.0
 50
9.359067424494396
  0
TEXT
  5
CF
330
C9
100
AcDbEntity
  8
0
  6
Continuous
 62
     7
100
AcDbText
 10
-345.0175118467013
 20
459.7353307817406
 30
0.0
 40
3.0
  1
%%C１３４（目皿外径）
 50
9.400000033905858
 41
0.8443929326254473
100
AcDbText
  0
POINT
  5
D0
330
C9
100
AcDbEntity
  8
DEFPOINTS
  6
Continuous
 62
     7
100
AcDbPoint
 10
-507.0455322265624
 20
432.2811279296875
 30
0.0
  0
POINT
  5
D1
330
C9
100
AcDbEntity
  8
DEFPOINTS
  6
Continuous
 62
     7
100
AcDbPoint
 10
-374.8292541503906
 20
454.0723571777343
 30
0.0
  0
ENDBLK
  5
D2
330
C9
100
AcDbEntity
  8
0
100
AcDbBlockEnd
  0
BLOCK
  5
D4
330
D3
100
AcDbEntity
  8
0
100
AcDbBlockBegin
  2
KOZU0001
 70
     0
 10
0.0
 20
0.0
 30
0.0
  3
KOZU0001
  1

  0
LINE
  5
D5
330
D3
100
AcDbEntity
  8
0
  6
Continuous
 62
     7
100
AcDbLine
 10
0.0
 20
0.0
 30
0.0
 11
-23.7340087890625
 21
-44.3913345336914
 31
0.0
  0
LINE
  5
D6
330
D3
100
AcDbEntity
  8
0
  6
Continuous
 62
     7
100
AcDbLine
 10
-23.7340087890625
 20
-44.3913345336914
 30
0.0
 11
-51.798095703125
 21
-44.3913345336914
 31
0.0
  0
LINE
  5
D7
330
D3
100
AcDbEntity
  8
0
  6
Continuous
 62
     7
100
AcDbLine
 10
0.0
 20
0.0
 30
0.0
 11
-0.5326155236438917
 21
-3.117101330398731
 31
0.0
  0
LINE
  5
D8
330
D3
100
AcDbEntity
  8
0
  6
Continuous
 62
     7
100
AcDbLine
 10
0.0
 20
0.0
 30
0.0
 11
-2.296353217154352
 21
-2.17411175013265
 31
0.0
  0
TEXT
  5
D9
330
D3
100
AcDbEntity
  8
0
  6
Continuous
 62
     7
100
AcDbText
 10
-50.07806479930877
 20
-43.64133453369141
 30
0.0
 40
3.0
  1
共廻り防止用羽根
 41
0.8454512278006642
100
AcDbText
  0
TEXT
  5
DA
330
D3
100
AcDbEntity
  8
0
  6
Continuous
 62
     7
100
AcDbText
 10
-50.07806479930877
 20
-48.9063345336914
 30
0.0
 40
3.0
  1
３ヶ所
 41
0.8550420278260688
100
AcDbText
  0
ENDBLK
  5
DB
330
D3
100
AcDbEntity
  8
0
100
AcDbBlockEnd
  0
BLOCK
  5
DD
330
DC
100
AcDbEntity
  8
0
100
AcDbBlockBegin
  2
KOZU0002
 70
     0
 10
0.0
 20
0.0
 30
0.0
  3
KOZU0002
  1

  0
LINE
  5
DE
330
DC
100
AcDbEntity
  8
0
  6
Continuous
 62
     7
100
AcDbLine
 10
0.0
 20
0.0
 30
0.0
 11
26.50375366210938
 21
-39.6754379272461
 31
0.0
  0
LINE
  5
DF
330
DC
100
AcDbEntity
  8
0
  6
Continuous
 62
     7
100
AcDbLine
 10
26.50375366210938
 20
-39.6754379272461
 30
0.0
 11
66.95578002929689
 21
-39.6754379272461
 31
0.0
  0
LINE
  5
E0
330
DC
100
AcDbEntity
  8
0
  6
Continuous
 62
     7
100
AcDbLine
 10
0.0
 20
0.0
 30
0.0
 11
2.497959789357854
 21
-1.939122711627931
 31
0.0
  0
LINE
  5
E1
330
DC
100
AcDbEntity
  8
0
  6
Continuous
 62
     7
100
AcDbLine
 10
0.0
 20
0.0
 30
0.0
 11
0.8348942045095258
 21
-3.050074042917057
 31
0.0
  0
TEXT
  5
E2
330
DC
100
AcDbEntity
  8
0
  6
Continuous
 62
     7
100
AcDbText
 10
30.09577870368958
 20
-38.92543792724609
 30
0.0
 40
3.0
  1
配管接続口
 41
0.8487395020950888
100
AcDbText
  0
TEXT
  5
E3
330
DC
100
AcDbEntity
  8
0
  6
Continuous
 62
     7
100
AcDbText
 10
30.09577870368958
 20
-44.19043792724609
 30
0.0
 40
3.0
  1
Ｒｃ２　１／２（６５Ａ）
 41
0.8436974815103043
100
AcDbText
  0
ENDBLK
  5
E4
330
DC
100
AcDbEntity
  8
0
100
AcDbBlockEnd
  0
ENDSEC
  0
SECTION
  2
ENTITIES
  0
POINT
  5
E5
330
22
100
AcDbEntity
  8
0
  6
Continuous
 62
     7
100
AcDbPoint
 10
-440.8881225585938
 20
133.0848388671875
 30
0.0
  0
POINT
  5
E6
330
22
100
AcDbEntity
  8
0
  6
Continuous
 62
     7
100
AcDbPoint
 10
-440.8881225585938
 20
443.1767272949218
 30
0.0
  0
POINT
  5
E7
330
22
100
AcDbEntity
  8
0
  6
Continuous
 62
     7
100
AcDbPoint
 10
-440.8881225585938
 20
285.5848388671875
 30
0.0
  0
POINT
  5
E8
330
22
100
AcDbEntity
  8
0
  6
Continuous
 62
     7
100
AcDbPoint
 10
-404.7731018066405
 20
196.4674987792969
 30
0.0
  0
POINT
  5
E9
330
22
100
AcDbEntity
  8
0
  6
Continuous
 62
     7
100
AcDbPoint
 10
-403.2981262207031
 20
198.0856781005859
 30
0.0
  0
POINT
  5
EA
330
22
100
AcDbEntity
  8
0
  6
Continuous
 62
     7
100
AcDbPoint
 10
-403.2981262207031
 20
100.5848388671875
 30
0.0
  0
POINT
  5
EB
330
22
100
AcDbEntity
  8
0
  6
Continuous
 62
     7
100
AcDbPoint
 10
-404.2803955078125
 20
132.0158386230469
 30
0.0
  0
POINT
  5
EC
330
22
100
AcDbEntity
  8
0
  6
Continuous
 62
     7
100
AcDbPoint
 10
-403.7892456054688
 20
116.3003387451172
 30
0.0
  0
LINE
  5
ED
330
22
100
AcDbEntity
  8
0
  6
Continuous
 62
     7
100
AcDbLine
 10
-443.9881286621093
 20
473.0389709472656
 30
0.0
 11
-443.9881286621093
 21
504.848876953125
 31
0.0
  0
LINE
  5
EE
330
22
100
AcDbEntity
  8
0
  6
Continuous
 62
     7
100
AcDbLine
 10
-443.9881286621093
 20
437.478271484375
 30
0.0
 11
-443.9881286621093
 21
432.409423828125
 31
0.0
  0
LINE
  5
EF
330
22
100
AcDbEntity
  8
0
  6
Continuous
 62
     7
100
AcDbLine
 10
-443.9881286621093
 20
413.2845458984375
 30
0.0
 11
-443.9881286621093
 21
391.0165100097657
 31
0.0
  0
LINE
  5
F0
330
22
100
AcDbEntity
  8
0
  6
Continuous
 62
     7
100
AcDbLine
 10
-443.0929260253906
 20
379.9037170410156
 30
0.0
 11
-443.6368713378906
 21
380.4476318359375
 31
0.0
  0
LINE
  5
F1
330
22
100
AcDbEntity
  8
0
  6
Continuous
 62
     7
100
AcDbLine
 10
-443.9881286621093
 20
424.4845581054688
 30
0.0
 11
-443.9881286621093
 21
432.409423828125
 31
0.0
  0
LINE
  5
F2
330
22
100
AcDbEntity
  8
0
  6
Continuous
 62
     7
100
AcDbLine
 10
-443.9881286621093
 20
461.8389892578124
 30
0.0
 11
-443.9881286621093
 21
453.9440307617188
 31
0.0
  0
LINE
  5
F3
330
22
100
AcDbEntity
  8
0
  6
Continuous
 62
     7
100
AcDbLine
 10
-443.9881286621093
 20
448.8752136230468
 30
0.0
 11
-443.9881286621093
 21
453.9440307617188
 31
0.0
  0
LINE
  5
F4
330
22
100
AcDbEntity
  8
0
  6
Continuous
 62
     7
100
AcDbLine
 10
-443.6368713378906
 20
380.4476318359375
 30
0.0
 11
-441.9419250488281
 21
382.6799011230469
 31
0.0
  0
LINE
  5
F5
330
22
100
AcDbEntity
  8
0
  6
Continuous
 62
     7
100
AcDbLine
 10
-443.6218872070313
 20
384.8975830078125
 30
0.0
 11
-441.9419250488281
 21
382.6799011230469
 31
0.0
  0
LINE
  5
F6
330
22
100
AcDbEntity
  8
0
  6
Continuous
 62
     7
100
AcDbLine
 10
-389.5873107910156
 20
470.0293273925781
 30
0.0
 11
-389.2412719726563
 21
472.7898559570313
 31
0.0
  0
LINE
  5
F7
330
22
100
AcDbEntity
  8
0
  6
Continuous
 62
     7
100
AcDbLine
 10
-414.9881286621093
 20
415.4352111816406
 30
0.0
 11
-414.9881286621093
 21
387.1209411621094
 31
0.0
  0
LINE
  5
F8
330
22
100
AcDbEntity
  8
0
  6
Continuous
 62
     7
100
AcDbLine
 10
-398.3855590820313
 20
418.5733642578124
 30
0.0
 11
-398.3835144042969
 21
398.3836364746094
 31
0.0
  0
LINE
  5
F9
330
22
100
AcDbEntity
  8
0
  6
Continuous
 62
     7
100
AcDbLine
 10
-403.5881042480468
 20
437.478271484375
 30
0.0
 11
-403.5881042480468
 21
418.9503479003906
 31
0.0
  0
LINE
  5
FA
330
22
100
AcDbEntity
  8
0
  6
Continuous
 62
     7
100
AcDbLine
 10
-409.7881164550781
 20
437.478271484375
 30
0.0
 11
-409.7881164550781
 21
418.9503479003906
 31
0.0
  0
LINE
  5
FB
330
22
100
AcDbEntity
  8
0
  6
Continuous
 62
     7
100
AcDbLine
 10
-386.9881286621094
 20
438.5782775878906
 30
0.0
 11
-386.9881286621094
 21
419.4950866699218
 31
0.0
  0
LINE
  5
FC
330
22
100
AcDbEntity
  8
0
  6
Continuous
 62
     7
100
AcDbLine
 10
-409.7881164550781
 20
407.7503356933593
 30
0.0
 11
-409.7881164550781
 21
389.8302001953125
 31
0.0
  0
LINE
  5
FD
330
22
100
AcDbEntity
  8
0
  6
Continuous
 62
     7
100
AcDbLine
 10
-403.5881042480468
 20
407.7503356933593
 30
0.0
 11
-403.5881042480468
 21
393.9652404785156
 31
0.0
  0
LINE
  5
FE
330
22
100
AcDbEntity
  8
0
  6
Continuous
 62
     7
100
AcDbLine
 10
-398.3881225585938
 20
418.4478454589843
 30
0.0
 11
-398.3881225585938
 21
398.3792724609375
 31
0.0
  0
LINE
  5
FF
330
22
100
AcDbEntity
  8
0
  6
Continuous
 62
     7
100
AcDbLine
 10
-392.1881103515625
 20
418.4478454589843
 30
0.0
 11
-392.1881103515625
 21
405.2113342285156
 31
0.0
  0
LINE
  5
100
330
22
100
AcDbEntity
  8
0
  6
Continuous
 62
     7
100
AcDbLine
 10
-398.3881225585938
 20
437.478271484375
 30
0.0
 11
-398.3881225585938
 21
432.409423828125
 31
0.0
  0
LINE
  5
101
330
22
100
AcDbEntity
  8
0
  6
Continuous
 62
     7
100
AcDbLine
 10
-374.3881225585938
 20
280.5848388671875
 30
0.0
 11
-376.3881225585938
 21
280.5848388671875
 31
0.0
  0
LINE
  5
102
330
22
100
AcDbEntity
  8
0
  6
Continuous
 62
     7
100
AcDbLine
 10
-403.5881042480468
 20
478.6031494140624
 30
0.0
 11
-403.5881042480468
 21
492.3882446289063
 31
0.0
  0
LINE
  5
103
330
22
100
AcDbEntity
  8
0
  6
Continuous
 62
     7
100
AcDbLine
 10
-403.5881042480468
 20
448.8752136230468
 30
0.0
 11
-403.5881042480468
 21
467.4031372070313
 31
0.0
  0
LINE
  5
104
330
22
100
AcDbEntity
  8
0
  6
Continuous
 62
     7
100
AcDbLine
 10
-388.8448486328125
 20
469.8303833007813
 30
0.0
 11
-387.7642517089844
 21
472.3940734863281
 31
0.0
  0
LINE
  5
105
330
22
100
AcDbEntity
  8
0
  6
Continuous
 62
     7
100
AcDbLine
 10
-382.6881103515625
 20
445.7752075195313
 30
0.0
 11
-384.9881286621094
 21
445.7752075195313
 31
0.0
  0
LINE
  5
106
330
22
100
AcDbEntity
  8
0
  6
Continuous
 62
     7
100
AcDbLine
 10
-414.9881286621093
 20
459.718292236328
 30
0.0
 11
-414.9881286621093
 21
453.9440307617188
 31
0.0
  0
LINE
  5
107
330
22
100
AcDbEntity
  8
0
  6
Continuous
 62
     7
100
AcDbLine
 10
-409.7881164550781
 20
448.8752136230468
 30
0.0
 11
-409.7881164550781
 21
467.4031372070313
 31
0.0
  0
LINE
  5
108
330
22
100
AcDbEntity
  8
0
  6
Continuous
 62
     7
100
AcDbLine
 10
-409.7881164550781
 20
478.6031494140624
 30
0.0
 11
-409.7881164550781
 21
496.5232849121093
 31
0.0
  0
LINE
  5
109
330
22
100
AcDbEntity
  8
0
  6
Continuous
 62
     7
100
AcDbLine
 10
-414.9881286621093
 20
448.8752136230468
 30
0.0
 11
-414.9881286621093
 21
453.9440307617188
 31
0.0
  0
LINE
  5
10A
330
22
100
AcDbEntity
  8
0
  6
Continuous
 62
     7
100
AcDbLine
 10
-414.9881286621093
 20
470.9182739257813
 30
0.0
 11
-414.9881286621093
 21
499.2325439453124
 31
0.0
  0
LINE
  5
10B
330
22
100
AcDbEntity
  8
0
  6
Continuous
 62
     7
100
AcDbLine
 10
-414.9881286621093
 20
426.6351928710937
 30
0.0
 11
-414.9881286621093
 21
432.409423828125
 31
0.0
  0
LINE
  5
10C
330
22
100
AcDbEntity
  8
0
  6
Continuous
 62
     7
100
AcDbLine
 10
-398.3881225585938
 20
466.7830505371093
 30
0.0
 11
-398.3881225585938
 21
487.9742126464844
 31
0.0
  0
LINE
  5
10D
330
22
100
AcDbEntity
  8
0
  6
Continuous
 62
     7
100
AcDbLine
 10
-392.3049011230469
 20
280.5848388671875
 30
0.0
 11
-392.3049011230469
 21
282.5848388671875
 31
0.0
  0
LINE
  5
10E
330
22
100
AcDbEntity
  8
0
  6
Continuous
 62
     7
100
AcDbLine
 10
-384.9836120605469
 20
472.0423583984374
 30
0.0
 11
-387.7642517089844
 21
472.3940734863281
 31
0.0
  0
LINE
  5
10F
330
22
100
AcDbEntity
  8
0
  6
Continuous
 62
     7
100
AcDbLine
 10
-414.9881286621093
 20
437.478271484375
 30
0.0
 11
-414.9881286621093
 21
432.409423828125
 31
0.0
  0
LINE
  5
110
330
22
100
AcDbEntity
  8
0
  6
Continuous
 62
     7
100
AcDbLine
 10
-380.6881103515625
 20
447.7752075195312
 30
0.0
 11
-380.6881103515625
 21
456.9248657226562
 31
0.0
  0
LINE
  5
111
330
22
100
AcDbEntity
  8
0
  6
Continuous
 62
     7
100
AcDbLine
 10
-384.9836120605469
 20
472.0423583984374
 30
0.0
 11
-384.7845153808594
 21
472.7853698730468
 31
0.0
  0
LINE
  5
112
330
22
100
AcDbEntity
  8
0
  6
Continuous
 62
     7
100
AcDbLine
 10
-392.1881103515625
 20
437.478271484375
 30
0.0
 11
-392.1881103515625
 21
432.409423828125
 31
0.0
  0
LINE
  5
113
330
22
100
AcDbEntity
  8
0
  6
Continuous
 62
     7
100
AcDbLine
 10
-392.1881103515625
 20
456.6830749511718
 30
0.0
 11
-392.1881103515625
 21
453.9440307617188
 31
0.0
  0
LINE
  5
114
330
22
100
AcDbEntity
  8
0
  6
Continuous
 62
     7
100
AcDbLine
 10
-392.1881103515625
 20
448.8752136230468
 30
0.0
 11
-392.1881103515625
 21
453.9440307617188
 31
0.0
  0
LINE
  5
115
330
22
100
AcDbEntity
  8
0
  6
Continuous
 62
     7
100
AcDbLine
 10
-391.6261901855469
 20
474.6185913085938
 30
0.0
 11
-391.8252868652344
 21
473.8755798339844
 31
0.0
  0
LINE
  5
116
330
22
100
AcDbEntity
  8
0
  6
Continuous
 62
     7
100
AcDbLine
 10
-387.7649230957031
 20
476.8305664062499
 30
0.0
 11
-387.0224609375
 21
476.6316223144531
 31
0.0
  0
LINE
  5
117
330
22
100
AcDbEntity
  8
0
  6
Continuous
 62
     7
100
AcDbLine
 10
-387.0224609375
 20
476.6316223144531
 30
0.0
 11
-387.3684997558594
 21
473.87109375
 31
0.0
  0
LINE
  5
118
330
22
100
AcDbEntity
  8
0
  6
Continuous
 62
     7
100
AcDbLine
 10
-398.3881225585938
 20
448.8752136230468
 30
0.0
 11
-398.3881225585938
 21
453.9440307617188
 31
0.0
  0
LINE
  5
119
330
22
100
AcDbEntity
  8
0
  6
Continuous
 62
     7
100
AcDbLine
 10
-398.3881225585938
 20
456.6830749511718
 30
0.0
 11
-398.3881225585938
 21
453.9440307617188
 31
0.0
  0
LINE
  5
11A
330
22
100
AcDbEntity
  8
0
  6
Continuous
 62
     7
100
AcDbLine
 10
-388.8448486328125
 20
469.8303833007813
 30
0.0
 11
-389.5873107910156
 21
470.0293273925781
 31
0.0
  0
LINE
  5
11B
330
22
100
AcDbEntity
  8
0
  6
Continuous
 62
     7
100
AcDbLine
 10
-373.3881225585938
 20
280.5848388671875
 30
0.0
 11
-376.8881225585938
 21
280.5848388671875
 31
0.0
  0
LINE
  5
11C
330
22
100
AcDbEntity
  8
0
  6
Continuous
 62
     7
100
AcDbLine
 10
-373.8881225585938
 20
281.0848388671875
 30
0.0
 11
-374.3881225585938
 21
280.5848388671875
 31
0.0
  0
LINE
  5
11D
330
22
100
AcDbEntity
  8
0
  6
Continuous
 62
     7
100
AcDbLine
 10
-370.3881225585938
 20
280.5848388671875
 30
0.0
 11
-370.3881225585938
 21
276.4715881347656
 31
0.0
  0
LINE
  5
11E
330
22
100
AcDbEntity
  8
0
  6
Continuous
 62
     7
100
AcDbLine
 10
-376.8881225585938
 20
280.5848388671875
 30
0.0
 11
-376.8881225585938
 21
276.1829223632813
 31
0.0
  0
LINE
  5
11F
330
22
100
AcDbEntity
  8
0
  6
Continuous
 62
     7
100
AcDbLine
 10
-384.1690063476563
 20
280.5848388671875
 30
0.0
 11
-384.1690063476563
 21
274.3155822753906
 31
0.0
  0
LINE
  5
120
330
22
100
AcDbEntity
  8
0
  6
Continuous
 62
     7
100
AcDbLine
 10
-398.3881225585938
 20
429.6704101562499
 30
0.0
 11
-398.3881225585938
 21
432.409423828125
 31
0.0
  0
LINE
  5
121
330
22
100
AcDbEntity
  8
0
  6
Continuous
 62
     7
100
AcDbLine
 10
-392.1881103515625
 20
429.6704101562499
 30
0.0
 11
-392.1881103515625
 21
432.409423828125
 31
0.0
  0
LINE
  5
122
330
22
100
AcDbEntity
  8
0
  6
Continuous
 62
     7
100
AcDbLine
 10
-380.6881103515625
 20
438.5782775878906
 30
0.0
 11
-380.6881103515625
 21
429.4286193847656
 31
0.0
  0
LINE
  5
123
330
22
100
AcDbEntity
  8
0
  6
Continuous
 62
     7
100
AcDbLine
 10
-382.6881103515625
 20
440.5782775878906
 30
0.0
 11
-384.9881286621094
 21
440.5782775878906
 31
0.0
  0
LINE
  5
124
330
22
100
AcDbEntity
  8
0
  6
Continuous
 62
     7
100
AcDbLine
 10
-384.7845153808594
 20
472.7853698730468
 30
0.0
 11
-387.3684997558594
 21
473.87109375
 31
0.0
  0
LINE
  5
125
330
22
100
AcDbEntity
  8
0
  6
Continuous
 62
     7
100
AcDbLine
 10
-391.6261901855469
 20
474.6185913085938
 30
0.0
 11
-388.8455200195313
 21
474.266876220703
 31
0.0
  0
LINE
  5
126
330
22
100
AcDbEntity
  8
0
  6
Continuous
 62
     7
100
AcDbLine
 10
-391.8252868652344
 20
473.8755798339844
 30
0.0
 11
-389.2412719726563
 21
472.7898559570313
 31
0.0
  0
LINE
  5
127
330
22
100
AcDbEntity
  8
0
  6
Continuous
 62
     7
100
AcDbLine
 10
-387.7649230957031
 20
476.8305664062499
 30
0.0
 11
-388.8455200195313
 21
474.266876220703
 31
0.0
  0
LINE
  5
128
330
22
100
AcDbEntity
  8
0
  6
Continuous
 62
     7
100
AcDbLine
 10
-386.9881286621094
 20
447.7752075195312
 30
0.0
 11
-386.9881286621094
 21
466.8583679199218
 31
0.0
  0
LINE
  5
129
330
22
100
AcDbEntity
  8
0
  6
Continuous
 62
     7
100
AcDbLine
 10
-394.3881225585938
 20
483.8069458007812
 30
0.0
 11
-394.3881225585938
 21
466.7830505371093
 31
0.0
  0
LINE
  5
12A
330
22
100
AcDbEntity
  8
0
  6
Continuous
 62
     7
100
AcDbLine
 10
-443.0929260253906
 20
379.9037170410156
 30
0.0
 11
-440.8606872558594
 21
381.5986633300781
 31
0.0
  0
LINE
  5
12B
330
22
100
AcDbEntity
  8
0
  6
Continuous
 62
     7
100
AcDbLine
 10
-438.6430053710937
 20
379.918701171875
 30
0.0
 11
-440.8606872558594
 21
381.5986633300781
 31
0.0
  0
LINE
  5
12C
330
22
100
AcDbEntity
  8
0
  6
Continuous
 62
     7
100
AcDbLine
 10
-437.7881164550781
 20
461.8389892578124
 30
0.0
 11
-437.7881164550781
 21
453.9440307617188
 31
0.0
  0
LINE
  5
12D
330
22
100
AcDbEntity
  8
0
  6
Continuous
 62
     7
100
AcDbLine
 10
-438.0994873046875
 20
380.4622192382813
 30
0.0
 11
-439.7794189453125
 21
382.6799011230469
 31
0.0
  0
LINE
  5
12E
330
22
100
AcDbEntity
  8
0
  6
Continuous
 62
     7
100
AcDbLine
 10
-443.078369140625
 20
385.4411010742188
 30
0.0
 11
-443.6218872070313
 21
384.8975830078125
 31
0.0
  0
LINE
  5
12F
330
22
100
AcDbEntity
  8
0
  6
Continuous
 62
     7
100
AcDbLine
 10
-438.62841796875
 20
385.4560852050781
 30
0.0
 11
-440.8606872558594
 21
383.7611389160156
 31
0.0
  0
LINE
  5
130
330
22
100
AcDbEntity
  8
0
  6
Continuous
 62
     7
100
AcDbLine
 10
-437.7881164550781
 20
413.2845458984375
 30
0.0
 11
-437.7881164550781
 21
391.0165100097657
 31
0.0
  0
LINE
  5
131
330
22
100
AcDbEntity
  8
0
  6
Continuous
 62
     7
100
AcDbLine
 10
-384.1690063476563
 20
280.5848388671875
 30
0.0
 11
-384.1690063476563
 21
282.5848388671875
 31
0.0
  0
LINE
  5
132
330
22
100
AcDbEntity
  8
0
  6
Continuous
 62
     7
100
AcDbLine
 10
-363.3881225585938
 20
284.5848388671875
 30
0.0
 11
-363.3881225585938
 21
282.5848388671875
 31
0.0
  0
LINE
  5
133
330
22
100
AcDbEntity
  8
0
  6
Continuous
 62
     7
100
AcDbLine
 10
-376.8881225585938
 20
280.5848388671875
 30
0.0
 11
-376.8881225585938
 21
282.0848388671875
 31
0.0
  0
LINE
  5
134
330
22
100
AcDbEntity
  8
0
  6
Continuous
 62
     7
100
AcDbLine
 10
-376.8881225585938
 20
282.0848388671875
 30
0.0
 11
-376.8881225585938
 21
281.0848388671875
 31
0.0
  0
LINE
  5
135
330
22
100
AcDbEntity
  8
0
  6
Continuous
 62
     7
100
AcDbLine
 10
-364.3881225585938
 20
281.5848388671875
 30
0.0
 11
-369.3881225585938
 21
281.5848388671875
 31
0.0
  0
LINE
  5
136
330
22
100
AcDbEntity
  8
0
  6
Continuous
 62
     7
100
AcDbLine
 10
-373.8881225585938
 20
285.0848388671875
 30
0.0
 11
-374.3881225585938
 21
285.5848388671875
 31
0.0
  0
LINE
  5
137
330
22
100
AcDbEntity
  8
0
  6
Continuous
 62
     7
100
AcDbLine
 10
-373.3881225585938
 20
285.5848388671875
 30
0.0
 11
-373.3881225585938
 21
280.5848388671875
 31
0.0
  0
LINE
  5
138
330
22
100
AcDbEntity
  8
0
  6
Continuous
 62
     7
100
AcDbLine
 10
-373.8881225585938
 20
281.0848388671875
 30
0.0
 11
-373.8881225585938
 21
285.0848388671875
 31
0.0
  0
LINE
  5
139
330
22
100
AcDbEntity
  8
0
  6
Continuous
 62
     7
100
AcDbLine
 10
-386.3668212890625
 20
270.6792907714844
 30
0.0
 11
-390.1451721191406
 21
268.4978332519531
 31
0.0
  0
LINE
  5
13A
330
22
100
AcDbEntity
  8
0
  6
Continuous
 62
     7
100
AcDbLine
 10
-392.3747253417969
 20
280.5848388671875
 30
0.0
 11
-392.3747253417969
 21
269.0952453613281
 31
0.0
  0
LINE
  5
13B
330
22
100
AcDbEntity
  8
0
  6
Continuous
 62
     7
100
AcDbLine
 10
-437.7881164550781
 20
424.4845581054688
 30
0.0
 11
-437.7881164550781
 21
432.409423828125
 31
0.0
  0
LINE
  5
13C
330
22
100
AcDbEntity
  8
0
  6
Continuous
 62
     7
100
AcDbLine
 10
-437.7881164550781
 20
473.0389709472656
 30
0.0
 11
-437.7881164550781
 21
504.848876953125
 31
0.0
  0
LINE
  5
13D
330
22
100
AcDbEntity
  8
0
  6
Continuous
 62
     7
100
AcDbLine
 10
-437.7881164550781
 20
437.478271484375
 30
0.0
 11
-437.7881164550781
 21
432.409423828125
 31
0.0
  0
LINE
  5
13E
330
22
100
AcDbEntity
  8
0
  6
Continuous
 62
     7
100
AcDbLine
 10
-438.0845031738281
 20
384.9121704101563
 30
0.0
 11
-438.62841796875
 21
385.4560852050781
 31
0.0
  0
LINE
  5
13F
330
22
100
AcDbEntity
  8
0
  6
Continuous
 62
     7
100
AcDbLine
 10
-443.078369140625
 20
385.4411010742188
 30
0.0
 11
-440.8606872558594
 21
383.7611389160156
 31
0.0
  0
LINE
  5
140
330
22
100
AcDbEntity
  8
0
  6
Continuous
 62
     7
100
AcDbLine
 10
-438.0845031738281
 20
384.9121704101563
 30
0.0
 11
-439.7794189453125
 21
382.6799011230469
 31
0.0
  0
LINE
  5
141
330
22
100
AcDbEntity
  8
0
  6
CENTER
 62
     7
100
AcDbLine
 10
-440.8881225585938
 20
346.2803649902344
 30
0.0
 11
-440.8881225585938
 21
538.3155517578124
 31
0.0
  0
LINE
  5
142
330
22
100
AcDbEntity
  8
0
  6
Continuous
 62
     7
100
AcDbLine
 10
-426.3881225585937
 20
416.1690368652343
 30
0.0
 11
-426.3881225585937
 21
437.478271484375
 31
0.0
  0
LINE
  5
143
330
22
100
AcDbEntity
  8
0
  6
Continuous
 62
     7
100
AcDbLine
 10
-421.1881103515625
 20
415.4352111816406
 30
0.0
 11
-421.1881103515625
 21
384.6534729003906
 31
0.0
  0
LINE
  5
144
330
22
100
AcDbEntity
  8
0
  6
Continuous
 62
     7
100
AcDbLine
 10
-426.3881225585937
 20
383.1533203125
 30
0.0
 11
-426.3881225585937
 21
404.9690246582031
 31
0.0
  0
LINE
  5
145
330
22
100
AcDbEntity
  8
0
  6
Continuous
 62
     7
100
AcDbLine
 10
-432.5881042480468
 20
504.3663940429688
 30
0.0
 11
-432.5881042480468
 21
481.3844299316406
 31
0.0
  0
LINE
  5
146
330
22
100
AcDbEntity
  8
0
  6
Continuous
 62
     7
100
AcDbLine
 10
-432.5881042480468
 20
416.1690368652343
 30
0.0
 11
-432.5881042480468
 21
437.478271484375
 31
0.0
  0
LINE
  5
147
330
22
100
AcDbEntity
  8
0
  6
Continuous
 62
     7
100
AcDbLine
 10
-432.5881042480468
 20
381.9870910644531
 30
0.0
 11
-432.5881042480468
 21
404.9690246582031
 31
0.0
  0
LINE
  5
148
330
22
100
AcDbEntity
  8
0
  6
Continuous
 62
     7
100
AcDbLine
 10
-432.5881042480468
 20
470.1844482421875
 30
0.0
 11
-432.5881042480468
 21
448.8752136230468
 31
0.0
  0
LINE
  5
149
330
22
100
AcDbEntity
  8
0
  6
Continuous
 62
     7
100
AcDbLine
 10
-437.7881164550781
 20
448.8752136230468
 30
0.0
 11
-437.7881164550781
 21
453.9440307617188
 31
0.0
  0
LINE
  5
14A
330
22
100
AcDbEntity
  8
0
  6
Continuous
 62
     7
100
AcDbLine
 10
-438.6430053710937
 20
379.918701171875
 30
0.0
 11
-438.0994873046875
 21
380.4622192382813
 31
0.0
  0
LINE
  5
14B
330
22
100
AcDbEntity
  8
0
  6
Continuous
 62
     7
100
AcDbLine
 10
-405.7113952636719
 20
130.5848388671875
 30
0.0
 11
-404.2803955078125
 21
132.0158386230469
 31
0.0
  0
LINE
  5
14C
330
22
100
AcDbEntity
  8
0
  6
Continuous
 62
     7
100
AcDbLine
 10
-403.2981262207031
 20
168.5848388671875
 30
0.0
 11
-404.7731018066405
 21
167.1098327636719
 31
0.0
  0
LINE
  5
14D
330
22
100
AcDbEntity
  8
0
  6
Continuous
 62
     7
100
AcDbLine
 10
-403.2981262207031
 20
100.5848388671875
 30
0.0
 11
-404.2803955078125
 21
132.0158386230469
 31
0.0
  0
LINE
  5
14E
330
22
100
AcDbEntity
  8
0
  6
Continuous
 62
     7
100
AcDbLine
 10
-404.7731018066405
 20
138.0598449707031
 30
0.0
 11
-403.2981262207031
 21
136.5848388671875
 31
0.0
  0
LINE
  5
14F
330
22
100
AcDbEntity
  8
0
  6
Continuous
 62
     7
100
AcDbLine
 10
-440.8881225585938
 20
284.7817687988282
 30
0.0
 11
-440.0850524902343
 21
285.5848388671875
 31
0.0
  0
LINE
  5
150
330
22
100
AcDbEntity
  8
0
  6
Continuous
 62
     7
100
AcDbLine
 10
-440.8881225585938
 20
283.3675537109375
 30
0.0
 11
-438.6708374023438
 21
285.5848388671875
 31
0.0
  0
LINE
  5
151
330
22
100
AcDbEntity
  8
0
  6
Continuous
 62
     7
100
AcDbLine
 10
-440.2566223144531
 20
282.5848388671875
 30
0.0
 11
-437.2566223144531
 21
285.5848388671875
 31
0.0
  0
LINE
  5
152
330
22
100
AcDbEntity
  8
0
  6
Continuous
 62
     7
100
AcDbLine
 10
-438.8424072265625
 20
282.5848388671875
 30
0.0
 11
-435.8424072265624
 21
285.5848388671875
 31
0.0
  0
LINE
  5
153
330
22
100
AcDbEntity
  8
0
  6
Continuous
 62
     7
100
AcDbLine
 10
-437.4281921386718
 20
282.5848388671875
 30
0.0
 11
-434.4281921386718
 21
285.5848388671875
 31
0.0
  0
LINE
  5
154
330
22
100
AcDbEntity
  8
0
  6
Continuous
 62
     7
100
AcDbLine
 10
-436.0139770507813
 20
282.5848388671875
 30
0.0
 11
-433.0139770507813
 21
285.5848388671875
 31
0.0
  0
LINE
  5
155
330
22
100
AcDbEntity
  8
0
  6
Continuous
 62
     7
100
AcDbLine
 10
-433.1855468749999
 20
282.5848388671875
 30
0.0
 11
-430.185546875
 21
285.5848388671875
 31
0.0
  0
LINE
  5
156
330
22
100
AcDbEntity
  8
0
  6
Continuous
 62
     7
100
AcDbLine
 10
-431.7713317871094
 20
282.5848388671875
 30
0.0
 11
-428.7713317871093
 21
285.5848388671875
 31
0.0
  0
LINE
  5
157
330
22
100
AcDbEntity
  8
0
  6
Continuous
 62
     7
100
AcDbLine
 10
-430.3571166992187
 20
282.5848388671875
 30
0.0
 11
-427.3571166992188
 21
285.5848388671875
 31
0.0
  0
LINE
  5
158
330
22
100
AcDbEntity
  8
0
  6
Continuous
 62
     7
100
AcDbLine
 10
-428.9429016113281
 20
282.5848388671875
 30
0.0
 11
-425.9429016113281
 21
285.5848388671875
 31
0.0
  0
LINE
  5
159
330
22
100
AcDbEntity
  8
0
  6
Continuous
 62
     7
100
AcDbLine
 10
-427.5286865234375
 20
282.5848388671875
 30
0.0
 11
-424.5286865234374
 21
285.5848388671875
 31
0.0
  0
LINE
  5
15A
330
22
100
AcDbEntity
  8
0
  6
Continuous
 62
     7
100
AcDbLine
 10
-426.1144714355468
 20
282.5848388671875
 30
0.0
 11
-423.1144714355468
 21
285.5848388671875
 31
0.0
  0
LINE
  5
15B
330
22
100
AcDbEntity
  8
0
  6
Continuous
 62
     7
100
AcDbLine
 10
-424.7002563476563
 20
282.5848388671875
 30
0.0
 11
-421.7002563476563
 21
285.5848388671875
 31
0.0
  0
LINE
  5
15C
330
22
100
AcDbEntity
  8
0
  6
Continuous
 62
     7
100
AcDbLine
 10
-423.2860412597656
 20
282.5848388671875
 30
0.0
 11
-420.2860412597656
 21
285.5848388671875
 31
0.0
  0
LINE
  5
15D
330
22
100
AcDbEntity
  8
0
  6
Continuous
 62
     7
100
AcDbLine
 10
-421.8718261718749
 20
282.5848388671875
 30
0.0
 11
-418.871826171875
 21
285.5848388671875
 31
0.0
  0
LINE
  5
15E
330
22
100
AcDbEntity
  8
0
  6
Continuous
 62
     7
100
AcDbLine
 10
-420.4576110839843
 20
282.5848388671875
 30
0.0
 11
-417.4576110839844
 21
285.5848388671875
 31
0.0
  0
LINE
  5
15F
330
22
100
AcDbEntity
  8
0
  6
Continuous
 62
     7
100
AcDbLine
 10
-419.0433959960937
 20
282.5848388671875
 30
0.0
 11
-416.0433959960938
 21
285.5848388671875
 31
0.0
  0
LINE
  5
160
330
22
100
AcDbEntity
  8
0
  6
Continuous
 62
     7
100
AcDbLine
 10
-417.6292114257813
 20
282.5848388671875
 30
0.0
 11
-414.6292114257812
 21
285.5848388671875
 31
0.0
  0
LINE
  5
161
330
22
100
AcDbEntity
  8
0
  6
Continuous
 62
     7
100
AcDbLine
 10
-416.2149963378906
 20
282.5848388671875
 30
0.0
 11
-413.2149963378906
 21
285.5848388671875
 31
0.0
  0
LINE
  5
162
330
22
100
AcDbEntity
  8
0
  6
Continuous
 62
     7
100
AcDbLine
 10
-414.80078125
 20
282.5848388671875
 30
0.0
 11
-411.80078125
 21
285.5848388671875
 31
0.0
  0
LINE
  5
163
330
22
100
AcDbEntity
  8
0
  6
Continuous
 62
     7
100
AcDbLine
 10
-413.3865661621094
 20
282.5848388671875
 30
0.0
 11
-410.3865661621093
 21
285.5848388671875
 31
0.0
  0
LINE
  5
164
330
22
100
AcDbEntity
  8
0
  6
Continuous
 62
     7
100
AcDbLine
 10
-411.9723510742188
 20
282.5848388671875
 30
0.0
 11
-408.9723510742188
 21
285.5848388671875
 31
0.0
  0
LINE
  5
165
330
22
100
AcDbEntity
  8
0
  6
Continuous
 62
     7
100
AcDbLine
 10
-410.5581359863281
 20
282.5848388671875
 30
0.0
 11
-407.5581359863281
 21
285.5848388671875
 31
0.0
  0
LINE
  5
166
330
22
100
AcDbEntity
  8
0
  6
Continuous
 62
     7
100
AcDbLine
 10
-409.1439208984374
 20
282.5848388671875
 30
0.0
 11
-406.1439208984374
 21
285.5848388671875
 31
0.0
  0
LINE
  5
167
330
22
100
AcDbEntity
  8
0
  6
Continuous
 62
     7
100
AcDbLine
 10
-407.7297058105468
 20
282.5848388671875
 30
0.0
 11
-404.7297058105469
 21
285.5848388671875
 31
0.0
  0
LINE
  5
168
330
22
100
AcDbEntity
  8
0
  6
Continuous
 62
     7
100
AcDbLine
 10
-406.3154907226563
 20
282.5848388671875
 30
0.0
 11
-403.3154907226562
 21
285.5848388671875
 31
0.0
  0
LINE
  5
169
330
22
100
AcDbEntity
  8
0
  6
Continuous
 62
     7
100
AcDbLine
 10
-404.9012756347655
 20
282.5848388671875
 30
0.0
 11
-401.9012756347656
 21
285.5848388671875
 31
0.0
  0
LINE
  5
16A
330
22
100
AcDbEntity
  8
0
  6
Continuous
 62
     7
100
AcDbLine
 10
-403.487060546875
 20
282.5848388671875
 30
0.0
 11
-400.487060546875
 21
285.5848388671875
 31
0.0
  0
LINE
  5
16B
330
22
100
AcDbEntity
  8
0
  6
Continuous
 62
     7
100
AcDbLine
 10
-402.0728454589844
 20
282.5848388671875
 30
0.0
 11
-399.0728454589844
 21
285.5848388671875
 31
0.0
  0
LINE
  5
16C
330
22
100
AcDbEntity
  8
0
  6
Continuous
 62
     7
100
AcDbLine
 10
-400.6586303710937
 20
282.5848388671875
 30
0.0
 11
-397.6586303710938
 21
285.5848388671875
 31
0.0
  0
LINE
  5
16D
330
22
100
AcDbEntity
  8
0
  6
Continuous
 62
     7
100
AcDbLine
 10
-399.2444152832031
 20
282.5848388671875
 30
0.0
 11
-396.2444152832031
 21
285.5848388671875
 31
0.0
  0
LINE
  5
16E
330
22
100
AcDbEntity
  8
0
  6
Continuous
 62
     7
100
AcDbLine
 10
-397.8302001953125
 20
282.5848388671875
 30
0.0
 11
-394.8302001953125
 21
285.5848388671875
 31
0.0
  0
LINE
  5
16F
330
22
100
AcDbEntity
  8
0
  6
Continuous
 62
     7
100
AcDbLine
 10
-396.4159851074219
 20
282.5848388671875
 30
0.0
 11
-393.4159851074219
 21
285.5848388671875
 31
0.0
  0
LINE
  5
170
330
22
100
AcDbEntity
  8
0
  6
Continuous
 62
     7
100
AcDbLine
 10
-395.0017700195313
 20
282.5848388671875
 30
0.0
 11
-392.0017700195313
 21
285.5848388671875
 31
0.0
  0
LINE
  5
171
330
22
100
AcDbEntity
  8
0
  6
Continuous
 62
     7
100
AcDbLine
 10
-393.5875549316406
 20
282.5848388671875
 30
0.0
 11
-390.5875549316406
 21
285.5848388671875
 31
0.0
  0
LINE
  5
172
330
22
100
AcDbEntity
  8
0
  6
Continuous
 62
     7
100
AcDbLine
 10
-392.17333984375
 20
282.5848388671875
 30
0.0
 11
-389.17333984375
 21
285.5848388671875
 31
0.0
  0
LINE
  5
173
330
22
100
AcDbEntity
  8
0
  6
Continuous
 62
     7
100
AcDbLine
 10
-390.7591247558594
 20
282.5848388671875
 30
0.0
 11
-387.7591247558594
 21
285.5848388671875
 31
0.0
  0
LINE
  5
174
330
22
100
AcDbEntity
  8
0
  6
Continuous
 62
     7
100
AcDbLine
 10
-389.3449401855469
 20
282.5848388671875
 30
0.0
 11
-386.3449401855469
 21
285.5848388671875
 31
0.0
  0
LINE
  5
175
330
22
100
AcDbEntity
  8
0
  6
Continuous
 62
     7
100
AcDbLine
 10
-387.9307250976563
 20
282.5848388671875
 30
0.0
 11
-384.9307250976563
 21
285.5848388671875
 31
0.0
  0
LINE
  5
176
330
22
100
AcDbEntity
  8
0
  6
Continuous
 62
     7
100
AcDbLine
 10
-386.5165100097656
 20
282.5848388671875
 30
0.0
 11
-383.5165100097656
 21
285.5848388671875
 31
0.0
  0
LINE
  5
177
330
22
100
AcDbEntity
  8
0
  6
Continuous
 62
     7
100
AcDbLine
 10
-385.102294921875
 20
282.5848388671875
 30
0.0
 11
-382.102294921875
 21
285.5848388671875
 31
0.0
  0
LINE
  5
178
330
22
100
AcDbEntity
  8
0
  6
Continuous
 62
     7
100
AcDbLine
 10
-383.6880798339844
 20
282.5848388671875
 30
0.0
 11
-380.6880798339843
 21
285.5848388671875
 31
0.0
  0
LINE
  5
179
330
22
100
AcDbEntity
  8
0
  6
Continuous
 62
     7
100
AcDbLine
 10
-382.2738647460938
 20
282.5848388671875
 30
0.0
 11
-379.2738647460938
 21
285.5848388671875
 31
0.0
  0
LINE
  5
17A
330
22
100
AcDbEntity
  8
0
  6
Continuous
 62
     7
100
AcDbLine
 10
-380.8596496582031
 20
282.5848388671875
 30
0.0
 11
-377.8596496582031
 21
285.5848388671875
 31
0.0
  0
LINE
  5
17B
330
22
100
AcDbEntity
  8
0
  6
Continuous
 62
     7
100
AcDbLine
 10
-379.4454345703125
 20
282.5848388671875
 30
0.0
 11
-376.4454345703125
 21
285.5848388671875
 31
0.0
  0
LINE
  5
17C
330
22
100
AcDbEntity
  8
0
  6
Continuous
 62
     7
100
AcDbLine
 10
-378.0312194824219
 20
282.5848388671875
 30
0.0
 11
-375.0312194824219
 21
285.5848388671875
 31
0.0
  0
LINE
  5
17D
330
22
100
AcDbEntity
  8
0
  6
Continuous
 62
     7
100
AcDbLine
 10
-376.9551696777344
 20
282.2466735839844
 30
0.0
 11
-374.0025634765625
 21
285.1992797851563
 31
0.0
  0
LINE
  5
17E
330
22
100
AcDbEntity
  8
0
  6
Continuous
 62
     7
100
AcDbLine
 10
-376.8338317871094
 20
280.9537963867188
 30
0.0
 11
-373.8881225585938
 21
283.8995056152344
 31
0.0
  0
LINE
  5
17F
330
22
100
AcDbEntity
  8
0
  6
Continuous
 62
     7
100
AcDbLine
 10
-375.78857421875
 20
280.5848388671875
 30
0.0
 11
-373.8881225585938
 21
282.4852905273438
 31
0.0
  0
LINE
  5
180
330
22
100
AcDbEntity
  8
0
  6
Continuous
 62
     7
100
AcDbLine
 10
-440.8881225585938
 20
282.5848388671875
 30
0.0
 11
-377.3881225585938
 21
282.5848388671875
 31
0.0
  0
LINE
  5
181
330
22
100
AcDbEntity
  8
0
  6
Continuous
 62
     7
100
AcDbLine
 10
-376.8881225585938
 20
280.5848388671875
 30
0.0
 11
-440.8881225585938
 21
280.5848388671875
 31
0.0
  0
LINE
  5
182
330
22
100
AcDbEntity
  8
0
  6
Continuous
 62
     7
100
AcDbLine
 10
-421.1881103515625
 20
470.9182739257813
 30
0.0
 11
-421.1881103515625
 21
501.7000122070313
 31
0.0
  0
LINE
  5
183
330
22
100
AcDbEntity
  8
0
  6
Continuous
 62
     7
100
AcDbLine
 10
-421.1881103515625
 20
437.478271484375
 30
0.0
 11
-421.1881103515625
 21
432.409423828125
 31
0.0
  0
LINE
  5
184
330
22
100
AcDbEntity
  8
0
  6
Continuous
 62
     7
100
AcDbLine
 10
-421.1881103515625
 20
459.718292236328
 30
0.0
 11
-421.1881103515625
 21
453.9440307617188
 31
0.0
  0
LINE
  5
185
330
22
100
AcDbEntity
  8
0
  6
Continuous
 62
     7
100
AcDbLine
 10
-421.1881103515625
 20
448.8752136230468
 30
0.0
 11
-421.1881103515625
 21
453.9440307617188
 31
0.0
  0
LINE
  5
186
330
22
100
AcDbEntity
  8
0
  6
Continuous
 62
     7
100
AcDbLine
 10
-426.3881225585937
 20
470.1844482421875
 30
0.0
 11
-426.3881225585937
 21
448.8752136230468
 31
0.0
  0
LINE
  5
187
330
22
100
AcDbEntity
  8
0
  6
Continuous
 62
     7
100
AcDbLine
 10
-421.1881103515625
 20
426.6351928710937
 30
0.0
 11
-421.1881103515625
 21
432.409423828125
 31
0.0
  0
LINE
  5
188
330
22
100
AcDbEntity
  8
0
  6
Continuous
 62
     7
100
AcDbLine
 10
-426.3881225585937
 20
503.2001647949218
 30
0.0
 11
-426.3881225585937
 21
481.3844299316406
 31
0.0
  0
LINE
  5
189
330
22
100
AcDbEntity
  8
0
  6
Continuous
 62
     7
100
AcDbLine
 10
-406.8881225585938
 20
245.46142578125
 30
0.0
 11
-405.2716674804687
 21
247.0778656005859
 31
0.0
  0
LINE
  5
18A
330
22
100
AcDbEntity
  8
0
  6
Continuous
 62
     7
100
AcDbLine
 10
-406.8881225585938
 20
241.9258880615234
 30
0.0
 11
-405.1645202636718
 21
243.6494750976563
 31
0.0
  0
LINE
  5
18B
330
22
100
AcDbEntity
  8
0
  6
Continuous
 62
     7
100
AcDbLine
 10
-406.8881225585938
 20
238.3903503417969
 30
0.0
 11
-405.057373046875
 21
240.2210845947266
 31
0.0
  0
LINE
  5
18C
330
22
100
AcDbEntity
  8
0
  6
Continuous
 62
     7
100
AcDbLine
 10
-406.8881225585938
 20
234.8548126220703
 30
0.0
 11
-404.9502563476563
 21
236.7926940917969
 31
0.0
  0
LINE
  5
18D
330
22
100
AcDbEntity
  8
0
  6
Continuous
 62
     7
100
AcDbLine
 10
-406.8881225585938
 20
231.3192901611328
 30
0.0
 11
-404.8431091308593
 21
233.3643035888672
 31
0.0
  0
LINE
  5
18E
330
22
100
AcDbEntity
  8
0
  6
Continuous
 62
     7
100
AcDbLine
 10
-406.8881225585938
 20
227.7837524414064
 30
0.0
 11
-404.7359619140625
 21
229.9359130859375
 31
0.0
  0
LINE
  5
18F
330
22
100
AcDbEntity
  8
0
  6
Continuous
 62
     7
100
AcDbLine
 10
-406.8881225585938
 20
224.2482147216797
 30
0.0
 11
-404.6288146972655
 21
226.5075225830078
 31
0.0
  0
LINE
  5
190
330
22
100
AcDbEntity
  8
0
  6
Continuous
 62
     7
100
AcDbLine
 10
-406.8881225585938
 20
220.7126770019531
 30
0.0
 11
-404.5216674804688
 21
223.0791168212891
 31
0.0
  0
LINE
  5
191
330
22
100
AcDbEntity
  8
0
  6
Continuous
 62
     7
100
AcDbLine
 10
-406.8881225585938
 20
217.1771545410156
 30
0.0
 11
-403.3323974609374
 21
220.7328796386719
 31
0.0
  0
LINE
  5
192
330
22
100
AcDbEntity
  8
0
  6
Continuous
 62
     7
100
AcDbLine
 10
-406.8881225585938
 20
213.6416168212891
 30
0.0
 11
-402.7381286621094
 21
217.7916107177734
 31
0.0
  0
LINE
  5
193
330
22
100
AcDbEntity
  8
0
  6
Continuous
 62
     7
100
AcDbLine
 10
-406.8881225585938
 20
210.1060791015625
 30
0.0
 11
-402.7381286621094
 21
214.2560882568359
 31
0.0
  0
LINE
  5
194
330
22
100
AcDbEntity
  8
0
  6
Continuous
 62
     7
100
AcDbLine
 10
-406.8881225585938
 20
206.5705413818359
 30
0.0
 11
-402.7381286621094
 21
210.7205505371094
 31
0.0
  0
LINE
  5
195
330
22
100
AcDbEntity
  8
0
  6
Continuous
 62
     7
100
AcDbLine
 10
-406.8881225585938
 20
203.0350189208984
 30
0.0
 11
-402.7381286621094
 21
207.1850128173828
 31
0.0
  0
LINE
  5
196
330
22
100
AcDbEntity
  8
0
  6
Continuous
 62
     7
100
AcDbLine
 10
-406.8881225585938
 20
199.4994812011719
 30
0.0
 11
-402.7381286621094
 21
203.6494750976563
 31
0.0
  0
LINE
  5
197
330
22
100
AcDbEntity
  8
0
  6
Continuous
 62
     7
100
AcDbLine
 10
-406.8881225585938
 20
195.9639434814453
 30
0.0
 11
-402.7381286621094
 21
200.1139526367188
 31
0.0
  0
LINE
  5
198
330
22
100
AcDbEntity
  8
0
  6
Continuous
 62
     7
100
AcDbLine
 10
-406.8881225585938
 20
192.4284057617188
 30
0.0
 11
-404.7731018066405
 21
194.5434112548828
 31
0.0
  0
LINE
  5
199
330
22
100
AcDbEntity
  8
0
  6
Continuous
 62
     7
100
AcDbLine
 10
-406.8881225585938
 20
188.8928833007813
 30
0.0
 11
-404.7731018066405
 21
191.0078735351563
 31
0.0
  0
LINE
  5
19A
330
22
100
AcDbEntity
  8
0
  6
Continuous
 62
     7
100
AcDbLine
 10
-406.8881225585938
 20
185.3573455810547
 30
0.0
 11
-404.7731018066405
 21
187.4723510742188
 31
0.0
  0
LINE
  5
19B
330
22
100
AcDbEntity
  8
0
  6
Continuous
 62
     7
100
AcDbLine
 10
-406.8881225585938
 20
181.8218078613281
 30
0.0
 11
-404.7731018066405
 21
183.9368133544922
 31
0.0
  0
LINE
  5
19C
330
22
100
AcDbEntity
  8
0
  6
Continuous
 62
     7
100
AcDbLine
 10
-406.8881225585938
 20
178.2862701416016
 30
0.0
 11
-404.7731018066405
 21
180.4012756347656
 31
0.0
  0
LINE
  5
19D
330
22
100
AcDbEntity
  8
0
  6
Continuous
 62
     7
100
AcDbLine
 10
-406.8881225585938
 20
174.7507476806641
 30
0.0
 11
-404.7731018066405
 21
176.8657379150391
 31
0.0
  0
LINE
  5
19E
330
22
100
AcDbEntity
  8
0
  6
Continuous
 62
     7
100
AcDbLine
 10
-406.8881225585938
 20
171.2152099609375
 30
0.0
 11
-404.7731018066405
 21
173.3302154541016
 31
0.0
  0
LINE
  5
19F
330
22
100
AcDbEntity
  8
0
  6
Continuous
 62
     7
100
AcDbLine
 10
-406.8881225585938
 20
167.6796722412109
 30
0.0
 11
-404.7731018066405
 21
169.794677734375
 31
0.0
  0
LINE
  5
1A0
330
22
100
AcDbEntity
  8
0
  6
Continuous
 62
     7
100
AcDbLine
 10
-406.8881225585938
 20
164.1441345214844
 30
0.0
 11
-404.7731018066405
 21
166.2591400146484
 31
0.0
  0
LINE
  5
1A1
330
22
100
AcDbEntity
  8
0
  6
Continuous
 62
     7
100
AcDbLine
 10
-406.8881225585938
 20
160.6086120605469
 30
0.0
 11
-404.7731018066405
 21
162.7236022949219
 31
0.0
  0
LINE
  5
1A2
330
22
100
AcDbEntity
  8
0
  6
Continuous
 62
     7
100
AcDbLine
 10
-406.8881225585938
 20
157.0730743408203
 30
0.0
 11
-404.7731018066405
 21
159.1880798339844
 31
0.0
  0
LINE
  5
1A3
330
22
100
AcDbEntity
  8
0
  6
Continuous
 62
     7
100
AcDbLine
 10
-406.8881225585938
 20
153.5375366210938
 30
0.0
 11
-404.7731018066405
 21
155.6525421142578
 31
0.0
  0
LINE
  5
1A4
330
22
100
AcDbEntity
  8
0
  6
Continuous
 62
     7
100
AcDbLine
 10
-406.8881225585938
 20
150.0019989013672
 30
0.0
 11
-404.7731018066405
 21
152.1170043945313
 31
0.0
  0
LINE
  5
1A5
330
22
100
AcDbEntity
  8
0
  6
Continuous
 62
     7
100
AcDbLine
 10
-403.2981262207031
 20
168.5848388671875
 30
0.0
 11
-403.2981262207031
 21
136.5848388671875
 31
0.0
  0
LINE
  5
1A6
330
22
100
AcDbEntity
  8
0
  6
Continuous
 62
     7
100
AcDbLine
 10
-404.7731018066405
 20
148.5848388671875
 30
0.0
 11
-404.7731018066405
 21
196.4674987792969
 31
0.0
  0
LINE
  5
1A7
330
22
100
AcDbEntity
  8
0
  6
Continuous
 62
     7
100
AcDbLine
 10
-406.8881225585938
 20
148.5848388671875
 30
0.0
 11
-406.8881225585938
 21
248.5848388671875
 31
0.0
  0
LINE
  5
1A8
330
22
100
AcDbEntity
  8
0
  6
Continuous
 62
     7
100
AcDbLine
 10
-403.2981262207031
 20
100.5848388671875
 30
0.0
 11
-404.8214416503906
 21
102.1081695556641
 31
0.0
  0
LINE
  5
1A9
330
22
100
AcDbEntity
  8
0
  6
Continuous
 62
     7
100
AcDbLine
 10
-404.7731018066405
 20
167.1098327636719
 30
0.0
 11
-404.7731018066405
 21
138.0598449707031
 31
0.0
  0
LINE
  5
1AA
330
22
100
AcDbEntity
  8
0
  6
Continuous
 62
     7
100
AcDbLine
 10
-403.2981262207031
 20
167.6419219970703
 30
0.0
 11
-402.3551940917968
 21
168.5848388671875
 31
0.0
  0
LINE
  5
1AB
330
22
100
AcDbEntity
  8
0
  6
Continuous
 62
     7
100
AcDbLine
 10
-403.2981262207031
 20
164.8134918212891
 30
0.0
 11
-400.0362854003906
 21
168.0753326416016
 31
0.0
  0
LINE
  5
1AC
330
22
100
AcDbEntity
  8
0
  6
Continuous
 62
     7
100
AcDbLine
 10
-403.2981262207031
 20
161.9850616455078
 30
0.0
 11
-399.8881225585938
 21
165.3950653076172
 31
0.0
  0
LINE
  5
1AD
330
22
100
AcDbEntity
  8
0
  6
Continuous
 62
     7
100
AcDbLine
 10
-403.2981262207031
 20
159.1566467285156
 30
0.0
 11
-399.8881225585938
 21
162.5666351318359
 31
0.0
  0
LINE
  5
1AE
330
22
100
AcDbEntity
  8
0
  6
Continuous
 62
     7
100
AcDbLine
 10
-403.2981262207031
 20
156.3282165527344
 30
0.0
 11
-399.8881225585938
 21
159.7382049560547
 31
0.0
  0
LINE
  5
1AF
330
22
100
AcDbEntity
  8
0
  6
Continuous
 62
     7
100
AcDbLine
 10
-403.2981262207031
 20
153.4997863769531
 30
0.0
 11
-399.8881225585938
 21
156.9097900390625
 31
0.0
  0
LINE
  5
1B0
330
22
100
AcDbEntity
  8
0
  6
Continuous
 62
     7
100
AcDbLine
 10
-403.2981262207031
 20
150.6713562011719
 30
0.0
 11
-399.8881225585938
 21
154.0813598632813
 31
0.0
  0
LINE
  5
1B1
330
22
100
AcDbEntity
  8
0
  6
Continuous
 62
     7
100
AcDbLine
 10
-403.2981262207031
 20
147.8429260253906
 30
0.0
 11
-399.8881225585938
 21
151.2529296875
 31
0.0
  0
LINE
  5
1B2
330
22
100
AcDbEntity
  8
0
  6
Continuous
 62
     7
100
AcDbLine
 10
-403.2981262207031
 20
145.0145111083984
 30
0.0
 11
-399.8881225585938
 21
148.4244995117188
 31
0.0
  0
LINE
  5
1B3
330
22
100
AcDbEntity
  8
0
  6
Continuous
 62
     7
100
AcDbLine
 10
-403.2981262207031
 20
142.1860809326172
 30
0.0
 11
-399.8881225585938
 21
145.5960693359375
 31
0.0
  0
LINE
  5
1B4
330
22
100
AcDbEntity
  8
0
  6
Continuous
 62
     7
100
AcDbLine
 10
-403.2981262207031
 20
139.3576507568359
 30
0.0
 11
-399.8881225585938
 21
142.7676544189453
 31
0.0
  0
LINE
  5
1B5
330
22
100
AcDbEntity
  8
0
  6
Continuous
 62
     7
100
AcDbLine
 10
-403.2981262207031
 20
136.5292205810547
 30
0.0
 11
-399.6584167480469
 21
140.1689147949219
 31
0.0
  0
LINE
  5
1B6
330
22
100
AcDbEntity
  8
0
  6
Continuous
 62
     7
100
AcDbLine
 10
-404.2803955078125
 20
132.7185211181641
 30
0.0
 11
-398.6607360839844
 21
138.3381805419922
 31
0.0
  0
LINE
  5
1B7
330
22
100
AcDbEntity
  8
0
  6
Continuous
 62
     7
100
AcDbLine
 10
-404.2159729003905
 20
129.9545135498047
 30
0.0
 11
-397.0644836425781
 21
137.1059875488281
 31
0.0
  0
LINE
  5
1B8
330
22
100
AcDbEntity
  8
0
  6
Continuous
 62
     7
100
AcDbLine
 10
-398.2572021484375
 20
133.0848388671875
 30
0.0
 11
-394.7572021484375
 21
136.5848388671875
 31
0.0
  0
LINE
  5
1B9
330
22
100
AcDbEntity
  8
0
  6
Continuous
 62
     7
100
AcDbLine
 10
-404.1302490234374
 20
127.2118072509766
 30
0.0
 11
-399.3881225585938
 21
131.9539337158203
 31
0.0
  0
LINE
  5
1BA
330
22
100
AcDbEntity
  8
0
  6
Continuous
 62
     7
100
AcDbLine
 10
-395.4288024902344
 20
133.0848388671875
 30
0.0
 11
-391.9288024902344
 21
136.5848388671875
 31
0.0
  0
LINE
  5
1BB
330
22
100
AcDbEntity
  8
0
  6
Continuous
 62
     7
100
AcDbLine
 10
-404.0445251464843
 20
124.4690933227539
 30
0.0
 11
-399.3881225585938
 21
129.1255187988281
 31
0.0
  0
LINE
  5
1BC
330
22
100
AcDbEntity
  8
0
  6
Continuous
 62
     7
100
AcDbLine
 10
-392.6003723144532
 20
133.0848388671875
 30
0.0
 11
-389.1003723144531
 21
136.5848388671875
 31
0.0
  0
LINE
  5
1BD
330
22
100
AcDbEntity
  8
0
  6
Continuous
 62
     7
100
AcDbLine
 10
-403.9588317871094
 20
121.7263793945313
 30
0.0
 11
-399.3881225585938
 21
126.2970886230469
 31
0.0
  0
LINE
  5
1BE
330
22
100
AcDbEntity
  8
0
  6
Continuous
 62
     7
100
AcDbLine
 10
-389.7719421386719
 20
133.0848388671875
 30
0.0
 11
-386.2719421386719
 21
136.5848388671875
 31
0.0
  0
LINE
  5
1BF
330
22
100
AcDbEntity
  8
0
  6
Continuous
 62
     7
100
AcDbLine
 10
-403.8731079101562
 20
118.9836654663086
 30
0.0
 11
-399.3881225585938
 21
123.4686584472656
 31
0.0
  0
LINE
  5
1C0
330
22
100
AcDbEntity
  8
0
  6
Continuous
 62
     7
100
AcDbLine
 10
-386.9435119628906
 20
133.0848388671875
 30
0.0
 11
-383.5408020019531
 21
136.4875335693359
 31
0.0
  0
LINE
  5
1C1
330
22
100
AcDbEntity
  8
0
  6
Continuous
 62
     7
100
AcDbLine
 10
-403.787384033203
 20
116.2409515380859
 30
0.0
 11
-399.3881225585938
 21
120.6402359008789
 31
0.0
  0
LINE
  5
1C2
330
22
100
AcDbEntity
  8
0
  6
Continuous
 62
     7
100
AcDbLine
 10
-384.1150817871094
 20
133.0848388671875
 30
0.0
 11
-380.6150817871094
 21
136.5848388671875
 31
0.0
  0
LINE
  5
1C3
330
22
100
AcDbEntity
  8
0
  6
Continuous
 62
     7
100
AcDbLine
 10
-403.7016906738281
 20
113.4982376098633
 30
0.0
 11
-399.3881225585938
 21
117.8118057250977
 31
0.0
  0
LINE
  5
1C4
330
22
100
AcDbEntity
  8
0
  6
Continuous
 62
     7
100
AcDbLine
 10
-381.2866516113281
 20
133.0848388671875
 30
0.0
 11
-377.7866516113281
 21
136.5848388671875
 31
0.0
  0
LINE
  5
1C5
330
22
100
AcDbEntity
  8
0
  6
Continuous
 62
     7
100
AcDbLine
 10
-403.615966796875
 20
110.7555313110352
 30
0.0
 11
-399.3881225585938
 21
114.9833755493164
 31
0.0
  0
LINE
  5
1C6
330
22
100
AcDbEntity
  8
0
  6
Continuous
 62
     7
100
AcDbLine
 10
-378.4582214355469
 20
133.0848388671875
 30
0.0
 11
-374.9582214355469
 21
136.5848388671875
 31
0.0
  0
LINE
  5
1C7
330
22
100
AcDbEntity
  8
0
  6
Continuous
 62
     7
100
AcDbLine
 10
-403.5302429199218
 20
108.0128173828125
 30
0.0
 11
-399.3881225585938
 21
112.1549530029297
 31
0.0
  0
LINE
  5
1C8
330
22
100
AcDbEntity
  8
0
  6
Continuous
 62
     7
100
AcDbLine
 10
-375.6297912597656
 20
133.0848388671875
 30
0.0
 11
-372.1297912597656
 21
136.5848388671875
 31
0.0
  0
LINE
  5
1C9
330
22
100
AcDbEntity
  8
0
  6
Continuous
 62
     7
100
AcDbLine
 10
-403.4445495605468
 20
105.2701034545898
 30
0.0
 11
-399.3881225585938
 21
109.3265228271484
 31
0.0
  0
LINE
  5
1CA
330
22
100
AcDbEntity
  8
0
  6
Continuous
 62
     7
100
AcDbLine
 10
-372.8013610839844
 20
133.0848388671875
 30
0.0
 11
-369.3013610839844
 21
136.5848388671875
 31
0.0
  0
LINE
  5
1CB
330
22
100
AcDbEntity
  8
0
  6
Continuous
 62
     7
100
AcDbLine
 10
-403.3588256835938
 20
102.5273895263672
 30
0.0
 11
-399.3881225585938
 21
106.4981002807617
 31
0.0
  0
LINE
  5
1CC
330
22
100
AcDbEntity
  8
0
  6
Continuous
 62
     7
100
AcDbLine
 10
-369.9729309082031
 20
133.0848388671875
 30
0.0
 11
-367.0543212890625
 21
136.0034637451172
 31
0.0
  0
LINE
  5
1CD
330
22
100
AcDbEntity
  8
0
  6
Continuous
 62
     7
100
AcDbLine
 10
-402.4729309082031
 20
100.5848388671875
 30
0.0
 11
-399.3881225585938
 21
103.6696701049805
 31
0.0
  0
LINE
  5
1CE
330
22
100
AcDbEntity
  8
0
  6
Continuous
 62
     7
100
AcDbLine
 10
-367.14453125
 20
133.0848388671875
 30
0.0
 11
-363.64453125
 21
136.5848388671875
 31
0.0
  0
LINE
  5
1CF
330
22
100
AcDbEntity
  8
0
  6
Continuous
 62
     7
100
AcDbLine
 10
-364.3161010742188
 20
133.0848388671875
 30
0.0
 11
-360.8161010742188
 21
136.5848388671875
 31
0.0
  0
LINE
  5
1D0
330
22
100
AcDbEntity
  8
0
  6
Continuous
 62
     7
100
AcDbLine
 10
-361.4876708984375
 20
133.0848388671875
 30
0.0
 11
-357.9876708984375
 21
136.5848388671875
 31
0.0
  0
LINE
  5
1D1
330
22
100
AcDbEntity
  8
0
  6
Continuous
 62
     7
100
AcDbLine
 10
-358.6592407226563
 20
133.0848388671875
 30
0.0
 11
-355.1592407226563
 21
136.5848388671875
 31
0.0
  0
LINE
  5
1D2
330
22
100
AcDbEntity
  8
0
  6
Continuous
 62
     7
100
AcDbLine
 10
-355.830810546875
 20
133.0848388671875
 30
0.0
 11
-352.330810546875
 21
136.5848388671875
 31
0.0
  0
LINE
  5
1D3
330
22
100
AcDbEntity
  8
0
  6
Continuous
 62
     7
100
AcDbLine
 10
-353.0023803710938
 20
133.0848388671875
 30
0.0
 11
-350.3193969726563
 21
135.767822265625
 31
0.0
  0
LINE
  5
1D4
330
22
100
AcDbEntity
  8
0
  6
Continuous
 62
     7
100
AcDbLine
 10
-399.8881225585938
 20
141.5848388671875
 30
0.0
 11
-399.8881225585938
 21
167.5848388671875
 31
0.0
  0
LINE
  5
1D5
330
22
100
AcDbEntity
  8
0
  6
Continuous
 62
     7
100
AcDbLine
 10
-403.2981262207031
 20
168.5848388671875
 30
0.0
 11
-400.8881225585938
 21
168.5848388671875
 31
0.0
  0
LINE
  5
1D6
330
22
100
AcDbEntity
  8
0
  6
Continuous
 62
     7
100
AcDbLine
 10
-349.8881225585938
 20
133.5848388671875
 30
0.0
 11
-349.8881225585938
 21
134.5848388671875
 31
0.0
  0
LINE
  5
1D7
330
22
100
AcDbEntity
  8
0
  6
Continuous
 62
     7
100
AcDbLine
 10
-366.6357116699219
 20
135.5848388671875
 30
0.0
 11
-365.6357116699219
 21
136.5848388671875
 31
0.0
  0
LINE
  5
1D8
330
22
100
AcDbEntity
  8
0
  6
Continuous
 62
     7
100
AcDbLine
 10
-366.6357116699219
 20
135.5848388671875
 30
0.0
 11
-367.6357116699219
 21
136.5848388671875
 31
0.0
  0
LINE
  5
1D9
330
22
100
AcDbEntity
  8
0
  6
Continuous
 62
     7
100
AcDbLine
 10
-382.6381225585938
 20
135.5848388671875
 30
0.0
 11
-383.6381225585938
 21
136.5848388671875
 31
0.0
  0
LINE
  5
1DA
330
22
100
AcDbEntity
  8
0
  6
Continuous
 62
     7
100
AcDbLine
 10
-382.6381225585938
 20
135.5848388671875
 30
0.0
 11
-381.6381225585938
 21
136.5848388671875
 31
0.0
  0
LINE
  5
1DB
330
22
100
AcDbEntity
  8
0
  6
Continuous
 62
     7
100
AcDbLine
 10
-394.8881225585938
 20
136.5848388671875
 30
0.0
 11
-351.8881225585938
 21
136.5848388671875
 31
0.0
  0
LINE
  5
1DC
330
22
100
AcDbEntity
  8
0
  6
Continuous
 62
     7
100
AcDbLine
 10
-398.3881225585938
 20
133.0848388671875
 30
0.0
 11
-350.3881225585938
 21
133.0848388671875
 31
0.0
  0
LINE
  5
1DD
330
22
100
AcDbEntity
  8
0
  6
Continuous
 62
     7
100
AcDbLine
 10
-399.3881225585938
 20
132.0848388671875
 30
0.0
 11
-399.3881225585938
 21
101.5848388671875
 31
0.0
  0
LINE
  5
1DE
330
22
100
AcDbEntity
  8
0
  6
Continuous
 62
     7
100
AcDbLine
 10
-404.7731018066405
 20
148.5848388671875
 30
0.0
 11
-403.2981262207031
 21
150.0598449707031
 31
0.0
  0
LINE
  5
1DF
330
22
100
AcDbEntity
  8
0
  6
Continuous
 62
     7
100
AcDbLine
 10
-403.2981262207031
 20
150.0598449707031
 30
0.0
 11
-403.2981262207031
 21
198.0856781005859
 31
0.0
  0
LINE
  5
1E0
330
22
100
AcDbEntity
  8
0
  6
Continuous
 62
     7
100
AcDbLine
 10
-373.3881225585938
 20
136.5848388671875
 30
0.0
 11
-358.3760375976563
 21
136.5848388671875
 31
0.0
  0
LINE
  5
1E1
330
22
100
AcDbEntity
  8
0
  6
Continuous
 62
     7
100
AcDbLine
 10
-404.2803955078125
 20
132.0158386230469
 30
0.0
 11
-404.2803955078125
 21
136.5848388671875
 31
0.0
  0
LINE
  5
1E2
330
22
100
AcDbEntity
  8
0
  6
Continuous
 62
     7
100
AcDbLine
 10
-407.3881225585938
 20
254.5848388671875
 30
0.0
 11
-407.3881225585938
 21
255.1096343994141
 31
0.0
  0
LINE
  5
1E3
330
22
100
AcDbEntity
  8
0
  6
Continuous
 62
     7
100
AcDbLine
 10
-403.2961120605468
 20
248.0848388671875
 30
0.0
 11
-403.2961120605468
 21
251.5848388671875
 31
0.0
  0
LINE
  5
1E4
330
22
100
AcDbEntity
  8
0
  6
Continuous
 62
     7
100
AcDbLine
 10
-399.8881225585938
 20
231.5848388671875
 30
0.0
 11
-399.8881225585938
 21
253.666259765625
 31
0.0
  0
LINE
  5
1E5
330
22
100
AcDbEntity
  8
0
  6
Continuous
 62
     7
100
AcDbLine
 10
-406.3881225585937
 20
253.5848388671875
 30
0.0
 11
-405.2961120605468
 21
253.5848388671875
 31
0.0
  0
LINE
  5
1E6
330
22
100
AcDbEntity
  8
0
  6
Continuous
 62
     7
100
AcDbLine
 10
-405.7113952636719
 20
130.5848388671875
 30
0.0
 11
-404.8214416503906
 21
102.1081695556641
 31
0.0
  0
LINE
  5
1E7
330
22
100
AcDbEntity
  8
0
  6
Continuous
 62
     7
100
AcDbLine
 10
-403.7954406738281
 20
247.0615081787109
 30
0.0
 11
-402.9610290527343
 21
220.3615112304688
 31
0.0
  0
LINE
  5
1E8
330
22
100
AcDbEntity
  8
0
  6
Continuous
 62
     7
100
AcDbLine
 10
-405.3187561035156
 20
248.5848388671875
 30
0.0
 11
-404.4843444824218
 21
221.8848419189453
 31
0.0
  0
LINE
  5
1E9
330
22
100
AcDbEntity
  8
0
  6
Continuous
 62
     7
100
AcDbLine
 10
-404.8215026855468
 20
232.1102294921875
 30
0.0
 11
-405.2593688964844
 21
246.1215667724609
 31
0.0
  0
LINE
  5
1EA
330
22
100
AcDbEntity
  8
0
  6
Continuous
 62
     7
100
AcDbLine
 10
-405.3187561035156
 20
248.5848388671875
 30
0.0
 11
-403.7954406738281
 21
247.0615081787109
 31
0.0
  0
LINE
  5
1EB
330
22
100
AcDbEntity
  8
0
  6
Continuous
 62
     7
100
AcDbLine
 10
-404.4843444824218
 20
221.8848419189453
 30
0.0
 11
-402.7381286621094
 21
220.1386108398438
 31
0.0
  0
LINE
  5
1EC
330
22
100
AcDbEntity
  8
0
  6
Continuous
 62
     7
100
AcDbLine
 10
-403.2961120605468
 20
230.5848388671875
 30
0.0
 11
-404.8215026855468
 21
232.1102294921875
 31
0.0
  0
LINE
  5
1ED
330
22
100
AcDbEntity
  8
0
  6
Continuous
 62
     7
100
AcDbLine
 10
-403.2961120605468
 20
230.5848388671875
 30
0.0
 11
-403.827392578125
 21
247.5848388671875
 31
0.0
  0
LINE
  5
1EE
330
22
100
AcDbEntity
  8
0
  6
Continuous
 62
     7
100
AcDbLine
 10
-403.7961120605468
 20
247.5848388671875
 30
0.0
 11
-405.2593688964844
 21
246.1215667724609
 31
0.0
  0
LINE
  5
1EF
330
22
100
AcDbEntity
  8
0
  6
Continuous
 62
     7
100
AcDbLine
 10
-400.8881225585938
 20
230.5848388671875
 30
0.0
 11
-399.8881225585938
 21
231.5848388671875
 31
0.0
  0
LINE
  5
1F0
330
22
100
AcDbEntity
  8
0
  6
Continuous
 62
     7
100
AcDbLine
 10
-402.7381286621094
 20
198.7000274658203
 30
0.0
 11
-402.7381286621094
 21
220.1386108398438
 31
0.0
  0
LINE
  5
1F1
330
22
100
AcDbEntity
  8
0
  6
Continuous
 62
     7
100
AcDbLine
 10
-404.7731018066405
 20
196.4674987792969
 30
0.0
 11
-402.7381286621094
 21
198.7000274658203
 31
0.0
  0
LINE
  5
1F2
330
22
100
AcDbEntity
  8
0
  6
Continuous
 62
     7
100
AcDbLine
 10
-403.2805175781249
 20
230.5848388671875
 30
0.0
 11
-400.8881225585938
 21
230.5848388671875
 31
0.0
  0
LINE
  5
1F3
330
22
100
AcDbEntity
  8
0
  6
Continuous
 62
     7
100
AcDbLine
 10
-449.1881103515624
 20
504.3663940429688
 30
0.0
 11
-449.1881103515624
 21
481.3844299316406
 31
0.0
  0
LINE
  5
1F4
330
22
100
AcDbEntity
  8
0
  6
Continuous
 62
     7
100
AcDbLine
 10
-449.1881103515624
 20
470.1844482421875
 30
0.0
 11
-449.1881103515624
 21
448.8752136230468
 31
0.0
  0
LINE
  5
1F5
330
22
100
AcDbEntity
  8
0
  6
Continuous
 62
     7
100
AcDbLine
 10
-449.1881103515624
 20
416.1690368652343
 30
0.0
 11
-449.1881103515624
 21
437.478271484375
 31
0.0
  0
LINE
  5
1F6
330
22
100
AcDbEntity
  8
0
  6
Continuous
 62
     7
100
AcDbLine
 10
-449.1881103515624
 20
381.9870910644531
 30
0.0
 11
-449.1881103515624
 21
404.9690246582031
 31
0.0
  0
LINE
  5
1F7
330
22
100
AcDbEntity
  8
0
  6
Continuous
 62
     7
100
AcDbLine
 10
-440.8881225585938
 20
148.5848388671875
 30
0.0
 11
-404.7731018066405
 21
148.5848388671875
 31
0.0
  0
LINE
  5
1F8
330
22
100
AcDbEntity
  8
0
  6
Continuous
 62
     7
100
AcDbLine
 10
-407.254150390625
 20
255.6096343994141
 30
0.0
 11
-440.8881225585938
 21
255.6096343994141
 31
0.0
  0
LINE
  5
1F9
330
22
100
AcDbEntity
  8
0
  6
Continuous
 62
     7
100
AcDbLine
 10
-440.8881225585938
 20
138.0598449707031
 30
0.0
 11
-404.7731018066405
 21
138.0598449707031
 31
0.0
  0
LINE
  5
1FA
330
22
100
AcDbEntity
  8
0
  6
Continuous
 62
     7
100
AcDbLine
 10
-403.2981262207031
 20
136.5848388671875
 30
0.0
 11
-440.8881225585938
 21
136.5848388671875
 31
0.0
  0
LINE
  5
1FB
330
22
100
AcDbEntity
  8
0
  6
Continuous
 62
     7
100
AcDbLine
 10
-404.8214416503906
 20
102.1081695556641
 30
0.0
 11
-440.8881225585938
 21
102.1081695556641
 31
0.0
  0
LINE
  5
1FC
330
22
100
AcDbEntity
  8
0
  6
Continuous
 62
     7
100
AcDbLine
 10
-405.7113952636719
 20
130.5848388671875
 30
0.0
 11
-440.8881225585938
 21
130.5848388671875
 31
0.0
  0
LINE
  5
1FD
330
22
100
AcDbEntity
  8
0
  6
Continuous
 62
     7
100
AcDbLine
 10
-404.2803955078125
 20
132.0158386230469
 30
0.0
 11
-440.8881225585938
 21
132.0158386230469
 31
0.0
  0
LINE
  5
1FE
330
22
100
AcDbEntity
  8
0
  6
Continuous
 62
     7
100
AcDbLine
 10
-440.8881225585938
 20
248.5848388671875
 30
0.0
 11
-405.3187561035156
 21
248.5848388671875
 31
0.0
  0
LINE
  5
1FF
330
22
100
AcDbEntity
  8
0
  6
Continuous
 62
     7
100
AcDbLine
 10
-406.3881225585937
 20
253.5848388671875
 30
0.0
 11
-440.8881225585938
 21
253.5848388671875
 31
0.0
  0
LINE
  5
200
330
22
100
AcDbEntity
  8
0
  6
Continuous
 62
     7
100
AcDbLine
 10
-420.5569763183594
 20
248.5848388671875
 30
0.0
 11
-415.9324951171875
 21
248.5848388671875
 31
0.0
  0
LINE
  5
201
330
22
100
AcDbEntity
  8
0
  6
Continuous
 62
     7
100
AcDbLine
 10
-466.7881164550781
 20
415.4352111816406
 30
0.0
 11
-466.7881164550781
 21
387.1209411621094
 31
0.0
  0
LINE
  5
202
330
22
100
AcDbEntity
  8
0
  6
Continuous
 62
     7
100
AcDbLine
 10
-466.7881164550781
 20
448.8752136230468
 30
0.0
 11
-466.7881164550781
 21
453.9440307617188
 31
0.0
  0
LINE
  5
203
330
22
100
AcDbEntity
  8
0
  6
Continuous
 62
     7
100
AcDbLine
 10
-466.7881164550781
 20
459.718292236328
 30
0.0
 11
-466.7881164550781
 21
453.9440307617188
 31
0.0
  0
LINE
  5
204
330
22
100
AcDbEntity
  8
0
  6
Continuous
 62
     7
100
AcDbLine
 10
-466.7881164550781
 20
470.9182739257813
 30
0.0
 11
-466.7881164550781
 21
499.2325439453124
 31
0.0
  0
LINE
  5
205
330
22
100
AcDbEntity
  8
0
  6
Continuous
 62
     7
100
AcDbLine
 10
-466.7881164550781
 20
437.478271484375
 30
0.0
 11
-466.7881164550781
 21
432.409423828125
 31
0.0
  0
LINE
  5
206
330
22
100
AcDbEntity
  8
0
  6
Continuous
 62
     7
100
AcDbLine
 10
-466.7881164550781
 20
426.6351928710937
 30
0.0
 11
-466.7881164550781
 21
432.409423828125
 31
0.0
  0
LINE
  5
207
330
22
100
AcDbEntity
  8
0
  6
Continuous
 62
     7
100
AcDbLine
 10
-489.7873229980469
 20
474.8022766113281
 30
0.0
 11
-492.5478515625
 21
474.4562377929688
 31
0.0
  0
LINE
  5
208
330
22
100
AcDbEntity
  8
0
  6
Continuous
 62
     7
100
AcDbLine
 10
-494.3766174316406
 20
476.8411254882813
 30
0.0
 11
-494.0248718261718
 21
474.0604553222656
 31
0.0
  0
LINE
  5
209
330
22
100
AcDbEntity
  8
0
  6
Continuous
 62
     7
100
AcDbLine
 10
-471.9881286621093
 20
407.7503356933593
 30
0.0
 11
-471.9881286621093
 21
389.8302001953125
 31
0.0
  0
LINE
  5
20A
330
22
100
AcDbEntity
  8
0
  6
Continuous
 62
     7
100
AcDbLine
 10
-483.3881225585938
 20
466.7830505371093
 30
0.0
 11
-483.3881225585938
 21
487.9742126464844
 31
0.0
  0
LINE
  5
20B
330
22
100
AcDbEntity
  8
0
  6
Continuous
 62
     7
100
AcDbLine
 10
-489.5881042480469
 20
418.4478454589843
 30
0.0
 11
-489.5881042480469
 21
405.2113342285156
 31
0.0
  0
LINE
  5
20C
330
22
100
AcDbEntity
  8
0
  6
Continuous
 62
     7
100
AcDbLine
 10
-483.3881225585938
 20
418.4478454589843
 30
0.0
 11
-483.3881225585938
 21
398.3792724609375
 31
0.0
  0
LINE
  5
20D
330
22
100
AcDbEntity
  8
0
  6
Continuous
 62
     7
100
AcDbLine
 10
-471.9881286621093
 20
437.478271484375
 30
0.0
 11
-471.9881286621093
 21
418.9503479003906
 31
0.0
  0
LINE
  5
20E
330
22
100
AcDbEntity
  8
0
  6
Continuous
 62
     7
100
AcDbLine
 10
-489.5881042480469
 20
429.6704101562499
 30
0.0
 11
-489.5881042480469
 21
432.409423828125
 31
0.0
  0
LINE
  5
20F
330
22
100
AcDbEntity
  8
0
  6
Continuous
 62
     7
100
AcDbLine
 10
-483.3881225585938
 20
437.478271484375
 30
0.0
 11
-483.3881225585938
 21
432.409423828125
 31
0.0
  0
LINE
  5
210
330
22
100
AcDbEntity
  8
0
  6
Continuous
 62
     7
100
AcDbLine
 10
-478.1881103515624
 20
407.7503356933593
 30
0.0
 11
-478.1881103515624
 21
393.9652404785156
 31
0.0
  0
LINE
  5
211
330
22
100
AcDbEntity
  8
0
  6
Continuous
 62
     7
100
AcDbLine
 10
-471.9881286621093
 20
448.8752136230468
 30
0.0
 11
-471.9881286621093
 21
467.4031372070313
 31
0.0
  0
LINE
  5
212
330
22
100
AcDbEntity
  8
0
  6
Continuous
 62
     7
100
AcDbLine
 10
-471.9881286621093
 20
478.6031494140624
 30
0.0
 11
-471.9881286621093
 21
496.5232849121093
 31
0.0
  0
LINE
  5
213
330
22
100
AcDbEntity
  8
0
  6
Continuous
 62
     7
100
AcDbLine
 10
-489.5881042480469
 20
448.8752136230468
 30
0.0
 11
-489.5881042480469
 21
453.9440307617188
 31
0.0
  0
LINE
  5
214
330
22
100
AcDbEntity
  8
0
  6
Continuous
 62
     7
100
AcDbLine
 10
-494.7881164550781
 20
438.5782775878906
 30
0.0
 11
-494.7881164550781
 21
419.4950866699218
 31
0.0
  0
LINE
  5
215
330
22
100
AcDbEntity
  8
0
  6
Continuous
 62
     7
100
AcDbLine
 10
-478.1881103515624
 20
437.478271484375
 30
0.0
 11
-478.1881103515624
 21
418.9503479003906
 31
0.0
  0
LINE
  5
216
330
22
100
AcDbEntity
  8
0
  6
Continuous
 62
     7
100
AcDbLine
 10
-483.3881225585938
 20
429.6704101562499
 30
0.0
 11
-483.3881225585938
 21
432.409423828125
 31
0.0
  0
LINE
  5
217
330
22
100
AcDbEntity
  8
0
  6
Continuous
 62
     7
100
AcDbLine
 10
-494.7881164550781
 20
447.7752075195312
 30
0.0
 11
-494.7881164550781
 21
466.8583679199218
 31
0.0
  0
LINE
  5
218
330
22
100
AcDbEntity
  8
0
  6
Continuous
 62
     7
100
AcDbLine
 10
-487.3881225585938
 20
483.8069458007812
 30
0.0
 11
-487.3881225585938
 21
466.7830505371093
 31
0.0
  0
LINE
  5
219
330
22
100
AcDbEntity
  8
0
  6
Continuous
 62
     7
100
AcDbLine
 10
-492.5433959960938
 20
469.9994506835937
 30
0.0
 11
-493.6291198730469
 21
472.5834350585937
 31
0.0
  0
LINE
  5
21A
330
22
100
AcDbEntity
  8
0
  6
Continuous
 62
     7
100
AcDbLine
 10
-489.5881042480469
 20
437.478271484375
 30
0.0
 11
-489.5881042480469
 21
432.409423828125
 31
0.0
  0
LINE
  5
21B
330
22
100
AcDbEntity
  8
0
  6
Continuous
 62
     7
100
AcDbLine
 10
-501.0881042480469
 20
438.5782775878906
 30
0.0
 11
-501.0881042480469
 21
429.4286193847656
 31
0.0
  0
LINE
  5
21C
330
22
100
AcDbEntity
  8
0
  6
Continuous
 62
     7
100
AcDbLine
 10
-478.1881103515624
 20
478.6031494140624
 30
0.0
 11
-478.1881103515624
 21
492.3882446289063
 31
0.0
  0
LINE
  5
21D
330
22
100
AcDbEntity
  8
0
  6
Continuous
 62
     7
100
AcDbLine
 10
-499.0881042480468
 20
440.5782775878906
 30
0.0
 11
-496.7881164550781
 21
440.5782775878906
 31
0.0
  0
LINE
  5
21E
330
22
100
AcDbEntity
  8
0
  6
Continuous
 62
     7
100
AcDbLine
 10
-478.1881103515624
 20
448.8752136230468
 30
0.0
 11
-478.1881103515624
 21
467.4031372070313
 31
0.0
  0
LINE
  5
21F
330
22
100
AcDbEntity
  8
0
  6
Continuous
 62
     7
100
AcDbLine
 10
-455.3881225585937
 20
416.1690368652343
 30
0.0
 11
-455.3881225585937
 21
437.478271484375
 31
0.0
  0
LINE
  5
220
330
22
100
AcDbEntity
  8
0
  6
Continuous
 62
     7
100
AcDbLine
 10
-455.3881225585937
 20
383.1533203125
 30
0.0
 11
-455.3881225585937
 21
404.9690246582031
 31
0.0
  0
LINE
  5
221
330
22
100
AcDbEntity
  8
0
  6
Continuous
 62
     7
100
AcDbLine
 10
-460.5881042480469
 20
437.478271484375
 30
0.0
 11
-460.5881042480469
 21
432.409423828125
 31
0.0
  0
LINE
  5
222
330
22
100
AcDbEntity
  8
0
  6
Continuous
 62
     7
100
AcDbLine
 10
-501.0881042480469
 20
447.7752075195312
 30
0.0
 11
-501.0881042480469
 21
456.9248657226562
 31
0.0
  0
LINE
  5
223
330
22
100
AcDbEntity
  8
0
  6
Continuous
 62
     7
100
AcDbLine
 10
-483.3881225585938
 20
448.8752136230468
 30
0.0
 11
-483.3881225585938
 21
453.9440307617188
 31
0.0
  0
LINE
  5
224
330
22
100
AcDbEntity
  8
0
  6
Continuous
 62
     7
100
AcDbLine
 10
-499.0881042480468
 20
445.7752075195313
 30
0.0
 11
-496.7881164550781
 21
445.7752075195313
 31
0.0
  0
LINE
  5
225
330
22
100
AcDbEntity
  8
0
  6
Continuous
 62
     7
100
AcDbLine
 10
-483.3881225585938
 20
456.6830749511718
 30
0.0
 11
-483.3881225585938
 21
453.9440307617188
 31
0.0
  0
LINE
  5
226
330
22
100
AcDbEntity
  8
0
  6
Continuous
 62
     7
100
AcDbLine
 10
-491.8003540039062
 20
470.1985473632813
 30
0.0
 11
-492.1520996093749
 21
472.9792175292969
 31
0.0
  0
LINE
  5
227
330
22
100
AcDbEntity
  8
0
  6
Continuous
 62
     7
100
AcDbLine
 10
-493.6335754394531
 20
477.0402221679687
 30
0.0
 11
-492.5478515625
 21
474.4562377929688
 31
0.0
  0
LINE
  5
228
330
22
100
AcDbEntity
  8
0
  6
Continuous
 62
     7
100
AcDbLine
 10
-496.3896484374999
 20
472.2373962402343
 30
0.0
 11
-493.6291198730469
 21
472.5834350585937
 31
0.0
  0
LINE
  5
229
330
22
100
AcDbEntity
  8
0
  6
Continuous
 62
     7
100
AcDbLine
 10
-496.5885925292968
 20
472.9798583984375
 30
0.0
 11
-494.0248718261718
 21
474.0604553222656
 31
0.0
  0
LINE
  5
22A
330
22
100
AcDbEntity
  8
0
  6
Continuous
 62
     7
100
AcDbLine
 10
-489.58837890625
 20
474.059814453125
 30
0.0
 11
-489.7873229980469
 21
474.8022766113281
 31
0.0
  0
LINE
  5
22B
330
22
100
AcDbEntity
  8
0
  6
Continuous
 62
     7
100
AcDbLine
 10
-489.5881042480469
 20
456.6830749511718
 30
0.0
 11
-489.5881042480469
 21
453.9440307617188
 31
0.0
  0
LINE
  5
22C
330
22
100
AcDbEntity
  8
0
  6
Continuous
 62
     7
100
AcDbLine
 10
-518.3881225585938
 20
284.5848388671875
 30
0.0
 11
-518.3881225585938
 21
282.5848388671875
 31
0.0
  0
LINE
  5
22D
330
22
100
AcDbEntity
  8
0
  6
Continuous
 62
     7
100
AcDbLine
 10
-512.3881225585939
 20
281.5848388671875
 30
0.0
 11
-517.3881225585938
 21
281.5848388671875
 31
0.0
  0
LINE
  5
22E
330
22
100
AcDbEntity
  8
0
  6
Continuous
 62
     7
100
AcDbLine
 10
-511.3881225585938
 20
280.5848388671875
 30
0.0
 11
-511.3881225585938
 21
276.4715881347656
 31
0.0
  0
LINE
  5
22F
330
22
100
AcDbEntity
  8
0
  6
Continuous
 62
     7
100
AcDbLine
 10
-460.5881042480469
 20
426.6351928710937
 30
0.0
 11
-460.5881042480469
 21
432.409423828125
 31
0.0
  0
LINE
  5
230
330
22
100
AcDbEntity
  8
0
  6
Continuous
 62
     7
100
AcDbLine
 10
-460.5881042480469
 20
459.718292236328
 30
0.0
 11
-460.5881042480469
 21
453.9440307617188
 31
0.0
  0
LINE
  5
231
330
22
100
AcDbEntity
  8
0
  6
Continuous
 62
     7
100
AcDbLine
 10
-460.5881042480469
 20
448.8752136230468
 30
0.0
 11
-460.5881042480469
 21
453.9440307617188
 31
0.0
  0
LINE
  5
232
330
22
100
AcDbEntity
  8
0
  6
Continuous
 62
     7
100
AcDbLine
 10
-460.5881042480469
 20
470.9182739257813
 30
0.0
 11
-460.5881042480469
 21
501.7000122070313
 31
0.0
  0
LINE
  5
233
330
22
100
AcDbEntity
  8
0
  6
Continuous
 62
     7
100
AcDbLine
 10
-455.3881225585937
 20
503.2001647949218
 30
0.0
 11
-455.3881225585937
 21
481.3844299316406
 31
0.0
  0
LINE
  5
234
330
22
100
AcDbEntity
  8
0
  6
Continuous
 62
     7
100
AcDbLine
 10
-455.3881225585937
 20
470.1844482421875
 30
0.0
 11
-455.3881225585937
 21
448.8752136230468
 31
0.0
  0
LINE
  5
235
330
22
100
AcDbEntity
  8
0
  6
Continuous
 62
     7
100
AcDbLine
 10
-494.3766174316406
 20
476.8411254882813
 30
0.0
 11
-493.6335754394531
 21
477.0402221679687
 31
0.0
  0
LINE
  5
236
330
22
100
AcDbEntity
  8
0
  6
Continuous
 62
     7
100
AcDbLine
 10
-496.5885925292968
 20
472.9798583984375
 30
0.0
 11
-496.3896484374999
 21
472.2373962402343
 31
0.0
  0
LINE
  5
237
330
22
100
AcDbEntity
  8
0
  6
Continuous
 62
     7
100
AcDbLine
 10
-491.8003540039062
 20
470.1985473632813
 30
0.0
 11
-492.5433959960938
 21
469.9994506835937
 31
0.0
  0
LINE
  5
238
330
22
100
AcDbEntity
  8
0
  6
Continuous
 62
     7
100
AcDbLine
 10
-489.58837890625
 20
474.059814453125
 30
0.0
 11
-492.1520996093749
 21
472.9792175292969
 31
0.0
  0
LINE
  5
239
330
22
100
AcDbEntity
  8
0
  6
Continuous
 62
     7
100
AcDbLine
 10
-460.5881042480469
 20
415.4352111816406
 30
0.0
 11
-460.5881042480469
 21
384.6534729003906
 31
0.0
  0
LINE
  5
23A
330
22
100
AcDbEntity
  8
0
  6
Continuous
 62
     7
100
AcDbLine
 10
-477.0031127929688
 20
168.5848388671875
 30
0.0
 11
-477.0031127929688
 21
196.4674987792969
 31
0.0
  0
LINE
  5
23B
330
22
100
AcDbEntity
  8
0
  6
Continuous
 62
     7
100
AcDbLine
 10
-482.3881225585938
 20
132.0848388671875
 30
0.0
 11
-482.3881225585938
 21
101.5848388671875
 31
0.0
  0
LINE
  5
23C
330
22
100
AcDbEntity
  8
0
  6
Continuous
 62
     7
100
AcDbLine
 10
-531.8881225585938
 20
133.5848388671875
 30
0.0
 11
-531.8881225585938
 21
134.5848388671875
 31
0.0
  0
LINE
  5
23D
330
22
100
AcDbEntity
  8
0
  6
Continuous
 62
     7
100
AcDbLine
 10
-487.3881225585938
 20
133.0848388671875
 30
0.0
 11
-483.3881225585938
 21
133.0848388671875
 31
0.0
  0
LINE
  5
23E
330
22
100
AcDbEntity
  8
0
  6
Continuous
 62
     7
100
AcDbLine
 10
-498.3881225585938
 20
133.0848388671875
 30
0.0
 11
-498.3881225585938
 21
131.5838775634766
 31
0.0
  0
LINE
  5
23F
330
22
100
AcDbEntity
  8
0
  6
Continuous
 62
     7
100
AcDbLine
 10
-498.3881225585938
 20
133.0848388671875
 30
0.0
 11
-519.2022705078125
 21
133.0848388671875
 31
0.0
  0
LINE
  5
240
330
22
100
AcDbEntity
  8
0
  6
Continuous
 62
     7
100
AcDbLine
 10
-481.8881225585938
 20
231.5848388671875
 30
0.0
 11
-472.5197143554687
 21
231.5848388671875
 31
0.0
  0
LINE
  5
241
330
22
100
AcDbEntity
  8
0
  6
Continuous
 62
     7
100
AcDbLine
 10
-480.8881225585937
 20
230.5848388671875
 30
0.0
 11
-481.8881225585938
 21
231.5848388671875
 31
0.0
  0
LINE
  5
242
330
22
100
AcDbEntity
  8
0
  6
Continuous
 62
     7
100
AcDbLine
 10
-477.2918701171875
 20
221.8848419189453
 30
0.0
 11
-479.0381164550781
 21
220.1386108398438
 31
0.0
  0
LINE
  5
243
330
22
100
AcDbEntity
  8
0
  6
Continuous
 62
     7
100
AcDbLine
 10
-477.0031127929688
 20
196.4674987792969
 30
0.0
 11
-479.0381164550781
 21
198.7000274658203
 31
0.0
  0
LINE
  5
244
330
22
100
AcDbEntity
  8
0
  6
Continuous
 62
     7
100
AcDbLine
 10
-478.4956970214843
 20
230.5848388671875
 30
0.0
 11
-478.8152160644531
 21
220.3615112304688
 31
0.0
  0
LINE
  5
245
330
22
100
AcDbEntity
  8
0
  6
Continuous
 62
     7
100
AcDbLine
 10
-477.0199890136718
 20
230.5848388671875
 30
0.0
 11
-477.2918701171875
 21
221.8848419189453
 31
0.0
  0
LINE
  5
246
330
22
100
AcDbEntity
  8
0
  6
Continuous
 62
     7
100
AcDbLine
 10
-481.8881225585938
 20
141.5848388671875
 30
0.0
 11
-481.8881225585938
 21
167.5848388671875
 31
0.0
  0
LINE
  5
247
330
22
100
AcDbEntity
  8
0
  6
Continuous
 62
     7
100
AcDbLine
 10
-478.4781188964843
 20
168.5848388671875
 30
0.0
 11
-478.4781188964843
 21
198.0856781005859
 31
0.0
  0
LINE
  5
248
330
22
100
AcDbEntity
  8
0
  6
Continuous
 62
     7
100
AcDbLine
 10
-508.8881225585938
 20
272.1414489746095
 30
0.0
 11
-484.3881225585938
 21
257.9963684082031
 31
0.0
  0
LINE
  5
249
330
22
100
AcDbEntity
  8
0
  6
Continuous
 62
     7
100
AcDbLine
 10
-364.4180603027344
 20
285.5848388671875
 30
0.0
 11
-363.3881225585938
 21
284.5549011230469
 31
0.0
  0
LINE
  5
24A
330
22
100
AcDbEntity
  8
0
  6
Continuous
 62
     7
100
AcDbLine
 10
-364.9483642578125
 20
285.5848388671875
 30
0.0
 11
-363.3881225585938
 21
284.0245666503906
 31
0.0
  0
LINE
  5
24B
330
22
100
AcDbEntity
  8
0
  6
Continuous
 62
     7
100
AcDbLine
 10
-366.5393676757813
 20
285.5848388671875
 30
0.0
 11
-363.4132080078125
 21
282.4586791992188
 31
0.0
  0
LINE
  5
24C
330
22
100
AcDbEntity
  8
0
  6
Continuous
 62
     7
100
AcDbLine
 10
-367.0697021484375
 20
285.5848388671875
 30
0.0
 11
-363.553466796875
 21
282.068603515625
 31
0.0
  0
LINE
  5
24D
330
22
100
AcDbEntity
  8
0
  6
Continuous
 62
     7
100
AcDbLine
 10
-368.6606750488281
 20
285.5848388671875
 30
0.0
 11
-364.6606750488281
 21
281.5848388671875
 31
0.0
  0
LINE
  5
24E
330
22
100
AcDbEntity
  8
0
  6
Continuous
 62
     7
100
AcDbLine
 10
-369.1910095214844
 20
285.5848388671875
 30
0.0
 11
-365.1910095214844
 21
281.5848388671875
 31
0.0
  0
LINE
  5
24F
330
22
100
AcDbEntity
  8
0
  6
Continuous
 62
     7
100
AcDbLine
 10
-370.7820129394531
 20
285.5848388671875
 30
0.0
 11
-366.7820129394531
 21
281.5848388671875
 31
0.0
  0
LINE
  5
250
330
22
100
AcDbEntity
  8
0
  6
Continuous
 62
     7
100
AcDbLine
 10
-371.3123474121094
 20
285.5848388671875
 30
0.0
 11
-367.3123474121094
 21
281.5848388671875
 31
0.0
  0
LINE
  5
251
330
22
100
AcDbEntity
  8
0
  6
Continuous
 62
     7
100
AcDbLine
 10
-372.9033203125
 20
285.5848388671875
 30
0.0
 11
-368.9033203125
 21
281.5848388671875
 31
0.0
  0
LINE
  5
252
330
22
100
AcDbEntity
  8
0
  6
Continuous
 62
     7
100
AcDbLine
 10
-373.3881225585938
 20
285.539306640625
 30
0.0
 11
-369.4260864257813
 21
281.5772705078125
 31
0.0
  0
LINE
  5
253
330
22
100
AcDbEntity
  8
0
  6
Continuous
 62
     7
100
AcDbLine
 10
-373.3881225585938
 20
283.9483032226563
 30
0.0
 11
-370.3278198242188
 21
280.8880004882813
 31
0.0
  0
LINE
  5
254
330
22
100
AcDbEntity
  8
0
  6
Continuous
 62
     7
100
AcDbLine
 10
-373.3881225585938
 20
283.41796875
 30
0.0
 11
-370.3881225585938
 21
280.41796875
 31
0.0
  0
LINE
  5
255
330
22
100
AcDbEntity
  8
0
  6
Continuous
 62
     7
100
AcDbLine
 10
-373.3881225585938
 20
281.8269958496094
 30
0.0
 11
-370.3881225585938
 21
278.8269958496094
 31
0.0
  0
LINE
  5
256
330
22
100
AcDbEntity
  8
0
  6
Continuous
 62
     7
100
AcDbLine
 10
-373.3881225585938
 20
281.296661376953
 30
0.0
 11
-370.3881225585938
 21
278.2966613769531
 31
0.0
  0
LINE
  5
257
330
22
100
AcDbEntity
  8
0
  6
Continuous
 62
     7
100
AcDbLine
 10
-374.2672729492188
 20
280.5848388671875
 30
0.0
 11
-370.3881225585938
 21
276.7056579589844
 31
0.0
  0
LINE
  5
258
330
22
100
AcDbEntity
  8
0
  6
Continuous
 62
     7
100
AcDbLine
 10
-374.797607421875
 20
280.5848388671875
 30
0.0
 11
-370.3974304199219
 21
276.1846313476563
 31
0.0
  0
LINE
  5
259
330
22
100
AcDbEntity
  8
0
  6
Continuous
 62
     7
100
AcDbLine
 10
-376.3886108398438
 20
280.5848388671875
 30
0.0
 11
-370.6741638183594
 21
274.8703918457031
 31
0.0
  0
LINE
  5
25A
330
22
100
AcDbEntity
  8
0
  6
Continuous
 62
     7
100
AcDbLine
 10
-376.8881225585938
 20
280.5540161132813
 30
0.0
 11
-370.8190307617188
 21
274.4849243164063
 31
0.0
  0
LINE
  5
25B
330
22
100
AcDbEntity
  8
0
  6
Continuous
 62
     7
100
AcDbLine
 10
-376.8881225585938
 20
278.9630126953125
 30
0.0
 11
-371.3949279785156
 21
273.4698486328125
 31
0.0
  0
LINE
  5
25C
330
22
100
AcDbEntity
  8
0
  6
Continuous
 62
     7
100
AcDbLine
 10
-376.8881225585938
 20
278.4327087402344
 30
0.0
 11
-371.644775390625
 21
273.1893615722656
 31
0.0
  0
LINE
  5
25D
330
22
100
AcDbEntity
  8
0
  6
Continuous
 62
     7
100
AcDbLine
 10
-376.8881225585938
 20
276.8417053222655
 30
0.0
 11
-372.4801940917969
 21
272.4337768554688
 31
0.0
  0
LINE
  5
25E
330
22
100
AcDbEntity
  8
0
  6
Continuous
 62
     7
100
AcDbLine
 10
-376.8881225585938
 20
276.3113708496094
 30
0.0
 11
-372.7890014648438
 21
272.2122497558594
 31
0.0
  0
LINE
  5
25F
330
22
100
AcDbEntity
  8
0
  6
Continuous
 62
     7
100
AcDbLine
 10
-377.0744018554688
 20
274.9066772460938
 30
0.0
 11
-373.7890319824219
 21
271.6213073730469
 31
0.0
  0
LINE
  5
260
330
22
100
AcDbEntity
  8
0
  6
Continuous
 62
     7
100
AcDbLine
 10
-377.1996154785156
 20
274.5015563964845
 30
0.0
 11
-374.125244140625
 21
271.4271850585938
 31
0.0
  0
LINE
  5
261
330
22
100
AcDbEntity
  8
0
  6
Continuous
 62
     7
100
AcDbLine
 10
-377.7197265625
 20
273.4306945800781
 30
0.0
 11
-375.1339111328125
 21
270.8448486328125
 31
0.0
  0
LINE
  5
262
330
22
100
AcDbEntity
  8
0
  6
Continuous
 62
     7
100
AcDbLine
 10
-377.9527282714844
 20
273.1333618164063
 30
0.0
 11
-375.4701232910156
 21
270.6507568359375
 31
0.0
  0
LINE
  5
263
330
22
100
AcDbEntity
  8
0
  6
Continuous
 62
     7
100
AcDbLine
 10
-378.7398986816406
 20
272.3295288085938
 30
0.0
 11
-376.478759765625
 21
270.0683898925781
 31
0.0
  0
LINE
  5
264
330
22
100
AcDbEntity
  8
0
  6
Continuous
 62
     7
100
AcDbLine
 10
-379.0325622558594
 20
272.0918579101563
 30
0.0
 11
-376.8149719238281
 21
269.8742980957031
 31
0.0
  0
LINE
  5
265
330
22
100
AcDbEntity
  8
0
  6
Continuous
 62
     7
100
AcDbLine
 10
-380.019775390625
 20
271.4880981445313
 30
0.0
 11
-377.8236389160156
 21
269.2919311523438
 31
0.0
  0
LINE
  5
266
330
22
100
AcDbEntity
  8
0
  6
Continuous
 62
     7
100
AcDbLine
 10
-380.3559875488281
 20
271.2939758300781
 30
0.0
 11
-378.1598510742188
 21
269.0978393554688
 31
0.0
  0
LINE
  5
267
330
22
100
AcDbEntity
  8
0
  6
Continuous
 62
     7
100
AcDbLine
 10
-381.3646545410156
 20
270.7116394042969
 30
0.0
 11
-379.1684875488281
 21
268.5154724121094
 31
0.0
  0
LINE
  5
268
330
22
100
AcDbEntity
  8
0
  6
Continuous
 62
     7
100
AcDbLine
 10
-381.7008666992188
 20
270.5175170898438
 30
0.0
 11
-379.5046997070313
 21
268.3213806152344
 31
0.0
  0
LINE
  5
269
330
22
100
AcDbEntity
  8
0
  6
Continuous
 62
     7
100
AcDbLine
 10
-382.7095031738281
 20
269.9351806640625
 30
0.0
 11
-380.5133666992188
 21
267.739013671875
 31
0.0
  0
LINE
  5
26A
330
22
100
AcDbEntity
  8
0
  6
Continuous
 62
     7
100
AcDbLine
 10
-383.0457153320313
 20
269.7410583496094
 30
0.0
 11
-380.8495788574219
 21
267.544921875
 31
0.0
  0
LINE
  5
26B
330
22
100
AcDbEntity
  8
0
  6
Continuous
 62
     7
100
AcDbLine
 10
-384.0543823242188
 20
269.1587219238281
 30
0.0
 11
-381.8582153320313
 21
266.9625854492188
 31
0.0
  0
LINE
  5
26C
330
22
100
AcDbEntity
  8
0
  6
Continuous
 62
     7
100
AcDbLine
 10
-384.3905944824219
 20
268.964599609375
 30
0.0
 11
-382.1944274902344
 21
266.7684631347656
 31
0.0
  0
LINE
  5
26D
330
22
100
AcDbEntity
  8
0
  6
Continuous
 62
     7
100
AcDbLine
 10
-385.3992309570313
 20
268.3822631835938
 30
0.0
 11
-383.2030944824219
 21
266.1861267089844
 31
0.0
  0
LINE
  5
26E
330
22
100
AcDbEntity
  8
0
  6
Continuous
 62
     7
100
AcDbLine
 10
-385.7354431152344
 20
268.1881408691406
 30
0.0
 11
-383.539306640625
 21
265.9920043945313
 31
0.0
  0
LINE
  5
26F
330
22
100
AcDbEntity
  8
0
  6
Continuous
 62
     7
100
AcDbLine
 10
-386.7441101074219
 20
267.6058044433594
 30
0.0
 11
-384.5479431152344
 21
265.40966796875
 31
0.0
  0
LINE
  5
270
330
22
100
AcDbEntity
  8
0
  6
Continuous
 62
     7
100
AcDbLine
 10
-387.080322265625
 20
267.4116821289063
 30
0.0
 11
-384.8841552734375
 21
265.2155456542969
 31
0.0
  0
LINE
  5
271
330
22
100
AcDbEntity
  8
0
  6
Continuous
 62
     7
100
AcDbLine
 10
-388.0889587402344
 20
266.829345703125
 30
0.0
 11
-385.892822265625
 21
264.6332092285156
 31
0.0
  0
LINE
  5
272
330
22
100
AcDbEntity
  8
0
  6
Continuous
 62
     7
100
AcDbLine
 10
-388.4251708984375
 20
266.6352233886719
 30
0.0
 11
-386.2290344238281
 21
264.4390869140625
 31
0.0
  0
LINE
  5
273
330
22
100
AcDbEntity
  8
0
  6
Continuous
 62
     7
100
AcDbLine
 10
-389.433837890625
 20
266.0528869628906
 30
0.0
 11
-387.2376708984375
 21
263.8567504882813
 31
0.0
  0
LINE
  5
274
330
22
100
AcDbEntity
  8
0
  6
Continuous
 62
     7
100
AcDbLine
 10
-389.7700500488281
 20
265.8587951660156
 30
0.0
 11
-387.5738830566406
 21
263.6626281738281
 31
0.0
  0
LINE
  5
275
330
22
100
AcDbEntity
  8
0
  6
Continuous
 62
     7
100
AcDbLine
 10
-390.7786865234375
 20
265.2764282226563
 30
0.0
 11
-388.5825500488281
 21
263.0802917480469
 31
0.0
  0
LINE
  5
276
330
22
100
AcDbEntity
  8
0
  6
Continuous
 62
     7
100
AcDbLine
 10
-391.1148986816406
 20
265.0823364257813
 30
0.0
 11
-388.9187622070313
 21
262.8861694335938
 31
0.0
  0
LINE
  5
277
330
22
100
AcDbEntity
  8
0
  6
Continuous
 62
     7
100
AcDbLine
 10
-392.1235656738281
 20
264.4999694824219
 30
0.0
 11
-389.9273986816406
 21
262.3038330078125
 31
0.0
  0
LINE
  5
278
330
22
100
AcDbEntity
  8
0
  6
Continuous
 62
     7
100
AcDbLine
 10
-392.4597778320313
 20
264.3058776855469
 30
0.0
 11
-390.2636108398438
 21
262.1097106933594
 31
0.0
  0
LINE
  5
279
330
22
100
AcDbEntity
  8
0
  6
Continuous
 62
     7
100
AcDbLine
 10
-393.4684143066406
 20
263.7235107421875
 30
0.0
 11
-391.2722778320313
 21
261.5273742675781
 31
0.0
  0
LINE
  5
27A
330
22
100
AcDbEntity
  8
0
  6
Continuous
 62
     7
100
AcDbLine
 10
-393.8046264648438
 20
263.5294189453125
 30
0.0
 11
-391.6084899902344
 21
261.333251953125
 31
0.0
  0
LINE
  5
27B
330
22
100
AcDbEntity
  8
0
  6
Continuous
 62
     7
100
AcDbLine
 10
-394.8132934570313
 20
262.947052001953
 30
0.0
 11
-392.6171264648438
 21
260.7509155273438
 31
0.0
  0
LINE
  5
27C
330
22
100
AcDbEntity
  8
0
  6
Continuous
 62
     7
100
AcDbLine
 10
-395.1495056152344
 20
262.7529602050781
 30
0.0
 11
-392.9533386230469
 21
260.5567932128906
 31
0.0
  0
LINE
  5
27D
330
22
100
AcDbEntity
  8
0
  6
Continuous
 62
     7
100
AcDbLine
 10
-396.1581420898438
 20
262.1706237792969
 30
0.0
 11
-393.9620056152344
 21
259.9744567871094
 31
0.0
  0
LINE
  5
27E
330
22
100
AcDbEntity
  8
0
  6
Continuous
 62
     7
100
AcDbLine
 10
-396.4943542480469
 20
261.9765014648438
 30
0.0
 11
-394.2982177734375
 21
259.7803344726563
 31
0.0
  0
LINE
  5
27F
330
22
100
AcDbEntity
  8
0
  6
Continuous
 62
     7
100
AcDbLine
 10
-397.5030212402344
 20
261.3941650390625
 30
0.0
 11
-395.3068542480469
 21
259.197998046875
 31
0.0
  0
LINE
  5
280
330
22
100
AcDbEntity
  8
0
  6
Continuous
 62
     7
100
AcDbLine
 10
-397.8392333984375
 20
261.2000427246094
 30
0.0
 11
-395.64306640625
 21
259.0038757324219
 31
0.0
  0
LINE
  5
281
330
22
100
AcDbEntity
  8
0
  6
Continuous
 62
     7
100
AcDbLine
 10
-398.8478698730469
 20
260.6177062988281
 30
0.0
 11
-396.6517028808594
 21
258.4215393066406
 31
0.0
  0
LINE
  5
282
330
22
100
AcDbEntity
  8
0
  6
Continuous
 62
     7
100
AcDbLine
 10
-399.18408203125
 20
260.423583984375
 30
0.0
 11
-396.9879455566406
 21
258.2274169921875
 31
0.0
  0
LINE
  5
283
330
22
100
AcDbEntity
  8
0
  6
Continuous
 62
     7
100
AcDbLine
 10
-400.1927185058593
 20
259.8412475585938
 30
0.0
 11
-397.9472351074219
 21
257.5957336425781
 31
0.0
  0
LINE
  5
284
330
22
100
AcDbEntity
  8
0
  6
Continuous
 62
     7
100
AcDbLine
 10
-400.5289611816406
 20
259.6471252441406
 30
0.0
 11
-398.2440490722656
 21
257.3622436523438
 31
0.0
  0
LINE
  5
285
330
22
100
AcDbEntity
  8
0
  6
Continuous
 62
     7
100
AcDbLine
 10
-401.5375976562499
 20
259.0647888183594
 30
0.0
 11
-398.9806518554688
 21
256.5078125
 31
0.0
  0
LINE
  5
286
330
22
100
AcDbEntity
  8
0
  6
Continuous
 62
     7
100
AcDbLine
 10
-401.8738098144531
 20
258.8706665039063
 30
0.0
 11
-399.1839904785156
 21
256.1808471679688
 31
0.0
  0
LINE
  5
287
330
22
100
AcDbEntity
  8
0
  6
Continuous
 62
     7
100
AcDbLine
 10
-402.8824462890624
 20
258.288330078125
 30
0.0
 11
-399.673095703125
 21
255.0789642333984
 31
0.0
  0
LINE
  5
288
330
22
100
AcDbEntity
  8
0
  6
Continuous
 62
     7
100
AcDbLine
 10
-403.2186889648437
 20
258.094207763672
 30
0.0
 11
-399.769775390625
 21
254.6452941894531
 31
0.0
  0
LINE
  5
289
330
22
100
AcDbEntity
  8
0
  6
Continuous
 62
     7
100
AcDbLine
 10
-404.2273254394531
 20
257.5118713378905
 30
0.0
 11
-399.8881225585938
 21
253.1726531982422
 31
0.0
  0
LINE
  5
28A
330
22
100
AcDbEntity
  8
0
  6
Continuous
 62
     7
100
AcDbLine
 10
-404.5635375976563
 20
257.3177490234375
 30
0.0
 11
-399.8881225585938
 21
252.642333984375
 31
0.0
  0
LINE
  5
28B
330
22
100
AcDbEntity
  8
0
  6
Continuous
 62
     7
100
AcDbLine
 10
-405.5721740722656
 20
256.7354125976563
 30
0.0
 11
-399.8881225585938
 21
251.0513458251953
 31
0.0
  0
LINE
  5
28C
330
22
100
AcDbEntity
  8
0
  6
Continuous
 62
     7
100
AcDbLine
 10
-405.9084167480468
 20
256.5412902832031
 30
0.0
 11
-399.8881225585938
 21
250.5210113525391
 31
0.0
  0
LINE
  5
28D
330
22
100
AcDbEntity
  8
0
  6
Continuous
 62
     7
100
AcDbLine
 10
-403.729248046875
 20
252.7711334228516
 30
0.0
 11
-399.8881225585938
 21
248.9300231933594
 31
0.0
  0
LINE
  5
28E
330
22
100
AcDbEntity
  8
0
  6
Continuous
 62
     7
100
AcDbLine
 10
-406.9133911132813
 20
255.9552917480469
 30
0.0
 11
-404.1075439453124
 21
253.1494598388672
 31
0.0
  0
LINE
  5
28F
330
22
100
AcDbEntity
  8
0
  6
Continuous
 62
     7
100
AcDbLine
 10
-403.3509826660155
 20
251.862548828125
 30
0.0
 11
-399.8881225585938
 21
248.3996887207031
 31
0.0
  0
LINE
  5
290
330
22
100
AcDbEntity
  8
0
  6
Continuous
 62
     7
100
AcDbLine
 10
-407.1909484863281
 20
255.7025146484375
 30
0.0
 11
-405.0183105468749
 21
253.5298767089844
 31
0.0
  0
LINE
  5
291
330
22
100
AcDbEntity
  8
0
  6
Continuous
 62
     7
100
AcDbLine
 10
-403.2961120605468
 20
250.2167053222656
 30
0.0
 11
-399.8881225585938
 21
246.8087005615234
 31
0.0
  0
LINE
  5
292
330
22
100
AcDbEntity
  8
0
  6
Continuous
 62
     7
100
AcDbLine
 10
-407.3080749511718
 20
254.2286682128906
 30
0.0
 11
-406.7278442382812
 21
253.6484375
 31
0.0
  0
LINE
  5
293
330
22
100
AcDbEntity
  8
0
  6
Continuous
 62
     7
100
AcDbLine
 10
-403.2961120605468
 20
249.6863708496094
 30
0.0
 11
-399.8881225585938
 21
246.2783660888672
 31
0.0
  0
LINE
  5
294
330
22
100
AcDbEntity
  8
0
  6
Continuous
 62
     7
100
AcDbLine
 10
-403.2961120605468
 20
248.0953826904297
 30
0.0
 11
-399.8881225585938
 21
244.6873779296875
 31
0.0
  0
LINE
  5
295
330
22
100
AcDbEntity
  8
0
  6
Continuous
 62
     7
100
AcDbLine
 10
-403.4551696777343
 20
247.7241058349609
 30
0.0
 11
-399.8881225585938
 21
244.1570434570313
 31
0.0
  0
LINE
  5
296
330
22
100
AcDbEntity
  8
0
  6
Continuous
 62
     7
100
AcDbLine
 10
-403.7925720214843
 20
246.4705047607422
 30
0.0
 11
-399.8881225585938
 21
242.5660552978516
 31
0.0
  0
LINE
  5
297
330
22
100
AcDbEntity
  8
0
  6
Continuous
 62
     7
100
AcDbLine
 10
-403.7754516601562
 20
245.9230651855469
 30
0.0
 11
-399.8881225585938
 21
242.0357208251953
 31
0.0
  0
LINE
  5
298
330
22
100
AcDbEntity
  8
0
  6
Continuous
 62
     7
100
AcDbLine
 10
-403.72412109375
 20
244.28076171875
 30
0.0
 11
-399.8881225585938
 21
240.4447326660156
 31
0.0
  0
LINE
  5
299
330
22
100
AcDbEntity
  8
0
  6
Continuous
 62
     7
100
AcDbLine
 10
-403.70703125
 20
243.7333221435547
 30
0.0
 11
-399.8881225585938
 21
239.9144134521484
 31
0.0
  0
LINE
  5
29A
330
22
100
AcDbEntity
  8
0
  6
Continuous
 62
     7
100
AcDbLine
 10
-403.6557006835938
 20
242.0910034179688
 30
0.0
 11
-399.8881225585938
 21
238.3234100341797
 31
0.0
  0
LINE
  5
29B
330
22
100
AcDbEntity
  8
0
  6
Continuous
 62
     7
100
AcDbLine
 10
-403.6385803222656
 20
241.5435638427734
 30
0.0
 11
-399.8881225585938
 21
237.7930908203125
 31
0.0
  0
LINE
  5
29C
330
22
100
AcDbEntity
  8
0
  6
Continuous
 62
     7
100
AcDbLine
 10
-403.5872802734375
 20
239.9012451171875
 30
0.0
 11
-399.8881225585938
 21
236.2021026611328
 31
0.0
  0
LINE
  5
29D
330
22
100
AcDbEntity
  8
0
  6
Continuous
 62
     7
100
AcDbLine
 10
-403.5701599121093
 20
239.3538055419922
 30
0.0
 11
-399.8881225585938
 21
235.6717681884766
 31
0.0
  0
LINE
  5
29E
330
22
100
AcDbEntity
  8
0
  6
Continuous
 62
     7
100
AcDbLine
 10
-403.518829345703
 20
237.7115020751953
 30
0.0
 11
-399.8881225585938
 21
234.0807800292969
 31
0.0
  0
LINE
  5
29F
330
22
100
AcDbEntity
  8
0
  6
Continuous
 62
     7
100
AcDbLine
 10
-403.5017395019531
 20
237.1640625
 30
0.0
 11
-399.8881225585938
 21
233.5504455566406
 31
0.0
  0
LINE
  5
2A0
330
22
100
AcDbEntity
  8
0
  6
Continuous
 62
     7
100
AcDbLine
 10
-403.4504089355468
 20
235.5217437744141
 30
0.0
 11
-399.8881225585938
 21
231.9594573974609
 31
0.0
  0
LINE
  5
2A1
330
22
100
AcDbEntity
  8
0
  6
Continuous
 62
     7
100
AcDbLine
 10
-403.4332885742188
 20
234.9743041992188
 30
0.0
 11
-399.9659729003906
 21
231.5069885253906
 31
0.0
  0
LINE
  5
2A2
330
22
100
AcDbEntity
  8
0
  6
Continuous
 62
     7
100
AcDbLine
 10
-403.3819580078125
 20
233.3319854736328
 30
0.0
 11
-400.7614746093749
 21
230.7114868164063
 31
0.0
  0
LINE
  5
2A3
330
22
100
AcDbEntity
  8
0
  6
Continuous
 62
     7
100
AcDbLine
 10
-403.3648681640625
 20
232.7845458984375
 30
0.0
 11
-401.1651611328124
 21
230.5848388671875
 31
0.0
  0
LINE
  5
2A4
330
22
100
AcDbEntity
  8
0
  6
Continuous
 62
     7
100
AcDbLine
 10
-403.3135375976563
 20
231.1422271728516
 30
0.0
 11
-402.7561340332031
 21
230.5848388671875
 31
0.0
  0
LINE
  5
2A5
330
22
100
AcDbEntity
  8
0
  6
Continuous
 62
     7
100
AcDbLine
 10
-403.2964172363281
 20
230.5948028564453
 30
0.0
 11
-403.2864685058593
 21
230.5848388671875
 31
0.0
  0
LINE
  5
2A6
330
22
100
AcDbEntity
  8
0
  6
Continuous
 62
     7
100
AcDbLine
 10
-379.3881225585938
 20
271.852783203125
 30
0.0
 11
-406.8881225585938
 21
255.9756622314453
 31
0.0
  0
LINE
  5
2A7
330
22
100
AcDbEntity
  8
0
  6
CENTER
 62
     7
100
AcDbLine
 10
-440.8881225585938
 20
96.62042999267578
 30
0.0
 11
-440.8881225585938
 21
293.6087341308594
 31
0.0
  0
LINE
  5
2A8
330
22
100
AcDbEntity
  8
0
  6
Continuous
 62
     7
100
AcDbLine
 10
-372.8881225585938
 20
272.1414489746095
 30
0.0
 11
-397.3881225585938
 21
257.9963684082031
 31
0.0
  0
LINE
  5
2A9
330
22
100
AcDbEntity
  8
0
  6
Continuous
 62
     7
100
AcDbLine
 10
-531.3881225585938
 20
133.0848388671875
 30
0.0
 11
-487.3881225585938
 21
133.0848388671875
 31
0.0
  0
LINE
  5
2AA
330
22
100
AcDbEntity
  8
0
  6
Continuous
 62
     7
100
AcDbLine
 10
-467.8372497558593
 20
230.5848388671875
 30
0.0
 11
-467.8372497558593
 21
256.6942749023438
 31
0.0
  0
LINE
  5
2AB
330
22
100
AcDbEntity
  8
0
  6
Continuous
 62
     7
100
AcDbLine
 10
-481.0651550292968
 20
254.9561920166016
 30
0.0
 11
-473.3995666503906
 21
254.9561920166016
 31
0.0
  0
LINE
  5
2AC
330
22
100
AcDbEntity
  8
0
  6
Continuous
 62
     7
100
AcDbLine
 10
-471.8794860839843
 20
230.5848388671875
 30
0.0
 11
-471.8794860839843
 21
256.6942749023438
 31
0.0
  0
LINE
  5
2AD
330
22
100
AcDbEntity
  8
0
  6
Continuous
 62
     7
100
AcDbLine
 10
-481.8881225585938
 20
231.5848388671875
 30
0.0
 11
-481.8881225585938
 21
253.666259765625
 31
0.0
  0
LINE
  5
2AE
330
22
100
AcDbEntity
  8
0
  6
Continuous
 62
     7
100
AcDbLine
 10
-529.8881225585938
 20
136.5848388671875
 30
0.0
 11
-486.8881225585938
 21
136.5848388671875
 31
0.0
  0
LINE
  5
2AF
330
22
100
AcDbEntity
  8
0
  6
Continuous
 62
     7
100
AcDbLine
 10
-482.3881225585938
 20
115.0848388671875
 30
0.0
 11
-484.3881225585938
 21
115.0848388671875
 31
0.0
  0
LINE
  5
2B0
330
22
100
AcDbEntity
  8
0
  6
Continuous
 62
     7
100
AcDbLine
 10
-479.0381164550781
 20
198.7000274658203
 30
0.0
 11
-479.0381164550781
 21
220.1386108398438
 31
0.0
  0
LINE
  5
2B1
330
22
100
AcDbEntity
  8
0
  6
Continuous
 62
     7
100
AcDbLine
 10
-517.3881225585938
 20
285.5848388671875
 30
0.0
 11
-364.3881225585938
 21
285.5848388671875
 31
0.0
  0
LINE
  5
2B2
330
22
100
AcDbEntity
  8
0
  6
Continuous
 62
     7
100
AcDbLine
 10
-481.3881225585937
 20
100.5848388671875
 30
0.0
 11
-400.3881225585938
 21
100.5848388671875
 31
0.0
  0
LINE
  5
2B3
330
22
100
AcDbEntity
  8
0
  6
Continuous
 62
     7
100
AcDbLine
 10
-466.0304565429687
 20
254.9561920166016
 30
0.0
 11
-440.8881225585938
 21
254.9561920166016
 31
0.0
  0
LINE
  5
2B4
330
22
100
AcDbEntity
  8
0
  6
CENTER
 62
     7
100
AcDbLine
 10
-343.9315490722656
 20
443.1767272949218
 30
0.0
 11
-538.1996459960938
 21
443.1767272949218
 31
0.0
  0
LINE
  5
2B5
330
22
100
AcDbEntity
  8
0
  6
Continuous
 62
     7
100
AcDbLine
 10
-440.8881225585938
 20
281.5848388671875
 30
0.0
 11
-517.3881225585938
 21
281.5848388671875
 31
0.0
  0
LINE
  5
2B6
330
22
100
AcDbEntity
  8
0
  6
Continuous
 62
     7
100
AcDbLine
 10
-507.8433532714844
 20
273.9715881347656
 30
0.0
 11
-440.8881225585938
 21
273.9715881347656
 31
0.0
  0
LINE
  5
2B7
330
22
100
AcDbEntity
  8
0
  6
Continuous
 62
     7
100
AcDbLine
 10
-483.3881225585938
 20
133.0848388671875
 30
0.0
 11
-440.8881225585938
 21
133.0848388671875
 31
0.0
  0
LINE
  5
2B8
330
22
100
AcDbEntity
  8
0
  6
Continuous
 62
     7
100
AcDbLine
 10
-486.8881225585938
 20
136.5848388671875
 30
0.0
 11
-440.8881225585938
 21
136.5848388671875
 31
0.0
  0
LINE
  5
2B9
330
22
100
AcDbEntity
  8
0
  6
Continuous
 62
     7
100
AcDbLine
 10
-480.8881225585937
 20
168.5848388671875
 30
0.0
 11
-440.8881225585938
 21
168.5848388671875
 31
0.0
  0
LINE
  5
2BA
330
22
100
AcDbEntity
  8
0
  6
Continuous
 62
     7
100
AcDbLine
 10
-477.2918701171875
 20
221.8848419189453
 30
0.0
 11
-440.8881225585938
 21
221.8848419189453
 31
0.0
  0
LINE
  5
2BB
330
22
100
AcDbEntity
  8
0
  6
Continuous
 62
     7
100
AcDbLine
 10
-477.0031127929688
 20
196.4674987792969
 30
0.0
 11
-440.8881225585938
 21
196.4674987792969
 31
0.0
  0
LINE
  5
2BC
330
22
100
AcDbEntity
  8
0
  6
Continuous
 62
     7
100
AcDbLine
 10
-480.8881225585937
 20
230.5848388671875
 30
0.0
 11
-440.8881225585938
 21
230.5848388671875
 31
0.0
  0
LINE
  5
2BD
330
22
100
AcDbEntity
  8
0
  6
Continuous
 62
     7
100
AcDbLine
 10
-467.0806884765625
 20
231.5848388671875
 30
0.0
 11
-440.8881225585938
 21
231.5848388671875
 31
0.0
  0
LINE
  5
2BE
330
22
100
AcDbEntity
  8
0
  6
Continuous
 62
     7
100
AcDbLine
 10
-484.3881225585938
 20
257.9963684082031
 30
0.0
 11
-440.8881225585938
 21
257.9963684082031
 31
0.0
  0
LINE
  5
2BF
330
22
100
AcDbEntity
  8
0
  6
Continuous
 62
     7
100
AcDbLine
 10
-434.5997619628906
 20
282.5848388671875
 30
0.0
 11
-431.5997619628906
 21
285.5848388671875
 31
0.0
  0
ARC
  5
2C0
330
22
100
AcDbEntity
  8
0
  6
Continuous
 62
     7
100
AcDbCircle
 10
-395.2881164550781
 20
418.4478454589843
 30
0.0
 40
3.099999904632568
100
AcDbArc
 50
0.0
 51
90.00000000000019
  0
ARC
  5
2C1
330
22
100
AcDbEntity
  8
0
  6
Continuous
 62
     7
100
AcDbCircle
 10
-406.6881103515624
 20
418.9503479003906
 30
0.0
 40
3.099999904632568
100
AcDbArc
 50
180.0000000000004
 51
270.0000000000005
  0
ARC
  5
2C2
330
22
100
AcDbEntity
  8
0
  6
Continuous
 62
     7
100
AcDbCircle
 10
-406.6881103515624
 20
448.8752136230468
 30
0.0
 40
3.099999904632568
100
AcDbArc
 50
270.0000000000005
 51
0.0
  0
ARC
  5
2C3
330
22
100
AcDbEntity
  8
0
  6
Continuous
 62
     7
100
AcDbCircle
 10
-440.8881225585938
 20
461.8389892578124
 30
0.0
 40
3.099999904632568
100
AcDbArc
 50
90.00000000000019
 51
180.0000000000004
  0
ARC
  5
2C4
330
22
100
AcDbEntity
  8
0
  6
Continuous
 62
     7
100
AcDbCircle
 10
-441.6498107910156
 20
463.5072937011718
 30
0.0
 40
41.40766525268555
100
AcDbArc
 50
88.94599283081708
 51
93.23725264777358
  0
ARC
  5
2C5
330
22
100
AcDbEntity
  8
0
  6
Continuous
 62
     7
100
AcDbCircle
 10
-440.8881225585938
 20
424.4845581054688
 30
0.0
 40
3.099999904632568
100
AcDbArc
 50
180.0000000000004
 51
270.0000000000005
  0
ARC
  5
2C6
330
22
100
AcDbEntity
  8
0
  6
Continuous
 62
     7
100
AcDbCircle
 10
-440.8881225585938
 20
437.478271484375
 30
0.0
 40
3.099999904632568
100
AcDbArc
 50
90.00000000000019
 51
180.0000000000004
  0
ARC
  5
2C7
330
22
100
AcDbEntity
  8
0
  6
Continuous
 62
     7
100
AcDbCircle
 10
-440.8881225585938
 20
473.0389709472656
 30
0.0
 40
3.099999904632568
100
AcDbArc
 50
180.0000000000004
 51
270.0000000000005
  0
ARC
  5
2C8
330
22
100
AcDbEntity
  8
0
  6
Continuous
 62
     7
100
AcDbCircle
 10
-440.8881225585938
 20
391.0165100097657
 30
0.0
 40
3.099999904632568
100
AcDbArc
 50
180.0000000000004
 51
270.0000000000005
  0
ARC
  5
2C9
330
22
100
AcDbEntity
  8
0
  6
Continuous
 62
     7
100
AcDbCircle
 10
-440.8881225585938
 20
413.2845458984375
 30
0.0
 40
3.099999904632568
100
AcDbArc
 50
90.00000000000019
 51
180.0000000000004
  0
ARC
  5
2CA
330
22
100
AcDbEntity
  8
0
  6
Continuous
 62
     7
100
AcDbCircle
 10
-440.8881225585938
 20
448.8752136230468
 30
0.0
 40
3.099999904632568
100
AcDbArc
 50
180.0000000000004
 51
270.0000000000005
  0
ARC
  5
2CB
330
22
100
AcDbEntity
  8
0
  6
Continuous
 62
     7
100
AcDbCircle
 10
-395.2881164550781
 20
429.6704101562499
 30
0.0
 40
3.099999904632568
100
AcDbArc
 50
180.0000000000004
 51
270.0000000000005
  0
ARC
  5
2CC
330
22
100
AcDbEntity
  8
0
  6
Continuous
 62
     7
100
AcDbCircle
 10
-395.2881164550781
 20
429.6704101562499
 30
0.0
 40
3.099999904632568
100
AcDbArc
 50
270.0000000000005
 51
0.0
  0
ARC
  5
2CD
330
22
100
AcDbEntity
  8
0
  6
Continuous
 62
     7
100
AcDbCircle
 10
-395.2881164550781
 20
456.6830749511718
 30
0.0
 40
3.099999904632568
100
AcDbArc
 50
0.0
 51
90.00000000000019
  0
ARC
  5
2CE
330
22
100
AcDbEntity
  8
0
  6
Continuous
 62
     7
100
AcDbCircle
 10
-418.0881042480469
 20
426.6351928710937
 30
0.0
 40
3.099999904632568
100
AcDbArc
 50
270.0000000000005
 51
0.0
  0
ARC
  5
2CF
330
22
100
AcDbEntity
  8
0
  6
Continuous
 62
     7
100
AcDbCircle
 10
-395.2881164550781
 20
448.8752136230468
 30
0.0
 40
3.099999904632568
100
AcDbArc
 50
270.0000000000005
 51
0.0
  0
ARC
  5
2D0
330
22
100
AcDbEntity
  8
0
  6
Continuous
 62
     7
100
AcDbCircle
 10
-384.9881286621094
 20
447.7752075195312
 30
0.0
 40
2.0
100
AcDbArc
 50
180.0000000000004
 51
270.0000000000005
  0
ARC
  5
2D1
330
22
100
AcDbEntity
  8
0
  6
Continuous
 62
     7
100
AcDbCircle
 10
-418.0881042480469
 20
415.4352111816406
 30
0.0
 40
3.099999904632568
100
AcDbArc
 50
0.0
 51
90.00000000000019
  0
ARC
  5
2D2
330
22
100
AcDbEntity
  8
0
  6
Continuous
 62
     7
100
AcDbCircle
 10
-406.6881103515624
 20
407.7503356933593
 30
0.0
 40
3.099999904632568
100
AcDbArc
 50
90.00000000000019
 51
180.0000000000004
  0
ARC
  5
2D3
330
22
100
AcDbEntity
  8
0
  6
Continuous
 62
     7
100
AcDbCircle
 10
-385.4881286621094
 20
419.4950866699218
 30
0.0
 40
1.5
100
AcDbArc
 50
180.0000000000004
 51
338.1695850364264
  0
ARC
  5
2D4
330
22
100
AcDbEntity
  8
0
  6
Continuous
 62
     7
100
AcDbCircle
 10
-406.6881103515624
 20
418.9503479003906
 30
0.0
 40
3.099999904632568
100
AcDbArc
 50
270.0000000000005
 51
0.0
  0
ARC
  5
2D5
330
22
100
AcDbEntity
  8
0
  6
Continuous
 62
     7
100
AcDbCircle
 10
-406.6881103515624
 20
407.7503356933593
 30
0.0
 40
3.099999904632568
100
AcDbArc
 50
0.0
 51
90.00000000000019
  0
ARC
  5
2D6
330
22
100
AcDbEntity
  8
0
  6
Continuous
 62
     7
100
AcDbCircle
 10
-440.8606872558594
 20
443.1735839843749
 30
0.0
 40
61.72245407104492
100
AcDbArc
 50
336.8795356993048
 51
347.1329323095005
  0
ARC
  5
2D7
330
22
100
AcDbEntity
  8
0
  6
Continuous
 62
     7
100
AcDbCircle
 10
-440.8881225585938
 20
443.1767272949218
 30
0.0
 40
61.75
100
AcDbArc
 50
300.241368393614
 51
307.1604349674434
  0
ARC
  5
2D8
330
22
100
AcDbEntity
  8
0
  6
Continuous
 62
     7
100
AcDbCircle
 10
-395.2881164550781
 20
418.4478454589843
 30
0.0
 40
3.099999904632568
100
AcDbArc
 50
90.00000000000019
 51
180.0000000000004
  0
ARC
  5
2D9
330
22
100
AcDbEntity
  8
0
  6
Continuous
 62
     7
100
AcDbCircle
 10
-406.6881103515624
 20
437.478271484375
 30
0.0
 40
3.099999904632568
100
AcDbArc
 50
0.0
 51
90.00000000000019
  0
ARC
  5
2DA
330
22
100
AcDbEntity
  8
0
  6
Continuous
 62
     7
100
AcDbCircle
 10
-406.6881103515624
 20
467.4031372070313
 30
0.0
 40
3.099999904632568
100
AcDbArc
 50
0.0
 51
90.00000000000019
  0
ARC
  5
2DB
330
22
100
AcDbEntity
  8
0
  6
Continuous
 62
     7
100
AcDbCircle
 10
-440.8881225585938
 20
443.1767272949218
 30
0.0
 40
61.75
100
AcDbArc
 50
52.83958213695274
 51
59.75864586768553
  0
ARC
  5
2DC
330
22
100
AcDbEntity
  8
0
  6
Continuous
 62
     7
100
AcDbCircle
 10
-406.6881103515624
 20
478.6031494140624
 30
0.0
 40
3.099999904632568
100
AcDbArc
 50
270.0000000000005
 51
0.0
  0
ARC
  5
2DD
330
22
100
AcDbEntity
  8
0
  6
Continuous
 62
     7
100
AcDbCircle
 10
-406.6881103515624
 20
448.8752136230468
 30
0.0
 40
3.099999904632568
100
AcDbArc
 50
180.0000000000004
 51
270.0000000000005
  0
ARC
  5
2DE
330
22
100
AcDbEntity
  8
0
  6
Continuous
 62
     7
100
AcDbCircle
 10
-418.0881042480469
 20
448.8752136230468
 30
0.0
 40
3.099999904632568
100
AcDbArc
 50
270.0000000000005
 51
0.0
  0
ARC
  5
2DF
330
22
100
AcDbEntity
  8
0
  6
Continuous
 62
     7
100
AcDbCircle
 10
-418.0881042480469
 20
459.718292236328
 30
0.0
 40
3.099999904632568
100
AcDbArc
 50
0.0
 51
90.00000000000019
  0
ARC
  5
2E0
330
22
100
AcDbEntity
  8
0
  6
Continuous
 62
     7
100
AcDbCircle
 10
-406.6881103515624
 20
467.4031372070313
 30
0.0
 40
3.099999904632568
100
AcDbArc
 50
90.00000000000019
 51
180.0000000000004
  0
ARC
  5
2E1
330
22
100
AcDbEntity
  8
0
  6
Continuous
 62
     7
100
AcDbCircle
 10
-406.6881103515624
 20
478.6031494140624
 30
0.0
 40
3.099999904632568
100
AcDbArc
 50
180.0000000000004
 51
270.0000000000005
  0
ARC
  5
2E2
330
22
100
AcDbEntity
  8
0
  6
Continuous
 62
     7
100
AcDbCircle
 10
-418.0881042480469
 20
470.9182739257813
 30
0.0
 40
3.099999904632568
100
AcDbArc
 50
270.0000000000005
 51
0.0
  0
ARC
  5
2E3
330
22
100
AcDbEntity
  8
0
  6
Continuous
 62
     7
100
AcDbCircle
 10
-440.8881225585938
 20
443.1767272949218
 30
0.0
 40
61.75
100
AcDbArc
 50
313.4924636360759
 51
322.060852642977
  0
ARC
  5
2E4
330
22
100
AcDbEntity
  8
0
  6
Continuous
 62
     7
100
AcDbCircle
 10
-440.8881225585938
 20
443.1767272949218
 30
0.0
 40
61.75
100
AcDbArc
 50
313.4924636360759
 51
322.060852642977
  0
ARC
  5
2E5
330
22
100
AcDbEntity
  8
0
  6
Continuous
 62
     7
100
AcDbCircle
 10
-385.4881286621094
 20
466.8583679199218
 30
0.0
 40
1.5
100
AcDbArc
 50
21.83041496357428
 51
180.0000000000004
  0
ARC
  5
2E6
330
22
100
AcDbEntity
  8
0
  6
Continuous
 62
     7
100
AcDbCircle
 10
-395.2881164550781
 20
456.6830749511718
 30
0.0
 40
3.099999904632568
100
AcDbArc
 50
90.00000000000019
 51
180.0000000000004
  0
ARC
  5
2E7
330
22
100
AcDbEntity
  8
0
  6
Continuous
 62
     7
100
AcDbCircle
 10
-406.6881103515624
 20
437.478271484375
 30
0.0
 40
3.099999904632568
100
AcDbArc
 50
90.00000000000019
 51
180.0000000000004
  0
ARC
  5
2E8
330
22
100
AcDbEntity
  8
0
  6
Continuous
 62
     7
100
AcDbCircle
 10
-418.0881042480469
 20
437.478271484375
 30
0.0
 40
3.099999904632568
100
AcDbArc
 50
0.0
 51
90.00000000000019
  0
CIRCLE
  5
2E9
330
22
100
AcDbEntity
  8
0
  6
Continuous
 62
     7
100
AcDbCircle
 10
-388.3049011230469
 20
473.3304748535156
 30
0.0
 40
4.75
  0
ARC
  5
2EA
330
22
100
AcDbEntity
  8
0
  6
Continuous
 62
     7
100
AcDbCircle
 10
-440.8881225585938
 20
443.1767272949218
 30
0.0
 40
61.75
100
AcDbArc
 50
41.1459260227625
 51
46.50755585283746
  0
ARC
  5
2EB
330
22
100
AcDbEntity
  8
0
  6
Continuous
 62
     7
100
AcDbCircle
 10
-382.6881103515625
 20
447.7752075195312
 30
0.0
 40
2.0
100
AcDbArc
 50
270.0000000000005
 51
4.413255786758912
  0
ARC
  5
2EC
330
22
100
AcDbEntity
  8
0
  6
Continuous
 62
     7
100
AcDbCircle
 10
-395.2881164550781
 20
448.8752136230468
 30
0.0
 40
3.099999904632568
100
AcDbArc
 50
180.0000000000004
 51
270.0000000000005
  0
ARC
  5
2ED
330
22
100
AcDbEntity
  8
0
  6
Continuous
 62
     7
100
AcDbCircle
 10
-375.3881225585938
 20
276.4715881347656
 30
0.0
 40
5.0
100
AcDbArc
 50
299.9999304360001
 51
0.0
  0
ARC
  5
2EE
330
22
100
AcDbEntity
  8
0
  6
Continuous
 62
     7
100
AcDbCircle
 10
-381.8881225585938
 20
276.1829223632813
 30
0.0
 40
5.0
100
AcDbArc
 50
299.9999304360001
 51
0.0
  0
ARC
  5
2EF
330
22
100
AcDbEntity
  8
0
  6
Continuous
 62
     7
100
AcDbCircle
 10
-389.1415710449219
 20
274.8386840820313
 30
0.0
 40
5.0
100
AcDbArc
 50
300.0001052890317
 51
0.0
  0
ARC
  5
2F0
330
22
100
AcDbEntity
  8
0
  6
Continuous
 62
     7
100
AcDbCircle
 10
-384.9881286621094
 20
438.5782775878906
 30
0.0
 40
2.0
100
AcDbArc
 50
90.00000000000019
 51
180.0000000000004
  0
ARC
  5
2F1
330
22
100
AcDbEntity
  8
0
  6
Continuous
 62
     7
100
AcDbCircle
 10
-382.6881103515625
 20
438.5782775878906
 30
0.0
 40
2.0
100
AcDbArc
 50
355.5867442132418
 51
90.00000000000019
  0
ARC
  5
2F2
330
22
100
AcDbEntity
  8
0
  6
Continuous
 62
     7
100
AcDbCircle
 10
-395.2881164550781
 20
437.478271484375
 30
0.0
 40
3.099999904632568
100
AcDbArc
 50
0.0
 51
90.00000000000019
  0
ARC
  5
2F3
330
22
100
AcDbEntity
  8
0
  6
Continuous
 62
     7
100
AcDbCircle
 10
-395.2881164550781
 20
437.478271484375
 30
0.0
 40
3.099999904632568
100
AcDbArc
 50
90.00000000000019
 51
180.0000000000004
  0
ARC
  5
2F4
330
22
100
AcDbEntity
  8
0
  6
Continuous
 62
     7
100
AcDbCircle
 10
-440.8606872558594
 20
443.1799011230468
 30
0.0
 40
61.72245407104492
100
AcDbArc
 50
12.86706769050023
 51
23.12043824715554
  0
CIRCLE
  5
2F5
330
22
100
AcDbEntity
  8
0
  6
Continuous
 62
     7
100
AcDbCircle
 10
-388.3049011230469
 20
473.3304748535156
 30
0.0
 40
4.5
  0
ARC
  5
2F6
330
22
100
AcDbEntity
  8
0
  6
Continuous
 62
     7
100
AcDbCircle
 10
-396.3881225585938
 20
466.7830505371093
 30
0.0
 40
2.0
100
AcDbArc
 50
180.0000000000004
 51
0.0
  0
ARC
  5
2F7
330
22
100
AcDbEntity
  8
0
  6
Continuous
 62
     7
100
AcDbCircle
 10
-440.8881225585938
 20
391.0165100097657
 30
0.0
 40
3.099999904632568
100
AcDbArc
 50
270.0000000000005
 51
0.0
  0
ARC
  5
2F8
330
22
100
AcDbEntity
  8
0
  6
Continuous
 62
     7
100
AcDbCircle
 10
-377.3881225585938
 20
282.0848388671875
 30
0.0
 40
0.5
100
AcDbArc
 50
0.0
 51
90.00000000000019
  0
ARC
  5
2F9
330
22
100
AcDbEntity
  8
0
  6
Continuous
 62
     7
100
AcDbCircle
 10
-369.3881225585938
 20
280.5848388671875
 30
0.0
 40
1.0
100
AcDbArc
 50
90.00000000000019
 51
180.0000000000004
  0
ARC
  5
2FA
330
22
100
AcDbEntity
  8
0
  6
Continuous
 62
     7
100
AcDbCircle
 10
-364.3881225585938
 20
282.5848388671875
 30
0.0
 40
1.0
100
AcDbArc
 50
270.0000000000005
 51
0.0
  0
ARC
  5
2FB
330
22
100
AcDbEntity
  8
0
  6
Continuous
 62
     7
100
AcDbCircle
 10
-364.3881225585938
 20
284.5848388671875
 30
0.0
 40
1.0
100
AcDbArc
 50
0.0
 51
90.00000000000019
  0
ARC
  5
2FC
330
22
100
AcDbEntity
  8
0
  6
Continuous
 62
     7
100
AcDbCircle
 10
-376.3881225585938
 20
281.0848388671875
 30
0.0
 40
0.5
100
AcDbArc
 50
180.0000000000004
 51
270.0000000000005
  0
ARC
  5
2FD
330
22
100
AcDbEntity
  8
0
  6
Continuous
 62
     7
100
AcDbCircle
 10
-390.9080505371094
 20
270.1098937988281
 30
0.0
 40
1.783435225486754
100
AcDbArc
 50
214.6755591259454
 51
304.6750013410083
  0
ARC
  5
2FE
330
22
100
AcDbEntity
  8
0
  6
Continuous
 62
     7
100
AcDbCircle
 10
-440.8881225585938
 20
437.478271484375
 30
0.0
 40
3.099999904632568
100
AcDbArc
 50
0.0
 51
90.00000000000019
  0
ARC
  5
2FF
330
22
100
AcDbEntity
  8
0
  6
Continuous
 62
     7
100
AcDbCircle
 10
-440.8881225585938
 20
461.8389892578124
 30
0.0
 40
3.099999904632568
100
AcDbArc
 50
0.0
 51
90.00000000000019
  0
ARC
  5
300
330
22
100
AcDbEntity
  8
0
  6
Continuous
 62
     7
100
AcDbCircle
 10
-440.8881225585938
 20
448.8752136230468
 30
0.0
 40
3.099999904632568
100
AcDbArc
 50
270.0000000000005
 51
0.0
  0
ARC
  5
301
330
22
100
AcDbEntity
  8
0
  6
Continuous
 62
     7
100
AcDbCircle
 10
-440.8881225585938
 20
473.0389709472656
 30
0.0
 40
3.099999904632568
100
AcDbArc
 50
270.0000000000005
 51
0.0
  0
ARC
  5
302
330
22
100
AcDbEntity
  8
0
  6
Continuous
 62
     7
100
AcDbCircle
 10
-440.1264038085938
 20
463.5072937011718
 30
0.0
 40
41.40766525268555
100
AcDbArc
 50
86.76278951201853
 51
91.054049389199
  0
ARC
  5
303
330
22
100
AcDbEntity
  8
0
  6
Continuous
 62
     7
100
AcDbCircle
 10
-440.8881225585938
 20
413.2845458984375
 30
0.0
 40
3.099999904632568
100
AcDbArc
 50
0.0
 51
90.00000000000019
  0
ARC
  5
304
330
22
100
AcDbEntity
  8
0
  6
Continuous
 62
     7
100
AcDbCircle
 10
-429.4881286621094
 20
481.3844299316406
 30
0.0
 40
3.099999904632568
100
AcDbArc
 50
270.0000000000005
 51
0.0
  0
ARC
  5
305
330
22
100
AcDbEntity
  8
0
  6
Continuous
 62
     7
100
AcDbCircle
 10
-429.4881286621094
 20
437.478271484375
 30
0.0
 40
3.099999904632568
100
AcDbArc
 50
0.0
 51
90.00000000000019
  0
ARC
  5
306
330
22
100
AcDbEntity
  8
0
  6
Continuous
 62
     7
100
AcDbCircle
 10
-418.0881042480469
 20
415.4352111816406
 30
0.0
 40
3.099999904632568
100
AcDbArc
 50
90.00000000000019
 51
180.0000000000004
  0
ARC
  5
307
330
22
100
AcDbEntity
  8
0
  6
Continuous
 62
     7
100
AcDbCircle
 10
-429.4881286621094
 20
416.1690368652343
 30
0.0
 40
3.099999904632568
100
AcDbArc
 50
270.0000000000005
 51
0.0
  0
ARC
  5
308
330
22
100
AcDbEntity
  8
0
  6
Continuous
 62
     7
100
AcDbCircle
 10
-440.8881225585938
 20
443.1767272949218
 30
0.0
 40
61.75
100
AcDbArc
 50
288.604186950559
 51
294.79880762289
  0
ARC
  5
309
330
22
100
AcDbEntity
  8
0
  6
Continuous
 62
     7
100
AcDbCircle
 10
-440.8881225585938
 20
443.1767272949218
 30
0.0
 40
61.75
100
AcDbArc
 50
277.7246930988117
 51
283.5808894182943
  0
ARC
  5
30A
330
22
100
AcDbEntity
  8
0
  6
Continuous
 62
     7
100
AcDbCircle
 10
-429.4881286621094
 20
448.8752136230468
 30
0.0
 40
3.099999904632568
100
AcDbArc
 50
270.0000000000005
 51
0.0
  0
ARC
  5
30B
330
22
100
AcDbEntity
  8
0
  6
Continuous
 62
     7
100
AcDbCircle
 10
-429.4881286621094
 20
437.478271484375
 30
0.0
 40
3.099999904632568
100
AcDbArc
 50
90.00000000000019
 51
180.0000000000004
  0
ARC
  5
30C
330
22
100
AcDbEntity
  8
0
  6
Continuous
 62
     7
100
AcDbCircle
 10
-429.4881286621094
 20
448.8752136230468
 30
0.0
 40
3.099999904632568
100
AcDbArc
 50
180.0000000000004
 51
270.0000000000005
  0
ARC
  5
30D
330
22
100
AcDbEntity
  8
0
  6
Continuous
 62
     7
100
AcDbCircle
 10
-429.4881286621094
 20
481.3844299316406
 30
0.0
 40
3.099999904632568
100
AcDbArc
 50
180.0000000000004
 51
270.0000000000005
  0
ARC
  5
30E
330
22
100
AcDbEntity
  8
0
  6
Continuous
 62
     7
100
AcDbCircle
 10
-429.4881286621094
 20
416.1690368652343
 30
0.0
 40
3.099999904632568
100
AcDbArc
 50
180.0000000000004
 51
270.0000000000005
  0
ARC
  5
30F
330
22
100
AcDbEntity
  8
0
  6
Continuous
 62
     7
100
AcDbCircle
 10
-429.4881286621094
 20
404.9690246582031
 30
0.0
 40
3.099999904632568
100
AcDbArc
 50
90.00000000000019
 51
180.0000000000004
  0
ARC
  5
310
330
22
100
AcDbEntity
  8
0
  6
Continuous
 62
     7
100
AcDbCircle
 10
-429.4881286621094
 20
470.1844482421875
 30
0.0
 40
3.099999904632568
100
AcDbArc
 50
90.00000000000019
 51
180.0000000000004
  0
ARC
  5
311
330
22
100
AcDbEntity
  8
0
  6
Continuous
 62
     7
100
AcDbCircle
 10
-440.8881225585938
 20
424.4845581054688
 30
0.0
 40
3.099999904632568
100
AcDbArc
 50
270.0000000000005
 51
0.0
  0
ARC
  5
312
330
22
100
AcDbEntity
  8
0
  6
Continuous
 62
     7
100
AcDbCircle
 10
-400.8881225585938
 20
167.5848388671875
 30
0.0
 40
1.0
100
AcDbArc
 50
0.0
 51
90.00000000000019
  0
ARC
  5
313
330
22
100
AcDbEntity
  8
0
  6
Continuous
 62
     7
100
AcDbCircle
 10
-418.0881042480469
 20
470.9182739257813
 30
0.0
 40
3.099999904632568
100
AcDbArc
 50
180.0000000000004
 51
270.0000000000005
  0
ARC
  5
314
330
22
100
AcDbEntity
  8
0
  6
Continuous
 62
     7
100
AcDbCircle
 10
-440.8881225585938
 20
443.1767272949218
 30
0.0
 40
61.75
100
AcDbArc
 50
65.20120425388295
 51
71.39582208313102
  0
ARC
  5
315
330
22
100
AcDbEntity
  8
0
  6
Continuous
 62
     7
100
AcDbCircle
 10
-418.0881042480469
 20
437.478271484375
 30
0.0
 40
3.099999904632568
100
AcDbArc
 50
90.00000000000019
 51
180.0000000000004
  0
ARC
  5
316
330
22
100
AcDbEntity
  8
0
  6
Continuous
 62
     7
100
AcDbCircle
 10
-418.0881042480469
 20
448.8752136230468
 30
0.0
 40
3.099999904632568
100
AcDbArc
 50
180.0000000000004
 51
270.0000000000005
  0
ARC
  5
317
330
22
100
AcDbEntity
  8
0
  6
Continuous
 62
     7
100
AcDbCircle
 10
-429.4881286621094
 20
404.9690246582031
 30
0.0
 40
3.099999904632568
100
AcDbArc
 50
0.0
 51
90.00000000000019
  0
ARC
  5
318
330
22
100
AcDbEntity
  8
0
  6
Continuous
 62
     7
100
AcDbCircle
 10
-418.0881042480469
 20
426.6351928710937
 30
0.0
 40
3.099999904632568
100
AcDbArc
 50
180.0000000000004
 51
270.0000000000005
  0
ARC
  5
319
330
22
100
AcDbEntity
  8
0
  6
Continuous
 62
     7
100
AcDbCircle
 10
-440.8881225585938
 20
443.1767272949218
 30
0.0
 40
61.75
100
AcDbArc
 50
76.41911723086848
 51
82.27531070726701
  0
ARC
  5
31A
330
22
100
AcDbEntity
  8
0
  6
Continuous
 62
     7
100
AcDbCircle
 10
-418.0881042480469
 20
459.718292236328
 30
0.0
 40
3.099999904632568
100
AcDbArc
 50
90.00000000000019
 51
180.0000000000004
  0
ARC
  5
31B
330
22
100
AcDbEntity
  8
0
  6
Continuous
 62
     7
100
AcDbCircle
 10
-429.4881286621094
 20
470.1844482421875
 30
0.0
 40
3.099999904632568
100
AcDbArc
 50
0.0
 51
90.00000000000019
  0
ARC
  5
31C
330
22
100
AcDbEntity
  8
0
  6
Continuous
 62
     7
100
AcDbCircle
 10
-398.3881225585938
 20
132.0848388671875
 30
0.0
 40
1.0
100
AcDbArc
 50
90.00000000000019
 51
180.0000000000004
  0
ARC
  5
31D
330
22
100
AcDbEntity
  8
0
  6
Continuous
 62
     7
100
AcDbCircle
 10
-351.8881225585938
 20
134.5848388671875
 30
0.0
 40
2.0
100
AcDbArc
 50
0.0
 51
90.00000000000019
  0
ARC
  5
31E
330
22
100
AcDbEntity
  8
0
  6
Continuous
 62
     7
100
AcDbCircle
 10
-394.8881225585938
 20
141.5848388671875
 30
0.0
 40
5.0
100
AcDbArc
 50
180.0000000000004
 51
270.0000000000005
  0
ARC
  5
31F
330
22
100
AcDbEntity
  8
0
  6
Continuous
 62
     7
100
AcDbCircle
 10
-350.3881225585938
 20
133.5848388671875
 30
0.0
 40
0.5
100
AcDbArc
 50
270.0000000000005
 51
0.0
  0
ARC
  5
320
330
22
100
AcDbEntity
  8
0
  6
Continuous
 62
     7
100
AcDbCircle
 10
-406.3881225585937
 20
254.5848388671875
 30
0.0
 40
1.0
100
AcDbArc
 50
180.0000000000004
 51
270.0000000000005
  0
ARC
  5
321
330
22
100
AcDbEntity
  8
0
  6
Continuous
 62
     7
100
AcDbCircle
 10
-394.8881225585938
 20
253.666259765625
 30
0.0
 40
5.0
100
AcDbArc
 50
120.0001052890309
 51
180.0000000000004
  0
ARC
  5
322
330
22
100
AcDbEntity
  8
0
  6
Continuous
 62
     7
100
AcDbCircle
 10
-406.3881225585937
 20
255.1096343994141
 30
0.0
 40
1.0
100
AcDbArc
 50
119.9999304359993
 51
180.0000000000004
  0
ARC
  5
323
330
22
100
AcDbEntity
  8
0
  6
Continuous
 62
     7
100
AcDbCircle
 10
-405.2961120605468
 20
251.5848388671875
 30
0.0
 40
2.0
100
AcDbArc
 50
0.0
 51
90.00000000000019
  0
ARC
  5
324
330
22
100
AcDbEntity
  8
0
  6
Continuous
 62
     7
100
AcDbCircle
 10
-400.3881225585938
 20
101.5848388671875
 30
0.0
 40
1.0
100
AcDbArc
 50
270.0000000000005
 51
0.0
  0
ARC
  5
325
330
22
100
AcDbEntity
  8
0
  6
Continuous
 62
     7
100
AcDbCircle
 10
-403.7961120605468
 20
248.0848388671875
 30
0.0
 40
0.5
100
AcDbArc
 50
270.0000000000005
 51
0.0
  0
ARC
  5
326
330
22
100
AcDbEntity
  8
0
  6
Continuous
 62
     7
100
AcDbCircle
 10
-440.8881225585938
 20
443.1767272949218
 30
0.0
 40
61.75
100
AcDbArc
 50
97.72466123345221
 51
103.5808827691315
  0
ARC
  5
327
330
22
100
AcDbEntity
  8
0
  6
Continuous
 62
     7
100
AcDbCircle
 10
-452.288116455078
 20
437.478271484375
 30
0.0
 40
3.099999904632568
100
AcDbArc
 50
0.0
 51
90.00000000000019
  0
ARC
  5
328
330
22
100
AcDbEntity
  8
0
  6
Continuous
 62
     7
100
AcDbCircle
 10
-452.288116455078
 20
416.1690368652343
 30
0.0
 40
3.099999904632568
100
AcDbArc
 50
270.0000000000005
 51
0.0
  0
ARC
  5
329
330
22
100
AcDbEntity
  8
0
  6
Continuous
 62
     7
100
AcDbCircle
 10
-452.288116455078
 20
404.9690246582031
 30
0.0
 40
3.099999904632568
100
AcDbArc
 50
0.0
 51
90.00000000000019
  0
ARC
  5
32A
330
22
100
AcDbEntity
  8
0
  6
Continuous
 62
     7
100
AcDbCircle
 10
-440.8881225585938
 20
443.1767272949218
 30
0.0
 40
61.75
100
AcDbArc
 50
256.4191105817071
 51
262.275334960484
  0
ARC
  5
32B
330
22
100
AcDbEntity
  8
0
  6
Continuous
 62
     7
100
AcDbCircle
 10
-452.288116455078
 20
481.3844299316406
 30
0.0
 40
3.099999904632568
100
AcDbArc
 50
270.0000000000005
 51
0.0
  0
ARC
  5
32C
330
22
100
AcDbEntity
  8
0
  6
Continuous
 62
     7
100
AcDbCircle
 10
-452.288116455078
 20
470.1844482421875
 30
0.0
 40
3.099999904632568
100
AcDbArc
 50
0.0
 51
90.00000000000019
  0
ARC
  5
32D
330
22
100
AcDbEntity
  8
0
  6
Continuous
 62
     7
100
AcDbCircle
 10
-452.288116455078
 20
448.8752136230468
 30
0.0
 40
3.099999904632568
100
AcDbArc
 50
270.0000000000005
 51
0.0
  0
ARC
  5
32E
330
22
100
AcDbEntity
  8
0
  6
Continuous
 62
     7
100
AcDbCircle
 10
-475.0881042480468
 20
437.478271484375
 30
0.0
 40
3.099999904632568
100
AcDbArc
 50
0.0
 51
90.00000000000019
  0
ARC
  5
32F
330
22
100
AcDbEntity
  8
0
  6
Continuous
 62
     7
100
AcDbCircle
 10
-463.6881103515625
 20
415.4352111816406
 30
0.0
 40
3.099999904632568
100
AcDbArc
 50
90.00000000000019
 51
180.0000000000004
  0
ARC
  5
330
330
22
100
AcDbEntity
  8
0
  6
Continuous
 62
     7
100
AcDbCircle
 10
-463.6881103515625
 20
415.4352111816406
 30
0.0
 40
3.099999904632568
100
AcDbArc
 50
0.0
 51
90.00000000000019
  0
ARC
  5
331
330
22
100
AcDbEntity
  8
0
  6
Continuous
 62
     7
100
AcDbCircle
 10
-463.6881103515625
 20
459.718292236328
 30
0.0
 40
3.099999904632568
100
AcDbArc
 50
0.0
 51
90.00000000000019
  0
ARC
  5
332
330
22
100
AcDbEntity
  8
0
  6
Continuous
 62
     7
100
AcDbCircle
 10
-463.6881103515625
 20
448.8752136230468
 30
0.0
 40
3.099999904632568
100
AcDbArc
 50
270.0000000000005
 51
0.0
  0
ARC
  5
333
330
22
100
AcDbEntity
  8
0
  6
Continuous
 62
     7
100
AcDbCircle
 10
-463.6881103515625
 20
448.8752136230468
 30
0.0
 40
3.099999904632568
100
AcDbArc
 50
180.0000000000004
 51
270.0000000000005
  0
ARC
  5
334
330
22
100
AcDbEntity
  8
0
  6
Continuous
 62
     7
100
AcDbCircle
 10
-463.6881103515625
 20
459.718292236328
 30
0.0
 40
3.099999904632568
100
AcDbArc
 50
90.00000000000019
 51
180.0000000000004
  0
ARC
  5
335
330
22
100
AcDbEntity
  8
0
  6
Continuous
 62
     7
100
AcDbCircle
 10
-463.6881103515625
 20
470.9182739257813
 30
0.0
 40
3.099999904632568
100
AcDbArc
 50
270.0000000000005
 51
0.0
  0
ARC
  5
336
330
22
100
AcDbEntity
  8
0
  6
Continuous
 62
     7
100
AcDbCircle
 10
-440.8881225585938
 20
443.1767272949218
 30
0.0
 40
61.75
100
AcDbArc
 50
108.6041510802864
 51
114.7987957461171
  0
ARC
  5
337
330
22
100
AcDbEntity
  8
0
  6
Continuous
 62
     7
100
AcDbCircle
 10
-463.6881103515625
 20
470.9182739257813
 30
0.0
 40
3.099999904632568
100
AcDbArc
 50
180.0000000000004
 51
270.0000000000005
  0
ARC
  5
338
330
22
100
AcDbEntity
  8
0
  6
Continuous
 62
     7
100
AcDbCircle
 10
-463.6881103515625
 20
437.478271484375
 30
0.0
 40
3.099999904632568
100
AcDbArc
 50
90.00000000000019
 51
180.0000000000004
  0
ARC
  5
339
330
22
100
AcDbEntity
  8
0
  6
Continuous
 62
     7
100
AcDbCircle
 10
-463.6881103515625
 20
437.478271484375
 30
0.0
 40
3.099999904632568
100
AcDbArc
 50
0.0
 51
90.00000000000019
  0
ARC
  5
33A
330
22
100
AcDbEntity
  8
0
  6
Continuous
 62
     7
100
AcDbCircle
 10
-463.6881103515625
 20
426.6351928710937
 30
0.0
 40
3.099999904632568
100
AcDbArc
 50
270.0000000000005
 51
0.0
  0
ARC
  5
33B
330
22
100
AcDbEntity
  8
0
  6
Continuous
 62
     7
100
AcDbCircle
 10
-463.6881103515625
 20
426.6351928710937
 30
0.0
 40
3.099999904632568
100
AcDbArc
 50
180.0000000000004
 51
270.0000000000005
  0
ARC
  5
33C
330
22
100
AcDbEntity
  8
0
  6
Continuous
 62
     7
100
AcDbCircle
 10
-440.8881225585938
 20
443.1767272949218
 30
0.0
 40
61.75
100
AcDbArc
 50
245.2011923771113
 51
251.3958398860362
  0
ARC
  5
33D
330
22
100
AcDbEntity
  8
0
  6
Continuous
 62
     7
100
AcDbCircle
 10
-440.8881225585938
 20
443.1767272949218
 30
0.0
 40
61.75
100
AcDbArc
 50
232.8395875991237
 51
239.7586316063874
  0
ARC
  5
33E
330
22
100
AcDbEntity
  8
0
  6
Continuous
 62
     7
100
AcDbCircle
 10
-496.2881164550781
 20
419.4950866699218
 30
0.0
 40
1.5
100
AcDbArc
 50
201.8308484371596
 51
0.0
  0
ARC
  5
33F
330
22
100
AcDbEntity
  8
0
  6
Continuous
 62
     7
100
AcDbCircle
 10
-475.0881042480468
 20
418.9503479003906
 30
0.0
 40
3.099999904632568
100
AcDbArc
 50
270.0000000000005
 51
0.0
  0
ARC
  5
340
330
22
100
AcDbEntity
  8
0
  6
Continuous
 62
     7
100
AcDbCircle
 10
-475.0881042480468
 20
418.9503479003906
 30
0.0
 40
3.099999904632568
100
AcDbArc
 50
180.0000000000004
 51
270.0000000000005
  0
ARC
  5
341
330
22
100
AcDbEntity
  8
0
  6
Continuous
 62
     7
100
AcDbCircle
 10
-486.4881286621093
 20
418.4478454589843
 30
0.0
 40
3.099999904632568
100
AcDbArc
 50
0.0
 51
90.00000000000019
  0
ARC
  5
342
330
22
100
AcDbEntity
  8
0
  6
Continuous
 62
     7
100
AcDbCircle
 10
-486.4881286621093
 20
418.4478454589843
 30
0.0
 40
3.099999904632568
100
AcDbArc
 50
90.00000000000019
 51
180.0000000000004
  0
ARC
  5
343
330
22
100
AcDbEntity
  8
0
  6
Continuous
 62
     7
100
AcDbCircle
 10
-486.4881286621093
 20
429.6704101562499
 30
0.0
 40
3.099999904632568
100
AcDbArc
 50
180.0000000000004
 51
270.0000000000005
  0
ARC
  5
344
330
22
100
AcDbEntity
  8
0
  6
Continuous
 62
     7
100
AcDbCircle
 10
-440.8881225585938
 20
443.1767272949218
 30
0.0
 40
61.75
100
AcDbArc
 50
217.9391647665473
 51
226.5075363639255
  0
ARC
  5
345
330
22
100
AcDbEntity
  8
0
  6
Continuous
 62
     7
100
AcDbCircle
 10
-440.8881225585938
 20
443.1767272949218
 30
0.0
 40
61.75
100
AcDbArc
 50
221.1459046996004
 51
226.5075363639255
  0
ARC
  5
346
330
22
100
AcDbEntity
  8
0
  6
Continuous
 62
     7
100
AcDbCircle
 10
-475.0881042480468
 20
478.6031494140624
 30
0.0
 40
3.099999904632568
100
AcDbArc
 50
180.0000000000004
 51
270.0000000000005
  0
ARC
  5
347
330
22
100
AcDbEntity
  8
0
  6
Continuous
 62
     7
100
AcDbCircle
 10
-475.0881042480468
 20
448.8752136230468
 30
0.0
 40
3.099999904632568
100
AcDbArc
 50
180.0000000000004
 51
270.0000000000005
  0
ARC
  5
348
330
22
100
AcDbEntity
  8
0
  6
Continuous
 62
     7
100
AcDbCircle
 10
-475.0881042480468
 20
448.8752136230468
 30
0.0
 40
3.099999904632568
100
AcDbArc
 50
270.0000000000005
 51
0.0
  0
ARC
  5
349
330
22
100
AcDbEntity
  8
0
  6
Continuous
 62
     7
100
AcDbCircle
 10
-475.0881042480468
 20
478.6031494140624
 30
0.0
 40
3.099999904632568
100
AcDbArc
 50
270.0000000000005
 51
0.0
  0
ARC
  5
34A
330
22
100
AcDbEntity
  8
0
  6
Continuous
 62
     7
100
AcDbCircle
 10
-440.8881225585938
 20
443.1767272949218
 30
0.0
 40
61.75
100
AcDbArc
 50
120.2413541323145
 51
127.1603952964854
  0
ARC
  5
34B
330
22
100
AcDbEntity
  8
0
  6
Continuous
 62
     7
100
AcDbCircle
 10
-499.0881042480468
 20
447.7752075195312
 30
0.0
 40
2.0
100
AcDbArc
 50
175.586744213241
 51
270.0000000000005
  0
ARC
  5
34C
330
22
100
AcDbEntity
  8
0
  6
Continuous
 62
     7
100
AcDbCircle
 10
-440.8881225585938
 20
443.1767272949218
 30
0.0
 40
61.75
100
AcDbArc
 50
133.4924441471625
 51
138.8540739772375
  0
ARC
  5
34D
330
22
100
AcDbEntity
  8
0
  6
Continuous
 62
     7
100
AcDbCircle
 10
-486.4881286621093
 20
448.8752136230468
 30
0.0
 40
3.099999904632568
100
AcDbArc
 50
180.0000000000004
 51
270.0000000000005
  0
ARC
  5
34E
330
22
100
AcDbEntity
  8
0
  6
Continuous
 62
     7
100
AcDbCircle
 10
-475.0881042480468
 20
437.478271484375
 30
0.0
 40
3.099999904632568
100
AcDbArc
 50
90.00000000000019
 51
180.0000000000004
  0
ARC
  5
34F
330
22
100
AcDbEntity
  8
0
  6
Continuous
 62
     7
100
AcDbCircle
 10
-475.0881042480468
 20
467.4031372070313
 30
0.0
 40
3.099999904632568
100
AcDbArc
 50
90.00000000000019
 51
180.0000000000004
  0
ARC
  5
350
330
22
100
AcDbEntity
  8
0
  6
Continuous
 62
     7
100
AcDbCircle
 10
-475.0881042480468
 20
467.4031372070313
 30
0.0
 40
3.099999904632568
100
AcDbArc
 50
0.0
 51
90.00000000000019
  0
ARC
  5
351
330
22
100
AcDbEntity
  8
0
  6
Continuous
 62
     7
100
AcDbCircle
 10
-440.9155578613281
 20
443.1735839843749
 30
0.0
 40
61.72245407104492
100
AcDbArc
 50
192.867073999057
 51
203.1204754244764
  0
ARC
  5
352
330
22
100
AcDbEntity
  8
0
  6
Continuous
 62
     7
100
AcDbCircle
 10
-475.0881042480468
 20
407.7503356933593
 30
0.0
 40
3.099999904632568
100
AcDbArc
 50
90.00000000000019
 51
180.0000000000004
  0
ARC
  5
353
330
22
100
AcDbEntity
  8
0
  6
Continuous
 62
     7
100
AcDbCircle
 10
-475.0881042480468
 20
407.7503356933593
 30
0.0
 40
3.099999904632568
100
AcDbArc
 50
0.0
 51
90.00000000000019
  0
ARC
  5
354
330
22
100
AcDbEntity
  8
0
  6
Continuous
 62
     7
100
AcDbCircle
 10
-496.7881164550781
 20
438.5782775878906
 30
0.0
 40
2.0
100
AcDbArc
 50
0.0
 51
90.00000000000019
  0
ARC
  5
355
330
22
100
AcDbEntity
  8
0
  6
Continuous
 62
     7
100
AcDbCircle
 10
-499.0881042480468
 20
438.5782775878906
 30
0.0
 40
2.0
100
AcDbArc
 50
90.00000000000019
 51
184.4132557867596
  0
ARC
  5
356
330
22
100
AcDbEntity
  8
0
  6
Continuous
 62
     7
100
AcDbCircle
 10
-486.4881286621093
 20
437.478271484375
 30
0.0
 40
3.099999904632568
100
AcDbArc
 50
0.0
 51
90.00000000000019
  0
ARC
  5
357
330
22
100
AcDbEntity
  8
0
  6
Continuous
 62
     7
100
AcDbCircle
 10
-486.4881286621093
 20
437.478271484375
 30
0.0
 40
3.099999904632568
100
AcDbArc
 50
90.00000000000019
 51
180.0000000000004
  0
ARC
  5
358
330
22
100
AcDbEntity
  8
0
  6
Continuous
 62
     7
100
AcDbCircle
 10
-452.288116455078
 20
416.1690368652343
 30
0.0
 40
3.099999904632568
100
AcDbArc
 50
180.0000000000004
 51
270.0000000000005
  0
ARC
  5
359
330
22
100
AcDbEntity
  8
0
  6
Continuous
 62
     7
100
AcDbCircle
 10
-452.288116455078
 20
404.9690246582031
 30
0.0
 40
3.099999904632568
100
AcDbArc
 50
90.00000000000019
 51
180.0000000000004
  0
ARC
  5
35A
330
22
100
AcDbEntity
  8
0
  6
Continuous
 62
     7
100
AcDbCircle
 10
-496.2881164550781
 20
466.8583679199218
 30
0.0
 40
1.5
100
AcDbArc
 50
0.0
 51
158.1691515628411
  0
ARC
  5
35B
330
22
100
AcDbEntity
  8
0
  6
Continuous
 62
     7
100
AcDbCircle
 10
-496.7881164550781
 20
447.7752075195312
 30
0.0
 40
2.0
100
AcDbArc
 50
270.0000000000005
 51
0.0
  0
ARC
  5
35C
330
22
100
AcDbEntity
  8
0
  6
Continuous
 62
     7
100
AcDbCircle
 10
-485.3881225585937
 20
466.7830505371093
 30
0.0
 40
2.0
100
AcDbArc
 50
180.0000000000004
 51
0.0
  0
ARC
  5
35D
330
22
100
AcDbEntity
  8
0
  6
Continuous
 62
     7
100
AcDbCircle
 10
-486.4881286621093
 20
429.6704101562499
 30
0.0
 40
3.099999904632568
100
AcDbArc
 50
270.0000000000005
 51
0.0
  0
ARC
  5
35E
330
22
100
AcDbEntity
  8
0
  6
Continuous
 62
     7
100
AcDbCircle
 10
-486.4881286621093
 20
448.8752136230468
 30
0.0
 40
3.099999904632568
100
AcDbArc
 50
270.0000000000005
 51
0.0
  0
CIRCLE
  5
35F
330
22
100
AcDbEntity
  8
0
  6
Continuous
 62
     7
100
AcDbCircle
 10
-493.0884704589844
 20
473.5198364257812
 30
0.0
 40
4.5
  0
CIRCLE
  5
360
330
22
100
AcDbEntity
  8
0
  6
Continuous
 62
     7
100
AcDbCircle
 10
-493.0884704589844
 20
473.5198364257812
 30
0.0
 40
4.75
  0
ARC
  5
361
330
22
100
AcDbEntity
  8
0
  6
Continuous
 62
     7
100
AcDbCircle
 10
-486.4881286621093
 20
456.6830749511718
 30
0.0
 40
3.099999904632568
100
AcDbArc
 50
90.00000000000019
 51
180.0000000000004
  0
ARC
  5
362
330
22
100
AcDbEntity
  8
0
  6
Continuous
 62
     7
100
AcDbCircle
 10
-486.4881286621093
 20
456.6830749511718
 30
0.0
 40
3.099999904632568
100
AcDbArc
 50
0.0
 51
90.00000000000019
  0
ARC
  5
363
330
22
100
AcDbEntity
  8
0
  6
Continuous
 62
     7
100
AcDbCircle
 10
-531.3881225585938
 20
133.5848388671875
 30
0.0
 40
0.5
100
AcDbArc
 50
180.0000000000004
 51
270.0000000000005
  0
ARC
  5
364
330
22
100
AcDbEntity
  8
0
  6
Continuous
 62
     7
100
AcDbCircle
 10
-471.3123474121093
 20
252.8413696289063
 30
0.0
 40
5.188574314117431
100
AcDbArc
 50
47.95136791732514
 51
83.47953817998782
  0
ARC
  5
365
330
22
100
AcDbEntity
  8
0
  6
Continuous
 62
     7
100
AcDbCircle
 10
-512.3881225585939
 20
280.5848388671875
 30
0.0
 40
1.0
100
AcDbArc
 50
0.0
 51
90.00000000000019
  0
ARC
  5
366
330
22
100
AcDbEntity
  8
0
  6
Continuous
 62
     7
100
AcDbCircle
 10
-517.3881225585938
 20
282.5848388671875
 30
0.0
 40
1.0
100
AcDbArc
 50
180.0000000000004
 51
270.0000000000005
  0
ARC
  5
367
330
22
100
AcDbEntity
  8
0
  6
Continuous
 62
     7
100
AcDbCircle
 10
-517.3881225585938
 20
284.5848388671875
 30
0.0
 40
1.0
100
AcDbArc
 50
90.00000000000019
 51
180.0000000000004
  0
ARC
  5
368
330
22
100
AcDbEntity
  8
0
  6
Continuous
 62
     7
100
AcDbCircle
 10
-506.3881225585937
 20
276.4715881347656
 30
0.0
 40
5.0
100
AcDbArc
 50
180.0000000000004
 51
240.0000695640013
  0
ARC
  5
369
330
22
100
AcDbEntity
  8
0
  6
Continuous
 62
     7
100
AcDbCircle
 10
-452.288116455078
 20
437.478271484375
 30
0.0
 40
3.099999904632568
100
AcDbArc
 50
90.00000000000019
 51
180.0000000000004
  0
ARC
  5
36A
330
22
100
AcDbEntity
  8
0
  6
Continuous
 62
     7
100
AcDbCircle
 10
-452.288116455078
 20
481.3844299316406
 30
0.0
 40
3.099999904632568
100
AcDbArc
 50
180.0000000000004
 51
270.0000000000005
  0
ARC
  5
36B
330
22
100
AcDbEntity
  8
0
  6
Continuous
 62
     7
100
AcDbCircle
 10
-452.288116455078
 20
470.1844482421875
 30
0.0
 40
3.099999904632568
100
AcDbArc
 50
90.00000000000019
 51
180.0000000000004
  0
ARC
  5
36C
330
22
100
AcDbEntity
  8
0
  6
Continuous
 62
     7
100
AcDbCircle
 10
-452.288116455078
 20
448.8752136230468
 30
0.0
 40
3.099999904632568
100
AcDbArc
 50
180.0000000000004
 51
270.0000000000005
  0
ARC
  5
36D
330
22
100
AcDbEntity
  8
0
  6
Continuous
 62
     7
100
AcDbCircle
 10
-440.9155578613281
 20
443.1799011230468
 30
0.0
 40
61.72245407104492
100
AcDbArc
 50
156.8795506290744
 51
167.1329260009437
  0
ARC
  5
36E
330
22
100
AcDbEntity
  8
0
  6
Continuous
 62
     7
100
AcDbCircle
 10
-483.3881225585938
 20
132.0848388671875
 30
0.0
 40
1.0
100
AcDbArc
 50
0.0
 51
90.00000000000019
  0
ARC
  5
36F
330
22
100
AcDbEntity
  8
0
  6
Continuous
 62
     7
100
AcDbCircle
 10
-529.8881225585938
 20
134.5848388671875
 30
0.0
 40
2.0
100
AcDbArc
 50
90.00000000000019
 51
180.0000000000004
  0
ARC
  5
370
330
22
100
AcDbEntity
  8
0
  6
Continuous
 62
     7
100
AcDbCircle
 10
-496.3881225585938
 20
131.5838775634766
 30
0.0
 40
2.0
100
AcDbArc
 50
180.0000000000004
 51
251.2479410381885
  0
ARC
  5
371
330
22
100
AcDbEntity
  8
0
  6
Continuous
 62
     7
100
AcDbCircle
 10
-470.6535339355468
 20
230.4104156494141
 30
0.0
 40
1.238294243812561
100
AcDbArc
 50
108.4820576881351
 51
171.9025474271813
  0
ARC
  5
372
330
22
100
AcDbEntity
  8
0
  6
Continuous
 62
     7
100
AcDbCircle
 10
-470.0213317871093
 20
256.2086181640625
 30
0.0
 40
1.920596480369568
100
AcDbArc
 50
111.4333611995075
 51
165.3525446520005
  0
ARC
  5
373
330
22
100
AcDbEntity
  8
0
  6
Continuous
 62
     7
100
AcDbCircle
 10
-470.6184692382812
 20
227.3087158203125
 30
0.0
 40
4.297448635101318
100
AcDbArc
 50
49.67086702093642
 51
95.71059313749966
  0
ARC
  5
374
330
22
100
AcDbEntity
  8
0
  6
Continuous
 62
     7
100
AcDbCircle
 10
-486.8881225585938
 20
141.5848388671875
 30
0.0
 40
5.0
100
AcDbArc
 50
270.0000000000005
 51
0.0
  0
CIRCLE
  5
375
330
22
100
AcDbEntity
  8
0
  6
Continuous
 62
     7
100
AcDbCircle
 10
-440.8606872558594
 20
382.6799011230469
 30
0.0
 40
4.75
  0
CIRCLE
  5
376
330
22
100
AcDbEntity
  8
0
  6
Continuous
 62
     7
100
AcDbCircle
 10
-440.8606872558594
 20
382.6799011230469
 30
0.0
 40
4.5
  0
ARC
  5
377
330
22
100
AcDbEntity
  8
0
  6
CENTER
 62
     7
100
AcDbCircle
 10
-440.8606872558594
 20
443.1799011230468
 30
0.0
 40
60.5
100
AcDbArc
 50
263.3690062345514
 51
276.5790305083545
  0
ARC
  5
378
330
22
100
AcDbEntity
  8
0
  6
Continuous
 62
     7
100
AcDbCircle
 10
-486.8881225585938
 20
253.666259765625
 30
0.0
 40
5.0
100
AcDbArc
 50
0.0
 51
59.99989471096908
  0
ARC
  5
379
330
22
100
AcDbEntity
  8
0
  6
Continuous
 62
     7
100
AcDbCircle
 10
-481.3881225585937
 20
101.5848388671875
 30
0.0
 40
1.0
100
AcDbArc
 50
180.0000000000004
 51
270.0000000000005
  0
ARC
  5
37A
330
22
100
AcDbEntity
  8
0
  6
Continuous
 62
     7
100
AcDbCircle
 10
-502.1747436523438
 20
114.5393753051758
 30
0.0
 40
16.0
100
AcDbArc
 50
9.154158821931332
 51
71.24757102438741
  0
ARC
  5
37B
330
22
100
AcDbEntity
  8
0
  6
Continuous
 62
     7
100
AcDbCircle
 10
-484.3881225585938
 20
117.0848388671875
 30
0.0
 40
2.0
100
AcDbArc
 50
180.0000000000004
 51
270.0000000000005
  0
ARC
  5
37C
330
22
100
AcDbEntity
  8
0
  6
Continuous
 62
     7
100
AcDbCircle
 10
-480.8881225585937
 20
167.5848388671875
 30
0.0
 40
1.0
100
AcDbArc
 50
90.00000000000019
 51
180.0000000000004
  0
CIRCLE
  5
37D
330
22
100
AcDbEntity
  8
0
  6
DASHED
 62
     7
100
AcDbCircle
 10
-440.7508850097656
 20
443.1767272949218
 30
0.0
 40
33.5
  0
CIRCLE
  5
37E
330
22
100
AcDbEntity
  8
0
  6
Continuous
 62
     7
100
AcDbCircle
 10
-440.7508850097656
 20
443.1767272949218
 30
0.0
 40
67.5
  0
CIRCLE
  5
37F
330
22
100
AcDbEntity
  8
0
  6
Continuous
 62
     7
100
AcDbCircle
 10
-440.8881225585938
 20
443.1767272949218
 30
0.0
 40
91.0
  0
CIRCLE
  5
380
330
22
100
AcDbEntity
  8
0
  6
Continuous
 62
     7
100
AcDbCircle
 10
-440.8881225585938
 20
443.1767272949218
 30
0.0
 40
77.5
  0
CIRCLE
  5
381
330
22
100
AcDbEntity
  8
0
  6
Continuous
 62
     7
100
AcDbCircle
 10
-440.9374084472656
 20
443.1767272949218
 30
0.0
 40
67.0
  0
ARC
  5
382
330
22
100
AcDbEntity
  8
0
  6
CENTER
 62
     7
100
AcDbCircle
 10
-440.8606872558594
 20
443.1799011230468
 30
0.0
 40
60.5
100
AcDbArc
 50
263.3690062345514
 51
276.5790305083545
  0
TEXT
  5
383
330
22
100
AcDbEntity
  8
0
  6
Continuous
 62
     7
100
AcDbText
 10
-466.3364191055298
 20
46.56887435913086
 30
0.0
 40
7.0
  1
DL-CS65
 41
1.007000071661813
100
AcDbText
  0
DIMENSION
  5
384
330
22
100
AcDbEntity
  8
0
  6
Continuous
 62
     7
100
AcDbDimension
  2
*D1
 10
-421.0578613281249
 20
198.0856781005859
 30
0.0
 11
-421.0578613281249
 21
173.3352508544922
 31
0.0
 71
     5
 42
-1.0
  3
DIMSTYLE1
100
AcDbAlignedDimension
 13
-404.7731018066405
 23
148.5848388671875
 33
0.0
 14
-403.2981262207031
 24
198.0856781005859
 34
0.0
 50
90.0
100
AcDbRotatedDimension
  0
DIMENSION
  5
385
330
22
100
AcDbEntity
  8
0
  6
Continuous
 62
     7
100
AcDbDimension
  2
*D2
 10
-430.2547607421875
 20
248.5848388671875
 30
0.0
 11
-430.2547607421875
 21
198.5848388671875
 31
0.0
 71
     5
 42
-1.0
  3
DIMSTYLE2
100
AcDbAlignedDimension
 13
-440.8881225585938
 23
148.5848388671875
 33
0.0
 14
-440.8881225585938
 24
248.5848388671875
 34
0.0
 50
90.0
100
AcDbRotatedDimension
  0
DIMENSION
  5
386
330
22
100
AcDbEntity
  8
0
  6
Continuous
 62
     7
100
AcDbDimension
  2
*D3
 10
-312.3336791992188
 20
136.5848388671875
 30
0.0
 11
-312.3336791992188
 21
120.3695755004883
 31
0.0
 71
     5
 42
-1.0
  3
DIMSTYLE3
100
AcDbAlignedDimension
 13
-350.3881225585938
 23
133.0848388671875
 33
0.0
 14
-310.0476684570313
 24
136.5848388671875
 34
0.0
 50
90.0
100
AcDbRotatedDimension
  0
DIMENSION
  5
387
330
22
100
AcDbEntity
  8
0
  6
Continuous
 62
     7
100
AcDbDimension
  2
*D4
 10
-312.3336791992188
 20
285.5848388671875
 30
0.0
 11
-312.3336791992188
 21
211.0848388671875
 31
0.0
 71
     5
 42
-1.0
  3
DIMSTYLE4
100
AcDbAlignedDimension
 13
-351.8881225585938
 23
136.5848388671875
 33
0.0
 14
-364.3881225585938
 24
285.5848388671875
 34
0.0
 50
90.0
100
AcDbRotatedDimension
  0
DIMENSION
  5
388
330
22
100
AcDbEntity
  8
0
  6
Continuous
 62
     7
100
AcDbDimension
  2
*D5
 10
-327.46435546875
 20
168.5848388671875
 30
0.0
 11
-327.46435546875
 21
152.5848388671875
 31
0.0
 71
     5
 42
-1.0
  3
DIMSTYLE5
100
AcDbAlignedDimension
 13
-310.0476684570313
 23
136.5848388671875
 33
0.0
 14
-400.8881225585938
 24
168.5848388671875
 34
0.0
 50
90.0
100
AcDbRotatedDimension
  0
DIMENSION
  5
389
330
22
100
AcDbEntity
  8
0
  6
Continuous
 62
     7
100
AcDbDimension
  2
*D6
 10
-327.46435546875
 20
230.5848388671875
 30
0.0
 11
-327.46435546875
 21
258.0848388671875
 31
0.0
 71
     5
 42
-1.0
  3
DIMSTYLE6
100
AcDbAlignedDimension
 13
-310.0476684570313
 23
285.5848388671875
 33
0.0
 14
-400.8881225585938
 24
230.5848388671875
 34
0.0
 50
90.0
100
AcDbRotatedDimension
  0
DIMENSION
  5
38A
330
22
100
AcDbEntity
  8
0
  6
Continuous
 62
     7
100
AcDbDimension
  2
*D7
 10
-399.3881225585938
 20
65.5435562133789
 30
0.0
 11
-440.8881225585938
 21
65.5435562133789
 31
0.0
 71
     5
 42
-1.0
  3
DIMSTYLE7
100
AcDbAlignedDimension
 13
-482.3881225585938
 23
101.5848388671875
 33
0.0
 14
-399.3881225585938
 24
101.5848388671875
 34
0.0
100
AcDbRotatedDimension
  0
DIMENSION
  5
38B
330
22
100
AcDbEntity
  8
0
  6
Continuous
 62
     7
100
AcDbDimension
  2
*D8
 10
-552.6486206054689
 20
168.5848388671875
 30
0.0
 11
-552.6486206054689
 21
134.5848388671875
 31
0.0
 71
     5
 42
-1.0
  3
DIMSTYLE8
100
AcDbAlignedDimension
 13
-481.3881225585937
 23
100.5848388671875
 33
0.0
 14
-480.8881225585937
 24
168.5848388671875
 34
0.0
 50
90.0
100
AcDbRotatedDimension
  0
DIMENSION
  5
38C
330
22
100
AcDbEntity
  8
0
  6
Continuous
 62
     7
100
AcDbDimension
  2
*D9
 10
-498.3881225585938
 20
106.5161361694336
 30
0.0
 11
-490.3881225585938
 21
106.5161361694336
 31
0.0
 71
     5
 42
-1.0
  3
DIMSTYLE9
100
AcDbAlignedDimension
 13
-482.3881225585938
 23
101.5848388671875
 33
0.0
 14
-498.3881225585938
 24
131.5838775634766
 34
0.0
100
AcDbRotatedDimension
  0
DIMENSION
  5
38D
330
22
100
AcDbEntity
  8
0
  6
Continuous
 62
     7
100
AcDbDimension
  2
*D10
 10
-506.9379577636718
 20
115.0848388671875
 30
0.0
 11
-506.9379577636718
 21
124.0848388671875
 31
0.0
 71
     5
 42
-1.0
  3
DIMSTYLE10
100
AcDbAlignedDimension
 13
-487.3881225585938
 23
133.0848388671875
 33
0.0
 14
-484.3881225585938
 24
115.0848388671875
 34
0.0
 50
90.0
100
AcDbRotatedDimension
  0
INSERT
  5
38E
330
22
100
AcDbEntity
  8
0
  6
Continuous
 62
     7
100
AcDbBlockReference
  2
KOZU0001
 10
-490.2362670898438
 20
128.0525207519531
 30
0.0
  0
INSERT
  5
38F
330
22
100
AcDbEntity
  8
0
  6
Continuous
 62
     7
100
AcDbBlockReference
  2
KOZU0002
 10
-403.7892456054688
 20
116.3003387451172
 30
0.0
  0
DIMENSION
  5
390
330
22
100
AcDbEntity
  8
0
  6
Continuous
 62
     7
100
AcDbDimension
  2
*D11
 10
-513.3331938343229
 20
388.1066660287992
 30
0.0
 11
-349.0885925292969
 21
512.9593505859374
 31
0.0
 70
     3
 71
     5
 42
-1.0
  3
DIMSTYLE11
100
AcDbDiametricDimension
 15
-368.4430512828645
 25
498.2467885610446
 35
0.0
 40
0.0
  0
DIMENSION
  5
391
330
22
100
AcDbEntity
  8
0
  6
Continuous
 62
     7
100
AcDbDimension
  2
*D12
 10
-512.8561326260307
 20
414.4216316259226
 30
0.0
 11
-333.3105773925781
 21
486.1597595214844
 31
0.0
 70
     3
 71
     5
 42
-1.0
  3
DIMSTYLE12
100
AcDbDiametricDimension
 15
-368.9201124911568
 25
471.931822963921
 35
0.0
 40
0.0
  0
DIMENSION
  5
392
330
22
100
AcDbEntity
  8
0
  6
Continuous
 62
     7
100
AcDbDimension
  2
*D13
 10
-507.0455445211004
 20
432.2811160296772
 30
0.0
 11
-330.5206604003906
 21
461.3750610351563
 31
0.0
 70
     3
 71
     5
 42
-1.0
  3
DIMSTYLE13
100
AcDbDiametricDimension
 15
-374.8292723734307
 25
454.0723385601666
 35
0.0
 40
0.0
  0
ENDSEC
  0
SECTION
  2
OBJECTS
  0
DICTIONARY
  5
C
330
0
100
AcDbDictionary
281
     1
  3
ACAD_COLOR
350
1B
  3
ACAD_GROUP
350
D
  3
ACAD_LAYOUT
350
19
  3
ACAD_MATERIAL
350
1A
  3
ACAD_MLINESTYLE
350
16
  3
ACAD_PLOTSETTINGS
350
18
  3
ACAD_PLOTSTYLENAME
350
E
  3
ACAD_TABLESTYLE
350
1C
  3
AcDbVariableDictionary
350
39E
  0
DICTIONARY
  5
1B
102
{ACAD_REACTORS
330
C
102
}
330
C
100
AcDbDictionary
281
     1
  0
DICTIONARY
  5
D
102
{ACAD_REACTORS
330
C
102
}
330
C
100
AcDbDictionary
281
     1
  0
DICTIONARY
  5
19
102
{ACAD_REACTORS
330
C
102
}
330
C
100
AcDbDictionary
281
     1
  3
Model
350
25
  3
レイアウト1
350
21
  0
DICTIONARY
  5
1A
102
{ACAD_REACTORS
330
C
102
}
330
C
100
AcDbDictionary
281
     1
  0
DICTIONARY
  5
16
102
{ACAD_REACTORS
330
C
102
}
330
C
100
AcDbDictionary
281
     1
  3
Standard
350
17
  0
DICTIONARY
  5
18
102
{ACAD_REACTORS
330
C
102
}
330
C
100
AcDbDictionary
281
     1
  0
ACDBDICTIONARYWDFLT
  5
E
102
{ACAD_REACTORS
330
C
102
}
330
C
100
AcDbDictionary
281
     1
  3
Normal
350
F
100
AcDbDictionaryWithDefault
340
F
  0
DICTIONARY
  5
1C
102
{ACAD_REACTORS
330
C
102
}
330
C
100
AcDbDictionary
281
     1
  3
Standard
350
1D
  0
DICTIONARY
  5
39E
102
{ACAD_REACTORS
330
C
102
}
330
C
100
AcDbDictionary
281
     1
  3
CTABLESTYLE
350
39F
  0
LAYOUT
  5
25
102
{ACAD_REACTORS
330
19
102
}
330
19
100
AcDbPlotSettings
  1

  2
PDF reDirect v2
  4
User120
  6

 40
3.174999952316284
 41
3.174999952316284
 42
3.17498779296875
 43
3.17498779296875
 44
594.0
 45
841.0
 46
0.0
 47
0.0
 48
0.0
 49
0.0
140
0.0
141
0.0
142
1.0
143
1.0
 70
 11952
 72
     1
 73
     1
 74
     2
  7
C:\Users\ck\AppData\Roaming\Autodesk\AutoCAD 2005\R16.1\jpn\Plot Styles\black.ctb
 75
    16
147
1.0
 76
     0
 77
     2
 78
   300
148
839.0
149
0.0
100
AcDbLayout
  1
Model
 70
     1
 71
     0
 10
0.0
 20
0.0
 11
12.0
 21
9.0
 12
0.0
 22
0.0
 32
0.0
 14
0.0
 24
0.0
 34
0.0
 15
0.0
 25
0.0
 35
0.0
146
0.0
 13
0.0
 23
0.0
 33
0.0
 16
1.0
 26
0.0
 36
0.0
 17
0.0
 27
1.0
 37
0.0
 76
     0
330
22
1001
ACAD_PSEXT
1000
PDF reDirect v2
1000
PDF reDirect Pro
1000
PDF_REDIRECT_PORT:
1000
PDF reDirect provided by EXP Systems
1070
     0
  0
LAYOUT
  5
21
102
{ACAD_REACTORS
330
19
102
}
330
19
100
AcDbPlotSettings
  1

  2
PDF reDirect v2
  4

  6

 40
0.0
 41
0.0
 42
0.0
 43
0.0
 44
0.0
 45
0.0
 46
0.0
 47
0.0
 48
0.0
 49
0.0
140
0.0
141
0.0
142
1.0
143
1.0
 70
   688
 72
     0
 73
     0
 74
     5
  7
C:\Users\ck\AppData\Roaming\Autodesk\AutoCAD 2005\R16.1\jpn\Plot Styles\black.ctb
 75
    16
147
1.0
 76
     0
 77
     2
 78
   300
148
0.0
149
0.0
100
AcDbLayout
  1
レイアウト1
 70
     1
 71
     1
 10
-839.0
 20
0.0
 11
0.0
 21
591.0
 12
0.0
 22
0.0
 32
0.0
 14
1.000000000000000E+20
 24
1.000000000000000E+20
 34
1.000000000000000E+20
 15
-1.000000000000000E+20
 25
-1.000000000000000E+20
 35
-1.000000000000000E+20
146
0.0
 13
0.0
 23
0.0
 33
0.0
 16
1.0
 26
0.0
 36
0.0
 17
0.0
 27
1.0
 37
0.0
 76
     0
330
1E
  0
MLINESTYLE
  5
17
102
{ACAD_REACTORS
330
16
102
}
330
16
100
AcDbMlineStyle
  2
STANDARD
 70
     0
  3

 62
   256
 51
90.0
 52
90.0
 71
     2
 49
0.5
 62
   256
  6
BYLAYER
 49
-0.5
 62
   256
  6
BYLAYER
  0
ACDBPLACEHOLDER
  5
F
102
{ACAD_REACTORS
330
E
102
}
330
E
  0
TABLESTYLE
  5
1D
102
{ACAD_REACTORS
330
1C
102
}
330
1C
100
AcDbTableStyle
  3
Standard
 70
     0
 71
     0
 40
0.06
 41
0.06
280
     0
281
     0
  7
STANDARD
140
0.18
170
     2
 62
     0
 63
     7
283
     0
274
    -2
284
     1
 64
     0
275
    -2
285
     1
 65
     0
276
    -2
286
     1
 66
     0
277
    -2
287
     1
 67
     0
278
    -2
288
     1
 68
     0
279
    -2
289
     1
 69
     0
  7
STANDARD
140
0.25
170
     5
 62
     0
 63
     7
283
     0
274
    -2
284
     1
 64
     0
275
    -2
285
     1
 65
     0
276
    -2
286
     1
 66
     0
277
    -2
287
     1
 67
     0
278
    -2
288
     1
 68
     0
279
    -2
289
     1
 69
     0
  7
STANDARD
140
0.18
170
     5
 62
     0
 63
     7
283
     0
274
    -2
284
     1
 64
     0
275
    -2
285
     1
 65
     0
276
    -2
286
     1
 66
     0
277
    -2
287
     1
 67
     0
278
    -2
288
     1
 68
     0
279
    -2
289
     1
 69
     0
  0
DICTIONARYVAR
  5
39F
102
{ACAD_REACTORS
330
39E
102
}
330
39E
100
DictionaryVariables
280
     0
  1
STANDARD
  0
ENDSEC
  0
EOF
