  0
SECTION
  2
HEADER
  9
$ACADVER
  1
AC1018
  9
$ACADMAINTVER
 70
    39
  9
$DWGCODEPAGE
  3
ANSI_932
  9
$INSBASE
 10
0.0
 20
0.0
 30
0.0
  9
$EXTMIN
 10
-441.2990707118285
 20
11.49984839872911
 30
-0.0015258207003583
  9
$EXTMAX
 10
-206.8874500343661
 20
407.6482248381341
 30
0.0000000349246037
  9
$LIMMIN
 10
-592.0
 20
0.0
  9
$LIMMAX
 10
0.0
 20
418.0
  9
$ORTHOMODE
 70
     0
  9
$REGENMODE
 70
     1
  9
$FILLMODE
 70
     1
  9
$QTEXTMODE
 70
     0
  9
$MIRRTEXT
 70
     0
  9
$LTSCALE
 40
1.0
  9
$ATTMODE
 70
     1
  9
$TEXTSIZE
 40
0.2
  9
$TRACEWID
 40
0.05
  9
$TEXTSTYLE
  7
STANDARD
  9
$CLAYER
  8
0
  9
$CELTYPE
  6
CONTINUOUS
  9
$CECOLOR
 62
   256
  9
$CELTSCALE
 40
1.0
  9
$DISPSILH
 70
     0
  9
$DIMSCALE
 40
1.0
  9
$DIMASZ
 40
1.0
  9
$DIMEXO
 40
2.54
  9
$DIMDLI
 40
0.38
  9
$DIMRND
 40
0.0
  9
$DIMDLE
 40
0.0
  9
$DIMEXE
 40
2.54
  9
$DIMTP
 40
0.0
  9
$DIMTM
 40
0.0
  9
$DIMTXT
 40
3.0
  9
$DIMCEN
 40
0.09
  9
$DIMTSZ
 40
0.0
  9
$DIMTOL
 70
     0
  9
$DIMLIM
 70
     0
  9
$DIMTIH
 70
     0
  9
$DIMTOH
 70
     0
  9
$DIMSE1
 70
     0
  9
$DIMSE2
 70
     0
  9
$DIMTAD
 70
     1
  9
$DIMZIN
 70
     0
  9
$DIMBLK
  1

  9
$DIMASO
 70
     1
  9
$DIMSHO
 70
     0
  9
$DIMPOST
  1

  9
$DIMAPOST
  1

  9
$DIMALT
 70
     0
  9
$DIMALTD
 70
     2
  9
$DIMALTF
 40
25.4
  9
$DIMLFAC
 40
1.0
  9
$DIMTOFL
 70
     0
  9
$DIMTVP
 40
1.0
  9
$DIMTIX
 70
     0
  9
$DIMSOXD
 70
     0
  9
$DIMSAH
 70
     1
  9
$DIMBLK1
  1

  9
$DIMBLK2
  1

  9
$DIMSTYLE
  2
DIMSTYLE1
  9
$DIMCLRD
 70
     0
  9
$DIMCLRE
 70
     0
  9
$DIMCLRT
 70
     0
  9
$DIMTFAC
 40
1.0
  9
$DIMGAP
 40
1.5
  9
$DIMJUST
 70
     0
  9
$DIMSD1
 70
     0
  9
$DIMSD2
 70
     0
  9
$DIMTOLJ
 70
     1
  9
$DIMTZIN
 70
     0
  9
$DIMALTZ
 70
     0
  9
$DIMALTTZ
 70
     0
  9
$DIMUPT
 70
     0
  9
$DIMDEC
 70
     4
  9
$DIMTDEC
 70
     4
  9
$DIMALTU
 70
     2
  9
$DIMALTTD
 70
     2
  9
$DIMTXSTY
  7
STANDARD
  9
$DIMAUNIT
 70
     0
  9
$DIMADEC
 70
     0
  9
$DIMALTRND
 40
0.0
  9
$DIMAZIN
 70
     0
  9
$DIMDSEP
 70
    46
  9
$DIMATFIT
 70
     3
  9
$DIMFRAC
 70
     0
  9
$DIMLDRBLK
  1

  9
$DIMLUNIT
 70
     2
  9
$DIMLWD
 70
    -2
  9
$DIMLWE
 70
    -2
  9
$DIMTMOVE
 70
     0
  9
$LUNITS
 70
     2
  9
$LUPREC
 70
     4
  9
$SKETCHINC
 40
0.1
  9
$FILLETRAD
 40
0.0
  9
$AUNITS
 70
     0
  9
$AUPREC
 70
     0
  9
$MENU
  1
.
  9
$ELEVATION
 40
0.0
  9
$PELEVATION
 40
0.0
  9
$THICKNESS
 40
0.0
  9
$LIMCHECK
 70
     0
  9
$CHAMFERA
 40
0.0
  9
$CHAMFERB
 40
0.0
  9
$CHAMFERC
 40
0.0
  9
$CHAMFERD
 40
0.0
  9
$SKPOLY
 70
     0
  9
$TDCREATE
 40
2457694.660139387
  9
$TDUCREATE
 40
2457694.285139387
  9
$TDUPDATE
 40
2457694.660821273
  9
$TDUUPDATE
 40
2457694.285821273
  9
$TDINDWG
 40
0.0006829282
  9
$TDUSRTIMER
 40
0.0006829282
  9
$USRTIMER
 70
     1
  9
$ANGBASE
 50
0.0
  9
$ANGDIR
 70
     0
  9
$PDMODE
 70
     0
  9
$PDSIZE
 40
0.0
  9
$PLINEWID
 40
0.0
  9
$SPLFRAME
 70
     0
  9
$SPLINETYPE
 70
     6
  9
$SPLINESEGS
 70
     8
  9
$HANDSEED
  5
3BF
  9
$SURFTAB1
 70
     6
  9
$SURFTAB2
 70
     6
  9
$SURFTYPE
 70
     6
  9
$SURFU
 70
     6
  9
$SURFV
 70
     6
  9
$UCSBASE
  2

  9
$UCSNAME
  2

  9
$UCSORG
 10
0.0
 20
0.0
 30
0.0
  9
$UCSXDIR
 10
1.0
 20
0.0
 30
0.0
  9
$UCSYDIR
 10
0.0
 20
1.0
 30
0.0
  9
$UCSORTHOREF
  2

  9
$UCSORTHOVIEW
 70
     0
  9
$UCSORGTOP
 10
0.0
 20
0.0
 30
0.0
  9
$UCSORGBOTTOM
 10
0.0
 20
0.0
 30
0.0
  9
$UCSORGLEFT
 10
0.0
 20
0.0
 30
0.0
  9
$UCSORGRIGHT
 10
0.0
 20
0.0
 30
0.0
  9
$UCSORGFRONT
 10
0.0
 20
0.0
 30
0.0
  9
$UCSORGBACK
 10
0.0
 20
0.0
 30
0.0
  9
$PUCSBASE
  2

  9
$PUCSNAME
  2

  9
$PUCSORG
 10
0.0
 20
0.0
 30
0.0
  9
$PUCSXDIR
 10
1.0
 20
0.0
 30
0.0
  9
$PUCSYDIR
 10
0.0
 20
1.0
 30
0.0
  9
$PUCSORTHOREF
  2

  9
$PUCSORTHOVIEW
 70
     0
  9
$PUCSORGTOP
 10
0.0
 20
0.0
 30
0.0
  9
$PUCSORGBOTTOM
 10
0.0
 20
0.0
 30
0.0
  9
$PUCSORGLEFT
 10
0.0
 20
0.0
 30
0.0
  9
$PUCSORGRIGHT
 10
0.0
 20
0.0
 30
0.0
  9
$PUCSORGFRONT
 10
0.0
 20
0.0
 30
0.0
  9
$PUCSORGBACK
 10
0.0
 20
0.0
 30
0.0
  9
$USERI1
 70
     0
  9
$USERI2
 70
     0
  9
$USERI3
 70
     0
  9
$USERI4
 70
     0
  9
$USERI5
 70
     0
  9
$USERR1
 40
0.0
  9
$USERR2
 40
0.0
  9
$USERR3
 40
0.0
  9
$USERR4
 40
0.0
  9
$USERR5
 40
0.0
  9
$WORLDVIEW
 70
     1
  9
$SHADEDGE
 70
     3
  9
$SHADEDIF
 70
    70
  9
$TILEMODE
 70
     1
  9
$MAXACTVP
 70
    64
  9
$PINSBASE
 10
0.0
 20
0.0
 30
0.0
  9
$PLIMCHECK
 70
     0
  9
$PEXTMIN
 10
1.000000000000000E+20
 20
1.000000000000000E+20
 30
1.000000000000000E+20
  9
$PEXTMAX
 10
-1.000000000000000E+20
 20
-1.000000000000000E+20
 30
-1.000000000000000E+20
  9
$PLIMMIN
 10
-592.0
 20
0.0
  9
$PLIMMAX
 10
0.0
 20
418.0
  9
$UNITMODE
 70
     0
  9
$VISRETAIN
 70
     1
  9
$PLINEGEN
 70
     0
  9
$PSLTSCALE
 70
     1
  9
$TREEDEPTH
 70
  3020
  9
$CMLSTYLE
  2
Standard
  9
$CMLJUST
 70
     0
  9
$CMLSCALE
 40
1.0
  9
$PROXYGRAPHICS
 70
     1
  9
$MEASUREMENT
 70
     0
  9
$CELWEIGHT
370
    -1
  9
$ENDCAPS
280
     0
  9
$JOINSTYLE
280
     0
  9
$LWDISPLAY
290
     0
  9
$INSUNITS
 70
     0
  9
$HYPERLINKBASE
  1

  9
$STYLESHEET
  1

  9
$XEDIT
290
     1
  9
$CEPSNTYPE
380
     0
  9
$PSTYLEMODE
290
     1
  9
$FINGERPRINTGUID
  2
{C887DC25-6751-4478-B693-3F572A4B2BF2}
  9
$VERSIONGUID
  2
{F14851B0-C4B8-466A-A2A0-498E32432723}
  9
$EXTNAMES
290
     1
  9
$PSVPSCALE
 40
0.0
  9
$OLESTARTUP
290
     0
  9
$SORTENTS
280
   127
  9
$INDEXCTL
280
     0
  9
$HIDETEXT
280
     0
  9
$XCLIPFRAME
290
     0
  9
$HALOGAP
280
     0
  9
$OBSCOLOR
 70
   257
  9
$OBSLTYPE
280
     0
  9
$INTERSECTIONDISPLAY
280
     0
  9
$INTERSECTIONCOLOR
 70
   257
  9
$DIMASSOC
280
     1
  9
$PROJECTNAME
  1

  0
ENDSEC
  0
SECTION
  2
CLASSES
  0
CLASS
  1
ACDBDICTIONARYWDFLT
  2
AcDbDictionaryWithDefault
  3
ObjectDBX Classes
 90
        0
 91
        1
280
     0
281
     0
  0
CLASS
  1
TABLESTYLE
  2
AcDbTableStyle
  3
ObjectDBX Classes
 90
     2047
 91
        1
280
     0
281
     0
  0
CLASS
  1
DICTIONARYVAR
  2
AcDbDictionaryVar
  3
ObjectDBX Classes
 90
        0
 91
        1
280
     0
281
     0
  0
ENDSEC
  0
SECTION
  2
TABLES
  0
TABLE
  2
VPORT
  5
8
330
0
100
AcDbSymbolTable
 70
     2
  0
VPORT
  5
3BE
330
8
100
AcDbSymbolTableRecord
100
AcDbViewportTableRecord
  2
*Active
 70
     0
 10
0.0
 20
0.0
 11
1.0
 21
1.0
 12
-296.0
 22
209.0
 13
0.0
 23
0.0
 14
1.0
 24
1.0
 15
0.0
 25
0.0
 16
0.0
 26
0.0
 36
1.0
 17
0.0
 27
0.0
 37
0.0
 40
421.2999999999999
 41
1.56258234519104
 42
50.0
 43
0.0
 44
0.0
 50
0.0
 51
0.0
 71
     0
 72
   100
 73
     1
 74
     1
 75
     0
 76
     0
 77
     0
 78
     0
281
     0
 65
     1
110
0.0
120
0.0
130
0.0
111
1.0
121
0.0
131
0.0
112
0.0
122
1.0
132
0.0
 79
     0
146
0.0
  0
ENDTAB
  0
TABLE
  2
LTYPE
  5
5
330
0
100
AcDbSymbolTable
 70
     6
  0
LTYPE
  5
13
330
5
100
AcDbSymbolTableRecord
100
AcDbLinetypeTableRecord
  2
ByBlock
 70
     0
  3

 72
    65
 73
     0
 40
0.0
  0
LTYPE
  5
14
330
5
100
AcDbSymbolTableRecord
100
AcDbLinetypeTableRecord
  2
ByLayer
 70
     0
  3

 72
    65
 73
     0
 40
0.0
  0
LTYPE
  5
15
330
5
100
AcDbSymbolTableRecord
100
AcDbLinetypeTableRecord
  2
CONTINUOUS
 70
     0
  3
Solid line
 72
    65
 73
     0
 40
0.0
  0
LTYPE
  5
26
330
5
100
AcDbSymbolTableRecord
100
AcDbLinetypeTableRecord
  2
DASHED
 70
     0
  3
__ __ __ __ __ __ __ __ __ __ __ __ __ __ __
 72
    65
 73
     2
 40
3.5
 49
2.0
 74
     0
 49
-1.5
 74
     0
  0
LTYPE
  5
27
330
5
100
AcDbSymbolTableRecord
100
AcDbLinetypeTableRecord
  2
CENTER
 70
     0
  3
____ _ ____ _ ____ _ ____ _ ____ _ ____ _ ____
 72
    65
 73
     4
 40
17.5
 49
13.0
 74
     0
 49
-1.5
 74
     0
 49
1.5
 74
     0
 49
-1.5
 74
     0
  0
LTYPE
  5
28
330
5
100
AcDbSymbolTableRecord
100
AcDbLinetypeTableRecord
  2
PHANTOM
 70
     0
  3
_____ _ _ _____ _ _ _____ _ _ _____ _ _ ____  
 72
    65
 73
     6
 40
15.5
 49
8.0
 74
     0
 49
-1.5
 74
     0
 49
1.5
 74
     0
 49
-1.5
 74
     0
 49
1.5
 74
     0
 49
-1.5
 74
     0
  0
LTYPE
  5
29
330
5
100
AcDbSymbolTableRecord
100
AcDbLinetypeTableRecord
  2
DOT
 70
     0
  3
. . . . . . . . . . . . . . . . . . . . . . . .
 72
    65
 73
     2
 40
0.25
 49
0.0
 74
     0
 49
-0.25
 74
     0
  0
LTYPE
  5
2A
330
5
100
AcDbSymbolTableRecord
100
AcDbLinetypeTableRecord
  2
HIDDEN
 70
     0
  3
__ __ __ __ __ __ __ __ __ __ __ __ __ __ __
 72
    65
 73
     2
 40
3.5
 49
2.0
 74
     0
 49
-1.5
 74
     0
  0
ENDTAB
  0
TABLE
  2
LAYER
  5
2
330
0
100
AcDbSymbolTable
 70
     2
  0
LAYER
  5
10
330
2
100
AcDbSymbolTableRecord
100
AcDbLayerTableRecord
  2
0
 70
     0
 62
     7
  6
CONTINUOUS
370
    -3
390
F
  0
LAYER
  5
2B
330
2
100
AcDbSymbolTableRecord
100
AcDbLayerTableRecord
  2
DEFPOINTS
 70
     0
 62
     7
  6
CONTINUOUS
290
     0
370
    -3
390
F
  0
ENDTAB
  0
TABLE
  2
STYLE
  5
3
330
0
100
AcDbSymbolTable
 70
     2
  0
STYLE
  5
11
330
3
100
AcDbSymbolTableRecord
100
AcDbTextStyleTableRecord
  2
STANDARD
 70
     0
 40
0.0
 41
1.0
 50
0.0
 71
     0
 42
0.2
  3

  4

1001
ACAD
1000
MS Gothic
1071
    32817
  0
ENDTAB
  0
TABLE
  2
VIEW
  5
6
330
0
100
AcDbSymbolTable
 70
     0
  0
ENDTAB
  0
TABLE
  2
UCS
  5
7
330
0
100
AcDbSymbolTable
 70
     0
  0
ENDTAB
  0
TABLE
  2
APPID
  5
9
330
0
100
AcDbSymbolTable
 70
     2
  0
APPID
  5
12
330
9
100
AcDbSymbolTableRecord
100
AcDbRegAppTableRecord
  2
ACAD
 70
     0
  0
APPID
  5
3B3
330
9
100
AcDbSymbolTableRecord
100
AcDbRegAppTableRecord
  2
ACAD_PSEXT
 70
     0
  0
ENDTAB
  0
TABLE
  2
DIMSTYLE
  5
A
330
0
100
AcDbSymbolTable
 70
    14
100
AcDbDimStyleTable
 71
     1
340
2C
  0
DIMSTYLE
105
2C
102
{ACAD_REACTORS
330
3A2
102
}
330
A
100
AcDbSymbolTableRecord
100
AcDbDimStyleTableRecord
  2
DIMSTYLE1
 70
     0
 41
1.0
 42
2.54
 44
2.54
 73
     0
 74
     0
 77
     1
140
3.0
145
1.0
147
1.5
172
     1
173
     1
279
     2
340
11
  0
DIMSTYLE
105
2D
102
{ACAD_REACTORS
330
3A3
102
}
330
A
100
AcDbSymbolTableRecord
100
AcDbDimStyleTableRecord
  2
DIMSTYLE2
 70
     0
 41
1.0
 42
2.54
 44
2.54
 73
     0
 74
     0
 77
     1
140
3.0
145
1.0
147
1.5
172
     1
173
     1
279
     2
340
11
  0
DIMSTYLE
105
2E
102
{ACAD_REACTORS
330
3A4
102
}
330
A
100
AcDbSymbolTableRecord
100
AcDbDimStyleTableRecord
  2
DIMSTYLE3
 70
     0
 41
1.0
 42
2.54
 44
2.54
 73
     0
 74
     0
 77
     1
140
3.0
145
1.0
147
1.5
172
     1
173
     1
279
     2
340
11
  0
DIMSTYLE
105
2F
102
{ACAD_REACTORS
330
3A5
102
}
330
A
100
AcDbSymbolTableRecord
100
AcDbDimStyleTableRecord
  2
DIMSTYLE4
 70
     0
 41
1.0
 42
2.54
 44
2.54
 73
     0
 74
     0
 77
     1
140
3.0
145
1.0
147
1.5
172
     1
173
     1
279
     2
340
11
  0
DIMSTYLE
105
30
102
{ACAD_REACTORS
330
3A7
102
}
330
A
100
AcDbSymbolTableRecord
100
AcDbDimStyleTableRecord
  2
DIMSTYLE5
 70
     0
 41
1.0
 42
2.54
 44
2.54
 73
     0
 74
     0
 77
     1
140
3.0
145
1.0
147
1.5
172
     1
173
     1
279
     2
340
11
  0
DIMSTYLE
105
31
102
{ACAD_REACTORS
330
3A8
102
}
330
A
100
AcDbSymbolTableRecord
100
AcDbDimStyleTableRecord
  2
DIMSTYLE6
 70
     0
 41
1.0
 42
2.54
 44
2.54
 73
     0
 74
     0
 77
     1
140
3.0
145
1.0
147
1.5
172
     1
173
     1
279
     2
340
11
  0
DIMSTYLE
105
32
102
{ACAD_REACTORS
330
3A9
102
}
330
A
100
AcDbSymbolTableRecord
100
AcDbDimStyleTableRecord
  2
DIMSTYLE7
 70
     0
 41
1.0
 42
2.54
 44
2.54
 73
     0
 74
     0
 77
     1
140
3.0
145
1.0
147
1.5
172
     1
173
     1
279
     2
340
11
  0
DIMSTYLE
105
33
102
{ACAD_REACTORS
330
3AA
102
}
330
A
100
AcDbSymbolTableRecord
100
AcDbDimStyleTableRecord
  2
DIMSTYLE8
 70
     0
 41
1.0
 42
2.54
 44
2.54
 73
     0
 74
     0
 77
     1
140
3.0
145
1.0
147
1.5
172
     1
173
     1
279
     2
340
11
  0
DIMSTYLE
105
34
102
{ACAD_REACTORS
330
3AC
102
}
330
A
100
AcDbSymbolTableRecord
100
AcDbDimStyleTableRecord
  2
DIMSTYLE9
 70
     0
 41
1.0
 42
2.54
 44
2.54
 73
     0
 74
     0
 77
     1
140
3.0
145
1.0
147
1.5
172
     1
173
     1
279
     2
340
11
  0
DIMSTYLE
105
35
102
{ACAD_REACTORS
330
3AD
102
}
330
A
100
AcDbSymbolTableRecord
100
AcDbDimStyleTableRecord
  2
DIMSTYLE10
 70
     0
 41
1.0
 42
2.54
 44
2.54
 73
     0
 74
     0
 77
     1
140
3.0
145
1.0
147
1.5
172
     1
173
     1
279
     2
340
11
  0
DIMSTYLE
105
36
102
{ACAD_REACTORS
330
3AE
102
}
330
A
100
AcDbSymbolTableRecord
100
AcDbDimStyleTableRecord
  2
DIMSTYLE11
 70
     0
 41
1.0
 42
2.54
 44
2.54
 73
     0
 74
     0
 75
     1
 76
     1
 77
     1
140
3.0
145
1.0
147
1.5
172
     1
173
     1
279
     2
340
11
  0
DIMSTYLE
105
37
102
{ACAD_REACTORS
330
3AF
102
}
330
A
100
AcDbSymbolTableRecord
100
AcDbDimStyleTableRecord
  2
DIMSTYLE12
 70
     0
 41
1.0
 42
2.54
 44
2.54
 73
     0
 74
     0
 75
     1
 76
     1
 77
     1
140
3.0
145
1.0
147
1.5
172
     1
173
     1
279
     2
340
11
  0
DIMSTYLE
105
38
102
{ACAD_REACTORS
330
3B0
102
}
330
A
100
AcDbSymbolTableRecord
100
AcDbDimStyleTableRecord
  2
DIMSTYLE13
 70
     0
 41
1.0
 42
2.54
 44
2.54
 73
     0
 74
     0
 75
     1
 76
     1
 77
     1
140
3.0
145
1.0
147
1.5
172
     1
173
     1
279
     2
340
11
  0
ENDTAB
  0
TABLE
  2
BLOCK_RECORD
  5
1
330
0
100
AcDbSymbolTable
 70
    17
  0
BLOCK_RECORD
  5
22
330
1
100
AcDbSymbolTableRecord
100
AcDbBlockTableRecord
  2
*Model_Space
340
25
  0
BLOCK_RECORD
  5
1E
330
1
100
AcDbSymbolTableRecord
100
AcDbBlockTableRecord
  2
*Paper_Space
340
21
  0
BLOCK_RECORD
  5
3C
330
1
100
AcDbSymbolTableRecord
100
AcDbBlockTableRecord
  2
_OPEN30
340
0
102
{BLKREFS
331
45
331
46
331
50
331
51
331
5A
331
5B
331
66
331
68
331
73
331
74
331
7F
331
80
331
8B
331
8C
331
96
331
97
331
A1
331
A2
331
AD
331
AE
331
B9
331
BA
331
C3
331
C4
331
CD
331
CE
102
}
  0
BLOCK_RECORD
  5
42
330
1
100
AcDbSymbolTableRecord
100
AcDbBlockTableRecord
  2
*D1
340
0
  0
BLOCK_RECORD
  5
4D
330
1
100
AcDbSymbolTableRecord
100
AcDbBlockTableRecord
  2
*D2
340
0
  0
BLOCK_RECORD
  5
57
330
1
100
AcDbSymbolTableRecord
100
AcDbBlockTableRecord
  2
*D3
340
0
  0
BLOCK_RECORD
  5
62
330
1
100
AcDbSymbolTableRecord
100
AcDbBlockTableRecord
  2
*D4
340
0
  0
BLOCK_RECORD
  5
70
330
1
100
AcDbSymbolTableRecord
100
AcDbBlockTableRecord
  2
*D5
340
0
  0
BLOCK_RECORD
  5
7C
330
1
100
AcDbSymbolTableRecord
100
AcDbBlockTableRecord
  2
*D6
340
0
  0
BLOCK_RECORD
  5
88
330
1
100
AcDbSymbolTableRecord
100
AcDbBlockTableRecord
  2
*D7
340
0
  0
BLOCK_RECORD
  5
93
330
1
100
AcDbSymbolTableRecord
100
AcDbBlockTableRecord
  2
*D8
340
0
  0
BLOCK_RECORD
  5
9E
330
1
100
AcDbSymbolTableRecord
100
AcDbBlockTableRecord
  2
*D9
340
0
  0
BLOCK_RECORD
  5
AA
330
1
100
AcDbSymbolTableRecord
100
AcDbBlockTableRecord
  2
*D10
340
0
  0
BLOCK_RECORD
  5
B5
330
1
100
AcDbSymbolTableRecord
100
AcDbBlockTableRecord
  2
*D11
340
0
  0
BLOCK_RECORD
  5
BF
330
1
100
AcDbSymbolTableRecord
100
AcDbBlockTableRecord
  2
*D12
340
0
  0
BLOCK_RECORD
  5
C9
330
1
100
AcDbSymbolTableRecord
100
AcDbBlockTableRecord
  2
*D13
340
0
  0
BLOCK_RECORD
  5
D3
330
1
100
AcDbSymbolTableRecord
100
AcDbBlockTableRecord
  2
KOZU0001
340
0
102
{BLKREFS
331
3A6
102
}
  0
BLOCK_RECORD
  5
DC
330
1
100
AcDbSymbolTableRecord
100
AcDbBlockTableRecord
  2
KOZU0002
340
0
102
{BLKREFS
331
3AB
102
}
  0
ENDTAB
  0
ENDSEC
  0
SECTION
  2
BLOCKS
  0
BLOCK
  5
23
330
22
100
AcDbEntity
  8
0
100
AcDbBlockBegin
  2
*Model_Space
 70
     0
 10
0.0
 20
0.0
 30
0.0
  3
*Model_Space
  1

  0
ENDBLK
  5
24
330
22
100
AcDbEntity
  8
0
100
AcDbBlockEnd
  0
BLOCK
  5
1F
330
1E
100
AcDbEntity
 67
     1
  8
0
100
AcDbBlockBegin
  2
*Paper_Space
 70
     0
 10
0.0
 20
0.0
 30
0.0
  3
*Paper_Space
  1

  0
ENDBLK
  5
20
330
1E
100
AcDbEntity
 67
     1
  8
0
100
AcDbBlockEnd
  0
BLOCK
  5
3D
330
3C
100
AcDbEntity
  8
0
100
AcDbBlockBegin
  2
_OPEN30
 70
     0
 10
0.0
 20
0.0
 30
0.0
  3
_OPEN30
  1

  0
LINE
  5
3E
330
3C
100
AcDbEntity
  8
0
  6
ByBlock
 62
     0
100
AcDbLine
 10
0.0
 20
0.0
 30
0.0
 11
-2.999999999999993
 21
-1.000000000000017
 31
0.0
  0
LINE
  5
3F
330
3C
100
AcDbEntity
  8
0
  6
ByBlock
 62
     0
100
AcDbLine
 10
0.0
 20
0.0
 30
0.0
 11
-3.000000000000006
 21
0.9999999999999815
 31
0.0
  0
LINE
  5
40
330
3C
100
AcDbEntity
  8
0
  6
ByBlock
 62
     0
100
AcDbLine
 10
0.0
 20
0.0
 30
0.0
 11
-3.0
 21
0.0
 31
0.0
  0
ENDBLK
  5
41
330
3C
100
AcDbEntity
  8
0
100
AcDbBlockEnd
  0
BLOCK
  5
43
330
42
100
AcDbEntity
  8
0
100
AcDbBlockBegin
  2
*D1
 70
     1
 10
0.0
 20
0.0
 30
0.0
  3
*D1
  1

  0
LINE
  5
44
330
42
100
AcDbEntity
  8
0
  6
Continuous
 62
     7
100
AcDbLine
 10
-224.3419036865234
 20
75.52799224853515
 30
0.0
 11
-224.3419036865234
 21
99.52799224853515
 31
0.0
  0
INSERT
  5
45
330
42
100
AcDbEntity
  8
0
  6
Continuous
 62
     7
100
AcDbBlockReference
  2
_OPEN30
 10
-224.3419036865234
 20
72.52799224853515
 30
0.0
 50
270.0000000000005
  0
INSERT
  5
46
330
42
100
AcDbEntity
  8
0
  6
Continuous
 62
     7
100
AcDbBlockReference
  2
_OPEN30
 10
-224.3419036865234
 20
102.5279922485352
 30
0.0
 50
90.00000000000019
  0
LINE
  5
47
330
42
100
AcDbEntity
  8
0
  6
Continuous
 62
     7
100
AcDbLine
 10
-303.2256860351562
 20
102.5279922485352
 30
0.0
 11
-222.055908203125
 21
102.5279922485352
 31
0.0
  0
TEXT
  5
48
330
42
100
AcDbEntity
  8
0
  6
Continuous
 62
     7
100
AcDbText
 10
-225.0919035741852
 20
84.95799210369488
 30
0.0
 40
3.0
  1
30
 50
90.00000250447815
 41
1.101428593908038
100
AcDbText
  0
POINT
  5
49
330
42
100
AcDbEntity
  8
DEFPOINTS
  6
Continuous
 62
     7
100
AcDbPoint
 10
-206.9252319335938
 20
72.52799224853515
 30
0.0
  0
POINT
  5
4A
330
42
100
AcDbEntity
  8
DEFPOINTS
  6
Continuous
 62
     7
100
AcDbPoint
 10
-305.7656860351563
 20
102.5279922485352
 30
0.0
  0
POINT
  5
4B
330
42
100
AcDbEntity
  8
DEFPOINTS
  6
Continuous
 62
     7
100
AcDbPoint
 10
-224.3419036865234
 20
102.5279922485352
 30
0.0
  0
ENDBLK
  5
4C
330
42
100
AcDbEntity
  8
0
100
AcDbBlockEnd
  0
BLOCK
  5
4E
330
4D
100
AcDbEntity
  8
0
100
AcDbBlockBegin
  2
*D2
 70
     1
 10
0.0
 20
0.0
 30
0.0
  3
*D2
  1

  0
LINE
  5
4F
330
4D
100
AcDbEntity
  8
0
  6
Continuous
 62
     7
100
AcDbLine
 10
-330.4672546386719
 20
85.52799224853515
 30
0.0
 11
-330.4672546386719
 21
179.5279846191406
 31
0.0
  0
INSERT
  5
50
330
4D
100
AcDbEntity
  8
0
  6
Continuous
 62
     7
100
AcDbBlockReference
  2
_OPEN30
 10
-330.4672546386719
 20
82.52799224853516
 30
0.0
 50
270.0000000000005
  0
INSERT
  5
51
330
4D
100
AcDbEntity
  8
0
  6
Continuous
 62
     7
100
AcDbBlockReference
  2
_OPEN30
 10
-330.4672546386719
 20
182.5279846191406
 30
0.0
 50
90.00000000000019
  0
TEXT
  5
52
330
4D
100
AcDbEntity
  8
0
  6
Continuous
 62
     7
100
AcDbText
 10
-331.2172544607665
 20
128.4579844146957
 30
0.0
 40
3.0
  1
100
 50
90.00000250447815
 41
1.320000017011488
100
AcDbText
  0
POINT
  5
53
330
4D
100
AcDbEntity
  8
DEFPOINTS
  6
Continuous
 62
     7
100
AcDbPoint
 10
-337.7656860351563
 20
82.52799224853516
 30
0.0
  0
POINT
  5
54
330
4D
100
AcDbEntity
  8
DEFPOINTS
  6
Continuous
 62
     7
100
AcDbPoint
 10
-337.7656860351563
 20
182.5279846191406
 30
0.0
  0
POINT
  5
55
330
4D
100
AcDbEntity
  8
DEFPOINTS
  6
Continuous
 62
     7
100
AcDbPoint
 10
-330.4672546386719
 20
182.5279846191406
 30
0.0
  0
ENDBLK
  5
56
330
4D
100
AcDbEntity
  8
0
100
AcDbBlockEnd
  0
BLOCK
  5
58
330
57
100
AcDbEntity
  8
0
100
AcDbBlockBegin
  2
*D3
 70
     1
 10
0.0
 20
0.0
 30
0.0
  3
*D3
  1

  0
LINE
  5
59
330
57
100
AcDbEntity
  8
0
  6
Continuous
 62
     7
100
AcDbLine
 10
-324.4164733886719
 20
85.52799224853515
 30
0.0
 11
-324.4164733886719
 21
129.5279846191406
 31
0.0
  0
INSERT
  5
5A
330
57
100
AcDbEntity
  8
0
  6
Continuous
 62
     7
100
AcDbBlockReference
  2
_OPEN30
 10
-324.4164733886719
 20
82.52799224853516
 30
0.0
 50
270.0000000000005
  0
INSERT
  5
5B
330
57
100
AcDbEntity
  8
0
  6
Continuous
 62
     7
100
AcDbBlockReference
  2
_OPEN30
 10
-324.4164733886719
 20
132.5279846191406
 30
0.0
 50
90.00000000000019
  0
LINE
  5
5C
330
57
100
AcDbEntity
  8
0
  6
Continuous
 62
     7
100
AcDbLine
 10
-312.0712805175782
 20
132.5279846191406
 30
0.0
 11
-326.7024536132813
 21
132.5279846191406
 31
0.0
  0
TEXT
  5
5D
330
57
100
AcDbEntity
  8
0
  6
Continuous
 62
     7
100
AcDbText
 10
-325.1664732763336
 20
104.9579921036949
 30
0.0
 40
3.0
  1
50
 50
90.00000250447815
 41
1.101428593908038
100
AcDbText
  0
POINT
  5
5E
330
57
100
AcDbEntity
  8
DEFPOINTS
  6
Continuous
 62
     7
100
AcDbPoint
 10
-321.3697204589844
 20
82.52799224853516
 30
0.0
  0
POINT
  5
5F
330
57
100
AcDbEntity
  8
DEFPOINTS
  6
Continuous
 62
     7
100
AcDbPoint
 10
-309.5312805175781
 20
132.5279846191406
 30
0.0
  0
POINT
  5
60
330
57
100
AcDbEntity
  8
DEFPOINTS
  6
Continuous
 62
     7
100
AcDbPoint
 10
-324.4164733886719
 20
132.5279846191406
 30
0.0
  0
ENDBLK
  5
61
330
57
100
AcDbEntity
  8
0
100
AcDbBlockEnd
  0
BLOCK
  5
63
330
62
100
AcDbEntity
  8
0
100
AcDbBlockBegin
  2
*D4
 70
     1
 10
0.0
 20
0.0
 30
0.0
  3
*D4
  1

  0
LINE
  5
64
330
62
100
AcDbEntity
  8
0
  6
Continuous
 62
     7
100
AcDbLine
 10
-209.2112274169922
 20
69.02799224853516
 30
0.0
 11
-209.2112274169922
 21
54.14070510864258
 31
0.0
  0
LINE
  5
65
330
62
100
AcDbEntity
  8
0
  6
Continuous
 62
     7
100
AcDbLine
 10
-209.2112274169922
 20
72.52799224853515
 30
0.0
 11
-209.2112274169922
 21
69.02799224853516
 31
0.0
  0
INSERT
  5
66
330
62
100
AcDbEntity
  8
0
  6
Continuous
 62
     7
100
AcDbBlockReference
  2
_OPEN30
 10
-209.2112274169922
 20
72.52799224853515
 30
0.0
 50
270.0000000000002
  0
LINE
  5
67
330
62
100
AcDbEntity
  8
0
  6
Continuous
 62
     7
100
AcDbLine
 10
-209.2112274169922
 20
75.52799224853515
 30
0.0
 11
-209.2112274169922
 21
78.87799224853515
 31
0.0
  0
INSERT
  5
68
330
62
100
AcDbEntity
  8
0
  6
Continuous
 62
     7
100
AcDbBlockReference
  2
_OPEN30
 10
-209.2112274169922
 20
69.02799224853516
 30
0.0
 50
90.00000000000049
  0
LINE
  5
69
330
62
100
AcDbEntity
  8
0
  6
Continuous
 62
     7
100
AcDbLine
 10
-209.2112274169922
 20
66.02799224853516
 30
0.0
 11
-209.2112274169921
 21
62.67799224853515
 31
0.0
  0
LINE
  5
6A
330
62
100
AcDbEntity
  8
0
  6
Continuous
 62
     7
100
AcDbLine
 10
-252.7256860351563
 20
69.02799224853516
 30
0.0
 11
-206.9252319335938
 21
69.02799224853516
 31
0.0
  0
TEXT
  5
6B
330
62
100
AcDbEntity
  8
0
  6
Continuous
 62
     7
100
AcDbText
 10
-209.9612272390868
 20
54.14070459902188
 30
0.0
 40
3.0
  1
3.5
 50
90.00000250447815
 41
1.356666684150696
100
AcDbText
  0
POINT
  5
6C
330
62
100
AcDbEntity
  8
DEFPOINTS
  6
Continuous
 62
     7
100
AcDbPoint
 10
-206.9252319335938
 20
72.52799224853515
 30
0.0
  0
POINT
  5
6D
330
62
100
AcDbEntity
  8
DEFPOINTS
  6
Continuous
 62
     7
100
AcDbPoint
 10
-255.2656860351564
 20
69.02799224853516
 30
0.0
  0
POINT
  5
6E
330
62
100
AcDbEntity
  8
DEFPOINTS
  6
Continuous
 62
     7
100
AcDbPoint
 10
-209.2112274169922
 20
69.02799224853516
 30
0.0
  0
ENDBLK
  5
6F
330
62
100
AcDbEntity
  8
0
100
AcDbBlockEnd
  0
BLOCK
  5
71
330
70
100
AcDbEntity
  8
0
100
AcDbBlockBegin
  2
*D5
 70
     1
 10
0.0
 20
0.0
 30
0.0
  3
*D5
  1

  0
LINE
  5
72
330
70
100
AcDbEntity
  8
0
  6
Continuous
 62
     7
100
AcDbLine
 10
-368.7656860351563
 20
23.15841674804688
 30
0.0
 11
-306.7656860351563
 21
23.15841674804686
 31
0.0
  0
INSERT
  5
73
330
70
100
AcDbEntity
  8
0
  6
Continuous
 62
     7
100
AcDbBlockReference
  2
_OPEN30
 10
-371.7656860351563
 20
23.15841674804688
 30
0.0
 50
180.0000000000004
  0
INSERT
  5
74
330
70
100
AcDbEntity
  8
0
  6
Continuous
 62
     7
100
AcDbBlockReference
  2
_OPEN30
 10
-303.7656860351563
 20
23.15841674804688
 30
0.0
  0
LINE
  5
75
330
70
100
AcDbEntity
  8
0
  6
Continuous
 62
     7
100
AcDbLine
 10
-371.7656860351563
 20
38.98799224853516
 30
0.0
 11
-371.7656860351563
 21
20.87241554260254
 31
0.0
  0
LINE
  5
76
330
70
100
AcDbEntity
  8
0
  6
Continuous
 62
     7
100
AcDbLine
 10
-303.7656860351563
 20
38.98799224853516
 30
0.0
 11
-303.7656860351563
 21
20.87241554260254
 31
0.0
  0
TEXT
  5
77
330
70
100
AcDbEntity
  8
0
  6
Continuous
 62
     7
100
AcDbText
 10
-341.8356862068176
 20
23.90841674804688
 30
0.0
 40
3.0
  1
%%C68
 41
0.9498249830693319
100
AcDbText
  0
POINT
  5
78
330
70
100
AcDbEntity
  8
DEFPOINTS
  6
Continuous
 62
     7
100
AcDbPoint
 10
-371.7656860351563
 20
41.52799224853516
 30
0.0
  0
POINT
  5
79
330
70
100
AcDbEntity
  8
DEFPOINTS
  6
Continuous
 62
     7
100
AcDbPoint
 10
-303.7656860351563
 20
41.52799224853516
 30
0.0
  0
POINT
  5
7A
330
70
100
AcDbEntity
  8
DEFPOINTS
  6
Continuous
 62
     7
100
AcDbPoint
 10
-303.7656860351563
 20
23.15841674804688
 30
0.0
  0
ENDBLK
  5
7B
330
70
100
AcDbEntity
  8
0
100
AcDbBlockEnd
  0
BLOCK
  5
7D
330
7C
100
AcDbEntity
  8
0
100
AcDbBlockBegin
  2
*D6
 70
     1
 10
0.0
 20
0.0
 30
0.0
  3
*D6
  1

  0
LINE
  5
7E
330
7C
100
AcDbEntity
  8
0
  6
Continuous
 62
     7
100
AcDbLine
 10
-437.1846923828124
 20
43.52799224853515
 30
0.0
 11
-437.1846923828124
 21
99.52799224853515
 31
0.0
  0
INSERT
  5
7F
330
7C
100
AcDbEntity
  8
0
  6
Continuous
 62
     7
100
AcDbBlockReference
  2
_OPEN30
 10
-437.1846923828124
 20
40.52799224853515
 30
0.0
 50
270.0000000000005
  0
INSERT
  5
80
330
7C
100
AcDbEntity
  8
0
  6
Continuous
 62
     7
100
AcDbBlockReference
  2
_OPEN30
 10
-437.1846923828124
 20
102.5279922485352
 30
0.0
 50
90.00000000000019
  0
LINE
  5
81
330
7C
100
AcDbEntity
  8
0
  6
Continuous
 62
     7
100
AcDbLine
 10
-373.3056860351563
 20
40.52799224853514
 30
0.0
 11
-439.470703125
 21
40.52799224853515
 31
0.0
  0
LINE
  5
82
330
7C
100
AcDbEntity
  8
0
  6
Continuous
 62
     7
100
AcDbLine
 10
-372.3056860351563
 20
102.5279922485351
 30
0.0
 11
-439.470703125
 21
102.5279922485352
 31
0.0
  0
TEXT
  5
83
330
7C
100
AcDbEntity
  8
0
  6
Continuous
 62
     7
100
AcDbText
 10
-437.9346922704741
 20
68.95799210369489
 30
0.0
 40
3.0
  1
62
 50
90.00000250447815
 41
1.028000020980834
100
AcDbText
  0
POINT
  5
84
330
7C
100
AcDbEntity
  8
DEFPOINTS
  6
Continuous
 62
     7
100
AcDbPoint
 10
-370.7656860351563
 20
40.52799224853515
 30
0.0
  0
POINT
  5
85
330
7C
100
AcDbEntity
  8
DEFPOINTS
  6
Continuous
 62
     7
100
AcDbPoint
 10
-369.7656860351563
 20
102.5279922485352
 30
0.0
  0
POINT
  5
86
330
7C
100
AcDbEntity
  8
DEFPOINTS
  6
Continuous
 62
     7
100
AcDbPoint
 10
-437.1846923828124
 20
102.5279922485352
 30
0.0
  0
ENDBLK
  5
87
330
7C
100
AcDbEntity
  8
0
100
AcDbBlockEnd
  0
BLOCK
  5
89
330
88
100
AcDbEntity
  8
0
100
AcDbBlockBegin
  2
*D7
 70
     1
 10
0.0
 20
0.0
 30
0.0
  3
*D7
  1

  0
LINE
  5
8A
330
88
100
AcDbEntity
  8
0
  6
Continuous
 62
     7
100
AcDbLine
 10
-374.7656860351563
 20
45.67461776733396
 30
0.0
 11
-383.7656860351563
 21
45.67461776733398
 31
0.0
  0
INSERT
  5
8B
330
88
100
AcDbEntity
  8
0
  6
Continuous
 62
     7
100
AcDbBlockReference
  2
_OPEN30
 10
-371.7656860351563
 20
45.67461776733398
 30
0.0
  0
INSERT
  5
8C
330
88
100
AcDbEntity
  8
0
  6
Continuous
 62
     7
100
AcDbBlockReference
  2
_OPEN30
 10
-386.7656860351563
 20
45.67461776733398
 30
0.0
 50
180.0000000000004
  0
LINE
  5
8D
330
88
100
AcDbEntity
  8
0
  6
Continuous
 62
     7
100
AcDbLine
 10
-386.7656860351563
 20
64.96067138671874
 30
0.0
 11
-386.7656860351563
 21
43.38861465454102
 31
0.0
  0
TEXT
  5
8E
330
88
100
AcDbEntity
  8
0
  6
Continuous
 62
     7
100
AcDbText
 10
-381.835686147213
 20
46.42461776733397
 30
0.0
 40
3.0
  1
15
 41
1.285000026226043
100
AcDbText
  0
POINT
  5
8F
330
88
100
AcDbEntity
  8
DEFPOINTS
  6
Continuous
 62
     7
100
AcDbPoint
 10
-371.7656860351563
 20
41.52799224853516
 30
0.0
  0
POINT
  5
90
330
88
100
AcDbEntity
  8
DEFPOINTS
  6
Continuous
 62
     7
100
AcDbPoint
 10
-386.7656860351563
 20
67.50067138671875
 30
0.0
  0
POINT
  5
91
330
88
100
AcDbEntity
  8
DEFPOINTS
  6
Continuous
 62
     7
100
AcDbPoint
 10
-386.7656860351563
 20
45.67461776733398
 30
0.0
  0
ENDBLK
  5
92
330
88
100
AcDbEntity
  8
0
100
AcDbBlockEnd
  0
BLOCK
  5
94
330
93
100
AcDbEntity
  8
0
100
AcDbBlockBegin
  2
*D8
 70
     1
 10
0.0
 20
0.0
 30
0.0
  3
*D8
  1

  0
LINE
  5
95
330
93
100
AcDbEntity
  8
0
  6
Continuous
 62
     7
100
AcDbLine
 10
-397.8584899902344
 20
66.02799224853516
 30
0.0
 11
-397.8584899902344
 21
56.02799224853516
 31
0.0
  0
INSERT
  5
96
330
93
100
AcDbEntity
  8
0
  6
Continuous
 62
     7
100
AcDbBlockReference
  2
_OPEN30
 10
-397.8584899902344
 20
69.02799224853516
 30
0.0
 50
90.00000000000019
  0
INSERT
  5
97
330
93
100
AcDbEntity
  8
0
  6
Continuous
 62
     7
100
AcDbBlockReference
  2
_OPEN30
 10
-397.8584899902344
 20
53.02799224853515
 30
0.0
 50
270.0000000000005
  0
LINE
  5
98
330
93
100
AcDbEntity
  8
0
  6
Continuous
 62
     7
100
AcDbLine
 10
-376.4405432128907
 20
53.02799224853513
 30
0.0
 11
-400.1445007324218
 21
53.02799224853515
 31
0.0
  0
TEXT
  5
99
330
93
100
AcDbEntity
  8
0
  6
Continuous
 62
     7
100
AcDbText
 10
-398.6084898778961
 20
58.45799210369488
 30
0.0
 40
3.0
  1
16
 50
90.00000250447815
 41
1.285000026226043
100
AcDbText
  0
POINT
  5
9A
330
93
100
AcDbEntity
  8
DEFPOINTS
  6
Continuous
 62
     7
100
AcDbPoint
 10
-420.2656860351563
 20
69.02799224853516
 30
0.0
  0
POINT
  5
9B
330
93
100
AcDbEntity
  8
DEFPOINTS
  6
Continuous
 62
     7
100
AcDbPoint
 10
-373.9005432128906
 20
53.02799224853515
 30
0.0
  0
POINT
  5
9C
330
93
100
AcDbEntity
  8
DEFPOINTS
  6
Continuous
 62
     7
100
AcDbPoint
 10
-397.8584899902344
 20
53.02799224853515
 30
0.0
  0
ENDBLK
  5
9D
330
93
100
AcDbEntity
  8
0
100
AcDbBlockEnd
  0
BLOCK
  5
9F
330
9E
100
AcDbEntity
  8
0
100
AcDbBlockBegin
  2
*D9
 70
     1
 10
0.0
 20
0.0
 30
0.0
  3
*D9
  1

  0
LINE
  5
A0
330
9E
100
AcDbEntity
  8
0
  6
Continuous
 62
     7
100
AcDbLine
 10
-209.2112274169922
 20
75.52799224853515
 30
0.0
 11
-209.2112274169922
 21
221.5279846191406
 31
0.0
  0
INSERT
  5
A1
330
9E
100
AcDbEntity
  8
0
  6
Continuous
 62
     7
100
AcDbBlockReference
  2
_OPEN30
 10
-209.2112274169922
 20
72.52799224853515
 30
0.0
 50
270.0000000000005
  0
INSERT
  5
A2
330
9E
100
AcDbEntity
  8
0
  6
Continuous
 62
     7
100
AcDbBlockReference
  2
_OPEN30
 10
-209.2112274169922
 20
224.5279846191406
 30
0.0
 50
90.00000000000019
  0
LINE
  5
A3
330
9E
100
AcDbEntity
  8
0
  6
Continuous
 62
     7
100
AcDbLine
 10
-254.2256860351563
 20
72.52799224853515
 30
0.0
 11
-206.9252319335938
 21
72.52799224853515
 31
0.0
  0
LINE
  5
A4
330
9E
100
AcDbEntity
  8
0
  6
Continuous
 62
     7
100
AcDbLine
 10
-258.7256860351562
 20
224.5279846191406
 30
0.0
 11
-206.9252319335938
 21
224.5279846191406
 31
0.0
  0
TEXT
  5
A5
330
9E
100
AcDbEntity
  8
0
  6
Continuous
 62
     7
100
AcDbText
 10
-209.9612265834159
 20
129.4579838186493
 30
0.0
 40
3.0
  1
１５２　（１４７～１６４）
 50
90.00000250447815
 41
0.8434321120058422
100
AcDbText
  0
POINT
  5
A6
330
9E
100
AcDbEntity
  8
DEFPOINTS
  6
Continuous
 62
     7
100
AcDbPoint
 10
-256.7656860351563
 20
72.52799224853515
 30
0.0
  0
POINT
  5
A7
330
9E
100
AcDbEntity
  8
DEFPOINTS
  6
Continuous
 62
     7
100
AcDbPoint
 10
-261.2656860351563
 20
224.5279846191406
 30
0.0
  0
POINT
  5
A8
330
9E
100
AcDbEntity
  8
DEFPOINTS
  6
Continuous
 62
     7
100
AcDbPoint
 10
-209.2112274169922
 20
224.5279846191406
 30
0.0
  0
ENDBLK
  5
A9
330
9E
100
AcDbEntity
  8
0
100
AcDbBlockEnd
  0
BLOCK
  5
AB
330
AA
100
AcDbEntity
  8
0
100
AcDbBlockBegin
  2
*D10
 70
     1
 10
0.0
 20
0.0
 30
0.0
  3
*D10
  1

  0
LINE
  5
AC
330
AA
100
AcDbEntity
  8
0
  6
Continuous
 62
     7
100
AcDbLine
 10
-224.3419036865234
 20
221.5279846191406
 30
0.0
 11
-224.3419036865234
 21
169.5279846191406
 31
0.0
  0
INSERT
  5
AD
330
AA
100
AcDbEntity
  8
0
  6
Continuous
 62
     7
100
AcDbBlockReference
  2
_OPEN30
 10
-224.3419036865234
 20
224.5279846191406
 30
0.0
 50
90.00000000000019
  0
INSERT
  5
AE
330
AA
100
AcDbEntity
  8
0
  6
Continuous
 62
     7
100
AcDbBlockReference
  2
_OPEN30
 10
-224.3419036865234
 20
166.5279846191406
 30
0.0
 50
270.0000000000005
  0
LINE
  5
AF
330
AA
100
AcDbEntity
  8
0
  6
Continuous
 62
     7
100
AcDbLine
 10
-302.7256860351562
 20
166.5279846191406
 30
0.0
 11
-222.055908203125
 21
166.5279846191406
 31
0.0
  0
TEXT
  5
B0
330
AA
100
AcDbEntity
  8
0
  6
Continuous
 62
     7
100
AcDbText
 10
-225.0919035741852
 20
192.9579844743004
 30
0.0
 40
3.0
  1
58
 50
90.00000250447815
 41
1.028000020980834
100
AcDbText
  0
POINT
  5
B1
330
AA
100
AcDbEntity
  8
DEFPOINTS
  6
Continuous
 62
     7
100
AcDbPoint
 10
-206.9252319335938
 20
224.5279846191406
 30
0.0
  0
POINT
  5
B2
330
AA
100
AcDbEntity
  8
DEFPOINTS
  6
Continuous
 62
     7
100
AcDbPoint
 10
-305.2656860351563
 20
166.5279846191406
 30
0.0
  0
POINT
  5
B3
330
AA
100
AcDbEntity
  8
DEFPOINTS
  6
Continuous
 62
     7
100
AcDbPoint
 10
-224.3419036865234
 20
166.5279846191406
 30
0.0
  0
ENDBLK
  5
B4
330
AA
100
AcDbEntity
  8
0
100
AcDbBlockEnd
  0
BLOCK
  5
B6
330
B5
100
AcDbEntity
  8
0
100
AcDbBlockBegin
  2
*D11
 70
     1
 10
0.0
 20
0.0
 30
0.0
  3
*D11
  1

  0
LINE
  5
B7
330
B5
100
AcDbEntity
  8
0
  6
Continuous
 62
     7
100
AcDbLine
 10
-271.1201477050781
 20
373.0109252929688
 30
0.0
 11
-238.7097625732422
 21
397.0691833496094
 31
0.0
  0
LINE
  5
B8
330
B5
100
AcDbEntity
  8
0
  6
Continuous
 62
     7
100
AcDbLine
 10
-402.0023193203041
 20
275.8571674035172
 30
0.0
 11
-273.5290222324302
 21
371.2228191687485
 31
0.0
  0
INSERT
  5
B9
330
B5
100
AcDbEntity
  8
0
  6
Continuous
 62
     7
100
AcDbBlockReference
  2
_OPEN30
 10
-404.4111938476563
 20
274.0690612792969
 30
0.0
 50
216.586476861719
  0
INSERT
  5
BA
330
B5
100
AcDbEntity
  8
0
  6
Continuous
 62
     7
100
AcDbBlockReference
  2
_OPEN30
 10
-271.1201477050781
 20
373.0109252929688
 30
0.0
 50
36.58647686171828
  0
TEXT
  5
BB
330
B5
100
AcDbEntity
  8
0
  6
Continuous
 62
     7
100
AcDbText
 10
-264.9617426734681
 20
378.5116544632817
 30
0.0
 40
3.0
  1
%%C１６６（防水皿外径）
 50
36.59999896943104
 41
0.8440126077968535
100
AcDbText
  0
POINT
  5
BC
330
B5
100
AcDbEntity
  8
DEFPOINTS
  6
Continuous
 62
     7
100
AcDbPoint
 10
-404.4111938476563
 20
274.0690612792969
 30
0.0
  0
POINT
  5
BD
330
B5
100
AcDbEntity
  8
DEFPOINTS
  6
Continuous
 62
     7
100
AcDbPoint
 10
-271.1201477050781
 20
373.0109252929688
 30
0.0
  0
ENDBLK
  5
BE
330
B5
100
AcDbEntity
  8
0
100
AcDbBlockEnd
  0
BLOCK
  5
C0
330
BF
100
AcDbEntity
  8
0
100
AcDbBlockBegin
  2
*D12
 70
     1
 10
0.0
 20
0.0
 30
0.0
  3
*D12
  1

  0
LINE
  5
C1
330
BF
100
AcDbEntity
  8
0
  6
Continuous
 62
     7
100
AcDbLine
 10
-265.5601501464844
 20
351.693359375
 30
0.0
 11
-222.8849639892578
 21
368.3326721191406
 31
0.0
  0
LINE
  5
C2
330
BF
100
AcDbEntity
  8
0
  6
Continuous
 62
     7
100
AcDbLine
 10
-407.1761692556041
 20
296.476434786638
 30
0.0
 11
-268.3552028147084
 21
350.6035517856275
 31
0.0
  0
INSERT
  5
C3
330
BF
100
AcDbEntity
  8
0
  6
Continuous
 62
     7
100
AcDbBlockReference
  2
_OPEN30
 10
-409.9712219238281
 20
295.3866271972657
 30
0.0
 50
201.3011048498966
  0
INSERT
  5
C4
330
BF
100
AcDbEntity
  8
0
  6
Continuous
 62
     7
100
AcDbBlockReference
  2
_OPEN30
 10
-265.5601501464844
 20
351.693359375
 30
0.0
 50
21.30110484989582
  0
TEXT
  5
C5
330
BF
100
AcDbEntity
  8
0
  6
Continuous
 62
     7
100
AcDbText
 10
-253.1018490510897
 20
357.3562551083416
 30
0.0
 40
3.0
  1
%%C１５５（目皿受外径）
 50
21.29999956819813
 41
0.8440126077968535
100
AcDbText
  0
POINT
  5
C6
330
BF
100
AcDbEntity
  8
DEFPOINTS
  6
Continuous
 62
     7
100
AcDbPoint
 10
-409.9712219238281
 20
295.3866271972657
 30
0.0
  0
POINT
  5
C7
330
BF
100
AcDbEntity
  8
DEFPOINTS
  6
Continuous
 62
     7
100
AcDbPoint
 10
-265.5601501464844
 20
351.693359375
 30
0.0
  0
ENDBLK
  5
C8
330
BF
100
AcDbEntity
  8
0
100
AcDbBlockEnd
  0
BLOCK
  5
CA
330
C9
100
AcDbEntity
  8
0
100
AcDbBlockBegin
  2
*D13
 70
     1
 10
0.0
 20
0.0
 30
0.0
  3
*D13
  1

  0
LINE
  5
CB
330
C9
100
AcDbEntity
  8
0
  6
Continuous
 62
     7
100
AcDbLine
 10
-271.62939453125
 20
333.9549255371094
 30
0.0
 11
-221.0180053710939
 21
341.9190979003906
 31
0.0
  0
LINE
  5
CC
330
C9
100
AcDbEntity
  8
0
  6
Continuous
 62
     7
100
AcDbLine
 10
-401.0370164850821
 20
313.5914012089181
 30
0.0
 11
-274.5929273625741
 21
333.4885853633475
 31
0.0
  0
INSERT
  5
CD
330
C9
100
AcDbEntity
  8
0
  6
Continuous
 62
     7
100
AcDbBlockReference
  2
_OPEN30
 10
-404.0005493164063
 20
313.1250610351563
 30
0.0
 50
188.9427057250445
  0
INSERT
  5
CE
330
C9
100
AcDbEntity
  8
0
  6
Continuous
 62
     7
100
AcDbBlockReference
  2
_OPEN30
 10
-271.62939453125
 20
333.9549255371094
 30
0.0
 50
8.942705725043774
  0
TEXT
  5
CF
330
C9
100
AcDbEntity
  8
0
  6
Continuous
 62
     7
100
AcDbText
 10
-249.9215125384083
 20
338.1410752425414
 30
0.0
 40
3.0
  1
%%C１３４（目皿外径）
 50
8.900000304583306
 41
0.8443929326254473
100
AcDbText
  0
POINT
  5
D0
330
C9
100
AcDbEntity
  8
DEFPOINTS
  6
Continuous
 62
     7
100
AcDbPoint
 10
-404.0005493164063
 20
313.1250610351563
 30
0.0
  0
POINT
  5
D1
330
C9
100
AcDbEntity
  8
DEFPOINTS
  6
Continuous
 62
     7
100
AcDbPoint
 10
-271.62939453125
 20
333.9549255371094
 30
0.0
  0
ENDBLK
  5
D2
330
C9
100
AcDbEntity
  8
0
100
AcDbBlockEnd
  0
BLOCK
  5
D4
330
D3
100
AcDbEntity
  8
0
100
AcDbBlockBegin
  2
KOZU0001
 70
     0
 10
0.0
 20
0.0
 30
0.0
  3
KOZU0001
  1

  0
LINE
  5
D5
330
D3
100
AcDbEntity
  8
0
  6
Continuous
 62
     7
100
AcDbLine
 10
0.0
 20
0.0
 30
0.0
 11
19.91293334960938
 21
-22.39899253845215
 31
0.0
  0
LINE
  5
D6
330
D3
100
AcDbEntity
  8
0
  6
Continuous
 62
     7
100
AcDbLine
 10
19.91293334960938
 20
-22.39899253845215
 30
0.0
 11
47.82260131835938
 21
-22.39899253845215
 31
0.0
  0
LINE
  5
D7
330
D3
100
AcDbEntity
  8
0
  6
Continuous
 62
     7
100
AcDbLine
 10
0.0
 20
0.0
 30
0.0
 11
2.740607769585378
 21
-1.577678374475689
 31
0.0
  0
LINE
  5
D8
330
D3
100
AcDbEntity
  8
0
  6
Continuous
 62
     7
100
AcDbLine
 10
0.0
 20
0.0
 30
0.0
 11
1.245879190982889
 21
-2.90650736133178
 31
0.0
  0
TEXT
  5
D9
330
D3
100
AcDbEntity
  8
0
  6
Continuous
 62
     7
100
AcDbText
 10
22.96259999275208
 20
-21.64899253845215
 30
0.0
 40
3.0
  1
配管接続口
 41
0.8487395020950888
100
AcDbText
  0
TEXT
  5
DA
330
D3
100
AcDbEntity
  8
0
  6
Continuous
 62
     7
100
AcDbText
 10
22.96259999275208
 20
-26.91399253845215
 30
0.0
 40
3.0
  1
Ｒｃ２（５０Ａ）
 41
0.8454512278006642
100
AcDbText
  0
ENDBLK
  5
DB
330
D3
100
AcDbEntity
  8
0
100
AcDbBlockEnd
  0
BLOCK
  5
DD
330
DC
100
AcDbEntity
  8
0
100
AcDbBlockBegin
  2
KOZU0002
 70
     0
 10
0.0
 20
0.0
 30
0.0
  3
KOZU0002
  1

  0
LINE
  5
DE
330
DC
100
AcDbEntity
  8
0
  6
Continuous
 62
     7
100
AcDbLine
 10
0.0
 20
0.0
 30
0.0
 11
-20.8489990234375
 21
-38.70170783996582
 31
0.0
  0
LINE
  5
DF
330
DC
100
AcDbEntity
  8
0
  6
Continuous
 62
     7
100
AcDbLine
 10
-20.8489990234375
 20
-38.70170783996582
 30
0.0
 11
-48.06710815429688
 21
-38.70170783996582
 31
0.0
  0
LINE
  5
E0
330
DC
100
AcDbEntity
  8
0
  6
Continuous
 62
     7
100
AcDbLine
 10
0.0
 20
0.0
 30
0.0
 11
-0.5424285147941511
 21
-3.115408690098013
 31
0.0
  0
LINE
  5
E1
330
DC
100
AcDbEntity
  8
0
  6
Continuous
 62
     7
100
AcDbLine
 10
0.0
 20
0.0
 30
0.0
 11
-2.303188025894127
 21
-2.166869843201919
 31
0.0
  0
TEXT
  5
E2
330
DC
100
AcDbEntity
  8
0
  6
Continuous
 62
     7
100
AcDbText
 10
-46.34710776805877
 20
-37.95170783996582
 30
0.0
 40
3.0
  1
共廻り防止用羽根
 41
0.8454512278006642
100
AcDbText
  0
TEXT
  5
E3
330
DC
100
AcDbEntity
  8
0
  6
Continuous
 62
     7
100
AcDbText
 10
-46.34710776805877
 20
-43.21670783996582
 30
0.0
 40
3.0
  1
３ヶ所
 41
0.8550420278260688
100
AcDbText
  0
ENDBLK
  5
E4
330
DC
100
AcDbEntity
  8
0
100
AcDbBlockEnd
  0
ENDSEC
  0
SECTION
  2
ENTITIES
  0
POINT
  5
E5
330
22
100
AcDbEntity
  8
0
  6
Continuous
 62
     7
100
AcDbPoint
 10
-337.7656860351563
 20
69.02799224853516
 30
0.0
  0
POINT
  5
E6
330
22
100
AcDbEntity
  8
0
  6
Continuous
 62
     7
100
AcDbPoint
 10
-337.7656860351563
 20
69.02799224853516
 30
0.0
  0
POINT
  5
E7
330
22
100
AcDbEntity
  8
0
  6
Continuous
 62
     7
100
AcDbPoint
 10
-337.7656860351563
 20
323.5400085449219
 30
0.0
  0
POINT
  5
E8
330
22
100
AcDbEntity
  8
0
  6
Continuous
 62
     7
100
AcDbPoint
 10
-307.9656677246094
 20
40.52799224853515
 30
0.0
  0
POINT
  5
E9
330
22
100
AcDbEntity
  8
0
  6
Continuous
 62
     7
100
AcDbPoint
 10
-308.8227844238281
 20
67.95413970947265
 30
0.0
  0
POINT
  5
EA
330
22
100
AcDbEntity
  8
0
  6
Continuous
 62
     7
100
AcDbPoint
 10
-308.3942260742188
 20
54.2410659790039
 30
0.0
  0
LINE
  5
EB
330
22
100
AcDbEntity
  8
0
  6
Continuous
 62
     7
100
AcDbLine
 10
-329.4656677246094
 20
262.350341796875
 30
0.0
 11
-329.4656677246094
 21
285.3323059082031
 31
0.0
  0
LINE
  5
EC
330
22
100
AcDbEntity
  8
0
  6
Continuous
 62
     7
100
AcDbLine
 10
-329.4656677246094
 20
350.5476989746094
 30
0.0
 11
-329.4656677246094
 21
329.2384643554688
 31
0.0
  0
LINE
  5
ED
330
22
100
AcDbEntity
  8
0
  6
Continuous
 62
     7
100
AcDbLine
 10
-329.4656677246094
 20
296.5322875976563
 30
0.0
 11
-329.4656677246094
 21
317.8415222167969
 31
0.0
  0
LINE
  5
EE
330
22
100
AcDbEntity
  8
0
  6
Continuous
 62
     7
100
AcDbLine
 10
-329.4656677246094
 20
384.7296447753906
 30
0.0
 11
-329.4656677246094
 21
361.7476806640625
 31
0.0
  0
LINE
  5
EF
330
22
100
AcDbEntity
  8
0
  6
Continuous
 62
     7
100
AcDbLine
 10
-323.2656860351563
 20
350.5476989746094
 30
0.0
 11
-323.2656860351563
 21
329.2384643554688
 31
0.0
  0
LINE
  5
F0
330
22
100
AcDbEntity
  8
0
  6
Continuous
 62
     7
100
AcDbLine
 10
-323.2656860351563
 20
383.5634155273438
 30
0.0
 11
-323.2656860351563
 21
361.7476806640625
 31
0.0
  0
LINE
  5
F1
330
22
100
AcDbEntity
  8
0
  6
Continuous
 62
     7
100
AcDbLine
 10
-323.2656860351563
 20
296.5322875976563
 30
0.0
 11
-323.2656860351563
 21
317.8415222167969
 31
0.0
  0
LINE
  5
F2
330
22
100
AcDbEntity
  8
0
  6
Continuous
 62
     7
100
AcDbLine
 10
-323.2656860351563
 20
263.5165710449219
 30
0.0
 11
-323.2656860351563
 21
285.3323059082031
 31
0.0
  0
LINE
  5
F3
330
22
100
AcDbEntity
  8
0
  6
Continuous
 62
     7
100
AcDbLine
 10
-261.2656860351563
 20
220.5279846191406
 30
0.0
 11
-266.2656860351563
 21
220.5279846191406
 31
0.0
  0
LINE
  5
F4
330
22
100
AcDbEntity
  8
0
  6
Continuous
 62
     7
100
AcDbLine
 10
-270.7656860351563
 20
220.0279846191406
 30
0.0
 11
-270.7656860351563
 21
224.0279846191406
 31
0.0
  0
LINE
  5
F5
330
22
100
AcDbEntity
  8
0
  6
Continuous
 62
     7
100
AcDbLine
 10
-289.1824645996094
 20
219.5279846191406
 30
0.0
 11
-289.1824645996094
 21
221.5279846191406
 31
0.0
  0
LINE
  5
F6
330
22
100
AcDbEntity
  8
0
  6
Continuous
 62
     7
100
AcDbLine
 10
-270.2656860351563
 20
219.5279846191406
 30
0.0
 11
-273.7656860351563
 21
219.5279846191406
 31
0.0
  0
LINE
  5
F7
330
22
100
AcDbEntity
  8
0
  6
Continuous
 62
     7
100
AcDbLine
 10
-281.0465698242188
 20
219.5279846191406
 30
0.0
 11
-273.7656860351563
 21
219.5279846191406
 31
0.0
  0
LINE
  5
F8
330
22
100
AcDbEntity
  8
0
  6
Continuous
 62
     7
100
AcDbLine
 10
-273.7656860351563
 20
219.5279846191406
 30
0.0
 11
-273.7656860351563
 21
221.0279846191406
 31
0.0
  0
LINE
  5
F9
330
22
100
AcDbEntity
  8
0
  6
Continuous
 62
     7
100
AcDbLine
 10
-270.7656860351563
 20
220.0279846191406
 30
0.0
 11
-271.2656860351563
 21
219.5279846191406
 31
0.0
  0
LINE
  5
FA
330
22
100
AcDbEntity
  8
0
  6
Continuous
 62
     7
100
AcDbLine
 10
-267.2656860351563
 20
219.5279846191406
 30
0.0
 11
-267.2656860351563
 21
215.4147491455078
 31
0.0
  0
LINE
  5
FB
330
22
100
AcDbEntity
  8
0
  6
Continuous
 62
     7
100
AcDbLine
 10
-295.2656860351563
 20
329.2384643554688
 30
0.0
 11
-295.2656860351563
 21
334.3073120117188
 31
0.0
  0
LINE
  5
FC
330
22
100
AcDbEntity
  8
0
  6
Continuous
 62
     7
100
AcDbLine
 10
-289.065673828125
 20
337.0463256835938
 30
0.0
 11
-289.065673828125
 21
334.3073120117188
 31
0.0
  0
LINE
  5
FD
330
22
100
AcDbEntity
  8
0
  6
Continuous
 62
     7
100
AcDbLine
 10
-285.722412109375
 20
350.1936340332031
 30
0.0
 11
-284.6418151855469
 21
352.7573547363281
 31
0.0
  0
LINE
  5
FE
330
22
100
AcDbEntity
  8
0
  6
Continuous
 62
     7
100
AcDbLine
 10
-286.4648742675781
 20
350.392578125
 30
0.0
 11
-286.1188354492188
 21
353.1531066894531
 31
0.0
  0
LINE
  5
FF
330
22
100
AcDbEntity
  8
0
  6
Continuous
 62
     7
100
AcDbLine
 10
-286.4648742675781
 20
350.392578125
 30
0.0
 11
-286.0936584472656
 21
350.2930908203125
 31
0.0
  0
LINE
  5
100
330
22
100
AcDbEntity
  8
0
  6
Continuous
 62
     7
100
AcDbLine
 10
-281.8611755371094
 20
352.4056091308594
 30
0.0
 11
-284.6418151855469
 21
352.7573547363281
 31
0.0
  0
LINE
  5
101
330
22
100
AcDbEntity
  8
0
  6
Continuous
 62
     7
100
AcDbLine
 10
-270.7656860351563
 20
224.0279846191406
 30
0.0
 11
-271.2656860351563
 21
224.5279846191406
 31
0.0
  0
LINE
  5
102
330
22
100
AcDbEntity
  8
0
  6
Continuous
 62
     7
100
AcDbLine
 10
-270.2656860351563
 20
224.5279846191406
 30
0.0
 11
-270.2656860351563
 21
219.5279846191406
 31
0.0
  0
LINE
  5
103
330
22
100
AcDbEntity
  8
0
  6
Continuous
 62
     7
100
AcDbLine
 10
-281.0465698242188
 20
219.5279846191406
 30
0.0
 11
-281.0465698242188
 21
221.5279846191406
 31
0.0
  0
LINE
  5
104
330
22
100
AcDbEntity
  8
0
  6
Continuous
 62
     7
100
AcDbLine
 10
-260.2656860351563
 20
223.5279846191406
 30
0.0
 11
-260.2656860351563
 21
221.5279846191406
 31
0.0
  0
LINE
  5
105
330
22
100
AcDbEntity
  8
0
  6
Continuous
 62
     7
100
AcDbLine
 10
-281.7616271972656
 20
352.7771301269531
 30
0.0
 11
-281.8611755371094
 21
352.4056091308594
 31
0.0
  0
LINE
  5
106
330
22
100
AcDbEntity
  8
0
  6
Continuous
 62
     7
100
AcDbLine
 10
-288.5037536621094
 20
354.9818420410156
 30
0.0
 11
-285.7230834960938
 21
354.630126953125
 31
0.0
  0
LINE
  5
107
330
22
100
AcDbEntity
  8
0
  6
Continuous
 62
     7
100
AcDbLine
 10
-288.6033020019531
 20
354.6103515625
 30
0.0
 11
-288.7028503417969
 21
354.2388305664063
 31
0.0
  0
LINE
  5
108
330
22
100
AcDbEntity
  8
0
  6
Continuous
 62
     7
100
AcDbLine
 10
-284.6424865722656
 20
357.19384765625
 30
0.0
 11
-285.7230834960938
 21
354.630126953125
 31
0.0
  0
LINE
  5
109
330
22
100
AcDbEntity
  8
0
  6
Continuous
 62
     7
100
AcDbLine
 10
-283.9000244140625
 20
356.9949035644531
 30
0.0
 11
-284.2460632324219
 21
354.2343444824219
 31
0.0
  0
LINE
  5
10A
330
22
100
AcDbEntity
  8
0
  6
Continuous
 62
     7
100
AcDbLine
 10
-291.2656860351563
 20
364.1701965332031
 30
0.0
 11
-291.2656860351563
 21
347.1463317871094
 31
0.0
  0
LINE
  5
10B
330
22
100
AcDbEntity
  8
0
  6
Continuous
 62
     7
100
AcDbLine
 10
-283.9000244140625
 20
356.9949035644531
 30
0.0
 11
-284.2712707519531
 21
357.0943603515625
 31
0.0
  0
LINE
  5
10C
330
22
100
AcDbEntity
  8
0
  6
Continuous
 62
     7
100
AcDbLine
 10
-288.7028503417969
 20
354.2388305664063
 30
0.0
 11
-286.1188354492188
 21
353.1531066894531
 31
0.0
  0
LINE
  5
10D
330
22
100
AcDbEntity
  8
0
  6
Continuous
 62
     7
100
AcDbLine
 10
-285.722412109375
 20
350.1936340332031
 30
0.0
 11
-286.0936584472656
 21
350.2930908203125
 31
0.0
  0
LINE
  5
10E
330
22
100
AcDbEntity
  8
0
  6
Continuous
 62
     7
100
AcDbLine
 10
-295.2656860351563
 20
347.1463317871094
 30
0.0
 11
-295.2656860351563
 21
368.3374633789063
 31
0.0
  0
LINE
  5
10F
330
22
100
AcDbEntity
  8
0
  6
Continuous
 62
     7
100
AcDbLine
 10
-281.7616271972656
 20
352.7771301269531
 30
0.0
 11
-281.6620788574219
 21
353.1486206054688
 31
0.0
  0
LINE
  5
110
330
22
100
AcDbEntity
  8
0
  6
Continuous
 62
     7
100
AcDbLine
 10
-281.6620788574219
 20
353.1486206054688
 30
0.0
 11
-284.2460632324219
 21
354.2343444824219
 31
0.0
  0
LINE
  5
111
330
22
100
AcDbEntity
  8
0
  6
Continuous
 62
     7
100
AcDbLine
 10
-284.6424865722656
 20
357.19384765625
 30
0.0
 11
-284.2712707519531
 21
357.0943603515625
 31
0.0
  0
LINE
  5
112
330
22
100
AcDbEntity
  8
0
  6
Continuous
 62
     7
100
AcDbLine
 10
-318.065673828125
 20
351.2815246582031
 30
0.0
 11
-318.065673828125
 21
382.0632629394531
 31
0.0
  0
LINE
  5
113
330
22
100
AcDbEntity
  8
0
  6
Continuous
 62
     7
100
AcDbLine
 10
-288.6033020019531
 20
354.6103515625
 30
0.0
 11
-288.5037536621094
 21
354.9818420410156
 31
0.0
  0
LINE
  5
114
330
22
100
AcDbEntity
  8
0
  6
Continuous
 62
     7
100
AcDbLine
 10
-277.565673828125
 20
318.9415283203125
 30
0.0
 11
-277.565673828125
 21
309.7918701171875
 31
0.0
  0
LINE
  5
115
330
22
100
AcDbEntity
  8
0
  6
Continuous
 62
     7
100
AcDbLine
 10
-279.565673828125
 20
320.9415283203125
 30
0.0
 11
-281.8656921386719
 21
320.9415283203125
 31
0.0
  0
LINE
  5
116
330
22
100
AcDbEntity
  8
0
  6
Continuous
 62
     7
100
AcDbLine
 10
-295.2656860351563
 20
317.8415222167969
 30
0.0
 11
-295.2656860351563
 21
312.7726745605469
 31
0.0
  0
LINE
  5
117
330
22
100
AcDbEntity
  8
0
  6
Continuous
 62
     7
100
AcDbLine
 10
-289.065673828125
 20
317.8415222167969
 30
0.0
 11
-289.065673828125
 21
312.7726745605469
 31
0.0
  0
LINE
  5
118
330
22
100
AcDbEntity
  8
0
  6
Continuous
 62
     7
100
AcDbLine
 10
-295.2656860351563
 20
310.0336608886719
 30
0.0
 11
-295.2656860351563
 21
312.7726745605469
 31
0.0
  0
LINE
  5
119
330
22
100
AcDbEntity
  8
0
  6
Continuous
 62
     7
100
AcDbLine
 10
-289.065673828125
 20
310.0336608886719
 30
0.0
 11
-289.065673828125
 21
312.7726745605469
 31
0.0
  0
LINE
  5
11A
330
22
100
AcDbEntity
  8
0
  6
Continuous
 62
     7
100
AcDbLine
 10
-283.8656921386719
 20
328.1384582519531
 30
0.0
 11
-283.8656921386719
 21
347.2216186523438
 31
0.0
  0
LINE
  5
11B
330
22
100
AcDbEntity
  8
0
  6
Continuous
 62
     7
100
AcDbLine
 10
-277.565673828125
 20
328.1384582519531
 30
0.0
 11
-277.565673828125
 21
337.2881164550781
 31
0.0
  0
LINE
  5
11C
330
22
100
AcDbEntity
  8
0
  6
Continuous
 62
     7
100
AcDbLine
 10
-289.065673828125
 20
329.2384643554688
 30
0.0
 11
-289.065673828125
 21
334.3073120117188
 31
0.0
  0
LINE
  5
11D
330
22
100
AcDbEntity
  8
0
  6
Continuous
 62
     7
100
AcDbLine
 10
-295.2656860351563
 20
337.0463256835938
 30
0.0
 11
-295.2656860351563
 21
334.3073120117188
 31
0.0
  0
LINE
  5
11E
330
22
100
AcDbEntity
  8
0
  6
Continuous
 62
     7
100
AcDbLine
 10
-283.8656921386719
 20
318.9415283203125
 30
0.0
 11
-283.8656921386719
 21
299.8583679199219
 31
0.0
  0
LINE
  5
11F
330
22
100
AcDbEntity
  8
0
  6
Continuous
 62
     7
100
AcDbLine
 10
-279.565673828125
 20
326.1384582519531
 30
0.0
 11
-281.8656921386719
 21
326.1384582519531
 31
0.0
  0
LINE
  5
120
330
22
100
AcDbEntity
  8
0
  6
Continuous
 62
     7
100
AcDbLine
 10
-318.065673828125
 20
329.2384643554688
 30
0.0
 11
-318.065673828125
 21
334.3073120117188
 31
0.0
  0
LINE
  5
121
330
22
100
AcDbEntity
  8
0
  6
Continuous
 62
     7
100
AcDbLine
 10
-318.065673828125
 20
340.08154296875
 30
0.0
 11
-318.065673828125
 21
334.3073120117188
 31
0.0
  0
LINE
  5
122
330
22
100
AcDbEntity
  8
0
  6
Continuous
 62
     7
100
AcDbLine
 10
-311.8656921386719
 20
329.2384643554688
 30
0.0
 11
-311.8656921386719
 21
334.3073120117188
 31
0.0
  0
LINE
  5
123
330
22
100
AcDbEntity
  8
0
  6
Continuous
 62
     7
100
AcDbLine
 10
-311.8656921386719
 20
340.08154296875
 30
0.0
 11
-311.8656921386719
 21
334.3073120117188
 31
0.0
  0
LINE
  5
124
330
22
100
AcDbEntity
  8
0
  6
Continuous
 62
     7
100
AcDbLine
 10
-311.8656921386719
 20
351.2815246582031
 30
0.0
 11
-311.8656921386719
 21
379.5957946777344
 31
0.0
  0
LINE
  5
125
330
22
100
AcDbEntity
  8
0
  6
Continuous
 62
     7
100
AcDbLine
 10
-306.6656799316406
 20
358.9664001464844
 30
0.0
 11
-306.6656799316406
 21
376.8865356445313
 31
0.0
  0
LINE
  5
126
330
22
100
AcDbEntity
  8
0
  6
Continuous
 62
     7
100
AcDbLine
 10
-300.4656677246094
 20
317.8415222167969
 30
0.0
 11
-300.4656677246094
 21
299.3135986328125
 31
0.0
  0
LINE
  5
127
330
22
100
AcDbEntity
  8
0
  6
Continuous
 62
     7
100
AcDbLine
 10
-306.6656799316406
 20
317.8415222167969
 30
0.0
 11
-306.6656799316406
 21
299.3135986328125
 31
0.0
  0
LINE
  5
128
330
22
100
AcDbEntity
  8
0
  6
Continuous
 62
     7
100
AcDbLine
 10
-311.8656921386719
 20
306.9984436035156
 30
0.0
 11
-311.8656921386719
 21
312.7726745605469
 31
0.0
  0
LINE
  5
129
330
22
100
AcDbEntity
  8
0
  6
Continuous
 62
     7
100
AcDbLine
 10
-318.065673828125
 20
306.9984436035156
 30
0.0
 11
-318.065673828125
 21
312.7726745605469
 31
0.0
  0
LINE
  5
12A
330
22
100
AcDbEntity
  8
0
  6
Continuous
 62
     7
100
AcDbLine
 10
-311.8656921386719
 20
317.8415222167969
 30
0.0
 11
-311.8656921386719
 21
312.7726745605469
 31
0.0
  0
LINE
  5
12B
330
22
100
AcDbEntity
  8
0
  6
Continuous
 62
     7
100
AcDbLine
 10
-318.065673828125
 20
317.8415222167969
 30
0.0
 11
-318.065673828125
 21
312.7726745605469
 31
0.0
  0
LINE
  5
12C
330
22
100
AcDbEntity
  8
0
  6
Continuous
 62
     7
100
AcDbLine
 10
-327.7238159179688
 20
82.52799224853516
 30
0.0
 11
-320.4319458007813
 21
82.52799224853516
 31
0.0
  0
LINE
  5
12D
330
22
100
AcDbEntity
  8
0
  6
Continuous
 62
     7
100
AcDbLine
 10
-327.7238159179688
 20
182.5279846191406
 30
0.0
 11
-320.4319458007813
 21
182.5279846191406
 31
0.0
  0
LINE
  5
12E
330
22
100
AcDbEntity
  8
0
  6
Continuous
 62
     7
100
AcDbLine
 10
-300.4656677246094
 20
329.2384643554688
 30
0.0
 11
-300.4656677246094
 21
347.7663879394531
 31
0.0
  0
LINE
  5
12F
330
22
100
AcDbEntity
  8
0
  6
Continuous
 62
     7
100
AcDbLine
 10
-306.6656799316406
 20
329.2384643554688
 30
0.0
 11
-306.6656799316406
 21
347.7663879394531
 31
0.0
  0
LINE
  5
130
330
22
100
AcDbEntity
  8
0
  6
Continuous
 62
     7
100
AcDbLine
 10
-300.4656677246094
 20
358.9664001464844
 30
0.0
 11
-300.4656677246094
 21
372.7514953613281
 31
0.0
  0
LINE
  5
131
330
22
100
AcDbEntity
  8
0
  6
Continuous
 62
     7
100
AcDbLine
 10
-300.4656677246094
 20
288.1135864257813
 30
0.0
 11
-300.4656677246094
 21
274.3284912109375
 31
0.0
  0
LINE
  5
132
330
22
100
AcDbEntity
  8
0
  6
Continuous
 62
     7
100
AcDbLine
 10
-306.6656799316406
 20
288.1135864257813
 30
0.0
 11
-306.6656799316406
 21
270.1934509277344
 31
0.0
  0
LINE
  5
133
330
22
100
AcDbEntity
  8
0
  6
Continuous
 62
     7
100
AcDbLine
 10
-289.065673828125
 20
298.8110961914063
 30
0.0
 11
-289.065673828125
 21
285.5745849609375
 31
0.0
  0
LINE
  5
134
330
22
100
AcDbEntity
  8
0
  6
Continuous
 62
     7
100
AcDbLine
 10
-295.2656860351563
 20
298.8110961914063
 30
0.0
 11
-295.2656860351563
 21
278.7425231933594
 31
0.0
  0
LINE
  5
135
330
22
100
AcDbEntity
  8
0
  6
Continuous
 62
     7
100
AcDbLine
 10
-295.2631225585938
 20
298.9366455078125
 30
0.0
 11
-295.2610778808594
 21
278.7468872070313
 31
0.0
  0
LINE
  5
136
330
22
100
AcDbEntity
  8
0
  6
Continuous
 62
     7
100
AcDbLine
 10
-311.8656921386719
 20
295.7984619140625
 30
0.0
 11
-311.8656921386719
 21
267.4841918945313
 31
0.0
  0
LINE
  5
137
330
22
100
AcDbEntity
  8
0
  6
Continuous
 62
     7
100
AcDbLine
 10
-318.065673828125
 20
295.7984619140625
 30
0.0
 11
-318.065673828125
 21
265.0167236328125
 31
0.0
  0
LINE
  5
138
330
22
100
AcDbEntity
  8
0
  6
Continuous
 62
     7
100
AcDbLine
 10
-304.7656860351563
 20
77.52799224853515
 30
0.0
 11
-304.7656860351563
 21
101.5279922485352
 31
0.0
  0
LINE
  5
139
330
22
100
AcDbEntity
  8
0
  6
Continuous
 62
     7
100
AcDbLine
 10
-307.9656677246094
 20
84.09358215332032
 30
0.0
 11
-307.9656677246094
 21
134.0935821533203
 31
0.0
  0
LINE
  5
13A
330
22
100
AcDbEntity
  8
0
  6
Continuous
 62
     7
100
AcDbLine
 10
-307.5156860351563
 20
134.5435791015625
 30
0.0
 11
-307.4949951171875
 21
162.2874908447266
 31
0.0
  0
LINE
  5
13B
330
22
100
AcDbEntity
  8
0
  6
Continuous
 62
     7
100
AcDbLine
 10
-307.4949951171875
 20
162.2874908447266
 30
0.0
 11
-308.0699462890625
 21
180.6851196289063
 31
0.0
  0
LINE
  5
13C
330
22
100
AcDbEntity
  8
0
  6
Continuous
 62
     7
100
AcDbLine
 10
-309.9128112792969
 20
182.5279846191406
 30
0.0
 11
-308.0699462890625
 21
180.6851196289063
 31
0.0
  0
LINE
  5
13D
330
22
100
AcDbEntity
  8
0
  6
Continuous
 62
     7
100
AcDbLine
 10
-307.9656677246094
 20
40.52799224853515
 30
0.0
 11
-308.8227844238281
 21
67.95413970947265
 31
0.0
  0
LINE
  5
13E
330
22
100
AcDbEntity
  8
0
  6
Continuous
 62
     7
100
AcDbLine
 10
-307.9656677246094
 20
100.9605484008789
 30
0.0
 11
-306.3982238769531
 21
102.5279922485352
 31
0.0
  0
LINE
  5
13F
330
22
100
AcDbEntity
  8
0
  6
Continuous
 62
     7
100
AcDbLine
 10
-307.9656677246094
 20
98.13211822509765
 30
0.0
 11
-304.7656860351563
 21
101.3321151733398
 31
0.0
  0
LINE
  5
140
330
22
100
AcDbEntity
  8
0
  6
Continuous
 62
     7
100
AcDbLine
 10
-307.9656677246094
 20
95.3036880493164
 30
0.0
 11
-304.7656860351563
 21
98.50369262695313
 31
0.0
  0
LINE
  5
141
330
22
100
AcDbEntity
  8
0
  6
Continuous
 62
     7
100
AcDbLine
 10
-307.9656677246094
 20
92.47526550292969
 30
0.0
 11
-304.7656860351563
 21
95.67526245117187
 31
0.0
  0
LINE
  5
142
330
22
100
AcDbEntity
  8
0
  6
Continuous
 62
     7
100
AcDbLine
 10
-307.9656677246094
 20
89.64683532714843
 30
0.0
 11
-304.7656860351563
 21
92.84683990478516
 31
0.0
  0
LINE
  5
143
330
22
100
AcDbEntity
  8
0
  6
Continuous
 62
     7
100
AcDbLine
 10
-307.9656677246094
 20
86.81841278076172
 30
0.0
 11
-304.7656860351563
 21
90.0184097290039
 31
0.0
  0
LINE
  5
144
330
22
100
AcDbEntity
  8
0
  6
Continuous
 62
     7
100
AcDbLine
 10
-307.9656677246094
 20
83.98998260498046
 30
0.0
 11
-304.7656860351563
 21
87.18997955322265
 31
0.0
  0
LINE
  5
145
330
22
100
AcDbEntity
  8
0
  6
Continuous
 62
     7
100
AcDbLine
 10
-307.9656677246094
 20
81.16155242919921
 30
0.0
 11
-304.7656860351563
 21
84.36155700683594
 31
0.0
  0
LINE
  5
146
330
22
100
AcDbEntity
  8
0
  6
Continuous
 62
     7
100
AcDbLine
 10
-307.9656677246094
 20
78.3331298828125
 30
0.0
 11
-304.7656860351563
 21
81.53312683105468
 31
0.0
  0
LINE
  5
147
330
22
100
AcDbEntity
  8
0
  6
Continuous
 62
     7
100
AcDbLine
 10
-307.9656677246094
 20
75.50469970703125
 30
0.0
 11
-304.7656860351563
 21
78.70470428466797
 31
0.0
  0
LINE
  5
148
330
22
100
AcDbEntity
  8
0
  6
Continuous
 62
     7
100
AcDbLine
 10
-307.9656677246094
 20
72.67627716064453
 30
0.0
 11
-304.5345764160156
 21
76.10738372802734
 31
0.0
  0
LINE
  5
149
330
22
100
AcDbEntity
  8
0
  6
Continuous
 62
     7
100
AcDbLine
 10
-308.8227844238281
 20
68.99073791503906
 30
0.0
 11
-303.5355529785156
 21
74.27798461914062
 31
0.0
  0
LINE
  5
14A
330
22
100
AcDbEntity
  8
0
  6
Continuous
 62
     7
100
AcDbLine
 10
-308.7684936523438
 20
66.21660614013672
 30
0.0
 11
-301.9380798339844
 21
73.04701995849609
 31
0.0
  0
LINE
  5
14B
330
22
100
AcDbEntity
  8
0
  6
Continuous
 62
     7
100
AcDbLine
 10
-303.3184509277344
 20
68.83821868896484
 30
0.0
 11
-299.6286926269531
 21
72.52799224853515
 31
0.0
  0
LINE
  5
14C
330
22
100
AcDbEntity
  8
0
  6
Continuous
 62
     7
100
AcDbLine
 10
-308.6827697753906
 20
63.47389602661133
 30
0.0
 11
-303.5758972167969
 21
68.58075714111328
 31
0.0
  0
LINE
  5
14D
330
22
100
AcDbEntity
  8
0
  6
Continuous
 62
     7
100
AcDbLine
 10
-300.3002624511719
 20
69.02799224853516
 30
0.0
 11
-296.8002624511719
 21
72.52799224853515
 31
0.0
  0
LINE
  5
14E
330
22
100
AcDbEntity
  8
0
  6
Continuous
 62
     7
100
AcDbLine
 10
-308.5970458984375
 20
60.73118209838867
 30
0.0
 11
-303.7656860351563
 21
65.56256866455078
 31
0.0
  0
LINE
  5
14F
330
22
100
AcDbEntity
  8
0
  6
Continuous
 62
     7
100
AcDbLine
 10
-297.4718322753906
 20
69.02799224853516
 30
0.0
 11
-293.9718322753906
 21
72.52799224853515
 31
0.0
  0
LINE
  5
150
330
22
100
AcDbEntity
  8
0
  6
Continuous
 62
     7
100
AcDbLine
 10
-294.6434020996094
 20
69.02799224853516
 30
0.0
 11
-291.1434020996093
 21
72.52799224853515
 31
0.0
  0
LINE
  5
151
330
22
100
AcDbEntity
  8
0
  6
Continuous
 62
     7
100
AcDbLine
 10
-308.4256286621094
 20
55.24575805664063
 30
0.0
 11
-303.7656860351563
 21
59.90571212768554
 31
0.0
  0
LINE
  5
152
330
22
100
AcDbEntity
  8
0
  6
Continuous
 62
     7
100
AcDbLine
 10
-291.8149719238281
 20
69.02799224853516
 30
0.0
 11
-288.4153137207031
 21
72.42763519287109
 31
0.0
  0
LINE
  5
153
330
22
100
AcDbEntity
  8
0
  6
Continuous
 62
     7
100
AcDbLine
 10
-308.3399047851563
 20
52.50304412841797
 30
0.0
 11
-303.7656860351563
 21
57.0772819519043
 31
0.0
  0
LINE
  5
154
330
22
100
AcDbEntity
  8
0
  6
Continuous
 62
     7
100
AcDbLine
 10
-288.9865417480469
 20
69.02799224853516
 30
0.0
 11
-285.4865417480469
 21
72.52799224853515
 31
0.0
  0
LINE
  5
155
330
22
100
AcDbEntity
  8
0
  6
Continuous
 62
     7
100
AcDbLine
 10
-308.2542114257813
 20
49.76033020019531
 30
0.0
 11
-303.7656860351563
 21
54.24885559082031
 31
0.0
  0
LINE
  5
156
330
22
100
AcDbEntity
  8
0
  6
Continuous
 62
     7
100
AcDbLine
 10
-286.1581115722657
 20
69.02799224853516
 30
0.0
 11
-282.6581115722656
 21
72.52799224853515
 31
0.0
  0
LINE
  5
157
330
22
100
AcDbEntity
  8
0
  6
Continuous
 62
     7
100
AcDbLine
 10
-308.1684875488281
 20
47.01762008666992
 30
0.0
 11
-303.7656860351563
 21
51.42042922973633
 31
0.0
  0
LINE
  5
158
330
22
100
AcDbEntity
  8
0
  6
Continuous
 62
     7
100
AcDbLine
 10
-283.3296813964844
 20
69.02799224853516
 30
0.0
 11
-279.8296813964844
 21
72.52799224853515
 31
0.0
  0
LINE
  5
159
330
22
100
AcDbEntity
  8
0
  6
Continuous
 62
     7
100
AcDbLine
 10
-308.082763671875
 20
44.27490615844727
 30
0.0
 11
-303.7656860351563
 21
48.59200286865235
 31
0.0
  0
LINE
  5
15A
330
22
100
AcDbEntity
  8
0
  6
Continuous
 62
     7
100
AcDbLine
 10
-280.5012512207031
 20
69.02799224853516
 30
0.0
 11
-277.0012512207031
 21
72.52799224853515
 31
0.0
  0
LINE
  5
15B
330
22
100
AcDbEntity
  8
0
  6
Continuous
 62
     7
100
AcDbLine
 10
-307.9970703125
 20
41.5321922302246
 30
0.0
 11
-303.7656860351563
 21
45.76357650756835
 31
0.0
  0
LINE
  5
15C
330
22
100
AcDbEntity
  8
0
  6
Continuous
 62
     7
100
AcDbLine
 10
-277.6728515625
 20
69.02799224853516
 30
0.0
 11
-274.1728515625
 21
72.52799224853515
 31
0.0
  0
LINE
  5
15D
330
22
100
AcDbEntity
  8
0
  6
Continuous
 62
     7
100
AcDbLine
 10
-306.1728515625
 20
40.52799224853515
 30
0.0
 11
-303.7656860351563
 21
42.93514633178711
 31
0.0
  0
LINE
  5
15E
330
22
100
AcDbEntity
  8
0
  6
Continuous
 62
     7
100
AcDbLine
 10
-274.8444213867188
 20
69.02799224853516
 30
0.0
 11
-271.9288330078125
 21
71.94355773925781
 31
0.0
  0
LINE
  5
15F
330
22
100
AcDbEntity
  8
0
  6
Continuous
 62
     7
100
AcDbLine
 10
-272.0159912109375
 20
69.02799224853516
 30
0.0
 11
-268.5159912109375
 21
72.52799224853515
 31
0.0
  0
LINE
  5
160
330
22
100
AcDbEntity
  8
0
  6
Continuous
 62
     7
100
AcDbLine
 10
-269.1875610351563
 20
69.02799224853516
 30
0.0
 11
-265.6875610351563
 21
72.52799224853515
 31
0.0
  0
LINE
  5
161
330
22
100
AcDbEntity
  8
0
  6
Continuous
 62
     7
100
AcDbLine
 10
-266.359130859375
 20
69.02799224853516
 30
0.0
 11
-262.859130859375
 21
72.52799224853515
 31
0.0
  0
LINE
  5
162
330
22
100
AcDbEntity
  8
0
  6
Continuous
 62
     7
100
AcDbLine
 10
-263.5307006835938
 20
69.02799224853516
 30
0.0
 11
-260.0307006835938
 21
72.52799224853515
 31
0.0
  0
LINE
  5
163
330
22
100
AcDbEntity
  8
0
  6
Continuous
 62
     7
100
AcDbLine
 10
-260.7022705078125
 20
69.02799224853516
 30
0.0
 11
-257.2022705078125
 21
72.52799224853515
 31
0.0
  0
LINE
  5
164
330
22
100
AcDbEntity
  8
0
  6
Continuous
 62
     7
100
AcDbLine
 10
-257.8738403320313
 20
69.02799224853516
 30
0.0
 11
-255.1945190429688
 21
71.70732116699219
 31
0.0
  0
LINE
  5
165
330
22
100
AcDbEntity
  8
0
  6
Continuous
 62
     7
100
AcDbLine
 10
-309.4838562011719
 20
42.04615402221679
 30
0.0
 11
-310.2489318847656
 21
66.52799224853516
 31
0.0
  0
LINE
  5
166
330
22
100
AcDbEntity
  8
0
  6
Continuous
 62
     7
100
AcDbLine
 10
-287.5156860351563
 20
71.52799224853516
 30
0.0
 11
-288.5156860351563
 21
72.52799224853515
 31
0.0
  0
LINE
  5
167
330
22
100
AcDbEntity
  8
0
  6
Continuous
 62
     7
100
AcDbLine
 10
-287.5156860351563
 20
71.52799224853516
 30
0.0
 11
-286.5156860351563
 21
72.52799224853515
 31
0.0
  0
LINE
  5
168
330
22
100
AcDbEntity
  8
0
  6
Continuous
 62
     7
100
AcDbLine
 10
-254.7656860351563
 20
69.52799224853515
 30
0.0
 11
-254.7656860351563
 21
70.52799224853515
 31
0.0
  0
LINE
  5
169
330
22
100
AcDbEntity
  8
0
  6
Continuous
 62
     7
100
AcDbLine
 10
-307.9656677246094
 20
102.5279922485352
 30
0.0
 11
-307.9656677246094
 21
72.52799224853515
 31
0.0
  0
LINE
  5
16A
330
22
100
AcDbEntity
  8
0
  6
Continuous
 62
     7
100
AcDbLine
 10
-309.9128112792969
 20
182.5279846191406
 30
0.0
 11
-309.3378601074219
 21
164.1303558349609
 31
0.0
  0
LINE
  5
16B
330
22
100
AcDbEntity
  8
0
  6
Continuous
 62
     7
100
AcDbLine
 10
-309.4639892578125
 20
168.0262908935547
 30
0.0
 11
-309.9044494628906
 21
182.1204986572266
 31
0.0
  0
LINE
  5
16C
330
22
100
AcDbEntity
  8
0
  6
Continuous
 62
     7
100
AcDbLine
 10
-307.4949951171875
 20
162.2874908447266
 30
0.0
 11
-309.3378601074219
 21
164.1303558349609
 31
0.0
  0
LINE
  5
16D
330
22
100
AcDbEntity
  8
0
  6
Continuous
 62
     7
100
AcDbLine
 10
-307.9656677246094
 20
166.5279846191406
 30
0.0
 11
-309.4639892578125
 21
168.0262908935547
 31
0.0
  0
LINE
  5
16E
330
22
100
AcDbEntity
  8
0
  6
Continuous
 62
     7
100
AcDbLine
 10
-304.2656860351563
 20
167.5279846191406
 30
0.0
 11
-305.2656860351563
 21
166.5279846191406
 31
0.0
  0
LINE
  5
16F
330
22
100
AcDbEntity
  8
0
  6
Continuous
 62
     7
100
AcDbLine
 10
-307.6275329589844
 20
166.5279846191406
 30
0.0
 11
-305.2656860351563
 21
166.5279846191406
 31
0.0
  0
LINE
  5
170
330
22
100
AcDbEntity
  8
0
  6
Continuous
 62
     7
100
AcDbLine
 10
-307.9656677246094
 20
102.5279922485352
 30
0.0
 11
-305.7656860351563
 21
102.5279922485352
 31
0.0
  0
LINE
  5
171
330
22
100
AcDbEntity
  8
0
  6
Continuous
 62
     7
100
AcDbLine
 10
-307.9656677246094
 20
102.5279922485352
 30
0.0
 11
-309.4356689453125
 21
101.057991027832
 31
0.0
  0
LINE
  5
172
330
22
100
AcDbEntity
  8
0
  6
Continuous
 62
     7
100
AcDbLine
 10
-304.2656860351563
 20
167.5279846191406
 30
0.0
 11
-304.2656860351563
 21
188.2792816162109
 31
0.0
  0
LINE
  5
173
330
22
100
AcDbEntity
  8
0
  6
Continuous
 62
     7
100
AcDbLine
 10
-307.7656860351563
 20
183.5279846191406
 30
0.0
 11
-308.4969482421875
 21
183.5279846191406
 31
0.0
  0
LINE
  5
174
330
22
100
AcDbEntity
  8
0
  6
Continuous
 62
     7
100
AcDbLine
 10
-307.2656860351563
 20
184.0279846191406
 30
0.0
 11
-307.2656860351563
 21
187.5279846191406
 31
0.0
  0
LINE
  5
175
330
22
100
AcDbEntity
  8
0
  6
Continuous
 62
     7
100
AcDbLine
 10
-308.4969482421875
 20
183.5279846191406
 30
0.0
 11
-309.9044494628906
 21
182.1204986572266
 31
0.0
  0
LINE
  5
176
330
22
100
AcDbEntity
  8
0
  6
Continuous
 62
     7
100
AcDbLine
 10
-309.5312805175781
 20
132.5279846191406
 30
0.0
 11
-307.5156860351563
 21
134.5435791015625
 31
0.0
  0
LINE
  5
177
330
22
100
AcDbEntity
  8
0
  6
Continuous
 62
     7
100
AcDbLine
 10
-309.4356689453125
 20
73.77799224853515
 30
0.0
 11
-307.9656677246094
 21
72.52799224853515
 31
0.0
  0
LINE
  5
178
330
22
100
AcDbEntity
  8
0
  6
Continuous
 62
     7
100
AcDbLine
 10
-308.8227844238281
 20
67.95413970947265
 30
0.0
 11
-308.8227844238281
 21
72.52799224853515
 31
0.0
  0
LINE
  5
179
330
22
100
AcDbEntity
  8
0
  6
Continuous
 62
     7
100
AcDbLine
 10
-310.2489318847656
 20
66.52799224853516
 30
0.0
 11
-308.8227844238281
 21
67.95413970947265
 31
0.0
  0
LINE
  5
17A
330
22
100
AcDbEntity
  8
0
  6
Continuous
 62
     7
100
AcDbLine
 10
-309.5312805175781
 20
82.52799224853516
 30
0.0
 11
-309.5312805175781
 21
132.5279846191406
 31
0.0
  0
LINE
  5
17B
330
22
100
AcDbEntity
  8
0
  6
Continuous
 62
     7
100
AcDbLine
 10
-309.4356689453125
 20
101.057991027832
 30
0.0
 11
-309.4356689453125
 21
73.77799224853515
 31
0.0
  0
LINE
  5
17C
330
22
100
AcDbEntity
  8
0
  6
Continuous
 62
     7
100
AcDbLine
 10
-271.5132751464844
 20
71.52799224853516
 30
0.0
 11
-272.5132751464844
 21
72.52799224853515
 31
0.0
  0
LINE
  5
17D
330
22
100
AcDbEntity
  8
0
  6
Continuous
 62
     7
100
AcDbLine
 10
-271.5132751464844
 20
71.52799224853516
 30
0.0
 11
-270.5132751464844
 21
72.52799224853515
 31
0.0
  0
LINE
  5
17E
330
22
100
AcDbEntity
  8
0
  6
Continuous
 62
     7
100
AcDbLine
 10
-299.7656860351563
 20
72.52799224853515
 30
0.0
 11
-256.7656860351563
 21
72.52799224853515
 31
0.0
  0
LINE
  5
17F
330
22
100
AcDbEntity
  8
0
  6
Continuous
 62
     7
100
AcDbLine
 10
-307.9656677246094
 20
40.52799224853515
 30
0.0
 11
-309.4838562011719
 21
42.04615402221679
 31
0.0
  0
LINE
  5
180
330
22
100
AcDbEntity
  8
0
  6
Continuous
 62
     7
100
AcDbLine
 10
-311.0156860351563
 20
180.0309753417969
 30
0.0
 11
-309.8705749511719
 21
181.1760864257813
 31
0.0
  0
LINE
  5
181
330
22
100
AcDbEntity
  8
0
  6
Continuous
 62
     7
100
AcDbLine
 10
-311.0156860351563
 20
176.4954376220703
 30
0.0
 11
-309.763427734375
 21
177.7476959228516
 31
0.0
  0
LINE
  5
182
330
22
100
AcDbEntity
  8
0
  6
Continuous
 62
     7
100
AcDbLine
 10
-311.0156860351563
 20
172.9599151611328
 30
0.0
 11
-309.6562805175781
 21
174.3192901611328
 31
0.0
  0
LINE
  5
183
330
22
100
AcDbEntity
  8
0
  6
Continuous
 62
     7
100
AcDbLine
 10
-311.0156860351563
 20
169.4243774414063
 30
0.0
 11
-309.5491333007813
 21
170.8908996582031
 31
0.0
  0
LINE
  5
184
330
22
100
AcDbEntity
  8
0
  6
Continuous
 62
     7
100
AcDbLine
 10
-311.0156860351563
 20
165.8888397216797
 30
0.0
 11
-309.4420166015625
 21
167.4625091552734
 31
0.0
  0
LINE
  5
185
330
22
100
AcDbEntity
  8
0
  6
Continuous
 62
     7
100
AcDbLine
 10
-311.0156860351563
 20
162.3533020019531
 30
0.0
 11
-309.2882385253906
 21
164.0807342529297
 31
0.0
  0
LINE
  5
186
330
22
100
AcDbEntity
  8
0
  6
Continuous
 62
     7
100
AcDbLine
 10
-311.0156860351563
 20
158.8177795410156
 30
0.0
 11
-307.5204772949219
 21
162.3129730224609
 31
0.0
  0
LINE
  5
187
330
22
100
AcDbEntity
  8
0
  6
Continuous
 62
     7
100
AcDbLine
 10
-311.0156860351563
 20
155.2822418212891
 30
0.0
 11
-307.4975891113281
 21
158.8003234863281
 31
0.0
  0
LINE
  5
188
330
22
100
AcDbEntity
  8
0
  6
Continuous
 62
     7
100
AcDbLine
 10
-311.0156860351563
 20
151.7467041015625
 30
0.0
 11
-307.500244140625
 21
155.2621459960938
 31
0.0
  0
LINE
  5
189
330
22
100
AcDbEntity
  8
0
  6
Continuous
 62
     7
100
AcDbLine
 10
-311.0156860351563
 20
148.2111663818359
 30
0.0
 11
-307.5028686523438
 21
151.7239837646484
 31
0.0
  0
LINE
  5
18A
330
22
100
AcDbEntity
  8
0
  6
Continuous
 62
     7
100
AcDbLine
 10
-311.0156860351563
 20
144.6756439208984
 30
0.0
 11
-307.5055236816406
 21
148.1858062744141
 31
0.0
  0
LINE
  5
18B
330
22
100
AcDbEntity
  8
0
  6
Continuous
 62
     7
100
AcDbLine
 10
-311.0156860351563
 20
141.1401062011719
 30
0.0
 11
-307.5081481933594
 21
144.6476287841797
 31
0.0
  0
LINE
  5
18C
330
22
100
AcDbEntity
  8
0
  6
Continuous
 62
     7
100
AcDbLine
 10
-311.0156860351563
 20
137.6045684814453
 30
0.0
 11
-307.5107727050781
 21
141.1094665527344
 31
0.0
  0
LINE
  5
18D
330
22
100
AcDbEntity
  8
0
  6
Continuous
 62
     7
100
AcDbLine
 10
-311.0156860351563
 20
134.0690307617188
 30
0.0
 11
-307.513427734375
 21
137.5712890625
 31
0.0
  0
LINE
  5
18E
330
22
100
AcDbEntity
  8
0
  6
Continuous
 62
     7
100
AcDbLine
 10
-311.0156860351563
 20
130.5335083007812
 30
0.0
 11
-309.5312805175781
 21
132.0179138183594
 31
0.0
  0
LINE
  5
18F
330
22
100
AcDbEntity
  8
0
  6
Continuous
 62
     7
100
AcDbLine
 10
-311.0156860351563
 20
126.9979705810547
 30
0.0
 11
-309.5312805175781
 21
128.4823760986328
 31
0.0
  0
LINE
  5
190
330
22
100
AcDbEntity
  8
0
  6
Continuous
 62
     7
100
AcDbLine
 10
-311.0156860351563
 20
123.462432861328
 30
0.0
 11
-309.5312805175781
 21
124.9468383789063
 31
0.0
  0
LINE
  5
191
330
22
100
AcDbEntity
  8
0
  6
Continuous
 62
     7
100
AcDbLine
 10
-311.0156860351563
 20
119.9269027709961
 30
0.0
 11
-309.5312805175781
 21
121.4113082885742
 31
0.0
  0
LINE
  5
192
330
22
100
AcDbEntity
  8
0
  6
Continuous
 62
     7
100
AcDbLine
 10
-311.0156860351563
 20
116.3913650512695
 30
0.0
 11
-309.5312805175781
 21
117.8757705688477
 31
0.0
  0
LINE
  5
193
330
22
100
AcDbEntity
  8
0
  6
Continuous
 62
     7
100
AcDbLine
 10
-311.0156860351563
 20
112.8558349609375
 30
0.0
 11
-309.5312805175781
 21
114.3402404785156
 31
0.0
  0
LINE
  5
194
330
22
100
AcDbEntity
  8
0
  6
Continuous
 62
     7
100
AcDbLine
 10
-311.0156860351563
 20
109.3202972412109
 30
0.0
 11
-309.5312805175781
 21
110.8047027587891
 31
0.0
  0
LINE
  5
195
330
22
100
AcDbEntity
  8
0
  6
Continuous
 62
     7
100
AcDbLine
 10
-311.0156860351563
 20
105.7847671508789
 30
0.0
 11
-309.5312805175781
 21
107.269172668457
 31
0.0
  0
LINE
  5
196
330
22
100
AcDbEntity
  8
0
  6
Continuous
 62
     7
100
AcDbLine
 10
-311.0156860351563
 20
102.2492294311523
 30
0.0
 11
-309.5312805175781
 21
103.7336349487305
 31
0.0
  0
LINE
  5
197
330
22
100
AcDbEntity
  8
0
  6
Continuous
 62
     7
100
AcDbLine
 10
-311.0156860351563
 20
98.71369934082032
 30
0.0
 11
-309.5312805175781
 21
100.1981048583984
 31
0.0
  0
LINE
  5
198
330
22
100
AcDbEntity
  8
0
  6
Continuous
 62
     7
100
AcDbLine
 10
-311.0156860351563
 20
95.17816162109376
 30
0.0
 11
-309.5312805175781
 21
96.66256713867188
 31
0.0
  0
LINE
  5
199
330
22
100
AcDbEntity
  8
0
  6
Continuous
 62
     7
100
AcDbLine
 10
-311.0156860351563
 20
91.64263153076172
 30
0.0
 11
-309.5312805175781
 21
93.12703704833984
 31
0.0
  0
LINE
  5
19A
330
22
100
AcDbEntity
  8
0
  6
Continuous
 62
     7
100
AcDbLine
 10
-311.0156860351563
 20
88.10709381103515
 30
0.0
 11
-309.5312805175781
 21
89.59149932861327
 31
0.0
  0
LINE
  5
19B
330
22
100
AcDbEntity
  8
0
  6
Continuous
 62
     7
100
AcDbLine
 10
-311.0156860351563
 20
84.57156372070313
 30
0.0
 11
-309.5312805175781
 21
86.05596923828125
 31
0.0
  0
LINE
  5
19C
330
22
100
AcDbEntity
  8
0
  6
Continuous
 62
     7
100
AcDbLine
 10
-311.0156860351563
 20
182.5279846191406
 30
0.0
 11
-311.0156860351563
 21
82.52799224853516
 31
0.0
  0
LINE
  5
19D
330
22
100
AcDbEntity
  8
0
  6
Continuous
 62
     7
100
AcDbLine
 10
-302.7656860351563
 20
69.02799224853516
 30
0.0
 11
-255.2656860351564
 21
69.02799224853516
 31
0.0
  0
LINE
  5
19E
330
22
100
AcDbEntity
  8
0
  6
Continuous
 62
     7
100
AcDbLine
 10
-340.8656921386719
 20
317.8415222167969
 30
0.0
 11
-340.8656921386719
 21
312.7726745605469
 31
0.0
  0
LINE
  5
19F
330
22
100
AcDbEntity
  8
0
  6
Continuous
 62
     7
100
AcDbLine
 10
-340.2424621582031
 20
260.5389404296875
 30
0.0
 11
-340.5144348144531
 21
260.8109130859375
 31
0.0
  0
LINE
  5
1A0
330
22
100
AcDbEntity
  8
0
  6
Continuous
 62
     7
100
AcDbLine
 10
-340.4994506835938
 20
265.2608337402345
 30
0.0
 11
-340.2276916503906
 21
265.5325927734375
 31
0.0
  0
LINE
  5
1A1
330
22
100
AcDbEntity
  8
0
  6
Continuous
 62
     7
100
AcDbLine
 10
-340.5144348144531
 20
260.8109130859375
 30
0.0
 11
-338.8194885253906
 21
263.0431518554688
 31
0.0
  0
LINE
  5
1A2
330
22
100
AcDbEntity
  8
0
  6
Continuous
 62
     7
100
AcDbLine
 10
-339.9704895019531
 20
260.2669677734375
 30
0.0
 11
-337.7382507324219
 21
261.9619140625
 31
0.0
  0
LINE
  5
1A3
330
22
100
AcDbEntity
  8
0
  6
Continuous
 62
     7
100
AcDbLine
 10
-408.2656860351563
 20
220.5279846191406
 30
0.0
 11
-408.2656860351563
 21
215.4147491455078
 31
0.0
  0
LINE
  5
1A4
330
22
100
AcDbEntity
  8
0
  6
Continuous
 62
     7
100
AcDbLine
 10
-415.2656860351562
 20
223.5279846191406
 30
0.0
 11
-415.2656860351562
 21
221.5279846191406
 31
0.0
  0
LINE
  5
1A5
330
22
100
AcDbEntity
  8
0
  6
Continuous
 62
     7
100
AcDbLine
 10
-337.7656860351563
 20
220.5279846191406
 30
0.0
 11
-414.2656860351562
 21
220.5279846191406
 31
0.0
  0
LINE
  5
1A6
330
22
100
AcDbEntity
  8
0
  6
Continuous
 62
     7
100
AcDbLine
 10
-340.8656921386719
 20
353.4022521972656
 30
0.0
 11
-340.8656921386719
 21
385.2121276855469
 31
0.0
  0
LINE
  5
1A7
330
22
100
AcDbEntity
  8
0
  6
Continuous
 62
     7
100
AcDbLine
 10
-346.065673828125
 20
296.5322875976563
 30
0.0
 11
-346.065673828125
 21
317.8415222167969
 31
0.0
  0
LINE
  5
1A8
330
22
100
AcDbEntity
  8
0
  6
Continuous
 62
     7
100
AcDbLine
 10
-340.8656921386719
 20
342.2022399902344
 30
0.0
 11
-340.8656921386719
 21
334.3073120117188
 31
0.0
  0
LINE
  5
1A9
330
22
100
AcDbEntity
  8
0
  6
Continuous
 62
     7
100
AcDbLine
 10
-310.2656860351563
 20
190.5886840820313
 30
0.0
 11
-310.2656860351563
 21
190.5279846191406
 31
0.0
  0
LINE
  5
1AA
330
22
100
AcDbEntity
  8
0
  6
Continuous
 62
     7
100
AcDbLine
 10
-275.7656860351563
 20
72.52799224853515
 30
0.0
 11
-265.7438354492188
 21
72.52799224853515
 31
0.0
  0
LINE
  5
1AB
330
22
100
AcDbEntity
  8
0
  6
Continuous
 62
     7
100
AcDbLine
 10
-309.5312805175781
 20
82.52799224853516
 30
0.0
 11
-307.6312866210938
 21
84.42799377441406
 31
0.0
  0
LINE
  5
1AC
330
22
100
AcDbEntity
  8
0
  6
Continuous
 62
     7
100
AcDbLine
 10
-303.7656860351563
 20
68.02799224853515
 30
0.0
 11
-303.7656860351563
 21
41.52799224853516
 31
0.0
  0
LINE
  5
1AD
330
22
100
AcDbEntity
  8
0
  6
Continuous
 62
     7
100
AcDbLine
 10
-307.9656677246094
 20
166.5279846191406
 30
0.0
 11
-308.4969482421875
 21
183.5279846191406
 31
0.0
  0
LINE
  5
1AE
330
22
100
AcDbEntity
  8
0
  6
Continuous
 62
     7
100
AcDbLine
 10
-352.2656860351563
 20
350.5476989746094
 30
0.0
 11
-352.2656860351563
 21
329.2384643554688
 31
0.0
  0
LINE
  5
1AF
330
22
100
AcDbEntity
  8
0
  6
Continuous
 62
     7
100
AcDbLine
 10
-340.4994506835938
 20
265.2608337402345
 30
0.0
 11
-338.8194885253906
 21
263.0431518554688
 31
0.0
  0
LINE
  5
1B0
330
22
100
AcDbEntity
  8
0
  6
Continuous
 62
     7
100
AcDbLine
 10
-340.4994506835938
 20
265.2608337402345
 30
0.0
 11
-340.2276916503906
 21
265.5325927734375
 31
0.0
  0
LINE
  5
1B1
330
22
100
AcDbEntity
  8
0
  6
Continuous
 62
     7
100
AcDbLine
 10
-340.2424621582031
 20
260.5389404296875
 30
0.0
 11
-339.9704895019531
 21
260.2669677734375
 31
0.0
  0
LINE
  5
1B2
330
22
100
AcDbEntity
  8
0
  6
Continuous
 62
     7
100
AcDbLine
 10
-340.4994506835938
 20
265.2608337402345
 30
0.0
 11
-338.8194885253906
 21
263.0431518554688
 31
0.0
  0
LINE
  5
1B3
330
22
100
AcDbEntity
  8
0
  6
Continuous
 62
     7
100
AcDbLine
 10
-339.9559326171875
 20
265.8043518066406
 30
0.0
 11
-337.7382507324219
 21
264.1244201660156
 31
0.0
  0
LINE
  5
1B4
330
22
100
AcDbEntity
  8
0
  6
Continuous
 62
     7
100
AcDbLine
 10
-339.9559326171875
 20
265.8043518066406
 30
0.0
 11
-340.2276916503906
 21
265.5325927734375
 31
0.0
  0
LINE
  5
1B5
330
22
100
AcDbEntity
  8
0
  6
Continuous
 62
     7
100
AcDbLine
 10
-340.2424621582031
 20
260.5389404296875
 30
0.0
 11
-339.9704895019531
 21
260.2669677734375
 31
0.0
  0
LINE
  5
1B6
330
22
100
AcDbEntity
  8
0
  6
Continuous
 62
     7
100
AcDbLine
 10
-339.9559326171875
 20
265.8043518066406
 30
0.0
 11
-340.2276916503906
 21
265.5325927734375
 31
0.0
  0
LINE
  5
1B7
330
22
100
AcDbEntity
  8
0
  6
Continuous
 62
     7
100
AcDbLine
 10
-339.9559326171875
 20
265.8043518066406
 30
0.0
 11
-337.7382507324219
 21
264.1244201660156
 31
0.0
  0
LINE
  5
1B8
330
22
100
AcDbEntity
  8
0
  6
Continuous
 62
     7
100
AcDbLine
 10
-340.2424621582031
 20
260.5389404296875
 30
0.0
 11
-340.5144348144531
 21
260.8109130859375
 31
0.0
  0
LINE
  5
1B9
330
22
100
AcDbEntity
  8
0
  6
CENTER
 62
     7
100
AcDbLine
 10
-337.7656860351563
 20
407.6204833984375
 30
0.0
 11
-337.7656860351563
 21
238.6880035400391
 31
0.0
  0
LINE
  5
1BA
330
22
100
AcDbEntity
  8
0
  6
Continuous
 62
     7
100
AcDbLine
 10
-346.065673828125
 20
262.350341796875
 30
0.0
 11
-346.065673828125
 21
285.3323059082031
 31
0.0
  0
LINE
  5
1BB
330
22
100
AcDbEntity
  8
0
  6
Continuous
 62
     7
100
AcDbLine
 10
-340.8656921386719
 20
329.2384643554688
 30
0.0
 11
-340.8656921386719
 21
334.3073120117188
 31
0.0
  0
LINE
  5
1BC
330
22
100
AcDbEntity
  8
0
  6
Continuous
 62
     7
100
AcDbLine
 10
-346.065673828125
 20
384.7296447753906
 30
0.0
 11
-346.065673828125
 21
361.7476806640625
 31
0.0
  0
LINE
  5
1BD
330
22
100
AcDbEntity
  8
0
  6
Continuous
 62
     7
100
AcDbLine
 10
-346.065673828125
 20
350.5476989746094
 30
0.0
 11
-346.065673828125
 21
329.2384643554688
 31
0.0
  0
LINE
  5
1BE
330
22
100
AcDbEntity
  8
0
  6
Continuous
 62
     7
100
AcDbLine
 10
-340.8656921386719
 20
304.8478088378906
 30
0.0
 11
-340.8656921386719
 21
312.7726745605469
 31
0.0
  0
LINE
  5
1BF
330
22
100
AcDbEntity
  8
0
  6
Continuous
 62
     7
100
AcDbLine
 10
-375.065673828125
 20
317.8415222167969
 30
0.0
 11
-375.065673828125
 21
299.3135986328125
 31
0.0
  0
LINE
  5
1C0
330
22
100
AcDbEntity
  8
0
  6
Continuous
 62
     7
100
AcDbLine
 10
-386.4659423828125
 20
354.4230651855469
 30
0.0
 11
-389.0296630859375
 21
353.3424682617188
 31
0.0
  0
LINE
  5
1C1
330
22
100
AcDbEntity
  8
0
  6
Continuous
 62
     7
100
AcDbLine
 10
-386.4659423828125
 20
354.4230651855469
 30
0.0
 11
-386.5653991699219
 21
354.7942810058594
 31
0.0
  0
LINE
  5
1C2
330
22
100
AcDbEntity
  8
0
  6
Continuous
 62
     7
100
AcDbLine
 10
-386.6648864746094
 20
355.16552734375
 30
0.0
 11
-386.5653991699219
 21
354.7942810058594
 31
0.0
  0
LINE
  5
1C3
330
22
100
AcDbEntity
  8
0
  6
Continuous
 62
     7
100
AcDbLine
 10
-393.2672119140625
 20
352.6006774902344
 30
0.0
 11
-390.5066833496094
 21
352.9467163085938
 31
0.0
  0
LINE
  5
1C4
330
22
100
AcDbEntity
  8
0
  6
Continuous
 62
     7
100
AcDbLine
 10
-393.4661560058594
 20
353.3431396484375
 30
0.0
 11
-390.9024353027344
 21
354.4237060546875
 31
0.0
  0
LINE
  5
1C5
330
22
100
AcDbEntity
  8
0
  6
Continuous
 62
     7
100
AcDbLine
 10
-384.2656860351563
 20
364.1701965332031
 30
0.0
 11
-384.2656860351563
 21
347.1463317871094
 31
0.0
  0
LINE
  5
1C6
330
22
100
AcDbEntity
  8
0
  6
Continuous
 62
     7
100
AcDbLine
 10
-389.0494384765625
 20
350.4622497558594
 30
0.0
 11
-388.6779174804688
 21
350.5617980957031
 31
0.0
  0
LINE
  5
1C7
330
22
100
AcDbEntity
  8
0
  6
Continuous
 62
     7
100
AcDbLine
 10
-388.6779174804688
 20
350.5617980957031
 30
0.0
 11
-389.0296630859375
 21
353.3424682617188
 31
0.0
  0
LINE
  5
1C8
330
22
100
AcDbEntity
  8
0
  6
Continuous
 62
     7
100
AcDbLine
 10
-389.0494384765625
 20
350.4622497558594
 30
0.0
 11
-389.4209594726563
 21
350.3627014160156
 31
0.0
  0
LINE
  5
1C9
330
22
100
AcDbEntity
  8
0
  6
Continuous
 62
     7
100
AcDbLine
 10
-389.4209594726563
 20
350.3627014160156
 30
0.0
 11
-390.5066833496094
 21
352.9467163085938
 31
0.0
  0
LINE
  5
1CA
330
22
100
AcDbEntity
  8
0
  6
Continuous
 62
     7
100
AcDbLine
 10
-340.8656921386719
 20
293.6477966308594
 30
0.0
 11
-340.8656921386719
 21
271.3797607421875
 31
0.0
  0
LINE
  5
1CB
330
22
100
AcDbEntity
  8
0
  6
Continuous
 62
     7
100
AcDbLine
 10
-339.9704895019531
 20
260.2669677734375
 30
0.0
 11
-337.7382507324219
 21
261.9619140625
 31
0.0
  0
LINE
  5
1CC
330
22
100
AcDbEntity
  8
0
  6
Continuous
 62
     7
100
AcDbLine
 10
-340.5144348144531
 20
260.8109130859375
 30
0.0
 11
-338.8194885253906
 21
263.0431518554688
 31
0.0
  0
LINE
  5
1CD
330
22
100
AcDbEntity
  8
0
  6
Continuous
 62
     7
100
AcDbLine
 10
-352.2656860351563
 20
383.5634155273438
 30
0.0
 11
-352.2656860351563
 21
361.7476806640625
 31
0.0
  0
LINE
  5
1CE
330
22
100
AcDbEntity
  8
0
  6
Continuous
 62
     7
100
AcDbLine
 10
-368.8656921386719
 20
358.9664001464844
 30
0.0
 11
-368.8656921386719
 21
376.8865356445313
 31
0.0
  0
LINE
  5
1CF
330
22
100
AcDbEntity
  8
0
  6
Continuous
 62
     7
100
AcDbLine
 10
-363.6656799316406
 20
306.9984436035156
 30
0.0
 11
-363.6656799316406
 21
312.7726745605469
 31
0.0
  0
LINE
  5
1D0
330
22
100
AcDbEntity
  8
0
  6
Continuous
 62
     7
100
AcDbLine
 10
-375.065673828125
 20
329.2384643554688
 30
0.0
 11
-375.065673828125
 21
347.7663879394531
 31
0.0
  0
LINE
  5
1D1
330
22
100
AcDbEntity
  8
0
  6
Continuous
 62
     7
100
AcDbLine
 10
-397.9656677246094
 20
328.1384582519531
 30
0.0
 11
-397.9656677246094
 21
337.2881164550781
 31
0.0
  0
LINE
  5
1D2
330
22
100
AcDbEntity
  8
0
  6
Continuous
 62
     7
100
AcDbLine
 10
-380.2656860351563
 20
329.2384643554688
 30
0.0
 11
-380.2656860351563
 21
334.3073120117188
 31
0.0
  0
LINE
  5
1D3
330
22
100
AcDbEntity
  8
0
  6
Continuous
 62
     7
100
AcDbLine
 10
-352.2656860351563
 20
296.5322875976563
 30
0.0
 11
-352.2656860351563
 21
317.8415222167969
 31
0.0
  0
LINE
  5
1D4
330
22
100
AcDbEntity
  8
0
  6
Continuous
 62
     7
100
AcDbLine
 10
-352.2656860351563
 20
263.5165710449219
 30
0.0
 11
-352.2656860351563
 21
285.3323059082031
 31
0.0
  0
LINE
  5
1D5
330
22
100
AcDbEntity
  8
0
  6
Continuous
 62
     7
100
AcDbLine
 10
-393.4661560058594
 20
353.3431396484375
 30
0.0
 11
-393.3666687011719
 21
352.9718933105469
 31
0.0
  0
LINE
  5
1D6
330
22
100
AcDbEntity
  8
0
  6
Continuous
 62
     7
100
AcDbLine
 10
-391.2541809082031
 20
357.2043762207031
 30
0.0
 11
-390.9024353027344
 21
354.4237060546875
 31
0.0
  0
LINE
  5
1D7
330
22
100
AcDbEntity
  8
0
  6
Continuous
 62
     7
100
AcDbLine
 10
-390.5111389160156
 20
357.4034729003906
 30
0.0
 11
-389.4254150390625
 21
354.8194885253906
 31
0.0
  0
LINE
  5
1D8
330
22
100
AcDbEntity
  8
0
  6
Continuous
 62
     7
100
AcDbLine
 10
-386.6648864746094
 20
355.16552734375
 30
0.0
 11
-389.4254150390625
 21
354.8194885253906
 31
0.0
  0
LINE
  5
1D9
330
22
100
AcDbEntity
  8
0
  6
Continuous
 62
     7
100
AcDbLine
 10
-393.2672119140625
 20
352.6006774902344
 30
0.0
 11
-393.3666687011719
 21
352.9718933105469
 31
0.0
  0
LINE
  5
1DA
330
22
100
AcDbEntity
  8
0
  6
Continuous
 62
     7
100
AcDbLine
 10
-368.8656921386719
 20
288.1135864257813
 30
0.0
 11
-368.8656921386719
 21
270.1934509277344
 31
0.0
  0
LINE
  5
1DB
330
22
100
AcDbEntity
  8
0
  6
Continuous
 62
     7
100
AcDbLine
 10
-363.6656799316406
 20
295.7984619140625
 30
0.0
 11
-363.6656799316406
 21
267.4841918945313
 31
0.0
  0
LINE
  5
1DC
330
22
100
AcDbEntity
  8
0
  6
Continuous
 62
     7
100
AcDbLine
 10
-363.6656799316406
 20
329.2384643554688
 30
0.0
 11
-363.6656799316406
 21
334.3073120117188
 31
0.0
  0
LINE
  5
1DD
330
22
100
AcDbEntity
  8
0
  6
Continuous
 62
     7
100
AcDbLine
 10
-363.6656799316406
 20
317.8415222167969
 30
0.0
 11
-363.6656799316406
 21
312.7726745605469
 31
0.0
  0
LINE
  5
1DE
330
22
100
AcDbEntity
  8
0
  6
Continuous
 62
     7
100
AcDbLine
 10
-395.9656677246094
 20
326.1384582519531
 30
0.0
 11
-393.6656799316406
 21
326.1384582519531
 31
0.0
  0
LINE
  5
1DF
330
22
100
AcDbEntity
  8
0
  6
Continuous
 62
     7
100
AcDbLine
 10
-368.8656921386719
 20
317.8415222167969
 30
0.0
 11
-368.8656921386719
 21
299.3135986328125
 31
0.0
  0
LINE
  5
1E0
330
22
100
AcDbEntity
  8
0
  6
Continuous
 62
     7
100
AcDbLine
 10
-397.9656677246094
 20
318.9415283203125
 30
0.0
 11
-397.9656677246094
 21
309.7918701171875
 31
0.0
  0
LINE
  5
1E1
330
22
100
AcDbEntity
  8
0
  6
Continuous
 62
     7
100
AcDbLine
 10
-391.6656799316406
 20
318.9415283203125
 30
0.0
 11
-391.6656799316406
 21
299.8583679199219
 31
0.0
  0
LINE
  5
1E2
330
22
100
AcDbEntity
  8
0
  6
Continuous
 62
     7
100
AcDbLine
 10
-380.2656860351563
 20
347.1463317871094
 30
0.0
 11
-380.2656860351563
 21
368.3374633789063
 31
0.0
  0
LINE
  5
1E3
330
22
100
AcDbEntity
  8
0
  6
Continuous
 62
     7
100
AcDbLine
 10
-386.4656677246094
 20
337.0463256835938
 30
0.0
 11
-386.4656677246094
 21
334.3073120117188
 31
0.0
  0
LINE
  5
1E4
330
22
100
AcDbEntity
  8
0
  6
Continuous
 62
     7
100
AcDbLine
 10
-386.4656677246094
 20
329.2384643554688
 30
0.0
 11
-386.4656677246094
 21
334.3073120117188
 31
0.0
  0
LINE
  5
1E5
330
22
100
AcDbEntity
  8
0
  6
Continuous
 62
     7
100
AcDbLine
 10
-380.2656860351563
 20
337.0463256835938
 30
0.0
 11
-380.2656860351563
 21
334.3073120117188
 31
0.0
  0
LINE
  5
1E6
330
22
100
AcDbEntity
  8
0
  6
Continuous
 62
     7
100
AcDbLine
 10
-391.6656799316406
 20
328.1384582519531
 30
0.0
 11
-391.6656799316406
 21
347.2216186523438
 31
0.0
  0
LINE
  5
1E7
330
22
100
AcDbEntity
  8
0
  6
Continuous
 62
     7
100
AcDbLine
 10
-368.8656921386719
 20
329.2384643554688
 30
0.0
 11
-368.8656921386719
 21
347.7663879394531
 31
0.0
  0
LINE
  5
1E8
330
22
100
AcDbEntity
  8
0
  6
Continuous
 62
     7
100
AcDbLine
 10
-375.065673828125
 20
358.9664001464844
 30
0.0
 11
-375.065673828125
 21
372.7514953613281
 31
0.0
  0
LINE
  5
1E9
330
22
100
AcDbEntity
  8
0
  6
Continuous
 62
     7
100
AcDbLine
 10
-386.4656677246094
 20
298.8110961914063
 30
0.0
 11
-386.4656677246094
 21
285.5745849609375
 31
0.0
  0
LINE
  5
1EA
330
22
100
AcDbEntity
  8
0
  6
Continuous
 62
     7
100
AcDbLine
 10
-375.065673828125
 20
288.1135864257813
 30
0.0
 11
-375.065673828125
 21
274.3284912109375
 31
0.0
  0
LINE
  5
1EB
330
22
100
AcDbEntity
  8
0
  6
Continuous
 62
     7
100
AcDbLine
 10
-357.4656677246094
 20
295.7984619140625
 30
0.0
 11
-357.4656677246094
 21
265.0167236328125
 31
0.0
  0
LINE
  5
1EC
330
22
100
AcDbEntity
  8
0
  6
Continuous
 62
     7
100
AcDbLine
 10
-386.4656677246094
 20
310.0336608886719
 30
0.0
 11
-386.4656677246094
 21
312.7726745605469
 31
0.0
  0
LINE
  5
1ED
330
22
100
AcDbEntity
  8
0
  6
Continuous
 62
     7
100
AcDbLine
 10
-380.2656860351563
 20
310.0336608886719
 30
0.0
 11
-380.2656860351563
 21
312.7726745605469
 31
0.0
  0
LINE
  5
1EE
330
22
100
AcDbEntity
  8
0
  6
Continuous
 62
     7
100
AcDbLine
 10
-390.8826599121094
 20
357.3039245605469
 30
0.0
 11
-391.2541809082031
 21
357.2043762207031
 31
0.0
  0
LINE
  5
1EF
330
22
100
AcDbEntity
  8
0
  6
Continuous
 62
     7
100
AcDbLine
 10
-390.8826599121094
 20
357.3039245605469
 30
0.0
 11
-390.5111389160156
 21
357.4034729003906
 31
0.0
  0
LINE
  5
1F0
330
22
100
AcDbEntity
  8
0
  6
Continuous
 62
     7
100
AcDbLine
 10
-380.2656860351563
 20
298.8110961914063
 30
0.0
 11
-380.2656860351563
 21
278.7425231933594
 31
0.0
  0
LINE
  5
1F1
330
22
100
AcDbEntity
  8
0
  6
Continuous
 62
     7
100
AcDbLine
 10
-368.0363464355469
 20
162.2874908447266
 30
0.0
 11
-366.1934814453125
 21
164.1303558349609
 31
0.0
  0
LINE
  5
1F2
330
22
100
AcDbEntity
  8
0
  6
Continuous
 62
     7
100
AcDbLine
 10
-371.2656860351563
 20
167.5279846191406
 30
0.0
 11
-364.8092651367188
 21
167.5279846191406
 31
0.0
  0
LINE
  5
1F3
330
22
100
AcDbEntity
  8
0
  6
Continuous
 62
     7
100
AcDbLine
 10
-360.1268005371094
 20
166.5279846191406
 30
0.0
 11
-360.1268005371094
 21
190.7589721679688
 31
0.0
  0
LINE
  5
1F4
330
22
100
AcDbEntity
  8
0
  6
Continuous
 62
     7
100
AcDbLine
 10
-357.4656677246094
 20
340.08154296875
 30
0.0
 11
-357.4656677246094
 21
334.3073120117188
 31
0.0
  0
LINE
  5
1F5
330
22
100
AcDbEntity
  8
0
  6
Continuous
 62
     7
100
AcDbLine
 10
-357.4656677246094
 20
329.2384643554688
 30
0.0
 11
-357.4656677246094
 21
334.3073120117188
 31
0.0
  0
LINE
  5
1F6
330
22
100
AcDbEntity
  8
0
  6
Continuous
 62
     7
100
AcDbLine
 10
-357.4656677246094
 20
351.2815246582031
 30
0.0
 11
-357.4656677246094
 21
382.0632629394531
 31
0.0
  0
LINE
  5
1F7
330
22
100
AcDbEntity
  8
0
  6
Continuous
 62
     7
100
AcDbLine
 10
-357.4656677246094
 20
306.9984436035156
 30
0.0
 11
-357.4656677246094
 21
312.7726745605469
 31
0.0
  0
LINE
  5
1F8
330
22
100
AcDbEntity
  8
0
  6
Continuous
 62
     7
100
AcDbLine
 10
-357.4656677246094
 20
317.8415222167969
 30
0.0
 11
-357.4656677246094
 21
312.7726745605469
 31
0.0
  0
LINE
  5
1F9
330
22
100
AcDbEntity
  8
0
  6
Continuous
 62
     7
100
AcDbLine
 10
-386.4656677246094
 20
317.8415222167969
 30
0.0
 11
-386.4656677246094
 21
312.7726745605469
 31
0.0
  0
LINE
  5
1FA
330
22
100
AcDbEntity
  8
0
  6
Continuous
 62
     7
100
AcDbLine
 10
-380.2656860351563
 20
317.8415222167969
 30
0.0
 11
-380.2656860351563
 21
312.7726745605469
 31
0.0
  0
LINE
  5
1FB
330
22
100
AcDbEntity
  8
0
  6
Continuous
 62
     7
100
AcDbLine
 10
-395.9656677246094
 20
320.9415283203125
 30
0.0
 11
-393.6656799316406
 21
320.9415283203125
 31
0.0
  0
LINE
  5
1FC
330
22
100
AcDbEntity
  8
0
  6
Continuous
 62
     7
100
AcDbLine
 10
-363.6656799316406
 20
340.08154296875
 30
0.0
 11
-363.6656799316406
 21
334.3073120117188
 31
0.0
  0
LINE
  5
1FD
330
22
100
AcDbEntity
  8
0
  6
Continuous
 62
     7
100
AcDbLine
 10
-363.6656799316406
 20
351.2815246582031
 30
0.0
 11
-363.6656799316406
 21
379.5957946777344
 31
0.0
  0
LINE
  5
1FE
330
22
100
AcDbEntity
  8
0
  6
Continuous
 62
     7
100
AcDbLine
 10
-373.9005432128906
 20
53.02799224853515
 30
0.0
 11
-371.7656860351563
 21
53.02799224853515
 31
0.0
  0
LINE
  5
1FF
330
22
100
AcDbEntity
  8
0
  6
Continuous
 62
     7
100
AcDbLine
 10
-371.7656860351563
 20
68.02799224853515
 30
0.0
 11
-371.7656860351563
 21
41.52799224853516
 31
0.0
  0
LINE
  5
200
330
22
100
AcDbEntity
  8
0
  6
Continuous
 62
     7
100
AcDbLine
 10
-371.2656860351563
 20
167.5279846191406
 30
0.0
 11
-371.2656860351563
 21
188.2792816162109
 31
0.0
  0
LINE
  5
201
330
22
100
AcDbEntity
  8
0
  6
Continuous
 62
     7
100
AcDbLine
 10
-364.1690368652344
 20
166.5279846191406
 30
0.0
 11
-364.1690368652344
 21
190.7589721679688
 31
0.0
  0
LINE
  5
202
330
22
100
AcDbEntity
  8
0
  6
Continuous
 62
     7
100
AcDbLine
 10
-375.7656860351563
 20
72.52799224853515
 30
0.0
 11
-337.7656860351563
 21
72.52799224853515
 31
0.0
  0
LINE
  5
203
330
22
100
AcDbEntity
  8
0
  6
Continuous
 62
     7
100
AcDbLine
 10
-366.1934814453125
 20
164.1303558349609
 30
0.0
 11
-337.7656860351563
 21
164.1303558349609
 31
0.0
  0
LINE
  5
204
330
22
100
AcDbEntity
  8
0
  6
Continuous
 62
     7
100
AcDbLine
 10
-369.843505859375
 20
189.0208740234375
 30
0.0
 11
-364.9266357421875
 21
189.0208740234375
 31
0.0
  0
LINE
  5
205
330
22
100
AcDbEntity
  8
0
  6
Continuous
 62
     7
100
AcDbLine
 10
-370.7656860351563
 20
77.52799224853515
 30
0.0
 11
-370.7656860351563
 21
101.5279922485352
 31
0.0
  0
LINE
  5
206
330
22
100
AcDbEntity
  8
0
  6
Continuous
 62
     7
100
AcDbLine
 10
-420.2656860351563
 20
69.02799224853516
 30
0.0
 11
-337.7656860351563
 21
69.02799224853516
 31
0.0
  0
LINE
  5
207
330
22
100
AcDbEntity
  8
0
  6
Continuous
 62
     7
100
AcDbLine
 10
-418.7656860351562
 20
72.52799224853515
 30
0.0
 11
-375.7656860351563
 21
72.52799224853515
 31
0.0
  0
LINE
  5
208
330
22
100
AcDbEntity
  8
0
  6
Continuous
 62
     7
100
AcDbLine
 10
-371.2656860351563
 20
167.5279846191406
 30
0.0
 11
-370.2656860351563
 21
166.5279846191406
 31
0.0
  0
LINE
  5
209
330
22
100
AcDbEntity
  8
0
  6
Continuous
 62
     7
100
AcDbLine
 10
-368.0156860351563
 20
134.5435791015625
 30
0.0
 11
-368.0156860351563
 21
162.94921875
 31
0.0
  0
LINE
  5
20A
330
22
100
AcDbEntity
  8
0
  6
Continuous
 62
     7
100
AcDbLine
 10
-261.4934387207031
 20
224.5279846191406
 30
0.0
 11
-260.2656860351563
 21
223.3002166748047
 31
0.0
  0
LINE
  5
20B
330
22
100
AcDbEntity
  8
0
  6
Continuous
 62
     7
100
AcDbLine
 10
-262.0237731933594
 20
224.5279846191406
 30
0.0
 11
-260.2656860351563
 21
222.7698974609375
 31
0.0
  0
LINE
  5
20C
330
22
100
AcDbEntity
  8
0
  6
Continuous
 62
     7
100
AcDbLine
 10
-263.6147766113281
 20
224.5279846191406
 30
0.0
 11
-260.3236083984375
 21
221.23681640625
 31
0.0
  0
LINE
  5
20D
330
22
100
AcDbEntity
  8
0
  6
Continuous
 62
     7
100
AcDbLine
 10
-264.1451110839844
 20
224.5279846191406
 30
0.0
 11
-260.5102844238281
 21
220.8931732177734
 31
0.0
  0
LINE
  5
20E
330
22
100
AcDbEntity
  8
0
  6
Continuous
 62
     7
100
AcDbLine
 10
-265.736083984375
 20
224.5279846191406
 30
0.0
 11
-261.736083984375
 21
220.5279846191406
 31
0.0
  0
LINE
  5
20F
330
22
100
AcDbEntity
  8
0
  6
Continuous
 62
     7
100
AcDbLine
 10
-266.2664184570313
 20
224.5279846191406
 30
0.0
 11
-262.2664184570313
 21
220.5279846191406
 31
0.0
  0
LINE
  5
210
330
22
100
AcDbEntity
  8
0
  6
Continuous
 62
     7
100
AcDbLine
 10
-267.857421875
 20
224.5279846191406
 30
0.0
 11
-263.857421875
 21
220.5279846191406
 31
0.0
  0
LINE
  5
211
330
22
100
AcDbEntity
  8
0
  6
Continuous
 62
     7
100
AcDbLine
 10
-268.3877258300781
 20
224.5279846191406
 30
0.0
 11
-264.3877258300781
 21
220.5279846191406
 31
0.0
  0
LINE
  5
212
330
22
100
AcDbEntity
  8
0
  6
Continuous
 62
     7
100
AcDbLine
 10
-269.9787292480469
 20
224.5279846191406
 30
0.0
 11
-265.9787292480469
 21
220.5279846191406
 31
0.0
  0
LINE
  5
213
330
22
100
AcDbEntity
  8
0
  6
Continuous
 62
     7
100
AcDbLine
 10
-270.2656860351563
 20
224.2846069335938
 30
0.0
 11
-266.4686889648438
 21
220.4876098632813
 31
0.0
  0
LINE
  5
214
330
22
100
AcDbEntity
  8
0
  6
Continuous
 62
     7
100
AcDbLine
 10
-270.2656860351563
 20
222.6936187744141
 30
0.0
 11
-267.2381896972656
 21
219.6661376953125
 31
0.0
  0
LINE
  5
215
330
22
100
AcDbEntity
  8
0
  6
Continuous
 62
     7
100
AcDbLine
 10
-270.2656860351563
 20
222.1632843017578
 30
0.0
 11
-267.2656860351563
 21
219.1632843017578
 31
0.0
  0
LINE
  5
216
330
22
100
AcDbEntity
  8
0
  6
Continuous
 62
     7
100
AcDbLine
 10
-270.2656860351563
 20
220.5722961425781
 30
0.0
 11
-267.2656860351563
 21
217.5722961425781
 31
0.0
  0
LINE
  5
217
330
22
100
AcDbEntity
  8
0
  6
Continuous
 62
     7
100
AcDbLine
 10
-270.2656860351563
 20
220.0419769287109
 30
0.0
 11
-267.2656860351563
 21
217.0419769287109
 31
0.0
  0
LINE
  5
218
330
22
100
AcDbEntity
  8
0
  6
Continuous
 62
     7
100
AcDbLine
 10
-271.3426818847656
 20
219.5279846191406
 30
0.0
 11
-267.2656860351563
 21
215.4509735107422
 31
0.0
  0
LINE
  5
219
330
22
100
AcDbEntity
  8
0
  6
Continuous
 62
     7
100
AcDbLine
 10
-271.8730163574219
 20
219.5279846191406
 30
0.0
 11
-267.3004455566406
 21
214.9553985595703
 31
0.0
  0
LINE
  5
21A
330
22
100
AcDbEntity
  8
0
  6
Continuous
 62
     7
100
AcDbLine
 10
-273.4640197753906
 20
219.5279846191406
 30
0.0
 11
-267.605712890625
 21
213.6697082519531
 31
0.0
  0
LINE
  5
21B
330
22
100
AcDbEntity
  8
0
  6
Continuous
 62
     7
100
AcDbLine
 10
-273.7656860351563
 20
219.2993316650391
 30
0.0
 11
-267.7486877441406
 21
213.2823486328125
 31
0.0
  0
LINE
  5
21C
330
22
100
AcDbEntity
  8
0
  6
Continuous
 62
     7
100
AcDbLine
 10
-273.7656860351563
 20
217.7083435058594
 30
0.0
 11
-268.3632202148438
 21
212.3058624267578
 31
0.0
  0
LINE
  5
21D
330
22
100
AcDbEntity
  8
0
  6
Continuous
 62
     7
100
AcDbLine
 10
-273.7656860351563
 20
217.1780090332031
 30
0.0
 11
-268.6179809570313
 21
212.0303192138672
 31
0.0
  0
LINE
  5
21E
330
22
100
AcDbEntity
  8
0
  6
Continuous
 62
     7
100
AcDbLine
 10
-273.7656860351563
 20
215.5870208740234
 30
0.0
 11
-269.4723510742188
 21
211.2936706542969
 31
0.0
  0
LINE
  5
21F
330
22
100
AcDbEntity
  8
0
  6
Continuous
 62
     7
100
AcDbLine
 10
-273.7698059082031
 20
215.0608215332031
 30
0.0
 11
-269.7833862304688
 21
211.0744018554688
 31
0.0
  0
LINE
  5
220
330
22
100
AcDbEntity
  8
0
  6
Continuous
 62
     7
100
AcDbLine
 10
-273.9986877441406
 20
213.6986999511719
 30
0.0
 11
-270.7920227050781
 21
210.4920501708984
 31
0.0
  0
LINE
  5
221
330
22
100
AcDbEntity
  8
0
  6
Continuous
 62
     7
100
AcDbLine
 10
-274.1238708496094
 20
213.2935638427734
 30
0.0
 11
-271.1282348632813
 21
210.2979431152344
 31
0.0
  0
LINE
  5
222
330
22
100
AcDbEntity
  8
0
  6
Continuous
 62
     7
100
AcDbLine
 10
-274.6795349121094
 20
212.2582397460938
 30
0.0
 11
-272.1369018554688
 21
209.7155914306641
 31
0.0
  0
LINE
  5
223
330
22
100
AcDbEntity
  8
0
  6
Continuous
 62
     7
100
AcDbLine
 10
-274.9199829101563
 20
211.9683532714844
 30
0.0
 11
-272.4731140136719
 21
209.521484375
 31
0.0
  0
LINE
  5
224
330
22
100
AcDbEntity
  8
0
  6
Continuous
 62
     7
100
AcDbLine
 10
-275.7266235351563
 20
211.1840057373047
 30
0.0
 11
-273.4817504882813
 21
208.9391326904297
 31
0.0
  0
LINE
  5
225
330
22
100
AcDbEntity
  8
0
  6
Continuous
 62
     7
100
AcDbLine
 10
-276.0204772949219
 20
210.9475250244141
 30
0.0
 11
-273.8179626464845
 21
208.7450256347656
 31
0.0
  0
LINE
  5
226
330
22
100
AcDbEntity
  8
0
  6
Continuous
 62
     7
100
AcDbLine
 10
-277.0227661132813
 20
210.3588256835938
 30
0.0
 11
-274.8266296386719
 21
208.1626739501953
 31
0.0
  0
LINE
  5
227
330
22
100
AcDbEntity
  8
0
  6
Continuous
 62
     7
100
AcDbLine
 10
-277.3589782714844
 20
210.1647186279297
 30
0.0
 11
-275.162841796875
 21
207.9685668945313
 31
0.0
  0
LINE
  5
228
330
22
100
AcDbEntity
  8
0
  6
Continuous
 62
     7
100
AcDbLine
 10
-278.3676452636719
 20
209.5823669433594
 30
0.0
 11
-276.1714782714844
 21
207.3862152099609
 31
0.0
  0
LINE
  5
229
330
22
100
AcDbEntity
  8
0
  6
Continuous
 62
     7
100
AcDbLine
 10
-278.703857421875
 20
209.3882598876953
 30
0.0
 11
-276.5076904296875
 21
207.1921081542969
 31
0.0
  0
LINE
  5
22A
330
22
100
AcDbEntity
  8
0
  6
Continuous
 62
     7
100
AcDbLine
 10
-279.7124938964844
 20
208.8059234619141
 30
0.0
 11
-277.516357421875
 21
206.6097717285156
 31
0.0
  0
LINE
  5
22B
330
22
100
AcDbEntity
  8
0
  6
Continuous
 62
     7
100
AcDbLine
 10
-280.0487060546875
 20
208.6118011474609
 30
0.0
 11
-277.8525695800781
 21
206.4156494140625
 31
0.0
  0
LINE
  5
22C
330
22
100
AcDbEntity
  8
0
  6
Continuous
 62
     7
100
AcDbLine
 10
-281.057373046875
 20
208.0294647216797
 30
0.0
 11
-278.8612060546875
 21
205.8333129882814
 31
0.0
  0
LINE
  5
22D
330
22
100
AcDbEntity
  8
0
  6
Continuous
 62
     7
100
AcDbLine
 10
-281.3935852050781
 20
207.8353424072266
 30
0.0
 11
-279.1974182128906
 21
205.6391906738281
 31
0.0
  0
LINE
  5
22E
330
22
100
AcDbEntity
  8
0
  6
Continuous
 62
     7
100
AcDbLine
 10
-282.4022216796875
 20
207.2530059814453
 30
0.0
 11
-280.2060852050781
 21
205.0568542480469
 31
0.0
  0
LINE
  5
22F
330
22
100
AcDbEntity
  8
0
  6
Continuous
 62
     7
100
AcDbLine
 10
-282.7384338378906
 20
207.0588836669922
 30
0.0
 11
-280.5422973632813
 21
204.8627319335938
 31
0.0
  0
LINE
  5
230
330
22
100
AcDbEntity
  8
0
  6
Continuous
 62
     7
100
AcDbLine
 10
-283.7471008300781
 20
206.4765472412109
 30
0.0
 11
-281.5509338378906
 21
204.2803955078125
 31
0.0
  0
LINE
  5
231
330
22
100
AcDbEntity
  8
0
  6
Continuous
 62
     7
100
AcDbLine
 10
-284.0833129882813
 20
206.2824249267578
 30
0.0
 11
-281.8871459960938
 21
204.0862731933594
 31
0.0
  0
LINE
  5
232
330
22
100
AcDbEntity
  8
0
  6
Continuous
 62
     7
100
AcDbLine
 10
-285.0919494628906
 20
205.7000885009766
 30
0.0
 11
-282.8958129882813
 21
203.5039367675781
 31
0.0
  0
LINE
  5
233
330
22
100
AcDbEntity
  8
0
  6
Continuous
 62
     7
100
AcDbLine
 10
-285.4281616210938
 20
205.5059814453125
 30
0.0
 11
-283.2320251464844
 21
203.3098297119141
 31
0.0
  0
LINE
  5
234
330
22
100
AcDbEntity
  8
0
  6
Continuous
 62
     7
100
AcDbLine
 10
-286.4368286132813
 20
204.9236297607422
 30
0.0
 11
-284.2406616210938
 21
202.7274780273438
 31
0.0
  0
LINE
  5
235
330
22
100
AcDbEntity
  8
0
  6
Continuous
 62
     7
100
AcDbLine
 10
-286.7730407714844
 20
204.7295227050781
 30
0.0
 11
-284.5768737792969
 21
202.5333709716797
 31
0.0
  0
LINE
  5
236
330
22
100
AcDbEntity
  8
0
  6
Continuous
 62
     7
100
AcDbLine
 10
-287.7816772460938
 20
204.1471710205078
 30
0.0
 11
-285.5855407714844
 21
201.9510192871094
 31
0.0
  0
LINE
  5
237
330
22
100
AcDbEntity
  8
0
  6
Continuous
 62
     7
100
AcDbLine
 10
-288.1178894042969
 20
203.9530639648438
 30
0.0
 11
-285.9217529296875
 21
201.7569122314453
 31
0.0
  0
LINE
  5
238
330
22
100
AcDbEntity
  8
0
  6
Continuous
 62
     7
100
AcDbLine
 10
-289.1265563964844
 20
203.3707122802734
 30
0.0
 11
-286.9303894042969
 21
201.174560546875
 31
0.0
  0
LINE
  5
239
330
22
100
AcDbEntity
  8
0
  6
Continuous
 62
     7
100
AcDbLine
 10
-289.4627685546875
 20
203.1766052246094
 30
0.0
 11
-287.2666015625
 21
200.9804534912109
 31
0.0
  0
LINE
  5
23A
330
22
100
AcDbEntity
  8
0
  6
Continuous
 62
     7
100
AcDbLine
 10
-290.4714050292969
 20
202.5942535400391
 30
0.0
 11
-288.2752380371094
 21
200.3981018066406
 31
0.0
  0
LINE
  5
23B
330
22
100
AcDbEntity
  8
0
  6
Continuous
 62
     7
100
AcDbLine
 10
-290.8076171875
 20
202.400146484375
 30
0.0
 11
-288.6114807128906
 21
200.2039947509766
 31
0.0
  0
LINE
  5
23C
330
22
100
AcDbEntity
  8
0
  6
Continuous
 62
     7
100
AcDbLine
 10
-291.8162536621094
 20
201.8178100585938
 30
0.0
 11
-289.6201171875
 21
199.6216583251953
 31
0.0
  0
LINE
  5
23D
330
22
100
AcDbEntity
  8
0
  6
Continuous
 62
     7
100
AcDbLine
 10
-292.1524963378906
 20
201.6236877441406
 30
0.0
 11
-289.9563293457031
 21
199.4275360107422
 31
0.0
  0
LINE
  5
23E
330
22
100
AcDbEntity
  8
0
  6
Continuous
 62
     7
100
AcDbLine
 10
-293.1611328125
 20
201.0413513183594
 30
0.0
 11
-290.9649658203125
 21
198.8451995849609
 31
0.0
  0
LINE
  5
23F
330
22
100
AcDbEntity
  8
0
  6
Continuous
 62
     7
100
AcDbLine
 10
-293.4973449707031
 20
200.8472290039063
 30
0.0
 11
-291.3012084960938
 21
198.6510772705078
 31
0.0
  0
LINE
  5
240
330
22
100
AcDbEntity
  8
0
  6
Continuous
 62
     7
100
AcDbLine
 10
-294.5059814453125
 20
200.264892578125
 30
0.0
 11
-292.3098449707031
 21
198.0687408447266
 31
0.0
  0
LINE
  5
241
330
22
100
AcDbEntity
  8
0
  6
Continuous
 62
     7
100
AcDbLine
 10
-294.8422241210938
 20
200.0707702636719
 30
0.0
 11
-292.6460571289063
 21
197.8746185302734
 31
0.0
  0
LINE
  5
242
330
22
100
AcDbEntity
  8
0
  6
Continuous
 62
     7
100
AcDbLine
 10
-295.8508605957031
 20
199.4884338378906
 30
0.0
 11
-293.6546936035156
 21
197.2922821044922
 31
0.0
  0
LINE
  5
243
330
22
100
AcDbEntity
  8
0
  6
Continuous
 62
     7
100
AcDbLine
 10
-296.1870727539063
 20
199.2943115234375
 30
0.0
 11
-293.9909362792969
 21
197.098159790039
 31
0.0
  0
LINE
  5
244
330
22
100
AcDbEntity
  8
0
  6
Continuous
 62
     7
100
AcDbLine
 10
-297.1957092285156
 20
198.7119750976563
 30
0.0
 11
-294.9995727539063
 21
196.5158233642578
 31
0.0
  0
LINE
  5
245
330
22
100
AcDbEntity
  8
0
  6
Continuous
 62
     7
100
AcDbLine
 10
-297.5319519042969
 20
198.5178527832031
 30
0.0
 11
-295.3357849121094
 21
196.3217010498047
 31
0.0
  0
LINE
  5
246
330
22
100
AcDbEntity
  8
0
  6
Continuous
 62
     7
100
AcDbLine
 10
-298.5405883789063
 20
197.9355163574219
 30
0.0
 11
-296.3444213867188
 21
195.7393646240234
 31
0.0
  0
LINE
  5
247
330
22
100
AcDbEntity
  8
0
  6
Continuous
 62
     7
100
AcDbLine
 10
-298.8768005371094
 20
197.7414093017578
 30
0.0
 11
-296.6806335449219
 21
195.5452575683594
 31
0.0
  0
LINE
  5
248
330
22
100
AcDbEntity
  8
0
  6
Continuous
 62
     7
100
AcDbLine
 10
-299.8854370117188
 20
197.1590576171875
 30
0.0
 11
-297.6893005371094
 21
194.9629058837891
 31
0.0
  0
LINE
  5
249
330
22
100
AcDbEntity
  8
0
  6
Continuous
 62
     7
100
AcDbLine
 10
-300.2216491699219
 20
196.9649505615234
 30
0.0
 11
-298.0255126953125
 21
194.768798828125
 31
0.0
  0
LINE
  5
24A
330
22
100
AcDbEntity
  8
0
  6
Continuous
 62
     7
100
AcDbLine
 10
-301.2303161621094
 20
196.3825988769531
 30
0.0
 11
-299.0341491699219
 21
194.1864471435547
 31
0.0
  0
LINE
  5
24B
330
22
100
AcDbEntity
  8
0
  6
Continuous
 62
     7
100
AcDbLine
 10
-301.5665283203125
 20
196.1884918212891
 30
0.0
 11
-299.370361328125
 21
193.9923400878906
 31
0.0
  0
LINE
  5
24C
330
22
100
AcDbEntity
  8
0
  6
Continuous
 62
     7
100
AcDbLine
 10
-302.5751647949219
 20
195.6061401367188
 30
0.0
 11
-300.3790283203125
 21
193.4099884033203
 31
0.0
  0
LINE
  5
24D
330
22
100
AcDbEntity
  8
0
  6
Continuous
 62
     7
100
AcDbLine
 10
-302.911376953125
 20
195.4120330810546
 30
0.0
 11
-300.7152404785156
 21
193.2158813476563
 31
0.0
  0
LINE
  5
24E
330
22
100
AcDbEntity
  8
0
  6
Continuous
 62
     7
100
AcDbLine
 10
-303.9200439453125
 20
194.8296813964844
 30
0.0
 11
-301.723876953125
 21
192.6335296630859
 31
0.0
  0
LINE
  5
24F
330
22
100
AcDbEntity
  8
0
  6
Continuous
 62
     7
100
AcDbLine
 10
-304.2562561035156
 20
194.6355743408203
 30
0.0
 11
-302.0496826171875
 21
192.4290008544922
 31
0.0
  0
LINE
  5
250
330
22
100
AcDbEntity
  8
0
  6
Continuous
 62
     7
100
AcDbLine
 10
-305.264892578125
 20
194.0532379150391
 30
0.0
 11
-302.9017944335938
 21
191.6901245117188
 31
0.0
  0
LINE
  5
251
330
22
100
AcDbEntity
  8
0
  6
Continuous
 62
     7
100
AcDbLine
 10
-305.6011047363281
 20
193.8591156005859
 30
0.0
 11
-303.1419677734375
 21
191.3999786376953
 31
0.0
  0
LINE
  5
252
330
22
100
AcDbEntity
  8
0
  6
Continuous
 62
     7
100
AcDbLine
 10
-306.6097717285156
 20
193.2767791748047
 30
0.0
 11
-303.7606201171875
 21
190.4276428222656
 31
0.0
  0
LINE
  5
253
330
22
100
AcDbEntity
  8
0
  6
Continuous
 62
     7
100
AcDbLine
 10
-306.9459838867188
 20
193.0826568603516
 30
0.0
 11
-303.9237060546875
 21
190.0603790283203
 31
0.0
  0
LINE
  5
254
330
22
100
AcDbEntity
  8
0
  6
Continuous
 62
     7
100
AcDbLine
 10
-307.9546203613281
 20
192.5003204345703
 30
0.0
 11
-304.218017578125
 21
188.7637176513672
 31
0.0
  0
LINE
  5
255
330
22
100
AcDbEntity
  8
0
  6
Continuous
 62
     7
100
AcDbLine
 10
-308.2908325195313
 20
192.3061981201172
 30
0.0
 11
-304.2656555175781
 21
188.281005859375
 31
0.0
  0
LINE
  5
256
330
22
100
AcDbEntity
  8
0
  6
Continuous
 62
     7
100
AcDbLine
 10
-309.2994995117188
 20
191.7238616943359
 30
0.0
 11
-304.2656860351563
 21
186.6900482177734
 31
0.0
  0
LINE
  5
257
330
22
100
AcDbEntity
  8
0
  6
Continuous
 62
     7
100
AcDbLine
 10
-309.6357116699219
 20
191.5297393798828
 30
0.0
 11
-304.2656860351563
 21
186.1597137451172
 31
0.0
  0
LINE
  5
258
330
22
100
AcDbEntity
  8
0
  6
Continuous
 62
     7
100
AcDbLine
 10
-307.2662353515625
 20
187.5692749023438
 30
0.0
 11
-304.2656860351563
 21
184.5687255859375
 31
0.0
  0
LINE
  5
259
330
22
100
AcDbEntity
  8
0
  6
Continuous
 62
     7
100
AcDbLine
 10
-310.2655944824219
 20
190.5686492919922
 30
0.0
 11
-309.2148132324219
 21
189.5178680419922
 31
0.0
  0
LINE
  5
25A
330
22
100
AcDbEntity
  8
0
  6
Continuous
 62
     7
100
AcDbLine
 10
-307.2656860351563
 20
187.0384063720703
 30
0.0
 11
-304.2656860351563
 21
184.0384063720703
 31
0.0
  0
LINE
  5
25B
330
22
100
AcDbEntity
  8
0
  6
Continuous
 62
     7
100
AcDbLine
 10
-307.2656860351563
 20
185.4474029541016
 30
0.0
 11
-304.2656860351563
 21
182.4474029541016
 31
0.0
  0
LINE
  5
25C
330
22
100
AcDbEntity
  8
0
  6
Continuous
 62
     7
100
AcDbLine
 10
-307.2656860351563
 20
184.9170837402344
 30
0.0
 11
-304.2656860351563
 21
181.9170837402344
 31
0.0
  0
LINE
  5
25D
330
22
100
AcDbEntity
  8
0
  6
Continuous
 62
     7
100
AcDbLine
 10
-307.5549011230469
 20
183.6152954101563
 30
0.0
 11
-304.2656860351563
 21
180.3260955810547
 31
0.0
  0
LINE
  5
25E
330
22
100
AcDbEntity
  8
0
  6
Continuous
 62
     7
100
AcDbLine
 10
-307.9979248046875
 20
183.5279846191406
 30
0.0
 11
-304.2656860351563
 21
179.7957611083984
 31
0.0
  0
LINE
  5
25F
330
22
100
AcDbEntity
  8
0
  6
Continuous
 62
     7
100
AcDbLine
 10
-308.4617309570313
 20
182.4008178710938
 30
0.0
 11
-304.2656860351563
 21
178.2047729492188
 31
0.0
  0
LINE
  5
260
330
22
100
AcDbEntity
  8
0
  6
Continuous
 62
     7
100
AcDbLine
 10
-308.4446105957031
 20
181.8533782958984
 30
0.0
 11
-304.2656860351563
 21
177.6744384765625
 31
0.0
  0
LINE
  5
261
330
22
100
AcDbEntity
  8
0
  6
Continuous
 62
     7
100
AcDbLine
 10
-308.393310546875
 20
180.2110595703125
 30
0.0
 11
-304.2656860351563
 21
176.0834503173828
 31
0.0
  0
LINE
  5
262
330
22
100
AcDbEntity
  8
0
  6
Continuous
 62
     7
100
AcDbLine
 10
-308.3761901855469
 20
179.6636199951172
 30
0.0
 11
-304.2656860351563
 21
175.5531158447266
 31
0.0
  0
LINE
  5
263
330
22
100
AcDbEntity
  8
0
  6
Continuous
 62
     7
100
AcDbLine
 10
-308.3248596191406
 20
178.0213165283203
 30
0.0
 11
-304.2656860351563
 21
173.9621276855469
 31
0.0
  0
LINE
  5
264
330
22
100
AcDbEntity
  8
0
  6
Continuous
 62
     7
100
AcDbLine
 10
-308.3077697753906
 20
177.473876953125
 30
0.0
 11
-304.2656860351563
 21
173.4317932128906
 31
0.0
  0
LINE
  5
265
330
22
100
AcDbEntity
  8
0
  6
Continuous
 62
     7
100
AcDbLine
 10
-308.2564392089844
 20
175.8315582275391
 30
0.0
 11
-304.2656860351563
 21
171.8408050537109
 31
0.0
  0
LINE
  5
266
330
22
100
AcDbEntity
  8
0
  6
Continuous
 62
     7
100
AcDbLine
 10
-308.2393188476563
 20
175.2841186523438
 30
0.0
 11
-304.2656860351563
 21
171.3104705810547
 31
0.0
  0
LINE
  5
267
330
22
100
AcDbEntity
  8
0
  6
Continuous
 62
     7
100
AcDbLine
 10
-308.18798828125
 20
173.6417999267578
 30
0.0
 11
-304.2656860351563
 21
169.719482421875
 31
0.0
  0
LINE
  5
268
330
22
100
AcDbEntity
  8
0
  6
Continuous
 62
     7
100
AcDbLine
 10
-308.1708984375
 20
173.0943603515625
 30
0.0
 11
-304.2656860351563
 21
169.1891632080078
 31
0.0
  0
LINE
  5
269
330
22
100
AcDbEntity
  8
0
  6
Continuous
 62
     7
100
AcDbLine
 10
-308.1195678710938
 20
171.4520568847656
 30
0.0
 11
-304.2656860351563
 21
167.5981597900391
 31
0.0
  0
LINE
  5
26A
330
22
100
AcDbEntity
  8
0
  6
Continuous
 62
     7
100
AcDbLine
 10
-308.1024475097656
 20
170.9046173095703
 30
0.0
 11
-304.4957580566406
 21
167.2979125976563
 31
0.0
  0
LINE
  5
26B
330
22
100
AcDbEntity
  8
0
  6
Continuous
 62
     7
100
AcDbLine
 10
-308.0511169433594
 20
169.2622985839844
 30
0.0
 11
-305.3168334960938
 21
166.5279846191406
 31
0.0
  0
LINE
  5
26C
330
22
100
AcDbEntity
  8
0
  6
Continuous
 62
     7
100
AcDbLine
 10
-308.0340270996094
 20
168.7148590087891
 30
0.0
 11
-305.84716796875
 21
166.5279846191406
 31
0.0
  0
LINE
  5
26D
330
22
100
AcDbEntity
  8
0
  6
Continuous
 62
     7
100
AcDbLine
 10
-307.9826965332031
 20
167.0725402832031
 30
0.0
 11
-307.4381408691406
 21
166.5279846191406
 31
0.0
  0
LINE
  5
26E
330
22
100
AcDbEntity
  8
0
  6
Continuous
 62
     7
100
AcDbLine
 10
-276.2656860351563
 20
210.7959442138672
 30
0.0
 11
-309.7656860351563
 21
191.4547119140625
 31
0.0
  0
LINE
  5
26F
330
22
100
AcDbEntity
  8
0
  6
Continuous
 62
     7
100
AcDbLine
 10
-269.7656860351563
 20
211.0846099853516
 30
0.0
 11
-301.7656860351563
 21
192.6094055175781
 31
0.0
  0
LINE
  5
270
330
22
100
AcDbEntity
  8
0
  6
Continuous
 62
     7
100
AcDbLine
 10
-370.2656860351563
 20
166.5279846191406
 30
0.0
 11
-337.7656860351563
 21
166.5279846191406
 31
0.0
  0
LINE
  5
271
330
22
100
AcDbEntity
  8
0
  6
Continuous
 62
     7
100
AcDbLine
 10
-369.7656860351563
 20
102.5279922485352
 30
0.0
 11
-337.7656860351563
 21
102.5279922485352
 31
0.0
  0
LINE
  5
272
330
22
100
AcDbEntity
  8
0
  6
Continuous
 62
     7
100
AcDbLine
 10
-337.7656860351563
 20
132.5279846191406
 30
0.0
 11
-366.0000915527344
 21
132.5279846191406
 31
0.0
  0
LINE
  5
273
330
22
100
AcDbEntity
  8
0
  6
Continuous
 62
     7
100
AcDbLine
 10
-359.3702392578125
 20
167.5279846191406
 30
0.0
 11
-337.7656860351563
 21
167.5279846191406
 31
0.0
  0
LINE
  5
274
330
22
100
AcDbEntity
  8
0
  6
Continuous
 62
     7
100
AcDbLine
 10
-358.76904296875
 20
189.0208740234375
 30
0.0
 11
-337.7656860351563
 21
189.0208740234375
 31
0.0
  0
LINE
  5
275
330
22
100
AcDbEntity
  8
0
  6
Continuous
 62
     7
100
AcDbLine
 10
-371.935546875
 20
192.0610656738281
 30
0.0
 11
-337.7656860351563
 21
192.0610656738281
 31
0.0
  0
LINE
  5
276
330
22
100
AcDbEntity
  8
0
  6
Continuous
 62
     7
100
AcDbLine
 10
-366.1185607910156
 20
166.5279846191406
 30
0.0
 11
-366.1934814453125
 21
164.1303558349609
 31
0.0
  0
LINE
  5
277
330
22
100
AcDbEntity
  8
0
  6
Continuous
 62
     7
100
AcDbLine
 10
-368.0363464355469
 20
162.2874908447266
 30
0.0
 11
-367.9038391113281
 21
166.5279846191406
 31
0.0
  0
LINE
  5
278
330
22
100
AcDbEntity
  8
0
  6
Continuous
 62
     7
100
AcDbLine
 10
-367.9000854492188
 20
102.5279922485352
 30
0.0
 11
-367.9000854492188
 21
134.4279937744141
 31
0.0
  0
LINE
  5
279
330
22
100
AcDbEntity
  8
0
  6
Continuous
 62
     7
100
AcDbLine
 10
-366.0000915527344
 20
132.5279846191406
 30
0.0
 11
-366.0000915527344
 21
102.5279922485352
 31
0.0
  0
LINE
  5
27A
330
22
100
AcDbEntity
  8
0
  6
Continuous
 62
     7
100
AcDbLine
 10
-366.0000915527344
 20
132.5279846191406
 30
0.0
 11
-368.0156860351563
 21
134.5435791015625
 31
0.0
  0
LINE
  5
27B
330
22
100
AcDbEntity
  8
0
  6
Continuous
 62
     7
100
AcDbLine
 10
-386.7656860351563
 20
69.02799224853516
 30
0.0
 11
-386.7656860351563
 21
67.50067138671875
 31
0.0
  0
LINE
  5
27C
330
22
100
AcDbEntity
  8
0
  6
Continuous
 62
     7
100
AcDbLine
 10
-386.7656860351563
 20
69.02799224853516
 30
0.0
 11
-403.2759704589843
 21
69.02799224853516
 31
0.0
  0
LINE
  5
27D
330
22
100
AcDbEntity
  8
0
  6
Continuous
 62
     7
100
AcDbLine
 10
-420.7656860351563
 20
69.52799224853515
 30
0.0
 11
-420.7656860351563
 21
70.52799224853515
 31
0.0
  0
LINE
  5
27E
330
22
100
AcDbEntity
  8
0
  6
Continuous
 62
     7
100
AcDbLine
 10
-309.7868347167969
 20
189.5279846191406
 30
0.0
 11
-337.7656860351563
 21
189.5279846191406
 31
0.0
  0
LINE
  5
27F
330
22
100
AcDbEntity
  8
0
  6
Continuous
 62
     7
100
AcDbLine
 10
-309.9188232421875
 20
191.4618377685547
 30
0.0
 11
-337.7656860351563
 21
191.4618377685547
 31
0.0
  0
LINE
  5
280
330
22
100
AcDbEntity
  8
0
  6
Continuous
 62
     7
100
AcDbLine
 10
-309.4838562011719
 20
42.04615402221679
 30
0.0
 11
-337.7656860351563
 21
42.04615402221679
 31
0.0
  0
LINE
  5
281
330
22
100
AcDbEntity
  8
0
  6
Continuous
 62
     7
100
AcDbLine
 10
-337.7656860351563
 20
183.5279846191406
 30
0.0
 11
-308.4969482421875
 21
183.5279846191406
 31
0.0
  0
LINE
  5
282
330
22
100
AcDbEntity
  8
0
  6
Continuous
 62
     7
100
AcDbLine
 10
-337.7656860351563
 20
182.5279846191406
 30
0.0
 11
-309.9128112792969
 21
182.5279846191406
 31
0.0
  0
LINE
  5
283
330
22
100
AcDbEntity
  8
0
  6
Continuous
 62
     7
100
AcDbLine
 10
-307.9656677246094
 20
72.52799224853515
 30
0.0
 11
-337.7656860351563
 21
72.52799224853515
 31
0.0
  0
LINE
  5
284
330
22
100
AcDbEntity
  8
0
  6
Continuous
 62
     7
100
AcDbLine
 10
-337.7656860351563
 20
73.77799224853515
 30
0.0
 11
-309.4356689453125
 21
73.77799224853515
 31
0.0
  0
LINE
  5
285
330
22
100
AcDbEntity
  8
0
  6
Continuous
 62
     7
100
AcDbLine
 10
-308.8227844238281
 20
67.95413970947265
 30
0.0
 11
-337.7656860351563
 21
67.95413970947265
 31
0.0
  0
LINE
  5
286
330
22
100
AcDbEntity
  8
0
  6
Continuous
 62
     7
100
AcDbLine
 10
-337.7656860351563
 20
82.52799224853516
 30
0.0
 11
-309.5312805175781
 21
82.52799224853516
 31
0.0
  0
LINE
  5
287
330
22
100
AcDbEntity
  8
0
  6
Continuous
 62
     7
100
AcDbLine
 10
-281.1284484863281
 20
219.5279846191406
 30
0.0
 11
-337.7656860351563
 21
219.5279846191406
 31
0.0
  0
LINE
  5
288
330
22
100
AcDbEntity
  8
0
  6
Continuous
 62
     7
100
AcDbLine
 10
-337.7656860351563
 20
221.5279846191406
 30
0.0
 11
-274.2656860351563
 21
221.5279846191406
 31
0.0
  0
LINE
  5
289
330
22
100
AcDbEntity
  8
0
  6
Continuous
 62
     7
100
AcDbLine
 10
-310.2489318847656
 20
66.52799224853516
 30
0.0
 11
-337.7656860351563
 21
66.52799224853516
 31
0.0
  0
LINE
  5
28A
330
22
100
AcDbEntity
  8
0
  6
Continuous
 62
     7
100
AcDbLine
 10
-404.7209167480469
 20
212.9147491455078
 30
0.0
 11
-337.7656860351563
 21
212.9147491455078
 31
0.0
  0
LINE
  5
28B
330
22
100
AcDbEntity
  8
0
  6
CENTER
 62
     7
100
AcDbLine
 10
-337.7656860351563
 20
36.96469116210938
 30
0.0
 11
-337.7656860351563
 21
229.6194610595703
 31
0.0
  0
LINE
  5
28C
330
22
100
AcDbEntity
  8
0
  6
Continuous
 62
     7
100
AcDbLine
 10
-405.7656860351563
 20
211.0846099853516
 30
0.0
 11
-373.7656860351563
 21
192.6094055175781
 31
0.0
  0
LINE
  5
28D
330
22
100
AcDbEntity
  8
0
  6
Continuous
 62
     7
100
AcDbLine
 10
-273.7656860351563
 20
219.5279846191406
 30
0.0
 11
-273.7656860351563
 21
215.1260681152344
 31
0.0
  0
LINE
  5
28E
330
22
100
AcDbEntity
  8
0
  6
Continuous
 62
     7
100
AcDbLine
 10
-283.244384765625
 20
209.6224365234375
 30
0.0
 11
-287.0227355957031
 21
207.4409942626953
 31
0.0
  0
LINE
  5
28F
330
22
100
AcDbEntity
  8
0
  6
Continuous
 62
     7
100
AcDbLine
 10
-289.2522888183594
 20
219.5279846191406
 30
0.0
 11
-289.2522888183594
 21
208.0384063720703
 31
0.0
  0
LINE
  5
290
330
22
100
AcDbEntity
  8
0
  6
Continuous
 62
     7
100
AcDbLine
 10
-281.0465698242188
 20
219.5279846191406
 30
0.0
 11
-281.0465698242188
 21
213.2587432861328
 31
0.0
  0
LINE
  5
291
330
22
100
AcDbEntity
  8
0
  6
Continuous
 62
     7
100
AcDbLine
 10
-335.2340087890625
 20
265.5473937988281
 30
0.0
 11
-335.5059814453125
 21
265.8193359375
 31
0.0
  0
LINE
  5
292
330
22
100
AcDbEntity
  8
0
  6
Continuous
 62
     7
100
AcDbLine
 10
-335.2340087890625
 20
265.5473937988281
 30
0.0
 11
-334.9620666503906
 21
265.2754211425781
 31
0.0
  0
LINE
  5
293
330
22
100
AcDbEntity
  8
0
  6
Continuous
 62
     7
100
AcDbLine
 10
-335.5205688476563
 20
260.2819519042969
 30
0.0
 11
-337.7382507324219
 21
261.9619140625
 31
0.0
  0
LINE
  5
294
330
22
100
AcDbEntity
  8
0
  6
Continuous
 62
     7
100
AcDbLine
 10
-335.5205688476563
 20
260.2819519042969
 30
0.0
 11
-337.7382507324219
 21
261.9619140625
 31
0.0
  0
LINE
  5
295
330
22
100
AcDbEntity
  8
0
  6
Continuous
 62
     7
100
AcDbLine
 10
-334.6656799316406
 20
304.8478088378906
 30
0.0
 11
-334.6656799316406
 21
312.7726745605469
 31
0.0
  0
LINE
  5
296
330
22
100
AcDbEntity
  8
0
  6
Continuous
 62
     7
100
AcDbLine
 10
-334.6656799316406
 20
353.4022521972656
 30
0.0
 11
-334.6656799316406
 21
385.2121276855469
 31
0.0
  0
LINE
  5
297
330
22
100
AcDbEntity
  8
0
  6
Continuous
 62
     7
100
AcDbLine
 10
-334.6656799316406
 20
342.2022399902344
 30
0.0
 11
-334.6656799316406
 21
334.3073120117188
 31
0.0
  0
LINE
  5
298
330
22
100
AcDbEntity
  8
0
  6
Continuous
 62
     7
100
AcDbLine
 10
-334.6656799316406
 20
329.2384643554688
 30
0.0
 11
-334.6656799316406
 21
334.3073120117188
 31
0.0
  0
LINE
  5
299
330
22
100
AcDbEntity
  8
0
  6
CENTER
 62
     7
100
AcDbLine
 10
-249.2495269775391
 20
323.5400085449219
 30
0.0
 11
-425.6190185546874
 21
323.5400085449219
 31
0.0
  0
LINE
  5
29A
330
22
100
AcDbEntity
  8
0
  6
Continuous
 62
     7
100
AcDbLine
 10
-414.2656860351562
 20
224.5279846191406
 30
0.0
 11
-261.2656860351563
 21
224.5279846191406
 31
0.0
  0
LINE
  5
29B
330
22
100
AcDbEntity
  8
0
  6
Continuous
 62
     7
100
AcDbLine
 10
-370.7656860351563
 20
40.52799224853515
 30
0.0
 11
-304.7656860351563
 21
40.52799224853515
 31
0.0
  0
LINE
  5
29C
330
22
100
AcDbEntity
  8
0
  6
Continuous
 62
     7
100
AcDbLine
 10
-337.7656860351563
 20
223.7251281738281
 30
0.0
 11
-336.9628295898438
 21
224.5279846191406
 31
0.0
  0
LINE
  5
29D
330
22
100
AcDbEntity
  8
0
  6
Continuous
 62
     7
100
AcDbLine
 10
-337.7656860351563
 20
222.3109130859375
 30
0.0
 11
-335.5486145019531
 21
224.5279846191406
 31
0.0
  0
LINE
  5
29E
330
22
100
AcDbEntity
  8
0
  6
Continuous
 62
     7
100
AcDbLine
 10
-337.1343994140625
 20
221.5279846191406
 30
0.0
 11
-334.1343994140625
 21
224.5279846191406
 31
0.0
  0
LINE
  5
29F
330
22
100
AcDbEntity
  8
0
  6
Continuous
 62
     7
100
AcDbLine
 10
-335.7201843261719
 20
221.5279846191406
 30
0.0
 11
-332.7201843261719
 21
224.5279846191406
 31
0.0
  0
LINE
  5
2A0
330
22
100
AcDbEntity
  8
0
  6
Continuous
 62
     7
100
AcDbLine
 10
-334.3059692382813
 20
221.5279846191406
 30
0.0
 11
-331.3059692382813
 21
224.5279846191406
 31
0.0
  0
LINE
  5
2A1
330
22
100
AcDbEntity
  8
0
  6
Continuous
 62
     7
100
AcDbLine
 10
-332.8917541503906
 20
221.5279846191406
 30
0.0
 11
-329.8917541503906
 21
224.5279846191406
 31
0.0
  0
LINE
  5
2A2
330
22
100
AcDbEntity
  8
0
  6
Continuous
 62
     7
100
AcDbLine
 10
-331.4775390625
 20
221.5279846191406
 30
0.0
 11
-328.4775390625
 21
224.5279846191406
 31
0.0
  0
LINE
  5
2A3
330
22
100
AcDbEntity
  8
0
  6
Continuous
 62
     7
100
AcDbLine
 10
-330.0633239746094
 20
221.5279846191406
 30
0.0
 11
-327.0633239746094
 21
224.5279846191406
 31
0.0
  0
LINE
  5
2A4
330
22
100
AcDbEntity
  8
0
  6
Continuous
 62
     7
100
AcDbLine
 10
-328.6491088867188
 20
221.5279846191406
 30
0.0
 11
-325.6491088867188
 21
224.5279846191406
 31
0.0
  0
LINE
  5
2A5
330
22
100
AcDbEntity
  8
0
  6
Continuous
 62
     7
100
AcDbLine
 10
-327.2348937988281
 20
221.5279846191406
 30
0.0
 11
-324.2348937988281
 21
224.5279846191406
 31
0.0
  0
LINE
  5
2A6
330
22
100
AcDbEntity
  8
0
  6
Continuous
 62
     7
100
AcDbLine
 10
-325.8206787109375
 20
221.5279846191406
 30
0.0
 11
-322.8206787109375
 21
224.5279846191406
 31
0.0
  0
LINE
  5
2A7
330
22
100
AcDbEntity
  8
0
  6
Continuous
 62
     7
100
AcDbLine
 10
-324.4064636230469
 20
221.5279846191406
 30
0.0
 11
-321.4064636230469
 21
224.5279846191406
 31
0.0
  0
LINE
  5
2A8
330
22
100
AcDbEntity
  8
0
  6
Continuous
 62
     7
100
AcDbLine
 10
-322.9922485351563
 20
221.5279846191406
 30
0.0
 11
-319.9922485351563
 21
224.5279846191406
 31
0.0
  0
LINE
  5
2A9
330
22
100
AcDbEntity
  8
0
  6
Continuous
 62
     7
100
AcDbLine
 10
-321.5780334472656
 20
221.5279846191406
 30
0.0
 11
-318.5780334472656
 21
224.5279846191406
 31
0.0
  0
LINE
  5
2AA
330
22
100
AcDbEntity
  8
0
  6
Continuous
 62
     7
100
AcDbLine
 10
-320.163818359375
 20
221.5279846191406
 30
0.0
 11
-317.163818359375
 21
224.5279846191406
 31
0.0
  0
LINE
  5
2AB
330
22
100
AcDbEntity
  8
0
  6
Continuous
 62
     7
100
AcDbLine
 10
-318.7496032714844
 20
221.5279846191406
 30
0.0
 11
-315.7496032714844
 21
224.5279846191406
 31
0.0
  0
LINE
  5
2AC
330
22
100
AcDbEntity
  8
0
  6
Continuous
 62
     7
100
AcDbLine
 10
-317.3353881835938
 20
221.5279846191406
 30
0.0
 11
-314.3353881835938
 21
224.5279846191406
 31
0.0
  0
LINE
  5
2AD
330
22
100
AcDbEntity
  8
0
  6
Continuous
 62
     7
100
AcDbLine
 10
-315.9212036132813
 20
221.5279846191406
 30
0.0
 11
-312.9212036132813
 21
224.5279846191406
 31
0.0
  0
LINE
  5
2AE
330
22
100
AcDbEntity
  8
0
  6
Continuous
 62
     7
100
AcDbLine
 10
-314.5069885253906
 20
221.5279846191406
 30
0.0
 11
-311.5069885253906
 21
224.5279846191406
 31
0.0
  0
LINE
  5
2AF
330
22
100
AcDbEntity
  8
0
  6
Continuous
 62
     7
100
AcDbLine
 10
-313.0927734375
 20
221.5279846191406
 30
0.0
 11
-310.0927734375
 21
224.5279846191406
 31
0.0
  0
LINE
  5
2B0
330
22
100
AcDbEntity
  8
0
  6
Continuous
 62
     7
100
AcDbLine
 10
-311.6785583496094
 20
221.5279846191406
 30
0.0
 11
-308.6785583496094
 21
224.5279846191406
 31
0.0
  0
LINE
  5
2B1
330
22
100
AcDbEntity
  8
0
  6
Continuous
 62
     7
100
AcDbLine
 10
-310.2643432617188
 20
221.5279846191406
 30
0.0
 11
-307.2643432617188
 21
224.5279846191406
 31
0.0
  0
LINE
  5
2B2
330
22
100
AcDbEntity
  8
0
  6
Continuous
 62
     7
100
AcDbLine
 10
-308.8501281738281
 20
221.5279846191406
 30
0.0
 11
-305.8501281738281
 21
224.5279846191406
 31
0.0
  0
LINE
  5
2B3
330
22
100
AcDbEntity
  8
0
  6
Continuous
 62
     7
100
AcDbLine
 10
-307.4359130859375
 20
221.5279846191406
 30
0.0
 11
-304.4359130859375
 21
224.5279846191406
 31
0.0
  0
LINE
  5
2B4
330
22
100
AcDbEntity
  8
0
  6
Continuous
 62
     7
100
AcDbLine
 10
-306.0216979980469
 20
221.5279846191406
 30
0.0
 11
-303.0216979980469
 21
224.5279846191406
 31
0.0
  0
LINE
  5
2B5
330
22
100
AcDbEntity
  8
0
  6
Continuous
 62
     7
100
AcDbLine
 10
-304.6074829101563
 20
221.5279846191406
 30
0.0
 11
-301.6074829101563
 21
224.5279846191406
 31
0.0
  0
LINE
  5
2B6
330
22
100
AcDbEntity
  8
0
  6
Continuous
 62
     7
100
AcDbLine
 10
-303.1932678222656
 20
221.5279846191406
 30
0.0
 11
-300.1932678222656
 21
224.5279846191406
 31
0.0
  0
LINE
  5
2B7
330
22
100
AcDbEntity
  8
0
  6
Continuous
 62
     7
100
AcDbLine
 10
-301.779052734375
 20
221.5279846191406
 30
0.0
 11
-298.779052734375
 21
224.5279846191406
 31
0.0
  0
LINE
  5
2B8
330
22
100
AcDbEntity
  8
0
  6
Continuous
 62
     7
100
AcDbLine
 10
-300.3648376464844
 20
221.5279846191406
 30
0.0
 11
-297.3648376464844
 21
224.5279846191406
 31
0.0
  0
LINE
  5
2B9
330
22
100
AcDbEntity
  8
0
  6
Continuous
 62
     7
100
AcDbLine
 10
-298.9506225585938
 20
221.5279846191406
 30
0.0
 11
-295.9506225585938
 21
224.5279846191406
 31
0.0
  0
LINE
  5
2BA
330
22
100
AcDbEntity
  8
0
  6
Continuous
 62
     7
100
AcDbLine
 10
-297.5364074707031
 20
221.5279846191406
 30
0.0
 11
-294.5364074707031
 21
224.5279846191406
 31
0.0
  0
LINE
  5
2BB
330
22
100
AcDbEntity
  8
0
  6
Continuous
 62
     7
100
AcDbLine
 10
-296.1221923828125
 20
221.5279846191406
 30
0.0
 11
-293.1221923828125
 21
224.5279846191406
 31
0.0
  0
LINE
  5
2BC
330
22
100
AcDbEntity
  8
0
  6
Continuous
 62
     7
100
AcDbLine
 10
-294.7079772949219
 20
221.5279846191406
 30
0.0
 11
-291.7079772949218
 21
224.5279846191406
 31
0.0
  0
LINE
  5
2BD
330
22
100
AcDbEntity
  8
0
  6
Continuous
 62
     7
100
AcDbLine
 10
-293.2937622070313
 20
221.5279846191406
 30
0.0
 11
-290.2937622070313
 21
224.5279846191406
 31
0.0
  0
LINE
  5
2BE
330
22
100
AcDbEntity
  8
0
  6
Continuous
 62
     7
100
AcDbLine
 10
-291.8795471191406
 20
221.5279846191406
 30
0.0
 11
-288.8795471191406
 21
224.5279846191406
 31
0.0
  0
LINE
  5
2BF
330
22
100
AcDbEntity
  8
0
  6
Continuous
 62
     7
100
AcDbLine
 10
-290.46533203125
 20
221.5279846191406
 30
0.0
 11
-287.46533203125
 21
224.5279846191406
 31
0.0
  0
LINE
  5
2C0
330
22
100
AcDbEntity
  8
0
  6
Continuous
 62
     7
100
AcDbLine
 10
-289.0511169433594
 20
221.5279846191406
 30
0.0
 11
-286.0511169433594
 21
224.5279846191406
 31
0.0
  0
LINE
  5
2C1
330
22
100
AcDbEntity
  8
0
  6
Continuous
 62
     7
100
AcDbLine
 10
-287.6369323730468
 20
221.5279846191406
 30
0.0
 11
-284.6369323730469
 21
224.5279846191406
 31
0.0
  0
LINE
  5
2C2
330
22
100
AcDbEntity
  8
0
  6
Continuous
 62
     7
100
AcDbLine
 10
-286.2227172851563
 20
221.5279846191406
 30
0.0
 11
-283.2227172851563
 21
224.5279846191406
 31
0.0
  0
LINE
  5
2C3
330
22
100
AcDbEntity
  8
0
  6
Continuous
 62
     7
100
AcDbLine
 10
-284.8085021972656
 20
221.5279846191406
 30
0.0
 11
-281.8085021972656
 21
224.5279846191406
 31
0.0
  0
LINE
  5
2C4
330
22
100
AcDbEntity
  8
0
  6
Continuous
 62
     7
100
AcDbLine
 10
-283.394287109375
 20
221.5279846191406
 30
0.0
 11
-280.394287109375
 21
224.5279846191406
 31
0.0
  0
LINE
  5
2C5
330
22
100
AcDbEntity
  8
0
  6
Continuous
 62
     7
100
AcDbLine
 10
-281.9800720214844
 20
221.5279846191406
 30
0.0
 11
-278.9800720214844
 21
224.5279846191406
 31
0.0
  0
LINE
  5
2C6
330
22
100
AcDbEntity
  8
0
  6
Continuous
 62
     7
100
AcDbLine
 10
-280.5658569335938
 20
221.5279846191406
 30
0.0
 11
-277.5658569335938
 21
224.5279846191406
 31
0.0
  0
LINE
  5
2C7
330
22
100
AcDbEntity
  8
0
  6
Continuous
 62
     7
100
AcDbLine
 10
-279.1516418457031
 20
221.5279846191406
 30
0.0
 11
-276.1516418457031
 21
224.5279846191406
 31
0.0
  0
LINE
  5
2C8
330
22
100
AcDbEntity
  8
0
  6
Continuous
 62
     7
100
AcDbLine
 10
-277.7374267578125
 20
221.5279846191406
 30
0.0
 11
-274.7374267578125
 21
224.5279846191406
 31
0.0
  0
LINE
  5
2C9
330
22
100
AcDbEntity
  8
0
  6
Continuous
 62
     7
100
AcDbLine
 10
-276.3232116699219
 20
221.5279846191406
 30
0.0
 11
-273.3232116699219
 21
224.5279846191406
 31
0.0
  0
LINE
  5
2CA
330
22
100
AcDbEntity
  8
0
  6
Continuous
 62
     7
100
AcDbLine
 10
-274.9089965820313
 20
221.5279846191406
 30
0.0
 11
-271.9089965820313
 21
224.5279846191406
 31
0.0
  0
LINE
  5
2CB
330
22
100
AcDbEntity
  8
0
  6
Continuous
 62
     7
100
AcDbLine
 10
-273.8327941894531
 20
221.1899871826172
 30
0.0
 11
-270.8802185058594
 21
224.1425476074219
 31
0.0
  0
LINE
  5
2CC
330
22
100
AcDbEntity
  8
0
  6
Continuous
 62
     7
100
AcDbLine
 10
-273.7114562988281
 20
219.8970947265625
 30
0.0
 11
-270.7656860351563
 21
222.8428802490234
 31
0.0
  0
LINE
  5
2CD
330
22
100
AcDbEntity
  8
0
  6
Continuous
 62
     7
100
AcDbLine
 10
-272.6663513183595
 20
219.5279846191406
 30
0.0
 11
-270.7656860351563
 21
221.4286651611328
 31
0.0
  0
LINE
  5
2CE
330
22
100
AcDbEntity
  8
0
  6
Continuous
 62
     7
100
AcDbLine
 10
-334.6656799316406
 20
293.6477966308594
 30
0.0
 11
-334.6656799316406
 21
271.3797607421875
 31
0.0
  0
LINE
  5
2CF
330
22
100
AcDbEntity
  8
0
  6
Continuous
 62
     7
100
AcDbLine
 10
-335.5205688476563
 20
260.2819519042969
 30
0.0
 11
-335.2488098144531
 21
260.5537109375
 31
0.0
  0
LINE
  5
2D0
330
22
100
AcDbEntity
  8
0
  6
Continuous
 62
     7
100
AcDbLine
 10
-335.5059814453125
 20
265.8193359375
 30
0.0
 11
-337.7382507324219
 21
264.1244201660156
 31
0.0
  0
LINE
  5
2D1
330
22
100
AcDbEntity
  8
0
  6
Continuous
 62
     7
100
AcDbLine
 10
-334.97705078125
 20
260.8254699707031
 30
0.0
 11
-336.656982421875
 21
263.0431518554688
 31
0.0
  0
LINE
  5
2D2
330
22
100
AcDbEntity
  8
0
  6
Continuous
 62
     7
100
AcDbLine
 10
-334.9620666503906
 20
265.2754211425781
 30
0.0
 11
-336.656982421875
 21
263.0431518554688
 31
0.0
  0
LINE
  5
2D3
330
22
100
AcDbEntity
  8
0
  6
Continuous
 62
     7
100
AcDbLine
 10
-335.5205688476563
 20
260.2819519042969
 30
0.0
 11
-335.2488098144531
 21
260.5537109375
 31
0.0
  0
LINE
  5
2D4
330
22
100
AcDbEntity
  8
0
  6
Continuous
 62
     7
100
AcDbLine
 10
-335.2340087890625
 20
265.5473937988281
 30
0.0
 11
-334.9620666503906
 21
265.2754211425781
 31
0.0
  0
LINE
  5
2D5
330
22
100
AcDbEntity
  8
0
  6
Continuous
 62
     7
100
AcDbLine
 10
-334.97705078125
 20
260.8254699707031
 30
0.0
 11
-336.656982421875
 21
263.0431518554688
 31
0.0
  0
LINE
  5
2D6
330
22
100
AcDbEntity
  8
0
  6
Continuous
 62
     7
100
AcDbLine
 10
-334.9620666503906
 20
265.2754211425781
 30
0.0
 11
-336.656982421875
 21
263.0431518554688
 31
0.0
  0
LINE
  5
2D7
330
22
100
AcDbEntity
  8
0
  6
Continuous
 62
     7
100
AcDbLine
 10
-334.97705078125
 20
260.8254699707031
 30
0.0
 11
-335.2488098144531
 21
260.5537109375
 31
0.0
  0
LINE
  5
2D8
330
22
100
AcDbEntity
  8
0
  6
Continuous
 62
     7
100
AcDbLine
 10
-334.97705078125
 20
260.8254699707031
 30
0.0
 11
-335.2488098144531
 21
260.5537109375
 31
0.0
  0
LINE
  5
2D9
330
22
100
AcDbEntity
  8
0
  6
Continuous
 62
     7
100
AcDbLine
 10
-335.2340087890625
 20
265.5473937988281
 30
0.0
 11
-335.5059814453125
 21
265.8193359375
 31
0.0
  0
LINE
  5
2DA
330
22
100
AcDbEntity
  8
0
  6
Continuous
 62
     7
100
AcDbLine
 10
-334.6656799316406
 20
317.8415222167969
 30
0.0
 11
-334.6656799316406
 21
312.7726745605469
 31
0.0
  0
LINE
  5
2DB
330
22
100
AcDbEntity
  8
0
  6
Continuous
 62
     7
100
AcDbLine
 10
-335.5059814453125
 20
265.8193359375
 30
0.0
 11
-337.7382507324219
 21
264.1244201660156
 31
0.0
  0
LINE
  5
2DC
330
22
100
AcDbEntity
  8
0
  6
Continuous
 62
     7
100
AcDbLine
 10
-308.5113525390625
 20
57.98847198486328
 30
0.0
 11
-303.7656860351563
 21
62.73413848876953
 31
0.0
  0
ARC
  5
2DD
330
22
100
AcDbEntity
  8
0
  6
Continuous
 62
     7
100
AcDbCircle
 10
-261.2656860351563
 20
221.5279846191406
 30
0.0
 40
1.0
100
AcDbArc
 50
270.0000000000005
 51
0.0
  0
ARC
  5
2DE
330
22
100
AcDbEntity
  8
0
  6
Continuous
 62
     7
100
AcDbCircle
 10
-326.3656921386719
 20
350.5476989746094
 30
0.0
 40
3.099999904632568
100
AcDbArc
 50
0.0
 51
90.00000000000019
  0
ARC
  5
2DF
330
22
100
AcDbEntity
  8
0
  6
Continuous
 62
     7
100
AcDbCircle
 10
-337.7656860351563
 20
323.5400085449219
 30
0.0
 40
61.75
100
AcDbArc
 50
76.41911058170636
 51
82.27530690118905
  0
ARC
  5
2E0
330
22
100
AcDbEntity
  8
0
  6
Continuous
 62
     7
100
AcDbCircle
 10
-326.3656921386719
 20
361.7476806640625
 30
0.0
 40
3.099999904632568
100
AcDbArc
 50
270.0000000000005
 51
0.0
  0
ARC
  5
2E1
330
22
100
AcDbEntity
  8
0
  6
Continuous
 62
     7
100
AcDbCircle
 10
-326.3656921386719
 20
296.5322875976563
 30
0.0
 40
3.099999904632568
100
AcDbArc
 50
180.0000000000004
 51
270.0000000000005
  0
ARC
  5
2E2
330
22
100
AcDbEntity
  8
0
  6
Continuous
 62
     7
100
AcDbCircle
 10
-326.3656921386719
 20
317.8415222167969
 30
0.0
 40
3.099999904632568
100
AcDbArc
 50
90.00000000000019
 51
180.0000000000004
  0
ARC
  5
2E3
330
22
100
AcDbEntity
  8
0
  6
Continuous
 62
     7
100
AcDbCircle
 10
-326.3656921386719
 20
296.5322875976563
 30
0.0
 40
3.099999904632568
100
AcDbArc
 50
270.0000000000005
 51
0.0
  0
ARC
  5
2E4
330
22
100
AcDbEntity
  8
0
  6
Continuous
 62
     7
100
AcDbCircle
 10
-326.3656921386719
 20
329.2384643554688
 30
0.0
 40
3.099999904632568
100
AcDbArc
 50
180.0000000000004
 51
270.0000000000005
  0
ARC
  5
2E5
330
22
100
AcDbEntity
  8
0
  6
Continuous
 62
     7
100
AcDbCircle
 10
-326.3656921386719
 20
329.2384643554688
 30
0.0
 40
3.099999904632568
100
AcDbArc
 50
270.0000000000005
 51
0.0
  0
ARC
  5
2E6
330
22
100
AcDbEntity
  8
0
  6
Continuous
 62
     7
100
AcDbCircle
 10
-326.3656921386719
 20
285.3323059082031
 30
0.0
 40
3.099999904632568
100
AcDbArc
 50
90.00000000000019
 51
180.0000000000004
  0
ARC
  5
2E7
330
22
100
AcDbEntity
  8
0
  6
Continuous
 62
     7
100
AcDbCircle
 10
-326.3656921386719
 20
285.3323059082031
 30
0.0
 40
3.099999904632568
100
AcDbArc
 50
0.0
 51
90.00000000000019
  0
ARC
  5
2E8
330
22
100
AcDbEntity
  8
0
  6
Continuous
 62
     7
100
AcDbCircle
 10
-337.7656860351563
 20
323.5400085449219
 30
0.0
 40
61.75
100
AcDbArc
 50
277.7246892927337
 51
283.5808827691322
  0
ARC
  5
2E9
330
22
100
AcDbEntity
  8
0
  6
Continuous
 62
     7
100
AcDbCircle
 10
-326.3656921386719
 20
350.5476989746094
 30
0.0
 40
3.099999904632568
100
AcDbArc
 50
90.00000000000019
 51
180.0000000000004
  0
ARC
  5
2EA
330
22
100
AcDbEntity
  8
0
  6
Continuous
 62
     7
100
AcDbCircle
 10
-326.3656921386719
 20
361.7476806640625
 30
0.0
 40
3.099999904632568
100
AcDbArc
 50
180.0000000000004
 51
270.0000000000005
  0
ARC
  5
2EB
330
22
100
AcDbEntity
  8
0
  6
Continuous
 62
     7
100
AcDbCircle
 10
-326.3656921386719
 20
317.8415222167969
 30
0.0
 40
3.099999904632568
100
AcDbArc
 50
0.0
 51
90.00000000000019
  0
ARC
  5
2EC
330
22
100
AcDbEntity
  8
0
  6
Continuous
 62
     7
100
AcDbCircle
 10
-274.2656860351563
 20
221.0279846191406
 30
0.0
 40
0.5
100
AcDbArc
 50
0.0
 51
90.00000000000019
  0
ARC
  5
2ED
330
22
100
AcDbEntity
  8
0
  6
Continuous
 62
     7
100
AcDbCircle
 10
-273.2656860351563
 20
220.0279846191406
 30
0.0
 40
0.5
100
AcDbArc
 50
180.0000000000004
 51
270.0000000000005
  0
ARC
  5
2EE
330
22
100
AcDbEntity
  8
0
  6
Continuous
 62
     7
100
AcDbCircle
 10
-266.2656860351563
 20
219.5279846191406
 30
0.0
 40
1.0
100
AcDbArc
 50
90.00000000000019
 51
180.0000000000004
  0
ARC
  5
2EF
330
22
100
AcDbEntity
  8
0
  6
Continuous
 62
     7
100
AcDbCircle
 10
-292.1656799316406
 20
337.0463256835938
 30
0.0
 40
3.099999904632568
100
AcDbArc
 50
0.0
 51
90.00000000000019
  0
ARC
  5
2F0
330
22
100
AcDbEntity
  8
0
  6
Continuous
 62
     7
100
AcDbCircle
 10
-282.3656921386719
 20
347.2216186523438
 30
0.0
 40
1.5
100
AcDbArc
 50
21.83041496357428
 51
180.0000000000004
  0
CIRCLE
  5
2F1
330
22
100
AcDbEntity
  8
0
  6
Continuous
 62
     7
100
AcDbCircle
 10
-285.1824645996094
 20
353.6937255859375
 30
0.0
 40
4.75
  0
ARC
  5
2F2
330
22
100
AcDbEntity
  8
0
  6
Continuous
 62
     7
100
AcDbCircle
 10
-261.2656860351563
 20
223.5279846191406
 30
0.0
 40
1.0
100
AcDbArc
 50
0.0
 51
90.00000000000019
  0
CIRCLE
  5
2F3
330
22
100
AcDbEntity
  8
0
  6
Continuous
 62
     7
100
AcDbCircle
 10
-285.1824645996094
 20
353.6937255859375
 30
0.0
 40
4.5
  0
ARC
  5
2F4
330
22
100
AcDbEntity
  8
0
  6
Continuous
 62
     7
100
AcDbCircle
 10
-293.2656860351563
 20
347.1463317871094
 30
0.0
 40
2.0
100
AcDbArc
 50
180.0000000000004
 51
0.0
  0
ARC
  5
2F5
330
22
100
AcDbEntity
  8
0
  6
Continuous
 62
     7
100
AcDbCircle
 10
-337.7656860351563
 20
323.5400085449219
 30
0.0
 40
61.75
100
AcDbArc
 50
41.14590469959972
 51
46.50753636392479
  0
ARC
  5
2F6
330
22
100
AcDbEntity
  8
0
  6
Continuous
 62
     7
100
AcDbCircle
 10
-314.9656677246094
 20
351.2815246582031
 30
0.0
 40
3.099999904632568
100
AcDbArc
 50
180.0000000000004
 51
270.0000000000005
  0
ARC
  5
2F7
330
22
100
AcDbEntity
  8
0
  6
Continuous
 62
     7
100
AcDbCircle
 10
-314.9656677246094
 20
351.2815246582031
 30
0.0
 40
3.099999904632568
100
AcDbArc
 50
270.0000000000005
 51
0.0
  0
ARC
  5
2F8
330
22
100
AcDbEntity
  8
0
  6
Continuous
 62
     7
100
AcDbCircle
 10
-281.8656921386719
 20
318.9415283203125
 30
0.0
 40
2.0
100
AcDbArc
 50
90.00000000000019
 51
180.0000000000004
  0
ARC
  5
2F9
330
22
100
AcDbEntity
  8
0
  6
Continuous
 62
     7
100
AcDbCircle
 10
-292.1656799316406
 20
317.8415222167969
 30
0.0
 40
3.099999904632568
100
AcDbArc
 50
0.0
 51
90.00000000000019
  0
ARC
  5
2FA
330
22
100
AcDbEntity
  8
0
  6
Continuous
 62
     7
100
AcDbCircle
 10
-279.565673828125
 20
318.9415283203125
 30
0.0
 40
2.0
100
AcDbArc
 50
355.5867442132418
 51
90.00000000000019
  0
ARC
  5
2FB
330
22
100
AcDbEntity
  8
0
  6
Continuous
 62
     7
100
AcDbCircle
 10
-337.7382507324219
 20
323.5368347167969
 30
0.0
 40
61.72245407104492
100
AcDbArc
 50
336.8795617528452
 51
347.1329323095005
  0
ARC
  5
2FC
330
22
100
AcDbEntity
  8
0
  6
Continuous
 62
     7
100
AcDbCircle
 10
-282.3656921386719
 20
299.8583679199219
 30
0.0
 40
1.5
100
AcDbArc
 50
180.0000000000004
 51
338.1695850364264
  0
ARC
  5
2FD
330
22
100
AcDbEntity
  8
0
  6
Continuous
 62
     7
100
AcDbCircle
 10
-292.1656799316406
 20
298.8110961914063
 30
0.0
 40
3.099999904632568
100
AcDbArc
 50
0.0
 51
90.00000000000019
  0
ARC
  5
2FE
330
22
100
AcDbEntity
  8
0
  6
Continuous
 62
     7
100
AcDbCircle
 10
-292.1656799316406
 20
298.8110961914063
 30
0.0
 40
3.099999904632568
100
AcDbArc
 50
90.00000000000019
 51
180.0000000000004
  0
ARC
  5
2FF
330
22
100
AcDbEntity
  8
0
  6
Continuous
 62
     7
100
AcDbCircle
 10
-292.1656799316406
 20
310.0336608886719
 30
0.0
 40
3.099999904632568
100
AcDbArc
 50
270.0000000000005
 51
0.0
  0
ARC
  5
300
330
22
100
AcDbEntity
  8
0
  6
Continuous
 62
     7
100
AcDbCircle
 10
-292.1656799316406
 20
310.0336608886719
 30
0.0
 40
3.099999904632568
100
AcDbArc
 50
180.0000000000004
 51
270.0000000000005
  0
ARC
  5
301
330
22
100
AcDbEntity
  8
0
  6
Continuous
 62
     7
100
AcDbCircle
 10
-292.1656799316406
 20
337.0463256835938
 30
0.0
 40
3.099999904632568
100
AcDbArc
 50
90.00000000000019
 51
180.0000000000004
  0
ARC
  5
302
330
22
100
AcDbEntity
  8
0
  6
Continuous
 62
     7
100
AcDbCircle
 10
-337.7382507324219
 20
323.5431518554688
 30
0.0
 40
61.72245407104492
100
AcDbArc
 50
12.86706769050023
 51
23.12043824715554
  0
ARC
  5
303
330
22
100
AcDbEntity
  8
0
  6
Continuous
 62
     7
100
AcDbCircle
 10
-314.9656677246094
 20
295.7984619140625
 30
0.0
 40
3.099999904632568
100
AcDbArc
 50
0.0
 51
90.00000000000019
  0
ARC
  5
304
330
22
100
AcDbEntity
  8
0
  6
Continuous
 62
     7
100
AcDbCircle
 10
-314.9656677246094
 20
295.7984619140625
 30
0.0
 40
3.099999904632568
100
AcDbArc
 50
90.00000000000019
 51
180.0000000000004
  0
ARC
  5
305
330
22
100
AcDbEntity
  8
0
  6
Continuous
 62
     7
100
AcDbCircle
 10
-281.8656921386719
 20
328.1384582519531
 30
0.0
 40
2.0
100
AcDbArc
 50
180.0000000000004
 51
270.0000000000005
  0
ARC
  5
306
330
22
100
AcDbEntity
  8
0
  6
Continuous
 62
     7
100
AcDbCircle
 10
-292.1656799316406
 20
317.8415222167969
 30
0.0
 40
3.099999904632568
100
AcDbArc
 50
90.00000000000019
 51
180.0000000000004
  0
ARC
  5
307
330
22
100
AcDbEntity
  8
0
  6
Continuous
 62
     7
100
AcDbCircle
 10
-279.565673828125
 20
328.1384582519531
 30
0.0
 40
2.0
100
AcDbArc
 50
270.0000000000005
 51
4.413255786758912
  0
ARC
  5
308
330
22
100
AcDbEntity
  8
0
  6
Continuous
 62
     7
100
AcDbCircle
 10
-292.1656799316406
 20
329.2384643554688
 30
0.0
 40
3.099999904632568
100
AcDbArc
 50
270.0000000000005
 51
0.0
  0
ARC
  5
309
330
22
100
AcDbEntity
  8
0
  6
Continuous
 62
     7
100
AcDbCircle
 10
-292.1656799316406
 20
329.2384643554688
 30
0.0
 40
3.099999904632568
100
AcDbArc
 50
180.0000000000004
 51
270.0000000000005
  0
ARC
  5
30A
330
22
100
AcDbEntity
  8
0
  6
Continuous
 62
     7
100
AcDbCircle
 10
-314.9656677246094
 20
340.08154296875
 30
0.0
 40
3.099999904632568
100
AcDbArc
 50
0.0
 51
90.00000000000019
  0
ARC
  5
30B
330
22
100
AcDbEntity
  8
0
  6
Continuous
 62
     7
100
AcDbCircle
 10
-314.9656677246094
 20
340.08154296875
 30
0.0
 40
3.099999904632568
100
AcDbArc
 50
90.00000000000019
 51
180.0000000000004
  0
ARC
  5
30C
330
22
100
AcDbEntity
  8
0
  6
Continuous
 62
     7
100
AcDbCircle
 10
-337.7656860351563
 20
323.5400085449219
 30
0.0
 40
61.75
100
AcDbArc
 50
65.20119237711067
 51
71.39581304944177
  0
ARC
  5
30D
330
22
100
AcDbEntity
  8
0
  6
Continuous
 62
     7
100
AcDbCircle
 10
-303.565673828125
 20
317.8415222167969
 30
0.0
 40
3.099999904632568
100
AcDbArc
 50
90.00000000000019
 51
180.0000000000004
  0
ARC
  5
30E
330
22
100
AcDbEntity
  8
0
  6
Continuous
 62
     7
100
AcDbCircle
 10
-314.9656677246094
 20
306.9984436035156
 30
0.0
 40
3.099999904632568
100
AcDbArc
 50
270.0000000000005
 51
0.0
  0
ARC
  5
30F
330
22
100
AcDbEntity
  8
0
  6
Continuous
 62
     7
100
AcDbCircle
 10
-314.9656677246094
 20
306.9984436035156
 30
0.0
 40
3.099999904632568
100
AcDbArc
 50
180.0000000000004
 51
270.0000000000005
  0
ARC
  5
310
330
22
100
AcDbEntity
  8
0
  6
Continuous
 62
     7
100
AcDbCircle
 10
-314.9656677246094
 20
317.8415222167969
 30
0.0
 40
3.099999904632568
100
AcDbArc
 50
90.00000000000019
 51
180.0000000000004
  0
ARC
  5
311
330
22
100
AcDbEntity
  8
0
  6
Continuous
 62
     7
100
AcDbCircle
 10
-314.9656677246094
 20
329.2384643554688
 30
0.0
 40
3.099999904632568
100
AcDbArc
 50
180.0000000000004
 51
270.0000000000005
  0
ARC
  5
312
330
22
100
AcDbEntity
  8
0
  6
Continuous
 62
     7
100
AcDbCircle
 10
-314.9656677246094
 20
329.2384643554688
 30
0.0
 40
3.099999904632568
100
AcDbArc
 50
270.0000000000005
 51
0.0
  0
ARC
  5
313
330
22
100
AcDbEntity
  8
0
  6
Continuous
 62
     7
100
AcDbCircle
 10
-314.9656677246094
 20
317.8415222167969
 30
0.0
 40
3.099999904632568
100
AcDbArc
 50
0.0
 51
90.00000000000019
  0
ARC
  5
314
330
22
100
AcDbEntity
  8
0
  6
Continuous
 62
     7
100
AcDbCircle
 10
-303.565673828125
 20
347.7663879394531
 30
0.0
 40
3.099999904632568
100
AcDbArc
 50
0.0
 51
90.00000000000019
  0
ARC
  5
315
330
22
100
AcDbEntity
  8
0
  6
Continuous
 62
     7
100
AcDbCircle
 10
-303.565673828125
 20
347.7663879394531
 30
0.0
 40
3.099999904632568
100
AcDbArc
 50
90.00000000000019
 51
180.0000000000004
  0
ARC
  5
316
330
22
100
AcDbEntity
  8
0
  6
Continuous
 62
     7
100
AcDbCircle
 10
-303.565673828125
 20
317.8415222167969
 30
0.0
 40
3.099999904632568
100
AcDbArc
 50
0.0
 51
90.00000000000019
  0
ARC
  5
317
330
22
100
AcDbEntity
  8
0
  6
Continuous
 62
     7
100
AcDbCircle
 10
-303.565673828125
 20
299.3135986328125
 30
0.0
 40
3.099999904632568
100
AcDbArc
 50
180.0000000000004
 51
270.0000000000005
  0
ARC
  5
318
330
22
100
AcDbEntity
  8
0
  6
Continuous
 62
     7
100
AcDbCircle
 10
-303.565673828125
 20
299.3135986328125
 30
0.0
 40
3.099999904632568
100
AcDbArc
 50
270.0000000000005
 51
0.0
  0
ARC
  5
319
330
22
100
AcDbEntity
  8
0
  6
Continuous
 62
     7
100
AcDbCircle
 10
-303.565673828125
 20
358.9664001464844
 30
0.0
 40
3.099999904632568
100
AcDbArc
 50
180.0000000000004
 51
270.0000000000005
  0
ARC
  5
31A
330
22
100
AcDbEntity
  8
0
  6
Continuous
 62
     7
100
AcDbCircle
 10
-337.7656860351563
 20
323.5400085449219
 30
0.0
 40
61.75
100
AcDbArc
 50
52.83956503255734
 51
59.75863160638667
  0
ARC
  5
31B
330
22
100
AcDbEntity
  8
0
  6
Continuous
 62
     7
100
AcDbCircle
 10
-303.565673828125
 20
358.9664001464844
 30
0.0
 40
3.099999904632568
100
AcDbArc
 50
270.0000000000005
 51
0.0
  0
ARC
  5
31C
330
22
100
AcDbEntity
  8
0
  6
Continuous
 62
     7
100
AcDbCircle
 10
-303.565673828125
 20
329.2384643554688
 30
0.0
 40
3.099999904632568
100
AcDbArc
 50
180.0000000000004
 51
270.0000000000005
  0
ARC
  5
31D
330
22
100
AcDbEntity
  8
0
  6
Continuous
 62
     7
100
AcDbCircle
 10
-303.565673828125
 20
329.2384643554688
 30
0.0
 40
3.099999904632568
100
AcDbArc
 50
270.0000000000005
 51
0.0
  0
ARC
  5
31E
330
22
100
AcDbEntity
  8
0
  6
Continuous
 62
     7
100
AcDbCircle
 10
-337.7656860351563
 20
323.5400085449219
 30
0.0
 40
61.75
100
AcDbArc
 50
300.2413541323152
 51
307.1604178630479
  0
ARC
  5
31F
330
22
100
AcDbEntity
  8
0
  6
Continuous
 62
     7
100
AcDbCircle
 10
-337.7656860351563
 20
323.5400085449219
 30
0.0
 40
61.75
100
AcDbArc
 50
288.6041779168697
 51
294.7987957461177
  0
ARC
  5
320
330
22
100
AcDbEntity
  8
0
  6
Continuous
 62
     7
100
AcDbCircle
 10
-303.565673828125
 20
288.1135864257813
 30
0.0
 40
3.099999904632568
100
AcDbArc
 50
0.0
 51
90.00000000000019
  0
ARC
  5
321
330
22
100
AcDbEntity
  8
0
  6
Continuous
 62
     7
100
AcDbCircle
 10
-303.565673828125
 20
288.1135864257813
 30
0.0
 40
3.099999904632568
100
AcDbArc
 50
90.00000000000019
 51
180.0000000000004
  0
ARC
  5
322
330
22
100
AcDbEntity
  8
0
  6
Continuous
 62
     7
100
AcDbCircle
 10
-337.7656860351563
 20
323.5400085449219
 30
0.0
 40
61.75
100
AcDbArc
 50
313.4924441471633
 51
322.0608303109709
  0
ARC
  5
323
330
22
100
AcDbEntity
  8
0
  6
Continuous
 62
     7
100
AcDbCircle
 10
-337.7656860351563
 20
323.5400085449219
 30
0.0
 40
61.75
100
AcDbArc
 50
313.4924441471633
 51
322.0608303109709
  0
ARC
  5
324
330
22
100
AcDbEntity
  8
0
  6
Continuous
 62
     7
100
AcDbCircle
 10
-302.7656860351563
 20
68.02799224853515
 30
0.0
 40
1.0
100
AcDbArc
 50
90.00000000000019
 51
180.0000000000004
  0
ARC
  5
325
330
22
100
AcDbEntity
  8
0
  6
Continuous
 62
     7
100
AcDbCircle
 10
-255.2656860351564
 20
69.52799224853515
 30
0.0
 40
0.5
100
AcDbArc
 50
270.0000000000005
 51
0.0
  0
ARC
  5
326
330
22
100
AcDbEntity
  8
0
  6
Continuous
 62
     7
100
AcDbCircle
 10
-299.7656860351563
 20
77.52799224853515
 30
0.0
 40
5.0
100
AcDbArc
 50
180.0000000000004
 51
270.0000000000005
  0
ARC
  5
327
330
22
100
AcDbEntity
  8
0
  6
Continuous
 62
     7
100
AcDbCircle
 10
-305.7656860351563
 20
101.5279922485352
 30
0.0
 40
1.0
100
AcDbArc
 50
0.0
 51
90.00000000000019
  0
ARC
  5
328
330
22
100
AcDbEntity
  8
0
  6
Continuous
 62
     7
100
AcDbCircle
 10
-309.2656860351563
 20
187.5279846191406
 30
0.0
 40
2.0
100
AcDbArc
 50
0.0
 51
90.00000000000019
  0
ARC
  5
329
330
22
100
AcDbEntity
  8
0
  6
Continuous
 62
     7
100
AcDbCircle
 10
-307.7656860351563
 20
184.0279846191406
 30
0.0
 40
0.5
100
AcDbArc
 50
270.0000000000005
 51
0.0
  0
ARC
  5
32A
330
22
100
AcDbEntity
  8
0
  6
Continuous
 62
     7
100
AcDbCircle
 10
-299.2656860351563
 20
188.2792816162109
 30
0.0
 40
5.0
100
AcDbArc
 50
120.0000178622841
 51
180.0000000000004
  0
ARC
  5
32B
330
22
100
AcDbEntity
  8
0
  6
Continuous
 62
     7
100
AcDbCircle
 10
-309.2656860351563
 20
190.5279846191406
 30
0.0
 40
1.0
100
AcDbArc
 50
180.0000000000004
 51
270.0000000000005
  0
ARC
  5
32C
330
22
100
AcDbEntity
  8
0
  6
Continuous
 62
     7
100
AcDbCircle
 10
-309.2656860351563
 20
190.5886840820313
 30
0.0
 40
1.0
100
AcDbArc
 50
119.9999304359993
 51
180.0000000000004
  0
ARC
  5
32D
330
22
100
AcDbEntity
  8
0
  6
Continuous
 62
     7
100
AcDbCircle
 10
-287.7856140136719
 20
209.0530395507813
 30
0.0
 40
1.783435225486754
100
AcDbArc
 50
214.6751559791124
 51
304.6752802315146
  0
ARC
  5
32E
330
22
100
AcDbEntity
  8
0
  6
Continuous
 62
     7
100
AcDbCircle
 10
-304.7656860351563
 20
41.52799224853516
 30
0.0
 40
1.0
100
AcDbArc
 50
270.0000000000005
 51
0.0
  0
ARC
  5
32F
330
22
100
AcDbEntity
  8
0
  6
Continuous
 62
     7
100
AcDbCircle
 10
-337.7656860351563
 20
317.8415222167969
 30
0.0
 40
3.099999904632568
100
AcDbArc
 50
90.00000000000019
 51
180.0000000000004
  0
ARC
  5
330
330
22
100
AcDbEntity
  8
0
  6
Continuous
 62
     7
100
AcDbCircle
 10
-337.7656860351563
 20
329.2384643554688
 30
0.0
 40
3.099999904632568
100
AcDbArc
 50
180.0000000000004
 51
270.0000000000005
  0
ARC
  5
331
330
22
100
AcDbEntity
  8
0
  6
Continuous
 62
     7
100
AcDbCircle
 10
-414.2656860351562
 20
223.5279846191406
 30
0.0
 40
1.0
100
AcDbArc
 50
90.00000000000019
 51
180.0000000000004
  0
ARC
  5
332
330
22
100
AcDbEntity
  8
0
  6
Continuous
 62
     7
100
AcDbCircle
 10
-414.2656860351562
 20
221.5279846191406
 30
0.0
 40
1.0
100
AcDbArc
 50
180.0000000000004
 51
270.0000000000005
  0
ARC
  5
333
330
22
100
AcDbEntity
  8
0
  6
Continuous
 62
     7
100
AcDbCircle
 10
-337.7656860351563
 20
342.2022399902344
 30
0.0
 40
3.099999904632568
100
AcDbArc
 50
90.00000000000019
 51
180.0000000000004
  0
ARC
  5
334
330
22
100
AcDbEntity
  8
0
  6
Continuous
 62
     7
100
AcDbCircle
 10
-337.7656860351563
 20
353.4022521972656
 30
0.0
 40
3.099999904632568
100
AcDbArc
 50
180.0000000000004
 51
270.0000000000005
  0
ARC
  5
335
330
22
100
AcDbEntity
  8
0
  6
Continuous
 62
     7
100
AcDbCircle
 10
-338.5273742675781
 20
343.8705444335938
 30
0.0
 40
41.40766525268555
100
AcDbArc
 50
88.94599283081708
 51
93.23725264777358
  0
ARC
  5
336
330
22
100
AcDbEntity
  8
0
  6
Continuous
 62
     7
100
AcDbCircle
 10
-256.7656860351563
 20
70.52799224853515
 30
0.0
 40
2.0
100
AcDbArc
 50
0.0
 51
90.00000000000019
  0
ARC
  5
337
330
22
100
AcDbEntity
  8
0
  6
Continuous
 62
     7
100
AcDbCircle
 10
-349.1656799316406
 20
350.5476989746094
 30
0.0
 40
3.099999904632568
100
AcDbArc
 50
0.0
 51
90.00000000000019
  0
ARC
  5
338
330
22
100
AcDbEntity
  8
0
  6
Continuous
 62
     7
100
AcDbCircle
 10
-349.1656799316406
 20
296.5322875976563
 30
0.0
 40
3.099999904632568
100
AcDbArc
 50
270.0000000000005
 51
0.0
  0
ARC
  5
339
330
22
100
AcDbEntity
  8
0
  6
Continuous
 62
     7
100
AcDbCircle
 10
-349.1656799316406
 20
296.5322875976563
 30
0.0
 40
3.099999904632568
100
AcDbArc
 50
180.0000000000004
 51
270.0000000000005
  0
ARC
  5
33A
330
22
100
AcDbEntity
  8
0
  6
Continuous
 62
     7
100
AcDbCircle
 10
-349.1656799316406
 20
329.2384643554688
 30
0.0
 40
3.099999904632568
100
AcDbArc
 50
180.0000000000004
 51
270.0000000000005
  0
ARC
  5
33B
330
22
100
AcDbEntity
  8
0
  6
Continuous
 62
     7
100
AcDbCircle
 10
-349.1656799316406
 20
317.8415222167969
 30
0.0
 40
3.099999904632568
100
AcDbArc
 50
90.00000000000019
 51
180.0000000000004
  0
ARC
  5
33C
330
22
100
AcDbEntity
  8
0
  6
Continuous
 62
     7
100
AcDbCircle
 10
-337.7656860351563
 20
271.3797607421875
 30
0.0
 40
3.099999904632568
100
AcDbArc
 50
180.0000000000004
 51
270.0000000000005
  0
ARC
  5
33D
330
22
100
AcDbEntity
  8
0
  6
Continuous
 62
     7
100
AcDbCircle
 10
-337.7656860351563
 20
293.6477966308594
 30
0.0
 40
3.099999904632568
100
AcDbArc
 50
90.00000000000019
 51
180.0000000000004
  0
ARC
  5
33E
330
22
100
AcDbEntity
  8
0
  6
Continuous
 62
     7
100
AcDbCircle
 10
-337.7656860351563
 20
304.8478088378906
 30
0.0
 40
3.099999904632568
100
AcDbArc
 50
180.0000000000004
 51
270.0000000000005
  0
ARC
  5
33F
330
22
100
AcDbEntity
  8
0
  6
Continuous
 62
     7
100
AcDbCircle
 10
-371.9656677246094
 20
317.8415222167969
 30
0.0
 40
3.099999904632568
100
AcDbArc
 50
0.0
 51
90.00000000000019
  0
ARC
  5
340
330
22
100
AcDbEntity
  8
0
  6
Continuous
 62
     7
100
AcDbCircle
 10
-371.9656677246094
 20
317.8415222167969
 30
0.0
 40
3.099999904632568
100
AcDbArc
 50
90.00000000000019
 51
180.0000000000004
  0
ARC
  5
341
330
22
100
AcDbEntity
  8
0
  6
Continuous
 62
     7
100
AcDbCircle
 10
-382.2656860351563
 20
347.1463317871094
 30
0.0
 40
2.0
100
AcDbArc
 50
180.0000000000004
 51
0.0
  0
ARC
  5
342
330
22
100
AcDbEntity
  8
0
  6
Continuous
 62
     7
100
AcDbCircle
 10
-349.1656799316406
 20
317.8415222167969
 30
0.0
 40
3.099999904632568
100
AcDbArc
 50
0.0
 51
90.00000000000019
  0
ARC
  5
343
330
22
100
AcDbEntity
  8
0
  6
Continuous
 62
     7
100
AcDbCircle
 10
-337.7656860351563
 20
323.5400085449219
 30
0.0
 40
61.75
100
AcDbArc
 50
256.4191172308692
 51
262.2753387665485
  0
ARC
  5
344
330
22
100
AcDbEntity
  8
0
  6
Continuous
 62
     7
100
AcDbCircle
 10
-349.1656799316406
 20
285.3323059082031
 30
0.0
 40
3.099999904632568
100
AcDbArc
 50
90.00000000000019
 51
180.0000000000004
  0
ARC
  5
345
330
22
100
AcDbEntity
  8
0
  6
Continuous
 62
     7
100
AcDbCircle
 10
-349.1656799316406
 20
361.7476806640625
 30
0.0
 40
3.099999904632568
100
AcDbArc
 50
270.0000000000005
 51
0.0
  0
ARC
  5
346
330
22
100
AcDbEntity
  8
0
  6
Continuous
 62
     7
100
AcDbCircle
 10
-349.1656799316406
 20
361.7476806640625
 30
0.0
 40
3.099999904632568
100
AcDbArc
 50
180.0000000000004
 51
270.0000000000005
  0
ARC
  5
347
330
22
100
AcDbEntity
  8
0
  6
Continuous
 62
     7
100
AcDbCircle
 10
-337.7656860351563
 20
323.5400085449219
 30
0.0
 40
61.75
100
AcDbArc
 50
97.72466503951671
 51
103.5808894182937
  0
ARC
  5
348
330
22
100
AcDbEntity
  8
0
  6
Continuous
 62
     7
100
AcDbCircle
 10
-349.1656799316406
 20
350.5476989746094
 30
0.0
 40
3.099999904632568
100
AcDbArc
 50
90.00000000000019
 51
180.0000000000004
  0
ARC
  5
349
330
22
100
AcDbEntity
  8
0
  6
Continuous
 62
     7
100
AcDbCircle
 10
-371.9656677246094
 20
358.9664001464844
 30
0.0
 40
3.099999904632568
100
AcDbArc
 50
180.0000000000004
 51
270.0000000000005
  0
ARC
  5
34A
330
22
100
AcDbEntity
  8
0
  6
Continuous
 62
     7
100
AcDbCircle
 10
-371.9656677246094
 20
347.7663879394531
 30
0.0
 40
3.099999904632568
100
AcDbArc
 50
90.00000000000019
 51
180.0000000000004
  0
ARC
  5
34B
330
22
100
AcDbEntity
  8
0
  6
Continuous
 62
     7
100
AcDbCircle
 10
-371.9656677246094
 20
347.7663879394531
 30
0.0
 40
3.099999904632568
100
AcDbArc
 50
0.0
 51
90.00000000000019
  0
ARC
  5
34C
330
22
100
AcDbEntity
  8
0
  6
Continuous
 62
     7
100
AcDbCircle
 10
-393.1656799316406
 20
347.2216186523438
 30
0.0
 40
1.5
100
AcDbArc
 50
0.0
 51
158.1691515628411
  0
CIRCLE
  5
34D
330
22
100
AcDbEntity
  8
0
  6
Continuous
 62
     7
100
AcDbCircle
 10
-389.9660339355469
 20
353.8830871582031
 30
0.0
 40
4.5
  0
ARC
  5
34E
330
22
100
AcDbEntity
  8
0
  6
Continuous
 62
     7
100
AcDbCircle
 10
-337.7931213378906
 20
323.5431518554688
 30
0.0
 40
61.72245407104492
100
AcDbArc
 50
156.8795506290744
 51
167.1329260009437
  0
ARC
  5
34F
330
22
100
AcDbEntity
  8
0
  6
Continuous
 62
     7
100
AcDbCircle
 10
-371.9656677246094
 20
299.3135986328125
 30
0.0
 40
3.099999904632568
100
AcDbArc
 50
180.0000000000004
 51
270.0000000000005
  0
ARC
  5
350
330
22
100
AcDbEntity
  8
0
  6
Continuous
 62
     7
100
AcDbCircle
 10
-337.7931213378906
 20
323.5368347167969
 30
0.0
 40
61.72245407104492
100
AcDbArc
 50
192.867073999057
 51
203.1204493709263
  0
ARC
  5
351
330
22
100
AcDbEntity
  8
0
  6
Continuous
 62
     7
100
AcDbCircle
 10
-383.3656921386719
 20
298.8110961914063
 30
0.0
 40
3.099999904632568
100
AcDbArc
 50
0.0
 51
90.00000000000019
  0
ARC
  5
352
330
22
100
AcDbEntity
  8
0
  6
Continuous
 62
     7
100
AcDbCircle
 10
-349.1656799316406
 20
329.2384643554688
 30
0.0
 40
3.099999904632568
100
AcDbArc
 50
270.0000000000005
 51
0.0
  0
ARC
  5
353
330
22
100
AcDbEntity
  8
0
  6
Continuous
 62
     7
100
AcDbCircle
 10
-349.1656799316406
 20
285.3323059082031
 30
0.0
 40
3.099999904632568
100
AcDbArc
 50
0.0
 51
90.00000000000019
  0
ARC
  5
354
330
22
100
AcDbEntity
  8
0
  6
Continuous
 62
     7
100
AcDbCircle
 10
-371.9656677246094
 20
358.9664001464844
 30
0.0
 40
3.099999904632568
100
AcDbArc
 50
270.0000000000005
 51
0.0
  0
ARC
  5
355
330
22
100
AcDbEntity
  8
0
  6
Continuous
 62
     7
100
AcDbCircle
 10
-337.7656860351563
 20
323.5400085449219
 30
0.0
 40
61.75
100
AcDbArc
 50
133.4924636360752
 51
138.8540953004003
  0
ARC
  5
356
330
22
100
AcDbEntity
  8
0
  6
Continuous
 62
     7
100
AcDbCircle
 10
-337.7656860351563
 20
323.5400085449219
 30
0.0
 40
61.75
100
AcDbArc
 50
217.9391870985569
 51
226.5075558528382
  0
ARC
  5
357
330
22
100
AcDbEntity
  8
0
  6
Continuous
 62
     7
100
AcDbCircle
 10
-337.7656860351563
 20
323.5400085449219
 30
0.0
 40
61.75
100
AcDbArc
 50
232.8396047035153
 51
239.7586458676862
  0
ARC
  5
358
330
22
100
AcDbEntity
  8
0
  6
Continuous
 62
     7
100
AcDbCircle
 10
-383.3656921386719
 20
329.2384643554688
 30
0.0
 40
3.099999904632568
100
AcDbArc
 50
180.0000000000004
 51
270.0000000000005
  0
ARC
  5
359
330
22
100
AcDbEntity
  8
0
  6
Continuous
 62
     7
100
AcDbCircle
 10
-393.6656799316406
 20
328.1384582519531
 30
0.0
 40
2.0
100
AcDbArc
 50
270.0000000000005
 51
0.0
  0
ARC
  5
35A
330
22
100
AcDbEntity
  8
0
  6
Continuous
 62
     7
100
AcDbCircle
 10
-395.9656677246094
 20
318.9415283203125
 30
0.0
 40
2.0
100
AcDbArc
 50
90.00000000000019
 51
184.4132557867596
  0
ARC
  5
35B
330
22
100
AcDbEntity
  8
0
  6
Continuous
 62
     7
100
AcDbCircle
 10
-393.6656799316406
 20
318.9415283203125
 30
0.0
 40
2.0
100
AcDbArc
 50
0.0
 51
90.00000000000019
  0
ARC
  5
35C
330
22
100
AcDbEntity
  8
0
  6
Continuous
 62
     7
100
AcDbCircle
 10
-383.3656921386719
 20
337.0463256835938
 30
0.0
 40
3.099999904632568
100
AcDbArc
 50
90.00000000000019
 51
180.0000000000004
  0
ARC
  5
35D
330
22
100
AcDbEntity
  8
0
  6
Continuous
 62
     7
100
AcDbCircle
 10
-383.3656921386719
 20
337.0463256835938
 30
0.0
 40
3.099999904632568
100
AcDbArc
 50
0.0
 51
90.00000000000019
  0
ARC
  5
35E
330
22
100
AcDbEntity
  8
0
  6
Continuous
 62
     7
100
AcDbCircle
 10
-337.7656860351563
 20
323.5400085449219
 30
0.0
 40
61.75
100
AcDbArc
 50
120.2413683936133
 51
127.1604124008771
  0
CIRCLE
  5
35F
330
22
100
AcDbEntity
  8
0
  6
Continuous
 62
     7
100
AcDbCircle
 10
-389.9660339355469
 20
353.8830871582031
 30
0.0
 40
4.75
  0
ARC
  5
360
330
22
100
AcDbEntity
  8
0
  6
Continuous
 62
     7
100
AcDbCircle
 10
-371.9656677246094
 20
288.1135864257813
 30
0.0
 40
3.099999904632568
100
AcDbArc
 50
0.0
 51
90.00000000000019
  0
ARC
  5
361
330
22
100
AcDbEntity
  8
0
  6
Continuous
 62
     7
100
AcDbCircle
 10
-337.7656860351563
 20
323.5400085449219
 30
0.0
 40
61.75
100
AcDbArc
 50
221.1459260227632
 51
226.5075558528382
  0
ARC
  5
362
330
22
100
AcDbEntity
  8
0
  6
Continuous
 62
     7
100
AcDbCircle
 10
-360.565673828125
 20
340.08154296875
 30
0.0
 40
3.099999904632568
100
AcDbArc
 50
0.0
 51
90.00000000000019
  0
ARC
  5
363
330
22
100
AcDbEntity
  8
0
  6
Continuous
 62
     7
100
AcDbCircle
 10
-360.565673828125
 20
295.7984619140625
 30
0.0
 40
3.099999904632568
100
AcDbArc
 50
90.00000000000019
 51
180.0000000000004
  0
ARC
  5
364
330
22
100
AcDbEntity
  8
0
  6
Continuous
 62
     7
100
AcDbCircle
 10
-360.565673828125
 20
306.9984436035156
 30
0.0
 40
3.099999904632568
100
AcDbArc
 50
180.0000000000004
 51
270.0000000000005
  0
ARC
  5
365
330
22
100
AcDbEntity
  8
0
  6
Continuous
 62
     7
100
AcDbCircle
 10
-360.565673828125
 20
317.8415222167969
 30
0.0
 40
3.099999904632568
100
AcDbArc
 50
90.00000000000019
 51
180.0000000000004
  0
ARC
  5
366
330
22
100
AcDbEntity
  8
0
  6
Continuous
 62
     7
100
AcDbCircle
 10
-360.565673828125
 20
329.2384643554688
 30
0.0
 40
3.099999904632568
100
AcDbArc
 50
270.0000000000005
 51
0.0
  0
ARC
  5
367
330
22
100
AcDbEntity
  8
0
  6
Continuous
 62
     7
100
AcDbCircle
 10
-360.565673828125
 20
317.8415222167969
 30
0.0
 40
3.099999904632568
100
AcDbArc
 50
0.0
 51
90.00000000000019
  0
ARC
  5
368
330
22
100
AcDbEntity
  8
0
  6
Continuous
 62
     7
100
AcDbCircle
 10
-360.565673828125
 20
329.2384643554688
 30
0.0
 40
3.099999904632568
100
AcDbArc
 50
180.0000000000004
 51
270.0000000000005
  0
ARC
  5
369
330
22
100
AcDbEntity
  8
0
  6
Continuous
 62
     7
100
AcDbCircle
 10
-337.7656860351563
 20
323.5400085449219
 30
0.0
 40
61.75
100
AcDbArc
 50
245.2012042538837
 51
251.3958489197144
  0
ARC
  5
36A
330
22
100
AcDbEntity
  8
0
  6
Continuous
 62
     7
100
AcDbCircle
 10
-360.565673828125
 20
351.2815246582031
 30
0.0
 40
3.099999904632568
100
AcDbArc
 50
180.0000000000004
 51
270.0000000000005
  0
ARC
  5
36B
330
22
100
AcDbEntity
  8
0
  6
Continuous
 62
     7
100
AcDbCircle
 10
-383.3656921386719
 20
298.8110961914063
 30
0.0
 40
3.099999904632568
100
AcDbArc
 50
90.00000000000019
 51
180.0000000000004
  0
ARC
  5
36C
330
22
100
AcDbEntity
  8
0
  6
Continuous
 62
     7
100
AcDbCircle
 10
-383.3656921386719
 20
310.0336608886719
 30
0.0
 40
3.099999904632568
100
AcDbArc
 50
180.0000000000004
 51
270.0000000000005
  0
ARC
  5
36D
330
22
100
AcDbEntity
  8
0
  6
Continuous
 62
     7
100
AcDbCircle
 10
-393.1656799316406
 20
299.8583679199219
 30
0.0
 40
1.5
100
AcDbArc
 50
201.8308484371596
 51
0.0
  0
ARC
  5
36E
330
22
100
AcDbEntity
  8
0
  6
Continuous
 62
     7
100
AcDbCircle
 10
-383.3656921386719
 20
310.0336608886719
 30
0.0
 40
3.099999904632568
100
AcDbArc
 50
270.0000000000005
 51
0.0
  0
ARC
  5
36F
330
22
100
AcDbEntity
  8
0
  6
Continuous
 62
     7
100
AcDbCircle
 10
-371.9656677246094
 20
299.3135986328125
 30
0.0
 40
3.099999904632568
100
AcDbArc
 50
270.0000000000005
 51
0.0
  0
ARC
  5
370
330
22
100
AcDbEntity
  8
0
  6
Continuous
 62
     7
100
AcDbCircle
 10
-395.9656677246094
 20
328.1384582519531
 30
0.0
 40
2.0
100
AcDbArc
 50
175.586744213241
 51
270.0000000000005
  0
ARC
  5
371
330
22
100
AcDbEntity
  8
0
  6
Continuous
 62
     7
100
AcDbCircle
 10
-362.9430847167969
 20
166.3535614013672
 30
0.0
 40
1.238294243812561
100
AcDbArc
 50
108.4820576881351
 51
171.9025474271813
  0
ARC
  5
372
330
22
100
AcDbEntity
  8
0
  6
Continuous
 62
     7
100
AcDbCircle
 10
-360.565673828125
 20
340.08154296875
 30
0.0
 40
3.099999904632568
100
AcDbArc
 50
90.00000000000019
 51
180.0000000000004
  0
ARC
  5
373
330
22
100
AcDbEntity
  8
0
  6
Continuous
 62
     7
100
AcDbCircle
 10
-360.565673828125
 20
351.2815246582031
 30
0.0
 40
3.099999904632568
100
AcDbArc
 50
270.0000000000005
 51
0.0
  0
ARC
  5
374
330
22
100
AcDbEntity
  8
0
  6
Continuous
 62
     7
100
AcDbCircle
 10
-337.7656860351563
 20
323.5400085449219
 30
0.0
 40
61.75
100
AcDbArc
 50
108.6041601139645
 51
114.7988076228894
  0
ARC
  5
375
330
22
100
AcDbEntity
  8
0
  6
Continuous
 62
     7
100
AcDbCircle
 10
-360.565673828125
 20
306.9984436035156
 30
0.0
 40
3.099999904632568
100
AcDbArc
 50
270.0000000000005
 51
0.0
  0
ARC
  5
376
330
22
100
AcDbEntity
  8
0
  6
Continuous
 62
     7
100
AcDbCircle
 10
-360.565673828125
 20
295.7984619140625
 30
0.0
 40
3.099999904632568
100
AcDbArc
 50
0.0
 51
90.00000000000019
  0
ARC
  5
377
330
22
100
AcDbEntity
  8
0
  6
Continuous
 62
     7
100
AcDbCircle
 10
-383.3656921386719
 20
317.8415222167969
 30
0.0
 40
3.099999904632568
100
AcDbArc
 50
90.00000000000019
 51
180.0000000000004
  0
ARC
  5
378
330
22
100
AcDbEntity
  8
0
  6
Continuous
 62
     7
100
AcDbCircle
 10
-383.3656921386719
 20
317.8415222167969
 30
0.0
 40
3.099999904632568
100
AcDbArc
 50
0.0
 51
90.00000000000019
  0
ARC
  5
379
330
22
100
AcDbEntity
  8
0
  6
Continuous
 62
     7
100
AcDbCircle
 10
-383.3656921386719
 20
329.2384643554688
 30
0.0
 40
3.099999904632568
100
AcDbArc
 50
270.0000000000005
 51
0.0
  0
ARC
  5
37A
330
22
100
AcDbEntity
  8
0
  6
Continuous
 62
     7
100
AcDbCircle
 10
-371.9656677246094
 20
329.2384643554688
 30
0.0
 40
3.099999904632568
100
AcDbArc
 50
270.0000000000005
 51
0.0
  0
ARC
  5
37B
330
22
100
AcDbEntity
  8
0
  6
Continuous
 62
     7
100
AcDbCircle
 10
-371.9656677246094
 20
329.2384643554688
 30
0.0
 40
3.099999904632568
100
AcDbArc
 50
180.0000000000004
 51
270.0000000000005
  0
ARC
  5
37C
330
22
100
AcDbEntity
  8
0
  6
Continuous
 62
     7
100
AcDbCircle
 10
-371.9656677246094
 20
288.1135864257813
 30
0.0
 40
3.099999904632568
100
AcDbArc
 50
90.00000000000019
 51
180.0000000000004
  0
ARC
  5
37D
330
22
100
AcDbEntity
  8
0
  6
Continuous
 62
     7
100
AcDbCircle
 10
-373.9005432128906
 20
55.02799224853515
 30
0.0
 40
2.0
100
AcDbArc
 50
191.9480262139504
 51
270.0000000000005
  0
ARC
  5
37E
330
22
100
AcDbEntity
  8
0
  6
Continuous
 62
     7
100
AcDbCircle
 10
-376.2656860351563
 20
188.2792816162109
 30
0.0
 40
5.0
100
AcDbArc
 50
0.0
 51
59.99998213771593
  0
ARC
  5
37F
330
22
100
AcDbEntity
  8
0
  6
Continuous
 62
     7
100
AcDbCircle
 10
-362.3108825683594
 20
190.2732849121094
 30
0.0
 40
1.920596480369568
100
AcDbArc
 50
111.4330285193514
 51
165.3516638238596
  0
ARC
  5
380
330
22
100
AcDbEntity
  8
0
  6
Continuous
 62
     7
100
AcDbCircle
 10
-375.7656860351563
 20
77.52799224853515
 30
0.0
 40
5.0
100
AcDbArc
 50
270.0000000000005
 51
0.0
  0
ARC
  5
381
330
22
100
AcDbEntity
  8
0
  6
Continuous
 62
     7
100
AcDbCircle
 10
-369.7656860351563
 20
101.5279922485352
 30
0.0
 40
1.0
100
AcDbArc
 50
90.00000000000019
 51
180.0000000000004
  0
ARC
  5
382
330
22
100
AcDbEntity
  8
0
  6
Continuous
 62
     7
100
AcDbCircle
 10
-390.5322570800781
 20
51.50859069824218
 30
0.0
 40
15.0
100
AcDbArc
 50
11.94797794892698
 51
70.17120024299392
  0
ARC
  5
383
330
22
100
AcDbEntity
  8
0
  6
Continuous
 62
     7
100
AcDbCircle
 10
-384.7656860351563
 20
67.50067138671875
 30
0.0
 40
2.0
100
AcDbArc
 50
180.0000000000004
 51
250.1715845045476
  0
ARC
  5
384
330
22
100
AcDbEntity
  8
0
  6
Continuous
 62
     7
100
AcDbCircle
 10
-372.7656860351563
 20
68.02799224853515
 30
0.0
 40
1.0
100
AcDbArc
 50
0.0
 51
90.00000000000019
  0
ARC
  5
385
330
22
100
AcDbEntity
  8
0
  6
Continuous
 62
     7
100
AcDbCircle
 10
-370.7656860351563
 20
41.52799224853516
 30
0.0
 40
1.0
100
AcDbArc
 50
180.0000000000004
 51
270.0000000000005
  0
ARC
  5
386
330
22
100
AcDbEntity
  8
0
  6
Continuous
 62
     7
100
AcDbCircle
 10
-363.6018981933594
 20
186.9060668945313
 30
0.0
 40
5.188574314117431
100
AcDbArc
 50
47.95136791732514
 51
83.47953817998782
  0
ARC
  5
387
330
22
100
AcDbEntity
  8
0
  6
Continuous
 62
     7
100
AcDbCircle
 10
-362.9080200195313
 20
163.2518768310547
 30
0.0
 40
4.297448635101318
100
AcDbArc
 50
49.67073536046154
 51
95.71061338039681
  0
ARC
  5
388
330
22
100
AcDbEntity
  8
0
  6
Continuous
 62
     7
100
AcDbCircle
 10
-420.2656860351563
 20
69.52799224853515
 30
0.0
 40
0.5
100
AcDbArc
 50
180.0000000000004
 51
270.0000000000005
  0
ARC
  5
389
330
22
100
AcDbEntity
  8
0
  6
Continuous
 62
     7
100
AcDbCircle
 10
-418.7656860351562
 20
70.52799224853515
 30
0.0
 40
2.0
100
AcDbArc
 50
90.00000000000019
 51
180.0000000000004
  0
ARC
  5
38A
330
22
100
AcDbEntity
  8
0
  6
Continuous
 62
     7
100
AcDbCircle
 10
-403.2656860351563
 20
215.4147491455078
 30
0.0
 40
5.0
100
AcDbArc
 50
180.0000000000004
 51
240.0000695640013
  0
ARC
  5
38B
330
22
100
AcDbEntity
  8
0
  6
Continuous
 62
     7
100
AcDbCircle
 10
-286.0191345214844
 20
213.7818450927734
 30
0.0
 40
5.0
100
AcDbArc
 50
299.9999304360001
 51
0.0
  0
ARC
  5
38C
330
22
100
AcDbEntity
  8
0
  6
Continuous
 62
     7
100
AcDbCircle
 10
-278.7656860351563
 20
215.1260681152344
 30
0.0
 40
5.0
100
AcDbArc
 50
300.0000178622848
 51
0.0
  0
ARC
  5
38D
330
22
100
AcDbEntity
  8
0
  6
Continuous
 62
     7
100
AcDbCircle
 10
-272.2656860351563
 20
215.4147491455078
 30
0.0
 40
5.0
100
AcDbArc
 50
299.9999304360001
 51
0.0
  0
ARC
  5
38E
330
22
100
AcDbEntity
  8
0
  6
Continuous
 62
     7
100
AcDbCircle
 10
-337.7656860351563
 20
353.4022521972656
 30
0.0
 40
3.099999904632568
100
AcDbArc
 50
270.0000000000005
 51
0.0
  0
ARC
  5
38F
330
22
100
AcDbEntity
  8
0
  6
Continuous
 62
     7
100
AcDbCircle
 10
-337.0039672851563
 20
343.8705444335938
 30
0.0
 40
41.40766525268555
100
AcDbArc
 50
86.76278951201853
 51
91.054049389199
  0
ARC
  5
390
330
22
100
AcDbEntity
  8
0
  6
Continuous
 62
     7
100
AcDbCircle
 10
-337.7656860351563
 20
342.2022399902344
 30
0.0
 40
3.099999904632568
100
AcDbArc
 50
0.0
 51
90.00000000000019
  0
CIRCLE
  5
391
330
22
100
AcDbEntity
  8
0
  6
Continuous
 62
     7
100
AcDbCircle
 10
-337.7656860351563
 20
323.5400085449219
 30
0.0
 40
83.0
  0
CIRCLE
  5
392
330
22
100
AcDbEntity
  8
0
  6
Continuous
 62
     7
100
AcDbCircle
 10
-337.7656860351563
 20
323.5400085449219
 30
0.0
 40
77.5
  0
CIRCLE
  5
393
330
22
100
AcDbEntity
  8
0
  6
Continuous
 62
     7
100
AcDbCircle
 10
-337.8149719238281
 20
323.5400085449219
 30
0.0
 40
67.0
  0
CIRCLE
  5
394
330
22
100
AcDbEntity
  8
0
  6
Continuous
 62
     7
100
AcDbCircle
 10
-337.6284484863281
 20
323.5400085449219
 30
0.0
 40
67.5
  0
CIRCLE
  5
395
330
22
100
AcDbEntity
  8
0
  6
DASHED
 62
     7
100
AcDbCircle
 10
-337.7656860351563
 20
323.5400085449219
 30
0.0
 40
27.5
  0
CIRCLE
  5
396
330
22
100
AcDbEntity
  8
0
  6
Continuous
 62
     7
100
AcDbCircle
 10
-337.7382507324219
 20
263.0431518554688
 30
0.0
 40
4.75
  0
CIRCLE
  5
397
330
22
100
AcDbEntity
  8
0
  6
Continuous
 62
     7
100
AcDbCircle
 10
-337.7382507324219
 20
263.0431518554688
 30
0.0
 40
4.75
  0
CIRCLE
  5
398
330
22
100
AcDbEntity
  8
0
  6
Continuous
 62
     7
100
AcDbCircle
 10
-337.7382507324219
 20
263.0431518554688
 30
0.0
 40
4.5
  0
CIRCLE
  5
399
330
22
100
AcDbEntity
  8
0
  6
Continuous
 62
     7
100
AcDbCircle
 10
-337.7382507324219
 20
263.0431518554688
 30
0.0
 40
4.5
  0
ARC
  5
39A
330
22
100
AcDbEntity
  8
0
  6
Continuous
 62
     7
100
AcDbCircle
 10
-337.7656860351563
 20
271.3797607421875
 30
0.0
 40
3.099999904632568
100
AcDbArc
 50
270.0000000000005
 51
0.0
  0
ARC
  5
39B
330
22
100
AcDbEntity
  8
0
  6
CENTER
 62
     7
100
AcDbCircle
 10
-337.7382507324219
 20
323.5431518554688
 30
0.0
 40
60.5
100
AcDbArc
 50
263.3690062345514
 51
276.5790305083545
  0
ARC
  5
39C
330
22
100
AcDbEntity
  8
0
  6
CENTER
 62
     7
100
AcDbCircle
 10
-337.7382507324219
 20
323.5431518554688
 30
0.0
 40
60.5
100
AcDbArc
 50
263.3690062345514
 51
276.5790305083545
  0
ARC
  5
39D
330
22
100
AcDbEntity
  8
0
  6
Continuous
 62
     7
100
AcDbCircle
 10
-337.7656860351563
 20
293.6477966308594
 30
0.0
 40
3.099999904632568
100
AcDbArc
 50
0.0
 51
90.00000000000019
  0
ARC
  5
39E
330
22
100
AcDbEntity
  8
0
  6
Continuous
 62
     7
100
AcDbCircle
 10
-337.7656860351563
 20
304.8478088378906
 30
0.0
 40
3.099999904632568
100
AcDbArc
 50
270.0000000000005
 51
0.0
  0
ARC
  5
39F
330
22
100
AcDbEntity
  8
0
  6
Continuous
 62
     7
100
AcDbCircle
 10
-337.7656860351563
 20
317.8415222167969
 30
0.0
 40
3.099999904632568
100
AcDbArc
 50
0.0
 51
90.00000000000019
  0
ARC
  5
3A0
330
22
100
AcDbEntity
  8
0
  6
Continuous
 62
     7
100
AcDbCircle
 10
-337.7656860351563
 20
329.2384643554688
 30
0.0
 40
3.099999904632568
100
AcDbArc
 50
270.0000000000005
 51
0.0
  0
TEXT
  5
3A1
330
22
100
AcDbEntity
  8
0
  6
Continuous
 62
     7
100
AcDbText
 10
-293.4150018692017
 20
12.78256225585938
 30
0.0
 40
7.0
  1
DL-CS50
 41
1.02406786948659
100
AcDbText
  0
DIMENSION
  5
3A2
330
22
100
AcDbEntity
  8
0
  6
Continuous
 62
     7
100
AcDbDimension
  2
*D1
 10
-224.3419036865234
 20
102.5279922485352
 30
0.0
 11
-224.3419036865234
 21
87.52799224853516
 31
0.0
 71
     5
 42
-1.0
  3
DIMSTYLE1
100
AcDbAlignedDimension
 13
-206.9252319335938
 23
72.52799224853515
 33
0.0
 14
-305.7656860351563
 24
102.5279922485352
 34
0.0
 50
90.0
100
AcDbRotatedDimension
  0
DIMENSION
  5
3A3
330
22
100
AcDbEntity
  8
0
  6
Continuous
 62
     7
100
AcDbDimension
  2
*D2
 10
-330.4672546386719
 20
182.5279846191406
 30
0.0
 11
-330.4672546386719
 21
132.5279846191406
 31
0.0
 71
     5
 42
-1.0
  3
DIMSTYLE2
100
AcDbAlignedDimension
 13
-337.7656860351563
 23
82.52799224853516
 33
0.0
 14
-337.7656860351563
 24
182.5279846191406
 34
0.0
 50
90.0
100
AcDbRotatedDimension
  0
DIMENSION
  5
3A4
330
22
100
AcDbEntity
  8
0
  6
Continuous
 62
     7
100
AcDbDimension
  2
*D3
 10
-324.4164733886719
 20
132.5279846191406
 30
0.0
 11
-324.4164733886719
 21
107.5279922485352
 31
0.0
 71
     5
 42
-1.0
  3
DIMSTYLE3
100
AcDbAlignedDimension
 13
-321.3697204589844
 23
82.52799224853516
 33
0.0
 14
-309.5312805175781
 24
132.5279846191406
 34
0.0
 50
90.0
100
AcDbRotatedDimension
  0
DIMENSION
  5
3A5
330
22
100
AcDbEntity
  8
0
  6
Continuous
 62
     7
100
AcDbDimension
  2
*D4
 10
-209.2112274169922
 20
69.02799224853516
 30
0.0
 11
-209.2112274169922
 21
58.2107048034668
 31
0.0
 71
     5
 42
-1.0
  3
DIMSTYLE4
100
AcDbAlignedDimension
 13
-206.9252319335938
 23
72.52799224853515
 33
0.0
 14
-255.2656860351564
 24
69.02799224853516
 34
0.0
 50
90.0
100
AcDbRotatedDimension
  0
INSERT
  5
3A6
330
22
100
AcDbEntity
  8
0
  6
Continuous
 62
     7
100
AcDbBlockReference
  2
KOZU0001
 10
-308.3942260742188
 20
54.2410659790039
 30
0.0
  0
DIMENSION
  5
3A7
330
22
100
AcDbEntity
  8
0
  6
Continuous
 62
     7
100
AcDbDimension
  2
*D5
 10
-303.7656860351563
 20
23.15841674804688
 30
0.0
 11
-337.7656860351563
 21
23.15841674804688
 31
0.0
 71
     5
 42
-1.0
  3
DIMSTYLE5
100
AcDbAlignedDimension
 13
-371.7656860351563
 23
41.52799224853516
 33
0.0
 14
-303.7656860351563
 24
41.52799224853516
 34
0.0
100
AcDbRotatedDimension
  0
DIMENSION
  5
3A8
330
22
100
AcDbEntity
  8
0
  6
Continuous
 62
     7
100
AcDbDimension
  2
*D6
 10
-437.1846923828124
 20
102.5279922485352
 30
0.0
 11
-437.1846923828124
 21
71.52799224853516
 31
0.0
 71
     5
 42
-1.0
  3
DIMSTYLE6
100
AcDbAlignedDimension
 13
-370.7656860351563
 23
40.52799224853515
 33
0.0
 14
-369.7656860351563
 24
102.5279922485352
 34
0.0
 50
90.0
100
AcDbRotatedDimension
  0
DIMENSION
  5
3A9
330
22
100
AcDbEntity
  8
0
  6
Continuous
 62
     7
100
AcDbDimension
  2
*D7
 10
-386.7656860351563
 20
45.67461776733398
 30
0.0
 11
-379.2656860351563
 21
45.67461776733398
 31
0.0
 71
     5
 42
-1.0
  3
DIMSTYLE7
100
AcDbAlignedDimension
 13
-371.7656860351563
 23
41.52799224853516
 33
0.0
 14
-386.7656860351563
 24
67.50067138671875
 34
0.0
100
AcDbRotatedDimension
  0
DIMENSION
  5
3AA
330
22
100
AcDbEntity
  8
0
  6
Continuous
 62
     7
100
AcDbDimension
  2
*D8
 10
-397.8584899902344
 20
53.02799224853515
 30
0.0
 11
-397.8584899902344
 21
61.02799224853516
 31
0.0
 71
     5
 42
-1.0
  3
DIMSTYLE8
100
AcDbAlignedDimension
 13
-420.2656860351563
 23
69.02799224853516
 33
0.0
 14
-373.9005432128906
 24
53.02799224853515
 34
0.0
 50
90.0
100
AcDbRotatedDimension
  0
INSERT
  5
3AB
330
22
100
AcDbEntity
  8
0
  6
Continuous
 62
     7
100
AcDbBlockReference
  2
KOZU0002
 10
-379.1318664550781
 20
66.02422332763672
 30
0.0
  0
DIMENSION
  5
3AC
330
22
100
AcDbEntity
  8
0
  6
Continuous
 62
     7
100
AcDbDimension
  2
*D9
 10
-209.2112274169922
 20
224.5279846191406
 30
0.0
 11
-209.2112274169922
 21
148.5279846191406
 31
0.0
 71
     5
 42
-1.0
  3
DIMSTYLE9
100
AcDbAlignedDimension
 13
-256.7656860351563
 23
72.52799224853515
 33
0.0
 14
-261.2656860351563
 24
224.5279846191406
 34
0.0
 50
90.0
100
AcDbRotatedDimension
  0
DIMENSION
  5
3AD
330
22
100
AcDbEntity
  8
0
  6
Continuous
 62
     7
100
AcDbDimension
  2
*D10
 10
-224.3419036865234
 20
166.5279846191406
 30
0.0
 11
-224.3419036865234
 21
195.5279846191406
 31
0.0
 71
     5
 42
-1.0
  3
DIMSTYLE10
100
AcDbAlignedDimension
 13
-206.9252319335938
 23
224.5279846191406
 33
0.0
 14
-305.2656860351563
 24
166.5279846191406
 34
0.0
 50
90.0
100
AcDbRotatedDimension
  0
DIMENSION
  5
3AE
330
22
100
AcDbEntity
  8
0
  6
Continuous
 62
     7
100
AcDbDimension
  2
*D11
 10
-404.4112072183423
 20
274.0690624631914
 30
0.0
 11
-251.6132965087891
 21
387.4908752441406
 31
0.0
 70
     3
 71
     5
 42
-1.0
  3
DIMSTYLE11
100
AcDbDiametricDimension
 15
-271.1201648519701
 25
373.0109546266523
 35
0.0
 40
0.0
  0
DIMENSION
  5
3AF
330
22
100
AcDbEntity
  8
0
  6
Continuous
 62
     7
100
AcDbDimension
  2
*D12
 10
-409.9712135426067
 20
295.3866464478151
 30
0.0
 11
-237.8571319580078
 21
362.4949340820313
 31
0.0
 70
     3
 71
     5
 42
-1.0
  3
DIMSTYLE12
100
AcDbDiametricDimension
 15
-265.5601585277058
 25
351.6933706420287
 35
0.0
 40
0.0
  0
DIMENSION
  5
3B0
330
22
100
AcDbEntity
  8
0
  6
Continuous
 62
     7
100
AcDbDimension
  2
*D13
 10
-404.0005396703048
 20
313.1250854978447
 30
0.0
 11
-235.4109039306641
 21
339.6542358398438
 31
0.0
 70
     3
 71
     5
 42
-1.0
  3
DIMSTYLE13
100
AcDbDiametricDimension
 15
-271.6294041773514
 25
333.9549315919991
 35
0.0
 40
0.0
  0
ENDSEC
  0
SECTION
  2
OBJECTS
  0
DICTIONARY
  5
C
330
0
100
AcDbDictionary
281
     1
  3
ACAD_COLOR
350
1B
  3
ACAD_GROUP
350
D
  3
ACAD_LAYOUT
350
19
  3
ACAD_MATERIAL
350
1A
  3
ACAD_MLINESTYLE
350
16
  3
ACAD_PLOTSETTINGS
350
18
  3
ACAD_PLOTSTYLENAME
350
E
  3
ACAD_TABLESTYLE
350
1C
  3
AcDbVariableDictionary
350
3BC
  0
DICTIONARY
  5
1B
102
{ACAD_REACTORS
330
C
102
}
330
C
100
AcDbDictionary
281
     1
  0
DICTIONARY
  5
D
102
{ACAD_REACTORS
330
C
102
}
330
C
100
AcDbDictionary
281
     1
  0
DICTIONARY
  5
19
102
{ACAD_REACTORS
330
C
102
}
330
C
100
AcDbDictionary
281
     1
  3
Model
350
25
  3
レイアウト1
350
21
  0
DICTIONARY
  5
1A
102
{ACAD_REACTORS
330
C
102
}
330
C
100
AcDbDictionary
281
     1
  0
DICTIONARY
  5
16
102
{ACAD_REACTORS
330
C
102
}
330
C
100
AcDbDictionary
281
     1
  3
Standard
350
17
  0
DICTIONARY
  5
18
102
{ACAD_REACTORS
330
C
102
}
330
C
100
AcDbDictionary
281
     1
  0
ACDBDICTIONARYWDFLT
  5
E
102
{ACAD_REACTORS
330
C
102
}
330
C
100
AcDbDictionary
281
     1
  3
Normal
350
F
100
AcDbDictionaryWithDefault
340
F
  0
DICTIONARY
  5
1C
102
{ACAD_REACTORS
330
C
102
}
330
C
100
AcDbDictionary
281
     1
  3
Standard
350
1D
  0
DICTIONARY
  5
3BC
102
{ACAD_REACTORS
330
C
102
}
330
C
100
AcDbDictionary
281
     1
  3
CTABLESTYLE
350
3BD
  0
LAYOUT
  5
25
102
{ACAD_REACTORS
330
19
102
}
330
19
100
AcDbPlotSettings
  1

  2
PDF reDirect v2
  4
User66
  6

 40
3.174999952316284
 41
3.174999952316284
 42
3.17498779296875
 43
3.17498779296875
 44
420.0
 45
594.0
 46
0.0
 47
0.0
 48
0.0
 49
0.0
140
0.0
141
0.0
142
1.0
143
1.0
 70
 11952
 72
     1
 73
     1
 74
     2
  7
C:\Users\ck\AppData\Roaming\Autodesk\AutoCAD 2005\R16.1\jpn\Plot Styles\black.ctb
 75
    16
147
1.0
 76
     0
 77
     2
 78
   300
148
592.0
149
0.0
100
AcDbLayout
  1
Model
 70
     1
 71
     0
 10
0.0
 20
0.0
 11
12.0
 21
9.0
 12
0.0
 22
0.0
 32
0.0
 14
0.0
 24
0.0
 34
0.0
 15
0.0
 25
0.0
 35
0.0
146
0.0
 13
0.0
 23
0.0
 33
0.0
 16
1.0
 26
0.0
 36
0.0
 17
0.0
 27
1.0
 37
0.0
 76
     0
330
22
1001
ACAD_PSEXT
1000
PDF reDirect v2
1000
PDF reDirect Pro
1000
PDF_REDIRECT_PORT:
1000
PDF reDirect provided by EXP Systems
1070
     0
  0
LAYOUT
  5
21
102
{ACAD_REACTORS
330
19
102
}
330
19
100
AcDbPlotSettings
  1

  2
PDF reDirect v2
  4

  6

 40
0.0
 41
0.0
 42
0.0
 43
0.0
 44
0.0
 45
0.0
 46
0.0
 47
0.0
 48
0.0
 49
0.0
140
0.0
141
0.0
142
1.0
143
1.0
 70
   688
 72
     0
 73
     0
 74
     5
  7
C:\Users\ck\AppData\Roaming\Autodesk\AutoCAD 2005\R16.1\jpn\Plot Styles\black.ctb
 75
    16
147
1.0
 76
     0
 77
     2
 78
   300
148
0.0
149
0.0
100
AcDbLayout
  1
レイアウト1
 70
     1
 71
     1
 10
-592.0
 20
0.0
 11
0.0
 21
418.0
 12
0.0
 22
0.0
 32
0.0
 14
1.000000000000000E+20
 24
1.000000000000000E+20
 34
1.000000000000000E+20
 15
-1.000000000000000E+20
 25
-1.000000000000000E+20
 35
-1.000000000000000E+20
146
0.0
 13
0.0
 23
0.0
 33
0.0
 16
1.0
 26
0.0
 36
0.0
 17
0.0
 27
1.0
 37
0.0
 76
     0
330
1E
  0
MLINESTYLE
  5
17
102
{ACAD_REACTORS
330
16
102
}
330
16
100
AcDbMlineStyle
  2
STANDARD
 70
     0
  3

 62
   256
 51
90.0
 52
90.0
 71
     2
 49
0.5
 62
   256
  6
BYLAYER
 49
-0.5
 62
   256
  6
BYLAYER
  0
ACDBPLACEHOLDER
  5
F
102
{ACAD_REACTORS
330
E
102
}
330
E
  0
TABLESTYLE
  5
1D
102
{ACAD_REACTORS
330
1C
102
}
330
1C
100
AcDbTableStyle
  3
Standard
 70
     0
 71
     0
 40
0.06
 41
0.06
280
     0
281
     0
  7
STANDARD
140
0.18
170
     2
 62
     0
 63
     7
283
     0
274
    -2
284
     1
 64
     0
275
    -2
285
     1
 65
     0
276
    -2
286
     1
 66
     0
277
    -2
287
     1
 67
     0
278
    -2
288
     1
 68
     0
279
    -2
289
     1
 69
     0
  7
STANDARD
140
0.25
170
     5
 62
     0
 63
     7
283
     0
274
    -2
284
     1
 64
     0
275
    -2
285
     1
 65
     0
276
    -2
286
     1
 66
     0
277
    -2
287
     1
 67
     0
278
    -2
288
     1
 68
     0
279
    -2
289
     1
 69
     0
  7
STANDARD
140
0.18
170
     5
 62
     0
 63
     7
283
     0
274
    -2
284
     1
 64
     0
275
    -2
285
     1
 65
     0
276
    -2
286
     1
 66
     0
277
    -2
287
     1
 67
     0
278
    -2
288
     1
 68
     0
279
    -2
289
     1
 69
     0
  0
DICTIONARYVAR
  5
3BD
102
{ACAD_REACTORS
330
3BC
102
}
330
3BC
100
DictionaryVariables
280
     0
  1
STANDARD
  0
ENDSEC
  0
EOF
