  0
SECTION
  2
HEADER
  9
$ACADVER
  1
AC1018
  9
$ACADMAINTVER
 70
    39
  9
$DWGCODEPAGE
  3
ANSI_932
  9
$INSBASE
 10
0.0
 20
0.0
 30
0.0
  9
$EXTMIN
 10
-441.2990707118285
 20
11.49984839872911
 30
-0.0015258207003583
  9
$EXTMAX
 10
-206.8874500343661
 20
404.0126657518706
 30
0.0000000349246037
  9
$LIMMIN
 10
-592.0
 20
0.0
  9
$LIMMAX
 10
0.0
 20
418.0
  9
$ORTHOMODE
 70
     0
  9
$REGENMODE
 70
     1
  9
$FILLMODE
 70
     1
  9
$QTEXTMODE
 70
     0
  9
$MIRRTEXT
 70
     0
  9
$LTSCALE
 40
1.0
  9
$ATTMODE
 70
     1
  9
$TEXTSIZE
 40
0.2
  9
$TRACEWID
 40
0.05
  9
$TEXTSTYLE
  7
STANDARD
  9
$CLAYER
  8
0
  9
$CELTYPE
  6
CONTINUOUS
  9
$CECOLOR
 62
   256
  9
$CELTSCALE
 40
1.0
  9
$DISPSILH
 70
     0
  9
$DIMSCALE
 40
1.0
  9
$DIMASZ
 40
1.0
  9
$DIMEXO
 40
2.54
  9
$DIMDLI
 40
0.38
  9
$DIMRND
 40
0.0
  9
$DIMDLE
 40
0.0
  9
$DIMEXE
 40
2.54
  9
$DIMTP
 40
0.0
  9
$DIMTM
 40
0.0
  9
$DIMTXT
 40
3.0
  9
$DIMCEN
 40
0.09
  9
$DIMTSZ
 40
0.0
  9
$DIMTOL
 70
     0
  9
$DIMLIM
 70
     0
  9
$DIMTIH
 70
     0
  9
$DIMTOH
 70
     0
  9
$DIMSE1
 70
     0
  9
$DIMSE2
 70
     0
  9
$DIMTAD
 70
     1
  9
$DIMZIN
 70
     0
  9
$DIMBLK
  1

  9
$DIMASO
 70
     1
  9
$DIMSHO
 70
     0
  9
$DIMPOST
  1

  9
$DIMAPOST
  1

  9
$DIMALT
 70
     0
  9
$DIMALTD
 70
     2
  9
$DIMALTF
 40
25.4
  9
$DIMLFAC
 40
1.0
  9
$DIMTOFL
 70
     0
  9
$DIMTVP
 40
1.0
  9
$DIMTIX
 70
     0
  9
$DIMSOXD
 70
     0
  9
$DIMSAH
 70
     1
  9
$DIMBLK1
  1

  9
$DIMBLK2
  1

  9
$DIMSTYLE
  2
DIMSTYLE1
  9
$DIMCLRD
 70
     0
  9
$DIMCLRE
 70
     0
  9
$DIMCLRT
 70
     0
  9
$DIMTFAC
 40
1.0
  9
$DIMGAP
 40
1.5
  9
$DIMJUST
 70
     0
  9
$DIMSD1
 70
     0
  9
$DIMSD2
 70
     0
  9
$DIMTOLJ
 70
     1
  9
$DIMTZIN
 70
     0
  9
$DIMALTZ
 70
     0
  9
$DIMALTTZ
 70
     0
  9
$DIMUPT
 70
     0
  9
$DIMDEC
 70
     4
  9
$DIMTDEC
 70
     4
  9
$DIMALTU
 70
     2
  9
$DIMALTTD
 70
     2
  9
$DIMTXSTY
  7
STANDARD
  9
$DIMAUNIT
 70
     0
  9
$DIMADEC
 70
     0
  9
$DIMALTRND
 40
0.0
  9
$DIMAZIN
 70
     0
  9
$DIMDSEP
 70
    46
  9
$DIMATFIT
 70
     3
  9
$DIMFRAC
 70
     0
  9
$DIMLDRBLK
  1

  9
$DIMLUNIT
 70
     2
  9
$DIMLWD
 70
    -2
  9
$DIMLWE
 70
    -2
  9
$DIMTMOVE
 70
     0
  9
$LUNITS
 70
     2
  9
$LUPREC
 70
     4
  9
$SKETCHINC
 40
0.1
  9
$FILLETRAD
 40
0.0
  9
$AUNITS
 70
     0
  9
$AUPREC
 70
     0
  9
$MENU
  1
.
  9
$ELEVATION
 40
0.0
  9
$PELEVATION
 40
0.0
  9
$THICKNESS
 40
0.0
  9
$LIMCHECK
 70
     0
  9
$CHAMFERA
 40
0.0
  9
$CHAMFERB
 40
0.0
  9
$CHAMFERC
 40
0.0
  9
$CHAMFERD
 40
0.0
  9
$SKPOLY
 70
     0
  9
$TDCREATE
 40
2457694.646974815
  9
$TDUCREATE
 40
2457694.271974815
  9
$TDUPDATE
 40
2457694.647669422
  9
$TDUUPDATE
 40
2457694.272669422
  9
$TDINDWG
 40
0.0006957639
  9
$TDUSRTIMER
 40
0.0006957639
  9
$USRTIMER
 70
     1
  9
$ANGBASE
 50
0.0
  9
$ANGDIR
 70
     0
  9
$PDMODE
 70
     0
  9
$PDSIZE
 40
0.0
  9
$PLINEWID
 40
0.0
  9
$SPLFRAME
 70
     0
  9
$SPLINETYPE
 70
     6
  9
$SPLINESEGS
 70
     8
  9
$HANDSEED
  5
33D
  9
$SURFTAB1
 70
     6
  9
$SURFTAB2
 70
     6
  9
$SURFTYPE
 70
     6
  9
$SURFU
 70
     6
  9
$SURFV
 70
     6
  9
$UCSBASE
  2

  9
$UCSNAME
  2

  9
$UCSORG
 10
0.0
 20
0.0
 30
0.0
  9
$UCSXDIR
 10
1.0
 20
0.0
 30
0.0
  9
$UCSYDIR
 10
0.0
 20
1.0
 30
0.0
  9
$UCSORTHOREF
  2

  9
$UCSORTHOVIEW
 70
     0
  9
$UCSORGTOP
 10
0.0
 20
0.0
 30
0.0
  9
$UCSORGBOTTOM
 10
0.0
 20
0.0
 30
0.0
  9
$UCSORGLEFT
 10
0.0
 20
0.0
 30
0.0
  9
$UCSORGRIGHT
 10
0.0
 20
0.0
 30
0.0
  9
$UCSORGFRONT
 10
0.0
 20
0.0
 30
0.0
  9
$UCSORGBACK
 10
0.0
 20
0.0
 30
0.0
  9
$PUCSBASE
  2

  9
$PUCSNAME
  2

  9
$PUCSORG
 10
0.0
 20
0.0
 30
0.0
  9
$PUCSXDIR
 10
1.0
 20
0.0
 30
0.0
  9
$PUCSYDIR
 10
0.0
 20
1.0
 30
0.0
  9
$PUCSORTHOREF
  2

  9
$PUCSORTHOVIEW
 70
     0
  9
$PUCSORGTOP
 10
0.0
 20
0.0
 30
0.0
  9
$PUCSORGBOTTOM
 10
0.0
 20
0.0
 30
0.0
  9
$PUCSORGLEFT
 10
0.0
 20
0.0
 30
0.0
  9
$PUCSORGRIGHT
 10
0.0
 20
0.0
 30
0.0
  9
$PUCSORGFRONT
 10
0.0
 20
0.0
 30
0.0
  9
$PUCSORGBACK
 10
0.0
 20
0.0
 30
0.0
  9
$USERI1
 70
     0
  9
$USERI2
 70
     0
  9
$USERI3
 70
     0
  9
$USERI4
 70
     0
  9
$USERI5
 70
     0
  9
$USERR1
 40
0.0
  9
$USERR2
 40
0.0
  9
$USERR3
 40
0.0
  9
$USERR4
 40
0.0
  9
$USERR5
 40
0.0
  9
$WORLDVIEW
 70
     1
  9
$SHADEDGE
 70
     3
  9
$SHADEDIF
 70
    70
  9
$TILEMODE
 70
     1
  9
$MAXACTVP
 70
    64
  9
$PINSBASE
 10
0.0
 20
0.0
 30
0.0
  9
$PLIMCHECK
 70
     0
  9
$PEXTMIN
 10
1.000000000000000E+20
 20
1.000000000000000E+20
 30
1.000000000000000E+20
  9
$PEXTMAX
 10
-1.000000000000000E+20
 20
-1.000000000000000E+20
 30
-1.000000000000000E+20
  9
$PLIMMIN
 10
-592.0
 20
0.0
  9
$PLIMMAX
 10
0.0
 20
418.0
  9
$UNITMODE
 70
     0
  9
$VISRETAIN
 70
     1
  9
$PLINEGEN
 70
     0
  9
$PSLTSCALE
 70
     1
  9
$TREEDEPTH
 70
  3020
  9
$CMLSTYLE
  2
Standard
  9
$CMLJUST
 70
     0
  9
$CMLSCALE
 40
1.0
  9
$PROXYGRAPHICS
 70
     1
  9
$MEASUREMENT
 70
     0
  9
$CELWEIGHT
370
    -1
  9
$ENDCAPS
280
     0
  9
$JOINSTYLE
280
     0
  9
$LWDISPLAY
290
     0
  9
$INSUNITS
 70
     0
  9
$HYPERLINKBASE
  1

  9
$STYLESHEET
  1

  9
$XEDIT
290
     1
  9
$CEPSNTYPE
380
     0
  9
$PSTYLEMODE
290
     1
  9
$FINGERPRINTGUID
  2
{99364CA7-49D9-40E0-A268-CA3C327D6CC5}
  9
$VERSIONGUID
  2
{3DF5F426-E19F-45AD-B1EA-84851AFA81F4}
  9
$EXTNAMES
290
     1
  9
$PSVPSCALE
 40
0.0
  9
$OLESTARTUP
290
     0
  9
$SORTENTS
280
   127
  9
$INDEXCTL
280
     0
  9
$HIDETEXT
280
     0
  9
$XCLIPFRAME
290
     0
  9
$HALOGAP
280
     0
  9
$OBSCOLOR
 70
   257
  9
$OBSLTYPE
280
     0
  9
$INTERSECTIONDISPLAY
280
     0
  9
$INTERSECTIONCOLOR
 70
   257
  9
$DIMASSOC
280
     1
  9
$PROJECTNAME
  1

  0
ENDSEC
  0
SECTION
  2
CLASSES
  0
CLASS
  1
ACDBDICTIONARYWDFLT
  2
AcDbDictionaryWithDefault
  3
ObjectDBX Classes
 90
        0
 91
        1
280
     0
281
     0
  0
CLASS
  1
TABLESTYLE
  2
AcDbTableStyle
  3
ObjectDBX Classes
 90
     2047
 91
        1
280
     0
281
     0
  0
CLASS
  1
DICTIONARYVAR
  2
AcDbDictionaryVar
  3
ObjectDBX Classes
 90
        0
 91
        1
280
     0
281
     0
  0
ENDSEC
  0
SECTION
  2
TABLES
  0
TABLE
  2
VPORT
  5
8
330
0
100
AcDbSymbolTable
 70
     2
  0
VPORT
  5
33C
330
8
100
AcDbSymbolTableRecord
100
AcDbViewportTableRecord
  2
*Active
 70
     0
 10
0.0
 20
0.0
 11
1.0
 21
1.0
 12
-296.0
 22
209.0
 13
0.0
 23
0.0
 14
1.0
 24
1.0
 15
0.0
 25
0.0
 16
0.0
 26
0.0
 36
1.0
 17
0.0
 27
0.0
 37
0.0
 40
421.2999999999999
 41
1.56258234519104
 42
50.0
 43
0.0
 44
0.0
 50
0.0
 51
0.0
 71
     0
 72
   100
 73
     1
 74
     1
 75
     0
 76
     0
 77
     0
 78
     0
281
     0
 65
     1
110
0.0
120
0.0
130
0.0
111
1.0
121
0.0
131
0.0
112
0.0
122
1.0
132
0.0
 79
     0
146
0.0
  0
ENDTAB
  0
TABLE
  2
LTYPE
  5
5
330
0
100
AcDbSymbolTable
 70
     6
  0
LTYPE
  5
13
330
5
100
AcDbSymbolTableRecord
100
AcDbLinetypeTableRecord
  2
ByBlock
 70
     0
  3

 72
    65
 73
     0
 40
0.0
  0
LTYPE
  5
14
330
5
100
AcDbSymbolTableRecord
100
AcDbLinetypeTableRecord
  2
ByLayer
 70
     0
  3

 72
    65
 73
     0
 40
0.0
  0
LTYPE
  5
15
330
5
100
AcDbSymbolTableRecord
100
AcDbLinetypeTableRecord
  2
CONTINUOUS
 70
     0
  3
Solid line
 72
    65
 73
     0
 40
0.0
  0
LTYPE
  5
26
330
5
100
AcDbSymbolTableRecord
100
AcDbLinetypeTableRecord
  2
DASHED
 70
     0
  3
__ __ __ __ __ __ __ __ __ __ __ __ __ __ __
 72
    65
 73
     2
 40
3.5
 49
2.0
 74
     0
 49
-1.5
 74
     0
  0
LTYPE
  5
27
330
5
100
AcDbSymbolTableRecord
100
AcDbLinetypeTableRecord
  2
CENTER
 70
     0
  3
____ _ ____ _ ____ _ ____ _ ____ _ ____ _ ____
 72
    65
 73
     4
 40
17.5
 49
13.0
 74
     0
 49
-1.5
 74
     0
 49
1.5
 74
     0
 49
-1.5
 74
     0
  0
LTYPE
  5
28
330
5
100
AcDbSymbolTableRecord
100
AcDbLinetypeTableRecord
  2
PHANTOM
 70
     0
  3
_____ _ _ _____ _ _ _____ _ _ _____ _ _ ____  
 72
    65
 73
     6
 40
15.5
 49
8.0
 74
     0
 49
-1.5
 74
     0
 49
1.5
 74
     0
 49
-1.5
 74
     0
 49
1.5
 74
     0
 49
-1.5
 74
     0
  0
LTYPE
  5
29
330
5
100
AcDbSymbolTableRecord
100
AcDbLinetypeTableRecord
  2
DOT
 70
     0
  3
. . . . . . . . . . . . . . . . . . . . . . . .
 72
    65
 73
     2
 40
0.25
 49
0.0
 74
     0
 49
-0.25
 74
     0
  0
LTYPE
  5
2A
330
5
100
AcDbSymbolTableRecord
100
AcDbLinetypeTableRecord
  2
HIDDEN
 70
     0
  3
__ __ __ __ __ __ __ __ __ __ __ __ __ __ __
 72
    65
 73
     2
 40
3.5
 49
2.0
 74
     0
 49
-1.5
 74
     0
  0
ENDTAB
  0
TABLE
  2
LAYER
  5
2
330
0
100
AcDbSymbolTable
 70
     2
  0
LAYER
  5
10
330
2
100
AcDbSymbolTableRecord
100
AcDbLayerTableRecord
  2
0
 70
     0
 62
     7
  6
CONTINUOUS
370
    -3
390
F
  0
LAYER
  5
2B
330
2
100
AcDbSymbolTableRecord
100
AcDbLayerTableRecord
  2
DEFPOINTS
 70
     0
 62
     7
  6
CONTINUOUS
290
     0
370
    -3
390
F
  0
ENDTAB
  0
TABLE
  2
STYLE
  5
3
330
0
100
AcDbSymbolTable
 70
     2
  0
STYLE
  5
11
330
3
100
AcDbSymbolTableRecord
100
AcDbTextStyleTableRecord
  2
STANDARD
 70
     0
 40
0.0
 41
1.0
 50
0.0
 71
     0
 42
0.2
  3

  4

1001
ACAD
1000
MS Gothic
1071
    32817
  0
ENDTAB
  0
TABLE
  2
VIEW
  5
6
330
0
100
AcDbSymbolTable
 70
     0
  0
ENDTAB
  0
TABLE
  2
UCS
  5
7
330
0
100
AcDbSymbolTable
 70
     0
  0
ENDTAB
  0
TABLE
  2
APPID
  5
9
330
0
100
AcDbSymbolTable
 70
     2
  0
APPID
  5
12
330
9
100
AcDbSymbolTableRecord
100
AcDbRegAppTableRecord
  2
ACAD
 70
     0
  0
APPID
  5
331
330
9
100
AcDbSymbolTableRecord
100
AcDbRegAppTableRecord
  2
ACAD_PSEXT
 70
     0
  0
ENDTAB
  0
TABLE
  2
DIMSTYLE
  5
A
330
0
100
AcDbSymbolTable
 70
    14
100
AcDbDimStyleTable
 71
     1
340
2C
  0
DIMSTYLE
105
2C
102
{ACAD_REACTORS
330
320
102
}
330
A
100
AcDbSymbolTableRecord
100
AcDbDimStyleTableRecord
  2
DIMSTYLE1
 70
     0
 41
1.0
 42
2.54
 44
2.54
 73
     0
 74
     0
 77
     1
140
3.0
145
1.0
147
1.5
172
     1
173
     1
279
     2
340
11
  0
DIMSTYLE
105
2D
102
{ACAD_REACTORS
330
321
102
}
330
A
100
AcDbSymbolTableRecord
100
AcDbDimStyleTableRecord
  2
DIMSTYLE2
 70
     0
 41
1.0
 42
2.54
 44
2.54
 73
     0
 74
     0
 77
     1
140
3.0
145
1.0
147
1.5
172
     1
173
     1
279
     2
340
11
  0
DIMSTYLE
105
2E
102
{ACAD_REACTORS
330
322
102
}
330
A
100
AcDbSymbolTableRecord
100
AcDbDimStyleTableRecord
  2
DIMSTYLE3
 70
     0
 41
1.0
 42
2.54
 44
2.54
 73
     0
 74
     0
 77
     1
140
3.0
145
1.0
147
1.5
172
     1
173
     1
279
     2
340
11
  0
DIMSTYLE
105
2F
102
{ACAD_REACTORS
330
323
102
}
330
A
100
AcDbSymbolTableRecord
100
AcDbDimStyleTableRecord
  2
DIMSTYLE4
 70
     0
 41
1.0
 42
2.54
 44
2.54
 73
     0
 74
     0
 77
     1
140
3.0
145
1.0
147
1.5
172
     1
173
     1
279
     2
340
11
  0
DIMSTYLE
105
30
102
{ACAD_REACTORS
330
324
102
}
330
A
100
AcDbSymbolTableRecord
100
AcDbDimStyleTableRecord
  2
DIMSTYLE5
 70
     0
 41
1.0
 42
2.54
 44
2.54
 73
     0
 74
     0
 77
     1
140
3.0
145
1.0
147
1.5
172
     1
173
     1
279
     2
340
11
  0
DIMSTYLE
105
31
102
{ACAD_REACTORS
330
325
102
}
330
A
100
AcDbSymbolTableRecord
100
AcDbDimStyleTableRecord
  2
DIMSTYLE6
 70
     0
 41
1.0
 42
2.54
 44
2.54
 73
     0
 74
     0
 77
     1
140
3.0
145
1.0
147
1.5
172
     1
173
     1
279
     2
340
11
  0
DIMSTYLE
105
32
102
{ACAD_REACTORS
330
326
102
}
330
A
100
AcDbSymbolTableRecord
100
AcDbDimStyleTableRecord
  2
DIMSTYLE7
 70
     0
 41
1.0
 42
2.54
 44
2.54
 73
     0
 74
     0
 77
     1
140
3.0
145
1.0
147
1.5
172
     1
173
     1
279
     2
340
11
  0
DIMSTYLE
105
33
102
{ACAD_REACTORS
330
327
102
}
330
A
100
AcDbSymbolTableRecord
100
AcDbDimStyleTableRecord
  2
DIMSTYLE8
 70
     0
 41
1.0
 42
2.54
 44
2.54
 73
     0
 74
     0
 77
     1
140
3.0
145
1.0
147
1.5
172
     1
173
     1
279
     2
340
11
  0
DIMSTYLE
105
34
102
{ACAD_REACTORS
330
329
102
}
330
A
100
AcDbSymbolTableRecord
100
AcDbDimStyleTableRecord
  2
DIMSTYLE9
 70
     0
 41
1.0
 42
2.54
 44
2.54
 73
     0
 74
     0
 77
     1
140
3.0
145
1.0
147
1.5
172
     1
173
     1
279
     2
340
11
  0
DIMSTYLE
105
35
102
{ACAD_REACTORS
330
32A
102
}
330
A
100
AcDbSymbolTableRecord
100
AcDbDimStyleTableRecord
  2
DIMSTYLE10
 70
     0
 41
1.0
 42
2.54
 44
2.54
 73
     0
 74
     0
 77
     1
140
3.0
145
1.0
147
1.5
172
     1
173
     1
279
     2
340
11
  0
DIMSTYLE
105
36
102
{ACAD_REACTORS
330
32C
102
}
330
A
100
AcDbSymbolTableRecord
100
AcDbDimStyleTableRecord
  2
DIMSTYLE11
 70
     0
 41
1.0
 42
2.54
 44
2.54
 73
     0
 74
     0
 75
     1
 76
     1
 77
     1
140
3.0
145
1.0
147
1.5
172
     1
173
     1
279
     2
340
11
  0
DIMSTYLE
105
37
102
{ACAD_REACTORS
330
32D
102
}
330
A
100
AcDbSymbolTableRecord
100
AcDbDimStyleTableRecord
  2
DIMSTYLE12
 70
     0
 41
1.0
 42
2.54
 44
2.54
 73
     0
 74
     0
 75
     1
 76
     1
 77
     1
140
3.0
145
1.0
147
1.5
172
     1
173
     1
279
     2
340
11
  0
DIMSTYLE
105
38
102
{ACAD_REACTORS
330
32E
102
}
330
A
100
AcDbSymbolTableRecord
100
AcDbDimStyleTableRecord
  2
DIMSTYLE13
 70
     0
 41
1.0
 42
2.54
 44
2.54
 73
     0
 74
     0
 75
     1
 76
     1
 77
     1
140
3.0
145
1.0
147
1.5
172
     1
173
     1
279
     2
340
11
  0
ENDTAB
  0
TABLE
  2
BLOCK_RECORD
  5
1
330
0
100
AcDbSymbolTable
 70
    17
  0
BLOCK_RECORD
  5
22
330
1
100
AcDbSymbolTableRecord
100
AcDbBlockTableRecord
  2
*Model_Space
340
25
  0
BLOCK_RECORD
  5
1E
330
1
100
AcDbSymbolTableRecord
100
AcDbBlockTableRecord
  2
*Paper_Space
340
21
  0
BLOCK_RECORD
  5
3C
330
1
100
AcDbSymbolTableRecord
100
AcDbBlockTableRecord
  2
_OPEN30
340
0
102
{BLKREFS
331
46
331
48
331
53
331
54
331
5E
331
5F
331
6A
331
6B
331
74
331
75
331
7F
331
80
331
8A
331
8B
331
95
331
96
331
A1
331
A2
331
AD
331
AE
331
B9
331
BA
331
C3
331
C4
331
CD
331
CE
102
}
  0
BLOCK_RECORD
  5
42
330
1
100
AcDbSymbolTableRecord
100
AcDbBlockTableRecord
  2
*D1
340
0
  0
BLOCK_RECORD
  5
50
330
1
100
AcDbSymbolTableRecord
100
AcDbBlockTableRecord
  2
*D2
340
0
  0
BLOCK_RECORD
  5
5B
330
1
100
AcDbSymbolTableRecord
100
AcDbBlockTableRecord
  2
*D3
340
0
  0
BLOCK_RECORD
  5
67
330
1
100
AcDbSymbolTableRecord
100
AcDbBlockTableRecord
  2
*D4
340
0
  0
BLOCK_RECORD
  5
71
330
1
100
AcDbSymbolTableRecord
100
AcDbBlockTableRecord
  2
*D5
340
0
  0
BLOCK_RECORD
  5
7C
330
1
100
AcDbSymbolTableRecord
100
AcDbBlockTableRecord
  2
*D6
340
0
  0
BLOCK_RECORD
  5
87
330
1
100
AcDbSymbolTableRecord
100
AcDbBlockTableRecord
  2
*D7
340
0
  0
BLOCK_RECORD
  5
92
330
1
100
AcDbSymbolTableRecord
100
AcDbBlockTableRecord
  2
*D8
340
0
  0
BLOCK_RECORD
  5
9E
330
1
100
AcDbSymbolTableRecord
100
AcDbBlockTableRecord
  2
*D9
340
0
  0
BLOCK_RECORD
  5
AA
330
1
100
AcDbSymbolTableRecord
100
AcDbBlockTableRecord
  2
*D10
340
0
  0
BLOCK_RECORD
  5
B5
330
1
100
AcDbSymbolTableRecord
100
AcDbBlockTableRecord
  2
*D11
340
0
  0
BLOCK_RECORD
  5
BF
330
1
100
AcDbSymbolTableRecord
100
AcDbBlockTableRecord
  2
*D12
340
0
  0
BLOCK_RECORD
  5
C9
330
1
100
AcDbSymbolTableRecord
100
AcDbBlockTableRecord
  2
*D13
340
0
  0
BLOCK_RECORD
  5
D3
330
1
100
AcDbSymbolTableRecord
100
AcDbBlockTableRecord
  2
KOZU0001
340
0
102
{BLKREFS
331
328
102
}
  0
BLOCK_RECORD
  5
DC
330
1
100
AcDbSymbolTableRecord
100
AcDbBlockTableRecord
  2
KOZU0002
340
0
102
{BLKREFS
331
32B
102
}
  0
ENDTAB
  0
ENDSEC
  0
SECTION
  2
BLOCKS
  0
BLOCK
  5
23
330
22
100
AcDbEntity
  8
0
100
AcDbBlockBegin
  2
*Model_Space
 70
     0
 10
0.0
 20
0.0
 30
0.0
  3
*Model_Space
  1

  0
ENDBLK
  5
24
330
22
100
AcDbEntity
  8
0
100
AcDbBlockEnd
  0
BLOCK
  5
1F
330
1E
100
AcDbEntity
 67
     1
  8
0
100
AcDbBlockBegin
  2
*Paper_Space
 70
     0
 10
0.0
 20
0.0
 30
0.0
  3
*Paper_Space
  1

  0
ENDBLK
  5
20
330
1E
100
AcDbEntity
 67
     1
  8
0
100
AcDbBlockEnd
  0
BLOCK
  5
3D
330
3C
100
AcDbEntity
  8
0
100
AcDbBlockBegin
  2
_OPEN30
 70
     0
 10
0.0
 20
0.0
 30
0.0
  3
_OPEN30
  1

  0
LINE
  5
3E
330
3C
100
AcDbEntity
  8
0
  6
ByBlock
 62
     0
100
AcDbLine
 10
0.0
 20
0.0
 30
0.0
 11
-2.999999999999993
 21
-1.000000000000017
 31
0.0
  0
LINE
  5
3F
330
3C
100
AcDbEntity
  8
0
  6
ByBlock
 62
     0
100
AcDbLine
 10
0.0
 20
0.0
 30
0.0
 11
-3.000000000000006
 21
0.9999999999999815
 31
0.0
  0
LINE
  5
40
330
3C
100
AcDbEntity
  8
0
  6
ByBlock
 62
     0
100
AcDbLine
 10
0.0
 20
0.0
 30
0.0
 11
-3.0
 21
0.0
 31
0.0
  0
ENDBLK
  5
41
330
3C
100
AcDbEntity
  8
0
100
AcDbBlockEnd
  0
BLOCK
  5
43
330
42
100
AcDbEntity
  8
0
100
AcDbBlockBegin
  2
*D1
 70
     1
 10
0.0
 20
0.0
 30
0.0
  3
*D1
  1

  0
LINE
  5
44
330
42
100
AcDbEntity
  8
0
  6
Continuous
 62
     7
100
AcDbLine
 10
-209.2112274169922
 20
69.02799224853516
 30
0.0
 11
-209.2112274169922
 21
54.14070510864258
 31
0.0
  0
LINE
  5
45
330
42
100
AcDbEntity
  8
0
  6
Continuous
 62
     7
100
AcDbLine
 10
-209.2112274169922
 20
72.52799224853515
 30
0.0
 11
-209.2112274169922
 21
69.02799224853516
 31
0.0
  0
INSERT
  5
46
330
42
100
AcDbEntity
  8
0
  6
Continuous
 62
     7
100
AcDbBlockReference
  2
_OPEN30
 10
-209.2112274169922
 20
72.52799224853515
 30
0.0
 50
270.0000000000002
  0
LINE
  5
47
330
42
100
AcDbEntity
  8
0
  6
Continuous
 62
     7
100
AcDbLine
 10
-209.2112274169922
 20
75.52799224853515
 30
0.0
 11
-209.2112274169922
 21
78.87799224853515
 31
0.0
  0
INSERT
  5
48
330
42
100
AcDbEntity
  8
0
  6
Continuous
 62
     7
100
AcDbBlockReference
  2
_OPEN30
 10
-209.2112274169922
 20
69.02799224853516
 30
0.0
 50
90.00000000000049
  0
LINE
  5
49
330
42
100
AcDbEntity
  8
0
  6
Continuous
 62
     7
100
AcDbLine
 10
-209.2112274169922
 20
66.02799224853516
 30
0.0
 11
-209.2112274169921
 21
62.67799224853515
 31
0.0
  0
LINE
  5
4A
330
42
100
AcDbEntity
  8
0
  6
Continuous
 62
     7
100
AcDbLine
 10
-258.7256860351562
 20
69.02799224853516
 30
0.0
 11
-206.9252319335938
 21
69.02799224853516
 31
0.0
  0
TEXT
  5
4B
330
42
100
AcDbEntity
  8
0
  6
Continuous
 62
     7
100
AcDbText
 10
-209.9612272390868
 20
54.14070459902188
 30
0.0
 40
3.0
  1
3.5
 50
90.00000250447815
 41
1.356666684150696
100
AcDbText
  0
POINT
  5
4C
330
42
100
AcDbEntity
  8
DEFPOINTS
  6
Continuous
 62
     7
100
AcDbPoint
 10
-206.9252319335938
 20
72.52799224853515
 30
0.0
  0
POINT
  5
4D
330
42
100
AcDbEntity
  8
DEFPOINTS
  6
Continuous
 62
     7
100
AcDbPoint
 10
-261.2656860351563
 20
69.02799224853516
 30
0.0
  0
POINT
  5
4E
330
42
100
AcDbEntity
  8
DEFPOINTS
  6
Continuous
 62
     7
100
AcDbPoint
 10
-209.2112274169922
 20
69.02799224853516
 30
0.0
  0
ENDBLK
  5
4F
330
42
100
AcDbEntity
  8
0
100
AcDbBlockEnd
  0
BLOCK
  5
51
330
50
100
AcDbEntity
  8
0
100
AcDbBlockBegin
  2
*D2
 70
     1
 10
0.0
 20
0.0
 30
0.0
  3
*D2
  1

  0
LINE
  5
52
330
50
100
AcDbEntity
  8
0
  6
Continuous
 62
     7
100
AcDbLine
 10
-224.3419036865234
 20
75.52799224853515
 30
0.0
 11
-224.3419036865234
 21
99.52799224853515
 31
0.0
  0
INSERT
  5
53
330
50
100
AcDbEntity
  8
0
  6
Continuous
 62
     7
100
AcDbBlockReference
  2
_OPEN30
 10
-224.3419036865234
 20
72.52799224853515
 30
0.0
 50
270.0000000000005
  0
INSERT
  5
54
330
50
100
AcDbEntity
  8
0
  6
Continuous
 62
     7
100
AcDbBlockReference
  2
_OPEN30
 10
-224.3419036865234
 20
102.5279922485352
 30
0.0
 50
90.00000000000019
  0
LINE
  5
55
330
50
100
AcDbEntity
  8
0
  6
Continuous
 62
     7
100
AcDbLine
 10
-312.2256860351562
 20
102.5279922485352
 30
0.0
 11
-222.055908203125
 21
102.5279922485352
 31
0.0
  0
TEXT
  5
56
330
50
100
AcDbEntity
  8
0
  6
Continuous
 62
     7
100
AcDbText
 10
-225.0919035741852
 20
84.95799210369488
 30
0.0
 40
3.0
  1
30
 50
90.00000250447815
 41
1.101428593908038
100
AcDbText
  0
POINT
  5
57
330
50
100
AcDbEntity
  8
DEFPOINTS
  6
Continuous
 62
     7
100
AcDbPoint
 10
-206.9252319335938
 20
72.52799224853515
 30
0.0
  0
POINT
  5
58
330
50
100
AcDbEntity
  8
DEFPOINTS
  6
Continuous
 62
     7
100
AcDbPoint
 10
-314.7656860351563
 20
102.5279922485352
 30
0.0
  0
POINT
  5
59
330
50
100
AcDbEntity
  8
DEFPOINTS
  6
Continuous
 62
     7
100
AcDbPoint
 10
-224.3419036865234
 20
102.5279922485352
 30
0.0
  0
ENDBLK
  5
5A
330
50
100
AcDbEntity
  8
0
100
AcDbBlockEnd
  0
BLOCK
  5
5C
330
5B
100
AcDbEntity
  8
0
100
AcDbBlockBegin
  2
*D3
 70
     1
 10
0.0
 20
0.0
 30
0.0
  3
*D3
  1

  0
LINE
  5
5D
330
5B
100
AcDbEntity
  8
0
  6
Continuous
 62
     7
100
AcDbLine
 10
-437.1846923828124
 20
47.52799224853515
 30
0.0
 11
-437.1846923828124
 21
99.52799224853515
 31
0.0
  0
INSERT
  5
5E
330
5B
100
AcDbEntity
  8
0
  6
Continuous
 62
     7
100
AcDbBlockReference
  2
_OPEN30
 10
-437.1846923828124
 20
44.52799224853515
 30
0.0
 50
270.0000000000005
  0
INSERT
  5
5F
330
5B
100
AcDbEntity
  8
0
  6
Continuous
 62
     7
100
AcDbBlockReference
  2
_OPEN30
 10
-437.1846923828124
 20
102.5279922485352
 30
0.0
 50
90.00000000000019
  0
LINE
  5
60
330
5B
100
AcDbEntity
  8
0
  6
Continuous
 62
     7
100
AcDbLine
 10
-367.3056860351563
 20
44.52799224853513
 30
0.0
 11
-439.470703125
 21
44.52799224853515
 31
0.0
  0
LINE
  5
61
330
5B
100
AcDbEntity
  8
0
  6
Continuous
 62
     7
100
AcDbLine
 10
-366.3056860351563
 20
102.5279922485351
 30
0.0
 11
-439.470703125
 21
102.5279922485352
 31
0.0
  0
TEXT
  5
62
330
5B
100
AcDbEntity
  8
0
  6
Continuous
 62
     7
100
AcDbText
 10
-437.9346922704741
 20
70.95799210369488
 30
0.0
 40
3.0
  1
58
 50
90.00000250447815
 41
1.028000020980834
100
AcDbText
  0
POINT
  5
63
330
5B
100
AcDbEntity
  8
DEFPOINTS
  6
Continuous
 62
     7
100
AcDbPoint
 10
-364.7656860351563
 20
44.52799224853515
 30
0.0
  0
POINT
  5
64
330
5B
100
AcDbEntity
  8
DEFPOINTS
  6
Continuous
 62
     7
100
AcDbPoint
 10
-363.7656860351563
 20
102.5279922485352
 30
0.0
  0
POINT
  5
65
330
5B
100
AcDbEntity
  8
DEFPOINTS
  6
Continuous
 62
     7
100
AcDbPoint
 10
-437.1846923828124
 20
102.5279922485352
 30
0.0
  0
ENDBLK
  5
66
330
5B
100
AcDbEntity
  8
0
100
AcDbBlockEnd
  0
BLOCK
  5
68
330
67
100
AcDbEntity
  8
0
100
AcDbBlockBegin
  2
*D4
 70
     1
 10
0.0
 20
0.0
 30
0.0
  3
*D4
  1

  0
LINE
  5
69
330
67
100
AcDbEntity
  8
0
  6
Continuous
 62
     7
100
AcDbLine
 10
-330.4672546386719
 20
85.52799224853515
 30
0.0
 11
-330.4672546386719
 21
179.5279846191406
 31
0.0
  0
INSERT
  5
6A
330
67
100
AcDbEntity
  8
0
  6
Continuous
 62
     7
100
AcDbBlockReference
  2
_OPEN30
 10
-330.4672546386719
 20
82.52799224853516
 30
0.0
 50
270.0000000000005
  0
INSERT
  5
6B
330
67
100
AcDbEntity
  8
0
  6
Continuous
 62
     7
100
AcDbBlockReference
  2
_OPEN30
 10
-330.4672546386719
 20
182.5279846191406
 30
0.0
 50
90.00000000000019
  0
TEXT
  5
6C
330
67
100
AcDbEntity
  8
0
  6
Continuous
 62
     7
100
AcDbText
 10
-331.2172544607665
 20
128.4579844146957
 30
0.0
 40
3.0
  1
100
 50
90.00000250447815
 41
1.320000017011488
100
AcDbText
  0
POINT
  5
6D
330
67
100
AcDbEntity
  8
DEFPOINTS
  6
Continuous
 62
     7
100
AcDbPoint
 10
-337.7656860351563
 20
82.52799224853516
 30
0.0
  0
POINT
  5
6E
330
67
100
AcDbEntity
  8
DEFPOINTS
  6
Continuous
 62
     7
100
AcDbPoint
 10
-337.7656860351563
 20
182.5279846191406
 30
0.0
  0
POINT
  5
6F
330
67
100
AcDbEntity
  8
DEFPOINTS
  6
Continuous
 62
     7
100
AcDbPoint
 10
-330.4672546386719
 20
182.5279846191406
 30
0.0
  0
ENDBLK
  5
70
330
67
100
AcDbEntity
  8
0
100
AcDbBlockEnd
  0
BLOCK
  5
72
330
71
100
AcDbEntity
  8
0
100
AcDbBlockBegin
  2
*D5
 70
     1
 10
0.0
 20
0.0
 30
0.0
  3
*D5
  1

  0
LINE
  5
73
330
71
100
AcDbEntity
  8
0
  6
Continuous
 62
     7
100
AcDbLine
 10
-324.4164733886719
 20
85.52799224853515
 30
0.0
 11
-324.4164733886719
 21
129.5279846191406
 31
0.0
  0
INSERT
  5
74
330
71
100
AcDbEntity
  8
0
  6
Continuous
 62
     7
100
AcDbBlockReference
  2
_OPEN30
 10
-324.4164733886719
 20
82.52799224853516
 30
0.0
 50
270.0000000000005
  0
INSERT
  5
75
330
71
100
AcDbEntity
  8
0
  6
Continuous
 62
     7
100
AcDbBlockReference
  2
_OPEN30
 10
-324.4164733886719
 20
132.5279846191406
 30
0.0
 50
90.00000000000019
  0
LINE
  5
76
330
71
100
AcDbEntity
  8
0
  6
Continuous
 62
     7
100
AcDbLine
 10
-317.8056860351563
 20
132.5279846191406
 30
0.0
 11
-326.7024536132813
 21
132.5279846191406
 31
0.0
  0
TEXT
  5
77
330
71
100
AcDbEntity
  8
0
  6
Continuous
 62
     7
100
AcDbText
 10
-325.1664732763336
 20
104.9579921036949
 30
0.0
 40
3.0
  1
50
 50
90.00000250447815
 41
1.101428593908038
100
AcDbText
  0
POINT
  5
78
330
71
100
AcDbEntity
  8
DEFPOINTS
  6
Continuous
 62
     7
100
AcDbPoint
 10
-321.3697204589844
 20
82.52799224853516
 30
0.0
  0
POINT
  5
79
330
71
100
AcDbEntity
  8
DEFPOINTS
  6
Continuous
 62
     7
100
AcDbPoint
 10
-315.2656860351563
 20
132.5279846191406
 30
0.0
  0
POINT
  5
7A
330
71
100
AcDbEntity
  8
DEFPOINTS
  6
Continuous
 62
     7
100
AcDbPoint
 10
-324.4164733886719
 20
132.5279846191406
 30
0.0
  0
ENDBLK
  5
7B
330
71
100
AcDbEntity
  8
0
100
AcDbBlockEnd
  0
BLOCK
  5
7D
330
7C
100
AcDbEntity
  8
0
100
AcDbBlockBegin
  2
*D6
 70
     1
 10
0.0
 20
0.0
 30
0.0
  3
*D6
  1

  0
LINE
  5
7E
330
7C
100
AcDbEntity
  8
0
  6
Continuous
 62
     7
100
AcDbLine
 10
-368.7656860351563
 20
48.69701766967772
 30
0.0
 11
-376.7656860351563
 21
48.69701766967772
 31
0.0
  0
INSERT
  5
7F
330
7C
100
AcDbEntity
  8
0
  6
Continuous
 62
     7
100
AcDbBlockReference
  2
_OPEN30
 10
-365.7656860351563
 20
48.69701766967772
 30
0.0
  0
INSERT
  5
80
330
7C
100
AcDbEntity
  8
0
  6
Continuous
 62
     7
100
AcDbBlockReference
  2
_OPEN30
 10
-379.7656860351563
 20
48.69701766967772
 30
0.0
 50
180.0000000000004
  0
LINE
  5
81
330
7C
100
AcDbEntity
  8
0
  6
Continuous
 62
     7
100
AcDbLine
 10
-379.7656860351563
 20
64.92749114990234
 30
0.0
 11
-379.7656860351563
 21
46.41101837158203
 31
0.0
  0
TEXT
  5
82
330
7C
100
AcDbEntity
  8
0
  6
Continuous
 62
     7
100
AcDbText
 10
-375.335686147213
 20
49.44701766967773
 30
0.0
 40
3.0
  1
14
 41
1.285000026226043
100
AcDbText
  0
POINT
  5
83
330
7C
100
AcDbEntity
  8
DEFPOINTS
  6
Continuous
 62
     7
100
AcDbPoint
 10
-365.7656860351563
 20
45.52799224853515
 30
0.0
  0
POINT
  5
84
330
7C
100
AcDbEntity
  8
DEFPOINTS
  6
Continuous
 62
     7
100
AcDbPoint
 10
-379.7656860351563
 20
67.46749114990234
 30
0.0
  0
POINT
  5
85
330
7C
100
AcDbEntity
  8
DEFPOINTS
  6
Continuous
 62
     7
100
AcDbPoint
 10
-379.7656860351563
 20
48.69701766967772
 30
0.0
  0
ENDBLK
  5
86
330
7C
100
AcDbEntity
  8
0
100
AcDbBlockEnd
  0
BLOCK
  5
88
330
87
100
AcDbEntity
  8
0
100
AcDbBlockBegin
  2
*D7
 70
     1
 10
0.0
 20
0.0
 30
0.0
  3
*D7
  1

  0
LINE
  5
89
330
87
100
AcDbEntity
  8
0
  6
Continuous
 62
     7
100
AcDbLine
 10
-392.4324035644531
 20
66.02799224853516
 30
0.0
 11
-392.4324035644531
 21
58.02799224853515
 31
0.0
  0
INSERT
  5
8A
330
87
100
AcDbEntity
  8
0
  6
Continuous
 62
     7
100
AcDbBlockReference
  2
_OPEN30
 10
-392.4324035644531
 20
69.02799224853516
 30
0.0
 50
90.00000000000019
  0
INSERT
  5
8B
330
87
100
AcDbEntity
  8
0
  6
Continuous
 62
     7
100
AcDbBlockReference
  2
_OPEN30
 10
-392.4324035644531
 20
55.02799224853515
 30
0.0
 50
270.0000000000005
  0
LINE
  5
8C
330
87
100
AcDbEntity
  8
0
  6
Continuous
 62
     7
100
AcDbLine
 10
-370.725302734375
 20
55.02799224853514
 30
0.0
 11
-394.7184143066406
 21
55.02799224853515
 31
0.0
  0
TEXT
  5
8D
330
87
100
AcDbEntity
  8
0
  6
Continuous
 62
     7
100
AcDbText
 10
-393.1824034521148
 20
59.45799210369488
 30
0.0
 40
3.0
  1
14
 50
90.00000250447815
 41
1.285000026226043
100
AcDbText
  0
POINT
  5
8E
330
87
100
AcDbEntity
  8
DEFPOINTS
  6
Continuous
 62
     7
100
AcDbPoint
 10
-414.2656860351562
 20
69.02799224853516
 30
0.0
  0
POINT
  5
8F
330
87
100
AcDbEntity
  8
DEFPOINTS
  6
Continuous
 62
     7
100
AcDbPoint
 10
-368.185302734375
 20
55.02799224853515
 30
0.0
  0
POINT
  5
90
330
87
100
AcDbEntity
  8
DEFPOINTS
  6
Continuous
 62
     7
100
AcDbPoint
 10
-392.4324035644531
 20
55.02799224853515
 30
0.0
  0
ENDBLK
  5
91
330
87
100
AcDbEntity
  8
0
100
AcDbBlockEnd
  0
BLOCK
  5
93
330
92
100
AcDbEntity
  8
0
100
AcDbBlockBegin
  2
*D8
 70
     1
 10
0.0
 20
0.0
 30
0.0
  3
*D8
  1

  0
LINE
  5
94
330
92
100
AcDbEntity
  8
0
  6
Continuous
 62
     7
100
AcDbLine
 10
-362.7656860351563
 20
23.15841674804688
 30
0.0
 11
-312.7656860351563
 21
23.15841674804686
 31
0.0
  0
INSERT
  5
95
330
92
100
AcDbEntity
  8
0
  6
Continuous
 62
     7
100
AcDbBlockReference
  2
_OPEN30
 10
-365.7656860351563
 20
23.15841674804688
 30
0.0
 50
180.0000000000004
  0
INSERT
  5
96
330
92
100
AcDbEntity
  8
0
  6
Continuous
 62
     7
100
AcDbBlockReference
  2
_OPEN30
 10
-309.7656860351563
 20
23.15841674804688
 30
0.0
  0
LINE
  5
97
330
92
100
AcDbEntity
  8
0
  6
Continuous
 62
     7
100
AcDbLine
 10
-365.7656860351563
 20
42.98799224853516
 30
0.0
 11
-365.7656860351563
 21
20.87241554260254
 31
0.0
  0
LINE
  5
98
330
92
100
AcDbEntity
  8
0
  6
Continuous
 62
     7
100
AcDbLine
 10
-309.7656860351563
 20
42.98799224853516
 30
0.0
 11
-309.7656860351563
 21
20.87241554260254
 31
0.0
  0
TEXT
  5
99
330
92
100
AcDbEntity
  8
0
  6
Continuous
 62
     7
100
AcDbText
 10
-341.8356862068176
 20
23.90841674804688
 30
0.0
 40
3.0
  1
%%C56
 41
0.9498249830693319
100
AcDbText
  0
POINT
  5
9A
330
92
100
AcDbEntity
  8
DEFPOINTS
  6
Continuous
 62
     7
100
AcDbPoint
 10
-365.7656860351563
 20
45.52799224853515
 30
0.0
  0
POINT
  5
9B
330
92
100
AcDbEntity
  8
DEFPOINTS
  6
Continuous
 62
     7
100
AcDbPoint
 10
-309.7656860351563
 20
45.52799224853515
 30
0.0
  0
POINT
  5
9C
330
92
100
AcDbEntity
  8
DEFPOINTS
  6
Continuous
 62
     7
100
AcDbPoint
 10
-309.7656860351563
 20
23.15841674804688
 30
0.0
  0
ENDBLK
  5
9D
330
92
100
AcDbEntity
  8
0
100
AcDbBlockEnd
  0
BLOCK
  5
9F
330
9E
100
AcDbEntity
  8
0
100
AcDbBlockBegin
  2
*D9
 70
     1
 10
0.0
 20
0.0
 30
0.0
  3
*D9
  1

  0
LINE
  5
A0
330
9E
100
AcDbEntity
  8
0
  6
Continuous
 62
     7
100
AcDbLine
 10
-209.2112274169922
 20
75.52799224853515
 30
0.0
 11
-209.2112274169922
 21
217.5279846191406
 31
0.0
  0
INSERT
  5
A1
330
9E
100
AcDbEntity
  8
0
  6
Continuous
 62
     7
100
AcDbBlockReference
  2
_OPEN30
 10
-209.2112274169922
 20
72.52799224853515
 30
0.0
 50
270.0000000000005
  0
INSERT
  5
A2
330
9E
100
AcDbEntity
  8
0
  6
Continuous
 62
     7
100
AcDbBlockReference
  2
_OPEN30
 10
-209.2112274169922
 20
220.5279846191406
 30
0.0
 50
90.00000000000019
  0
LINE
  5
A3
330
9E
100
AcDbEntity
  8
0
  6
Continuous
 62
     7
100
AcDbLine
 10
-260.2256860351562
 20
72.52799224853515
 30
0.0
 11
-206.9252319335938
 21
72.52799224853515
 31
0.0
  0
LINE
  5
A4
330
9E
100
AcDbEntity
  8
0
  6
Continuous
 62
     7
100
AcDbLine
 10
-271.2256860351562
 20
220.5279846191406
 30
0.0
 11
-206.9252319335938
 21
220.5279846191406
 31
0.0
  0
TEXT
  5
A5
330
9E
100
AcDbEntity
  8
0
  6
Continuous
 62
     7
100
AcDbText
 10
-209.9612265834159
 20
127.4579838186493
 30
0.0
 40
3.0
  1
１４８　（１４２～１５９）
 50
90.00000250447815
 41
0.8434321120058422
100
AcDbText
  0
POINT
  5
A6
330
9E
100
AcDbEntity
  8
DEFPOINTS
  6
Continuous
 62
     7
100
AcDbPoint
 10
-262.7656860351563
 20
72.52799224853515
 30
0.0
  0
POINT
  5
A7
330
9E
100
AcDbEntity
  8
DEFPOINTS
  6
Continuous
 62
     7
100
AcDbPoint
 10
-273.7656860351563
 20
220.5279846191406
 30
0.0
  0
POINT
  5
A8
330
9E
100
AcDbEntity
  8
DEFPOINTS
  6
Continuous
 62
     7
100
AcDbPoint
 10
-209.2112274169922
 20
220.5279846191406
 30
0.0
  0
ENDBLK
  5
A9
330
9E
100
AcDbEntity
  8
0
100
AcDbBlockEnd
  0
BLOCK
  5
AB
330
AA
100
AcDbEntity
  8
0
100
AcDbBlockBegin
  2
*D10
 70
     1
 10
0.0
 20
0.0
 30
0.0
  3
*D10
  1

  0
LINE
  5
AC
330
AA
100
AcDbEntity
  8
0
  6
Continuous
 62
     7
100
AcDbLine
 10
-224.3419036865234
 20
217.5279846191406
 30
0.0
 11
-224.3419036865234
 21
172.5279846191406
 31
0.0
  0
INSERT
  5
AD
330
AA
100
AcDbEntity
  8
0
  6
Continuous
 62
     7
100
AcDbBlockReference
  2
_OPEN30
 10
-224.3419036865234
 20
220.5279846191406
 30
0.0
 50
90.00000000000019
  0
INSERT
  5
AE
330
AA
100
AcDbEntity
  8
0
  6
Continuous
 62
     7
100
AcDbBlockReference
  2
_OPEN30
 10
-224.3419036865234
 20
169.5279846191406
 30
0.0
 50
270.0000000000005
  0
LINE
  5
AF
330
AA
100
AcDbEntity
  8
0
  6
Continuous
 62
     7
100
AcDbLine
 10
-308.7256860351562
 20
169.5279846191406
 30
0.0
 11
-222.055908203125
 21
169.5279846191406
 31
0.0
  0
TEXT
  5
B0
330
AA
100
AcDbEntity
  8
0
  6
Continuous
 62
     7
100
AcDbText
 10
-225.0919035741852
 20
192.4579844743004
 30
0.0
 40
3.0
  1
51
 50
90.00000250447815
 41
1.186153870362501
100
AcDbText
  0
POINT
  5
B1
330
AA
100
AcDbEntity
  8
DEFPOINTS
  6
Continuous
 62
     7
100
AcDbPoint
 10
-206.9252319335938
 20
220.5279846191406
 30
0.0
  0
POINT
  5
B2
330
AA
100
AcDbEntity
  8
DEFPOINTS
  6
Continuous
 62
     7
100
AcDbPoint
 10
-311.2656860351563
 20
169.5279846191406
 30
0.0
  0
POINT
  5
B3
330
AA
100
AcDbEntity
  8
DEFPOINTS
  6
Continuous
 62
     7
100
AcDbPoint
 10
-224.3419036865234
 20
169.5279846191406
 30
0.0
  0
ENDBLK
  5
B4
330
AA
100
AcDbEntity
  8
0
100
AcDbBlockEnd
  0
BLOCK
  5
B6
330
B5
100
AcDbEntity
  8
0
100
AcDbBlockBegin
  2
*D11
 70
     1
 10
0.0
 20
0.0
 30
0.0
  3
*D11
  1

  0
LINE
  5
B7
330
B5
100
AcDbEntity
  8
0
  6
Continuous
 62
     7
100
AcDbLine
 10
-280.0175170898438
 20
375.3018798828125
 30
0.0
 11
-253.3663635253906
 21
398.8077087402344
 31
0.0
  0
LINE
  5
B8
330
B5
100
AcDbEntity
  8
0
  6
Continuous
 62
     7
100
AcDbLine
 10
-393.2638965782372
 20
275.420644030717
 30
0.0
 11
-282.2674449744973
 21
373.3174846313923
 31
0.0
  0
INSERT
  5
B9
330
B5
100
AcDbEntity
  8
0
  6
Continuous
 62
     7
100
AcDbBlockReference
  2
_OPEN30
 10
-395.5138244628906
 20
273.4362487792969
 30
0.0
 50
221.4117043507599
  0
INSERT
  5
BA
330
B5
100
AcDbEntity
  8
0
  6
Continuous
 62
     7
100
AcDbBlockReference
  2
_OPEN30
 10
-280.0175170898438
 20
375.3018798828125
 30
0.0
 50
41.4117043507592
  0
TEXT
  5
BB
330
B5
100
AcDbEntity
  8
0
  6
Continuous
 62
     7
100
AcDbText
 10
-277.9687568608161
 20
378.1132492425293
 30
0.0
 40
3.0
  1
%%C１５４（防水皿外径）
 50
41.39999978602212
 41
0.8440126077968535
100
AcDbText
  0
POINT
  5
BC
330
B5
100
AcDbEntity
  8
DEFPOINTS
  6
Continuous
 62
     7
100
AcDbPoint
 10
-395.5138244628906
 20
273.4362487792969
 30
0.0
  0
POINT
  5
BD
330
B5
100
AcDbEntity
  8
DEFPOINTS
  6
Continuous
 62
     7
100
AcDbPoint
 10
-280.0175170898438
 20
375.3018798828125
 30
0.0
  0
ENDBLK
  5
BE
330
B5
100
AcDbEntity
  8
0
100
AcDbBlockEnd
  0
BLOCK
  5
C0
330
BF
100
AcDbEntity
  8
0
100
AcDbBlockBegin
  2
*D12
 70
     1
 10
0.0
 20
0.0
 30
0.0
  3
*D12
  1

  0
LINE
  5
C1
330
BF
100
AcDbEntity
  8
0
  6
Continuous
 62
     7
100
AcDbLine
 10
-277.46044921875
 20
348.62353515625
 30
0.0
 11
-228.0853118896484
 21
368.4819641113281
 31
0.0
  0
LINE
  5
C2
330
BF
100
AcDbEntity
  8
0
  6
Continuous
 62
     7
100
AcDbLine
 10
-395.2876045397116
 20
301.234030496009
 30
0.0
 11
-280.2437675306009
 21
347.5040981661003
 31
0.0
  0
INSERT
  5
C3
330
BF
100
AcDbEntity
  8
0
  6
Continuous
 62
     7
100
AcDbBlockReference
  2
_OPEN30
 10
-398.0709228515625
 20
300.1145935058594
 30
0.0
 50
201.9097497951239
  0
INSERT
  5
C4
330
BF
100
AcDbEntity
  8
0
  6
Continuous
 62
     7
100
AcDbBlockReference
  2
_OPEN30
 10
-277.46044921875
 20
348.62353515625
 30
0.0
 50
21.90974979512319
  0
TEXT
  5
C5
330
BF
100
AcDbEntity
  8
0
  6
Continuous
 62
     7
100
AcDbText
 10
-258.1846837562117
 20
357.1874981511089
 30
0.0
 40
3.0
  1
%%C１３０（目皿受外径）
 50
21.89999924338519
 41
0.8440126077968535
100
AcDbText
  0
POINT
  5
C6
330
BF
100
AcDbEntity
  8
DEFPOINTS
  6
Continuous
 62
     7
100
AcDbPoint
 10
-398.0709228515625
 20
300.1145935058594
 30
0.0
  0
POINT
  5
C7
330
BF
100
AcDbEntity
  8
DEFPOINTS
  6
Continuous
 62
     7
100
AcDbPoint
 10
-277.46044921875
 20
348.62353515625
 30
0.0
  0
ENDBLK
  5
C8
330
BF
100
AcDbEntity
  8
0
100
AcDbBlockEnd
  0
BLOCK
  5
CA
330
C9
100
AcDbEntity
  8
0
100
AcDbBlockBegin
  2
*D13
 70
     1
 10
0.0
 20
0.0
 30
0.0
  3
*D13
  1

  0
LINE
  5
CB
330
C9
100
AcDbEntity
  8
0
  6
Continuous
 62
     7
100
AcDbLine
 10
-283.7649536132813
 20
331.729248046875
 30
0.0
 11
-225.0276489257813
 21
339.7350463867188
 31
0.0
  0
LINE
  5
CC
330
C9
100
AcDbEntity
  8
0
  6
Continuous
 62
     7
100
AcDbLine
 10
-388.7938712775028
 20
317.4140283591841
 30
0.0
 11
-286.7374702752316
 21
331.3241003029252
 31
0.0
  0
INSERT
  5
CD
330
C9
100
AcDbEntity
  8
0
  6
Continuous
 62
     7
100
AcDbBlockReference
  2
_OPEN30
 10
-391.7663879394531
 20
317.0088806152344
 30
0.0
 50
187.7614676694618
  0
INSERT
  5
CE
330
C9
100
AcDbEntity
  8
0
  6
Continuous
 62
     7
100
AcDbBlockReference
  2
_OPEN30
 10
-283.7649536132813
 20
331.729248046875
 30
0.0
 50
7.761467669461078
  0
TEXT
  5
CF
330
C9
100
AcDbEntity
  8
0
  6
Continuous
 62
     7
100
AcDbText
 10
-254.0011556607238
 20
336.5330494002697
 30
0.0
 40
3.0
  1
%%C１０９（目皿外径）
 50
7.800000046300045
 41
0.8443929326254473
100
AcDbText
  0
POINT
  5
D0
330
C9
100
AcDbEntity
  8
DEFPOINTS
  6
Continuous
 62
     7
100
AcDbPoint
 10
-391.7663879394531
 20
317.0088806152344
 30
0.0
  0
POINT
  5
D1
330
C9
100
AcDbEntity
  8
DEFPOINTS
  6
Continuous
 62
     7
100
AcDbPoint
 10
-283.7649536132813
 20
331.729248046875
 30
0.0
  0
ENDBLK
  5
D2
330
C9
100
AcDbEntity
  8
0
100
AcDbBlockEnd
  0
BLOCK
  5
D4
330
D3
100
AcDbEntity
  8
0
100
AcDbBlockBegin
  2
KOZU0001
 70
     0
 10
0.0
 20
0.0
 30
0.0
  3
KOZU0001
  1

  0
LINE
  5
D5
330
D3
100
AcDbEntity
  8
0
  6
Continuous
 62
     7
100
AcDbLine
 10
0.0
 20
0.0
 30
0.0
 11
25.64306640625
 21
-25.40074729919434
 31
0.0
  0
LINE
  5
D6
330
D3
100
AcDbEntity
  8
0
  6
Continuous
 62
     7
100
AcDbLine
 10
25.64306640625
 20
-25.40074729919434
 30
0.0
 11
63.36415100097656
 21
-25.40074729919434
 31
0.0
  0
LINE
  5
D7
330
D3
100
AcDbEntity
  8
0
  6
Continuous
 62
     7
100
AcDbLine
 10
0.0
 20
0.0
 30
0.0
 11
2.83510884109987
 21
-1.400770451971825
 31
0.0
  0
LINE
  5
D8
330
D3
100
AcDbEntity
  8
0
  6
Continuous
 62
     7
100
AcDbLine
 10
0.0
 20
0.0
 30
0.0
 11
1.4276248016968
 21
-2.821681666237381
 31
0.0
  0
TEXT
  5
D9
330
D3
100
AcDbEntity
  8
0
  6
Continuous
 62
     7
100
AcDbText
 10
26.98768544197083
 20
-24.65074729919434
 30
0.0
 40
3.0
  1
配管接続口
 41
0.8487395020950888
100
AcDbText
  0
TEXT
  5
DA
330
D3
100
AcDbEntity
  8
0
  6
Continuous
 62
     7
100
AcDbText
 10
26.98768544197083
 20
-29.91574729919434
 30
0.0
 40
3.0
  1
Ｒｃ１　１／２（４０Ａ）
 41
0.8436974815103043
100
AcDbText
  0
ENDBLK
  5
DB
330
D3
100
AcDbEntity
  8
0
100
AcDbBlockEnd
  0
BLOCK
  5
DD
330
DC
100
AcDbEntity
  8
0
100
AcDbBlockBegin
  2
KOZU0002
 70
     0
 10
0.0
 20
0.0
 30
0.0
  3
KOZU0002
  1

  0
LINE
  5
DE
330
DC
100
AcDbEntity
  8
0
  6
Continuous
 62
     7
100
AcDbLine
 10
0.0
 20
0.0
 30
0.0
 11
-21.68289184570313
 21
-37.945068359375
 31
0.0
  0
LINE
  5
DF
330
DC
100
AcDbEntity
  8
0
  6
Continuous
 62
     7
100
AcDbLine
 10
-21.68289184570313
 20
-37.945068359375
 30
0.0
 11
-48.28192138671875
 21
-37.945068359375
 31
0.0
  0
LINE
  5
E0
330
DC
100
AcDbEntity
  8
0
  6
Continuous
 62
     7
100
AcDbLine
 10
0.0
 20
0.0
 30
0.0
 11
-0.6201734043727495
 21
-3.100868418444858
 31
0.0
  0
LINE
  5
E1
330
DC
100
AcDbEntity
  8
0
  6
Continuous
 62
     7
100
AcDbLine
 10
0.0
 20
0.0
 30
0.0
 11
-2.356659774565114
 21
-2.108590692132236
 31
0.0
  0
TEXT
  5
E2
330
DC
100
AcDbEntity
  8
0
  6
Continuous
 62
     7
100
AcDbText
 10
-46.56192100048065
 20
-37.195068359375
 30
0.0
 40
3.0
  1
共廻り防止用羽根
 41
0.8454512278006642
100
AcDbText
  0
TEXT
  5
E3
330
DC
100
AcDbEntity
  8
0
  6
Continuous
 62
     7
100
AcDbText
 10
-46.56192100048065
 20
-42.460068359375
 30
0.0
 40
3.0
  1
３ヶ所
 41
0.8550420278260688
100
AcDbText
  0
ENDBLK
  5
E4
330
DC
100
AcDbEntity
  8
0
100
AcDbBlockEnd
  0
ENDSEC
  0
SECTION
  2
ENTITIES
  0
POINT
  5
E5
330
22
100
AcDbEntity
  8
0
  6
Continuous
 62
     7
100
AcDbPoint
 10
-337.7656860351563
 20
69.02799224853516
 30
0.0
  0
POINT
  5
E6
330
22
100
AcDbEntity
  8
0
  6
Continuous
 62
     7
100
AcDbPoint
 10
-337.7656860351563
 20
69.02799224853516
 30
0.0
  0
POINT
  5
E7
330
22
100
AcDbEntity
  8
0
  6
Continuous
 62
     7
100
AcDbPoint
 10
-337.7656860351563
 20
220.5279846191406
 30
0.0
  0
POINT
  5
E8
330
22
100
AcDbEntity
  8
0
  6
Continuous
 62
     7
100
AcDbPoint
 10
-314.5965576171875
 20
67.9628677368164
 30
0.0
  0
POINT
  5
E9
330
22
100
AcDbEntity
  8
0
  6
Continuous
 62
     7
100
AcDbPoint
 10
-313.8641662597656
 20
44.52799224853515
 30
0.0
  0
POINT
  5
EA
330
22
100
AcDbEntity
  8
0
  6
Continuous
 62
     7
100
AcDbPoint
 10
-314.2303771972656
 20
56.24542999267578
 30
0.0
  0
POINT
  5
EB
330
22
100
AcDbEntity
  8
0
  6
Continuous
 62
     7
100
AcDbPoint
 10
-315.2656860351563
 20
132.5279846191406
 30
0.0
  0
LINE
  5
EC
330
22
100
AcDbEntity
  8
0
  6
Continuous
 62
     7
100
AcDbLine
 10
-321.2529296875
 20
324.3690795898438
 30
0.0
 11
-321.2529296875
 21
313.2188720703125
 31
0.0
  0
LINE
  5
ED
330
22
100
AcDbEntity
  8
0
  6
Continuous
 62
     7
100
AcDbLine
 10
-321.2656860351563
 20
344.9937744140625
 30
0.0
 11
-321.2784118652344
 21
370.7774047851563
 31
0.0
  0
LINE
  5
EE
330
22
100
AcDbEntity
  8
0
  6
Continuous
 62
     7
100
AcDbLine
 10
-321.2529296875
 20
220.0279846191406
 30
0.0
 11
-321.2529296875
 21
218.0279846191406
 31
0.0
  0
LINE
  5
EF
330
22
100
AcDbEntity
  8
0
  6
Continuous
 62
     7
100
AcDbLine
 10
-321.2529296875
 20
324.3690795898438
 30
0.0
 11
-321.2529296875
 21
335.5192565917969
 31
0.0
  0
LINE
  5
F0
330
22
100
AcDbEntity
  8
0
  6
Continuous
 62
     7
100
AcDbLine
 10
-321.2656860351563
 20
303.7443542480469
 30
0.0
 11
-321.2784118652344
 21
277.9607543945313
 31
0.0
  0
LINE
  5
F1
330
22
100
AcDbEntity
  8
0
  6
Continuous
 62
     7
100
AcDbLine
 10
-316.2529296875
 20
220.0279846191406
 30
0.0
 11
-316.2529296875
 21
218.0279846191406
 31
0.0
  0
LINE
  5
F2
330
22
100
AcDbEntity
  8
0
  6
Continuous
 62
     7
100
AcDbLine
 10
-283.2656860351563
 20
216.0279846191406
 30
0.0
 11
-283.7656860351563
 21
215.5279846191406
 31
0.0
  0
LINE
  5
F3
330
22
100
AcDbEntity
  8
0
  6
Continuous
 62
     7
100
AcDbLine
 10
-292.6153564453125
 20
347.23095703125
 30
0.0
 11
-295.3960266113281
 21
347.5826721191406
 31
0.0
  0
LINE
  5
F4
330
22
100
AcDbEntity
  8
0
  6
Continuous
 62
     7
100
AcDbLine
 10
-294.6542358398438
 20
351.8202209472656
 30
0.0
 11
-295.0002746582031
 21
349.0596923828125
 31
0.0
  0
LINE
  5
F5
330
22
100
AcDbEntity
  8
0
  6
Continuous
 62
     7
100
AcDbLine
 10
-292.5158081054688
 20
347.6024475097656
 30
0.0
 11
-292.6153564453125
 21
347.23095703125
 31
0.0
  0
LINE
  5
F6
330
22
100
AcDbEntity
  8
0
  6
Continuous
 62
     7
100
AcDbLine
 10
-292.5158081054688
 20
347.6024475097656
 30
0.0
 11
-292.6153564453125
 21
347.23095703125
 31
0.0
  0
LINE
  5
F7
330
22
100
AcDbEntity
  8
0
  6
Continuous
 62
     7
100
AcDbLine
 10
-299.3574829101563
 20
349.4356689453125
 30
0.0
 11
-299.2579345703125
 21
349.8071899414063
 31
0.0
  0
LINE
  5
F8
330
22
100
AcDbEntity
  8
0
  6
Continuous
 62
     7
100
AcDbLine
 10
-299.2579345703125
 20
349.8071899414063
 30
0.0
 11
-296.4772644042969
 21
349.4554443359375
 31
0.0
  0
LINE
  5
F9
330
22
100
AcDbEntity
  8
0
  6
Continuous
 62
     7
100
AcDbLine
 10
-283.2656860351563
 20
220.0279846191406
 30
0.0
 11
-283.2656860351563
 21
216.0279846191406
 31
0.0
  0
LINE
  5
FA
330
22
100
AcDbEntity
  8
0
  6
Continuous
 62
     7
100
AcDbLine
 10
-283.2656860351563
 20
220.0279846191406
 30
0.0
 11
-283.7656860351563
 21
220.5279846191406
 31
0.0
  0
LINE
  5
FB
330
22
100
AcDbEntity
  8
0
  6
Continuous
 62
     7
100
AcDbLine
 10
-282.7656860351563
 20
220.5279846191406
 30
0.0
 11
-282.7656860351563
 21
215.5279846191406
 31
0.0
  0
LINE
  5
FC
330
22
100
AcDbEntity
  8
0
  6
Continuous
 62
     7
100
AcDbLine
 10
-272.7656860351563
 20
219.5279846191406
 30
0.0
 11
-272.7656860351563
 21
217.5279846191406
 31
0.0
  0
LINE
  5
FD
330
22
100
AcDbEntity
  8
0
  6
Continuous
 62
     7
100
AcDbLine
 10
-306.7656860351563
 20
286.0994567871094
 30
0.0
 11
-306.7656860351563
 21
319.498046875
 31
0.0
  0
LINE
  5
FE
330
22
100
AcDbEntity
  8
0
  6
Continuous
 62
     7
100
AcDbLine
 10
-311.7656860351563
 20
282.5412902832031
 30
0.0
 11
-311.7656860351563
 21
319.498046875
 31
0.0
  0
LINE
  5
FF
330
22
100
AcDbEntity
  8
0
  6
Continuous
 62
     7
100
AcDbLine
 10
-316.2656860351563
 20
280.0597839355469
 30
0.0
 11
-316.2656860351563
 21
303.7443542480469
 31
0.0
  0
LINE
  5
100
330
22
100
AcDbEntity
  8
0
  6
Continuous
 62
     7
100
AcDbLine
 10
-292.5158081054688
 20
347.6024475097656
 30
0.0
 11
-292.416259765625
 21
347.9739685058594
 31
0.0
  0
LINE
  5
101
330
22
100
AcDbEntity
  8
0
  6
Continuous
 62
     7
100
AcDbLine
 10
-311.7656860351563
 20
366.1968383789063
 30
0.0
 11
-311.7656860351563
 21
328.998046875
 31
0.0
  0
LINE
  5
102
330
22
100
AcDbEntity
  8
0
  6
Continuous
 62
     7
100
AcDbLine
 10
-286.2656860351563
 20
215.5279846191406
 30
0.0
 11
-286.2656860351563
 21
211.1260681152344
 31
0.0
  0
LINE
  5
103
330
22
100
AcDbEntity
  8
0
  6
Continuous
 62
     7
100
AcDbLine
 10
-282.7656860351563
 20
215.5279846191406
 30
0.0
 11
-286.2656860351563
 21
215.5279846191406
 31
0.0
  0
LINE
  5
104
330
22
100
AcDbEntity
  8
0
  6
Continuous
 62
     7
100
AcDbLine
 10
-283.7656860351563
 20
215.5279846191406
 30
0.0
 11
-285.7656860351563
 21
215.5279846191406
 31
0.0
  0
LINE
  5
105
330
22
100
AcDbEntity
  8
0
  6
Continuous
 62
     7
100
AcDbLine
 10
-292.416259765625
 20
347.9739685058594
 30
0.0
 11
-295.0002746582031
 21
349.0596923828125
 31
0.0
  0
LINE
  5
106
330
22
100
AcDbEntity
  8
0
  6
Continuous
 62
     7
100
AcDbLine
 10
-292.416259765625
 20
347.9739685058594
 30
0.0
 11
-295.0002746582031
 21
349.0596923828125
 31
0.0
  0
LINE
  5
107
330
22
100
AcDbEntity
  8
0
  6
Continuous
 62
     7
100
AcDbLine
 10
-297.2190856933594
 20
345.2178955078125
 30
0.0
 11
-296.873046875
 21
347.9784545898438
 31
0.0
  0
LINE
  5
108
330
22
100
AcDbEntity
  8
0
  6
Continuous
 62
     7
100
AcDbLine
 10
-292.6153564453125
 20
347.23095703125
 30
0.0
 11
-295.3960266113281
 21
347.5826721191406
 31
0.0
  0
LINE
  5
109
330
22
100
AcDbEntity
  8
0
  6
Continuous
 62
     7
100
AcDbLine
 10
-294.6542358398438
 20
351.8202209472656
 30
0.0
 11
-295.0254516601563
 21
351.9197082519531
 31
0.0
  0
LINE
  5
10A
330
22
100
AcDbEntity
  8
0
  6
Continuous
 62
     7
100
AcDbLine
 10
-296.4766235351563
 20
345.0189514160156
 30
0.0
 11
-296.8478393554688
 21
345.1184387207031
 31
0.0
  0
LINE
  5
10B
330
22
100
AcDbEntity
  8
0
  6
Continuous
 62
     7
100
AcDbLine
 10
-299.3574829101563
 20
349.4356689453125
 30
0.0
 11
-299.45703125
 21
349.0641784667969
 31
0.0
  0
LINE
  5
10C
330
22
100
AcDbEntity
  8
0
  6
Continuous
 62
     7
100
AcDbLine
 10
-299.2579345703125
 20
349.8071899414063
 30
0.0
 11
-296.4772644042969
 21
349.4554443359375
 31
0.0
  0
LINE
  5
10D
330
22
100
AcDbEntity
  8
0
  6
Continuous
 62
     7
100
AcDbLine
 10
-297.2529296875
 20
341.1222229003906
 30
0.0
 11
-297.25537109375
 21
319.1095275878906
 31
0.0
  0
LINE
  5
10E
330
22
100
AcDbEntity
  8
0
  6
Continuous
 62
     7
100
AcDbLine
 10
-292.7656860351563
 20
338.9664306640625
 30
0.0
 11
-292.7656860351563
 21
324.3690795898438
 31
0.0
  0
LINE
  5
10F
330
22
100
AcDbEntity
  8
0
  6
Continuous
 62
     7
100
AcDbLine
 10
-299.9366455078125
 20
215.5279846191406
 30
0.0
 11
-299.9366455078125
 21
217.5279846191406
 31
0.0
  0
LINE
  5
110
330
22
100
AcDbEntity
  8
0
  6
Continuous
 62
     7
100
AcDbLine
 10
-292.7656860351563
 20
220.0279846191406
 30
0.0
 11
-292.7656860351563
 21
218.0279846191406
 31
0.0
  0
LINE
  5
111
330
22
100
AcDbEntity
  8
0
  6
Continuous
 62
     7
100
AcDbLine
 10
-291.80078125
 20
215.5279846191406
 30
0.0
 11
-291.80078125
 21
209.2587432861328
 31
0.0
  0
LINE
  5
112
330
22
100
AcDbEntity
  8
0
  6
Continuous
 62
     7
100
AcDbLine
 10
-302.2656860351563
 20
220.0279846191406
 30
0.0
 11
-302.2656860351563
 21
218.0279846191406
 31
0.0
  0
LINE
  5
113
330
22
100
AcDbEntity
  8
0
  6
Continuous
 62
     7
100
AcDbLine
 10
-288.5156860351563
 20
220.0279846191406
 30
0.0
 11
-288.5156860351563
 21
218.0279846191406
 31
0.0
  0
LINE
  5
114
330
22
100
AcDbEntity
  8
0
  6
Continuous
 62
     7
100
AcDbLine
 10
-302.2656555175781
 20
341.1095275878906
 30
0.0
 11
-302.2656860351563
 21
319.1095275878906
 31
0.0
  0
LINE
  5
115
330
22
100
AcDbEntity
  8
0
  6
Continuous
 62
     7
100
AcDbLine
 10
-294.6542358398438
 20
351.8202209472656
 30
0.0
 11
-295.0254516601563
 21
351.9197082519531
 31
0.0
  0
LINE
  5
116
330
22
100
AcDbEntity
  8
0
  6
Continuous
 62
     7
100
AcDbLine
 10
-297.2190856933594
 20
345.2178955078125
 30
0.0
 11
-296.8478393554688
 21
345.1184387207031
 31
0.0
  0
LINE
  5
117
330
22
100
AcDbEntity
  8
0
  6
Continuous
 62
     7
100
AcDbLine
 10
-295.3966979980469
 20
352.0191650390625
 30
0.0
 11
-296.4772644042969
 21
349.4554443359375
 31
0.0
  0
LINE
  5
118
330
22
100
AcDbEntity
  8
0
  6
Continuous
 62
     7
100
AcDbLine
 10
-299.3574829101563
 20
349.4356689453125
 30
0.0
 11
-299.45703125
 21
349.0641784667969
 31
0.0
  0
LINE
  5
119
330
22
100
AcDbEntity
  8
0
  6
Continuous
 62
     7
100
AcDbLine
 10
-299.3574829101563
 20
349.4356689453125
 30
0.0
 11
-299.2579345703125
 21
349.8071899414063
 31
0.0
  0
LINE
  5
11A
330
22
100
AcDbEntity
  8
0
  6
Continuous
 62
     7
100
AcDbLine
 10
-295.3966979980469
 20
352.0191650390625
 30
0.0
 11
-296.4772644042969
 21
349.4554443359375
 31
0.0
  0
LINE
  5
11B
330
22
100
AcDbEntity
  8
0
  6
Continuous
 62
     7
100
AcDbLine
 10
-296.4766235351563
 20
345.0189514160156
 30
0.0
 11
-295.3960266113281
 21
347.5826721191406
 31
0.0
  0
LINE
  5
11C
330
22
100
AcDbEntity
  8
0
  6
Continuous
 62
     7
100
AcDbLine
 10
-295.3966979980469
 20
352.0191650390625
 30
0.0
 11
-295.0254516601563
 21
351.9197082519531
 31
0.0
  0
LINE
  5
11D
330
22
100
AcDbEntity
  8
0
  6
Continuous
 62
     7
100
AcDbLine
 10
-279.7656860351563
 20
215.5279846191406
 30
0.0
 11
-279.7656860351563
 21
211.4147491455078
 31
0.0
  0
LINE
  5
11E
330
22
100
AcDbEntity
  8
0
  6
Continuous
 62
     7
100
AcDbLine
 10
-297.2847595214844
 20
220.0430450439453
 30
0.0
 11
-297.285888671875
 21
218.0282135009766
 31
0.0
  0
LINE
  5
11F
330
22
100
AcDbEntity
  8
0
  6
Continuous
 62
     7
100
AcDbLine
 10
-291.80078125
 20
215.5279846191406
 30
0.0
 11
-291.80078125
 21
217.5279846191406
 31
0.0
  0
LINE
  5
120
330
22
100
AcDbEntity
  8
0
  6
Continuous
 62
     7
100
AcDbLine
 10
-292.5158081054688
 20
347.6024475097656
 30
0.0
 11
-292.416259765625
 21
347.9739685058594
 31
0.0
  0
LINE
  5
121
330
22
100
AcDbEntity
  8
0
  6
Continuous
 62
     7
100
AcDbLine
 10
-273.7656860351563
 20
216.5279846191406
 30
0.0
 11
-278.7656860351563
 21
216.5279846191406
 31
0.0
  0
LINE
  5
122
330
22
100
AcDbEntity
  8
0
  6
Continuous
 62
     7
100
AcDbLine
 10
-286.2656860351563
 20
217.0279846191406
 30
0.0
 11
-286.2656860351563
 21
216.0279846191406
 31
0.0
  0
LINE
  5
123
330
22
100
AcDbEntity
  8
0
  6
Continuous
 62
     7
100
AcDbLine
 10
-316.7656860351563
 20
188.5279846191406
 30
0.0
 11
-316.7656860351563
 21
188.8980865478515
 31
0.0
  0
LINE
  5
124
330
22
100
AcDbEntity
  8
0
  6
Continuous
 62
     7
100
AcDbLine
 10
-315.7656860351563
 20
187.5279846191406
 30
0.0
 11
-315.8656921386719
 21
187.5279846191406
 31
0.0
  0
LINE
  5
125
330
22
100
AcDbEntity
  8
0
  6
Continuous
 62
     7
100
AcDbLine
 10
-294.6542358398438
 20
351.8202209472656
 30
0.0
 11
-295.0002746582031
 21
349.0596923828125
 31
0.0
  0
LINE
  5
126
330
22
100
AcDbEntity
  8
0
  6
Continuous
 62
     7
100
AcDbLine
 10
-306.7656860351563
 20
362.638671875
 30
0.0
 11
-306.7656860351563
 21
328.998046875
 31
0.0
  0
LINE
  5
127
330
22
100
AcDbEntity
  8
0
  6
Continuous
 62
     7
100
AcDbLine
 10
-299.45703125
 20
349.0641784667969
 30
0.0
 11
-296.873046875
 21
347.9784545898438
 31
0.0
  0
LINE
  5
128
330
22
100
AcDbEntity
  8
0
  6
Continuous
 62
     7
100
AcDbLine
 10
-297.2190856933594
 20
345.2178955078125
 30
0.0
 11
-296.8478393554688
 21
345.1184387207031
 31
0.0
  0
LINE
  5
129
330
22
100
AcDbEntity
  8
0
  6
Continuous
 62
     7
100
AcDbLine
 10
-296.4766235351563
 20
345.0189514160156
 30
0.0
 11
-296.8478393554688
 21
345.1184387207031
 31
0.0
  0
LINE
  5
12A
330
22
100
AcDbEntity
  8
0
  6
Continuous
 62
     7
100
AcDbLine
 10
-316.2656860351563
 20
368.6783447265625
 30
0.0
 11
-316.2656860351563
 21
344.9937744140625
 31
0.0
  0
LINE
  5
12B
330
22
100
AcDbEntity
  8
0
  6
Continuous
 62
     7
100
AcDbLine
 10
-295.3966979980469
 20
352.0191650390625
 30
0.0
 11
-295.0254516601563
 21
351.9197082519531
 31
0.0
  0
LINE
  5
12C
330
22
100
AcDbEntity
  8
0
  6
Continuous
 62
     7
100
AcDbLine
 10
-296.4766235351563
 20
345.0189514160156
 30
0.0
 11
-295.3960266113281
 21
347.5826721191406
 31
0.0
  0
LINE
  5
12D
330
22
100
AcDbEntity
  8
0
  6
Continuous
 62
     7
100
AcDbLine
 10
-297.2190856933594
 20
345.2178955078125
 30
0.0
 11
-296.873046875
 21
347.9784545898438
 31
0.0
  0
LINE
  5
12E
330
22
100
AcDbEntity
  8
0
  6
Continuous
 62
     7
100
AcDbLine
 10
-302.2656860351563
 20
309.6095275878906
 30
0.0
 11
-302.2656860351563
 21
290.2323913574219
 31
0.0
  0
LINE
  5
12F
330
22
100
AcDbEntity
  8
0
  6
Continuous
 62
     7
100
AcDbLine
 10
-297.2596740722656
 20
309.6095275878906
 30
0.0
 11
-297.2656860351563
 21
296.3456420898438
 31
0.0
  0
LINE
  5
130
330
22
100
AcDbEntity
  8
0
  6
Continuous
 62
     7
100
AcDbLine
 10
-316.2529296875
 20
324.3563537597656
 30
0.0
 11
-316.2529296875
 21
313.2061767578125
 31
0.0
  0
LINE
  5
131
330
22
100
AcDbEntity
  8
0
  6
Continuous
 62
     7
100
AcDbLine
 10
-292.7656860351563
 20
309.7716979980469
 30
0.0
 11
-292.7656860351563
 21
324.3690795898438
 31
0.0
  0
LINE
  5
132
330
22
100
AcDbEntity
  8
0
  6
Continuous
 62
     7
100
AcDbLine
 10
-316.2529296875
 20
324.3563537597656
 30
0.0
 11
-316.2529296875
 21
335.5065612792969
 31
0.0
  0
LINE
  5
133
330
22
100
AcDbEntity
  8
0
  6
Continuous
 62
     7
100
AcDbLine
 10
-299.45703125
 20
349.0641784667969
 30
0.0
 11
-296.873046875
 21
347.9784545898438
 31
0.0
  0
LINE
  5
134
330
22
100
AcDbEntity
  8
0
  6
Continuous
 62
     7
100
AcDbLine
 10
-293.5156860351563
 20
71.52799224853516
 30
0.0
 11
-292.5156860351563
 21
72.52799224853515
 31
0.0
  0
LINE
  5
135
330
22
100
AcDbEntity
  8
0
  6
Continuous
 62
     7
100
AcDbLine
 10
-316.0314331054688
 20
66.52799224853516
 30
0.0
 11
-314.5965576171875
 21
67.9628677368164
 31
0.0
  0
LINE
  5
136
330
22
100
AcDbEntity
  8
0
  6
Continuous
 62
     7
100
AcDbLine
 10
-315.3431701660156
 20
74.03849029541015
 30
0.0
 11
-313.8641662597656
 21
72.55949401855469
 31
0.0
  0
LINE
  5
137
330
22
100
AcDbEntity
  8
0
  6
Continuous
 62
     7
100
AcDbLine
 10
-310.7656860351563
 20
77.52799224853515
 30
0.0
 11
-310.7656860351563
 21
101.5279922485352
 31
0.0
  0
LINE
  5
138
330
22
100
AcDbEntity
  8
0
  6
Continuous
 62
     7
100
AcDbLine
 10
-315.3890075683594
 20
171.0513153076172
 30
0.0
 11
-315.6716918945313
 21
180.0969848632813
 31
0.0
  0
LINE
  5
139
330
22
100
AcDbEntity
  8
0
  6
Continuous
 62
     7
100
AcDbLine
 10
-313.7656860351563
 20
166.6620635986328
 30
0.0
 11
-313.7656860351563
 21
134.0279846191406
 31
0.0
  0
LINE
  5
13A
330
22
100
AcDbEntity
  8
0
  6
Continuous
 62
     7
100
AcDbLine
 10
-314.5965576171875
 20
67.9628677368164
 30
0.0
 11
-313.8641662597656
 21
44.52799224853515
 31
0.0
  0
LINE
  5
13B
330
22
100
AcDbEntity
  8
0
  6
Continuous
 62
     7
100
AcDbLine
 10
-316.0314331054688
 20
66.52799224853516
 30
0.0
 11
-315.3916320800781
 21
46.05544662475586
 31
0.0
  0
LINE
  5
13C
330
22
100
AcDbEntity
  8
0
  6
Continuous
 62
     7
100
AcDbLine
 10
-313.8641662597656
 20
101.0683975219727
 30
0.0
 11
-312.4045715332031
 21
102.5279922485352
 31
0.0
  0
LINE
  5
13D
330
22
100
AcDbEntity
  8
0
  6
Continuous
 62
     7
100
AcDbLine
 10
-313.8641662597656
 20
98.23996734619141
 30
0.0
 11
-310.7656860351563
 21
101.3384628295898
 31
0.0
  0
LINE
  5
13E
330
22
100
AcDbEntity
  8
0
  6
Continuous
 62
     7
100
AcDbLine
 10
-313.8641662597656
 20
95.41153717041016
 30
0.0
 11
-310.7656860351563
 21
98.51004028320312
 31
0.0
  0
LINE
  5
13F
330
22
100
AcDbEntity
  8
0
  6
Continuous
 62
     7
100
AcDbLine
 10
-313.8641662597656
 20
92.58311462402344
 30
0.0
 11
-310.7656860351563
 21
95.68161010742187
 31
0.0
  0
LINE
  5
140
330
22
100
AcDbEntity
  8
0
  6
Continuous
 62
     7
100
AcDbLine
 10
-313.8641662597656
 20
89.75468444824219
 30
0.0
 11
-310.7656860351563
 21
92.85318756103515
 31
0.0
  0
LINE
  5
141
330
22
100
AcDbEntity
  8
0
  6
Continuous
 62
     7
100
AcDbLine
 10
-313.8641662597656
 20
86.92626190185547
 30
0.0
 11
-310.7656860351563
 21
90.0247573852539
 31
0.0
  0
LINE
  5
142
330
22
100
AcDbEntity
  8
0
  6
Continuous
 62
     7
100
AcDbLine
 10
-313.8641662597656
 20
84.09783172607422
 30
0.0
 11
-310.7656860351563
 21
87.19632720947265
 31
0.0
  0
LINE
  5
143
330
22
100
AcDbEntity
  8
0
  6
Continuous
 62
     7
100
AcDbLine
 10
-313.8641662597656
 20
81.26940155029297
 30
0.0
 11
-310.7656860351563
 21
84.36790466308593
 31
0.0
  0
LINE
  5
144
330
22
100
AcDbEntity
  8
0
  6
Continuous
 62
     7
100
AcDbLine
 10
-313.8641662597656
 20
78.44097900390625
 30
0.0
 11
-310.7656860351563
 21
81.53947448730468
 31
0.0
  0
LINE
  5
145
330
22
100
AcDbEntity
  8
0
  6
Continuous
 62
     7
100
AcDbLine
 10
-313.8641662597656
 20
75.612548828125
 30
0.0
 11
-310.7656860351563
 21
78.71105194091796
 31
0.0
  0
LINE
  5
146
330
22
100
AcDbEntity
  8
0
  6
Continuous
 62
     7
100
AcDbLine
 10
-313.8641662597656
 20
72.78412628173828
 30
0.0
 11
-310.5360412597656
 21
76.11225128173828
 31
0.0
  0
LINE
  5
147
330
22
100
AcDbEntity
  8
0
  6
Continuous
 62
     7
100
AcDbLine
 10
-314.5965576171875
 20
69.22332000732422
 30
0.0
 11
-309.5383911132813
 21
74.28147125244141
 31
0.0
  0
LINE
  5
148
330
22
100
AcDbEntity
  8
0
  6
Continuous
 62
     7
100
AcDbLine
 10
-314.5641784667969
 20
66.42725372314453
 30
0.0
 11
-307.9421997070313
 21
73.04923248291015
 31
0.0
  0
LINE
  5
149
330
22
100
AcDbEntity
  8
0
  6
Continuous
 62
     7
100
AcDbLine
 10
-309.3375854492188
 20
68.825439453125
 30
0.0
 11
-305.6350402832031
 21
72.52799224853515
 31
0.0
  0
LINE
  5
14A
330
22
100
AcDbEntity
  8
0
  6
Continuous
 62
     7
100
AcDbLine
 10
-314.4784851074219
 20
63.68454360961914
 30
0.0
 11
-309.5631408691406
 21
68.59989166259765
 31
0.0
  0
LINE
  5
14B
330
22
100
AcDbEntity
  8
0
  6
Continuous
 62
     7
100
AcDbLine
 10
-306.3066101074219
 20
69.02799224853516
 30
0.0
 11
-302.8066101074219
 21
72.52799224853515
 31
0.0
  0
LINE
  5
14C
330
22
100
AcDbEntity
  8
0
  6
Continuous
 62
     7
100
AcDbLine
 10
-314.3927612304688
 20
60.94182968139648
 30
0.0
 11
-309.7656860351563
 21
65.56891632080078
 31
0.0
  0
LINE
  5
14D
330
22
100
AcDbEntity
  8
0
  6
Continuous
 62
     7
100
AcDbLine
 10
-303.4781799316406
 20
69.02799224853516
 30
0.0
 11
-299.9781799316406
 21
72.52799224853515
 31
0.0
  0
LINE
  5
14E
330
22
100
AcDbEntity
  8
0
  6
Continuous
 62
     7
100
AcDbLine
 10
-314.3070373535156
 20
58.19911575317383
 30
0.0
 11
-309.7656860351563
 21
62.74048614501953
 31
0.0
  0
LINE
  5
14F
330
22
100
AcDbEntity
  8
0
  6
Continuous
 62
     7
100
AcDbLine
 10
-300.6497497558594
 20
69.02799224853516
 30
0.0
 11
-297.1497497558594
 21
72.52799224853515
 31
0.0
  0
LINE
  5
150
330
22
100
AcDbEntity
  8
0
  6
Continuous
 62
     7
100
AcDbLine
 10
-314.2213439941406
 20
55.45640563964844
 30
0.0
 11
-309.7656860351563
 21
59.91205978393555
 31
0.0
  0
LINE
  5
151
330
22
100
AcDbEntity
  8
0
  6
Continuous
 62
     7
100
AcDbLine
 10
-297.8213195800781
 20
69.02799224853516
 30
0.0
 11
-294.4184875488281
 21
72.4308090209961
 31
0.0
  0
LINE
  5
152
330
22
100
AcDbEntity
  8
0
  6
Continuous
 62
     7
100
AcDbLine
 10
-314.1356201171875
 20
52.71369171142578
 30
0.0
 11
-309.7656860351563
 21
57.08363342285156
 31
0.0
  0
LINE
  5
153
330
22
100
AcDbEntity
  8
0
  6
Continuous
 62
     7
100
AcDbLine
 10
-294.9928894042969
 20
69.02799224853516
 30
0.0
 11
-291.4928894042969
 21
72.52799224853515
 31
0.0
  0
LINE
  5
154
330
22
100
AcDbEntity
  8
0
  6
Continuous
 62
     7
100
AcDbLine
 10
-314.0498962402344
 20
49.97097778320313
 30
0.0
 11
-309.7656860351563
 21
54.25520706176758
 31
0.0
  0
LINE
  5
155
330
22
100
AcDbEntity
  8
0
  6
Continuous
 62
     7
100
AcDbLine
 10
-292.1644592285156
 20
69.02799224853516
 30
0.0
 11
-288.6644592285156
 21
72.52799224853515
 31
0.0
  0
LINE
  5
156
330
22
100
AcDbEntity
  8
0
  6
Continuous
 62
     7
100
AcDbLine
 10
-313.9642028808594
 20
47.22826385498047
 30
0.0
 11
-309.7656860351563
 21
51.42677688598633
 31
0.0
  0
LINE
  5
157
330
22
100
AcDbEntity
  8
0
  6
Continuous
 62
     7
100
AcDbLine
 10
-289.3360290527344
 20
69.02799224853516
 30
0.0
 11
-285.8360290527344
 21
72.52799224853515
 31
0.0
  0
LINE
  5
158
330
22
100
AcDbEntity
  8
0
  6
Continuous
 62
     7
100
AcDbLine
 10
-313.8784790039063
 20
44.48554992675781
 30
0.0
 11
-309.7656860351563
 21
48.59835052490234
 31
0.0
  0
LINE
  5
159
330
22
100
AcDbEntity
  8
0
  6
Continuous
 62
     7
100
AcDbLine
 10
-286.5075988769531
 20
69.02799224853516
 30
0.0
 11
-283.0075988769531
 21
72.52799224853515
 31
0.0
  0
LINE
  5
15A
330
22
100
AcDbEntity
  8
0
  6
Continuous
 62
     7
100
AcDbLine
 10
-311.5075988769531
 20
44.52799224853515
 30
0.0
 11
-309.7656860351563
 21
46.26992416381836
 31
0.0
  0
LINE
  5
15B
330
22
100
AcDbEntity
  8
0
  6
Continuous
 62
     7
100
AcDbLine
 10
-280.8507690429688
 20
69.02799224853516
 30
0.0
 11
-277.9320068359375
 21
71.94673156738281
 31
0.0
  0
LINE
  5
15C
330
22
100
AcDbEntity
  8
0
  6
Continuous
 62
     7
100
AcDbLine
 10
-278.0223388671875
 20
69.02799224853516
 30
0.0
 11
-274.5223388671875
 21
72.52799224853515
 31
0.0
  0
LINE
  5
15D
330
22
100
AcDbEntity
  8
0
  6
Continuous
 62
     7
100
AcDbLine
 10
-275.1939086914063
 20
69.02799224853516
 30
0.0
 11
-271.6939086914063
 21
72.52799224853515
 31
0.0
  0
LINE
  5
15E
330
22
100
AcDbEntity
  8
0
  6
Continuous
 62
     7
100
AcDbLine
 10
-272.365478515625
 20
69.02799224853516
 30
0.0
 11
-268.865478515625
 21
72.52799224853515
 31
0.0
  0
LINE
  5
15F
330
22
100
AcDbEntity
  8
0
  6
Continuous
 62
     7
100
AcDbLine
 10
-269.5370483398438
 20
69.02799224853516
 30
0.0
 11
-266.0370483398438
 21
72.52799224853515
 31
0.0
  0
LINE
  5
160
330
22
100
AcDbEntity
  8
0
  6
Continuous
 62
     7
100
AcDbLine
 10
-266.7086181640625
 20
69.02799224853516
 30
0.0
 11
-263.2086181640625
 21
72.52799224853515
 31
0.0
  0
LINE
  5
161
330
22
100
AcDbEntity
  8
0
  6
Continuous
 62
     7
100
AcDbLine
 10
-263.8801879882813
 20
69.02799224853516
 30
0.0
 11
-261.1970520019531
 21
71.71112060546875
 31
0.0
  0
LINE
  5
162
330
22
100
AcDbEntity
  8
0
  6
Continuous
 62
     7
100
AcDbLine
 10
-314.1760864257813
 20
181.0027770996094
 30
0.0
 11
-313.7656860351563
 21
166.6620635986328
 31
0.0
  0
LINE
  5
163
330
22
100
AcDbEntity
  8
0
  6
Continuous
 62
     7
100
AcDbLine
 10
-313.8656921386719
 20
169.5279846191406
 30
0.0
 11
-314.2406921386719
 21
181.5279846191406
 31
0.0
  0
LINE
  5
164
330
22
100
AcDbEntity
  8
0
  6
Continuous
 62
     7
100
AcDbLine
 10
-314.2406921386719
 20
181.5279846191406
 30
0.0
 11
-315.6716918945313
 21
180.0969848632813
 31
0.0
  0
LINE
  5
165
330
22
100
AcDbEntity
  8
0
  6
Continuous
 62
     7
100
AcDbLine
 10
-314.2406921386719
 20
181.5279846191406
 30
0.0
 11
-314.3656921386719
 21
181.5279846191406
 31
0.0
  0
LINE
  5
166
330
22
100
AcDbEntity
  8
0
  6
Continuous
 62
     7
100
AcDbLine
 10
-293.9985656738281
 20
205.6224365234375
 30
0.0
 11
-297.7769165039063
 21
203.4409942626953
 31
0.0
  0
LINE
  5
167
330
22
100
AcDbEntity
  8
0
  6
Continuous
 62
     7
100
AcDbLine
 10
-282.2656860351563
 20
207.0846099853516
 30
0.0
 11
-307.7656860351563
 21
192.3621826171875
 31
0.0
  0
LINE
  5
168
330
22
100
AcDbEntity
  8
0
  6
Continuous
 62
     7
100
AcDbLine
 10
-288.7656860351563
 20
206.7959442138672
 30
0.0
 11
-315.2656860351563
 21
191.4961547851563
 31
0.0
  0
LINE
  5
169
330
22
100
AcDbEntity
  8
0
  6
Continuous
 62
     7
100
AcDbLine
 10
-300.0065002441406
 20
215.5279846191406
 30
0.0
 11
-300.0065002441406
 21
204.0384063720703
 31
0.0
  0
LINE
  5
16A
330
22
100
AcDbEntity
  8
0
  6
Continuous
 62
     7
100
AcDbLine
 10
-309.7656860351563
 20
68.02799224853515
 30
0.0
 11
-309.7656860351563
 21
45.52799224853515
 31
0.0
  0
LINE
  5
16B
330
22
100
AcDbEntity
  8
0
  6
Continuous
 62
     7
100
AcDbLine
 10
-314.5965576171875
 20
72.55949401855469
 30
0.0
 11
-314.5965576171875
 21
67.9628677368164
 31
0.0
  0
LINE
  5
16C
330
22
100
AcDbEntity
  8
0
  6
Continuous
 62
     7
100
AcDbLine
 10
-315.3431701660156
 20
101.0489883422852
 30
0.0
 11
-315.3431701660156
 21
74.03849029541015
 31
0.0
  0
LINE
  5
16D
330
22
100
AcDbEntity
  8
0
  6
Continuous
 62
     7
100
AcDbLine
 10
-315.2656860351563
 20
82.52799224853516
 30
0.0
 11
-313.7656860351563
 21
84.02799224853515
 31
0.0
  0
LINE
  5
16E
330
22
100
AcDbEntity
  8
0
  6
Continuous
 62
     7
100
AcDbLine
 10
-315.2656860351563
 20
132.5279846191406
 30
0.0
 11
-315.2656860351563
 21
82.52799224853516
 31
0.0
  0
LINE
  5
16F
330
22
100
AcDbEntity
  8
0
  6
Continuous
 62
     7
100
AcDbLine
 10
-313.7656860351563
 20
84.02799224853515
 30
0.0
 11
-313.7944030761719
 21
133.999267578125
 31
0.0
  0
LINE
  5
170
330
22
100
AcDbEntity
  8
0
  6
Continuous
 62
     7
100
AcDbLine
 10
-281.7656860351563
 20
72.52799224853515
 30
0.0
 11
-267.7843017578125
 21
72.52799224853515
 31
0.0
  0
LINE
  5
171
330
22
100
AcDbEntity
  8
0
  6
Continuous
 62
     7
100
AcDbLine
 10
-260.7656860351563
 20
69.52799224853515
 30
0.0
 11
-260.7656860351563
 21
70.52799224853515
 31
0.0
  0
LINE
  5
172
330
22
100
AcDbEntity
  8
0
  6
Continuous
 62
     7
100
AcDbLine
 10
-313.8641662597656
 20
102.5279922485352
 30
0.0
 11
-313.8641662597656
 21
72.55949401855469
 31
0.0
  0
LINE
  5
173
330
22
100
AcDbEntity
  8
0
  6
Continuous
 62
     7
100
AcDbLine
 10
-305.7656860351563
 20
72.52799224853515
 30
0.0
 11
-262.7656860351563
 21
72.52799224853515
 31
0.0
  0
LINE
  5
174
330
22
100
AcDbEntity
  8
0
  6
Continuous
 62
     7
100
AcDbLine
 10
-308.7656860351563
 20
69.02799224853516
 30
0.0
 11
-261.2656860351563
 21
69.02799224853516
 31
0.0
  0
LINE
  5
175
330
22
100
AcDbEntity
  8
0
  6
Continuous
 62
     7
100
AcDbLine
 10
-277.5132751464844
 20
71.52799224853516
 30
0.0
 11
-278.5132751464844
 21
72.52799224853515
 31
0.0
  0
LINE
  5
176
330
22
100
AcDbEntity
  8
0
  6
Continuous
 62
     7
100
AcDbLine
 10
-293.5156860351563
 20
71.52799224853516
 30
0.0
 11
-294.5156860351563
 21
72.52799224853515
 31
0.0
  0
LINE
  5
177
330
22
100
AcDbEntity
  8
0
  6
Continuous
 62
     7
100
AcDbLine
 10
-313.8641662597656
 20
102.5279922485352
 30
0.0
 11
-315.3431701660156
 21
101.0489883422852
 31
0.0
  0
LINE
  5
178
330
22
100
AcDbEntity
  8
0
  6
Continuous
 62
     7
100
AcDbLine
 10
-313.8656921386719
 20
169.5279846191406
 30
0.0
 11
-315.3890075683594
 21
171.0513153076172
 31
0.0
  0
LINE
  5
179
330
22
100
AcDbEntity
  8
0
  6
Continuous
 62
     7
100
AcDbLine
 10
-313.8476867675781
 20
169.5279846191406
 30
0.0
 11
-311.2656860351563
 21
169.5279846191406
 31
0.0
  0
LINE
  5
17A
330
22
100
AcDbEntity
  8
0
  6
Continuous
 62
     7
100
AcDbLine
 10
-313.7763061523438
 20
102.5279922485352
 30
0.0
 11
-311.7656860351563
 21
102.5279922485352
 31
0.0
  0
LINE
  5
17B
330
22
100
AcDbEntity
  8
0
  6
Continuous
 62
     7
100
AcDbLine
 10
-315.2656860351563
 20
132.5279846191406
 30
0.0
 11
-313.7656860351563
 21
134.0279846191406
 31
0.0
  0
LINE
  5
17C
330
22
100
AcDbEntity
  8
0
  6
Continuous
 62
     7
100
AcDbLine
 10
-395.7656860351563
 20
216.5279846191406
 30
0.0
 11
-395.7656860351563
 21
211.4147491455078
 31
0.0
  0
LINE
  5
17D
330
22
100
AcDbEntity
  8
0
  6
Continuous
 62
     7
100
AcDbLine
 10
-380.1398010253906
 20
352.0394592285156
 30
0.0
 11
-379.0540771484375
 21
349.4554443359375
 31
0.0
  0
LINE
  5
17E
330
22
100
AcDbEntity
  8
0
  6
Continuous
 62
     7
100
AcDbLine
 10
-376.2935485839844
 20
349.8014831542969
 30
0.0
 11
-379.0540771484375
 21
349.4554443359375
 31
0.0
  0
LINE
  5
17F
330
22
100
AcDbEntity
  8
0
  6
Continuous
 62
     7
100
AcDbLine
 10
-376.0946044921875
 20
349.0590209960938
 30
0.0
 11
-378.6583251953125
 21
347.9784545898438
 31
0.0
  0
LINE
  5
180
330
22
100
AcDbEntity
  8
0
  6
Continuous
 62
     7
100
AcDbLine
 10
-376.0946044921875
 20
349.0590209960938
 30
0.0
 11
-378.6583251953125
 21
347.9784545898438
 31
0.0
  0
LINE
  5
181
330
22
100
AcDbEntity
  8
0
  6
Continuous
 62
     7
100
AcDbLine
 10
-376.2935485839844
 20
349.8014831542969
 30
0.0
 11
-379.0540771484375
 21
349.4554443359375
 31
0.0
  0
LINE
  5
182
330
22
100
AcDbEntity
  8
0
  6
Continuous
 62
     7
100
AcDbLine
 10
-382.8958740234375
 20
347.2366333007813
 30
0.0
 11
-382.9953308105469
 21
347.6078796386719
 31
0.0
  0
LINE
  5
183
330
22
100
AcDbEntity
  8
0
  6
Continuous
 62
     7
100
AcDbLine
 10
-382.7656860351563
 20
338.9664306640625
 30
0.0
 11
-382.7656860351563
 21
324.3690795898438
 31
0.0
  0
LINE
  5
184
330
22
100
AcDbEntity
  8
0
  6
Continuous
 62
     7
100
AcDbLine
 10
-368.7656860351563
 20
286.0994567871094
 30
0.0
 11
-368.7656860351563
 21
319.6190795898438
 31
0.0
  0
LINE
  5
185
330
22
100
AcDbEntity
  8
0
  6
Continuous
 62
     7
100
AcDbLine
 10
-378.2784118652344
 20
341.1222229003906
 30
0.0
 11
-378.2760009765625
 21
319.1095275878906
 31
0.0
  0
LINE
  5
186
330
22
100
AcDbEntity
  8
0
  6
Continuous
 62
     7
100
AcDbLine
 10
-337.7656860351563
 20
216.5279846191406
 30
0.0
 11
-401.7656860351562
 21
216.5279846191406
 31
0.0
  0
LINE
  5
187
330
22
100
AcDbEntity
  8
0
  6
Continuous
 62
     7
100
AcDbLine
 10
-325.7656860351563
 20
372.134765625
 30
0.0
 11
-325.7656860351563
 21
329.1190795898438
 31
0.0
  0
LINE
  5
188
330
22
100
AcDbEntity
  8
0
  6
Continuous
 62
     7
100
AcDbLine
 10
-325.7656860351563
 20
276.6033630371094
 30
0.0
 11
-325.7656860351563
 21
319.6190795898438
 31
0.0
  0
LINE
  5
189
330
22
100
AcDbEntity
  8
0
  6
Continuous
 62
     7
100
AcDbLine
 10
-315.1260070800781
 20
167.7515563964844
 30
0.0
 11
-313.7656860351563
 21
166.6620635986328
 31
0.0
  0
LINE
  5
18A
330
22
100
AcDbEntity
  8
0
  6
Continuous
 62
     7
100
AcDbLine
 10
-277.5132751464844
 20
71.52799224853516
 30
0.0
 11
-276.5132751464844
 21
72.52799224853515
 31
0.0
  0
LINE
  5
18B
330
22
100
AcDbEntity
  8
0
  6
Continuous
 62
     7
100
AcDbLine
 10
-311.2656860351563
 20
169.5279846191406
 30
0.0
 11
-310.2656860351563
 21
170.5279846191406
 31
0.0
  0
LINE
  5
18C
330
22
100
AcDbEntity
  8
0
  6
Continuous
 62
     7
100
AcDbLine
 10
-313.8641662597656
 20
44.52799224853515
 30
0.0
 11
-315.3916320800781
 21
46.05544662475586
 31
0.0
  0
LINE
  5
18D
330
22
100
AcDbEntity
  8
0
  6
Continuous
 62
     7
100
AcDbLine
 10
-373.2656860351563
 20
309.6095275878906
 30
0.0
 11
-373.2656860351563
 21
290.2323913574219
 31
0.0
  0
LINE
  5
18E
330
22
100
AcDbEntity
  8
0
  6
Continuous
 62
     7
100
AcDbLine
 10
-383.0948181152344
 20
347.9790954589844
 30
0.0
 11
-380.5310974121094
 21
349.0596923828125
 31
0.0
  0
LINE
  5
18F
330
22
100
AcDbEntity
  8
0
  6
Continuous
 62
     7
100
AcDbLine
 10
-363.7656860351563
 20
366.1968383789063
 30
0.0
 11
-363.7656860351563
 21
329.1190795898438
 31
0.0
  0
LINE
  5
190
330
22
100
AcDbEntity
  8
0
  6
Continuous
 62
     7
100
AcDbLine
 10
-363.7656860351563
 20
282.5412902832031
 30
0.0
 11
-363.7656860351563
 21
319.6190795898438
 31
0.0
  0
LINE
  5
191
330
22
100
AcDbEntity
  8
0
  6
Continuous
 62
     7
100
AcDbLine
 10
-378.6781005859375
 20
345.0982360839844
 30
0.0
 11
-379.0496215820313
 21
344.9986877441406
 31
0.0
  0
LINE
  5
192
330
22
100
AcDbEntity
  8
0
  6
Continuous
 62
     7
100
AcDbLine
 10
-380.5113220214844
 20
351.9399108886719
 30
0.0
 11
-380.8828430175781
 21
351.8403625488281
 31
0.0
  0
LINE
  5
193
330
22
100
AcDbEntity
  8
0
  6
Continuous
 62
     7
100
AcDbLine
 10
-378.6781005859375
 20
345.0982360839844
 30
0.0
 11
-378.3065795898438
 21
345.1977844238281
 31
0.0
  0
LINE
  5
194
330
22
100
AcDbEntity
  8
0
  6
Continuous
 62
     7
100
AcDbLine
 10
-378.3065795898438
 20
345.1977844238281
 30
0.0
 11
-378.6583251953125
 21
347.9784545898438
 31
0.0
  0
LINE
  5
195
330
22
100
AcDbEntity
  8
0
  6
Continuous
 62
     7
100
AcDbLine
 10
-380.5113220214844
 20
351.9399108886719
 30
0.0
 11
-380.8828430175781
 21
351.8403625488281
 31
0.0
  0
LINE
  5
196
330
22
100
AcDbEntity
  8
0
  6
Continuous
 62
     7
100
AcDbLine
 10
-373.2657165527344
 20
341.1095275878906
 30
0.0
 11
-373.2656860351563
 21
319.1095275878906
 31
0.0
  0
LINE
  5
197
330
22
100
AcDbEntity
  8
0
  6
Continuous
 62
     7
100
AcDbLine
 10
-382.8958740234375
 20
347.2366333007813
 30
0.0
 11
-382.9953308105469
 21
347.6078796386719
 31
0.0
  0
LINE
  5
198
330
22
100
AcDbEntity
  8
0
  6
Continuous
 62
     7
100
AcDbLine
 10
-382.8958740234375
 20
347.2366333007813
 30
0.0
 11
-380.1353454589844
 21
347.5826721191406
 31
0.0
  0
LINE
  5
199
330
22
100
AcDbEntity
  8
0
  6
Continuous
 62
     7
100
AcDbLine
 10
-380.8828430175781
 20
351.8403625488281
 30
0.0
 11
-380.5310974121094
 21
349.0596923828125
 31
0.0
  0
LINE
  5
19A
330
22
100
AcDbEntity
  8
0
  6
Continuous
 62
     7
100
AcDbLine
 10
-378.6781005859375
 20
345.0982360839844
 30
0.0
 11
-379.0496215820313
 21
344.9986877441406
 31
0.0
  0
LINE
  5
19B
330
22
100
AcDbEntity
  8
0
  6
Continuous
 62
     7
100
AcDbLine
 10
-379.0496215820313
 20
344.9986877441406
 30
0.0
 11
-380.1353454589844
 21
347.5826721191406
 31
0.0
  0
LINE
  5
19C
330
22
100
AcDbEntity
  8
0
  6
Continuous
 62
     7
100
AcDbLine
 10
-376.2935485839844
 20
349.8014831542969
 30
0.0
 11
-376.1940612792969
 21
349.4302673339844
 31
0.0
  0
LINE
  5
19D
330
22
100
AcDbEntity
  8
0
  6
Continuous
 62
     7
100
AcDbLine
 10
-402.7656860351562
 20
219.5279846191406
 30
0.0
 11
-402.7656860351562
 21
217.5279846191406
 31
0.0
  0
LINE
  5
19E
330
22
100
AcDbEntity
  8
0
  6
Continuous
 62
     7
100
AcDbLine
 10
-339.9833679199219
 20
278.8302612304688
 30
0.0
 11
-340.255126953125
 21
278.5585021972656
 31
0.0
  0
LINE
  5
19F
330
22
100
AcDbEntity
  8
0
  6
Continuous
 62
     7
100
AcDbLine
 10
-330.7656860351563
 20
373.1190795898438
 30
0.0
 11
-330.7656860351563
 21
329.1190795898438
 31
0.0
  0
LINE
  5
1A0
330
22
100
AcDbEntity
  8
0
  6
Continuous
 62
     7
100
AcDbLine
 10
-376.0946044921875
 20
349.0590209960938
 30
0.0
 11
-376.1940612792969
 21
349.4302673339844
 31
0.0
  0
LINE
  5
1A1
330
22
100
AcDbEntity
  8
0
  6
Continuous
 62
     7
100
AcDbLine
 10
-378.6781005859375
 20
345.0982360839844
 30
0.0
 11
-378.3065795898438
 21
345.1977844238281
 31
0.0
  0
LINE
  5
1A2
330
22
100
AcDbEntity
  8
0
  6
Continuous
 62
     7
100
AcDbLine
 10
-376.0946044921875
 20
349.0590209960938
 30
0.0
 11
-376.1940612792969
 21
349.4302673339844
 31
0.0
  0
LINE
  5
1A3
330
22
100
AcDbEntity
  8
0
  6
Continuous
 62
     7
100
AcDbLine
 10
-380.5113220214844
 20
351.9399108886719
 30
0.0
 11
-380.1398010253906
 21
352.0394592285156
 31
0.0
  0
LINE
  5
1A4
330
22
100
AcDbEntity
  8
0
  6
Continuous
 62
     7
100
AcDbLine
 10
-380.5113220214844
 20
351.9399108886719
 30
0.0
 11
-380.1398010253906
 21
352.0394592285156
 31
0.0
  0
LINE
  5
1A5
330
22
100
AcDbEntity
  8
0
  6
Continuous
 62
     7
100
AcDbLine
 10
-378.3065795898438
 20
345.1977844238281
 30
0.0
 11
-378.6583251953125
 21
347.9784545898438
 31
0.0
  0
LINE
  5
1A6
330
22
100
AcDbEntity
  8
0
  6
Continuous
 62
     7
100
AcDbLine
 10
-382.7656860351563
 20
309.7716979980469
 30
0.0
 11
-382.7656860351563
 21
324.3690795898438
 31
0.0
  0
LINE
  5
1A7
330
22
100
AcDbEntity
  8
0
  6
Continuous
 62
     7
100
AcDbLine
 10
-383.0948181152344
 20
347.9790954589844
 30
0.0
 11
-382.9953308105469
 21
347.6078796386719
 31
0.0
  0
LINE
  5
1A8
330
22
100
AcDbEntity
  8
0
  6
Continuous
 62
     7
100
AcDbLine
 10
-382.8958740234375
 20
347.2366333007813
 30
0.0
 11
-380.1353454589844
 21
347.5826721191406
 31
0.0
  0
LINE
  5
1A9
330
22
100
AcDbEntity
  8
0
  6
Continuous
 62
     7
100
AcDbLine
 10
-383.0948181152344
 20
347.9790954589844
 30
0.0
 11
-380.5310974121094
 21
349.0596923828125
 31
0.0
  0
LINE
  5
1AA
330
22
100
AcDbEntity
  8
0
  6
Continuous
 62
     7
100
AcDbLine
 10
-380.8828430175781
 20
351.8403625488281
 30
0.0
 11
-380.5310974121094
 21
349.0596923828125
 31
0.0
  0
LINE
  5
1AB
330
22
100
AcDbEntity
  8
0
  6
Continuous
 62
     7
100
AcDbLine
 10
-376.2935485839844
 20
349.8014831542969
 30
0.0
 11
-376.1940612792969
 21
349.4302673339844
 31
0.0
  0
LINE
  5
1AC
330
22
100
AcDbEntity
  8
0
  6
Continuous
 62
     7
100
AcDbLine
 10
-379.0496215820313
 20
344.9986877441406
 30
0.0
 11
-380.1353454589844
 21
347.5826721191406
 31
0.0
  0
LINE
  5
1AD
330
22
100
AcDbEntity
  8
0
  6
Continuous
 62
     7
100
AcDbLine
 10
-378.2716979980469
 20
309.6095275878906
 30
0.0
 11
-378.2656860351563
 21
296.3456420898438
 31
0.0
  0
LINE
  5
1AE
330
22
100
AcDbEntity
  8
0
  6
Continuous
 62
     7
100
AcDbLine
 10
-340.2656860351563
 20
339.5690612792969
 30
0.0
 11
-340.2656860351563
 21
333.0690612792969
 31
0.0
  0
LINE
  5
1AF
330
22
100
AcDbEntity
  8
0
  6
Continuous
 62
     7
100
AcDbLine
 10
-335.2656860351563
 20
339.5690612792969
 30
0.0
 11
-335.2656860351563
 21
333.0690612792969
 31
0.0
  0
LINE
  5
1B0
330
22
100
AcDbEntity
  8
0
  6
Continuous
 62
     7
100
AcDbLine
 10
-383.0948181152344
 20
347.9790954589844
 30
0.0
 11
-382.9953308105469
 21
347.6078796386719
 31
0.0
  0
LINE
  5
1B1
330
22
100
AcDbEntity
  8
0
  6
Continuous
 62
     7
100
AcDbLine
 10
-368.7656860351563
 20
362.638671875
 30
0.0
 11
-368.7656860351563
 21
329.1190795898438
 31
0.0
  0
LINE
  5
1B2
330
22
100
AcDbEntity
  8
0
  6
Continuous
 62
     7
100
AcDbLine
 10
-380.1398010253906
 20
352.0394592285156
 30
0.0
 11
-379.0540771484375
 21
349.4554443359375
 31
0.0
  0
LINE
  5
1B3
330
22
100
AcDbEntity
  8
0
  6
Continuous
 62
     7
100
AcDbLine
 10
-344.7656860351563
 20
275.6190795898438
 30
0.0
 11
-344.7656860351563
 21
319.6190795898438
 31
0.0
  0
LINE
  5
1B4
330
22
100
AcDbEntity
  8
0
  6
Continuous
 62
     7
100
AcDbLine
 10
-354.2529296875
 20
277.9607543945313
 30
0.0
 11
-354.2784118652344
 21
303.7443542480469
 31
0.0
  0
LINE
  5
1B5
330
22
100
AcDbEntity
  8
0
  6
Continuous
 62
     7
100
AcDbLine
 10
-339.9833679199219
 20
278.8302612304688
 30
0.0
 11
-337.7656860351563
 21
277.1503295898438
 31
0.0
  0
LINE
  5
1B6
330
22
100
AcDbEntity
  8
0
  6
Continuous
 62
     7
100
AcDbLine
 10
-330.7656860351563
 20
275.6190795898438
 30
0.0
 11
-330.7656860351563
 21
319.6190795898438
 31
0.0
  0
LINE
  5
1B7
330
22
100
AcDbEntity
  8
0
  6
Continuous
 62
     7
100
AcDbLine
 10
-335.2614440917969
 20
278.5733032226563
 30
0.0
 11
-334.989501953125
 21
278.3013305664063
 31
0.0
  0
LINE
  5
1B8
330
22
100
AcDbEntity
  8
0
  6
Continuous
 62
     7
100
AcDbLine
 10
-334.989501953125
 20
278.3013305664063
 30
0.0
 11
-336.6844177246094
 21
276.069061279297
 31
0.0
  0
LINE
  5
1B9
330
22
100
AcDbEntity
  8
0
  6
Continuous
 62
     7
100
AcDbLine
 10
-335.5480041503906
 20
273.307861328125
 30
0.0
 11
-335.2762451171875
 21
273.5796203613281
 31
0.0
  0
LINE
  5
1BA
330
22
100
AcDbEntity
  8
0
  6
Continuous
 62
     7
100
AcDbLine
 10
-339.9979248046875
 20
273.2928771972656
 30
0.0
 11
-337.7656860351563
 21
274.9878234863281
 31
0.0
  0
LINE
  5
1BB
330
22
100
AcDbEntity
  8
0
  6
Continuous
 62
     7
100
AcDbLine
 10
-335.5480041503906
 20
273.307861328125
 30
0.0
 11
-337.7656860351563
 21
274.9878234863281
 31
0.0
  0
LINE
  5
1BC
330
22
100
AcDbEntity
  8
0
  6
Continuous
 62
     7
100
AcDbLine
 10
-340.5268859863281
 20
278.2867431640625
 30
0.0
 11
-338.846923828125
 21
276.069061279297
 31
0.0
  0
LINE
  5
1BD
330
22
100
AcDbEntity
  8
0
  6
Continuous
 62
     7
100
AcDbLine
 10
-340.5418701171875
 20
273.8367919921875
 30
0.0
 11
-338.846923828125
 21
276.069061279297
 31
0.0
  0
LINE
  5
1BE
330
22
100
AcDbEntity
  8
0
  6
Continuous
 62
     7
100
AcDbLine
 10
-340.2698974609375
 20
273.5648498535156
 30
0.0
 11
-339.9979248046875
 21
273.2928771972656
 31
0.0
  0
LINE
  5
1BF
330
22
100
AcDbEntity
  8
0
  6
Continuous
 62
     7
100
AcDbLine
 10
-340.2698974609375
 20
273.5648498535156
 30
0.0
 11
-340.5418701171875
 21
273.8367919921875
 31
0.0
  0
LINE
  5
1C0
330
22
100
AcDbEntity
  8
0
  6
Continuous
 62
     7
100
AcDbLine
 10
-340.2698974609375
 20
273.5648498535156
 30
0.0
 11
-340.5418701171875
 21
273.8367919921875
 31
0.0
  0
LINE
  5
1C1
330
22
100
AcDbEntity
  8
0
  6
Continuous
 62
     7
100
AcDbLine
 10
-340.2698974609375
 20
273.5648498535156
 30
0.0
 11
-339.9979248046875
 21
273.2928771972656
 31
0.0
  0
LINE
  5
1C2
330
22
100
AcDbEntity
  8
0
  6
Continuous
 62
     7
100
AcDbLine
 10
-335.5480041503906
 20
273.307861328125
 30
0.0
 11
-335.2762451171875
 21
273.5796203613281
 31
0.0
  0
LINE
  5
1C3
330
22
100
AcDbEntity
  8
0
  6
Continuous
 62
     7
100
AcDbLine
 10
-339.9833679199219
 20
278.8302612304688
 30
0.0
 11
-340.255126953125
 21
278.5585021972656
 31
0.0
  0
LINE
  5
1C4
330
22
100
AcDbEntity
  8
0
  6
CENTER
 62
     7
100
AcDbLine
 10
-337.7656860351563
 20
243.3426208496094
 30
0.0
 11
-337.7656860351563
 21
403.9829711914062
 31
0.0
  0
LINE
  5
1C5
330
22
100
AcDbEntity
  8
0
  6
Continuous
 62
     7
100
AcDbLine
 10
-349.7656860351563
 20
372.134765625
 30
0.0
 11
-349.7656860351563
 21
329.1190795898438
 31
0.0
  0
LINE
  5
1C6
330
22
100
AcDbEntity
  8
0
  6
Continuous
 62
     7
100
AcDbLine
 10
-344.7656860351563
 20
373.1190795898438
 30
0.0
 11
-344.7656860351563
 21
329.1190795898438
 31
0.0
  0
LINE
  5
1C7
330
22
100
AcDbEntity
  8
0
  6
Continuous
 62
     7
100
AcDbLine
 10
-359.2656860351563
 20
280.0597839355469
 30
0.0
 11
-359.2656860351563
 21
303.7443542480469
 31
0.0
  0
LINE
  5
1C8
330
22
100
AcDbEntity
  8
0
  6
Continuous
 62
     7
100
AcDbLine
 10
-340.2656860351563
 20
299.6690673828125
 30
0.0
 11
-340.2656860351563
 21
283.9822998046875
 31
0.0
  0
LINE
  5
1C9
330
22
100
AcDbEntity
  8
0
  6
Continuous
 62
     7
100
AcDbLine
 10
-335.2656860351563
 20
299.6690673828125
 30
0.0
 11
-335.2656860351563
 21
283.9822998046875
 31
0.0
  0
LINE
  5
1CA
330
22
100
AcDbEntity
  8
0
  6
Continuous
 62
     7
100
AcDbLine
 10
-335.5334167480469
 20
278.8452453613281
 30
0.0
 11
-337.7656860351563
 21
277.1503295898438
 31
0.0
  0
LINE
  5
1CB
330
22
100
AcDbEntity
  8
0
  6
Continuous
 62
     7
100
AcDbLine
 10
-339.9833679199219
 20
278.8302612304688
 30
0.0
 11
-337.7656860351563
 21
277.1503295898438
 31
0.0
  0
LINE
  5
1CC
330
22
100
AcDbEntity
  8
0
  6
Continuous
 62
     7
100
AcDbLine
 10
-335.2614440917969
 20
278.5733032226563
 30
0.0
 11
-335.5334167480469
 21
278.8452453613281
 31
0.0
  0
LINE
  5
1CD
330
22
100
AcDbEntity
  8
0
  6
Continuous
 62
     7
100
AcDbLine
 10
-335.5334167480469
 20
278.8452453613281
 30
0.0
 11
-337.7656860351563
 21
277.1503295898438
 31
0.0
  0
LINE
  5
1CE
330
22
100
AcDbEntity
  8
0
  6
Continuous
 62
     7
100
AcDbLine
 10
-335.2614440917969
 20
278.5733032226563
 30
0.0
 11
-335.5334167480469
 21
278.8452453613281
 31
0.0
  0
LINE
  5
1CF
330
22
100
AcDbEntity
  8
0
  6
Continuous
 62
     7
100
AcDbLine
 10
-334.989501953125
 20
278.3013305664063
 30
0.0
 11
-336.6844177246094
 21
276.069061279297
 31
0.0
  0
LINE
  5
1D0
330
22
100
AcDbEntity
  8
0
  6
Continuous
 62
     7
100
AcDbLine
 10
-335.2656860351563
 20
349.0690612792969
 30
0.0
 11
-335.2656860351563
 21
373.5555725097656
 31
0.0
  0
LINE
  5
1D1
330
22
100
AcDbEntity
  8
0
  6
Continuous
 62
     7
100
AcDbLine
 10
-340.2656860351563
 20
349.0690612792969
 30
0.0
 11
-340.2656860351563
 21
373.5555725097656
 31
0.0
  0
LINE
  5
1D2
330
22
100
AcDbEntity
  8
0
  6
Continuous
 62
     7
100
AcDbLine
 10
-354.2529296875
 20
370.7774047851563
 30
0.0
 11
-354.2784118652344
 21
344.9937744140625
 31
0.0
  0
LINE
  5
1D3
330
22
100
AcDbEntity
  8
0
  6
Continuous
 62
     7
100
AcDbLine
 10
-335.0044860839844
 20
273.8513793945313
 30
0.0
 11
-335.2762451171875
 21
273.5796203613281
 31
0.0
  0
LINE
  5
1D4
330
22
100
AcDbEntity
  8
0
  6
Continuous
 62
     7
100
AcDbLine
 10
-349.7656860351563
 20
276.6033630371094
 30
0.0
 11
-349.7656860351563
 21
319.6190795898438
 31
0.0
  0
LINE
  5
1D5
330
22
100
AcDbEntity
  8
0
  6
Continuous
 62
     7
100
AcDbLine
 10
-335.0044860839844
 20
273.8513793945313
 30
0.0
 11
-336.6844177246094
 21
276.069061279297
 31
0.0
  0
LINE
  5
1D6
330
22
100
AcDbEntity
  8
0
  6
Continuous
 62
     7
100
AcDbLine
 10
-335.0044860839844
 20
273.8513793945313
 30
0.0
 11
-335.2762451171875
 21
273.5796203613281
 31
0.0
  0
LINE
  5
1D7
330
22
100
AcDbEntity
  8
0
  6
Continuous
 62
     7
100
AcDbLine
 10
-340.5418701171875
 20
273.8367919921875
 30
0.0
 11
-338.846923828125
 21
276.069061279297
 31
0.0
  0
LINE
  5
1D8
330
22
100
AcDbEntity
  8
0
  6
Continuous
 62
     7
100
AcDbLine
 10
-335.0044860839844
 20
273.8513793945313
 30
0.0
 11
-336.6844177246094
 21
276.069061279297
 31
0.0
  0
LINE
  5
1D9
330
22
100
AcDbEntity
  8
0
  6
Continuous
 62
     7
100
AcDbLine
 10
-335.5480041503906
 20
273.307861328125
 30
0.0
 11
-337.7656860351563
 21
274.9878234863281
 31
0.0
  0
LINE
  5
1DA
330
22
100
AcDbEntity
  8
0
  6
Continuous
 62
     7
100
AcDbLine
 10
-340.5268859863281
 20
278.2867431640625
 30
0.0
 11
-340.255126953125
 21
278.5585021972656
 31
0.0
  0
LINE
  5
1DB
330
22
100
AcDbEntity
  8
0
  6
Continuous
 62
     7
100
AcDbLine
 10
-340.5268859863281
 20
278.2867431640625
 30
0.0
 11
-340.255126953125
 21
278.5585021972656
 31
0.0
  0
LINE
  5
1DC
330
22
100
AcDbEntity
  8
0
  6
Continuous
 62
     7
100
AcDbLine
 10
-340.5268859863281
 20
278.2867431640625
 30
0.0
 11
-338.846923828125
 21
276.069061279297
 31
0.0
  0
LINE
  5
1DD
330
22
100
AcDbEntity
  8
0
  6
Continuous
 62
     7
100
AcDbLine
 10
-354.2784118652344
 20
324.3690795898438
 30
0.0
 11
-354.2784118652344
 21
335.5192565917969
 31
0.0
  0
LINE
  5
1DE
330
22
100
AcDbEntity
  8
0
  6
Continuous
 62
     7
100
AcDbLine
 10
-359.2656860351563
 20
324.3690795898438
 30
0.0
 11
-359.2656860351563
 21
335.5192565917969
 31
0.0
  0
LINE
  5
1DF
330
22
100
AcDbEntity
  8
0
  6
Continuous
 62
     7
100
AcDbLine
 10
-359.2656860351563
 20
324.3690795898438
 30
0.0
 11
-359.2656860351563
 21
313.2188720703125
 31
0.0
  0
LINE
  5
1E0
330
22
100
AcDbEntity
  8
0
  6
Continuous
 62
     7
100
AcDbLine
 10
-334.7656860351563
 20
220.0279846191406
 30
0.0
 11
-334.7656860351563
 21
218.0279846191406
 31
0.0
  0
LINE
  5
1E1
330
22
100
AcDbEntity
  8
0
  6
Continuous
 62
     7
100
AcDbLine
 10
-339.9979248046875
 20
273.2928771972656
 30
0.0
 11
-337.7656860351563
 21
274.9878234863281
 31
0.0
  0
LINE
  5
1E2
330
22
100
AcDbEntity
  8
0
  6
Continuous
 62
     7
100
AcDbLine
 10
-335.2614440917969
 20
278.5733032226563
 30
0.0
 11
-334.989501953125
 21
278.3013305664063
 31
0.0
  0
LINE
  5
1E3
330
22
100
AcDbEntity
  8
0
  6
Continuous
 62
     7
100
AcDbLine
 10
-365.7656860351563
 20
55.02799224853515
 30
0.0
 11
-368.185302734375
 21
55.02799224853515
 31
0.0
  0
LINE
  5
1E4
330
22
100
AcDbEntity
  8
0
  6
Continuous
 62
     7
100
AcDbLine
 10
-364.7656860351563
 20
77.52799224853515
 30
0.0
 11
-364.7656860351563
 21
101.5279922485352
 31
0.0
  0
LINE
  5
1E5
330
22
100
AcDbEntity
  8
0
  6
Continuous
 62
     7
100
AcDbLine
 10
-364.2656860351563
 20
169.5279846191406
 30
0.0
 11
-365.2656860351563
 21
170.5279846191406
 31
0.0
  0
LINE
  5
1E6
330
22
100
AcDbEntity
  8
0
  6
Continuous
 62
     7
100
AcDbLine
 10
-392.9894409179688
 20
208.9147491455078
 30
0.0
 11
-337.7656860351563
 21
208.9147491455078
 31
0.0
  0
LINE
  5
1E7
330
22
100
AcDbEntity
  8
0
  6
Continuous
 62
     7
100
AcDbLine
 10
-353.4602661132813
 20
190.2490844726563
 30
0.0
 11
-337.7656860351563
 21
190.2490844726563
 31
0.0
  0
LINE
  5
1E8
330
22
100
AcDbEntity
  8
0
  6
Continuous
 62
     7
100
AcDbLine
 10
-393.2656860351563
 20
207.0846099853516
 30
0.0
 11
-367.7656860351563
 21
192.3621826171875
 31
0.0
  0
LINE
  5
1E9
330
22
100
AcDbEntity
  8
0
  6
Continuous
 62
     7
100
AcDbLine
 10
-367.7656860351563
 20
192.3621826171875
 30
0.0
 11
-337.7656860351563
 21
192.3621826171875
 31
0.0
  0
LINE
  5
1EA
330
22
100
AcDbEntity
  8
0
  6
Continuous
 62
     7
100
AcDbLine
 10
-364.6219787597656
 20
190.2490844726563
 30
0.0
 11
-359.1299133300781
 21
190.2490844726563
 31
0.0
  0
LINE
  5
1EB
330
22
100
AcDbEntity
  8
0
  6
Continuous
 62
     7
100
AcDbLine
 10
-340.2656860351563
 20
309.1690673828125
 30
0.0
 11
-340.2656860351563
 21
333.0690612792969
 31
0.0
  0
LINE
  5
1EC
330
22
100
AcDbEntity
  8
0
  6
Continuous
 62
     7
100
AcDbLine
 10
-335.2656860351563
 20
309.1690673828125
 30
0.0
 11
-335.2656860351563
 21
333.0690612792969
 31
0.0
  0
LINE
  5
1ED
330
22
100
AcDbEntity
  8
0
  6
Continuous
 62
     7
100
AcDbLine
 10
-354.2784118652344
 20
324.3690795898438
 30
0.0
 11
-354.2784118652344
 21
313.2188720703125
 31
0.0
  0
LINE
  5
1EE
330
22
100
AcDbEntity
  8
0
  6
Continuous
 62
     7
100
AcDbLine
 10
-359.2656860351563
 20
368.6783447265625
 30
0.0
 11
-359.2656860351563
 21
344.9937744140625
 31
0.0
  0
LINE
  5
1EF
330
22
100
AcDbEntity
  8
0
  6
Continuous
 62
     7
100
AcDbLine
 10
-379.7656860351563
 20
69.02799224853516
 30
0.0
 11
-379.7656860351563
 21
67.46749114990234
 31
0.0
  0
LINE
  5
1F0
330
22
100
AcDbEntity
  8
0
  6
Continuous
 62
     7
100
AcDbLine
 10
-412.7656860351563
 20
72.52799224853515
 30
0.0
 11
-369.7656860351563
 21
72.52799224853515
 31
0.0
  0
LINE
  5
1F1
330
22
100
AcDbEntity
  8
0
  6
Continuous
 62
     7
100
AcDbLine
 10
-414.7656860351562
 20
69.52799224853515
 30
0.0
 11
-414.7656860351562
 21
70.52799224853515
 31
0.0
  0
LINE
  5
1F2
330
22
100
AcDbEntity
  8
0
  6
Continuous
 62
     7
100
AcDbLine
 10
-361.6836547851563
 20
169.5279846191406
 30
0.0
 11
-361.7656860351563
 21
166.6620635986328
 31
0.0
  0
LINE
  5
1F3
330
22
100
AcDbEntity
  8
0
  6
Continuous
 62
     7
100
AcDbLine
 10
-360.336181640625
 20
169.5279846191406
 30
0.0
 11
-360.4053649902344
 21
167.7515563964844
 31
0.0
  0
LINE
  5
1F4
330
22
100
AcDbEntity
  8
0
  6
Continuous
 62
     7
100
AcDbLine
 10
-363.7656860351563
 20
102.5279922485352
 30
0.0
 11
-337.7656860351563
 21
102.5279922485352
 31
0.0
  0
LINE
  5
1F5
330
22
100
AcDbEntity
  8
0
  6
Continuous
 62
     7
100
AcDbLine
 10
-360.2656860351563
 20
132.5279846191406
 30
0.0
 11
-337.7656860351563
 21
132.5279846191406
 31
0.0
  0
LINE
  5
1F6
330
22
100
AcDbEntity
  8
0
  6
Continuous
 62
     7
100
AcDbLine
 10
-414.2656860351562
 20
69.02799224853516
 30
0.0
 11
-337.7656860351563
 21
69.02799224853516
 31
0.0
  0
LINE
  5
1F7
330
22
100
AcDbEntity
  8
0
  6
Continuous
 62
     7
100
AcDbLine
 10
-369.7656860351563
 20
72.52799224853515
 30
0.0
 11
-337.7656860351563
 21
72.52799224853515
 31
0.0
  0
LINE
  5
1F8
330
22
100
AcDbEntity
  8
0
  6
Continuous
 62
     7
100
AcDbLine
 10
-360.4053649902344
 20
167.7515563964844
 30
0.0
 11
-337.7656860351563
 21
167.7515563964844
 31
0.0
  0
LINE
  5
1F9
330
22
100
AcDbEntity
  8
0
  6
Continuous
 62
     7
100
AcDbLine
 10
-364.2656860351563
 20
169.5279846191406
 30
0.0
 11
-337.7656860351563
 21
169.5279846191406
 31
0.0
  0
LINE
  5
1FA
330
22
100
AcDbEntity
  8
0
  6
Continuous
 62
     7
100
AcDbLine
 10
-361.7656860351563
 20
166.6620635986328
 30
0.0
 11
-361.7656860351563
 21
134.0279846191406
 31
0.0
  0
LINE
  5
1FB
330
22
100
AcDbEntity
  8
0
  6
Continuous
 62
     7
100
AcDbLine
 10
-361.7656860351563
 20
102.5279922485352
 30
0.0
 11
-361.7656860351563
 21
134.0279846191406
 31
0.0
  0
LINE
  5
1FC
330
22
100
AcDbEntity
  8
0
  6
Continuous
 62
     7
100
AcDbLine
 10
-360.2656860351563
 20
102.5279922485352
 30
0.0
 11
-360.2656860351563
 21
132.5279846191406
 31
0.0
  0
LINE
  5
1FD
330
22
100
AcDbEntity
  8
0
  6
Continuous
 62
     7
100
AcDbLine
 10
-360.2656860351563
 20
132.5279846191406
 30
0.0
 11
-361.7656860351563
 21
134.0279846191406
 31
0.0
  0
LINE
  5
1FE
330
22
100
AcDbEntity
  8
0
  6
Continuous
 62
     7
100
AcDbLine
 10
-365.7656860351563
 20
68.02799224853515
 30
0.0
 11
-365.7656860351563
 21
45.52799224853515
 31
0.0
  0
LINE
  5
1FF
330
22
100
AcDbEntity
  8
0
  6
CENTER
 62
     7
100
AcDbLine
 10
-257.0375366210938
 20
324.3690795898438
 30
0.0
 11
-420.2961730957031
 21
324.3690795898438
 31
0.0
  0
LINE
  5
200
330
22
100
AcDbEntity
  8
0
  6
Continuous
 62
     7
100
AcDbLine
 10
-334.7656860351563
 20
219.6719665527344
 30
0.0
 11
-333.90966796875
 21
220.5279846191406
 31
0.0
  0
LINE
  5
201
330
22
100
AcDbEntity
  8
0
  6
Continuous
 62
     7
100
AcDbLine
 10
-334.7656860351563
 20
218.2577667236328
 30
0.0
 11
-332.4954528808594
 21
220.5279846191406
 31
0.0
  0
LINE
  5
202
330
22
100
AcDbEntity
  8
0
  6
Continuous
 62
     7
100
AcDbLine
 10
-334.0812377929688
 20
217.5279846191406
 30
0.0
 11
-331.0812377929688
 21
220.5279846191406
 31
0.0
  0
LINE
  5
203
330
22
100
AcDbEntity
  8
0
  6
Continuous
 62
     7
100
AcDbLine
 10
-332.6670227050781
 20
217.5279846191406
 30
0.0
 11
-329.6670227050781
 21
220.5279846191406
 31
0.0
  0
LINE
  5
204
330
22
100
AcDbEntity
  8
0
  6
Continuous
 62
     7
100
AcDbLine
 10
-331.2528076171875
 20
217.5279846191406
 30
0.0
 11
-328.2528076171875
 21
220.5279846191406
 31
0.0
  0
LINE
  5
205
330
22
100
AcDbEntity
  8
0
  6
Continuous
 62
     7
100
AcDbLine
 10
-329.8385925292969
 20
217.5279846191406
 30
0.0
 11
-326.8385925292969
 21
220.5279846191406
 31
0.0
  0
LINE
  5
206
330
22
100
AcDbEntity
  8
0
  6
Continuous
 62
     7
100
AcDbLine
 10
-328.4243774414063
 20
217.5279846191406
 30
0.0
 11
-325.4243774414063
 21
220.5279846191406
 31
0.0
  0
LINE
  5
207
330
22
100
AcDbEntity
  8
0
  6
Continuous
 62
     7
100
AcDbLine
 10
-327.0101623535156
 20
217.5279846191406
 30
0.0
 11
-324.0101623535156
 21
220.5279846191406
 31
0.0
  0
LINE
  5
208
330
22
100
AcDbEntity
  8
0
  6
Continuous
 62
     7
100
AcDbLine
 10
-325.595947265625
 20
217.5279846191406
 30
0.0
 11
-322.595947265625
 21
220.5279846191406
 31
0.0
  0
LINE
  5
209
330
22
100
AcDbEntity
  8
0
  6
Continuous
 62
     7
100
AcDbLine
 10
-324.1817321777344
 20
217.5279846191406
 30
0.0
 11
-321.3708801269531
 21
220.3388671875
 31
0.0
  0
LINE
  5
20A
330
22
100
AcDbEntity
  8
0
  6
Continuous
 62
     7
100
AcDbLine
 10
-322.7675170898438
 20
217.5279846191406
 30
0.0
 11
-321.2529296875
 21
219.0425720214844
 31
0.0
  0
LINE
  5
20B
330
22
100
AcDbEntity
  8
0
  6
Continuous
 62
     7
100
AcDbLine
 10
-316.2529296875
 20
219.7999420166016
 30
0.0
 11
-315.5248718261719
 21
220.5279846191406
 31
0.0
  0
LINE
  5
20C
330
22
100
AcDbEntity
  8
0
  6
Continuous
 62
     7
100
AcDbLine
 10
-316.2529296875
 20
218.3857269287109
 30
0.0
 11
-314.1106872558594
 21
220.5279846191406
 31
0.0
  0
LINE
  5
20D
330
22
100
AcDbEntity
  8
0
  6
Continuous
 62
     7
100
AcDbLine
 10
-315.6964721679688
 20
217.5279846191406
 30
0.0
 11
-312.6964721679688
 21
220.5279846191406
 31
0.0
  0
LINE
  5
20E
330
22
100
AcDbEntity
  8
0
  6
Continuous
 62
     7
100
AcDbLine
 10
-314.2822570800781
 20
217.5279846191406
 30
0.0
 11
-311.2822570800781
 21
220.5279846191406
 31
0.0
  0
LINE
  5
20F
330
22
100
AcDbEntity
  8
0
  6
Continuous
 62
     7
100
AcDbLine
 10
-312.8680419921875
 20
217.5279846191406
 30
0.0
 11
-309.8680419921875
 21
220.5279846191406
 31
0.0
  0
LINE
  5
210
330
22
100
AcDbEntity
  8
0
  6
Continuous
 62
     7
100
AcDbLine
 10
-311.4538269042969
 20
217.5279846191406
 30
0.0
 11
-308.4538269042969
 21
220.5279846191406
 31
0.0
  0
LINE
  5
211
330
22
100
AcDbEntity
  8
0
  6
Continuous
 62
     7
100
AcDbLine
 10
-310.0396118164063
 20
217.5279846191406
 30
0.0
 11
-307.0396118164063
 21
220.5279846191406
 31
0.0
  0
LINE
  5
212
330
22
100
AcDbEntity
  8
0
  6
Continuous
 62
     7
100
AcDbLine
 10
-308.6253967285156
 20
217.5279846191406
 30
0.0
 11
-305.6253967285156
 21
220.5279846191406
 31
0.0
  0
LINE
  5
213
330
22
100
AcDbEntity
  8
0
  6
Continuous
 62
     7
100
AcDbLine
 10
-307.211181640625
 20
217.5279846191406
 30
0.0
 11
-304.211181640625
 21
220.5279846191406
 31
0.0
  0
LINE
  5
214
330
22
100
AcDbEntity
  8
0
  6
Continuous
 62
     7
100
AcDbLine
 10
-305.7969665527344
 20
217.5279846191406
 30
0.0
 11
-302.7969665527344
 21
220.5279846191406
 31
0.0
  0
LINE
  5
215
330
22
100
AcDbEntity
  8
0
  6
Continuous
 62
     7
100
AcDbLine
 10
-304.3827514648438
 20
217.5279846191406
 30
0.0
 11
-302.2656860351563
 21
219.6450653076172
 31
0.0
  0
LINE
  5
216
330
22
100
AcDbEntity
  8
0
  6
Continuous
 62
     7
100
AcDbLine
 10
-302.9685363769531
 20
217.5279846191406
 30
0.0
 11
-302.2656860351563
 21
218.2308502197266
 31
0.0
  0
LINE
  5
217
330
22
100
AcDbEntity
  8
0
  6
Continuous
 62
     7
100
AcDbLine
 10
-297.2853698730469
 20
218.9685211181641
 30
0.0
 11
-295.7258911132813
 21
220.5279846191406
 31
0.0
  0
LINE
  5
218
330
22
100
AcDbEntity
  8
0
  6
Continuous
 62
     7
100
AcDbLine
 10
-297.1453552246094
 20
217.6943206787109
 30
0.0
 11
-294.3116760253906
 21
220.5279846191406
 31
0.0
  0
LINE
  5
219
330
22
100
AcDbEntity
  8
0
  6
Continuous
 62
     7
100
AcDbLine
 10
-295.8974609375
 20
217.5279846191406
 30
0.0
 11
-292.9911193847656
 21
220.434326171875
 31
0.0
  0
LINE
  5
21A
330
22
100
AcDbEntity
  8
0
  6
Continuous
 62
     7
100
AcDbLine
 10
-294.4832458496094
 20
217.5279846191406
 30
0.0
 11
-292.7656860351563
 21
219.2455596923828
 31
0.0
  0
LINE
  5
21B
330
22
100
AcDbEntity
  8
0
  6
Continuous
 62
     7
100
AcDbLine
 10
-292.9436645507813
 20
217.6533508300781
 30
0.0
 11
-292.8910522460938
 21
217.7059936523438
 31
0.0
  0
LINE
  5
21C
330
22
100
AcDbEntity
  8
0
  6
Continuous
 62
     7
100
AcDbLine
 10
-288.5156860351563
 20
219.2529296875
 30
0.0
 11
-287.2406005859375
 21
220.5279846191406
 31
0.0
  0
LINE
  5
21D
330
22
100
AcDbEntity
  8
0
  6
Continuous
 62
     7
100
AcDbLine
 10
-288.4842834472656
 20
217.8701171875
 30
0.0
 11
-285.826416015625
 21
220.5279846191406
 31
0.0
  0
LINE
  5
21E
330
22
100
AcDbEntity
  8
0
  6
Continuous
 62
     7
100
AcDbLine
 10
-287.4122009277344
 20
217.5279846191406
 30
0.0
 11
-284.4122009277344
 21
220.5279846191406
 31
0.0
  0
LINE
  5
21F
330
22
100
AcDbEntity
  8
0
  6
Continuous
 62
     7
100
AcDbLine
 10
-286.306884765625
 20
217.2190856933594
 30
0.0
 11
-283.3818359375
 21
220.1441345214844
 31
0.0
  0
LINE
  5
220
330
22
100
AcDbEntity
  8
0
  6
Continuous
 62
     7
100
AcDbLine
 10
-286.2355041503906
 20
215.8762512207031
 30
0.0
 11
-283.2656860351563
 21
218.8460693359375
 31
0.0
  0
LINE
  5
221
330
22
100
AcDbEntity
  8
0
  6
Continuous
 62
     7
100
AcDbLine
 10
-285.1695556640625
 20
215.5279846191406
 30
0.0
 11
-283.2656860351563
 21
217.4318542480469
 31
0.0
  0
LINE
  5
222
330
22
100
AcDbEntity
  8
0
  6
CENTER
 62
     7
100
AcDbLine
 10
-337.7656860351563
 20
41.03276062011718
 30
0.0
 11
-337.7656860351563
 21
225.8702087402344
 31
0.0
  0
LINE
  5
223
330
22
100
AcDbEntity
  8
0
  6
Continuous
 62
     7
100
AcDbLine
 10
-354.4405517578125
 20
169.5279846191406
 30
0.0
 11
-354.4405517578125
 21
191.2267608642578
 31
0.0
  0
LINE
  5
224
330
22
100
AcDbEntity
  8
0
  6
Continuous
 62
     7
100
AcDbLine
 10
-358.5039978027344
 20
169.5279846191406
 30
0.0
 11
-358.5039978027344
 21
191.2267608642578
 31
0.0
  0
LINE
  5
225
330
22
100
AcDbEntity
  8
0
  6
Continuous
 62
     7
100
AcDbLine
 10
-365.2656860351563
 20
170.5279846191406
 30
0.0
 11
-365.2656860351563
 21
188.0320587158203
 31
0.0
  0
LINE
  5
226
330
22
100
AcDbEntity
  8
0
  6
Continuous
 62
     7
100
AcDbLine
 10
-313.8656921386719
 20
182.0279846191406
 30
0.0
 11
-313.8656921386719
 21
185.5279846191406
 31
0.0
  0
LINE
  5
227
330
22
100
AcDbEntity
  8
0
  6
Continuous
 62
     7
100
AcDbLine
 10
-310.2656860351563
 20
170.5279846191406
 30
0.0
 11
-310.2656860351563
 21
188.0320587158203
 31
0.0
  0
LINE
  5
228
330
22
100
AcDbEntity
  8
0
  6
Continuous
 62
     7
100
AcDbLine
 10
-315.7012939453125
 20
182.5279846191406
 30
0.0
 11
-315.1260070800781
 21
167.7515563964844
 31
0.0
  0
LINE
  5
229
330
22
100
AcDbEntity
  8
0
  6
Continuous
 62
     7
100
AcDbLine
 10
-315.7012939453125
 20
182.5279846191406
 30
0.0
 11
-314.1760864257813
 21
181.0027770996094
 31
0.0
  0
LINE
  5
22A
330
22
100
AcDbEntity
  8
0
  6
Continuous
 62
     7
100
AcDbLine
 10
-317.2656860351563
 20
182.5093231201172
 30
0.0
 11
-317.2656860351563
 21
82.52799224853516
 31
0.0
  0
LINE
  5
22B
330
22
100
AcDbEntity
  8
0
  6
Continuous
 62
     7
100
AcDbLine
 10
-273.6220703125
 20
220.4994201660156
 30
0.0
 11
-272.7942504882813
 21
219.6716003417969
 31
0.0
  0
LINE
  5
22C
330
22
100
AcDbEntity
  8
0
  6
Continuous
 62
     7
100
AcDbLine
 10
-275.2416076660156
 20
220.5279846191406
 30
0.0
 11
-272.7656860351563
 21
218.0520477294922
 31
0.0
  0
LINE
  5
22D
330
22
100
AcDbEntity
  8
0
  6
Continuous
 62
     7
100
AcDbLine
 10
-275.7719421386719
 20
220.5279846191406
 30
0.0
 11
-272.7667236328125
 21
217.5227661132813
 31
0.0
  0
LINE
  5
22E
330
22
100
AcDbEntity
  8
0
  6
Continuous
 62
     7
100
AcDbLine
 10
-277.3629455566406
 20
220.5279846191406
 30
0.0
 11
-273.4297485351563
 21
216.5948028564453
 31
0.0
  0
LINE
  5
22F
330
22
100
AcDbEntity
  8
0
  6
Continuous
 62
     7
100
AcDbLine
 10
-277.8932800292969
 20
220.5279846191406
 30
0.0
 11
-273.8932800292969
 21
216.5279846191406
 31
0.0
  0
LINE
  5
230
330
22
100
AcDbEntity
  8
0
  6
Continuous
 62
     7
100
AcDbLine
 10
-279.4842529296875
 20
220.5279846191406
 30
0.0
 11
-275.4842529296875
 21
216.5279846191406
 31
0.0
  0
LINE
  5
231
330
22
100
AcDbEntity
  8
0
  6
Continuous
 62
     7
100
AcDbLine
 10
-280.0145874023438
 20
220.5279846191406
 30
0.0
 11
-276.0145874023438
 21
216.5279846191406
 31
0.0
  0
LINE
  5
232
330
22
100
AcDbEntity
  8
0
  6
Continuous
 62
     7
100
AcDbLine
 10
-281.6055908203125
 20
220.5279846191406
 30
0.0
 11
-277.6055908203125
 21
216.5279846191406
 31
0.0
  0
LINE
  5
233
330
22
100
AcDbEntity
  8
0
  6
Continuous
 62
     7
100
AcDbLine
 10
-282.1359252929688
 20
220.5279846191406
 30
0.0
 11
-278.1359252929688
 21
216.5279846191406
 31
0.0
  0
LINE
  5
234
330
22
100
AcDbEntity
  8
0
  6
Continuous
 62
     7
100
AcDbLine
 10
-282.7656860351563
 20
219.5667724609375
 30
0.0
 11
-279.4495544433594
 21
216.2506256103516
 31
0.0
  0
LINE
  5
235
330
22
100
AcDbEntity
  8
0
  6
Continuous
 62
     7
100
AcDbLine
 10
-282.7656860351563
 20
219.0364379882813
 30
0.0
 11
-279.669677734375
 21
215.9404296875
 31
0.0
  0
LINE
  5
236
330
22
100
AcDbEntity
  8
0
  6
Continuous
 62
     7
100
AcDbLine
 10
-282.7656860351563
 20
217.4454498291016
 30
0.0
 11
-279.7656860351563
 21
214.4454498291016
 31
0.0
  0
LINE
  5
237
330
22
100
AcDbEntity
  8
0
  6
Continuous
 62
     7
100
AcDbLine
 10
-282.7656860351563
 20
216.9151153564453
 30
0.0
 11
-279.7656860351563
 21
213.9151153564453
 31
0.0
  0
LINE
  5
238
330
22
100
AcDbEntity
  8
0
  6
Continuous
 62
     7
100
AcDbLine
 10
-282.9695434570313
 20
215.5279846191406
 30
0.0
 11
-279.7656860351563
 21
212.3241271972656
 31
0.0
  0
LINE
  5
239
330
22
100
AcDbEntity
  8
0
  6
Continuous
 62
     7
100
AcDbLine
 10
-283.4998779296875
 20
215.5279846191406
 30
0.0
 11
-279.7656860351563
 21
211.7937927246094
 31
0.0
  0
LINE
  5
23A
330
22
100
AcDbEntity
  8
0
  6
Continuous
 62
     7
100
AcDbLine
 10
-285.0908508300781
 20
215.5279846191406
 30
0.0
 11
-279.8966064453125
 21
210.333740234375
 31
0.0
  0
LINE
  5
23B
330
22
100
AcDbEntity
  8
0
  6
Continuous
 62
     7
100
AcDbLine
 10
-285.6211853027344
 20
215.5279846191406
 30
0.0
 11
-280.0145874023438
 21
209.92138671875
 31
0.0
  0
LINE
  5
23C
330
22
100
AcDbEntity
  8
0
  6
Continuous
 62
     7
100
AcDbLine
 10
-286.2656860351563
 20
214.5814819335938
 30
0.0
 11
-280.5138854980469
 21
208.8296966552734
 31
0.0
  0
LINE
  5
23D
330
22
100
AcDbEntity
  8
0
  6
Continuous
 62
     7
100
AcDbLine
 10
-286.2656860351563
 20
214.0511627197266
 30
0.0
 11
-280.71337890625
 21
208.4988708496094
 31
0.0
  0
LINE
  5
23E
330
22
100
AcDbEntity
  8
0
  6
Continuous
 62
     7
100
AcDbLine
 10
-286.2656860351563
 20
212.4601593017578
 30
0.0
 11
-281.4688720703125
 21
207.6633605957031
 31
0.0
  0
LINE
  5
23F
330
22
100
AcDbEntity
  8
0
  6
Continuous
 62
     7
100
AcDbLine
 10
-286.2656860351563
 20
211.9298400878906
 30
0.0
 11
-281.7741088867188
 21
207.4382476806641
 31
0.0
  0
LINE
  5
240
330
22
100
AcDbEntity
  8
0
  6
Continuous
 62
     7
100
AcDbLine
 10
-286.3370056152344
 20
210.4101867675781
 30
0.0
 11
-282.7384643554688
 21
206.8116455078125
 31
0.0
  0
LINE
  5
241
330
22
100
AcDbEntity
  8
0
  6
Continuous
 62
     7
100
AcDbLine
 10
-286.4180908203125
 20
209.9609375
 30
0.0
 11
-283.07470703125
 21
206.6175231933594
 31
0.0
  0
LINE
  5
242
330
22
100
AcDbEntity
  8
0
  6
Continuous
 62
     7
100
AcDbLine
 10
-286.8601989746094
 20
208.8120574951172
 30
0.0
 11
-284.0833435058594
 21
206.0351867675781
 31
0.0
  0
LINE
  5
243
330
22
100
AcDbEntity
  8
0
  6
Continuous
 62
     7
100
AcDbLine
 10
-287.0460205078125
 20
208.4675445556641
 30
0.0
 11
-284.4195556640625
 21
205.8410797119141
 31
0.0
  0
LINE
  5
244
330
22
100
AcDbEntity
  8
0
  6
Continuous
 62
     7
100
AcDbLine
 10
-287.7452697753906
 20
207.5757904052734
 30
0.0
 11
-285.4281921386719
 21
205.2587280273438
 31
0.0
  0
LINE
  5
245
330
22
100
AcDbEntity
  8
0
  6
Continuous
 62
     7
100
AcDbLine
 10
-288.0375671386719
 20
207.3377532958984
 30
0.0
 11
-285.7644348144532
 21
205.0646209716797
 31
0.0
  0
LINE
  5
246
330
22
100
AcDbEntity
  8
0
  6
Continuous
 62
     7
100
AcDbLine
 10
-288.9692077636719
 20
206.6784210205078
 30
0.0
 11
-286.7730712890625
 21
204.4822692871094
 31
0.0
  0
LINE
  5
247
330
22
100
AcDbEntity
  8
0
  6
Continuous
 62
     7
100
AcDbLine
 10
-289.3054504394531
 20
206.4843139648438
 30
0.0
 11
-287.1092834472656
 21
204.2881622314453
 31
0.0
  0
LINE
  5
248
330
22
100
AcDbEntity
  8
0
  6
Continuous
 62
     7
100
AcDbLine
 10
-290.3140869140625
 20
205.9019622802734
 30
0.0
 11
-288.117919921875
 21
203.705810546875
 31
0.0
  0
LINE
  5
249
330
22
100
AcDbEntity
  8
0
  6
Continuous
 62
     7
100
AcDbLine
 10
-290.6502990722657
 20
205.7078552246094
 30
0.0
 11
-288.4541625976563
 21
203.5117034912109
 31
0.0
  0
LINE
  5
24A
330
22
100
AcDbEntity
  8
0
  6
Continuous
 62
     7
100
AcDbLine
 10
-291.658935546875
 20
205.1255035400391
 30
0.0
 11
-289.4627990722656
 21
202.9293518066406
 31
0.0
  0
LINE
  5
24B
330
22
100
AcDbEntity
  8
0
  6
Continuous
 62
     7
100
AcDbLine
 10
-291.9951782226563
 20
204.931396484375
 30
0.0
 11
-289.7990112304688
 21
202.7352447509766
 31
0.0
  0
LINE
  5
24C
330
22
100
AcDbEntity
  8
0
  6
Continuous
 62
     7
100
AcDbLine
 10
-293.0038146972656
 20
204.3490600585939
 30
0.0
 11
-290.8076477050781
 21
202.1529083251953
 31
0.0
  0
LINE
  5
24D
330
22
100
AcDbEntity
  8
0
  6
Continuous
 62
     7
100
AcDbLine
 10
-293.3400268554688
 20
204.1549377441406
 30
0.0
 11
-291.1438598632813
 21
201.9587860107422
 31
0.0
  0
LINE
  5
24E
330
22
100
AcDbEntity
  8
0
  6
Continuous
 62
     7
100
AcDbLine
 10
-294.3486633300781
 20
203.5726013183594
 30
0.0
 11
-292.1525268554688
 21
201.3764495849609
 31
0.0
  0
LINE
  5
24F
330
22
100
AcDbEntity
  8
0
  6
Continuous
 62
     7
100
AcDbLine
 10
-294.6848754882813
 20
203.3784790039063
 30
0.0
 11
-292.4887390136719
 21
201.1823272705078
 31
0.0
  0
LINE
  5
250
330
22
100
AcDbEntity
  8
0
  6
Continuous
 62
     7
100
AcDbLine
 10
-295.6935424804688
 20
202.796142578125
 30
0.0
 11
-293.4973754882813
 21
200.5999908447266
 31
0.0
  0
LINE
  5
251
330
22
100
AcDbEntity
  8
0
  6
Continuous
 62
     7
100
AcDbLine
 10
-296.0297546386719
 20
202.6020202636719
 30
0.0
 11
-293.8335876464844
 21
200.4058685302734
 31
0.0
  0
LINE
  5
252
330
22
100
AcDbEntity
  8
0
  6
Continuous
 62
     7
100
AcDbLine
 10
-297.0383911132813
 20
202.0196838378906
 30
0.0
 11
-294.8422546386719
 21
199.8235321044922
 31
0.0
  0
LINE
  5
253
330
22
100
AcDbEntity
  8
0
  6
Continuous
 62
     7
100
AcDbLine
 10
-297.3746032714844
 20
201.8255615234375
 30
0.0
 11
-295.178466796875
 21
199.6294097900391
 31
0.0
  0
LINE
  5
254
330
22
100
AcDbEntity
  8
0
  6
Continuous
 62
     7
100
AcDbLine
 10
-298.3832702636719
 20
201.2432250976563
 30
0.0
 11
-296.1871032714844
 21
199.0470733642578
 31
0.0
  0
LINE
  5
255
330
22
100
AcDbEntity
  8
0
  6
Continuous
 62
     7
100
AcDbLine
 10
-298.719482421875
 20
201.0491180419922
 30
0.0
 11
-296.5233154296875
 21
198.8529510498047
 31
0.0
  0
LINE
  5
256
330
22
100
AcDbEntity
  8
0
  6
Continuous
 62
     7
100
AcDbLine
 10
-299.7281188964844
 20
200.4667663574219
 30
0.0
 11
-297.531982421875
 21
198.2706146240234
 31
0.0
  0
LINE
  5
257
330
22
100
AcDbEntity
  8
0
  6
Continuous
 62
     7
100
AcDbLine
 10
-300.0643310546875
 20
200.2726593017578
 30
0.0
 11
-297.8681945800781
 21
198.0765075683594
 31
0.0
  0
LINE
  5
258
330
22
100
AcDbEntity
  8
0
  6
Continuous
 62
     7
100
AcDbLine
 10
-301.072998046875
 20
199.6903076171875
 30
0.0
 11
-298.8768310546875
 21
197.4941558837891
 31
0.0
  0
LINE
  5
259
330
22
100
AcDbEntity
  8
0
  6
Continuous
 62
     7
100
AcDbLine
 10
-301.4092102050781
 20
199.4962005615234
 30
0.0
 11
-299.2130432128906
 21
197.300048828125
 31
0.0
  0
LINE
  5
25A
330
22
100
AcDbEntity
  8
0
  6
Continuous
 62
     7
100
AcDbLine
 10
-302.4178466796875
 20
198.9138488769531
 30
0.0
 11
-300.2217102050781
 21
196.7176971435547
 31
0.0
  0
LINE
  5
25B
330
22
100
AcDbEntity
  8
0
  6
Continuous
 62
     7
100
AcDbLine
 10
-302.7540588378906
 20
198.7197418212891
 30
0.0
 11
-300.5579223632813
 21
196.5235900878906
 31
0.0
  0
LINE
  5
25C
330
22
100
AcDbEntity
  8
0
  6
Continuous
 62
     7
100
AcDbLine
 10
-303.7627258300781
 20
198.1373901367188
 30
0.0
 11
-301.5665588378906
 21
195.9412384033203
 31
0.0
  0
LINE
  5
25D
330
22
100
AcDbEntity
  8
0
  6
Continuous
 62
     7
100
AcDbLine
 10
-304.0989379882813
 20
197.9432830810547
 30
0.0
 11
-301.9027709960938
 21
195.7471313476563
 31
0.0
  0
LINE
  5
25E
330
22
100
AcDbEntity
  8
0
  6
Continuous
 62
     7
100
AcDbLine
 10
-305.1075744628906
 20
197.3609466552734
 30
0.0
 11
-302.9114379882813
 21
195.1647796630859
 31
0.0
  0
LINE
  5
25F
330
22
100
AcDbEntity
  8
0
  6
Continuous
 62
     7
100
AcDbLine
 10
-305.4437866210938
 20
197.1668243408203
 30
0.0
 11
-303.2476501464844
 21
194.9706726074219
 31
0.0
  0
LINE
  5
260
330
22
100
AcDbEntity
  8
0
  6
Continuous
 62
     7
100
AcDbLine
 10
-306.4524536132813
 20
196.5844879150391
 30
0.0
 11
-304.2562866210938
 21
194.3883361816406
 31
0.0
  0
LINE
  5
261
330
22
100
AcDbEntity
  8
0
  6
Continuous
 62
     7
100
AcDbLine
 10
-306.7886657714844
 20
196.3903656005859
 30
0.0
 11
-304.5924987792969
 21
194.1942138671875
 31
0.0
  0
LINE
  5
262
330
22
100
AcDbEntity
  8
0
  6
Continuous
 62
     7
100
AcDbLine
 10
-307.7973022460938
 20
195.8080291748047
 30
0.0
 11
-305.6011657714844
 21
193.6118774414063
 31
0.0
  0
LINE
  5
263
330
22
100
AcDbEntity
  8
0
  6
Continuous
 62
     7
100
AcDbLine
 10
-308.1335144042969
 20
195.6139068603516
 30
0.0
 11
-305.9373779296875
 21
193.4177551269531
 31
0.0
  0
LINE
  5
264
330
22
100
AcDbEntity
  8
0
  6
Continuous
 62
     7
100
AcDbLine
 10
-309.1421813964844
 20
195.0315704345703
 30
0.0
 11
-306.9460144042969
 21
192.8354187011719
 31
0.0
  0
LINE
  5
265
330
22
100
AcDbEntity
  8
0
  6
Continuous
 62
     7
100
AcDbLine
 10
-309.4783935546875
 20
194.8374481201172
 30
0.0
 11
-307.2822265625
 21
192.6412963867188
 31
0.0
  0
LINE
  5
266
330
22
100
AcDbEntity
  8
0
  6
Continuous
 62
     7
100
AcDbLine
 10
-310.4870300292969
 20
194.2551116943359
 30
0.0
 11
-308.248291015625
 21
192.016357421875
 31
0.0
  0
LINE
  5
267
330
22
100
AcDbEntity
  8
0
  6
Continuous
 62
     7
100
AcDbLine
 10
-310.8232421875
 20
194.0609893798828
 30
0.0
 11
-308.5572204589844
 21
191.7949676513672
 31
0.0
  0
LINE
  5
268
330
22
100
AcDbEntity
  8
0
  6
Continuous
 62
     7
100
AcDbLine
 10
-311.8319091796875
 20
193.4786529541016
 30
0.0
 11
-309.307861328125
 21
190.9546051025391
 31
0.0
  0
LINE
  5
269
330
22
100
AcDbEntity
  8
0
  6
Continuous
 62
     7
100
AcDbLine
 10
-312.1681213378906
 20
193.2845458984375
 30
0.0
 11
-309.5111999511719
 21
190.6276092529297
 31
0.0
  0
LINE
  5
26A
330
22
100
AcDbEntity
  8
0
  6
Continuous
 62
     7
100
AcDbLine
 10
-313.1767578125
 20
192.7021942138672
 30
0.0
 11
-310.0147399902344
 21
189.5401916503906
 31
0.0
  0
LINE
  5
26B
330
22
100
AcDbEntity
  8
0
  6
Continuous
 62
     7
100
AcDbLine
 10
-313.5129699707031
 20
192.5080871582031
 30
0.0
 11
-310.1287231445313
 21
189.1238250732422
 31
0.0
  0
LINE
  5
26C
330
22
100
AcDbEntity
  8
0
  6
Continuous
 62
     7
100
AcDbLine
 10
-314.5216369628906
 20
191.9257354736328
 30
0.0
 11
-310.2656860351563
 21
187.6697998046875
 31
0.0
  0
LINE
  5
26D
330
22
100
AcDbEntity
  8
0
  6
Continuous
 62
     7
100
AcDbLine
 10
-314.8578491210938
 20
191.7316284179688
 30
0.0
 11
-310.2656860351563
 21
187.1394653320313
 31
0.0
  0
LINE
  5
26E
330
22
100
AcDbEntity
  8
0
  6
Continuous
 62
     7
100
AcDbLine
 10
-315.8064575195313
 20
191.0892639160156
 30
0.0
 11
-310.2656860351563
 21
185.5484771728516
 31
0.0
  0
LINE
  5
26F
330
22
100
AcDbEntity
  8
0
  6
Continuous
 62
     7
100
AcDbLine
 10
-316.0607299804688
 20
190.8131866455078
 30
0.0
 11
-310.2656860351563
 21
185.0181427001953
 31
0.0
  0
LINE
  5
270
330
22
100
AcDbEntity
  8
0
  6
Continuous
 62
     7
100
AcDbLine
 10
-316.6212463378906
 20
189.7827301025391
 30
0.0
 11
-310.2656860351563
 21
183.4271545410156
 31
0.0
  0
LINE
  5
271
330
22
100
AcDbEntity
  8
0
  6
Continuous
 62
     7
100
AcDbLine
 10
-316.7171325683594
 20
189.3482666015625
 30
0.0
 11
-310.2656860351563
 21
182.8968200683594
 31
0.0
  0
LINE
  5
272
330
22
100
AcDbEntity
  8
0
  6
Continuous
 62
     7
100
AcDbLine
 10
-313.8656921386719
 20
184.9058380126953
 30
0.0
 11
-310.2656860351563
 21
181.3058319091797
 31
0.0
  0
LINE
  5
273
330
22
100
AcDbEntity
  8
0
  6
Continuous
 62
     7
100
AcDbLine
 10
-313.8656921386719
 20
184.3755035400391
 30
0.0
 11
-310.2656860351563
 21
180.7755126953125
 31
0.0
  0
LINE
  5
274
330
22
100
AcDbEntity
  8
0
  6
Continuous
 62
     7
100
AcDbLine
 10
-313.8656921386719
 20
182.7845153808594
 30
0.0
 11
-310.2656860351563
 21
179.1845092773438
 31
0.0
  0
LINE
  5
275
330
22
100
AcDbEntity
  8
0
  6
Continuous
 62
     7
100
AcDbLine
 10
-313.8656921386719
 20
182.2541809082031
 30
0.0
 11
-310.2656860351563
 21
178.6541900634766
 31
0.0
  0
LINE
  5
276
330
22
100
AcDbEntity
  8
0
  6
Continuous
 62
     7
100
AcDbLine
 10
-314.2248840332031
 20
181.0224151611328
 30
0.0
 11
-310.2656860351563
 21
177.0632019042969
 31
0.0
  0
LINE
  5
277
330
22
100
AcDbEntity
  8
0
  6
Continuous
 62
     7
100
AcDbLine
 10
-314.2077941894531
 20
180.4749755859375
 30
0.0
 11
-310.2656860351563
 21
176.5328674316406
 31
0.0
  0
LINE
  5
278
330
22
100
AcDbEntity
  8
0
  6
Continuous
 62
     7
100
AcDbLine
 10
-314.1564636230469
 20
178.8326568603516
 30
0.0
 11
-310.2656860351563
 21
174.9418792724609
 31
0.0
  0
LINE
  5
279
330
22
100
AcDbEntity
  8
0
  6
Continuous
 62
     7
100
AcDbLine
 10
-314.1393432617188
 20
178.2852172851563
 30
0.0
 11
-310.2656860351563
 21
174.4115447998047
 31
0.0
  0
LINE
  5
27A
330
22
100
AcDbEntity
  8
0
  6
Continuous
 62
     7
100
AcDbLine
 10
-314.0880432128906
 20
176.6429138183594
 30
0.0
 11
-310.2656860351563
 21
172.820556640625
 31
0.0
  0
LINE
  5
27B
330
22
100
AcDbEntity
  8
0
  6
Continuous
 62
     7
100
AcDbLine
 10
-314.0709228515625
 20
176.0954742431641
 30
0.0
 11
-310.2656860351563
 21
172.2902221679688
 31
0.0
  0
LINE
  5
27C
330
22
100
AcDbEntity
  8
0
  6
Continuous
 62
     7
100
AcDbLine
 10
-314.0195922851563
 20
174.4531555175781
 30
0.0
 11
-310.2656860351563
 21
170.6992340087891
 31
0.0
  0
LINE
  5
27D
330
22
100
AcDbEntity
  8
0
  6
Continuous
 62
     7
100
AcDbLine
 10
-314.0025024414063
 20
173.9057159423828
 30
0.0
 11
-310.4452209472656
 21
170.3484497070313
 31
0.0
  0
LINE
  5
27E
330
22
100
AcDbEntity
  8
0
  6
Continuous
 62
     7
100
AcDbLine
 10
-313.951171875
 20
172.2633972167969
 30
0.0
 11
-311.24072265625
 21
169.5529479980469
 31
0.0
  0
LINE
  5
27F
330
22
100
AcDbEntity
  8
0
  6
Continuous
 62
     7
100
AcDbLine
 10
-313.9340515136719
 20
171.7159576416016
 30
0.0
 11
-311.74609375
 21
169.5279846191406
 31
0.0
  0
LINE
  5
280
330
22
100
AcDbEntity
  8
0
  6
Continuous
 62
     7
100
AcDbLine
 10
-313.8827209472656
 20
170.0736389160156
 30
0.0
 11
-313.3370666503906
 21
169.5279846191406
 31
0.0
  0
LINE
  5
281
330
22
100
AcDbEntity
  8
0
  6
Continuous
 62
     7
100
AcDbLine
 10
-317.2656860351563
 20
179.5106964111328
 30
0.0
 11
-315.6468505859375
 21
181.1295318603516
 31
0.0
  0
LINE
  5
282
330
22
100
AcDbEntity
  8
0
  6
Continuous
 62
     7
100
AcDbLine
 10
-317.2656860351563
 20
172.4396362304688
 30
0.0
 11
-315.3818664550781
 21
174.3234405517578
 31
0.0
  0
LINE
  5
283
330
22
100
AcDbEntity
  8
0
  6
Continuous
 62
     7
100
AcDbLine
 10
-317.2656860351563
 20
165.3685607910156
 30
0.0
 11
-314.9909057617188
 21
167.6433563232422
 31
0.0
  0
LINE
  5
284
330
22
100
AcDbEntity
  8
0
  6
Continuous
 62
     7
100
AcDbLine
 10
-317.2656860351563
 20
158.2975006103516
 30
0.0
 11
-313.7656860351563
 21
161.7975006103516
 31
0.0
  0
LINE
  5
285
330
22
100
AcDbEntity
  8
0
  6
Continuous
 62
     7
100
AcDbLine
 10
-317.2656860351563
 20
151.2264251708984
 30
0.0
 11
-313.7656860351563
 21
154.7264251708984
 31
0.0
  0
LINE
  5
286
330
22
100
AcDbEntity
  8
0
  6
Continuous
 62
     7
100
AcDbLine
 10
-317.2656860351563
 20
144.1553649902344
 30
0.0
 11
-313.7656860351563
 21
147.6553649902344
 31
0.0
  0
LINE
  5
287
330
22
100
AcDbEntity
  8
0
  6
Continuous
 62
     7
100
AcDbLine
 10
-317.2656860351563
 20
137.0842895507813
 30
0.0
 11
-313.7656860351563
 21
140.5842895507813
 31
0.0
  0
LINE
  5
288
330
22
100
AcDbEntity
  8
0
  6
Continuous
 62
     7
100
AcDbLine
 10
-317.2656860351563
 20
130.0132293701172
 30
0.0
 11
-315.2656860351563
 21
132.0132293701172
 31
0.0
  0
LINE
  5
289
330
22
100
AcDbEntity
  8
0
  6
Continuous
 62
     7
100
AcDbLine
 10
-317.2656860351563
 20
122.9421539306641
 30
0.0
 11
-315.2656860351563
 21
124.9421539306641
 31
0.0
  0
LINE
  5
28A
330
22
100
AcDbEntity
  8
0
  6
Continuous
 62
     7
100
AcDbLine
 10
-317.2656860351563
 20
115.8710861206055
 30
0.0
 11
-315.2656860351563
 21
117.8710861206055
 31
0.0
  0
LINE
  5
28B
330
22
100
AcDbEntity
  8
0
  6
Continuous
 62
     7
100
AcDbLine
 10
-317.2656860351563
 20
108.8000183105469
 30
0.0
 11
-315.2656860351563
 21
110.8000183105469
 31
0.0
  0
LINE
  5
28C
330
22
100
AcDbEntity
  8
0
  6
Continuous
 62
     7
100
AcDbLine
 10
-317.2656860351563
 20
101.7289505004883
 30
0.0
 11
-315.2656860351563
 21
103.7289505004883
 31
0.0
  0
LINE
  5
28D
330
22
100
AcDbEntity
  8
0
  6
Continuous
 62
     7
100
AcDbLine
 10
-317.2656860351563
 20
94.65788269042969
 30
0.0
 11
-315.2656860351563
 21
96.6578826904297
 31
0.0
  0
LINE
  5
28E
330
22
100
AcDbEntity
  8
0
  6
Continuous
 62
     7
100
AcDbLine
 10
-317.2656860351563
 20
87.5868148803711
 30
0.0
 11
-315.2656860351563
 21
89.58681488037109
 31
0.0
  0
LINE
  5
28F
330
22
100
AcDbEntity
  8
0
  6
Continuous
 62
     7
100
AcDbLine
 10
-360.4053649902344
 20
167.7515563964844
 30
0.0
 11
-361.7656860351563
 21
166.6620635986328
 31
0.0
  0
LINE
  5
290
330
22
100
AcDbEntity
  8
0
  6
Continuous
 62
     7
100
AcDbLine
 10
-353.7688293457031
 20
170.5279846191406
 30
0.0
 11
-337.7656860351563
 21
170.5279846191406
 31
0.0
  0
LINE
  5
291
330
22
100
AcDbEntity
  8
0
  6
Continuous
 62
     7
100
AcDbLine
 10
-365.2656860351563
 20
170.5279846191406
 30
0.0
 11
-359.0116577148438
 21
170.5279846191406
 31
0.0
  0
LINE
  5
292
330
22
100
AcDbEntity
  8
0
  6
Continuous
 62
     7
100
AcDbLine
 10
-286.2656860351563
 20
215.5279846191406
 30
0.0
 11
-337.7656860351563
 21
215.5279846191406
 31
0.0
  0
LINE
  5
293
330
22
100
AcDbEntity
  8
0
  6
Continuous
 62
     7
100
AcDbLine
 10
-337.7656860351563
 20
217.5279846191406
 30
0.0
 11
-286.7656860351563
 21
217.5279846191406
 31
0.0
  0
LINE
  5
294
330
22
100
AcDbEntity
  8
0
  6
Continuous
 62
     7
100
AcDbLine
 10
-314.5965576171875
 20
67.9628677368164
 30
0.0
 11
-337.7656860351563
 21
67.9628677368164
 31
0.0
  0
LINE
  5
295
330
22
100
AcDbEntity
  8
0
  6
Continuous
 62
     7
100
AcDbLine
 10
-337.7656860351563
 20
74.02799224853516
 30
0.0
 11
-315.3431701660156
 21
74.02799224853516
 31
0.0
  0
LINE
  5
296
330
22
100
AcDbEntity
  8
0
  6
Continuous
 62
     7
100
AcDbLine
 10
-337.7656860351563
 20
66.52799224853516
 30
0.0
 11
-316.0314331054688
 21
66.52799224853516
 31
0.0
  0
LINE
  5
297
330
22
100
AcDbEntity
  8
0
  6
Continuous
 62
     7
100
AcDbLine
 10
-315.3916320800781
 20
46.05544662475586
 30
0.0
 11
-337.7656860351563
 21
46.05544662475586
 31
0.0
  0
LINE
  5
298
330
22
100
AcDbEntity
  8
0
  6
Continuous
 62
     7
100
AcDbLine
 10
-315.2656860351563
 20
82.52799224853516
 30
0.0
 11
-337.7656860351563
 21
82.52799224853516
 31
0.0
  0
LINE
  5
299
330
22
100
AcDbEntity
  8
0
  6
Continuous
 62
     7
100
AcDbLine
 10
-328.568603515625
 20
182.5279846191406
 30
0.0
 11
-322.5156860351563
 21
182.5279846191406
 31
0.0
  0
LINE
  5
29A
330
22
100
AcDbEntity
  8
0
  6
Continuous
 62
     7
100
AcDbLine
 10
-316.36376953125
 20
190.3980865478516
 30
0.0
 11
-337.7656860351563
 21
190.3980865478516
 31
0.0
  0
LINE
  5
29B
330
22
100
AcDbEntity
  8
0
  6
Continuous
 62
     7
100
AcDbLine
 10
-315.7012939453125
 20
182.5279846191406
 30
0.0
 11
-337.7656860351563
 21
182.5279846191406
 31
0.0
  0
LINE
  5
29C
330
22
100
AcDbEntity
  8
0
  6
Continuous
 62
     7
100
AcDbLine
 10
-315.8656921386719
 20
187.5279846191406
 30
0.0
 11
-337.7656860351563
 21
187.5279846191406
 31
0.0
  0
LINE
  5
29D
330
22
100
AcDbEntity
  8
0
  6
Continuous
 62
     7
100
AcDbLine
 10
-313.8641662597656
 20
72.55949401855469
 30
0.0
 11
-337.7656860351563
 21
72.55949401855469
 31
0.0
  0
LINE
  5
29E
330
22
100
AcDbEntity
  8
0
  6
Continuous
 62
     7
100
AcDbLine
 10
-364.7656860351563
 20
44.52799224853515
 30
0.0
 11
-310.7656860351563
 21
44.52799224853515
 31
0.0
  0
LINE
  5
29F
330
22
100
AcDbEntity
  8
0
  6
Continuous
 62
     7
100
AcDbLine
 10
-401.7656860351562
 20
220.5279846191406
 30
0.0
 11
-273.7656860351563
 21
220.5279846191406
 31
0.0
  0
LINE
  5
2A0
330
22
100
AcDbEntity
  8
0
  6
Continuous
 62
     7
100
AcDbLine
 10
-283.67919921875
 20
69.02799224853516
 30
0.0
 11
-280.17919921875
 21
72.52799224853515
 31
0.0
  0
ARC
  5
2A1
330
22
100
AcDbEntity
  8
0
  6
Continuous
 62
     7
100
AcDbCircle
 10
-315.8656921386719
 20
185.5279846191406
 30
0.0
 40
2.0
100
AcDbArc
 50
0.0
 51
90.00000000000019
  0
ARC
  5
2A2
330
22
100
AcDbEntity
  8
0
  6
Continuous
 62
     7
100
AcDbCircle
 10
-318.7529296875
 20
335.5065612792969
 30
0.0
 40
2.5
100
AcDbArc
 50
0.0
 51
180.0000000000004
  0
ARC
  5
2A3
330
22
100
AcDbEntity
  8
0
  6
Continuous
 62
     7
100
AcDbCircle
 10
-318.7529296875
 20
313.2315673828125
 30
0.0
 40
2.5
100
AcDbArc
 50
180.0000000000004
 51
0.0
  0
ARC
  5
2A4
330
22
100
AcDbEntity
  8
0
  6
Continuous
 62
     7
100
AcDbCircle
 10
-318.7656860351563
 20
303.7443542480469
 30
0.0
 40
2.5
100
AcDbArc
 50
0.0
 51
180.0000000000004
  0
ARC
  5
2A5
330
22
100
AcDbEntity
  8
0
  6
Continuous
 62
     7
100
AcDbCircle
 10
-337.7656860351563
 20
324.3690795898438
 30
0.0
 40
49.25
100
AcDbArc
 50
64.11614055262536
 51
70.44163225214474
  0
ARC
  5
2A6
330
22
100
AcDbEntity
  8
0
  6
Continuous
 62
     7
100
AcDbCircle
 10
-318.7656860351563
 20
344.9937744140625
 30
0.0
 40
2.5
100
AcDbArc
 50
180.0000000000004
 51
0.0
  0
ARC
  5
2A7
330
22
100
AcDbEntity
  8
0
  6
Continuous
 62
     7
100
AcDbCircle
 10
-321.7529296875
 20
220.0279846191406
 30
0.0
 40
0.5
100
AcDbArc
 50
0.0
 51
90.00000000000019
  0
ARC
  5
2A8
330
22
100
AcDbEntity
  8
0
  6
Continuous
 62
     7
100
AcDbCircle
 10
-321.7529296875
 20
218.0279846191406
 30
0.0
 40
0.5
100
AcDbArc
 50
270.0000000000005
 51
0.0
  0
ARC
  5
2A9
330
22
100
AcDbEntity
  8
0
  6
Continuous
 62
     7
100
AcDbCircle
 10
-337.7656860351563
 20
324.3690795898438
 30
0.0
 40
49.25
100
AcDbArc
 50
289.558367747856
 51
295.8838439485523
  0
ARC
  5
2AA
330
22
100
AcDbEntity
  8
0
  6
Continuous
 62
     7
100
AcDbCircle
 10
-296.785888671875
 20
218.0279846191406
 30
0.0
 40
0.5
100
AcDbArc
 50
179.9737720754191
 51
270.0000000000005
  0
ARC
  5
2AB
330
22
100
AcDbEntity
  8
0
  6
Continuous
 62
     7
100
AcDbCircle
 10
-337.7656860351563
 20
324.3690795898438
 30
0.0
 40
49.25
100
AcDbArc
 50
342.2235107378684
 51
0.0
  0
ARC
  5
2AC
330
22
100
AcDbEntity
  8
0
  6
Continuous
 62
     7
100
AcDbCircle
 10
-337.7656860351563
 20
324.3690795898438
 30
0.0
 40
49.25
100
AcDbArc
 50
0.0
 51
17.77645545412515
  0
ARC
  5
2AD
330
22
100
AcDbEntity
  8
0
  6
Continuous
 62
     7
100
AcDbCircle
 10
-337.7656860351563
 20
324.3690795898438
 30
0.0
 40
49.25
100
AcDbArc
 50
301.8649321434164
 51
309.008923966259
  0
CIRCLE
  5
2AE
330
22
100
AcDbEntity
  8
0
  6
Continuous
 62
     7
100
AcDbCircle
 10
-295.9366455078125
 20
348.5190734863281
 30
0.0
 40
4.75
  0
CIRCLE
  5
2AF
330
22
100
AcDbEntity
  8
0
  6
Continuous
 62
     7
100
AcDbCircle
 10
-295.9366455078125
 20
348.5190734863281
 30
0.0
 40
4.5
  0
CIRCLE
  5
2B0
330
22
100
AcDbEntity
  8
0
  6
Continuous
 62
     7
100
AcDbCircle
 10
-295.9366455078125
 20
348.5190734863281
 30
0.0
 40
4.5
  0
CIRCLE
  5
2B1
330
22
100
AcDbEntity
  8
0
  6
Continuous
 62
     7
100
AcDbCircle
 10
-295.9366455078125
 20
348.5190734863281
 30
0.0
 40
4.75
  0
ARC
  5
2B2
330
22
100
AcDbEntity
  8
0
  6
Continuous
 62
     7
100
AcDbCircle
 10
-309.2656860351563
 20
328.998046875
 30
0.0
 40
2.5
100
AcDbArc
 50
180.0000000000004
 51
0.0
  0
ARC
  5
2B3
330
22
100
AcDbEntity
  8
0
  6
Continuous
 62
     7
100
AcDbCircle
 10
-299.7529296875
 20
319.1095275878906
 30
0.0
 40
2.5
100
AcDbArc
 50
180.0000000000004
 51
0.0
  0
ARC
  5
2B4
330
22
100
AcDbEntity
  8
0
  6
Continuous
 62
     7
100
AcDbCircle
 10
-293.2656860351563
 20
218.0279846191406
 30
0.0
 40
0.5
100
AcDbArc
 50
270.0000000000005
 51
0.0
  0
ARC
  5
2B5
330
22
100
AcDbEntity
  8
0
  6
Continuous
 62
     7
100
AcDbCircle
 10
-315.7529296875
 20
218.0279846191406
 30
0.0
 40
0.5
100
AcDbArc
 50
180.0000000000004
 51
270.0000000000005
  0
ARC
  5
2B6
330
22
100
AcDbEntity
  8
0
  6
Continuous
 62
     7
100
AcDbCircle
 10
-285.7656860351563
 20
216.0279846191406
 30
0.0
 40
0.5
100
AcDbArc
 50
180.0000000000004
 51
270.0000000000005
  0
ARC
  5
2B7
330
22
100
AcDbEntity
  8
0
  6
Continuous
 62
     7
100
AcDbCircle
 10
-302.7656860351563
 20
220.0279846191406
 30
0.0
 40
0.5
100
AcDbArc
 50
0.0
 51
90.00000000000019
  0
ARC
  5
2B8
330
22
100
AcDbEntity
  8
0
  6
Continuous
 62
     7
100
AcDbCircle
 10
-302.7656860351563
 20
218.0279846191406
 30
0.0
 40
0.5
100
AcDbArc
 50
270.0000000000005
 51
0.0
  0
ARC
  5
2B9
330
22
100
AcDbEntity
  8
0
  6
Continuous
 62
     7
100
AcDbCircle
 10
-315.7529296875
 20
220.0279846191406
 30
0.0
 40
0.5
100
AcDbArc
 50
90.00000000000019
 51
180.0000000000004
  0
ARC
  5
2BA
330
22
100
AcDbEntity
  8
0
  6
Continuous
 62
     7
100
AcDbCircle
 10
-288.0156860351563
 20
218.0279846191406
 30
0.0
 40
0.5
100
AcDbArc
 50
180.0000000000004
 51
270.0000000000005
  0
ARC
  5
2BB
330
22
100
AcDbEntity
  8
0
  6
Continuous
 62
     7
100
AcDbCircle
 10
-288.0156860351563
 20
220.0279846191406
 30
0.0
 40
0.5
100
AcDbArc
 50
90.00000000000019
 51
180.0000000000004
  0
ARC
  5
2BC
330
22
100
AcDbEntity
  8
0
  6
Continuous
 62
     7
100
AcDbCircle
 10
-299.7529296875
 20
341.1095275878906
 30
0.0
 40
2.5
100
AcDbArc
 50
0.0
 51
180.0000000000004
  0
ARC
  5
2BD
330
22
100
AcDbEntity
  8
0
  6
Continuous
 62
     7
100
AcDbCircle
 10
-278.7656860351563
 20
215.5279846191406
 30
0.0
 40
1.0
100
AcDbArc
 50
90.00000000000019
 51
180.0000000000004
  0
ARC
  5
2BE
330
22
100
AcDbEntity
  8
0
  6
Continuous
 62
     7
100
AcDbCircle
 10
-293.2656860351563
 20
220.0279846191406
 30
0.0
 40
0.5
100
AcDbArc
 50
0.0
 51
90.00000000000019
  0
ARC
  5
2BF
330
22
100
AcDbEntity
  8
0
  6
Continuous
 62
     7
100
AcDbCircle
 10
-296.7849731445313
 20
220.0279846191406
 30
0.0
 40
0.5
100
AcDbArc
 50
90.00000000000019
 51
179.9737720754191
  0
ARC
  5
2C0
330
22
100
AcDbEntity
  8
0
  6
Continuous
 62
     7
100
AcDbCircle
 10
-273.7656860351563
 20
219.5279846191406
 30
0.0
 40
1.0
100
AcDbArc
 50
0.0
 51
90.00000000000019
  0
ARC
  5
2C1
330
22
100
AcDbEntity
  8
0
  6
Continuous
 62
     7
100
AcDbCircle
 10
-273.7656860351563
 20
217.5279846191406
 30
0.0
 40
1.0
100
AcDbArc
 50
270.0000000000005
 51
0.0
  0
ARC
  5
2C2
330
22
100
AcDbEntity
  8
0
  6
Continuous
 62
     7
100
AcDbCircle
 10
-286.7656860351563
 20
217.0279846191406
 30
0.0
 40
0.5
100
AcDbArc
 50
0.0
 51
90.00000000000019
  0
ARC
  5
2C3
330
22
100
AcDbEntity
  8
0
  6
Continuous
 62
     7
100
AcDbCircle
 10
-315.7656860351563
 20
188.5279846191406
 30
0.0
 40
1.0
100
AcDbArc
 50
180.0000000000004
 51
270.0000000000005
  0
ARC
  5
2C4
330
22
100
AcDbEntity
  8
0
  6
Continuous
 62
     7
100
AcDbCircle
 10
-337.7656860351563
 20
324.3690795898438
 30
0.0
 40
49.25
100
AcDbArc
 50
50.99105368660645
 51
58.13504911382428
  0
ARC
  5
2C5
330
22
100
AcDbEntity
  8
0
  6
Continuous
 62
     7
100
AcDbCircle
 10
-291.7656860351563
 20
338.9664306640625
 30
0.0
 40
1.0
100
AcDbArc
 50
26.03174796351784
 51
180.0000000000004
  0
ARC
  5
2C6
330
22
100
AcDbEntity
  8
0
  6
Continuous
 62
     7
100
AcDbCircle
 10
-305.2656860351563
 20
188.0320587158203
 30
0.0
 40
5.0
100
AcDbArc
 50
120.0000178622841
 51
180.0000000000004
  0
ARC
  5
2C7
330
22
100
AcDbEntity
  8
0
  6
Continuous
 62
     7
100
AcDbCircle
 10
-309.2656860351563
 20
319.498046875
 30
0.0
 40
2.5
100
AcDbArc
 50
0.0
 51
180.0000000000004
  0
ARC
  5
2C8
330
22
100
AcDbEntity
  8
0
  6
Continuous
 62
     7
100
AcDbCircle
 10
-291.7656860351563
 20
309.7716979980469
 30
0.0
 40
1.0
100
AcDbArc
 50
180.0000000000004
 51
333.9682520364829
  0
ARC
  5
2C9
330
22
100
AcDbEntity
  8
0
  6
Continuous
 62
     7
100
AcDbCircle
 10
-337.7656860351563
 20
324.3690795898438
 30
0.0
 40
49.25
100
AcDbArc
 50
316.1215644393105
 51
325.3192171179545
  0
ARC
  5
2CA
330
22
100
AcDbEntity
  8
0
  6
Continuous
 62
     7
100
AcDbCircle
 10
-299.7529296875
 20
309.6095275878906
 30
0.0
 40
2.5
100
AcDbArc
 50
0.0
 51
180.0000000000004
  0
ARC
  5
2CB
330
22
100
AcDbEntity
  8
0
  6
Continuous
 62
     7
100
AcDbCircle
 10
-310.7656860351563
 20
45.52799224853515
 30
0.0
 40
1.0
100
AcDbArc
 50
270.0000000000005
 51
0.0
  0
ARC
  5
2CC
330
22
100
AcDbEntity
  8
0
  6
Continuous
 62
     7
100
AcDbCircle
 10
-314.3656921386719
 20
182.0279846191406
 30
0.0
 40
0.5
100
AcDbArc
 50
270.0000000000005
 51
0.0
  0
ARC
  5
2CD
330
22
100
AcDbEntity
  8
0
  6
Continuous
 62
     7
100
AcDbCircle
 10
-298.539794921875
 20
205.0530395507813
 30
0.0
 40
1.783435225486754
100
AcDbArc
 50
214.6745981971336
 51
304.6744739368821
  0
ARC
  5
2CE
330
22
100
AcDbEntity
  8
0
  6
Continuous
 62
     7
100
AcDbCircle
 10
-296.7733459472656
 20
209.7818450927734
 30
0.0
 40
5.0
100
AcDbArc
 50
299.9999304360001
 51
0.0
  0
ARC
  5
2CF
330
22
100
AcDbEntity
  8
0
  6
Continuous
 62
     7
100
AcDbCircle
 10
-291.2656860351563
 20
211.1260681152344
 30
0.0
 40
5.0
100
AcDbArc
 50
300.0000178622848
 51
0.0
  0
ARC
  5
2D0
330
22
100
AcDbEntity
  8
0
  6
Continuous
 62
     7
100
AcDbCircle
 10
-284.7656860351563
 20
211.4147491455078
 30
0.0
 40
5.0
100
AcDbArc
 50
299.9999304360001
 51
0.0
  0
ARC
  5
2D1
330
22
100
AcDbEntity
  8
0
  6
Continuous
 62
     7
100
AcDbCircle
 10
-313.7656860351563
 20
188.8980865478515
 30
0.0
 40
3.0
100
AcDbArc
 50
120.0000761467306
 51
180.0000000000004
  0
ARC
  5
2D2
330
22
100
AcDbEntity
  8
0
  6
Continuous
 62
     7
100
AcDbCircle
 10
-305.7656860351563
 20
77.52799224853515
 30
0.0
 40
5.0
100
AcDbArc
 50
180.0000000000004
 51
270.0000000000005
  0
ARC
  5
2D3
330
22
100
AcDbEntity
  8
0
  6
Continuous
 62
     7
100
AcDbCircle
 10
-261.2656860351563
 20
69.52799224853515
 30
0.0
 40
0.5
100
AcDbArc
 50
270.0000000000005
 51
0.0
  0
ARC
  5
2D4
330
22
100
AcDbEntity
  8
0
  6
Continuous
 62
     7
100
AcDbCircle
 10
-262.7656860351563
 20
70.52799224853515
 30
0.0
 40
2.0
100
AcDbArc
 50
0.0
 51
90.00000000000019
  0
ARC
  5
2D5
330
22
100
AcDbEntity
  8
0
  6
Continuous
 62
     7
100
AcDbCircle
 10
-308.7656860351563
 20
68.02799224853515
 30
0.0
 40
1.0
100
AcDbArc
 50
90.00000000000019
 51
180.0000000000004
  0
ARC
  5
2D6
330
22
100
AcDbEntity
  8
0
  6
Continuous
 62
     7
100
AcDbCircle
 10
-311.7656860351563
 20
101.5279922485352
 30
0.0
 40
1.0
100
AcDbArc
 50
0.0
 51
90.00000000000019
  0
CIRCLE
  5
2D7
330
22
100
AcDbEntity
  8
0
  6
Continuous
 62
     7
100
AcDbCircle
 10
-379.5946960449219
 20
348.5190734863281
 30
0.0
 40
4.75
  0
ARC
  5
2D8
330
22
100
AcDbEntity
  8
0
  6
Continuous
 62
     7
100
AcDbCircle
 10
-366.2656860351563
 20
329.1190795898438
 30
0.0
 40
2.5
100
AcDbArc
 50
180.0000000000004
 51
0.0
  0
ARC
  5
2D9
330
22
100
AcDbEntity
  8
0
  6
Continuous
 62
     7
100
AcDbCircle
 10
-366.2656860351563
 20
319.6190795898438
 30
0.0
 40
2.5
100
AcDbArc
 50
0.0
 51
180.0000000000004
  0
ARC
  5
2DA
330
22
100
AcDbEntity
  8
0
  6
Continuous
 62
     7
100
AcDbCircle
 10
-337.7656860351563
 20
324.3690795898438
 30
0.0
 40
49.25
100
AcDbArc
 50
121.8649508861757
 51
129.0089463133936
  0
ARC
  5
2DB
330
22
100
AcDbEntity
  8
0
  6
Continuous
 62
     7
100
AcDbCircle
 10
-328.2656860351563
 20
329.1190795898438
 30
0.0
 40
2.5
100
AcDbArc
 50
180.0000000000004
 51
0.0
  0
ARC
  5
2DC
330
22
100
AcDbEntity
  8
0
  6
Continuous
 62
     7
100
AcDbCircle
 10
-337.7656860351563
 20
324.3690795898438
 30
0.0
 40
49.25
100
AcDbArc
 50
278.1712335599505
 51
284.1023483497917
  0
ARC
  5
2DD
330
22
100
AcDbEntity
  8
0
  6
Continuous
 62
     7
100
AcDbCircle
 10
-337.7656860351563
 20
324.3690795898438
 30
0.0
 40
49.25
100
AcDbArc
 50
75.89764299970269
 51
81.82876644005027
  0
ARC
  5
2DE
330
22
100
AcDbEntity
  8
0
  6
Continuous
 62
     7
100
AcDbCircle
 10
-328.2656860351563
 20
319.6190795898438
 30
0.0
 40
2.5
100
AcDbArc
 50
0.0
 51
180.0000000000004
  0
ARC
  5
2DF
330
22
100
AcDbEntity
  8
0
  6
Continuous
 62
     7
100
AcDbCircle
 10
-337.7656860351563
 20
324.3690795898438
 30
0.0
 40
49.25
100
AcDbArc
 50
214.6807828820469
 51
223.8784355606909
  0
ARC
  5
2E0
330
22
100
AcDbEntity
  8
0
  6
Continuous
 62
     7
100
AcDbCircle
 10
-375.7784118652344
 20
309.6095275878906
 30
0.0
 40
2.5
100
AcDbArc
 50
0.0
 51
180.0000000000004
  0
ARC
  5
2E1
330
22
100
AcDbEntity
  8
0
  6
Continuous
 62
     7
100
AcDbCircle
 10
-337.7656860351563
 20
324.3690795898438
 30
0.0
 40
49.25
100
AcDbArc
 50
230.9910760337424
 51
238.135067856585
  0
ARC
  5
2E2
330
22
100
AcDbEntity
  8
0
  6
Continuous
 62
     7
100
AcDbCircle
 10
-375.7784118652344
 20
319.1095275878906
 30
0.0
 40
2.5
100
AcDbArc
 50
180.0000000000004
 51
0.0
  0
ARC
  5
2E3
330
22
100
AcDbEntity
  8
0
  6
Continuous
 62
     7
100
AcDbCircle
 10
-337.7656860351563
 20
324.3690795898438
 30
0.0
 40
49.25
100
AcDbArc
 50
162.2235337066256
 51
180.0000000000004
  0
CIRCLE
  5
2E4
330
22
100
AcDbEntity
  8
0
  6
Continuous
 62
     7
100
AcDbCircle
 10
-379.5946960449219
 20
348.5190734863281
 30
0.0
 40
4.5
  0
ARC
  5
2E5
330
22
100
AcDbEntity
  8
0
  6
Continuous
 62
     7
100
AcDbCircle
 10
-401.7656860351562
 20
217.5279846191406
 30
0.0
 40
1.0
100
AcDbArc
 50
180.0000000000004
 51
270.0000000000005
  0
ARC
  5
2E6
330
22
100
AcDbEntity
  8
0
  6
Continuous
 62
     7
100
AcDbCircle
 10
-401.7656860351562
 20
219.5279846191406
 30
0.0
 40
1.0
100
AcDbArc
 50
90.00000000000019
 51
180.0000000000004
  0
CIRCLE
  5
2E7
330
22
100
AcDbEntity
  8
0
  6
Continuous
 62
     7
100
AcDbCircle
 10
-337.7656860351563
 20
276.069061279297
 30
0.0
 40
4.75
  0
CIRCLE
  5
2E8
330
22
100
AcDbEntity
  8
0
  6
Continuous
 62
     7
100
AcDbCircle
 10
-337.7656860351563
 20
276.069061279297
 30
0.0
 40
4.5
  0
CIRCLE
  5
2E9
330
22
100
AcDbEntity
  8
0
  6
Continuous
 62
     7
100
AcDbCircle
 10
-337.7656860351563
 20
276.069061279297
 30
0.0
 40
4.75
  0
ARC
  5
2EA
330
22
100
AcDbEntity
  8
0
  6
Continuous
 62
     7
100
AcDbCircle
 10
-375.7784118652344
 20
341.1095275878906
 30
0.0
 40
2.5
100
AcDbArc
 50
0.0
 51
180.0000000000004
  0
ARC
  5
2EB
330
22
100
AcDbEntity
  8
0
  6
Continuous
 62
     7
100
AcDbCircle
 10
-383.7656860351563
 20
338.9664306640625
 30
0.0
 40
1.0
100
AcDbArc
 50
0.0
 51
153.9674846476453
  0
ARC
  5
2EC
330
22
100
AcDbEntity
  8
0
  6
Continuous
 62
     7
100
AcDbCircle
 10
-337.7656860351563
 20
324.3690795898438
 30
0.0
 40
49.25
100
AcDbArc
 50
180.0000000000004
 51
197.7765001014003
  0
ARC
  5
2ED
330
22
100
AcDbEntity
  8
0
  6
Continuous
 62
     7
100
AcDbCircle
 10
-383.7656860351563
 20
309.7716979980469
 30
0.0
 40
1.0
100
AcDbArc
 50
206.0325153523554
 51
0.0
  0
CIRCLE
  5
2EE
330
22
100
AcDbEntity
  8
0
  6
Continuous
 62
     7
100
AcDbCircle
 10
-379.5946960449219
 20
348.5190734863281
 30
0.0
 40
4.5
  0
CIRCLE
  5
2EF
330
22
100
AcDbEntity
  8
0
  6
Continuous
 62
     7
100
AcDbCircle
 10
-379.5946960449219
 20
348.5190734863281
 30
0.0
 40
4.75
  0
ARC
  5
2F0
330
22
100
AcDbEntity
  8
0
  6
Continuous
 62
     7
100
AcDbCircle
 10
-337.7656860351563
 20
339.5690612792969
 30
0.0
 40
2.5
100
AcDbArc
 50
0.0
 51
90.00000000000019
  0
ARC
  5
2F1
330
22
100
AcDbEntity
  8
0
  6
Continuous
 62
     7
100
AcDbCircle
 10
-337.7656860351563
 20
339.5690612792969
 30
0.0
 40
2.5
100
AcDbArc
 50
90.00000000000019
 51
180.0000000000004
  0
ARC
  5
2F2
330
22
100
AcDbEntity
  8
0
  6
Continuous
 62
     7
100
AcDbCircle
 10
-337.7656860351563
 20
324.3690795898438
 30
0.0
 40
49.25
100
AcDbArc
 50
109.5583342932316
 51
115.8838594473747
  0
ARC
  5
2F3
330
22
100
AcDbEntity
  8
0
  6
Continuous
 62
     7
100
AcDbCircle
 10
-356.7784118652344
 20
344.9937744140625
 30
0.0
 40
2.5
100
AcDbArc
 50
180.0000000000004
 51
0.0
  0
ARC
  5
2F4
330
22
100
AcDbEntity
  8
0
  6
CENTER
 62
     7
100
AcDbCircle
 10
-337.7656860351563
 20
336.5690612792969
 30
0.0
 40
60.5
100
AcDbArc
 50
263.3690062345514
 51
276.5790305083545
  0
ARC
  5
2F5
330
22
100
AcDbEntity
  8
0
  6
CENTER
 62
     7
100
AcDbCircle
 10
-337.7656860351563
 20
336.5690612792969
 30
0.0
 40
60.5
100
AcDbArc
 50
263.3690062345514
 51
276.5790305083545
  0
CIRCLE
  5
2F6
330
22
100
AcDbEntity
  8
0
  6
Continuous
 62
     7
100
AcDbCircle
 10
-337.7656860351563
 20
276.069061279297
 30
0.0
 40
4.5
  0
ARC
  5
2F7
330
22
100
AcDbEntity
  8
0
  6
Continuous
 62
     7
100
AcDbCircle
 10
-337.7656860351563
 20
283.9822998046875
 30
0.0
 40
2.5
100
AcDbArc
 50
180.0000000000004
 51
270.0000000000005
  0
ARC
  5
2F8
330
22
100
AcDbEntity
  8
0
  6
Continuous
 62
     7
100
AcDbCircle
 10
-337.7656860351563
 20
283.9822998046875
 30
0.0
 40
2.5
100
AcDbArc
 50
270.0000000000005
 51
0.0
  0
ARC
  5
2F9
330
22
100
AcDbEntity
  8
0
  6
Continuous
 62
     7
100
AcDbCircle
 10
-337.7656860351563
 20
324.3690795898438
 30
0.0
 40
49.25
100
AcDbArc
 50
255.8976516502096
 51
261.828766440051
  0
ARC
  5
2FA
330
22
100
AcDbEntity
  8
0
  6
Continuous
 62
     7
100
AcDbCircle
 10
-337.7656860351563
 20
349.0690612792969
 30
0.0
 40
2.5
100
AcDbArc
 50
180.0000000000004
 51
270.0000000000005
  0
ARC
  5
2FB
330
22
100
AcDbEntity
  8
0
  6
Continuous
 62
     7
100
AcDbCircle
 10
-337.7656860351563
 20
349.0690612792969
 30
0.0
 40
2.5
100
AcDbArc
 50
270.0000000000005
 51
0.0
  0
ARC
  5
2FC
330
22
100
AcDbEntity
  8
0
  6
Continuous
 62
     7
100
AcDbCircle
 10
-337.7656860351563
 20
324.3690795898438
 30
0.0
 40
49.25
100
AcDbArc
 50
90.00000000000019
 51
92.90966653271715
  0
ARC
  5
2FD
330
22
100
AcDbEntity
  8
0
  6
Continuous
 62
     7
100
AcDbCircle
 10
-337.7656860351563
 20
324.3690795898438
 30
0.0
 40
49.25
100
AcDbArc
 50
87.09033346728286
 51
90.00000000000019
  0
ARC
  5
2FE
330
22
100
AcDbEntity
  8
0
  6
Continuous
 62
     7
100
AcDbCircle
 10
-356.7784118652344
 20
313.2315673828125
 30
0.0
 40
2.5
100
AcDbArc
 50
180.0000000000004
 51
0.0
  0
ARC
  5
2FF
330
22
100
AcDbEntity
  8
0
  6
Continuous
 62
     7
100
AcDbCircle
 10
-347.2656860351563
 20
319.6190795898438
 30
0.0
 40
2.5
100
AcDbArc
 50
0.0
 51
180.0000000000004
  0
ARC
  5
300
330
22
100
AcDbEntity
  8
0
  6
Continuous
 62
     7
100
AcDbCircle
 10
-337.7656860351563
 20
299.6690673828125
 30
0.0
 40
2.5
100
AcDbArc
 50
90.00000000000019
 51
180.0000000000004
  0
ARC
  5
301
330
22
100
AcDbEntity
  8
0
  6
Continuous
 62
     7
100
AcDbCircle
 10
-337.7656860351563
 20
299.6690673828125
 30
0.0
 40
2.5
100
AcDbArc
 50
0.0
 51
90.00000000000019
  0
ARC
  5
302
330
22
100
AcDbEntity
  8
0
  6
Continuous
 62
     7
100
AcDbCircle
 10
-347.2656860351563
 20
329.1190795898438
 30
0.0
 40
2.5
100
AcDbArc
 50
180.0000000000004
 51
0.0
  0
ARC
  5
303
330
22
100
AcDbEntity
  8
0
  6
Continuous
 62
     7
100
AcDbCircle
 10
-334.2656860351563
 20
220.0279846191406
 30
0.0
 40
0.5
100
AcDbArc
 50
90.00000000000019
 51
180.0000000000004
  0
ARC
  5
304
330
22
100
AcDbEntity
  8
0
  6
Continuous
 62
     7
100
AcDbCircle
 10
-334.2656860351563
 20
218.0279846191406
 30
0.0
 40
0.5
100
AcDbArc
 50
180.0000000000004
 51
270.0000000000005
  0
ARC
  5
305
330
22
100
AcDbEntity
  8
0
  6
Continuous
 62
     7
100
AcDbCircle
 10
-337.7656860351563
 20
324.3690795898438
 30
0.0
 40
49.25
100
AcDbArc
 50
98.17123355994976
 51
104.1023570002973
  0
ARC
  5
306
330
22
100
AcDbEntity
  8
0
  6
Continuous
 62
     7
100
AcDbCircle
 10
-366.7656860351563
 20
68.02799224853515
 30
0.0
 40
1.0
100
AcDbArc
 50
0.0
 51
90.00000000000019
  0
ARC
  5
307
330
22
100
AcDbEntity
  8
0
  6
Continuous
 62
     7
100
AcDbCircle
 10
-369.7656860351563
 20
77.52799224853515
 30
0.0
 40
5.0
100
AcDbArc
 50
270.0000000000005
 51
0.0
  0
ARC
  5
308
330
22
100
AcDbEntity
  8
0
  6
Continuous
 62
     7
100
AcDbCircle
 10
-363.7656860351563
 20
101.5279922485352
 30
0.0
 40
1.0
100
AcDbArc
 50
90.00000000000019
 51
180.0000000000004
  0
ARC
  5
309
330
22
100
AcDbEntity
  8
0
  6
Continuous
 62
     7
100
AcDbCircle
 10
-357.2339172363281
 20
188.3661193847656
 30
0.0
 40
3.998277664184569
100
AcDbArc
 50
45.68171989303571
 51
91.90881734047898
  0
ARC
  5
30A
330
22
100
AcDbEntity
  8
0
  6
Continuous
 62
     7
100
AcDbCircle
 10
-357.3131408691406
 20
191.1712493896484
 30
0.0
 40
1.19215989112854
100
AcDbArc
 50
87.40599579785669
 51
177.3311046905614
  0
ARC
  5
30B
330
22
100
AcDbEntity
  8
0
  6
Continuous
 62
     7
100
AcDbCircle
 10
-390.7656860351563
 20
211.4147491455078
 30
0.0
 40
5.0
100
AcDbArc
 50
180.0000000000004
 51
240.0000695640013
  0
ARC
  5
30C
330
22
100
AcDbEntity
  8
0
  6
Continuous
 62
     7
100
AcDbCircle
 10
-370.2656860351563
 20
188.0320587158203
 30
0.0
 40
5.0
100
AcDbArc
 50
0.0
 51
59.99998213771593
  0
ARC
  5
30D
330
22
100
AcDbEntity
  8
0
  6
Continuous
 62
     7
100
AcDbCircle
 10
-356.7784118652344
 20
335.5065612792969
 30
0.0
 40
2.5
100
AcDbArc
 50
0.0
 51
180.0000000000004
  0
ARC
  5
30E
330
22
100
AcDbEntity
  8
0
  6
Continuous
 62
     7
100
AcDbCircle
 10
-337.7656860351563
 20
309.1690673828125
 30
0.0
 40
2.5
100
AcDbArc
 50
180.0000000000004
 51
270.0000000000005
  0
ARC
  5
30F
330
22
100
AcDbEntity
  8
0
  6
Continuous
 62
     7
100
AcDbCircle
 10
-337.7656860351563
 20
324.3690795898438
 30
0.0
 40
49.25
100
AcDbArc
 50
244.1161560514491
 51
250.4416657067692
  0
ARC
  5
310
330
22
100
AcDbEntity
  8
0
  6
Continuous
 62
     7
100
AcDbCircle
 10
-337.7656860351563
 20
309.1690673828125
 30
0.0
 40
2.5
100
AcDbArc
 50
270.0000000000005
 51
0.0
  0
ARC
  5
311
330
22
100
AcDbEntity
  8
0
  6
Continuous
 62
     7
100
AcDbCircle
 10
-356.7784118652344
 20
303.7443542480469
 30
0.0
 40
2.5
100
AcDbArc
 50
0.0
 51
180.0000000000004
  0
ARC
  5
312
330
22
100
AcDbEntity
  8
0
  6
Continuous
 62
     7
100
AcDbCircle
 10
-377.7656860351563
 20
67.46749114990234
 30
0.0
 40
2.0
100
AcDbArc
 50
180.0000000000004
 51
248.8246957417053
  0
ARC
  5
313
330
22
100
AcDbEntity
  8
0
  6
Continuous
 62
     7
100
AcDbCircle
 10
-414.2656860351562
 20
69.52799224853515
 30
0.0
 40
0.5
100
AcDbArc
 50
180.0000000000004
 51
270.0000000000005
  0
ARC
  5
314
330
22
100
AcDbEntity
  8
0
  6
Continuous
 62
     7
100
AcDbCircle
 10
-412.7656860351563
 20
70.52799224853515
 30
0.0
 40
2.0
100
AcDbArc
 50
90.00000000000019
 51
180.0000000000004
  0
ARC
  5
315
330
22
100
AcDbEntity
  8
0
  6
Continuous
 62
     7
100
AcDbCircle
 10
-364.7656860351563
 20
45.52799224853515
 30
0.0
 40
1.0
100
AcDbArc
 50
180.0000000000004
 51
270.0000000000005
  0
CIRCLE
  5
316
330
22
100
AcDbEntity
  8
0
  6
Continuous
 62
     7
100
AcDbCircle
 10
-337.7656860351563
 20
324.3690795898438
 30
0.0
 40
65.0
  0
ARC
  5
317
330
22
100
AcDbEntity
  8
0
  6
Continuous
 62
     7
100
AcDbCircle
 10
-357.1898498535156
 20
169.2410278320313
 30
0.0
 40
1.345117211341857
100
AcDbArc
 50
102.3190073349217
 51
167.6822626463183
  0
ARC
  5
318
330
22
100
AcDbEntity
  8
0
  6
Continuous
 62
     7
100
AcDbCircle
 10
-357.0414733886719
 20
166.8409423828125
 30
0.0
 40
3.739664077758788
100
AcDbArc
 50
45.93304552670107
 51
96.68541689680143
  0
ARC
  5
319
330
22
100
AcDbEntity
  8
0
  6
Continuous
 62
     7
100
AcDbCircle
 10
-383.5452575683594
 20
52.5478286743164
 30
0.0
 40
14.0
100
AcDbArc
 50
16.26083417927308
 51
68.82464695207374
  0
ARC
  5
31A
330
22
100
AcDbEntity
  8
0
  6
Continuous
 62
     7
100
AcDbCircle
 10
-368.185302734375
 20
57.02799224853515
 30
0.0
 40
2.0
100
AcDbArc
 50
196.2606593214724
 51
270.0000000000005
  0
CIRCLE
  5
31B
330
22
100
AcDbEntity
  8
0
  6
DASHED
 62
     7
100
AcDbCircle
 10
-337.7656860351563
 20
324.3690795898438
 30
0.0
 40
21.0
  0
CIRCLE
  5
31C
330
22
100
AcDbEntity
  8
0
  6
Continuous
 62
     7
100
AcDbCircle
 10
-337.7656860351563
 20
324.3690795898438
 30
0.0
 40
77.0
  0
CIRCLE
  5
31D
330
22
100
AcDbEntity
  8
0
  6
Continuous
 62
     7
100
AcDbCircle
 10
-337.7656860351563
 20
324.3690795898438
 30
0.0
 40
54.5
  0
CIRCLE
  5
31E
330
22
100
AcDbEntity
  8
0
  6
Continuous
 62
     7
100
AcDbCircle
 10
-337.7656860351563
 20
324.3690795898438
 30
0.0
 40
55.0
  0
TEXT
  5
31F
330
22
100
AcDbEntity
  8
0
  6
Continuous
 62
     7
100
AcDbText
 10
-303.4150018692017
 20
12.78256225585938
 30
0.0
 40
7.0
  1
DL-CS40
 41
1.02406786948659
100
AcDbText
  0
DIMENSION
  5
320
330
22
100
AcDbEntity
  8
0
  6
Continuous
 62
     7
100
AcDbDimension
  2
*D1
 10
-209.2112274169922
 20
69.02799224853516
 30
0.0
 11
-209.2112274169922
 21
58.2107048034668
 31
0.0
 71
     5
 42
-1.0
  3
DIMSTYLE1
100
AcDbAlignedDimension
 13
-206.9252319335938
 23
72.52799224853515
 33
0.0
 14
-261.2656860351563
 24
69.02799224853516
 34
0.0
 50
90.0
100
AcDbRotatedDimension
  0
DIMENSION
  5
321
330
22
100
AcDbEntity
  8
0
  6
Continuous
 62
     7
100
AcDbDimension
  2
*D2
 10
-224.3419036865234
 20
102.5279922485352
 30
0.0
 11
-224.3419036865234
 21
87.52799224853516
 31
0.0
 71
     5
 42
-1.0
  3
DIMSTYLE2
100
AcDbAlignedDimension
 13
-206.9252319335938
 23
72.52799224853515
 33
0.0
 14
-314.7656860351563
 24
102.5279922485352
 34
0.0
 50
90.0
100
AcDbRotatedDimension
  0
DIMENSION
  5
322
330
22
100
AcDbEntity
  8
0
  6
Continuous
 62
     7
100
AcDbDimension
  2
*D3
 10
-437.1846923828124
 20
102.5279922485352
 30
0.0
 11
-437.1846923828124
 21
73.52799224853516
 31
0.0
 71
     5
 42
-1.0
  3
DIMSTYLE3
100
AcDbAlignedDimension
 13
-364.7656860351563
 23
44.52799224853515
 33
0.0
 14
-363.7656860351563
 24
102.5279922485352
 34
0.0
 50
90.0
100
AcDbRotatedDimension
  0
DIMENSION
  5
323
330
22
100
AcDbEntity
  8
0
  6
Continuous
 62
     7
100
AcDbDimension
  2
*D4
 10
-330.4672546386719
 20
182.5279846191406
 30
0.0
 11
-330.4672546386719
 21
132.5279846191406
 31
0.0
 71
     5
 42
-1.0
  3
DIMSTYLE4
100
AcDbAlignedDimension
 13
-337.7656860351563
 23
82.52799224853516
 33
0.0
 14
-337.7656860351563
 24
182.5279846191406
 34
0.0
 50
90.0
100
AcDbRotatedDimension
  0
DIMENSION
  5
324
330
22
100
AcDbEntity
  8
0
  6
Continuous
 62
     7
100
AcDbDimension
  2
*D5
 10
-324.4164733886719
 20
132.5279846191406
 30
0.0
 11
-324.4164733886719
 21
107.5279922485352
 31
0.0
 71
     5
 42
-1.0
  3
DIMSTYLE5
100
AcDbAlignedDimension
 13
-321.3697204589844
 23
82.52799224853516
 33
0.0
 14
-315.2656860351563
 24
132.5279846191406
 34
0.0
 50
90.0
100
AcDbRotatedDimension
  0
DIMENSION
  5
325
330
22
100
AcDbEntity
  8
0
  6
Continuous
 62
     7
100
AcDbDimension
  2
*D6
 10
-379.7656860351563
 20
48.69701766967772
 30
0.0
 11
-372.7656860351563
 21
48.69701766967772
 31
0.0
 71
     5
 42
-1.0
  3
DIMSTYLE6
100
AcDbAlignedDimension
 13
-365.7656860351563
 23
45.52799224853515
 33
0.0
 14
-379.7656860351563
 24
67.46749114990234
 34
0.0
100
AcDbRotatedDimension
  0
DIMENSION
  5
326
330
22
100
AcDbEntity
  8
0
  6
Continuous
 62
     7
100
AcDbDimension
  2
*D7
 10
-392.4324035644531
 20
55.02799224853515
 30
0.0
 11
-392.4324035644531
 21
62.02799224853515
 31
0.0
 71
     5
 42
-1.0
  3
DIMSTYLE7
100
AcDbAlignedDimension
 13
-414.2656860351562
 23
69.02799224853516
 33
0.0
 14
-368.185302734375
 24
55.02799224853515
 34
0.0
 50
90.0
100
AcDbRotatedDimension
  0
DIMENSION
  5
327
330
22
100
AcDbEntity
  8
0
  6
Continuous
 62
     7
100
AcDbDimension
  2
*D8
 10
-309.7656860351563
 20
23.15841674804688
 30
0.0
 11
-337.7656860351563
 21
23.15841674804688
 31
0.0
 71
     5
 42
-1.0
  3
DIMSTYLE8
100
AcDbAlignedDimension
 13
-365.7656860351563
 23
45.52799224853515
 33
0.0
 14
-309.7656860351563
 24
45.52799224853515
 34
0.0
100
AcDbRotatedDimension
  0
INSERT
  5
328
330
22
100
AcDbEntity
  8
0
  6
Continuous
 62
     7
100
AcDbBlockReference
  2
KOZU0001
 10
-313.64892578125
 20
56.02880859375
 30
0.0
  0
DIMENSION
  5
329
330
22
100
AcDbEntity
  8
0
  6
Continuous
 62
     7
100
AcDbDimension
  2
*D9
 10
-209.2112274169922
 20
220.5279846191406
 30
0.0
 11
-209.2112274169922
 21
146.5279846191406
 31
0.0
 71
     5
 42
-1.0
  3
DIMSTYLE9
100
AcDbAlignedDimension
 13
-262.7656860351563
 23
72.52799224853515
 33
0.0
 14
-273.7656860351563
 24
220.5279846191406
 34
0.0
 50
90.0
100
AcDbRotatedDimension
  0
DIMENSION
  5
32A
330
22
100
AcDbEntity
  8
0
  6
Continuous
 62
     7
100
AcDbDimension
  2
*D10
 10
-224.3419036865234
 20
169.5279846191406
 30
0.0
 11
-224.3419036865234
 21
195.0279846191406
 31
0.0
 71
     5
 42
-1.0
  3
DIMSTYLE10
100
AcDbAlignedDimension
 13
-206.9252319335938
 23
220.5279846191406
 33
0.0
 14
-311.2656860351563
 24
169.5279846191406
 34
0.0
 50
90.0
100
AcDbRotatedDimension
  0
INSERT
  5
32B
330
22
100
AcDbEntity
  8
0
  6
Continuous
 62
     7
100
AcDbBlockReference
  2
KOZU0002
 10
-372.1277160644531
 20
65.87813568115234
 30
0.0
  0
DIMENSION
  5
32C
330
22
100
AcDbEntity
  8
0
  6
Continuous
 62
     7
100
AcDbDimension
  2
*D11
 10
-395.5138420668469
 20
273.4362760646153
 30
0.0
 11
-265.4184875488281
 21
388.1779479980469
 31
0.0
 70
     3
 71
     5
 42
-1.0
  3
DIMSTYLE11
100
AcDbDiametricDimension
 15
-280.0175300034657
 25
375.3018831150722
 35
0.0
 40
0.0
  0
DIMENSION
  5
32D
330
22
100
AcDbEntity
  8
0
  6
Continuous
 62
     7
100
AcDbDimension
  2
*D12
 10
-398.070916318589
 20
300.1146119506203
 30
0.0
 11
-242.9946136474609
 21
362.4855346679688
 31
0.0
 70
     3
 71
     5
 42
-1.0
  3
DIMSTYLE12
100
AcDbDiametricDimension
 15
-277.4604557517234
 25
348.6235472290671
 35
0.0
 40
0.0
  0
DIMENSION
  5
32E
330
22
100
AcDbEntity
  8
0
  6
Continuous
 62
     7
100
AcDbDimension
  2
*D13
 10
-391.766404533907
 20
317.0088892649487
 30
0.0
 11
-239.4641723632813
 21
337.7673645019531
 31
0.0
 70
     3
 71
     5
 42
-1.0
  3
DIMSTYLE13
100
AcDbDiametricDimension
 15
-283.7649675364055
 25
331.7292699147388
 35
0.0
 40
0.0
  0
ENDSEC
  0
SECTION
  2
OBJECTS
  0
DICTIONARY
  5
C
330
0
100
AcDbDictionary
281
     1
  3
ACAD_COLOR
350
1B
  3
ACAD_GROUP
350
D
  3
ACAD_LAYOUT
350
19
  3
ACAD_MATERIAL
350
1A
  3
ACAD_MLINESTYLE
350
16
  3
ACAD_PLOTSETTINGS
350
18
  3
ACAD_PLOTSTYLENAME
350
E
  3
ACAD_TABLESTYLE
350
1C
  3
AcDbVariableDictionary
350
33A
  0
DICTIONARY
  5
1B
102
{ACAD_REACTORS
330
C
102
}
330
C
100
AcDbDictionary
281
     1
  0
DICTIONARY
  5
D
102
{ACAD_REACTORS
330
C
102
}
330
C
100
AcDbDictionary
281
     1
  0
DICTIONARY
  5
19
102
{ACAD_REACTORS
330
C
102
}
330
C
100
AcDbDictionary
281
     1
  3
Model
350
25
  3
レイアウト1
350
21
  0
DICTIONARY
  5
1A
102
{ACAD_REACTORS
330
C
102
}
330
C
100
AcDbDictionary
281
     1
  0
DICTIONARY
  5
16
102
{ACAD_REACTORS
330
C
102
}
330
C
100
AcDbDictionary
281
     1
  3
Standard
350
17
  0
DICTIONARY
  5
18
102
{ACAD_REACTORS
330
C
102
}
330
C
100
AcDbDictionary
281
     1
  0
ACDBDICTIONARYWDFLT
  5
E
102
{ACAD_REACTORS
330
C
102
}
330
C
100
AcDbDictionary
281
     1
  3
Normal
350
F
100
AcDbDictionaryWithDefault
340
F
  0
DICTIONARY
  5
1C
102
{ACAD_REACTORS
330
C
102
}
330
C
100
AcDbDictionary
281
     1
  3
Standard
350
1D
  0
DICTIONARY
  5
33A
102
{ACAD_REACTORS
330
C
102
}
330
C
100
AcDbDictionary
281
     1
  3
CTABLESTYLE
350
33B
  0
LAYOUT
  5
25
102
{ACAD_REACTORS
330
19
102
}
330
19
100
AcDbPlotSettings
  1

  2
PDF reDirect v2
  4
User66
  6

 40
3.174999952316284
 41
3.174999952316284
 42
3.17498779296875
 43
3.17498779296875
 44
420.0
 45
594.0
 46
0.0
 47
0.0
 48
0.0
 49
0.0
140
0.0
141
0.0
142
1.0
143
1.0
 70
 11952
 72
     1
 73
     1
 74
     2
  7
C:\Users\ck\AppData\Roaming\Autodesk\AutoCAD 2005\R16.1\jpn\Plot Styles\black.ctb
 75
    16
147
1.0
 76
     0
 77
     2
 78
   300
148
592.0
149
0.0
100
AcDbLayout
  1
Model
 70
     1
 71
     0
 10
0.0
 20
0.0
 11
12.0
 21
9.0
 12
0.0
 22
0.0
 32
0.0
 14
0.0
 24
0.0
 34
0.0
 15
0.0
 25
0.0
 35
0.0
146
0.0
 13
0.0
 23
0.0
 33
0.0
 16
1.0
 26
0.0
 36
0.0
 17
0.0
 27
1.0
 37
0.0
 76
     0
330
22
1001
ACAD_PSEXT
1000
PDF reDirect v2
1000
PDF reDirect Pro
1000
PDF_REDIRECT_PORT:
1000
PDF reDirect provided by EXP Systems
1070
     0
  0
LAYOUT
  5
21
102
{ACAD_REACTORS
330
19
102
}
330
19
100
AcDbPlotSettings
  1

  2
PDF reDirect v2
  4

  6

 40
0.0
 41
0.0
 42
0.0
 43
0.0
 44
0.0
 45
0.0
 46
0.0
 47
0.0
 48
0.0
 49
0.0
140
0.0
141
0.0
142
1.0
143
1.0
 70
   688
 72
     0
 73
     0
 74
     5
  7
C:\Users\ck\AppData\Roaming\Autodesk\AutoCAD 2005\R16.1\jpn\Plot Styles\black.ctb
 75
    16
147
1.0
 76
     0
 77
     2
 78
   300
148
0.0
149
0.0
100
AcDbLayout
  1
レイアウト1
 70
     1
 71
     1
 10
-592.0
 20
0.0
 11
0.0
 21
418.0
 12
0.0
 22
0.0
 32
0.0
 14
1.000000000000000E+20
 24
1.000000000000000E+20
 34
1.000000000000000E+20
 15
-1.000000000000000E+20
 25
-1.000000000000000E+20
 35
-1.000000000000000E+20
146
0.0
 13
0.0
 23
0.0
 33
0.0
 16
1.0
 26
0.0
 36
0.0
 17
0.0
 27
1.0
 37
0.0
 76
     0
330
1E
  0
MLINESTYLE
  5
17
102
{ACAD_REACTORS
330
16
102
}
330
16
100
AcDbMlineStyle
  2
STANDARD
 70
     0
  3

 62
   256
 51
90.0
 52
90.0
 71
     2
 49
0.5
 62
   256
  6
BYLAYER
 49
-0.5
 62
   256
  6
BYLAYER
  0
ACDBPLACEHOLDER
  5
F
102
{ACAD_REACTORS
330
E
102
}
330
E
  0
TABLESTYLE
  5
1D
102
{ACAD_REACTORS
330
1C
102
}
330
1C
100
AcDbTableStyle
  3
Standard
 70
     0
 71
     0
 40
0.06
 41
0.06
280
     0
281
     0
  7
STANDARD
140
0.18
170
     2
 62
     0
 63
     7
283
     0
274
    -2
284
     1
 64
     0
275
    -2
285
     1
 65
     0
276
    -2
286
     1
 66
     0
277
    -2
287
     1
 67
     0
278
    -2
288
     1
 68
     0
279
    -2
289
     1
 69
     0
  7
STANDARD
140
0.25
170
     5
 62
     0
 63
     7
283
     0
274
    -2
284
     1
 64
     0
275
    -2
285
     1
 65
     0
276
    -2
286
     1
 66
     0
277
    -2
287
     1
 67
     0
278
    -2
288
     1
 68
     0
279
    -2
289
     1
 69
     0
  7
STANDARD
140
0.18
170
     5
 62
     0
 63
     7
283
     0
274
    -2
284
     1
 64
     0
275
    -2
285
     1
 65
     0
276
    -2
286
     1
 66
     0
277
    -2
287
     1
 67
     0
278
    -2
288
     1
 68
     0
279
    -2
289
     1
 69
     0
  0
DICTIONARYVAR
  5
33B
102
{ACAD_REACTORS
330
33A
102
}
330
33A
100
DictionaryVariables
280
     0
  1
STANDARD
  0
ENDSEC
  0
EOF
