  0
SECTION
  2
HEADER
  9
$ACADVER
  1
AC1018
  9
$ACADMAINTVER
 70
    39
  9
$DWGCODEPAGE
  3
ANSI_932
  9
$INSBASE
 10
0.0
 20
0.0
 30
0.0
  9
$EXTMIN
 10
-289.4856861271961
 20
46.89808729162677
 30
-0.0015258207003583
  9
$EXTMAX
 10
-68.067381912688
 20
280.810364442191
 30
0.0000000349246037
  9
$LIMMIN
 10
-423.0
 20
-2.0
  9
$LIMMAX
 10
-5.0
 20
293.0
  9
$ORTHOMODE
 70
     0
  9
$REGENMODE
 70
     1
  9
$FILLMODE
 70
     1
  9
$QTEXTMODE
 70
     0
  9
$MIRRTEXT
 70
     0
  9
$LTSCALE
 40
1.0
  9
$ATTMODE
 70
     1
  9
$TEXTSIZE
 40
0.2
  9
$TRACEWID
 40
0.05
  9
$TEXTSTYLE
  7
STANDARD
  9
$CLAYER
  8
0
  9
$CELTYPE
  6
CONTINUOUS
  9
$CECOLOR
 62
   256
  9
$CELTSCALE
 40
1.0
  9
$DISPSILH
 70
     0
  9
$DIMSCALE
 40
1.0
  9
$DIMASZ
 40
1.0
  9
$DIMEXO
 40
2.54
  9
$DIMDLI
 40
0.38
  9
$DIMRND
 40
0.0
  9
$DIMDLE
 40
0.0
  9
$DIMEXE
 40
2.54
  9
$DIMTP
 40
0.0
  9
$DIMTM
 40
0.0
  9
$DIMTXT
 40
3.0
  9
$DIMCEN
 40
0.09
  9
$DIMTSZ
 40
0.0
  9
$DIMTOL
 70
     0
  9
$DIMLIM
 70
     0
  9
$DIMTIH
 70
     0
  9
$DIMTOH
 70
     0
  9
$DIMSE1
 70
     0
  9
$DIMSE2
 70
     0
  9
$DIMTAD
 70
     1
  9
$DIMZIN
 70
     0
  9
$DIMBLK
  1

  9
$DIMASO
 70
     1
  9
$DIMSHO
 70
     0
  9
$DIMPOST
  1

  9
$DIMAPOST
  1

  9
$DIMALT
 70
     0
  9
$DIMALTD
 70
     2
  9
$DIMALTF
 40
25.4
  9
$DIMLFAC
 40
1.0
  9
$DIMTOFL
 70
     0
  9
$DIMTVP
 40
1.0
  9
$DIMTIX
 70
     0
  9
$DIMSOXD
 70
     0
  9
$DIMSAH
 70
     1
  9
$DIMBLK1
  1

  9
$DIMBLK2
  1

  9
$DIMSTYLE
  2
DIMSTYLE1
  9
$DIMCLRD
 70
     0
  9
$DIMCLRE
 70
     0
  9
$DIMCLRT
 70
     0
  9
$DIMTFAC
 40
1.0
  9
$DIMGAP
 40
1.5
  9
$DIMJUST
 70
     0
  9
$DIMSD1
 70
     0
  9
$DIMSD2
 70
     0
  9
$DIMTOLJ
 70
     1
  9
$DIMTZIN
 70
     0
  9
$DIMALTZ
 70
     0
  9
$DIMALTTZ
 70
     0
  9
$DIMUPT
 70
     0
  9
$DIMDEC
 70
     4
  9
$DIMTDEC
 70
     4
  9
$DIMALTU
 70
     2
  9
$DIMALTTD
 70
     2
  9
$DIMTXSTY
  7
STANDARD
  9
$DIMAUNIT
 70
     0
  9
$DIMADEC
 70
     0
  9
$DIMALTRND
 40
0.0
  9
$DIMAZIN
 70
     0
  9
$DIMDSEP
 70
    46
  9
$DIMATFIT
 70
     3
  9
$DIMFRAC
 70
     0
  9
$DIMLDRBLK
  1

  9
$DIMLUNIT
 70
     2
  9
$DIMLWD
 70
    -2
  9
$DIMLWE
 70
    -2
  9
$DIMTMOVE
 70
     0
  9
$LUNITS
 70
     2
  9
$LUPREC
 70
     4
  9
$SKETCHINC
 40
0.1
  9
$FILLETRAD
 40
0.0
  9
$AUNITS
 70
     0
  9
$AUPREC
 70
     0
  9
$MENU
  1
.
  9
$ELEVATION
 40
0.0
  9
$PELEVATION
 40
0.0
  9
$THICKNESS
 40
0.0
  9
$LIMCHECK
 70
     0
  9
$CHAMFERA
 40
0.0
  9
$CHAMFERB
 40
0.0
  9
$CHAMFERC
 40
0.0
  9
$CHAMFERD
 40
0.0
  9
$SKPOLY
 70
     0
  9
$TDCREATE
 40
2457842.842895104
  9
$TDUCREATE
 40
2457842.467895104
  9
$TDUPDATE
 40
2457842.843504294
  9
$TDUUPDATE
 40
2457842.468504294
  9
$TDINDWG
 40
0.0006103472
  9
$TDUSRTIMER
 40
0.0006103472
  9
$USRTIMER
 70
     1
  9
$ANGBASE
 50
0.0
  9
$ANGDIR
 70
     0
  9
$PDMODE
 70
     0
  9
$PDSIZE
 40
0.0
  9
$PLINEWID
 40
0.0
  9
$SPLFRAME
 70
     0
  9
$SPLINETYPE
 70
     6
  9
$SPLINESEGS
 70
     8
  9
$HANDSEED
  5
221
  9
$SURFTAB1
 70
     6
  9
$SURFTAB2
 70
     6
  9
$SURFTYPE
 70
     6
  9
$SURFU
 70
     6
  9
$SURFV
 70
     6
  9
$UCSBASE
  2

  9
$UCSNAME
  2

  9
$UCSORG
 10
0.0
 20
0.0
 30
0.0
  9
$UCSXDIR
 10
1.0
 20
0.0
 30
0.0
  9
$UCSYDIR
 10
0.0
 20
1.0
 30
0.0
  9
$UCSORTHOREF
  2

  9
$UCSORTHOVIEW
 70
     0
  9
$UCSORGTOP
 10
0.0
 20
0.0
 30
0.0
  9
$UCSORGBOTTOM
 10
0.0
 20
0.0
 30
0.0
  9
$UCSORGLEFT
 10
0.0
 20
0.0
 30
0.0
  9
$UCSORGRIGHT
 10
0.0
 20
0.0
 30
0.0
  9
$UCSORGFRONT
 10
0.0
 20
0.0
 30
0.0
  9
$UCSORGBACK
 10
0.0
 20
0.0
 30
0.0
  9
$PUCSBASE
  2

  9
$PUCSNAME
  2

  9
$PUCSORG
 10
0.0
 20
0.0
 30
0.0
  9
$PUCSXDIR
 10
1.0
 20
0.0
 30
0.0
  9
$PUCSYDIR
 10
0.0
 20
1.0
 30
0.0
  9
$PUCSORTHOREF
  2

  9
$PUCSORTHOVIEW
 70
     0
  9
$PUCSORGTOP
 10
0.0
 20
0.0
 30
0.0
  9
$PUCSORGBOTTOM
 10
0.0
 20
0.0
 30
0.0
  9
$PUCSORGLEFT
 10
0.0
 20
0.0
 30
0.0
  9
$PUCSORGRIGHT
 10
0.0
 20
0.0
 30
0.0
  9
$PUCSORGFRONT
 10
0.0
 20
0.0
 30
0.0
  9
$PUCSORGBACK
 10
0.0
 20
0.0
 30
0.0
  9
$USERI1
 70
     0
  9
$USERI2
 70
     0
  9
$USERI3
 70
     0
  9
$USERI4
 70
     0
  9
$USERI5
 70
     0
  9
$USERR1
 40
0.0
  9
$USERR2
 40
0.0
  9
$USERR3
 40
0.0
  9
$USERR4
 40
0.0
  9
$USERR5
 40
0.0
  9
$WORLDVIEW
 70
     1
  9
$SHADEDGE
 70
     3
  9
$SHADEDIF
 70
    70
  9
$TILEMODE
 70
     1
  9
$MAXACTVP
 70
    64
  9
$PINSBASE
 10
0.0
 20
0.0
 30
0.0
  9
$PLIMCHECK
 70
     0
  9
$PEXTMIN
 10
1.000000000000000E+20
 20
1.000000000000000E+20
 30
1.000000000000000E+20
  9
$PEXTMAX
 10
-1.000000000000000E+20
 20
-1.000000000000000E+20
 30
-1.000000000000000E+20
  9
$PLIMMIN
 10
-423.0
 20
-2.0
  9
$PLIMMAX
 10
-5.0
 20
293.0
  9
$UNITMODE
 70
     0
  9
$VISRETAIN
 70
     1
  9
$PLINEGEN
 70
     0
  9
$PSLTSCALE
 70
     1
  9
$TREEDEPTH
 70
  3020
  9
$CMLSTYLE
  2
Standard
  9
$CMLJUST
 70
     0
  9
$CMLSCALE
 40
1.0
  9
$PROXYGRAPHICS
 70
     1
  9
$MEASUREMENT
 70
     0
  9
$CELWEIGHT
370
    -1
  9
$ENDCAPS
280
     0
  9
$JOINSTYLE
280
     0
  9
$LWDISPLAY
290
     0
  9
$INSUNITS
 70
     0
  9
$HYPERLINKBASE
  1

  9
$STYLESHEET
  1

  9
$XEDIT
290
     1
  9
$CEPSNTYPE
380
     0
  9
$PSTYLEMODE
290
     1
  9
$FINGERPRINTGUID
  2
{776E3A44-BCAD-42D0-9EAE-D0ED0E5E1DC8}
  9
$VERSIONGUID
  2
{06B2645F-42BD-4170-9AFE-7E3322590458}
  9
$EXTNAMES
290
     1
  9
$PSVPSCALE
 40
0.0
  9
$OLESTARTUP
290
     0
  9
$SORTENTS
280
   127
  9
$INDEXCTL
280
     0
  9
$HIDETEXT
280
     0
  9
$XCLIPFRAME
290
     0
  9
$HALOGAP
280
     0
  9
$OBSCOLOR
 70
   257
  9
$OBSLTYPE
280
     0
  9
$INTERSECTIONDISPLAY
280
     0
  9
$INTERSECTIONCOLOR
 70
   257
  9
$DIMASSOC
280
     1
  9
$PROJECTNAME
  1

  0
ENDSEC
  0
SECTION
  2
CLASSES
  0
CLASS
  1
ACDBDICTIONARYWDFLT
  2
AcDbDictionaryWithDefault
  3
ObjectDBX Classes
 90
        0
 91
        1
280
     0
281
     0
  0
CLASS
  1
TABLESTYLE
  2
AcDbTableStyle
  3
ObjectDBX Classes
 90
     2047
 91
        1
280
     0
281
     0
  0
CLASS
  1
DICTIONARYVAR
  2
AcDbDictionaryVar
  3
ObjectDBX Classes
 90
        0
 91
        1
280
     0
281
     0
  0
ENDSEC
  0
SECTION
  2
TABLES
  0
TABLE
  2
VPORT
  5
8
330
0
100
AcDbSymbolTable
 70
     2
  0
VPORT
  5
220
330
8
100
AcDbSymbolTableRecord
100
AcDbViewportTableRecord
  2
*Active
 70
     0
 10
0.0
 20
0.0
 11
1.0
 21
1.0
 12
-214.0
 22
145.5
 13
0.0
 23
0.0
 14
1.0
 24
1.0
 15
0.0
 25
0.0
 16
0.0
 26
0.0
 36
1.0
 17
0.0
 27
0.0
 37
0.0
 40
297.3320158102766
 41
1.707124010554089
 42
50.0
 43
0.0
 44
0.0
 50
0.0
 51
0.0
 71
     0
 72
   100
 73
     1
 74
     1
 75
     0
 76
     0
 77
     0
 78
     0
281
     0
 65
     1
110
0.0
120
0.0
130
0.0
111
1.0
121
0.0
131
0.0
112
0.0
122
1.0
132
0.0
 79
     0
146
0.0
  0
ENDTAB
  0
TABLE
  2
LTYPE
  5
5
330
0
100
AcDbSymbolTable
 70
     6
  0
LTYPE
  5
13
330
5
100
AcDbSymbolTableRecord
100
AcDbLinetypeTableRecord
  2
ByBlock
 70
     0
  3

 72
    65
 73
     0
 40
0.0
  0
LTYPE
  5
14
330
5
100
AcDbSymbolTableRecord
100
AcDbLinetypeTableRecord
  2
ByLayer
 70
     0
  3

 72
    65
 73
     0
 40
0.0
  0
LTYPE
  5
15
330
5
100
AcDbSymbolTableRecord
100
AcDbLinetypeTableRecord
  2
CONTINUOUS
 70
     0
  3
Solid line
 72
    65
 73
     0
 40
0.0
  0
LTYPE
  5
26
330
5
100
AcDbSymbolTableRecord
100
AcDbLinetypeTableRecord
  2
DASHED
 70
     0
  3
__ __ __ __ __ __ __ __ __ __ __ __ __ __ __
 72
    65
 73
     2
 40
3.5
 49
2.0
 74
     0
 49
-1.5
 74
     0
  0
LTYPE
  5
27
330
5
100
AcDbSymbolTableRecord
100
AcDbLinetypeTableRecord
  2
CENTER
 70
     0
  3
____ _ ____ _ ____ _ ____ _ ____ _ ____ _ ____
 72
    65
 73
     4
 40
17.5
 49
13.0
 74
     0
 49
-1.5
 74
     0
 49
1.5
 74
     0
 49
-1.5
 74
     0
  0
LTYPE
  5
28
330
5
100
AcDbSymbolTableRecord
100
AcDbLinetypeTableRecord
  2
PHANTOM
 70
     0
  3
_____ _ _ _____ _ _ _____ _ _ _____ _ _ ____  
 72
    65
 73
     6
 40
15.5
 49
8.0
 74
     0
 49
-1.5
 74
     0
 49
1.5
 74
     0
 49
-1.5
 74
     0
 49
1.5
 74
     0
 49
-1.5
 74
     0
  0
LTYPE
  5
29
330
5
100
AcDbSymbolTableRecord
100
AcDbLinetypeTableRecord
  2
DOT
 70
     0
  3
. . . . . . . . . . . . . . . . . . . . . . . .
 72
    65
 73
     2
 40
0.25
 49
0.0
 74
     0
 49
-0.25
 74
     0
  0
LTYPE
  5
2A
330
5
100
AcDbSymbolTableRecord
100
AcDbLinetypeTableRecord
  2
HIDDEN
 70
     0
  3
__ __ __ __ __ __ __ __ __ __ __ __ __ __ __
 72
    65
 73
     2
 40
3.5
 49
2.0
 74
     0
 49
-1.5
 74
     0
  0
ENDTAB
  0
TABLE
  2
LAYER
  5
2
330
0
100
AcDbSymbolTable
 70
     3
  0
LAYER
  5
10
330
2
100
AcDbSymbolTableRecord
100
AcDbLayerTableRecord
  2
0
 70
     0
 62
     7
  6
CONTINUOUS
370
    -3
390
F
  0
LAYER
  5
2B
330
2
100
AcDbSymbolTableRecord
100
AcDbLayerTableRecord
  2
1
 70
     0
 62
     7
  6
CONTINUOUS
370
    -3
390
F
  0
LAYER
  5
2C
330
2
100
AcDbSymbolTableRecord
100
AcDbLayerTableRecord
  2
DEFPOINTS
 70
     0
 62
     7
  6
CONTINUOUS
290
     0
370
    -3
390
F
  0
ENDTAB
  0
TABLE
  2
STYLE
  5
3
330
0
100
AcDbSymbolTable
 70
     2
  0
STYLE
  5
11
330
3
100
AcDbSymbolTableRecord
100
AcDbTextStyleTableRecord
  2
STANDARD
 70
     0
 40
0.0
 41
1.0
 50
0.0
 71
     0
 42
0.2
  3

  4

1001
ACAD
1000
MS Gothic
1071
    32817
  0
ENDTAB
  0
TABLE
  2
VIEW
  5
6
330
0
100
AcDbSymbolTable
 70
     0
  0
ENDTAB
  0
TABLE
  2
UCS
  5
7
330
0
100
AcDbSymbolTable
 70
     0
  0
ENDTAB
  0
TABLE
  2
APPID
  5
9
330
0
100
AcDbSymbolTable
 70
     2
  0
APPID
  5
12
330
9
100
AcDbSymbolTableRecord
100
AcDbRegAppTableRecord
  2
ACAD
 70
     0
  0
APPID
  5
215
330
9
100
AcDbSymbolTableRecord
100
AcDbRegAppTableRecord
  2
ACAD_PSEXT
 70
     0
  0
ENDTAB
  0
TABLE
  2
DIMSTYLE
  5
A
330
0
100
AcDbSymbolTable
 70
     5
100
AcDbDimStyleTable
 71
     1
340
2D
  0
DIMSTYLE
105
2D
102
{ACAD_REACTORS
330
20E
102
}
330
A
100
AcDbSymbolTableRecord
100
AcDbDimStyleTableRecord
  2
DIMSTYLE1
 70
     0
 41
1.0
 42
2.54
 44
2.54
 73
     0
 74
     0
 77
     1
140
3.0
145
1.0
147
1.5
172
     1
173
     1
279
     2
340
11
  0
DIMSTYLE
105
2E
102
{ACAD_REACTORS
330
20F
102
}
330
A
100
AcDbSymbolTableRecord
100
AcDbDimStyleTableRecord
  2
DIMSTYLE2
 70
     0
 41
1.0
 42
2.54
 44
2.54
 73
     0
 74
     0
 75
     1
 76
     1
 77
     1
140
3.0
145
1.0
147
1.5
172
     1
173
     1
279
     2
340
11
  0
DIMSTYLE
105
2F
102
{ACAD_REACTORS
330
210
102
}
330
A
100
AcDbSymbolTableRecord
100
AcDbDimStyleTableRecord
  2
DIMSTYLE3
 70
     0
 41
1.0
 42
2.54
 44
2.54
 73
     0
 74
     0
 75
     1
 76
     1
 77
     1
140
3.0
145
1.0
147
1.5
172
     1
173
     1
279
     2
340
11
  0
DIMSTYLE
105
30
102
{ACAD_REACTORS
330
211
102
}
330
A
100
AcDbSymbolTableRecord
100
AcDbDimStyleTableRecord
  2
DIMSTYLE4
 70
     0
 41
1.0
 42
2.54
 44
2.54
 73
     0
 74
     0
 75
     1
 76
     1
 77
     1
140
3.0
145
1.0
147
1.5
172
     1
173
     1
279
     2
340
11
  0
ENDTAB
  0
TABLE
  2
BLOCK_RECORD
  5
1
330
0
100
AcDbSymbolTable
 70
     7
  0
BLOCK_RECORD
  5
22
330
1
100
AcDbSymbolTableRecord
100
AcDbBlockTableRecord
  2
*Model_Space
340
25
  0
BLOCK_RECORD
  5
1E
330
1
100
AcDbSymbolTableRecord
100
AcDbBlockTableRecord
  2
*Paper_Space
340
21
  0
BLOCK_RECORD
  5
34
330
1
100
AcDbSymbolTableRecord
100
AcDbBlockTableRecord
  2
_OPEN30
340
0
102
{BLKREFS
331
3D
331
3E
331
4A
331
4B
331
54
331
55
331
5E
331
5F
102
}
  0
BLOCK_RECORD
  5
3A
330
1
100
AcDbSymbolTableRecord
100
AcDbBlockTableRecord
  2
*D1
340
0
  0
BLOCK_RECORD
  5
46
330
1
100
AcDbSymbolTableRecord
100
AcDbBlockTableRecord
  2
*D2
340
0
  0
BLOCK_RECORD
  5
50
330
1
100
AcDbSymbolTableRecord
100
AcDbBlockTableRecord
  2
*D3
340
0
  0
BLOCK_RECORD
  5
5A
330
1
100
AcDbSymbolTableRecord
100
AcDbBlockTableRecord
  2
*D4
340
0
  0
BLOCK_RECORD
  5
64
330
1
100
AcDbSymbolTableRecord
100
AcDbBlockTableRecord
  2
KOZU0001
340
0
102
{BLKREFS
331
212
102
}
  0
ENDTAB
  0
ENDSEC
  0
SECTION
  2
BLOCKS
  0
BLOCK
  5
23
330
22
100
AcDbEntity
  8
0
100
AcDbBlockBegin
  2
*Model_Space
 70
     0
 10
0.0
 20
0.0
 30
0.0
  3
*Model_Space
  1

  0
ENDBLK
  5
24
330
22
100
AcDbEntity
  8
0
100
AcDbBlockEnd
  0
BLOCK
  5
1F
330
1E
100
AcDbEntity
 67
     1
  8
0
100
AcDbBlockBegin
  2
*Paper_Space
 70
     0
 10
0.0
 20
0.0
 30
0.0
  3
*Paper_Space
  1

  0
ENDBLK
  5
20
330
1E
100
AcDbEntity
 67
     1
  8
0
100
AcDbBlockEnd
  0
BLOCK
  5
35
330
34
100
AcDbEntity
  8
0
100
AcDbBlockBegin
  2
_OPEN30
 70
     0
 10
0.0
 20
0.0
 30
0.0
  3
_OPEN30
  1

  0
LINE
  5
36
330
34
100
AcDbEntity
  8
0
  6
ByBlock
 62
     0
100
AcDbLine
 10
0.0
 20
0.0
 30
0.0
 11
-2.999999999999993
 21
-1.000000000000017
 31
0.0
  0
LINE
  5
37
330
34
100
AcDbEntity
  8
0
  6
ByBlock
 62
     0
100
AcDbLine
 10
0.0
 20
0.0
 30
0.0
 11
-3.000000000000006
 21
0.9999999999999815
 31
0.0
  0
LINE
  5
38
330
34
100
AcDbEntity
  8
0
  6
ByBlock
 62
     0
100
AcDbLine
 10
0.0
 20
0.0
 30
0.0
 11
-3.0
 21
0.0
 31
0.0
  0
ENDBLK
  5
39
330
34
100
AcDbEntity
  8
0
100
AcDbBlockEnd
  0
BLOCK
  5
3B
330
3A
100
AcDbEntity
  8
0
100
AcDbBlockBegin
  2
*D1
 70
     1
 10
0.0
 20
0.0
 30
0.0
  3
*D1
  1

  0
LINE
  5
3C
330
3A
100
AcDbEntity
  8
0
  6
Continuous
 62
     7
100
AcDbLine
 10
-145.0719909667969
 20
67.75710296630859
 30
0.0
 11
-145.0719909667969
 21
116.7571029663086
 31
0.0
  0
INSERT
  5
3D
330
3A
100
AcDbEntity
  8
0
  6
Continuous
 62
     7
100
AcDbBlockReference
  2
_OPEN30
 10
-145.0719909667969
 20
64.75710296630859
 30
0.0
 50
270.0000000000005
  0
INSERT
  5
3E
330
3A
100
AcDbEntity
  8
0
  6
Continuous
 62
     7
100
AcDbBlockReference
  2
_OPEN30
 10
-145.0719909667969
 20
119.7571029663086
 30
0.0
 50
90.00000000000019
  0
LINE
  5
3F
330
3A
100
AcDbEntity
  8
0
  6
Continuous
 62
     7
100
AcDbLine
 10
-171.7459497070313
 20
64.75710296630859
 30
0.0
 11
-142.7859954833984
 21
64.75710296630859
 31
0.0
  0
LINE
  5
40
330
3A
100
AcDbEntity
  8
0
  6
Continuous
 62
     7
100
AcDbLine
 10
-157.9959497070313
 20
119.7571029663086
 30
0.0
 11
-142.7859954833984
 21
119.7571029663086
 31
0.0
  0
TEXT
  5
41
330
3A
100
AcDbEntity
  8
0
  6
Continuous
 62
     7
100
AcDbText
 10
-145.8219908544586
 20
89.68710282146831
 30
0.0
 40
3.0
  1
55
 50
90.00000250447815
 41
1.028000020980834
100
AcDbText
  0
POINT
  5
42
330
3A
100
AcDbEntity
  8
DEFPOINTS
  6
Continuous
 62
     7
100
AcDbPoint
 10
-174.2859497070313
 20
64.75710296630859
 30
0.0
  0
POINT
  5
43
330
3A
100
AcDbEntity
  8
DEFPOINTS
  6
Continuous
 62
     7
100
AcDbPoint
 10
-160.5359497070313
 20
119.7571029663086
 30
0.0
  0
POINT
  5
44
330
3A
100
AcDbEntity
  8
DEFPOINTS
  6
Continuous
 62
     7
100
AcDbPoint
 10
-145.0719909667969
 20
119.7571029663086
 30
0.0
  0
ENDBLK
  5
45
330
3A
100
AcDbEntity
  8
0
100
AcDbBlockEnd
  0
BLOCK
  5
47
330
46
100
AcDbEntity
  8
0
100
AcDbBlockBegin
  2
*D2
 70
     1
 10
0.0
 20
0.0
 30
0.0
  3
*D2
  1

  0
LINE
  5
48
330
46
100
AcDbEntity
  8
0
  6
Continuous
 62
     7
100
AcDbLine
 10
-203.2209014892578
 20
206.4077453613281
 30
0.0
 11
-132.0513305664062
 21
180.4657440185547
 31
0.0
  0
LINE
  5
49
330
46
100
AcDbEntity
  8
0
  6
Continuous
 62
     7
100
AcDbLine
 10
-237.9835048020319
 20
219.0790571847577
 30
0.0
 11
-206.0394901930853
 21
207.4351487478596
 31
0.0
  0
INSERT
  5
4A
330
46
100
AcDbEntity
  8
0
  6
Continuous
 62
     7
100
AcDbBlockReference
  2
_OPEN30
 10
-240.8020935058594
 20
220.1064605712891
 30
0.0
 50
159.9727029825974
  0
INSERT
  5
4B
330
46
100
AcDbEntity
  8
0
  6
Continuous
 62
     7
100
AcDbBlockReference
  2
_OPEN30
 10
-203.2209014892578
 20
206.4077453613281
 30
0.0
 50
339.9727029825981
  0
TEXT
  5
4C
330
46
100
AcDbEntity
  8
0
  6
Continuous
 62
     7
100
AcDbText
 10
-156.3562463896511
 20
190.1167757762877
 30
0.0
 40
3.0
  1
%%C４０（子栓外径）
 50
340.0000005818142
 41
0.8448610247221777
100
AcDbText
  0
POINT
  5
4D
330
46
100
AcDbEntity
  8
DEFPOINTS
  6
Continuous
 62
     7
100
AcDbPoint
 10
-240.8020935058594
 20
220.1064605712891
 30
0.0
  0
POINT
  5
4E
330
46
100
AcDbEntity
  8
DEFPOINTS
  6
Continuous
 62
     7
100
AcDbPoint
 10
-203.2209014892578
 20
206.4077453613281
 30
0.0
  0
ENDBLK
  5
4F
330
46
100
AcDbEntity
  8
0
100
AcDbBlockEnd
  0
BLOCK
  5
51
330
50
100
AcDbEntity
  8
0
100
AcDbBlockBegin
  2
*D3
 70
     1
 10
0.0
 20
0.0
 30
0.0
  3
*D3
  1

  0
LINE
  5
52
330
50
100
AcDbEntity
  8
0
  6
Continuous
 62
     7
100
AcDbLine
 10
-174.2021942138672
 20
218.6858978271484
 30
0.0
 11
-125.4762725830078
 21
225.1448974609375
 31
0.0
  0
LINE
  5
53
330
50
100
AcDbEntity
  8
0
  6
Continuous
 62
     7
100
AcDbLine
 10
-266.3957353687028
 20
206.4649486402724
 30
0.0
 11
-177.1761793041486
 21
218.2916736741807
 31
0.0
  0
INSERT
  5
54
330
50
100
AcDbEntity
  8
0
  6
Continuous
 62
     7
100
AcDbBlockReference
  2
_OPEN30
 10
-269.3697204589844
 20
206.0707244873047
 30
0.0
 50
187.5509657702029
  0
INSERT
  5
55
330
50
100
AcDbEntity
  8
0
  6
Continuous
 62
     7
100
AcDbBlockReference
  2
_OPEN30
 10
-174.2021942138672
 20
218.6858978271484
 30
0.0
 50
7.55096577020214
  0
TEXT
  5
56
330
50
100
AcDbEntity
  8
0
  6
Continuous
 62
     7
100
AcDbText
 10
-154.4611251696856
 20
222.0467063177707
 30
0.0
 40
3.0
  1
%%C９６（排水栓外径）
 50
7.600000154571024
 41
0.8443929326254473
100
AcDbText
  0
POINT
  5
57
330
50
100
AcDbEntity
  8
DEFPOINTS
  6
Continuous
 62
     7
100
AcDbPoint
 10
-269.3697204589844
 20
206.0707244873047
 30
0.0
  0
POINT
  5
58
330
50
100
AcDbEntity
  8
DEFPOINTS
  6
Continuous
 62
     7
100
AcDbPoint
 10
-174.2021942138672
 20
218.6858978271484
 30
0.0
  0
ENDBLK
  5
59
330
50
100
AcDbEntity
  8
0
100
AcDbBlockEnd
  0
BLOCK
  5
5B
330
5A
100
AcDbEntity
  8
0
100
AcDbBlockBegin
  2
*D4
 70
     1
 10
0.0
 20
0.0
 30
0.0
  3
*D4
  1

  0
LINE
  5
5C
330
5A
100
AcDbEntity
  8
0
  6
Continuous
 62
     7
100
AcDbLine
 10
-164.1964263916016
 20
236.6619873046875
 30
0.0
 11
-132.1303405761719
 21
250.1832427978516
 31
0.0
  0
LINE
  5
5D
330
5A
100
AcDbEntity
  8
0
  6
Continuous
 62
     7
100
AcDbLine
 10
-276.6111911503227
 20
189.2602513153943
 30
0.0
 11
-166.9607235225288
 21
235.4963709990588
 31
0.0
  0
INSERT
  5
5E
330
5A
100
AcDbEntity
  8
0
  6
Continuous
 62
     7
100
AcDbBlockReference
  2
_OPEN30
 10
-279.37548828125
 20
188.0946350097656
 30
0.0
 50
202.8636078247316
  0
INSERT
  5
5F
330
5A
100
AcDbEntity
  8
0
  6
Continuous
 62
     7
100
AcDbBlockReference
  2
_OPEN30
 10
-164.1964263916016
 20
236.6619873046875
 30
0.0
 50
22.86360782473085
  0
TEXT
  5
60
330
5A
100
AcDbEntity
  8
0
  6
Continuous
 62
     7
100
AcDbText
 10
-159.2691331147213
 20
239.5435848291121
 30
0.0
 40
3.0
  1
%%C１２５（本体外径）
 50
22.90000040957758
 41
0.8443929326254473
100
AcDbText
  0
POINT
  5
61
330
5A
100
AcDbEntity
  8
DEFPOINTS
  6
Continuous
 62
     7
100
AcDbPoint
 10
-279.37548828125
 20
188.0946350097656
 30
0.0
  0
POINT
  5
62
330
5A
100
AcDbEntity
  8
DEFPOINTS
  6
Continuous
 62
     7
100
AcDbPoint
 10
-164.1964263916016
 20
236.6619873046875
 30
0.0
  0
ENDBLK
  5
63
330
5A
100
AcDbEntity
  8
0
100
AcDbBlockEnd
  0
BLOCK
  5
65
330
64
100
AcDbEntity
  8
0
100
AcDbBlockBegin
  2
KOZU0001
 70
     0
 10
0.0
 20
0.0
 30
0.0
  3
KOZU0001
  1

  0
LINE
  5
66
330
64
100
AcDbEntity
  8
0
  6
Continuous
 62
     7
100
AcDbLine
 10
0.0
 20
0.0
 30
0.0
 11
-14.75851440429688
 21
-21.63162231445313
 31
0.0
  0
LINE
  5
67
330
64
100
AcDbEntity
  8
0
  6
Continuous
 62
     7
100
AcDbLine
 10
-14.75851440429688
 20
-21.63162231445313
 30
0.0
 11
-41.25706481933593
 21
-21.63162231445313
 31
0.0
  0
LINE
  5
68
330
64
100
AcDbEntity
  8
0
  6
Continuous
 62
     7
100
AcDbLine
 10
0.0
 20
0.0
 30
0.0
 11
-0.8647122755048423
 21
-3.041754868590043
 31
0.0
  0
LINE
  5
69
330
64
100
AcDbEntity
  8
0
  6
Continuous
 62
     7
100
AcDbLine
 10
0.0
 20
0.0
 30
0.0
 11
-2.516822741557899
 21
-1.91457652956913
 31
0.0
  0
TEXT
  5
6A
330
64
100
AcDbEntity
  8
0
  6
Continuous
 62
     7
100
AcDbText
 10
-39.53706431388854
 20
-20.88162231445313
 30
0.0
 40
3.0
  1
配管接続口
 41
0.8487395020950888
100
AcDbText
  0
TEXT
  5
6B
330
64
100
AcDbEntity
  8
0
  6
Continuous
 62
     7
100
AcDbText
 10
-39.53706431388854
 20
-26.14662231445313
 30
0.0
 40
3.0
  1
Ｇ３（８０Ａ）
 41
0.8462184918026965
100
AcDbText
  0
ENDBLK
  5
6C
330
64
100
AcDbEntity
  8
0
100
AcDbBlockEnd
  0
ENDSEC
  0
SECTION
  2
ENTITIES
  0
LINE
  5
6D
330
22
100
AcDbEntity
  8
0
  6
Continuous
 62
     7
100
AcDbLine
 10
-227.7859497070313
 20
67.75710296630859
 30
0.0
 11
-221.7859497070314
 21
67.75710296630859
 31
0.0
  0
LINE
  5
6E
330
22
100
AcDbEntity
  8
0
  6
Continuous
 62
     7
100
AcDbLine
 10
-227.7859497070313
 20
69.75710296630859
 30
0.0
 11
-221.7859497070314
 21
69.75710296630859
 31
0.0
  0
LINE
  5
6F
330
22
100
AcDbEntity
  8
0
  6
Continuous
 62
     7
100
AcDbLine
 10
-227.7859497070313
 20
115.7571029663086
 30
0.0
 11
-227.7859497070313
 21
67.75710296630859
 31
0.0
  0
LINE
  5
70
330
22
100
AcDbEntity
  8
0
  6
Continuous
 62
     7
100
AcDbLine
 10
-269.2859497070313
 20
64.75710296630859
 30
0.0
 11
-221.7859497070314
 21
64.75710296630859
 31
0.0
  0
LINE
  5
71
330
22
100
AcDbEntity
  8
0
  6
Continuous
 62
     7
100
AcDbLine
 10
-284.2859497070313
 20
115.7571029663086
 30
0.0
 11
-221.7859497070314
 21
115.7571029663086
 31
0.0
  0
LINE
  5
72
330
22
100
AcDbEntity
  8
0
  6
Continuous
 62
     7
100
AcDbLine
 10
-283.0359497070313
 20
119.7571029663086
 30
0.0
 11
-160.5359497070313
 21
119.7571029663086
 31
0.0
  0
LINE
  5
73
330
22
100
AcDbEntity
  8
0
  6
Continuous
 62
     7
100
AcDbLine
 10
-270.2859497070313
 20
65.75710296630859
 30
0.0
 11
-221.7859497070314
 21
65.75710296630859
 31
0.0
  0
LINE
  5
74
330
22
100
AcDbEntity
  8
0
  6
Continuous
 62
     7
100
AcDbLine
 10
-270.2859497070313
 20
99.75710296630859
 30
0.0
 11
-227.7859497070313
 21
99.75710296630859
 31
0.0
  0
LINE
  5
75
330
22
100
AcDbEntity
  8
0
  6
Continuous
 62
     7
100
AcDbLine
 10
-270.2859497070313
 20
65.75710296630859
 30
0.0
 11
-270.2859497070313
 21
99.75710296630859
 31
0.0
  0
LINE
  5
76
330
22
100
AcDbEntity
  8
0
  6
Continuous
 62
     7
100
AcDbLine
 10
-272.2859497070313
 20
69.75710296630859
 30
0.0
 11
-272.2859497070313
 21
99.57122039794922
 31
0.0
  0
LINE
  5
77
330
22
100
AcDbEntity
  8
0
  6
Continuous
 62
     7
100
AcDbLine
 10
-159.2859497070313
 20
118.5071029663086
 30
0.0
 11
-159.2859497070313
 21
115.7571029663086
 31
0.0
  0
LINE
  5
78
330
22
100
AcDbEntity
  8
0
  6
Continuous
 62
     7
100
AcDbLine
 10
-201.9329223632813
 20
118.1446228027344
 30
0.0
 11
-203.7929382324219
 21
110.0880584716797
 31
0.0
  0
LINE
  5
79
330
22
100
AcDbEntity
  8
0
  6
Continuous
 62
     7
100
AcDbLine
 10
-221.7859497070314
 20
118.7571029663086
 30
0.0
 11
-161.7859497070313
 21
118.7571029663086
 31
0.0
  0
LINE
  5
7A
330
22
100
AcDbEntity
  8
0
  6
Continuous
 62
     7
100
AcDbLine
 10
-217.0115203857422
 20
99.73517608642579
 30
0.0
 11
-216.533447265625
 21
99.2571029663086
 31
0.0
  0
LINE
  5
7B
330
22
100
AcDbEntity
  8
0
  6
Continuous
 62
     7
100
AcDbLine
 10
-217.0115203857422
 20
100.7958374023438
 30
0.0
 11
-215.6428833007813
 21
99.42718505859376
 31
0.0
  0
LINE
  5
7C
330
22
100
AcDbEntity
  8
0
  6
Continuous
 62
     7
100
AcDbLine
 10
-217.0115203857422
 20
101.1493911743164
 30
0.0
 11
-215.5245513916016
 21
99.66240692138672
 31
0.0
  0
LINE
  5
7D
330
22
100
AcDbEntity
  8
0
  6
Continuous
 62
     7
100
AcDbLine
 10
-217.0115203857422
 20
102.2100448608398
 30
0.0
 11
-215.2374877929688
 21
100.4360046386719
 31
0.0
  0
LINE
  5
7E
330
22
100
AcDbEntity
  8
0
  6
Continuous
 62
     7
100
AcDbLine
 10
-217.0115203857422
 20
102.5635986328125
 30
0.0
 11
-215.0348968505859
 21
100.5869750976563
 31
0.0
  0
LINE
  5
7F
330
22
100
AcDbEntity
  8
0
  6
Continuous
 62
     7
100
AcDbLine
 10
-217.0115203857422
 20
103.6242599487305
 30
0.0
 11
-214.5115203857422
 21
101.1242599487305
 31
0.0
  0
LINE
  5
80
330
22
100
AcDbEntity
  8
0
  6
Continuous
 62
     7
100
AcDbLine
 10
-216.7908172607422
 20
103.7571029663086
 30
0.0
 11
-214.5115203857422
 21
101.4778137207031
 31
0.0
  0
LINE
  5
81
330
22
100
AcDbEntity
  8
0
  6
Continuous
 62
     7
100
AcDbLine
 10
-215.7301483154297
 20
103.7571029663086
 30
0.0
 11
-214.5115203857422
 21
102.5384750366211
 31
0.0
  0
LINE
  5
82
330
22
100
AcDbEntity
  8
0
  6
Continuous
 62
     7
100
AcDbLine
 10
-215.3766021728516
 20
103.7571029663086
 30
0.0
 11
-214.5115203857422
 21
102.8920288085938
 31
0.0
  0
LINE
  5
83
330
22
100
AcDbEntity
  8
0
  6
Continuous
 62
     7
100
AcDbLine
 10
-205.7115325927734
 20
100.8095397949219
 30
0.0
 11
-205.6590881347656
 21
100.7571029663086
 31
0.0
  0
LINE
  5
84
330
22
100
AcDbEntity
  8
0
  6
Continuous
 62
     7
100
AcDbLine
 10
-205.7115325927734
 20
101.1630935668945
 30
0.0
 11
-205.3055267333984
 21
100.7571029663086
 31
0.0
  0
LINE
  5
85
330
22
100
AcDbEntity
  8
0
  6
Continuous
 62
     7
100
AcDbLine
 10
-205.7115325927734
 20
102.2237548828125
 30
0.0
 11
-204.244873046875
 21
100.7571029663086
 31
0.0
  0
LINE
  5
86
330
22
100
AcDbEntity
  8
0
  6
Continuous
 62
     7
100
AcDbLine
 10
-205.7115325927734
 20
102.5773086547852
 30
0.0
 11
-203.8913116455078
 21
100.7571029663086
 31
0.0
  0
LINE
  5
87
330
22
100
AcDbEntity
  8
0
  6
Continuous
 62
     7
100
AcDbLine
 10
-205.7115325927734
 20
103.6379699707031
 30
0.0
 11
-202.8306579589844
 21
100.7571029663086
 31
0.0
  0
LINE
  5
88
330
22
100
AcDbEntity
  8
0
  6
Continuous
 62
     7
100
AcDbLine
 10
-205.4771118164063
 20
103.7571029663086
 30
0.0
 11
-202.5030364990234
 21
100.7830276489258
 31
0.0
  0
LINE
  5
89
330
22
100
AcDbEntity
  8
0
  6
Continuous
 62
     7
100
AcDbLine
 10
-204.4164428710938
 20
103.7571029663086
 30
0.0
 11
-201.7178344726563
 21
101.0584945678711
 31
0.0
  0
LINE
  5
8A
330
22
100
AcDbEntity
  8
0
  6
Continuous
 62
     7
100
AcDbLine
 10
-204.0628967285156
 20
103.7571029663086
 30
0.0
 11
-201.5101928710938
 21
101.2044067382813
 31
0.0
  0
LINE
  5
8B
330
22
100
AcDbEntity
  8
0
  6
Continuous
 62
     7
100
AcDbLine
 10
-203.7929382324219
 20
104.5478057861328
 30
0.0
 11
-201.0223541259766
 21
101.777229309082
 31
0.0
  0
LINE
  5
8C
330
22
100
AcDbEntity
  8
0
  6
Continuous
 62
     7
100
AcDbLine
 10
-203.7929382324219
 20
104.9013595581055
 30
0.0
 11
-200.9040069580078
 21
102.0124359130859
 31
0.0
  0
LINE
  5
8D
330
22
100
AcDbEntity
  8
0
  6
Continuous
 62
     7
100
AcDbLine
 10
-203.7929382324219
 20
105.9620208740234
 30
0.0
 11
-200.7377166748047
 21
102.9068069458008
 31
0.0
  0
LINE
  5
8E
330
22
100
AcDbEntity
  8
0
  6
Continuous
 62
     7
100
AcDbLine
 10
-203.7929382324219
 20
106.3155670166016
 30
0.0
 11
-200.7102203369141
 21
103.2328643798828
 31
0.0
  0
LINE
  5
8F
330
22
100
AcDbEntity
  8
0
  6
Continuous
 62
     7
100
AcDbLine
 10
-203.7929382324219
 20
107.3762283325195
 30
0.0
 11
-200.6277465820313
 21
104.2110366821289
 31
0.0
  0
LINE
  5
90
330
22
100
AcDbEntity
  8
0
  6
Continuous
 62
     7
100
AcDbLine
 10
-203.7929382324219
 20
107.7297821044922
 30
0.0
 11
-200.6002502441406
 21
104.5370941162109
 31
0.0
  0
LINE
  5
91
330
22
100
AcDbEntity
  8
0
  6
Continuous
 62
     7
100
AcDbLine
 10
-203.7929382324219
 20
108.7904434204102
 30
0.0
 11
-200.5177612304688
 21
105.515266418457
 31
0.0
  0
LINE
  5
92
330
22
100
AcDbEntity
  8
0
  6
Continuous
 62
     7
100
AcDbLine
 10
-203.7929382324219
 20
109.1439971923828
 30
0.0
 11
-200.4902648925781
 21
105.8413238525391
 31
0.0
  0
LINE
  5
93
330
22
100
AcDbEntity
  8
0
  6
Continuous
 62
     7
100
AcDbLine
 10
-203.7710571289063
 20
110.1827850341797
 30
0.0
 11
-200.4077758789063
 21
106.8195037841797
 31
0.0
  0
LINE
  5
94
330
22
100
AcDbEntity
  8
0
  6
Continuous
 62
     7
100
AcDbLine
 10
-203.7047424316406
 20
110.4700241088867
 30
0.0
 11
-200.3802795410156
 21
107.1455612182617
 31
0.0
  0
LINE
  5
95
330
22
100
AcDbEntity
  8
0
  6
Continuous
 62
     7
100
AcDbLine
 10
-203.5058135986328
 20
111.3317413330078
 30
0.0
 11
-200.2977905273438
 21
108.1237335205078
 31
0.0
  0
LINE
  5
96
330
22
100
AcDbEntity
  8
0
  6
Continuous
 62
     7
100
AcDbLine
 10
-203.4394989013672
 20
111.6189804077148
 30
0.0
 11
-200.2702941894531
 21
108.4497909545898
 31
0.0
  0
LINE
  5
97
330
22
100
AcDbEntity
  8
0
  6
Continuous
 62
     7
100
AcDbLine
 10
-180.8035888671875
 20
88.98307800292968
 30
0.0
 11
-180.5776062011719
 21
88.7571029663086
 31
0.0
  0
LINE
  5
98
330
22
100
AcDbEntity
  8
0
  6
Continuous
 62
     7
100
AcDbLine
 10
-203.2405548095703
 20
112.4806976318359
 30
0.0
 11
-200.1878051757813
 21
109.4279632568359
 31
0.0
  0
LINE
  5
99
330
22
100
AcDbEntity
  8
0
  6
Continuous
 62
     7
100
AcDbLine
 10
-180.910400390625
 20
90.15055847167969
 30
0.0
 11
-179.5169525146484
 21
88.7571029663086
 31
0.0
  0
LINE
  5
9A
330
22
100
AcDbEntity
  8
0
  6
Continuous
 62
     7
100
AcDbLine
 10
-203.1742401123047
 20
112.767936706543
 30
0.0
 11
-200.1603088378906
 21
109.754020690918
 31
0.0
  0
LINE
  5
9B
330
22
100
AcDbEntity
  8
0
  6
Continuous
 62
     7
100
AcDbLine
 10
-180.9417266845703
 20
90.53543853759766
 30
0.0
 11
-179.1633911132813
 21
88.7571029663086
 31
0.0
  0
LINE
  5
9C
330
22
100
AcDbEntity
  8
0
  6
Continuous
 62
     7
100
AcDbLine
 10
-202.9752960205078
 20
113.6296539306641
 30
0.0
 11
-200.0778350830078
 21
110.7321929931641
 31
0.0
  0
LINE
  5
9D
330
22
100
AcDbEntity
  8
0
  6
Continuous
 62
     7
100
AcDbLine
 10
-181.0357208251953
 20
91.69007873535155
 30
0.0
 11
-178.1150512695313
 21
88.76941680908203
 31
0.0
  0
LINE
  5
9E
330
22
100
AcDbEntity
  8
0
  6
Continuous
 62
     7
100
AcDbLine
 10
-202.9089813232422
 20
113.9168930053711
 30
0.0
 11
-200.0503387451172
 21
111.0582504272461
 31
0.0
  0
LINE
  5
9F
330
22
100
AcDbEntity
  8
0
  6
Continuous
 62
     7
100
AcDbLine
 10
-181.0670471191406
 20
92.07495880126952
 30
0.0
 11
-177.8667144775391
 21
88.87462615966796
 31
0.0
  0
LINE
  5
A0
330
22
100
AcDbEntity
  8
0
  6
Continuous
 62
     7
100
AcDbLine
 10
-202.7100372314453
 20
114.7786102294922
 30
0.0
 11
-199.9678497314453
 21
112.0364303588867
 31
0.0
  0
LINE
  5
A1
330
22
100
AcDbEntity
  8
0
  6
Continuous
 62
     7
100
AcDbLine
 10
-181.1610260009766
 20
93.22960662841795
 30
0.0
 11
-177.6769866943359
 21
89.74556732177735
 31
0.0
  0
LINE
  5
A2
330
22
100
AcDbEntity
  8
0
  6
Continuous
 62
     7
100
AcDbLine
 10
-202.6437225341797
 20
115.0658493041992
 30
0.0
 11
-199.9403533935547
 21
112.3624877929688
 31
0.0
  0
LINE
  5
A3
330
22
100
AcDbEntity
  8
0
  6
Continuous
 62
     7
100
AcDbLine
 10
-181.1923522949219
 20
93.61448669433594
 30
0.0
 11
-177.6769866943359
 21
90.09911346435549
 31
0.0
  0
LINE
  5
A4
330
22
100
AcDbEntity
  8
0
  6
Continuous
 62
     7
100
AcDbLine
 10
-202.4447784423828
 20
115.9275665283203
 30
0.0
 11
-199.8038330078125
 21
113.2866287231445
 31
0.0
  0
LINE
  5
A5
330
22
100
AcDbEntity
  8
0
  6
Continuous
 62
     7
100
AcDbLine
 10
-181.2863311767578
 20
94.76912689208985
 30
0.0
 11
-177.6769866943359
 21
91.15977478027344
 31
0.0
  0
LINE
  5
A6
330
22
100
AcDbEntity
  8
0
  6
Continuous
 62
     7
100
AcDbLine
 10
-202.3784637451172
 20
116.2148056030273
 30
0.0
 11
-199.7198486328125
 21
113.5561904907227
 31
0.0
  0
LINE
  5
A7
330
22
100
AcDbEntity
  8
0
  6
Continuous
 62
     7
100
AcDbLine
 10
-181.3176574707031
 20
95.1540069580078
 30
0.0
 11
-177.6769866943359
 21
91.51332855224607
 31
0.0
  0
LINE
  5
A8
330
22
100
AcDbEntity
  8
0
  6
Continuous
 62
     7
100
AcDbLine
 10
-202.1795196533203
 20
117.0765228271484
 30
0.0
 11
-199.2082214355469
 21
114.1052322387695
 31
0.0
  0
LINE
  5
A9
330
22
100
AcDbEntity
  8
0
  6
Continuous
 62
     7
100
AcDbLine
 10
-181.4116516113281
 20
96.30865478515623
 30
0.0
 11
-177.6769866943359
 21
92.57398986816406
 31
0.0
  0
LINE
  5
AA
330
22
100
AcDbEntity
  8
0
  6
Continuous
 62
     7
100
AcDbLine
 10
-202.1132049560547
 20
117.3637619018555
 30
0.0
 11
-198.9763641357422
 21
114.226921081543
 31
0.0
  0
LINE
  5
AB
330
22
100
AcDbEntity
  8
0
  6
Continuous
 62
     7
100
AcDbLine
 10
-181.4429779052734
 20
96.69353485107421
 30
0.0
 11
-179.5769805908203
 21
94.82754516601564
 31
0.0
  0
LINE
  5
AC
330
22
100
AcDbEntity
  8
0
  6
Continuous
 62
     7
100
AcDbLine
 10
-179.5065460205078
 20
94.75710296630859
 30
0.0
 11
-177.6769866943359
 21
92.92754364013672
 31
0.0
  0
LINE
  5
AD
330
22
100
AcDbEntity
  8
0
  6
Continuous
 62
     7
100
AcDbLine
 10
-201.9224853515625
 20
118.2337036132813
 30
0.0
 11
-198.0608825683594
 21
114.3721008300781
 31
0.0
  0
LINE
  5
AE
330
22
100
AcDbEntity
  8
0
  6
Continuous
 62
     7
100
AcDbLine
 10
-181.5369567871094
 20
97.84817504882813
 30
0.0
 11
-179.5769805908203
 21
95.8882064819336
 31
0.0
  0
LINE
  5
AF
330
22
100
AcDbEntity
  8
0
  6
Continuous
 62
     7
100
AcDbLine
 10
-178.4458770751953
 20
94.75710296630859
 30
0.0
 11
-177.6769866943359
 21
93.98820495605468
 31
0.0
  0
LINE
  5
B0
330
22
100
AcDbEntity
  8
0
  6
Continuous
 62
     7
100
AcDbLine
 10
-201.8268737792969
 20
118.4916534423828
 30
0.0
 11
-197.7073211669922
 21
114.3721008300781
 31
0.0
  0
LINE
  5
B1
330
22
100
AcDbEntity
  8
0
  6
Continuous
 62
     7
100
AcDbLine
 10
-181.5682830810547
 20
98.23305511474607
 30
0.0
 11
-179.5769805908203
 21
96.24176025390625
 31
0.0
  0
LINE
  5
B2
330
22
100
AcDbEntity
  8
0
  6
Continuous
 62
     7
100
AcDbLine
 10
-178.0923309326172
 20
94.75710296630859
 30
0.0
 11
-177.6769866943359
 21
94.34175872802734
 31
0.0
  0
LINE
  5
B3
330
22
100
AcDbEntity
  8
0
  6
Continuous
 62
     7
100
AcDbLine
 10
-201.0316619873047
 20
118.7571029663086
 30
0.0
 11
-196.6466674804688
 21
114.3721008300781
 31
0.0
  0
LINE
  5
B4
330
22
100
AcDbEntity
  8
0
  6
Continuous
 62
     7
100
AcDbLine
 10
-181.6622619628906
 20
99.38770294189453
 30
0.0
 11
-179.5316619873046
 21
97.25710296630859
 31
0.0
  0
LINE
  5
B5
330
22
100
AcDbEntity
  8
0
  6
Continuous
 62
     7
100
AcDbLine
 10
-200.6781158447266
 20
118.7571029663086
 30
0.0
 11
-196.2931060791016
 21
114.3721008300781
 31
0.0
  0
LINE
  5
B6
330
22
100
AcDbEntity
  8
0
  6
Continuous
 62
     7
100
AcDbLine
 10
-181.6935882568359
 20
99.77258300781251
 30
0.0
 11
-179.1781158447266
 21
97.25710296630859
 31
0.0
  0
LINE
  5
B7
330
22
100
AcDbEntity
  8
0
  6
Continuous
 62
     7
100
AcDbLine
 10
-199.6174468994141
 20
118.7571029663086
 30
0.0
 11
-195.2324523925781
 21
114.3721008300781
 31
0.0
  0
LINE
  5
B8
330
22
100
AcDbEntity
  8
0
  6
Continuous
 62
     7
100
AcDbLine
 10
-181.7875823974609
 20
100.9272232055664
 30
0.0
 11
-178.1174468994141
 21
97.25710296630859
 31
0.0
  0
LINE
  5
B9
330
22
100
AcDbEntity
  8
0
  6
Continuous
 62
     7
100
AcDbLine
 10
-199.2639007568359
 20
118.7571029663086
 30
0.0
 11
-194.87890625
 21
114.3721008300781
 31
0.0
  0
LINE
  5
BA
330
22
100
AcDbEntity
  8
0
  6
Continuous
 62
     7
100
AcDbLine
 10
-181.8189086914063
 20
101.3121032714844
 30
0.0
 11
-177.7639007568359
 21
97.25710296630859
 31
0.0
  0
LINE
  5
BB
330
22
100
AcDbEntity
  8
0
  6
Continuous
 62
     7
100
AcDbLine
 10
-198.2032470703125
 20
118.7571029663086
 30
0.0
 11
-193.8182373046875
 21
114.3721008300781
 31
0.0
  0
LINE
  5
BC
330
22
100
AcDbEntity
  8
0
  6
Continuous
 62
     7
100
AcDbLine
 10
-181.9128875732422
 20
102.4667434692383
 30
0.0
 11
-177.4460144042969
 21
97.9998779296875
 31
0.0
  0
LINE
  5
BD
330
22
100
AcDbEntity
  8
0
  6
Continuous
 62
     7
100
AcDbLine
 10
-197.8496856689453
 20
118.7571029663086
 30
0.0
 11
-193.4646911621094
 21
114.3721008300781
 31
0.0
  0
LINE
  5
BE
330
22
100
AcDbEntity
  8
0
  6
Continuous
 62
     7
100
AcDbLine
 10
-181.9442138671875
 20
102.8516311645508
 30
0.0
 11
-177.3930206298828
 21
98.30043029785157
 31
0.0
  0
LINE
  5
BF
330
22
100
AcDbEntity
  8
0
  6
Continuous
 62
     7
100
AcDbLine
 10
-196.7890319824219
 20
118.7571029663086
 30
0.0
 11
-192.4040222167969
 21
114.3721008300781
 31
0.0
  0
LINE
  5
C0
330
22
100
AcDbEntity
  8
0
  6
Continuous
 62
     7
100
AcDbLine
 10
-182.0381927490234
 20
104.0062713623047
 30
0.0
 11
-177.2340240478516
 21
99.20210266113279
 31
0.0
  0
LINE
  5
C1
330
22
100
AcDbEntity
  8
0
  6
Continuous
 62
     7
100
AcDbLine
 10
-196.4354705810547
 20
118.7571029663086
 30
0.0
 11
-192.0504760742188
 21
114.3721008300781
 31
0.0
  0
LINE
  5
C2
330
22
100
AcDbEntity
  8
0
  6
Continuous
 62
     7
100
AcDbLine
 10
-182.0695190429688
 20
104.3911514282227
 30
0.0
 11
-177.1810302734375
 21
99.5026626586914
 31
0.0
  0
LINE
  5
C3
330
22
100
AcDbEntity
  8
0
  6
Continuous
 62
     7
100
AcDbLine
 10
-195.3748168945313
 20
118.7571029663086
 30
0.0
 11
-190.9898071289063
 21
114.3721008300781
 31
0.0
  0
LINE
  5
C4
330
22
100
AcDbEntity
  8
0
  6
Continuous
 62
     7
100
AcDbLine
 10
-182.1635131835938
 20
105.5457916259766
 30
0.0
 11
-177.0220489501953
 21
100.404327392578
 31
0.0
  0
LINE
  5
C5
330
22
100
AcDbEntity
  8
0
  6
Continuous
 62
     7
100
AcDbLine
 10
-195.0212554931641
 20
118.7571029663086
 30
0.0
 11
-190.6362609863281
 21
114.3721008300781
 31
0.0
  0
LINE
  5
C6
330
22
100
AcDbEntity
  8
0
  6
Continuous
 62
     7
100
AcDbLine
 10
-182.1948394775391
 20
105.9306716918945
 30
0.0
 11
-176.9690399169922
 21
100.7048873901367
 31
0.0
  0
LINE
  5
C7
330
22
100
AcDbEntity
  8
0
  6
Continuous
 62
     7
100
AcDbLine
 10
-193.9606018066406
 20
118.7571029663086
 30
0.0
 11
-189.5755920410156
 21
114.3721008300781
 31
0.0
  0
LINE
  5
C8
330
22
100
AcDbEntity
  8
0
  6
Continuous
 62
     7
100
AcDbLine
 10
-182.288818359375
 20
107.085319519043
 30
0.0
 11
-176.81005859375
 21
101.606559753418
 31
0.0
  0
LINE
  5
C9
330
22
100
AcDbEntity
  8
0
  6
Continuous
 62
     7
100
AcDbLine
 10
-193.6070404052734
 20
118.7571029663086
 30
0.0
 11
-189.2220458984375
 21
114.3721008300781
 31
0.0
  0
LINE
  5
CA
330
22
100
AcDbEntity
  8
0
  6
Continuous
 62
     7
100
AcDbLine
 10
-182.3201446533203
 20
107.4701995849609
 30
0.0
 11
-176.7570648193359
 21
101.9071197509766
 31
0.0
  0
LINE
  5
CB
330
22
100
AcDbEntity
  8
0
  6
Continuous
 62
     7
100
AcDbLine
 10
-192.54638671875
 20
118.7571029663086
 30
0.0
 11
-188.1613922119141
 21
114.3721008300781
 31
0.0
  0
LINE
  5
CC
330
22
100
AcDbEntity
  8
0
  6
Continuous
 62
     7
100
AcDbLine
 10
-182.4141235351563
 20
108.6248397827148
 30
0.0
 11
-176.5980682373047
 21
102.8087844848633
 31
0.0
  0
LINE
  5
CD
330
22
100
AcDbEntity
  8
0
  6
Continuous
 62
     7
100
AcDbLine
 10
-192.1928405761719
 20
118.7571029663086
 30
0.0
 11
-187.8078308105469
 21
114.3721008300781
 31
0.0
  0
LINE
  5
CE
330
22
100
AcDbEntity
  8
0
  6
Continuous
 62
     7
100
AcDbLine
 10
-182.4454498291016
 20
109.0097198486328
 30
0.0
 11
-176.5450744628906
 21
103.1093444824219
 31
0.0
  0
LINE
  5
CF
330
22
100
AcDbEntity
  8
0
  6
Continuous
 62
     7
100
AcDbLine
 10
-191.1321716308594
 20
118.7571029663086
 30
0.0
 11
-186.7471771240234
 21
114.3721008300781
 31
0.0
  0
LINE
  5
D0
330
22
100
AcDbEntity
  8
0
  6
Continuous
 62
     7
100
AcDbLine
 10
-182.5394439697266
 20
110.1643676757813
 30
0.0
 11
-176.3860931396484
 21
104.0110168457031
 31
0.0
  0
LINE
  5
D1
330
22
100
AcDbEntity
  8
0
  6
Continuous
 62
     7
100
AcDbLine
 10
-190.7786254882813
 20
118.7571029663086
 30
0.0
 11
-186.3936157226563
 21
114.3721008300781
 31
0.0
  0
LINE
  5
D2
330
22
100
AcDbEntity
  8
0
  6
Continuous
 62
     7
100
AcDbLine
 10
-182.5707702636719
 20
110.5492477416992
 30
0.0
 11
-176.3330841064453
 21
104.3115692138672
 31
0.0
  0
LINE
  5
D3
330
22
100
AcDbEntity
  8
0
  6
Continuous
 62
     7
100
AcDbLine
 10
-189.7179565429688
 20
118.7571029663086
 30
0.0
 11
-185.3329620361328
 21
114.3721008300781
 31
0.0
  0
LINE
  5
D4
330
22
100
AcDbEntity
  8
0
  6
Continuous
 62
     7
100
AcDbLine
 10
-182.6647491455078
 20
111.7038879394531
 30
0.0
 11
-176.1741027832031
 21
105.2132415771484
 31
0.0
  0
LINE
  5
D5
330
22
100
AcDbEntity
  8
0
  6
Continuous
 62
     7
100
AcDbLine
 10
-189.3644104003906
 20
118.7571029663086
 30
0.0
 11
-184.9794006347656
 21
114.3721008300781
 31
0.0
  0
LINE
  5
D6
330
22
100
AcDbEntity
  8
0
  6
Continuous
 62
     7
100
AcDbLine
 10
-182.6960754394531
 20
112.0887680053711
 30
0.0
 11
-176.1211090087891
 21
105.513801574707
 31
0.0
  0
LINE
  5
D7
330
22
100
AcDbEntity
  8
0
  6
Continuous
 62
     7
100
AcDbLine
 10
-188.3037414550781
 20
118.7571029663086
 30
0.0
 11
-183.8328247070313
 21
114.2861709594727
 31
0.0
  0
LINE
  5
D8
330
22
100
AcDbEntity
  8
0
  6
Continuous
 62
     7
100
AcDbLine
 10
-182.8427429199219
 20
113.2960968017578
 30
0.0
 11
-175.9621124267578
 21
106.4154739379883
 31
0.0
  0
LINE
  5
D9
330
22
100
AcDbEntity
  8
0
  6
Continuous
 62
     7
100
AcDbLine
 10
-187.9501953125
 20
118.7571029663086
 30
0.0
 11
-175.9091186523438
 21
106.7160263061523
 31
0.0
  0
LINE
  5
DA
330
22
100
AcDbEntity
  8
0
  6
Continuous
 62
     7
100
AcDbLine
 10
-186.8895263671875
 20
118.7571029663086
 30
0.0
 11
-175.7501373291016
 21
107.6176986694336
 31
0.0
  0
LINE
  5
DB
330
22
100
AcDbEntity
  8
0
  6
Continuous
 62
     7
100
AcDbLine
 10
-186.5359802246094
 20
118.7571029663086
 30
0.0
 11
-175.6971282958984
 21
107.9182586669922
 31
0.0
  0
LINE
  5
DC
330
22
100
AcDbEntity
  8
0
  6
Continuous
 62
     7
100
AcDbLine
 10
-185.4753112792969
 20
118.7571029663086
 30
0.0
 11
-175.5381469726563
 21
108.8199310302734
 31
0.0
  0
LINE
  5
DD
330
22
100
AcDbEntity
  8
0
  6
Continuous
 62
     7
100
AcDbLine
 10
-185.1217651367188
 20
118.7571029663086
 30
0.0
 11
-175.4851531982422
 21
109.1204833984375
 31
0.0
  0
LINE
  5
DE
330
22
100
AcDbEntity
  8
0
  6
Continuous
 62
     7
100
AcDbLine
 10
-184.0611114501953
 20
118.7571029663086
 30
0.0
 11
-175.3261566162109
 21
110.0221557617188
 31
0.0
  0
LINE
  5
DF
330
22
100
AcDbEntity
  8
0
  6
Continuous
 62
     7
100
AcDbLine
 10
-183.7075500488281
 20
118.7571029663086
 30
0.0
 11
-175.2731628417969
 21
110.3227157592773
 31
0.0
  0
LINE
  5
E0
330
22
100
AcDbEntity
  8
0
  6
Continuous
 62
     7
100
AcDbLine
 10
-182.6468963623047
 20
118.7571029663086
 30
0.0
 11
-175.1141815185547
 21
111.2243881225586
 31
0.0
  0
LINE
  5
E1
330
22
100
AcDbEntity
  8
0
  6
Continuous
 62
     7
100
AcDbLine
 10
-182.2933349609375
 20
118.7571029663086
 30
0.0
 11
-175.0611724853516
 21
111.5249404907227
 31
0.0
  0
LINE
  5
E2
330
22
100
AcDbEntity
  8
0
  6
Continuous
 62
     7
100
AcDbLine
 10
-181.2326812744141
 20
118.7571029663086
 30
0.0
 11
-174.9021911621094
 21
112.4266128540039
 31
0.0
  0
LINE
  5
E3
330
22
100
AcDbEntity
  8
0
  6
Continuous
 62
     7
100
AcDbLine
 10
-180.8791198730469
 20
118.7571029663086
 30
0.0
 11
-174.8491973876953
 21
112.7271728515625
 31
0.0
  0
LINE
  5
E4
330
22
100
AcDbEntity
  8
0
  6
Continuous
 62
     7
100
AcDbLine
 10
-179.8184661865234
 20
118.7571029663086
 30
0.0
 11
-174.6902008056641
 21
113.6288452148438
 31
0.0
  0
LINE
  5
E5
330
22
100
AcDbEntity
  8
0
  6
Continuous
 62
     7
100
AcDbLine
 10
-179.4649047851563
 20
118.7571029663086
 30
0.0
 11
-174.63720703125
 21
113.9293975830078
 31
0.0
  0
LINE
  5
E6
330
22
100
AcDbEntity
  8
0
  6
Continuous
 62
     7
100
AcDbLine
 10
-178.4042510986328
 20
118.7571029663086
 30
0.0
 11
-174.4782257080078
 21
114.8310699462891
 31
0.0
  0
LINE
  5
E7
330
22
100
AcDbEntity
  8
0
  6
Continuous
 62
     7
100
AcDbLine
 10
-178.0507049560547
 20
118.7571029663086
 30
0.0
 11
-174.4252166748047
 21
115.1316299438477
 31
0.0
  0
LINE
  5
E8
330
22
100
AcDbEntity
  8
0
  6
Continuous
 62
     7
100
AcDbLine
 10
-176.9900360107422
 20
118.7571029663086
 30
0.0
 11
-174.2662353515625
 21
116.0332946777344
 31
0.0
  0
LINE
  5
E9
330
22
100
AcDbEntity
  8
0
  6
Continuous
 62
     7
100
AcDbLine
 10
-176.6364898681641
 20
118.7571029663086
 30
0.0
 11
-174.2132415771484
 21
116.333854675293
 31
0.0
  0
LINE
  5
EA
330
22
100
AcDbEntity
  8
0
  6
Continuous
 62
     7
100
AcDbLine
 10
-175.5758209228516
 20
118.7571029663086
 30
0.0
 11
-174.0542449951172
 21
117.2355270385742
 31
0.0
  0
LINE
  5
EB
330
22
100
AcDbEntity
  8
0
  6
Continuous
 62
     7
100
AcDbLine
 10
-175.2222747802734
 20
118.7571029663086
 30
0.0
 11
-174.0012512207031
 21
117.5360870361328
 31
0.0
  0
LINE
  5
EC
330
22
100
AcDbEntity
  8
0
  6
Continuous
 62
     7
100
AcDbLine
 10
-173.7859497070313
 20
118.7571029663086
 30
0.0
 11
-177.5769805908203
 21
97.25710296630859
 31
0.0
  0
LINE
  5
ED
330
22
100
AcDbEntity
  8
0
  6
Continuous
 62
     7
100
AcDbLine
 10
-216.5579223632813
 20
84.75710296630859
 30
0.0
 11
-215.7915344238281
 21
85.52349090576171
 31
0.0
  0
LINE
  5
EE
330
22
100
AcDbEntity
  8
0
  6
Continuous
 62
     7
100
AcDbLine
 10
-218.6792449951172
 20
84.75710296630859
 30
0.0
 11
-215.7915344238281
 21
87.64481353759766
 31
0.0
  0
LINE
  5
EF
330
22
100
AcDbEntity
  8
0
  6
Continuous
 62
     7
100
AcDbLine
 10
-220.8005676269531
 20
84.75710296630859
 30
0.0
 11
-217.3005676269531
 21
88.25710296630859
 31
0.0
  0
LINE
  5
F0
330
22
100
AcDbEntity
  8
0
  6
Continuous
 62
     7
100
AcDbLine
 10
-221.7859497070314
 20
85.89302825927735
 30
0.0
 11
-219.421875
 21
88.25710296630859
 31
0.0
  0
LINE
  5
F1
330
22
100
AcDbEntity
  8
0
  6
Continuous
 62
     7
100
AcDbLine
 10
-219.421875
 20
88.25710296630859
 30
0.0
 11
-217.7915344238281
 21
89.88745880126954
 31
0.0
  0
LINE
  5
F2
330
22
100
AcDbEntity
  8
0
  6
Continuous
 62
     7
100
AcDbLine
 10
-221.7859497070314
 20
88.01435089111327
 30
0.0
 11
-221.5431976318359
 21
88.25710296630859
 31
0.0
  0
LINE
  5
F3
330
22
100
AcDbEntity
  8
0
  6
Continuous
 62
     7
100
AcDbLine
 10
-221.5431976318359
 20
88.25710296630859
 30
0.0
 11
-217.7915344238281
 21
92.00877380371094
 31
0.0
  0
LINE
  5
F4
330
22
100
AcDbEntity
  8
0
  6
Continuous
 62
     7
100
AcDbLine
 10
-205.0431976318359
 20
104.7571029663086
 30
0.0
 11
-203.8911285400391
 21
105.9091796875
 31
0.0
  0
LINE
  5
F5
330
22
100
AcDbEntity
  8
0
  6
Continuous
 62
     7
100
AcDbLine
 10
-221.7859497070314
 20
90.13566589355468
 30
0.0
 11
-217.7915344238281
 21
94.13009643554687
 31
0.0
  0
LINE
  5
F6
330
22
100
AcDbEntity
  8
0
  6
Continuous
 62
     7
100
AcDbLine
 10
-206.9858093261719
 20
104.9358062744141
 30
0.0
 11
-204.6645202636719
 21
107.2571029663086
 31
0.0
  0
LINE
  5
F7
330
22
100
AcDbEntity
  8
0
  6
Continuous
 62
     7
100
AcDbLine
 10
-221.7859497070314
 20
92.25698852539064
 30
0.0
 11
-217.7915344238281
 21
96.2514190673828
 31
0.0
  0
LINE
  5
F8
330
22
100
AcDbEntity
  8
0
  6
Continuous
 62
     7
100
AcDbLine
 10
-207.7910614013672
 20
106.2518920898438
 30
0.0
 11
-205.7911224365234
 21
108.251823425293
 31
0.0
  0
LINE
  5
F9
330
22
100
AcDbEntity
  8
0
  6
Continuous
 62
     7
100
AcDbLine
 10
-204.286376953125
 20
109.7565612792969
 30
0.0
 11
-203.7443237304688
 21
110.2986221313477
 31
0.0
  0
LINE
  5
FA
330
22
100
AcDbEntity
  8
0
  6
Continuous
 62
     7
100
AcDbLine
 10
-221.7859497070314
 20
94.37831115722657
 30
0.0
 11
-217.7915344238281
 21
98.37273406982422
 31
0.0
  0
LINE
  5
FB
330
22
100
AcDbEntity
  8
0
  6
Continuous
 62
     7
100
AcDbLine
 10
-208.7632446289063
 20
107.4010162353516
 30
0.0
 11
-203.1075744628906
 21
113.0566940307617
 31
0.0
  0
LINE
  5
FC
330
22
100
AcDbEntity
  8
0
  6
Continuous
 62
     7
100
AcDbLine
 10
-221.7859497070314
 20
96.49962615966796
 30
0.0
 11
-217.7915344238281
 21
100.4940567016602
 31
0.0
  0
LINE
  5
FD
330
22
100
AcDbEntity
  8
0
  6
Continuous
 62
     7
100
AcDbLine
 10
-210.8790283203125
 20
107.4065628051758
 30
0.0
 11
-202.4708251953125
 21
115.8147659301758
 31
0.0
  0
LINE
  5
FE
330
22
100
AcDbEntity
  8
0
  6
Continuous
 62
     7
100
AcDbLine
 10
-221.7859497070314
 20
98.62094879150392
 30
0.0
 11
-217.7915344238281
 21
102.6153793334961
 31
0.0
  0
LINE
  5
FF
330
22
100
AcDbEntity
  8
0
  6
Continuous
 62
     7
100
AcDbLine
 10
-213.0003356933594
 20
107.4065628051758
 30
0.0
 11
-201.9655609130859
 21
118.4413375854492
 31
0.0
  0
LINE
  5
100
330
22
100
AcDbEntity
  8
0
  6
Continuous
 62
     7
100
AcDbLine
 10
-221.7859497070314
 20
100.7422714233398
 30
0.0
 11
-217.7554626464844
 21
104.7727661132813
 31
0.0
  0
LINE
  5
101
330
22
100
AcDbEntity
  8
0
  6
Continuous
 62
     7
100
AcDbLine
 10
-215.1577301025391
 20
107.3704986572266
 30
0.0
 11
-203.7711181640625
 21
118.7571029663086
 31
0.0
  0
LINE
  5
102
330
22
100
AcDbEntity
  8
0
  6
Continuous
 62
     7
100
AcDbLine
 10
-221.7859497070314
 20
102.8635940551758
 30
0.0
 11
-214.8924407958984
 21
109.7571029663086
 31
0.0
  0
LINE
  5
103
330
22
100
AcDbEntity
  8
0
  6
Continuous
 62
     7
100
AcDbLine
 10
-213.7915344238281
 20
110.8580169677734
 30
0.0
 11
-205.8924407958984
 21
118.7571029663086
 31
0.0
  0
LINE
  5
104
330
22
100
AcDbEntity
  8
0
  6
Continuous
 62
     7
100
AcDbLine
 10
-221.7859497070314
 20
104.9849090576172
 30
0.0
 11
-217.0137634277344
 21
109.7571029663086
 31
0.0
  0
LINE
  5
105
330
22
100
AcDbEntity
  8
0
  6
Continuous
 62
     7
100
AcDbLine
 10
-213.7915344238281
 20
112.9793395996094
 30
0.0
 11
-208.0137634277344
 21
118.7571029663086
 31
0.0
  0
LINE
  5
106
330
22
100
AcDbEntity
  8
0
  6
Continuous
 62
     7
100
AcDbLine
 10
-221.7859497070314
 20
107.1062316894531
 30
0.0
 11
-219.1350860595703
 21
109.7571029663086
 31
0.0
  0
LINE
  5
107
330
22
100
AcDbEntity
  8
0
  6
Continuous
 62
     7
100
AcDbLine
 10
-213.7915344238281
 20
115.1006622314453
 30
0.0
 11
-210.1350860595703
 21
118.7571029663086
 31
0.0
  0
LINE
  5
108
330
22
100
AcDbEntity
  8
0
  6
Continuous
 62
     7
100
AcDbLine
 10
-221.7859497070314
 20
109.2275543212891
 30
0.0
 11
-221.2564086914063
 21
109.7571029663086
 31
0.0
  0
LINE
  5
109
330
22
100
AcDbEntity
  8
0
  6
Continuous
 62
     7
100
AcDbLine
 10
-214.1181030273438
 20
116.8954086303711
 30
0.0
 11
-212.2564086914063
 21
118.7571029663086
 31
0.0
  0
LINE
  5
10A
330
22
100
AcDbEntity
  8
0
  6
Continuous
 62
     7
100
AcDbLine
 10
-216.2394256591797
 20
116.8954086303711
 30
0.0
 11
-214.3777313232422
 21
118.7571029663086
 31
0.0
  0
LINE
  5
10B
330
22
100
AcDbEntity
  8
0
  6
Continuous
 62
     7
100
AcDbLine
 10
-218.3607330322266
 20
116.8954086303711
 30
0.0
 11
-216.4990386962891
 21
118.7571029663086
 31
0.0
  0
LINE
  5
10C
330
22
100
AcDbEntity
  8
0
  6
Continuous
 62
     7
100
AcDbLine
 10
-219.5219573974609
 20
117.8555145263672
 30
0.0
 11
-218.6399383544922
 21
118.7375259399414
 31
0.0
  0
LINE
  5
10D
330
22
100
AcDbEntity
  8
0
  6
Continuous
 62
     7
100
AcDbLine
 10
-217.6185760498047
 20
84.75710296630859
 30
0.0
 11
-215.7915344238281
 21
86.58415222167969
 31
0.0
  0
LINE
  5
10E
330
22
100
AcDbEntity
  8
0
  6
Continuous
 62
     7
100
AcDbLine
 10
-219.7398986816406
 20
84.75710296630859
 30
0.0
 11
-216.2398986816406
 21
88.25710296630859
 31
0.0
  0
LINE
  5
10F
330
22
100
AcDbEntity
  8
0
  6
Continuous
 62
     7
100
AcDbLine
 10
-221.7859497070314
 20
84.83236694335937
 30
0.0
 11
-218.3612213134766
 21
88.25710296630859
 31
0.0
  0
LINE
  5
110
330
22
100
AcDbEntity
  8
0
  6
Continuous
 62
     7
100
AcDbLine
 10
-218.3612213134766
 20
88.25710296630859
 30
0.0
 11
-217.7915344238281
 21
88.82679748535156
 31
0.0
  0
LINE
  5
111
330
22
100
AcDbEntity
  8
0
  6
Continuous
 62
     7
100
AcDbLine
 10
-221.7859497070314
 20
86.95368957519532
 30
0.0
 11
-220.4825439453125
 21
88.25710296630859
 31
0.0
  0
LINE
  5
112
330
22
100
AcDbEntity
  8
0
  6
Continuous
 62
     7
100
AcDbLine
 10
-220.4825439453125
 20
88.25710296630859
 30
0.0
 11
-217.7915344238281
 21
90.94811248779295
 31
0.0
  0
LINE
  5
113
330
22
100
AcDbEntity
  8
0
  6
Continuous
 62
     7
100
AcDbLine
 10
-221.7859497070314
 20
89.07501220703125
 30
0.0
 11
-217.7915344238281
 21
93.06943511962892
 31
0.0
  0
LINE
  5
114
330
22
100
AcDbEntity
  8
0
  6
Continuous
 62
     7
100
AcDbLine
 10
-206.1038665771484
 20
104.7571029663086
 30
0.0
 11
-203.8911285400391
 21
106.969841003418
 31
0.0
  0
LINE
  5
115
330
22
100
AcDbEntity
  8
0
  6
Continuous
 62
     7
100
AcDbLine
 10
-221.7859497070314
 20
91.19632720947265
 30
0.0
 11
-217.7915344238281
 21
95.19075775146484
 31
0.0
  0
LINE
  5
116
330
22
100
AcDbEntity
  8
0
  6
Continuous
 62
     7
100
AcDbLine
 10
-207.5443878173828
 20
105.4378890991211
 30
0.0
 11
-205.7251892089844
 21
107.2571029663086
 31
0.0
  0
LINE
  5
117
330
22
100
AcDbEntity
  8
0
  6
Continuous
 62
     7
100
AcDbLine
 10
-221.7859497070314
 20
93.3176498413086
 30
0.0
 11
-217.7915344238281
 21
97.31208038330079
 31
0.0
  0
LINE
  5
118
330
22
100
AcDbEntity
  8
0
  6
Continuous
 62
     7
100
AcDbLine
 10
-208.0463256835938
 20
107.0572738647461
 30
0.0
 11
-205.7911224365234
 21
109.3124771118164
 31
0.0
  0
LINE
  5
119
330
22
100
AcDbEntity
  8
0
  6
Continuous
 62
     7
100
AcDbLine
 10
-205.3470458984375
 20
109.7565612792969
 30
0.0
 11
-203.4259490966797
 21
111.6776580810547
 31
0.0
  0
LINE
  5
11A
330
22
100
AcDbEntity
  8
0
  6
Continuous
 62
     7
100
AcDbLine
 10
-221.7859497070314
 20
95.43897247314452
 30
0.0
 11
-217.7915344238281
 21
99.43339538574221
 31
0.0
  0
LINE
  5
11B
330
22
100
AcDbEntity
  8
0
  6
Continuous
 62
     7
100
AcDbLine
 10
-209.818359375
 20
107.4065628051758
 30
0.0
 11
-202.7891998291016
 21
114.4357299804688
 31
0.0
  0
LINE
  5
11C
330
22
100
AcDbEntity
  8
0
  6
Continuous
 62
     7
100
AcDbLine
 10
-221.7859497070314
 20
97.56028747558595
 30
0.0
 11
-217.7915344238281
 21
101.5547180175781
 31
0.0
  0
LINE
  5
11D
330
22
100
AcDbEntity
  8
0
  6
Continuous
 62
     7
100
AcDbLine
 10
-211.9396820068359
 20
107.4065628051758
 30
0.0
 11
-202.1524505615234
 21
117.1938018798828
 31
0.0
  0
LINE
  5
11E
330
22
100
AcDbEntity
  8
0
  6
Continuous
 62
     7
100
AcDbLine
 10
-221.7859497070314
 20
99.68161010742187
 30
0.0
 11
-217.7915344238281
 21
103.6760406494141
 31
0.0
  0
LINE
  5
11F
330
22
100
AcDbEntity
  8
0
  6
Continuous
 62
     7
100
AcDbLine
 10
-214.0610046386719
 20
107.4065628051758
 30
0.0
 11
-202.7104644775391
 21
118.7571029663086
 31
0.0
  0
LINE
  5
120
330
22
100
AcDbEntity
  8
0
  6
Continuous
 62
     7
100
AcDbLine
 10
-221.7859497070314
 20
101.8029327392578
 30
0.0
 11
-213.831787109375
 21
109.7571029663086
 31
0.0
  0
LINE
  5
121
330
22
100
AcDbEntity
  8
0
  6
Continuous
 62
     7
100
AcDbLine
 10
-213.7915344238281
 20
109.7973556518555
 30
0.0
 11
-204.831787109375
 21
118.7571029663086
 31
0.0
  0
LINE
  5
122
330
22
100
AcDbEntity
  8
0
  6
Continuous
 62
     7
100
AcDbLine
 10
-221.7859497070314
 20
103.9242477416992
 30
0.0
 11
-215.9531097412109
 21
109.7571029663086
 31
0.0
  0
LINE
  5
123
330
22
100
AcDbEntity
  8
0
  6
Continuous
 62
     7
100
AcDbLine
 10
-213.7915344238281
 20
111.9186782836914
 30
0.0
 11
-206.9531097412109
 21
118.7571029663086
 31
0.0
  0
LINE
  5
124
330
22
100
AcDbEntity
  8
0
  6
Continuous
 62
     7
100
AcDbLine
 10
-221.7859497070314
 20
106.0455703735352
 30
0.0
 11
-218.0744323730469
 21
109.7571029663086
 31
0.0
  0
LINE
  5
125
330
22
100
AcDbEntity
  8
0
  6
Continuous
 62
     7
100
AcDbLine
 10
-213.7915344238281
 20
114.0400009155273
 30
0.0
 11
-209.0744323730469
 21
118.7571029663086
 31
0.0
  0
LINE
  5
126
330
22
100
AcDbEntity
  8
0
  6
Continuous
 62
     7
100
AcDbLine
 10
-221.7859497070314
 20
108.1668930053711
 30
0.0
 11
-220.1957397460938
 21
109.7571029663086
 31
0.0
  0
LINE
  5
127
330
22
100
AcDbEntity
  8
0
  6
Continuous
 62
     7
100
AcDbLine
 10
-213.7943267822266
 20
116.1585159301758
 30
0.0
 11
-211.1957397460938
 21
118.7571029663086
 31
0.0
  0
LINE
  5
128
330
22
100
AcDbEntity
  8
0
  6
Continuous
 62
     7
100
AcDbLine
 10
-215.1787567138672
 20
116.8954086303711
 30
0.0
 11
-213.3170623779297
 21
118.7571029663086
 31
0.0
  0
LINE
  5
129
330
22
100
AcDbEntity
  8
0
  6
Continuous
 62
     7
100
AcDbLine
 10
-217.3000793457031
 20
116.8954086303711
 30
0.0
 11
-215.4383850097656
 21
118.7571029663086
 31
0.0
  0
LINE
  5
12A
330
22
100
AcDbEntity
  8
0
  6
Continuous
 62
     7
100
AcDbLine
 10
-219.4214019775391
 20
116.8954086303711
 30
0.0
 11
-217.5597076416016
 21
118.7571029663086
 31
0.0
  0
LINE
  5
12B
330
22
100
AcDbEntity
  8
0
  6
Continuous
 62
     7
100
AcDbLine
 10
-175.6960296630859
 20
64.75710296630859
 30
0.0
 11
-173.2859497070313
 21
67.16716766357421
 31
0.0
  0
LINE
  5
12C
330
22
100
AcDbEntity
  8
0
  6
Continuous
 62
     7
100
AcDbLine
 10
-177.1102294921875
 20
64.75710296630859
 30
0.0
 11
-173.2859497070313
 21
68.58138275146484
 31
0.0
  0
LINE
  5
12D
330
22
100
AcDbEntity
  8
0
  6
Continuous
 62
     7
100
AcDbLine
 10
-177.6769866943359
 20
65.60456848144531
 30
0.0
 11
-173.2859497070313
 21
69.99559783935547
 31
0.0
  0
LINE
  5
12E
330
22
100
AcDbEntity
  8
0
  6
Continuous
 62
     7
100
AcDbLine
 10
-177.6769866943359
 20
67.01878356933594
 30
0.0
 11
-173.2859497070313
 21
71.40981292724609
 31
0.0
  0
LINE
  5
12F
330
22
100
AcDbEntity
  8
0
  6
Continuous
 62
     7
100
AcDbLine
 10
-177.6769866943359
 20
68.43299102783203
 30
0.0
 11
-173.2859497070313
 21
72.82402038574218
 31
0.0
  0
LINE
  5
130
330
22
100
AcDbEntity
  8
0
  6
Continuous
 62
     7
100
AcDbLine
 10
-177.6769866943359
 20
69.84720611572265
 30
0.0
 11
-173.2859497070313
 21
74.23823547363281
 31
0.0
  0
LINE
  5
131
330
22
100
AcDbEntity
  8
0
  6
Continuous
 62
     7
100
AcDbLine
 10
-177.6769866943359
 20
71.26142120361328
 30
0.0
 11
-173.2859497070313
 21
75.65245056152344
 31
0.0
  0
LINE
  5
132
330
22
100
AcDbEntity
  8
0
  6
Continuous
 62
     7
100
AcDbLine
 10
-177.6769866943359
 20
72.67563629150391
 30
0.0
 11
-173.2859497070313
 21
77.06666564941406
 31
0.0
  0
LINE
  5
133
330
22
100
AcDbEntity
  8
0
  6
Continuous
 62
     7
100
AcDbLine
 10
-177.6769866943359
 20
74.08985137939453
 30
0.0
 11
-173.2859497070313
 21
78.48088073730469
 31
0.0
  0
LINE
  5
134
330
22
100
AcDbEntity
  8
0
  6
Continuous
 62
     7
100
AcDbLine
 10
-177.6769866943359
 20
75.50405883789062
 30
0.0
 11
-173.2859497070313
 21
79.89508819580078
 31
0.0
  0
LINE
  5
135
330
22
100
AcDbEntity
  8
0
  6
Continuous
 62
     7
100
AcDbLine
 10
-177.6769866943359
 20
76.91827392578125
 30
0.0
 11
-173.2859497070313
 21
81.3093032836914
 31
0.0
  0
LINE
  5
136
330
22
100
AcDbEntity
  8
0
  6
Continuous
 62
     7
100
AcDbLine
 10
-177.6769866943359
 20
78.33248901367188
 30
0.0
 11
-173.2859497070313
 21
82.72351837158202
 31
0.0
  0
LINE
  5
137
330
22
100
AcDbEntity
  8
0
  6
Continuous
 62
     7
100
AcDbLine
 10
-177.6769866943359
 20
79.7467041015625
 30
0.0
 11
-173.2859497070313
 21
84.13773345947266
 31
0.0
  0
LINE
  5
138
330
22
100
AcDbEntity
  8
0
  6
Continuous
 62
     7
100
AcDbLine
 10
-177.6769866943359
 20
81.16091918945313
 30
0.0
 11
-173.2859497070313
 21
85.55194854736328
 31
0.0
  0
LINE
  5
139
330
22
100
AcDbEntity
  8
0
  6
Continuous
 62
     7
100
AcDbLine
 10
-177.6769866943359
 20
82.57512664794921
 30
0.0
 11
-173.2859497070313
 21
86.96615600585937
 31
0.0
  0
LINE
  5
13A
330
22
100
AcDbEntity
  8
0
  6
Continuous
 62
     7
100
AcDbLine
 10
-177.9024353027344
 20
83.76389312744141
 30
0.0
 11
-173.2859497070313
 21
88.38037109374999
 31
0.0
  0
LINE
  5
13B
330
22
100
AcDbEntity
  8
0
  6
Continuous
 62
     7
100
AcDbLine
 10
-179.3169403076172
 20
83.76361083984376
 30
0.0
 11
-173.2859497070313
 21
89.79458618164063
 31
0.0
  0
LINE
  5
13C
330
22
100
AcDbEntity
  8
0
  6
Continuous
 62
     7
100
AcDbLine
 10
-180.7314300537109
 20
83.76332092285156
 30
0.0
 11
-173.2859497070313
 21
91.20880126953123
 31
0.0
  0
LINE
  5
13D
330
22
100
AcDbEntity
  8
0
  6
Continuous
 62
     7
100
AcDbLine
 10
-182.1459350585938
 20
83.76303863525391
 30
0.0
 11
-178.1518707275391
 21
87.7571029663086
 31
0.0
  0
LINE
  5
13E
330
22
100
AcDbEntity
  8
0
  6
Continuous
 62
     7
100
AcDbLine
 10
-177.6769866943359
 20
88.23198699951172
 30
0.0
 11
-173.2859497070313
 21
92.62301635742188
 31
0.0
  0
LINE
  5
13F
330
22
100
AcDbEntity
  8
0
  6
Continuous
 62
     7
100
AcDbLine
 10
-183.5604248046875
 20
83.76275634765624
 30
0.0
 11
-179.5660858154297
 21
87.7571029663086
 31
0.0
  0
LINE
  5
140
330
22
100
AcDbEntity
  8
0
  6
Continuous
 62
     7
100
AcDbLine
 10
-177.6769866943359
 20
89.64619445800781
 30
0.0
 11
-173.2859497070313
 21
94.03722381591796
 31
0.0
  0
LINE
  5
141
330
22
100
AcDbEntity
  8
0
  6
Continuous
 62
     7
100
AcDbLine
 10
-184.9749145507813
 20
83.76247406005859
 30
0.0
 11
-180.9803009033203
 21
87.7571029663086
 31
0.0
  0
LINE
  5
142
330
22
100
AcDbEntity
  8
0
  6
Continuous
 62
     7
100
AcDbLine
 10
-177.6769866943359
 20
91.06040954589843
 30
0.0
 11
-173.2859497070313
 21
95.4514389038086
 31
0.0
  0
LINE
  5
143
330
22
100
AcDbEntity
  8
0
  6
Continuous
 62
     7
100
AcDbLine
 10
-186.3894195556641
 20
83.76219177246094
 30
0.0
 11
-182.3945007324219
 21
87.7571029663086
 31
0.0
  0
LINE
  5
144
330
22
100
AcDbEntity
  8
0
  6
Continuous
 62
     7
100
AcDbLine
 10
-177.6769866943359
 20
92.47462463378907
 30
0.0
 11
-173.2859497070313
 21
96.86565399169921
 31
0.0
  0
LINE
  5
145
330
22
100
AcDbEntity
  8
0
  6
Continuous
 62
     7
100
AcDbLine
 10
-187.8039093017578
 20
83.76190948486328
 30
0.0
 11
-183.8087158203125
 21
87.7571029663086
 31
0.0
  0
LINE
  5
146
330
22
100
AcDbEntity
  8
0
  6
Continuous
 62
     7
100
AcDbLine
 10
-177.6769866943359
 20
93.88883972167969
 30
0.0
 11
-173.2859497070313
 21
98.27986907958985
 31
0.0
  0
LINE
  5
147
330
22
100
AcDbEntity
  8
0
  6
Continuous
 62
     7
100
AcDbLine
 10
-189.2184143066406
 20
83.76161956787109
 30
0.0
 11
-185.2229309082031
 21
87.7571029663086
 31
0.0
  0
LINE
  5
148
330
22
100
AcDbEntity
  8
0
  6
Continuous
 62
     7
100
AcDbLine
 10
-177.6542358398438
 20
95.32579803466795
 30
0.0
 11
-173.2859497070313
 21
99.69408416748049
 31
0.0
  0
LINE
  5
149
330
22
100
AcDbEntity
  8
0
  6
Continuous
 62
     7
100
AcDbLine
 10
-190.6329040527344
 20
83.76133728027344
 30
0.0
 11
-186.6371459960938
 21
87.7571029663086
 31
0.0
  0
LINE
  5
14A
330
22
100
AcDbEntity
  8
0
  6
Continuous
 62
     7
100
AcDbLine
 10
-177.5953063964844
 20
96.79893493652343
 30
0.0
 11
-172.9741363525391
 21
101.4201126098633
 31
0.0
  0
LINE
  5
14B
330
22
100
AcDbEntity
  8
0
  6
Continuous
 62
     7
100
AcDbLine
 10
-192.0474090576172
 20
83.76105499267579
 30
0.0
 11
-188.0513610839844
 21
87.7571029663086
 31
0.0
  0
LINE
  5
14C
330
22
100
AcDbEntity
  8
0
  6
Continuous
 62
     7
100
AcDbLine
 10
-177.3683929443359
 20
98.4400634765625
 30
0.0
 11
-172.6477813720703
 21
103.1606826782227
 31
0.0
  0
LINE
  5
14D
330
22
100
AcDbEntity
  8
0
  6
Continuous
 62
     7
100
AcDbLine
 10
-160.0513610839844
 20
115.7571029663086
 30
0.0
 11
-159.2859497070313
 21
116.5225067138672
 31
0.0
  0
LINE
  5
14E
330
22
100
AcDbEntity
  8
0
  6
Continuous
 62
     7
100
AcDbLine
 10
-193.4618988037109
 20
83.76077270507812
 30
0.0
 11
-189.465576171875
 21
87.7571029663086
 31
0.0
  0
LINE
  5
14F
330
22
100
AcDbEntity
  8
0
  6
Continuous
 62
     7
100
AcDbLine
 10
-177.0656433105469
 20
100.1570281982422
 30
0.0
 11
-172.3214263916016
 21
104.901252746582
 31
0.0
  0
LINE
  5
150
330
22
100
AcDbEntity
  8
0
  6
Continuous
 62
     7
100
AcDbLine
 10
-161.465576171875
 20
115.7571029663086
 30
0.0
 11
-159.2859497070313
 21
117.9367218017578
 31
0.0
  0
LINE
  5
151
330
22
100
AcDbEntity
  8
0
  6
Continuous
 62
     7
100
AcDbLine
 10
-194.8764038085938
 20
83.76049041748046
 30
0.0
 11
-190.8797912597656
 21
87.7571029663086
 31
0.0
  0
LINE
  5
152
330
22
100
AcDbEntity
  8
0
  6
Continuous
 62
     7
100
AcDbLine
 10
-176.7629089355469
 20
101.8739852905273
 30
0.0
 11
-171.9950714111328
 21
106.6418228149414
 31
0.0
  0
LINE
  5
153
330
22
100
AcDbEntity
  8
0
  6
Continuous
 62
     7
100
AcDbLine
 10
-162.8797912597656
 20
115.7571029663086
 30
0.0
 11
-159.4893798828125
 21
119.1475067138672
 31
0.0
  0
LINE
  5
154
330
22
100
AcDbEntity
  8
0
  6
Continuous
 62
     7
100
AcDbLine
 10
-196.2908935546875
 20
83.76020812988281
 30
0.0
 11
-192.2940063476563
 21
87.7571029663086
 31
0.0
  0
LINE
  5
155
330
22
100
AcDbEntity
  8
0
  6
Continuous
 62
     7
100
AcDbLine
 10
-176.4601593017578
 20
103.590950012207
 30
0.0
 11
-171.6687164306641
 21
108.3823928833008
 31
0.0
  0
LINE
  5
156
330
22
100
AcDbEntity
  8
0
  6
Continuous
 62
     7
100
AcDbLine
 10
-164.2940063476563
 20
115.7571029663086
 30
0.0
 11
-160.3341522216797
 21
119.7169570922852
 31
0.0
  0
LINE
  5
157
330
22
100
AcDbEntity
  8
0
  6
Continuous
 62
     7
100
AcDbLine
 10
-197.7053985595703
 20
83.75992584228516
 30
0.0
 11
-193.7082214355469
 21
87.7571029663086
 31
0.0
  0
LINE
  5
158
330
22
100
AcDbEntity
  8
0
  6
Continuous
 62
     7
100
AcDbLine
 10
-176.1574096679688
 20
105.3079071044922
 30
0.0
 11
-171.3423614501953
 21
110.1229629516602
 31
0.0
  0
LINE
  5
159
330
22
100
AcDbEntity
  8
0
  6
Continuous
 62
     7
100
AcDbLine
 10
-165.7082214355469
 20
115.7571029663086
 30
0.0
 11
-162.7082214355469
 21
118.7571029663086
 31
0.0
  0
LINE
  5
15A
330
22
100
AcDbEntity
  8
0
  6
Continuous
 62
     7
100
AcDbLine
 10
-199.1198883056641
 20
83.75963592529297
 30
0.0
 11
-195.1224365234375
 21
87.7571029663086
 31
0.0
  0
LINE
  5
15B
330
22
100
AcDbEntity
  8
0
  6
Continuous
 62
     7
100
AcDbLine
 10
-175.8546600341797
 20
107.0248641967773
 30
0.0
 11
-171.0160064697266
 21
111.8635330200195
 31
0.0
  0
LINE
  5
15C
330
22
100
AcDbEntity
  8
0
  6
Continuous
 62
     7
100
AcDbLine
 10
-167.1224365234375
 20
115.7571029663086
 30
0.0
 11
-164.1224365234375
 21
118.7571029663086
 31
0.0
  0
LINE
  5
15D
330
22
100
AcDbEntity
  8
0
  6
Continuous
 62
     7
100
AcDbLine
 10
-200.5343933105469
 20
83.75935363769531
 30
0.0
 11
-196.536636352539
 21
87.7571029663086
 31
0.0
  0
LINE
  5
15E
330
22
100
AcDbEntity
  8
0
  6
Continuous
 62
     7
100
AcDbLine
 10
-175.5519104003906
 20
108.741828918457
 30
0.0
 11
-170.6896362304688
 21
113.6041030883789
 31
0.0
  0
LINE
  5
15F
330
22
100
AcDbEntity
  8
0
  6
Continuous
 62
     7
100
AcDbLine
 10
-168.5366363525391
 20
115.7571029663086
 30
0.0
 11
-165.5366363525391
 21
118.7571029663086
 31
0.0
  0
LINE
  5
160
330
22
100
AcDbEntity
  8
0
  6
Continuous
 62
     7
100
AcDbLine
 10
-201.9488830566406
 20
83.75907135009766
 30
0.0
 11
-197.9508514404297
 21
87.7571029663086
 31
0.0
  0
LINE
  5
161
330
22
100
AcDbEntity
  8
0
  6
Continuous
 62
     7
100
AcDbLine
 10
-175.2491760253906
 20
110.4587860107422
 30
0.0
 11
-166.9508514404297
 21
118.7571029663086
 31
0.0
  0
LINE
  5
162
330
22
100
AcDbEntity
  8
0
  6
Continuous
 62
     7
100
AcDbLine
 10
-203.3633880615234
 20
83.75878906249999
 30
0.0
 11
-199.3650665283203
 21
87.7571029663086
 31
0.0
  0
LINE
  5
163
330
22
100
AcDbEntity
  8
0
  6
Continuous
 62
     7
100
AcDbLine
 10
-174.9464263916016
 20
112.1757431030273
 30
0.0
 11
-168.3650665283203
 21
118.7571029663086
 31
0.0
  0
LINE
  5
164
330
22
100
AcDbEntity
  8
0
  6
Continuous
 62
     7
100
AcDbLine
 10
-204.7778778076172
 20
83.75850677490234
 30
0.0
 11
-200.7792816162109
 21
87.7571029663086
 31
0.0
  0
LINE
  5
165
330
22
100
AcDbEntity
  8
0
  6
Continuous
 62
     7
100
AcDbLine
 10
-174.6436767578125
 20
113.892707824707
 30
0.0
 11
-169.7792816162109
 21
118.7571029663086
 31
0.0
  0
LINE
  5
166
330
22
100
AcDbEntity
  8
0
  6
Continuous
 62
     7
100
AcDbLine
 10
-206.1923828125
 20
83.75822448730469
 30
0.0
 11
-202.1934967041016
 21
87.7571029663086
 31
0.0
  0
LINE
  5
167
330
22
100
AcDbEntity
  8
0
  6
Continuous
 62
     7
100
AcDbLine
 10
-174.3409271240234
 20
115.6096649169922
 30
0.0
 11
-171.1934967041016
 21
118.7571029663086
 31
0.0
  0
LINE
  5
168
330
22
100
AcDbEntity
  8
0
  6
Continuous
 62
     7
100
AcDbLine
 10
-207.6068725585938
 20
83.75794219970703
 30
0.0
 11
-203.6077117919922
 21
87.7571029663086
 31
0.0
  0
LINE
  5
169
330
22
100
AcDbEntity
  8
0
  6
Continuous
 62
     7
100
AcDbLine
 10
-174.0381927490234
 20
117.3266296386719
 30
0.0
 11
-172.6077117919922
 21
118.7571029663086
 31
0.0
  0
LINE
  5
16A
330
22
100
AcDbEntity
  8
0
  6
Continuous
 62
     7
100
AcDbLine
 10
-209.0213775634766
 20
83.75765228271484
 30
0.0
 11
-205.0219268798828
 21
87.7571029663086
 31
0.0
  0
LINE
  5
16B
330
22
100
AcDbEntity
  8
0
  6
Continuous
 62
     7
100
AcDbLine
 10
-210.4358673095703
 20
83.75736999511719
 30
0.0
 11
-206.4361419677734
 21
87.7571029663086
 31
0.0
  0
LINE
  5
16C
330
22
100
AcDbEntity
  8
0
  6
Continuous
 62
     7
100
AcDbLine
 10
-211.7859497070313
 20
83.82149505615235
 30
0.0
 11
-207.8503570556641
 21
87.7571029663086
 31
0.0
  0
LINE
  5
16D
330
22
100
AcDbEntity
  8
0
  6
Continuous
 62
     7
100
AcDbLine
 10
-211.7859497070313
 20
85.23571014404296
 30
0.0
 11
-209.2645721435547
 21
87.7571029663086
 31
0.0
  0
LINE
  5
16E
330
22
100
AcDbEntity
  8
0
  6
Continuous
 62
     7
100
AcDbLine
 10
-211.7859497070313
 20
86.6499252319336
 30
0.0
 11
-210.6787719726563
 21
87.7571029663086
 31
0.0
  0
LINE
  5
16F
330
22
100
AcDbEntity
  8
0
  6
Continuous
 62
     7
100
AcDbLine
 10
-284.2859497070313
 20
118.5071029663086
 30
0.0
 11
-284.2859497070313
 21
115.7571029663086
 31
0.0
  0
LINE
  5
170
330
22
100
AcDbEntity
  8
0
  6
Continuous
 62
     7
100
AcDbLine
 10
-270.2859497070313
 20
67.75710296630859
 30
0.0
 11
-272.2859497070313
 21
69.75710296630859
 31
0.0
  0
LINE
  5
171
330
22
100
AcDbEntity
  8
0
  6
Continuous
 62
     7
100
AcDbLine
 10
-270.2859497070313
 20
65.75710296630859
 30
0.0
 11
-269.2859497070313
 21
64.75710296630859
 31
0.0
  0
LINE
  5
172
330
22
100
AcDbEntity
  8
0
  6
Continuous
 62
     7
100
AcDbLine
 10
-211.7859497070313
 20
83.7571029663086
 30
0.0
 11
-211.7859497070313
 21
87.7571029663086
 31
0.0
  0
LINE
  5
173
330
22
100
AcDbEntity
  8
0
  6
Continuous
 62
     7
100
AcDbLine
 10
-177.6769866943359
 20
83.76393890380859
 30
0.0
 11
-211.7859497070313
 21
83.7571029663086
 31
0.0
  0
LINE
  5
174
330
22
100
AcDbEntity
  8
0
  6
Continuous
 62
     7
100
AcDbLine
 10
-179.3359527587891
 20
77.14762115478515
 30
0.0
 11
-177.6769866943359
 21
78.76393890380859
 31
0.0
  0
LINE
  5
175
330
22
100
AcDbEntity
  8
0
  6
Continuous
 62
     7
100
AcDbLine
 10
-177.6769866943359
 20
78.76393890380859
 30
0.0
 11
-221.7859497070314
 21
78.7571029663086
 31
0.0
  0
LINE
  5
176
330
22
100
AcDbEntity
  8
0
  6
Continuous
 62
     7
100
AcDbLine
 10
-215.7915344238281
 20
88.25710296630859
 30
0.0
 11
-215.7915344238281
 21
84.75710296630859
 31
0.0
  0
LINE
  5
177
330
22
100
AcDbEntity
  8
0
  6
Continuous
 62
     7
100
AcDbLine
 10
-215.7915344238281
 20
84.75710296630859
 30
0.0
 11
-221.7915344238281
 21
84.75710296630859
 31
0.0
  0
LINE
  5
178
330
22
100
AcDbEntity
  8
0
  6
Continuous
 62
     7
100
AcDbLine
 10
-211.7859497070313
 20
83.7571029663086
 30
0.0
 11
-221.7859497070314
 21
83.7571029663086
 31
0.0
  0
LINE
  5
179
330
22
100
AcDbEntity
  8
0
  6
Continuous
 62
     7
100
AcDbLine
 10
-179.3359527587891
 20
66.52310943603516
 30
0.0
 11
-221.7840576171875
 21
66.51653289794921
 31
0.0
  0
LINE
  5
17A
330
22
100
AcDbEntity
  8
0
  6
Continuous
 62
     7
100
AcDbLine
 10
-173.2859497070313
 20
65.75710296630859
 30
0.0
 11
-173.2859497070313
 21
99.75710296630859
 31
0.0
  0
LINE
  5
17B
330
22
100
AcDbEntity
  8
0
  6
Continuous
 62
     7
100
AcDbLine
 10
-177.6769866943359
 20
64.75710296630859
 30
0.0
 11
-177.6769866943359
 21
78.76393890380859
 31
0.0
  0
LINE
  5
17C
330
22
100
AcDbEntity
  8
0
  6
Continuous
 62
     7
100
AcDbLine
 10
-272.2859497070313
 20
99.57122039794922
 30
0.0
 11
-275.251708984375
 21
115.3885269165039
 31
0.0
  0
LINE
  5
17D
330
22
100
AcDbEntity
  8
0
  6
Continuous
 62
     7
100
AcDbLine
 10
-270.2859497070313
 20
99.75710296630859
 30
0.0
 11
-273.2859497070313
 21
115.7571029663086
 31
0.0
  0
LINE
  5
17E
330
22
100
AcDbEntity
  8
0
  6
Continuous
 62
     7
100
AcDbLine
 10
-179.3359527587891
 20
66.52310943603516
 30
0.0
 11
-177.6769866943359
 21
64.8641357421875
 31
0.0
  0
LINE
  5
17F
330
22
100
AcDbEntity
  8
0
  6
Continuous
 62
     7
100
AcDbLine
 10
-221.7859497070314
 20
64.75710296630859
 30
0.0
 11
-174.2859497070313
 21
64.75710296630859
 31
0.0
  0
LINE
  5
180
330
22
100
AcDbEntity
  8
0
  6
Continuous
 62
     7
100
AcDbLine
 10
-179.3359527587891
 20
66.52310943603516
 30
0.0
 11
-179.3359527587891
 21
77.14762115478515
 31
0.0
  0
LINE
  5
181
330
22
100
AcDbEntity
  8
0
  6
Continuous
 62
     7
100
AcDbLine
 10
-174.2859497070313
 20
64.75710296630859
 30
0.0
 11
-173.2859497070313
 21
65.75710296630859
 31
0.0
  0
LINE
  5
182
330
22
100
AcDbEntity
  8
0
  6
Continuous
 62
     7
100
AcDbLine
 10
-177.6769866943359
 20
83.76393890380859
 30
0.0
 11
-177.6769866943359
 21
78.76393890380859
 31
0.0
  0
LINE
  5
183
330
22
100
AcDbEntity
  8
0
  6
Continuous
 62
     7
100
AcDbLine
 10
-173.2859497070313
 20
99.75710296630859
 30
0.0
 11
-170.4771423339844
 21
114.7374649047852
 31
0.0
  0
LINE
  5
184
330
22
100
AcDbEntity
  8
0
  6
Continuous
 62
     7
100
AcDbLine
 10
-177.5769805908203
 20
97.25710296630859
 30
0.0
 11
-179.5769805908203
 21
97.25710296630859
 31
0.0
  0
LINE
  5
185
330
22
100
AcDbEntity
  8
0
  6
Continuous
 62
     7
100
AcDbLine
 10
-205.7115325927734
 20
100.7571029663086
 30
0.0
 11
-205.7115325927734
 21
103.7571029663086
 31
0.0
  0
LINE
  5
186
330
22
100
AcDbEntity
  8
0
  6
Continuous
 62
     7
100
AcDbLine
 10
-199.8867492675781
 20
112.9981460571289
 30
0.0
 11
-200.7645111083984
 21
102.5890426635742
 31
0.0
  0
LINE
  5
187
330
22
100
AcDbEntity
  8
0
  6
Continuous
 62
     7
100
AcDbLine
 10
-202.7574462890625
 20
100.7571029663086
 30
0.0
 11
-214.5115203857422
 21
100.7571029663086
 31
0.0
  0
LINE
  5
188
330
22
100
AcDbEntity
  8
0
  6
Continuous
 62
     7
100
AcDbLine
 10
-177.6769866943359
 20
88.7571029663086
 30
0.0
 11
-177.6769866943359
 21
94.75710296630859
 31
0.0
  0
LINE
  5
189
330
22
100
AcDbEntity
  8
0
  6
Continuous
 62
     7
100
AcDbLine
 10
-213.7915344238281
 20
109.7571029663086
 30
0.0
 11
-221.7915344238281
 21
109.7571029663086
 31
0.0
  0
LINE
  5
18A
330
22
100
AcDbEntity
  8
0
  6
Continuous
 62
     7
100
AcDbLine
 10
-217.0115203857422
 20
103.7571029663086
 30
0.0
 11
-217.7915344238281
 21
103.7571029663086
 31
0.0
  0
LINE
  5
18B
330
22
100
AcDbEntity
  8
0
  6
Continuous
 62
     7
100
AcDbLine
 10
-217.0115203857422
 20
103.7571029663086
 30
0.0
 11
-203.7929382324219
 21
103.7571029663086
 31
0.0
  0
LINE
  5
18C
330
22
100
AcDbEntity
  8
0
  6
Continuous
 62
     7
100
AcDbLine
 10
-217.7915344238281
 20
88.25710296630859
 30
0.0
 11
-217.7915344238281
 21
104.4065628051758
 31
0.0
  0
LINE
  5
18D
330
22
100
AcDbEntity
  8
0
  6
Continuous
 62
     7
100
AcDbLine
 10
-217.0115203857422
 20
99.38574981689452
 30
0.0
 11
-216.8828735351564
 21
99.2571029663086
 31
0.0
  0
LINE
  5
18E
330
22
100
AcDbEntity
  8
0
  6
Continuous
 62
     7
100
AcDbLine
 10
-216.0115203857422
 20
99.2571029663086
 30
0.0
 11
-217.0115203857422
 21
99.2571029663086
 31
0.0
  0
LINE
  5
18F
330
22
100
AcDbEntity
  8
0
  6
Continuous
 62
     7
100
AcDbLine
 10
-217.0115203857422
 20
99.2571029663086
 30
0.0
 11
-217.0115203857422
 21
103.7571029663086
 31
0.0
  0
LINE
  5
190
330
22
100
AcDbEntity
  8
0
  6
Continuous
 62
     7
100
AcDbLine
 10
-217.0115203857422
 20
99.2571029663086
 30
0.0
 11
-217.7915344238281
 21
99.2571029663086
 31
0.0
  0
LINE
  5
191
330
22
100
AcDbEntity
  8
0
  6
Continuous
 62
     7
100
AcDbLine
 10
-221.7915344238281
 20
88.25710296630859
 30
0.0
 11
-215.7915344238281
 21
88.25710296630859
 31
0.0
  0
LINE
  5
192
330
22
100
AcDbEntity
  8
0
  6
Continuous
 62
     7
100
AcDbLine
 10
-217.7915344238281
 20
88.7571029663086
 30
0.0
 11
-178.1769866943359
 21
88.7571029663086
 31
0.0
  0
LINE
  5
193
330
22
100
AcDbEntity
  8
0
  6
Continuous
 62
     7
100
AcDbLine
 10
-179.5769805908203
 20
97.25710296630859
 30
0.0
 11
-179.5769805908203
 21
94.75710296630859
 31
0.0
  0
LINE
  5
194
330
22
100
AcDbEntity
  8
0
  6
Continuous
 62
     7
100
AcDbLine
 10
-177.6769866943359
 20
94.75710296630859
 30
0.0
 11
-177.5769805908203
 21
97.25710296630859
 31
0.0
  0
LINE
  5
195
330
22
100
AcDbEntity
  8
0
  6
Continuous
 62
     7
100
AcDbLine
 10
-179.5769805908203
 20
94.75710296630859
 30
0.0
 11
-177.6769866943359
 21
94.75710296630859
 31
0.0
  0
LINE
  5
196
330
22
100
AcDbEntity
  8
0
  6
Continuous
 62
     7
100
AcDbLine
 10
-203.7929382324219
 20
109.7565612792969
 30
0.0
 11
-203.7929382324219
 21
110.0880584716797
 31
0.0
  0
LINE
  5
197
330
22
100
AcDbEntity
  8
0
  6
Continuous
 62
     7
100
AcDbLine
 10
-204.3911285400391
 20
104.7571029663086
 30
0.0
 11
-206.2911224365234
 21
104.7571029663086
 31
0.0
  0
LINE
  5
198
330
22
100
AcDbEntity
  8
0
  6
Continuous
 62
     7
100
AcDbLine
 10
-205.7115325927734
 20
100.8136749267578
 30
0.0
 11
-205.6549530029297
 21
100.7571029663086
 31
0.0
  0
LINE
  5
199
330
22
100
AcDbEntity
  8
0
  6
Continuous
 62
     7
100
AcDbLine
 10
-198.3920593261719
 20
114.3721008300781
 30
0.0
 11
-184.2648010253906
 21
114.3721008300781
 31
0.0
  0
LINE
  5
19A
330
22
100
AcDbEntity
  8
0
  6
Continuous
 62
     7
100
AcDbLine
 10
-208.7911224365234
 20
107.4065628051758
 30
0.0
 11
-214.7915344238281
 21
107.4065628051758
 31
0.0
  0
LINE
  5
19B
330
22
100
AcDbEntity
  8
0
  6
Continuous
 62
     7
100
AcDbLine
 10
-214.5115203857422
 20
103.7571029663086
 30
0.0
 11
-214.5115203857422
 21
100.7571029663086
 31
0.0
  0
LINE
  5
19C
330
22
100
AcDbEntity
  8
0
  6
Continuous
 62
     7
100
AcDbLine
 10
-207.7911224365234
 20
106.2571029663086
 30
0.0
 11
-207.7911224365234
 21
106.4065628051758
 31
0.0
  0
LINE
  5
19D
330
22
100
AcDbEntity
  8
0
  6
Continuous
 62
     7
100
AcDbLine
 10
-205.7911224365234
 20
109.7565612792969
 30
0.0
 11
-205.7911224365234
 21
107.2571029663086
 31
0.0
  0
LINE
  5
19E
330
22
100
AcDbEntity
  8
0
  6
Continuous
 62
     7
100
AcDbLine
 10
-205.7911224365234
 20
107.2571029663086
 30
0.0
 11
-203.8911285400391
 21
107.2571029663086
 31
0.0
  0
LINE
  5
19F
330
22
100
AcDbEntity
  8
0
  6
Continuous
 62
     7
100
AcDbLine
 10
-182.7697448730469
 20
112.9937896728516
 30
0.0
 11
-180.8132171630859
 21
88.9564437866211
 31
0.0
  0
LINE
  5
1A0
330
22
100
AcDbEntity
  8
0
  6
Continuous
 62
     7
100
AcDbLine
 10
-203.7929382324219
 20
109.7565612792969
 30
0.0
 11
-205.7911224365234
 21
109.7565612792969
 31
0.0
  0
LINE
  5
1A1
330
22
100
AcDbEntity
  8
0
  6
Continuous
 62
     7
100
AcDbLine
 10
-203.8911285400391
 20
107.2571029663086
 30
0.0
 11
-203.8911285400391
 21
105.2571029663086
 31
0.0
  0
LINE
  5
1A2
330
22
100
AcDbEntity
  8
0
  6
Continuous
 62
     7
100
AcDbLine
 10
-211.7859497070313
 20
87.7571029663086
 30
0.0
 11
-215.7915344238281
 21
87.7571029663086
 31
0.0
  0
LINE
  5
1A3
330
22
100
AcDbEntity
  8
0
  6
Continuous
 62
     7
100
AcDbLine
 10
-213.7943267822266
 20
116.8954086303711
 30
0.0
 11
-213.7943267822266
 21
115.7461700439453
 31
0.0
  0
LINE
  5
1A4
330
22
100
AcDbEntity
  8
0
  6
Continuous
 62
     7
100
AcDbLine
 10
-211.7859497070313
 20
87.7571029663086
 30
0.0
 11
-177.6769866943359
 21
87.7571029663086
 31
0.0
  0
LINE
  5
1A5
330
22
100
AcDbEntity
  8
0
  6
Continuous
 62
     7
100
AcDbLine
 10
-180.5969848632813
 20
88.7571029663086
 30
0.0
 11
-180.8132171630859
 21
88.9564437866211
 31
0.0
  0
LINE
  5
1A6
330
22
100
AcDbEntity
  8
0
  6
Continuous
 62
     7
100
AcDbLine
 10
-177.6769866943359
 20
88.7571029663086
 30
0.0
 11
-177.6769866943359
 21
87.7571029663086
 31
0.0
  0
LINE
  5
1A7
330
22
100
AcDbEntity
  8
0
  6
Continuous
 62
     7
100
AcDbLine
 10
-178.1769866943359
 20
88.7571029663086
 30
0.0
 11
-180.5969848632813
 21
88.7571029663086
 31
0.0
  0
LINE
  5
1A8
330
22
100
AcDbEntity
  8
0
  6
Continuous
 62
     7
100
AcDbLine
 10
-218.0711212158203
 20
215.7071075439453
 30
0.0
 11
-214.3359527587891
 21
215.7071075439453
 31
0.0
  0
LINE
  5
1A9
330
22
100
AcDbEntity
  8
0
  6
Continuous
 62
     7
100
AcDbLine
 10
-179.3359527587891
 20
77.14762115478515
 30
0.0
 11
-221.7857055664063
 21
77.14104461669922
 31
0.0
  0
LINE
  5
1AA
330
22
100
AcDbEntity
  8
0
  6
Continuous
 62
     7
100
AcDbLine
 10
-218.0711212158203
 20
210.8070983886719
 30
0.0
 11
-214.3359527587891
 21
210.8070983886719
 31
0.0
  0
LINE
  5
1AB
330
22
100
AcDbEntity
  8
0
  6
Continuous
 62
     7
100
AcDbLine
 10
-214.3359527587891
 20
215.7071075439453
 30
0.0
 11
-214.3359527587891
 21
210.8070983886719
 31
0.0
  0
LINE
  5
1AC
330
22
100
AcDbEntity
  8
0
  6
Continuous
 62
     7
100
AcDbLine
 10
-225.5007934570314
 20
210.8070983886719
 30
0.0
 11
-229.2359619140625
 21
210.8070983886719
 31
0.0
  0
LINE
  5
1AD
330
22
100
AcDbEntity
  8
0
  6
Continuous
 62
     7
100
AcDbLine
 10
-225.5007934570314
 20
215.7071075439453
 30
0.0
 11
-229.2359619140625
 21
215.7071075439453
 31
0.0
  0
LINE
  5
1AE
330
22
100
AcDbEntity
  8
0
  6
Continuous
 62
     7
100
AcDbLine
 10
-229.2359619140625
 20
215.7071075439453
 30
0.0
 11
-229.2359619140625
 21
210.8070983886719
 31
0.0
  0
LINE
  5
1AF
330
22
100
AcDbEntity
  8
0
  6
Continuous
 62
     7
100
AcDbLine
 10
-219.5415344238281
 20
115.7571029663086
 30
0.0
 11
-213.7915344238281
 21
115.7571029663086
 31
0.0
  0
LINE
  5
1B0
330
22
100
AcDbEntity
  8
0
  6
Continuous
 62
     7
100
AcDbLine
 10
-203.7929382324219
 20
110.0880584716797
 30
0.0
 11
-203.7929382324219
 21
103.7571029663086
 31
0.0
  0
LINE
  5
1B1
330
22
100
AcDbEntity
  8
0
  6
Continuous
 62
     7
100
AcDbLine
 10
-219.5415344238281
 20
117.7571029663086
 30
0.0
 11
-219.5415344238281
 21
115.7571029663086
 31
0.0
  0
LINE
  5
1B2
330
22
100
AcDbEntity
  8
0
  6
Continuous
 62
     7
100
AcDbLine
 10
-169.2485504150391
 20
115.7571029663086
 30
0.0
 11
-159.2859497070313
 21
115.7571029663086
 31
0.0
  0
LINE
  5
1B3
330
22
100
AcDbEntity
  8
0
  6
Continuous
 62
     7
100
AcDbLine
 10
-213.7915344238281
 20
115.7571029663086
 30
0.0
 11
-213.7915344238281
 21
109.7571029663086
 31
0.0
  0
LINE
  5
1B4
330
22
100
AcDbEntity
  8
0
  6
Continuous
 62
     7
100
AcDbLine
 10
-219.5032196044922
 20
116.8954086303711
 30
0.0
 11
-213.7943267822266
 21
116.8954086303711
 31
0.0
  0
LINE
  5
1B5
330
22
100
AcDbEntity
  8
0
  6
CENTER
 62
     7
100
AcDbLine
 10
-221.7859497070314
 20
144.1810913085938
 30
0.0
 11
-221.7859497070314
 21
280.7996215820313
 31
0.0
  0
LINE
  5
1B6
330
22
100
AcDbEntity
  8
0
  6
CENTER
 62
     7
100
AcDbLine
 10
-221.7859497070314
 20
58.26688003540039
 30
0.0
 11
-221.7859497070314
 21
128.8325805664062
 31
0.0
  0
LINE
  5
1B7
330
22
100
AcDbEntity
  8
0
  6
CENTER
 62
     7
100
AcDbLine
 10
-153.08642578125
 20
213.2570953369141
 30
0.0
 11
-289.46484375
 21
213.2570953369141
 31
0.0
  0
ARC
  5
1B8
330
22
100
AcDbEntity
  8
0
  6
Continuous
 62
     7
100
AcDbCircle
 10
-202.4201202392578
 20
118.2571029663086
 30
0.0
 40
0.5
100
AcDbArc
 50
346.9998134048708
 51
90.00000000000019
  0
ARC
  5
1B9
330
22
100
AcDbEntity
  8
0
  6
Continuous
 62
     7
100
AcDbCircle
 10
-201.3938140869141
 20
118.2571029663086
 30
0.0
 40
0.5
100
AcDbArc
 50
90.00000000000019
 51
167.0002719250218
  0
ARC
  5
1BA
330
22
100
AcDbEntity
  8
0
  6
Continuous
 62
     7
100
AcDbCircle
 10
-174.3818359375
 20
118.2571029663086
 30
0.0
 40
0.5
100
AcDbArc
 50
350.0001234095527
 51
90.00000000000019
  0
ARC
  5
1BB
330
22
100
AcDbEntity
  8
0
  6
Continuous
 62
     7
100
AcDbCircle
 10
-160.5359497070313
 20
118.5071029663086
 30
0.0
 40
1.25
100
AcDbArc
 50
0.0
 51
168.4630577682079
  0
ARC
  5
1BC
330
22
100
AcDbEntity
  8
0
  6
Continuous
 62
     7
100
AcDbCircle
 10
-218.5415344238281
 20
117.7571029663086
 30
0.0
 40
1.0
100
AcDbArc
 50
90.00000000000019
 51
180.0000000000004
  0
ARC
  5
1BD
330
22
100
AcDbEntity
  8
0
  6
Continuous
 62
     7
100
AcDbCircle
 10
-283.0359497070313
 20
118.5071029663086
 30
0.0
 40
1.25
100
AcDbArc
 50
90.00000000000019
 51
180.0000000000004
  0
ARC
  5
1BE
330
22
100
AcDbEntity
  8
0
  6
Continuous
 62
     7
100
AcDbCircle
 10
-216.0115203857422
 20
99.75710296630859
 30
0.0
 40
0.5
100
AcDbArc
 50
270.0000000000005
 51
0.0
  0
ARC
  5
1BF
330
22
100
AcDbEntity
  8
0
  6
Continuous
 62
     7
100
AcDbCircle
 10
-214.5115203857422
 20
99.75710296630859
 30
0.0
 40
1.0
100
AcDbArc
 50
90.00000000000019
 51
180.0000000000004
  0
ARC
  5
1C0
330
22
100
AcDbEntity
  8
0
  6
Continuous
 62
     7
100
AcDbCircle
 10
-206.2911224365234
 20
106.2571029663086
 30
0.0
 40
1.5
100
AcDbArc
 50
180.0000000000004
 51
270.0000000000005
  0
ARC
  5
1C1
330
22
100
AcDbEntity
  8
0
  6
Continuous
 62
     7
100
AcDbCircle
 10
-214.7915344238281
 20
104.4065628051758
 30
0.0
 40
3.0
100
AcDbArc
 50
90.00000000000019
 51
180.0000000000004
  0
CIRCLE
  5
1C2
330
22
100
AcDbEntity
  8
0
  6
Continuous
 62
     7
100
AcDbCircle
 10
-178.5769805908203
 20
96.00710296630859
 30
0.0
 40
1.0
  0
ARC
  5
1C3
330
22
100
AcDbEntity
  8
0
  6
Continuous
 62
     7
100
AcDbCircle
 10
-202.7574462890625
 20
102.7571029663086
 30
0.0
 40
2.0
100
AcDbArc
 50
270.0000000000005
 51
355.1797639697097
  0
ARC
  5
1C4
330
22
100
AcDbEntity
  8
0
  6
Continuous
 62
     7
100
AcDbCircle
 10
-208.7911224365234
 20
106.4065628051758
 30
0.0
 40
1.0
100
AcDbArc
 50
0.0
 51
90.00000000000019
  0
ARC
  5
1C5
330
22
100
AcDbEntity
  8
0
  6
Continuous
 62
     7
100
AcDbCircle
 10
-198.3920593261719
 20
112.8721008300781
 30
0.0
 40
1.5
100
AcDbArc
 50
90.00000000000019
 51
175.1797272374731
  0
CIRCLE
  5
1C6
330
22
100
AcDbEntity
  8
0
  6
Continuous
 62
     7
100
AcDbCircle
 10
-204.7911224365234
 20
108.4570999145508
 30
0.0
 40
1.0
  0
ARC
  5
1C7
330
22
100
AcDbEntity
  8
0
  6
Continuous
 62
     7
100
AcDbCircle
 10
-184.2648010253906
 20
112.8721008300781
 30
0.0
 40
1.5
100
AcDbArc
 50
4.653284038258425
 51
90.00000000000019
  0
ARC
  5
1C8
330
22
100
AcDbEntity
  8
0
  6
Continuous
 62
     7
100
AcDbCircle
 10
-204.3911285400391
 20
105.2571029663086
 30
0.0
 40
0.5
100
AcDbArc
 50
270.0000000000005
 51
0.0
  0
CIRCLE
  5
1C9
330
22
100
AcDbEntity
  8
0
  6
Continuous
 62
     7
100
AcDbCircle
 10
-221.7859497070314
 20
213.2570953369141
 30
0.0
 40
20.0
  0
ARC
  5
1CA
330
22
100
AcDbEntity
  8
0
  6
Continuous
 62
     7
100
AcDbCircle
 10
-221.7859497070314
 20
213.2570953369141
 30
0.0
 40
4.449999809265136
100
AcDbArc
 50
33.40574140741593
 51
146.5943667582564
  0
ARC
  5
1CB
330
22
100
AcDbEntity
  8
0
  6
Continuous
 62
     7
100
AcDbCircle
 10
-221.7859497070314
 20
213.2570953369141
 30
0.0
 40
4.449999809265136
100
AcDbArc
 50
213.4054692351411
 51
326.5944225994533
  0
ARC
  5
1CC
330
22
100
AcDbEntity
  8
0
  6
Continuous
 62
     7
100
AcDbCircle
 10
-178.1769866943359
 20
89.25710296630859
 30
0.0
 40
0.5
100
AcDbArc
 50
270.0000000000005
 51
0.0
  0
CIRCLE
  5
1CD
330
22
100
AcDbEntity
  8
0
  6
Continuous
 62
     7
100
AcDbCircle
 10
-221.7859497070314
 20
213.2570953369141
 30
0.0
 40
48.0
  0
CIRCLE
  5
1CE
330
22
100
AcDbEntity
  8
0
  6
Continuous
 62
     7
100
AcDbCircle
 10
-221.7859497070314
 20
213.2570953369141
 30
0.0
 40
60.0
  0
CIRCLE
  5
1CF
330
22
100
AcDbEntity
  8
0
  6
Continuous
 62
     7
100
AcDbCircle
 10
-221.7859497070314
 20
213.2570953369141
 30
0.0
 40
62.5
  0
ARC
  5
1D0
330
22
100
AcDbEntity
  8
0
  6
Continuous
 62
     7
100
AcDbCircle
 10
-169.2485504150391
 20
114.5071029663086
 30
0.0
 40
1.25
100
AcDbArc
 50
90.00000000000019
 51
169.3803017594109
  0
TEXT
  5
1D1
330
22
100
AcDbEntity
  8
0
  6
Continuous
 62
     7
100
AcDbText
 10
-137.2464075088501
 20
152.3490905761719
 30
0.0
 40
7.0
  1
ＤＬ－ＣＨＧ－８０
 41
0.8448610808647003
100
AcDbText
  0
SOLID
  5
1D2
330
22
100
AcDbEntity
  8
0
  6
Continuous
 62
     7
100
AcDbTrace
 10
-178.4779510498047
 20
95.01344299316405
 30
0.0
 11
-178.6894378662109
 21
95.01344299316405
 31
0.0
 12
-178.3006286621094
 22
95.04604339599607
 32
0.0
 13
-178.8417510986328
 23
95.04604339599607
 33
0.0
  0
SOLID
  5
1D3
330
22
100
AcDbEntity
  8
0
  6
Continuous
 62
     7
100
AcDbTrace
 10
-178.3006286621094
 20
95.04604339599607
 30
0.0
 11
-178.8417510986328
 21
95.04604339599607
 31
0.0
 12
-178.2794036865234
 22
95.05447387695312
 32
0.0
 13
-178.8811340332031
 23
95.05447387695312
 33
0.0
  0
SOLID
  5
1D4
330
22
100
AcDbEntity
  8
0
  6
Continuous
 62
     7
100
AcDbTrace
 10
-178.2794036865234
 20
95.05447387695312
 30
0.0
 11
-178.8811340332031
 21
95.05447387695312
 31
0.0
 12
-178.1184387207031
 22
95.11843109130859
 32
0.0
 13
-179.0294036865234
 23
95.11843109130859
 33
0.0
  0
SOLID
  5
1D5
330
22
100
AcDbEntity
  8
0
  6
Continuous
 62
     7
100
AcDbTrace
 10
-178.1184387207031
 20
95.11843109130859
 30
0.0
 11
-179.0294036865234
 21
95.11843109130859
 31
0.0
 12
-178.0972900390625
 22
95.13211822509765
 32
0.0
 13
-179.0611419677734
 23
95.13211822509765
 33
0.0
  0
SOLID
  5
1D6
330
22
100
AcDbEntity
  8
0
  6
Continuous
 62
     7
100
AcDbTrace
 10
-178.0972900390625
 20
95.13211822509765
 30
0.0
 11
-179.0611419677734
 21
95.13211822509765
 31
0.0
 12
-177.9538879394531
 22
95.22496032714844
 32
0.0
 13
-179.1958160400391
 23
95.22496032714844
 33
0.0
  0
SOLID
  5
1D7
330
22
100
AcDbEntity
  8
0
  6
Continuous
 62
     7
100
AcDbTrace
 10
-177.9538879394531
 20
95.22496032714844
 30
0.0
 11
-179.1958160400391
 21
95.22496032714844
 31
0.0
 12
-177.9349212646484
 22
95.24338531494141
 32
0.0
 13
-179.2225341796875
 23
95.24338531494141
 33
0.0
  0
SOLID
  5
1D8
330
22
100
AcDbEntity
  8
0
  6
Continuous
 62
     7
100
AcDbTrace
 10
-177.9349212646484
 20
95.24338531494141
 30
0.0
 11
-179.2225341796875
 21
95.24338531494141
 31
0.0
 12
-177.8132629394531
 22
95.36154937744141
 32
0.0
 13
-179.3373260498047
 23
95.36154937744141
 33
0.0
  0
SOLID
  5
1D9
330
22
100
AcDbEntity
  8
0
  6
Continuous
 62
     7
100
AcDbTrace
 10
-177.8132629394531
 20
95.36154937744141
 30
0.0
 11
-179.3373260498047
 21
95.36154937744141
 31
0.0
 12
-177.7977905273438
 22
95.38399505615235
 32
0.0
 13
-179.359130859375
 23
95.38399505615235
 33
0.0
  0
SOLID
  5
1DA
330
22
100
AcDbEntity
  8
0
  6
Continuous
 62
     7
100
AcDbTrace
 10
-177.7977905273438
 20
95.38399505615235
 30
0.0
 11
-179.359130859375
 21
95.38399505615235
 31
0.0
 12
-177.7019958496094
 22
95.52294921875001
 32
0.0
 13
-179.4490814208984
 23
95.52294921875001
 33
0.0
  0
SOLID
  5
1DB
330
22
100
AcDbEntity
  8
0
  6
Continuous
 62
     7
100
AcDbTrace
 10
-177.7019958496094
 20
95.52294921875001
 30
0.0
 11
-179.4490814208984
 21
95.52294921875001
 31
0.0
 12
-177.6901702880859
 22
95.54856109619141
 32
0.0
 13
-179.4656524658203
 23
95.54856109619141
 33
0.0
  0
SOLID
  5
1DC
330
22
100
AcDbEntity
  8
0
  6
Continuous
 62
     7
100
AcDbTrace
 10
-177.6901702880859
 20
95.54856109619141
 30
0.0
 11
-179.4656524658203
 21
95.54856109619141
 31
0.0
 12
-177.6410675048828
 22
95.65486145019532
 32
0.0
 13
-179.5078887939453
 23
95.65486145019532
 33
0.0
  0
SOLID
  5
1DD
330
22
100
AcDbEntity
  8
0
  6
Continuous
 62
     7
100
AcDbTrace
 10
-177.6410675048828
 20
95.65486145019532
 30
0.0
 11
-179.5078887939453
 21
95.65486145019532
 31
0.0
 12
-177.6380462646484
 22
95.73074340820312
 32
0.0
 13
-179.5380401611328
 23
95.73074340820312
 33
0.0
  0
SOLID
  5
1DE
330
22
100
AcDbEntity
  8
0
  6
Continuous
 62
     7
100
AcDbTrace
 10
-177.6380462646484
 20
95.73074340820312
 30
0.0
 11
-179.5380401611328
 21
95.73074340820312
 31
0.0
 12
-177.6303253173828
 22
95.92354583740235
 32
0.0
 13
-179.573486328125
 23
95.92354583740235
 33
0.0
  0
SOLID
  5
1DF
330
22
100
AcDbEntity
  8
0
  6
Continuous
 62
     7
100
AcDbTrace
 10
-177.6303253173828
 20
95.92354583740235
 30
0.0
 11
-179.573486328125
 21
95.92354583740235
 31
0.0
 12
-177.6224822998047
 22
96.11956024169922
 32
0.0
 13
-179.5706481933594
 23
96.11956024169922
 33
0.0
  0
SOLID
  5
1E0
330
22
100
AcDbEntity
  8
0
  6
Continuous
 62
     7
100
AcDbTrace
 10
-177.6224822998047
 20
96.11956024169922
 30
0.0
 11
-179.5706481933594
 21
96.11956024169922
 31
0.0
 12
-177.6159362792969
 22
96.28346252441406
 32
0.0
 13
-179.5355529785156
 23
96.28346252441406
 33
0.0
  0
SOLID
  5
1E1
330
22
100
AcDbEntity
  8
0
  6
Continuous
 62
     7
100
AcDbTrace
 10
-177.6159362792969
 20
96.28346252441406
 30
0.0
 11
-179.5355529785156
 21
96.28346252441406
 31
0.0
 12
-177.6269683837891
 22
96.31124877929687
 32
0.0
 13
-179.5296020507813
 23
96.31124877929687
 33
0.0
  0
SOLID
  5
1E2
330
22
100
AcDbEntity
  8
0
  6
Continuous
 62
     7
100
AcDbTrace
 10
-177.6269683837891
 20
96.31124877929687
 30
0.0
 11
-179.5296020507813
 21
96.31124877929687
 31
0.0
 12
-177.6883087158203
 22
96.46564483642578
 32
0.0
 13
-179.4630126953125
 23
96.46564483642578
 33
0.0
  0
SOLID
  5
1E3
330
22
100
AcDbEntity
  8
0
  6
Continuous
 62
     7
100
AcDbTrace
 10
-177.6883087158203
 20
96.46564483642578
 30
0.0
 11
-179.4630126953125
 21
96.46564483642578
 31
0.0
 12
-177.7048950195313
 22
96.4912567138672
 32
0.0
 13
-179.4519653320313
 23
96.4912567138672
 33
0.0
  0
SOLID
  5
1E4
330
22
100
AcDbEntity
  8
0
  6
Continuous
 62
     7
100
AcDbTrace
 10
-177.7048950195313
 20
96.4912567138672
 30
0.0
 11
-179.4519653320313
 21
96.4912567138672
 31
0.0
 12
-177.7948455810547
 22
96.63020324707032
 32
0.0
 13
-179.3561706542969
 23
96.63020324707032
 33
0.0
  0
SOLID
  5
1E5
330
22
100
AcDbEntity
  8
0
  6
Continuous
 62
     7
100
AcDbTrace
 10
-177.7948455810547
 20
96.63020324707032
 30
0.0
 11
-179.3561706542969
 21
96.63020324707032
 31
0.0
 12
-177.816650390625
 22
96.65264892578123
 32
0.0
 13
-179.3406982421875
 23
96.65264892578123
 33
0.0
  0
SOLID
  5
1E6
330
22
100
AcDbEntity
  8
0
  6
Continuous
 62
     7
100
AcDbTrace
 10
-177.816650390625
 20
96.65264892578123
 30
0.0
 11
-179.3406982421875
 21
96.65264892578123
 31
0.0
 12
-177.9314270019531
 22
96.77082061767578
 32
0.0
 13
-179.2190551757813
 23
96.77082061767578
 33
0.0
  0
SOLID
  5
1E7
330
22
100
AcDbEntity
  8
0
  6
Continuous
 62
     7
100
AcDbTrace
 10
-177.9314270019531
 20
96.77082061767578
 30
0.0
 11
-179.2190551757813
 21
96.77082061767578
 31
0.0
 12
-177.9581604003906
 22
96.78923797607422
 32
0.0
 13
-179.2000885009766
 23
96.78923797607422
 33
0.0
  0
SOLID
  5
1E8
330
22
100
AcDbEntity
  8
0
  6
Continuous
 62
     7
100
AcDbTrace
 10
-177.9581604003906
 20
96.78923797607422
 30
0.0
 11
-179.2000885009766
 21
96.78923797607422
 31
0.0
 12
-178.0928344726563
 22
96.88208770751952
 32
0.0
 13
-179.0566711425781
 23
96.88208770751952
 33
0.0
  0
SOLID
  5
1E9
330
22
100
AcDbEntity
  8
0
  6
Continuous
 62
     7
100
AcDbTrace
 10
-178.0928344726563
 20
96.88208770751952
 30
0.0
 11
-179.0566711425781
 21
96.88208770751952
 31
0.0
 12
-178.1245727539063
 22
96.89577484130859
 32
0.0
 13
-179.0355224609375
 23
96.89577484130859
 33
0.0
  0
SOLID
  5
1EA
330
22
100
AcDbEntity
  8
0
  6
Continuous
 62
     7
100
AcDbTrace
 10
-178.1245727539063
 20
96.89577484130859
 30
0.0
 11
-179.0355224609375
 21
96.89577484130859
 31
0.0
 12
-178.2728424072266
 22
96.95972442626953
 32
0.0
 13
-178.8745574951172
 23
96.95972442626953
 33
0.0
  0
SOLID
  5
1EB
330
22
100
AcDbEntity
  8
0
  6
Continuous
 62
     7
100
AcDbTrace
 10
-178.2728424072266
 20
96.95972442626953
 30
0.0
 11
-178.8745574951172
 21
96.95972442626953
 31
0.0
 12
-178.3122253417969
 22
96.96815490722656
 32
0.0
 13
-178.8533477783203
 23
96.96815490722656
 33
0.0
  0
SOLID
  5
1EC
330
22
100
AcDbEntity
  8
0
  6
Continuous
 62
     7
100
AcDbTrace
 10
-178.3122253417969
 20
96.96815490722656
 30
0.0
 11
-178.8533477783203
 21
96.96815490722656
 31
0.0
 12
-178.4645233154297
 22
97.00075531005859
 32
0.0
 13
-178.676025390625
 23
97.00075531005859
 33
0.0
  0
SOLID
  5
1ED
330
22
100
AcDbEntity
  8
0
  6
Continuous
 62
     7
100
AcDbTrace
 10
-178.4645233154297
 20
97.00075531005859
 30
0.0
 11
-178.676025390625
 21
97.00075531005859
 31
0.0
 12
-178.6605377197266
 22
97.00360107421877
 32
0.0
 13
-178.6605377197266
 23
97.00360107421877
 33
0.0
  0
SOLID
  5
1EE
330
22
100
AcDbEntity
  8
0
  6
Continuous
 62
     7
100
AcDbTrace
 10
-178.4934234619141
 20
95.01059722900391
 30
0.0
 11
-178.6894378662109
 21
95.01344299316405
 31
0.0
 12
-178.4779510498047
 22
95.01344299316405
 32
0.0
 13
-178.4779510498047
 23
95.01344299316405
 33
0.0
  0
SOLID
  5
1EF
330
22
100
AcDbEntity
  8
0
  6
Continuous
 62
     7
100
AcDbTrace
 10
-204.6843414306641
 20
107.4663619995117
 30
0.0
 11
-204.9268951416016
 21
107.4663619995117
 31
0.0
 12
-204.5374145507814
 22
107.4898223876953
 32
0.0
 13
-205.025146484375
 23
107.4898223876953
 33
0.0
  0
SOLID
  5
1F0
330
22
100
AcDbEntity
  8
0
  6
Continuous
 62
     7
100
AcDbTrace
 10
-204.5374145507814
 20
107.4898223876953
 30
0.0
 11
-205.025146484375
 21
107.4898223876953
 31
0.0
 12
-204.4778442382813
 22
107.5118865966797
 32
0.0
 13
-205.1175689697266
 23
107.5118865966797
 33
0.0
  0
SOLID
  5
1F1
330
22
100
AcDbEntity
  8
0
  6
Continuous
 62
     7
100
AcDbTrace
 10
-204.4778442382813
 20
107.5118865966797
 30
0.0
 11
-205.1175689697266
 21
107.5118865966797
 31
0.0
 12
-204.3535766601563
 22
107.5578994750977
 32
0.0
 13
-205.2177124023438
 23
107.5578994750977
 33
0.0
  0
SOLID
  5
1F2
330
22
100
AcDbEntity
  8
0
  6
Continuous
 62
     7
100
AcDbTrace
 10
-204.3535766601563
 20
107.5578994750977
 30
0.0
 11
-205.2177124023438
 21
107.5578994750977
 31
0.0
 12
-204.2952880859375
 22
107.5937347412109
 32
0.0
 13
-205.2957000732422
 23
107.5937347412109
 33
0.0
  0
SOLID
  5
1F3
330
22
100
AcDbEntity
  8
0
  6
Continuous
 62
     7
100
AcDbTrace
 10
-204.2952880859375
 20
107.5937347412109
 30
0.0
 11
-205.2957000732422
 21
107.5937347412109
 31
0.0
 12
-204.1865692138672
 22
107.6605377197266
 32
0.0
 13
-205.3878936767578
 23
107.6605377197266
 33
0.0
  0
SOLID
  5
1F4
330
22
100
AcDbEntity
  8
0
  6
Continuous
 62
     7
100
AcDbTrace
 10
-204.1865692138672
 20
107.6605377197266
 30
0.0
 11
-205.3878936767578
 21
107.6605377197266
 31
0.0
 12
-204.1345367431641
 22
107.7087554931641
 32
0.0
 13
-205.4544372558594
 23
107.7087554931641
 33
0.0
  0
SOLID
  5
1F5
330
22
100
AcDbEntity
  8
0
  6
Continuous
 62
     7
100
AcDbTrace
 10
-204.1345367431641
 20
107.7087554931641
 30
0.0
 11
-205.4544372558594
 21
107.7087554931641
 31
0.0
 12
-204.0427856445313
 22
107.7937927246094
 32
0.0
 13
-205.5332336425781
 23
107.7937927246094
 33
0.0
  0
SOLID
  5
1F6
330
22
100
AcDbEntity
  8
0
  6
Continuous
 62
     7
100
AcDbTrace
 10
-204.0427856445313
 20
107.7937927246094
 30
0.0
 11
-205.5332336425781
 21
107.7937927246094
 31
0.0
 12
-204.0002136230469
 22
107.8525390625
 32
0.0
 13
-205.5876922607422
 23
107.8525390625
 33
0.0
  0
SOLID
  5
1F7
330
22
100
AcDbEntity
  8
0
  6
Continuous
 62
     7
100
AcDbTrace
 10
-204.0002136230469
 20
107.8525390625
 30
0.0
 11
-205.5876922607422
 21
107.8525390625
 31
0.0
 12
-203.9277496337891
 22
107.9525299072266
 32
0.0
 13
-205.6491241455078
 23
107.9525299072266
 33
0.0
  0
SOLID
  5
1F8
330
22
100
AcDbEntity
  8
0
  6
Continuous
 62
     7
100
AcDbTrace
 10
-203.9277496337891
 20
107.9525299072266
 30
0.0
 11
-205.6491241455078
 21
107.9525299072266
 31
0.0
 12
-203.8969573974609
 22
108.019561767578
 32
0.0
 13
-205.6903228759766
 23
108.019561767578
 33
0.0
  0
SOLID
  5
1F9
330
22
100
AcDbEntity
  8
0
  6
Continuous
 62
     7
100
AcDbTrace
 10
-203.8969573974609
 20
108.019561767578
 30
0.0
 11
-205.6903228759766
 21
108.019561767578
 31
0.0
 12
-203.8459014892578
 22
108.1306610107422
 32
0.0
 13
-205.7314605712891
 23
108.1306610107422
 33
0.0
  0
SOLID
  5
1FA
330
22
100
AcDbEntity
  8
0
  6
Continuous
 62
     7
100
AcDbTrace
 10
-203.8459014892578
 20
108.1306610107422
 30
0.0
 11
-205.7314605712891
 21
108.1306610107422
 31
0.0
 12
-203.8285369873047
 22
108.2033920288086
 32
0.0
 13
-205.7584075927734
 23
108.2033920288086
 33
0.0
  0
SOLID
  5
1FB
330
22
100
AcDbEntity
  8
0
  6
Continuous
 62
     7
100
AcDbTrace
 10
-203.8003845214844
 20
108.3213348388672
 30
0.0
 11
-205.7772369384766
 21
108.3213348388672
 31
0.0
 12
-203.7929382324219
 22
108.39697265625
 32
0.0
 13
-205.7893218994141
 23
108.39697265625
 33
0.0
  0
SOLID
  5
1FC
330
22
100
AcDbEntity
  8
0
  6
Continuous
 62
     7
100
AcDbTrace
 10
-203.8285369873047
 20
108.2033920288086
 30
0.0
 11
-205.7584075927734
 21
108.2033920288086
 31
0.0
 12
-203.8003845214844
 22
108.3213348388672
 32
0.0
 13
-205.7772369384766
 23
108.3213348388672
 33
0.0
  0
SOLID
  5
1FD
330
22
100
AcDbEntity
  8
0
  6
Continuous
 62
     7
100
AcDbTrace
 10
-203.7929382324219
 20
108.39697265625
 30
0.0
 11
-205.7893218994141
 21
108.39697265625
 31
0.0
 12
-203.7929382324219
 22
108.5172271728516
 32
0.0
 13
-205.7847442626953
 23
108.5172271728516
 33
0.0
  0
SOLID
  5
1FE
330
22
100
AcDbEntity
  8
0
  6
Continuous
 62
     7
100
AcDbTrace
 10
-203.7929382324219
 20
108.5172271728516
 30
0.0
 11
-205.7847442626953
 21
108.5172271728516
 31
0.0
 12
-203.8050079345703
 22
108.5928649902344
 32
0.0
 13
-205.7818603515625
 23
108.5928649902344
 33
0.0
  0
SOLID
  5
1FF
330
22
100
AcDbEntity
  8
0
  6
Continuous
 62
     7
100
AcDbTrace
 10
-203.8050079345703
 20
108.5928649902344
 30
0.0
 11
-205.7818603515625
 21
108.5928649902344
 31
0.0
 12
-203.8238372802734
 22
108.710807800293
 32
0.0
 13
-205.7537078857422
 23
108.710807800293
 33
0.0
  0
SOLID
  5
200
330
22
100
AcDbEntity
  8
0
  6
Continuous
 62
     7
100
AcDbTrace
 10
-203.8507843017578
 20
108.7835464477539
 30
0.0
 11
-205.7363433837891
 21
108.7835464477539
 31
0.0
 12
-203.8919219970703
 22
108.8946380615234
 32
0.0
 13
-205.6852874755859
 23
108.8946380615234
 33
0.0
  0
SOLID
  5
201
330
22
100
AcDbEntity
  8
0
  6
Continuous
 62
     7
100
AcDbTrace
 10
-203.8238372802734
 20
108.710807800293
 30
0.0
 11
-205.7537078857422
 21
108.710807800293
 31
0.0
 12
-203.8507843017578
 22
108.7835464477539
 32
0.0
 13
-205.7363433837891
 23
108.7835464477539
 33
0.0
  0
SOLID
  5
202
330
22
100
AcDbEntity
  8
0
  6
Continuous
 62
     7
100
AcDbTrace
 10
-203.8919219970703
 20
108.8946380615234
 30
0.0
 11
-205.6852874755859
 21
108.8946380615234
 31
0.0
 12
-203.9331207275391
 22
108.961669921875
 32
0.0
 13
-205.6544952392578
 23
108.961669921875
 33
0.0
  0
SOLID
  5
203
330
22
100
AcDbEntity
  8
0
  6
Continuous
 62
     7
100
AcDbTrace
 10
-203.9331207275391
 20
108.961669921875
 30
0.0
 11
-205.6544952392578
 21
108.961669921875
 31
0.0
 12
-203.9945678710938
 22
109.0616607666016
 32
0.0
 13
-205.5820465087891
 23
109.0616607666016
 33
0.0
  0
SOLID
  5
204
330
22
100
AcDbEntity
  8
0
  6
Continuous
 62
     7
100
AcDbTrace
 10
-203.9945678710938
 20
109.0616607666016
 30
0.0
 11
-205.5820465087891
 21
109.0616607666016
 31
0.0
 12
-204.0490112304688
 22
109.1204147338867
 32
0.0
 13
-205.5394744873047
 23
109.1204147338867
 33
0.0
  0
SOLID
  5
205
330
22
100
AcDbEntity
  8
0
  6
Continuous
 62
     7
100
AcDbTrace
 10
-204.1278076171875
 20
109.2054443359375
 30
0.0
 11
-205.4477081298828
 21
109.2054443359375
 31
0.0
 12
-204.1943511962891
 22
109.253662109375
 32
0.0
 13
-205.3956756591797
 23
109.253662109375
 33
0.0
  0
SOLID
  5
206
330
22
100
AcDbEntity
  8
0
  6
Continuous
 62
     7
100
AcDbTrace
 10
-204.0490112304688
 20
109.1204147338867
 30
0.0
 11
-205.5394744873047
 21
109.1204147338867
 31
0.0
 12
-204.1278076171875
 22
109.2054443359375
 32
0.0
 13
-205.4477081298828
 23
109.2054443359375
 33
0.0
  0
SOLID
  5
207
330
22
100
AcDbEntity
  8
0
  6
Continuous
 62
     7
100
AcDbTrace
 10
-204.1943511962891
 20
109.253662109375
 30
0.0
 11
-205.3956756591797
 21
109.253662109375
 31
0.0
 12
-204.2865447998047
 22
109.3204727172852
 32
0.0
 13
-205.2869720458984
 23
109.3204727172852
 33
0.0
  0
SOLID
  5
208
330
22
100
AcDbEntity
  8
0
  6
Continuous
 62
     7
100
AcDbTrace
 10
-204.2865447998047
 20
109.3204727172852
 30
0.0
 11
-205.2869720458984
 21
109.3204727172852
 31
0.0
 12
-204.3645324707031
 22
109.3563003540039
 32
0.0
 13
-205.2286682128906
 23
109.3563003540039
 33
0.0
  0
SOLID
  5
209
330
22
100
AcDbEntity
  8
0
  6
Continuous
 62
     7
100
AcDbTrace
 10
-204.3645324707031
 20
109.3563003540039
 30
0.0
 11
-205.2286682128906
 21
109.3563003540039
 31
0.0
 12
-204.4646759033203
 22
109.4023208618164
 32
0.0
 13
-205.1044006347656
 23
109.4023208618164
 33
0.0
  0
SOLID
  5
20A
330
22
100
AcDbEntity
  8
0
  6
Continuous
 62
     7
100
AcDbTrace
 10
-204.5570983886719
 20
109.4243850708008
 30
0.0
 11
-205.0448303222656
 21
109.4243850708008
 31
0.0
 12
-204.6553649902344
 22
109.4478454589844
 32
0.0
 13
-204.8979034423828
 23
109.4478454589844
 33
0.0
  0
SOLID
  5
20B
330
22
100
AcDbEntity
  8
0
  6
Continuous
 62
     7
100
AcDbTrace
 10
-204.4646759033203
 20
109.4023208618164
 30
0.0
 11
-205.1044006347656
 21
109.4023208618164
 31
0.0
 12
-204.5570983886719
 22
109.4243850708008
 32
0.0
 13
-205.0448303222656
 23
109.4243850708008
 33
0.0
  0
SOLID
  5
20C
330
22
100
AcDbEntity
  8
0
  6
Continuous
 62
     7
100
AcDbTrace
 10
-204.6553649902344
 20
109.4478454589844
 30
0.0
 11
-204.8979034423828
 21
109.4478454589844
 31
0.0
 12
-204.8512573242188
 22
109.4552917480469
 32
0.0
 13
-204.8512573242188
 23
109.4552917480469
 33
0.0
  0
SOLID
  5
20D
330
22
100
AcDbEntity
  8
0
  6
Continuous
 62
     7
100
AcDbTrace
 10
-204.7310028076172
 20
107.4589080810547
 30
0.0
 11
-204.9268951416016
 21
107.4663619995117
 31
0.0
 12
-204.6843414306641
 22
107.4663619995117
 32
0.0
 13
-204.6843414306641
 23
107.4663619995117
 33
0.0
  0
DIMENSION
  5
20E
330
22
100
AcDbEntity
  8
0
  6
Continuous
 62
     7
100
AcDbDimension
  2
*D1
 10
-145.0719909667969
 20
119.7571029663086
 30
0.0
 11
-145.0719909667969
 21
92.25710296630859
 31
0.0
 71
     5
 42
-1.0
  3
DIMSTYLE1
100
AcDbAlignedDimension
 13
-174.2859497070313
 23
64.75710296630859
 33
0.0
 14
-160.5359497070313
 24
119.7571029663086
 34
0.0
 50
90.0
100
AcDbRotatedDimension
  0
DIMENSION
  5
20F
330
22
100
AcDbEntity
  8
0
  6
Continuous
 62
     7
100
AcDbDimension
  2
*D2
 10
-240.802082132963
 20
220.1064487617331
 30
0.0
 11
-144.3309783935547
 21
184.9418029785156
 31
0.0
 70
     3
 71
     5
 42
-1.0
  3
DIMSTYLE2
100
AcDbDiametricDimension
 15
-203.2208976033651
 25
206.4077419120951
 35
0.0
 40
0.0
  0
DIMENSION
  5
210
330
22
100
AcDbEntity
  8
0
  6
Continuous
 62
     7
100
AcDbDimension
  2
*D3
 10
-269.3697110073104
 20
206.0707236217216
 30
0.0
 11
-139.919921875
 21
223.2302703857422
 31
0.0
 70
     3
 71
     5
 42
-1.0
  3
DIMSTYLE3
100
AcDbDiametricDimension
 15
-174.2021884067521
 25
218.6858986927315
 35
0.0
 40
0.0
  0
DIMENSION
  5
211
330
22
100
AcDbEntity
  8
0
  6
Continuous
 62
     7
100
AcDbDimension
  2
*D4
 10
-279.3754719776666
 20
188.0946350631917
 30
0.0
 11
-145.5556182861328
 21
244.5222320556641
 31
0.0
 70
     3
 71
     5
 42
-1.0
  3
DIMSTYLE4
100
AcDbDiametricDimension
 15
-164.1964274363959
 25
236.6619872512614
 35
0.0
 40
0.0
  0
INSERT
  5
212
330
22
100
AcDbEntity
  8
0
  6
Continuous
 62
     7
100
AcDbBlockReference
  2
KOZU0001
 10
-179.3359527587891
 20
73.60611724853516
 30
0.0
  0
ENDSEC
  0
SECTION
  2
OBJECTS
  0
DICTIONARY
  5
C
330
0
100
AcDbDictionary
281
     1
  3
ACAD_COLOR
350
1B
  3
ACAD_GROUP
350
D
  3
ACAD_LAYOUT
350
19
  3
ACAD_MATERIAL
350
1A
  3
ACAD_MLINESTYLE
350
16
  3
ACAD_PLOTSETTINGS
350
18
  3
ACAD_PLOTSTYLENAME
350
E
  3
ACAD_TABLESTYLE
350
1C
  3
AcDbVariableDictionary
350
21E
  0
DICTIONARY
  5
1B
102
{ACAD_REACTORS
330
C
102
}
330
C
100
AcDbDictionary
281
     1
  0
DICTIONARY
  5
D
102
{ACAD_REACTORS
330
C
102
}
330
C
100
AcDbDictionary
281
     1
  0
DICTIONARY
  5
19
102
{ACAD_REACTORS
330
C
102
}
330
C
100
AcDbDictionary
281
     1
  3
Model
350
25
  3
レイアウト1
350
21
  0
DICTIONARY
  5
1A
102
{ACAD_REACTORS
330
C
102
}
330
C
100
AcDbDictionary
281
     1
  0
DICTIONARY
  5
16
102
{ACAD_REACTORS
330
C
102
}
330
C
100
AcDbDictionary
281
     1
  3
Standard
350
17
  0
DICTIONARY
  5
18
102
{ACAD_REACTORS
330
C
102
}
330
C
100
AcDbDictionary
281
     1
  0
ACDBDICTIONARYWDFLT
  5
E
102
{ACAD_REACTORS
330
C
102
}
330
C
100
AcDbDictionary
281
     1
  3
Normal
350
F
100
AcDbDictionaryWithDefault
340
F
  0
DICTIONARY
  5
1C
102
{ACAD_REACTORS
330
C
102
}
330
C
100
AcDbDictionary
281
     1
  3
Standard
350
1D
  0
DICTIONARY
  5
21E
102
{ACAD_REACTORS
330
C
102
}
330
C
100
AcDbDictionary
281
     1
  3
CTABLESTYLE
350
21F
  0
LAYOUT
  5
25
102
{ACAD_REACTORS
330
19
102
}
330
19
100
AcDbPlotSettings
  1

  2
PDF reDirect v2
  4
A3
  6

 40
3.174999952316284
 41
3.174999952316284
 42
3.17498779296875
 43
3.17498779296875
 44
297.0530090332031
 45
420.1583251953125
 46
0.0
 47
0.0
 48
0.0
 49
0.0
140
0.0
141
0.0
142
1.0
143
1.0
 70
 11952
 72
     1
 73
     1
 74
     2
  7
C:\Users\ck\AppData\Roaming\Autodesk\AutoCAD 2005\R16.1\jpn\Plot Styles\black.ctb
 75
    16
147
1.0
 76
     0
 77
     2
 78
   300
148
423.0
149
2.0
100
AcDbLayout
  1
Model
 70
     1
 71
     0
 10
0.0
 20
0.0
 11
12.0
 21
9.0
 12
0.0
 22
0.0
 32
0.0
 14
0.0
 24
0.0
 34
0.0
 15
0.0
 25
0.0
 35
0.0
146
0.0
 13
0.0
 23
0.0
 33
0.0
 16
1.0
 26
0.0
 36
0.0
 17
0.0
 27
1.0
 37
0.0
 76
     0
330
22
1001
ACAD_PSEXT
1000
PDF reDirect v2
1000
PDF reDirect Pro
1000
PDF_REDIRECT_PORT:
1000
PDF reDirect provided by EXP Systems
1070
     0
  0
LAYOUT
  5
21
102
{ACAD_REACTORS
330
19
102
}
330
19
100
AcDbPlotSettings
  1

  2
PDF reDirect v2
  4

  6

 40
0.0
 41
0.0
 42
0.0
 43
0.0
 44
0.0
 45
0.0
 46
0.0
 47
0.0
 48
0.0
 49
0.0
140
0.0
141
0.0
142
1.0
143
1.0
 70
   688
 72
     0
 73
     0
 74
     5
  7
C:\Users\ck\AppData\Roaming\Autodesk\AutoCAD 2005\R16.1\jpn\Plot Styles\black.ctb
 75
    16
147
1.0
 76
     0
 77
     2
 78
   300
148
0.0
149
0.0
100
AcDbLayout
  1
レイアウト1
 70
     1
 71
     1
 10
-423.0
 20
-2.0
 11
-5.0
 21
293.0
 12
0.0
 22
0.0
 32
0.0
 14
1.000000000000000E+20
 24
1.000000000000000E+20
 34
1.000000000000000E+20
 15
-1.000000000000000E+20
 25
-1.000000000000000E+20
 35
-1.000000000000000E+20
146
0.0
 13
0.0
 23
0.0
 33
0.0
 16
1.0
 26
0.0
 36
0.0
 17
0.0
 27
1.0
 37
0.0
 76
     0
330
1E
  0
MLINESTYLE
  5
17
102
{ACAD_REACTORS
330
16
102
}
330
16
100
AcDbMlineStyle
  2
STANDARD
 70
     0
  3

 62
   256
 51
90.0
 52
90.0
 71
     2
 49
0.5
 62
   256
  6
BYLAYER
 49
-0.5
 62
   256
  6
BYLAYER
  0
ACDBPLACEHOLDER
  5
F
102
{ACAD_REACTORS
330
E
102
}
330
E
  0
TABLESTYLE
  5
1D
102
{ACAD_REACTORS
330
1C
102
}
330
1C
100
AcDbTableStyle
  3
Standard
 70
     0
 71
     0
 40
0.06
 41
0.06
280
     0
281
     0
  7
STANDARD
140
0.18
170
     2
 62
     0
 63
     7
283
     0
274
    -2
284
     1
 64
     0
275
    -2
285
     1
 65
     0
276
    -2
286
     1
 66
     0
277
    -2
287
     1
 67
     0
278
    -2
288
     1
 68
     0
279
    -2
289
     1
 69
     0
  7
STANDARD
140
0.25
170
     5
 62
     0
 63
     7
283
     0
274
    -2
284
     1
 64
     0
275
    -2
285
     1
 65
     0
276
    -2
286
     1
 66
     0
277
    -2
287
     1
 67
     0
278
    -2
288
     1
 68
     0
279
    -2
289
     1
 69
     0
  7
STANDARD
140
0.18
170
     5
 62
     0
 63
     7
283
     0
274
    -2
284
     1
 64
     0
275
    -2
285
     1
 65
     0
276
    -2
286
     1
 66
     0
277
    -2
287
     1
 67
     0
278
    -2
288
     1
 68
     0
279
    -2
289
     1
 69
     0
  0
DICTIONARYVAR
  5
21F
102
{ACAD_REACTORS
330
21E
102
}
330
21E
100
DictionaryVariables
280
     0
  1
STANDARD
  0
ENDSEC
  0
EOF
