  0
SECTION
  2
HEADER
  9
$ACADVER
  1
AC1018
  9
$ACADMAINTVER
 70
    39
  9
$DWGCODEPAGE
  3
ANSI_932
  9
$INSBASE
 10
0.0
 20
0.0
 30
0.0
  9
$EXTMIN
 10
-292.3239734840159
 20
47.77584913346902
 30
-0.0015258207003583
  9
$EXTMAX
 10
-68.067381912688
 20
281.9357001368605
 30
0.0000000349246037
  9
$LIMMIN
 10
-423.0
 20
-2.0
  9
$LIMMAX
 10
-5.0
 20
293.0
  9
$ORTHOMODE
 70
     0
  9
$REGENMODE
 70
     1
  9
$FILLMODE
 70
     1
  9
$QTEXTMODE
 70
     0
  9
$MIRRTEXT
 70
     0
  9
$LTSCALE
 40
1.0
  9
$ATTMODE
 70
     1
  9
$TEXTSIZE
 40
0.2
  9
$TRACEWID
 40
0.05
  9
$TEXTSTYLE
  7
STANDARD
  9
$CLAYER
  8
0
  9
$CELTYPE
  6
CONTINUOUS
  9
$CECOLOR
 62
   256
  9
$CELTSCALE
 40
1.0
  9
$DISPSILH
 70
     0
  9
$DIMSCALE
 40
1.0
  9
$DIMASZ
 40
1.0
  9
$DIMEXO
 40
2.54
  9
$DIMDLI
 40
0.38
  9
$DIMRND
 40
0.0
  9
$DIMDLE
 40
0.0
  9
$DIMEXE
 40
2.54
  9
$DIMTP
 40
0.0
  9
$DIMTM
 40
0.0
  9
$DIMTXT
 40
3.0
  9
$DIMCEN
 40
0.09
  9
$DIMTSZ
 40
0.0
  9
$DIMTOL
 70
     0
  9
$DIMLIM
 70
     0
  9
$DIMTIH
 70
     0
  9
$DIMTOH
 70
     0
  9
$DIMSE1
 70
     0
  9
$DIMSE2
 70
     0
  9
$DIMTAD
 70
     1
  9
$DIMZIN
 70
     0
  9
$DIMBLK
  1

  9
$DIMASO
 70
     1
  9
$DIMSHO
 70
     0
  9
$DIMPOST
  1

  9
$DIMAPOST
  1

  9
$DIMALT
 70
     0
  9
$DIMALTD
 70
     2
  9
$DIMALTF
 40
25.4
  9
$DIMLFAC
 40
1.0
  9
$DIMTOFL
 70
     0
  9
$DIMTVP
 40
1.0
  9
$DIMTIX
 70
     0
  9
$DIMSOXD
 70
     0
  9
$DIMSAH
 70
     1
  9
$DIMBLK1
  1

  9
$DIMBLK2
  1

  9
$DIMSTYLE
  2
DIMSTYLE1
  9
$DIMCLRD
 70
     0
  9
$DIMCLRE
 70
     0
  9
$DIMCLRT
 70
     0
  9
$DIMTFAC
 40
1.0
  9
$DIMGAP
 40
1.5
  9
$DIMJUST
 70
     0
  9
$DIMSD1
 70
     0
  9
$DIMSD2
 70
     0
  9
$DIMTOLJ
 70
     1
  9
$DIMTZIN
 70
     0
  9
$DIMALTZ
 70
     0
  9
$DIMALTTZ
 70
     0
  9
$DIMUPT
 70
     0
  9
$DIMDEC
 70
     4
  9
$DIMTDEC
 70
     4
  9
$DIMALTU
 70
     2
  9
$DIMALTTD
 70
     2
  9
$DIMTXSTY
  7
STANDARD
  9
$DIMAUNIT
 70
     0
  9
$DIMADEC
 70
     0
  9
$DIMALTRND
 40
0.0
  9
$DIMAZIN
 70
     0
  9
$DIMDSEP
 70
    46
  9
$DIMATFIT
 70
     3
  9
$DIMFRAC
 70
     0
  9
$DIMLDRBLK
  1

  9
$DIMLUNIT
 70
     2
  9
$DIMLWD
 70
    -2
  9
$DIMLWE
 70
    -2
  9
$DIMTMOVE
 70
     0
  9
$LUNITS
 70
     2
  9
$LUPREC
 70
     4
  9
$SKETCHINC
 40
0.1
  9
$FILLETRAD
 40
0.0
  9
$AUNITS
 70
     0
  9
$AUPREC
 70
     0
  9
$MENU
  1
.
  9
$ELEVATION
 40
0.0
  9
$PELEVATION
 40
0.0
  9
$THICKNESS
 40
0.0
  9
$LIMCHECK
 70
     0
  9
$CHAMFERA
 40
0.0
  9
$CHAMFERB
 40
0.0
  9
$CHAMFERC
 40
0.0
  9
$CHAMFERD
 40
0.0
  9
$SKPOLY
 70
     0
  9
$TDCREATE
 40
2457842.835046378
  9
$TDUCREATE
 40
2457842.460046378
  9
$TDUPDATE
 40
2457842.835629132
  9
$TDUUPDATE
 40
2457842.460629132
  9
$TDINDWG
 40
0.0005839120
  9
$TDUSRTIMER
 40
0.0005839120
  9
$USRTIMER
 70
     1
  9
$ANGBASE
 50
0.0
  9
$ANGDIR
 70
     0
  9
$PDMODE
 70
     0
  9
$PDSIZE
 40
0.0
  9
$PLINEWID
 40
0.0
  9
$SPLFRAME
 70
     0
  9
$SPLINETYPE
 70
     6
  9
$SPLINESEGS
 70
     8
  9
$HANDSEED
  5
22D
  9
$SURFTAB1
 70
     6
  9
$SURFTAB2
 70
     6
  9
$SURFTYPE
 70
     6
  9
$SURFU
 70
     6
  9
$SURFV
 70
     6
  9
$UCSBASE
  2

  9
$UCSNAME
  2

  9
$UCSORG
 10
0.0
 20
0.0
 30
0.0
  9
$UCSXDIR
 10
1.0
 20
0.0
 30
0.0
  9
$UCSYDIR
 10
0.0
 20
1.0
 30
0.0
  9
$UCSORTHOREF
  2

  9
$UCSORTHOVIEW
 70
     0
  9
$UCSORGTOP
 10
0.0
 20
0.0
 30
0.0
  9
$UCSORGBOTTOM
 10
0.0
 20
0.0
 30
0.0
  9
$UCSORGLEFT
 10
0.0
 20
0.0
 30
0.0
  9
$UCSORGRIGHT
 10
0.0
 20
0.0
 30
0.0
  9
$UCSORGFRONT
 10
0.0
 20
0.0
 30
0.0
  9
$UCSORGBACK
 10
0.0
 20
0.0
 30
0.0
  9
$PUCSBASE
  2

  9
$PUCSNAME
  2

  9
$PUCSORG
 10
0.0
 20
0.0
 30
0.0
  9
$PUCSXDIR
 10
1.0
 20
0.0
 30
0.0
  9
$PUCSYDIR
 10
0.0
 20
1.0
 30
0.0
  9
$PUCSORTHOREF
  2

  9
$PUCSORTHOVIEW
 70
     0
  9
$PUCSORGTOP
 10
0.0
 20
0.0
 30
0.0
  9
$PUCSORGBOTTOM
 10
0.0
 20
0.0
 30
0.0
  9
$PUCSORGLEFT
 10
0.0
 20
0.0
 30
0.0
  9
$PUCSORGRIGHT
 10
0.0
 20
0.0
 30
0.0
  9
$PUCSORGFRONT
 10
0.0
 20
0.0
 30
0.0
  9
$PUCSORGBACK
 10
0.0
 20
0.0
 30
0.0
  9
$USERI1
 70
     0
  9
$USERI2
 70
     0
  9
$USERI3
 70
     0
  9
$USERI4
 70
     0
  9
$USERI5
 70
     0
  9
$USERR1
 40
0.0
  9
$USERR2
 40
0.0
  9
$USERR3
 40
0.0
  9
$USERR4
 40
0.0
  9
$USERR5
 40
0.0
  9
$WORLDVIEW
 70
     1
  9
$SHADEDGE
 70
     3
  9
$SHADEDIF
 70
    70
  9
$TILEMODE
 70
     1
  9
$MAXACTVP
 70
    64
  9
$PINSBASE
 10
0.0
 20
0.0
 30
0.0
  9
$PLIMCHECK
 70
     0
  9
$PEXTMIN
 10
1.000000000000000E+20
 20
1.000000000000000E+20
 30
1.000000000000000E+20
  9
$PEXTMAX
 10
-1.000000000000000E+20
 20
-1.000000000000000E+20
 30
-1.000000000000000E+20
  9
$PLIMMIN
 10
-423.0
 20
-2.0
  9
$PLIMMAX
 10
-5.0
 20
293.0
  9
$UNITMODE
 70
     0
  9
$VISRETAIN
 70
     1
  9
$PLINEGEN
 70
     0
  9
$PSLTSCALE
 70
     1
  9
$TREEDEPTH
 70
  3020
  9
$CMLSTYLE
  2
Standard
  9
$CMLJUST
 70
     0
  9
$CMLSCALE
 40
1.0
  9
$PROXYGRAPHICS
 70
     1
  9
$MEASUREMENT
 70
     0
  9
$CELWEIGHT
370
    -1
  9
$ENDCAPS
280
     0
  9
$JOINSTYLE
280
     0
  9
$LWDISPLAY
290
     0
  9
$INSUNITS
 70
     0
  9
$HYPERLINKBASE
  1

  9
$STYLESHEET
  1

  9
$XEDIT
290
     1
  9
$CEPSNTYPE
380
     0
  9
$PSTYLEMODE
290
     1
  9
$FINGERPRINTGUID
  2
{98B90AC4-494F-45D3-ACA1-820F99EE1CCF}
  9
$VERSIONGUID
  2
{10F6CB43-60B3-408A-9ED5-C1EDC8EFD4EA}
  9
$EXTNAMES
290
     1
  9
$PSVPSCALE
 40
0.0
  9
$OLESTARTUP
290
     0
  9
$SORTENTS
280
   127
  9
$INDEXCTL
280
     0
  9
$HIDETEXT
280
     0
  9
$XCLIPFRAME
290
     0
  9
$HALOGAP
280
     0
  9
$OBSCOLOR
 70
   257
  9
$OBSLTYPE
280
     0
  9
$INTERSECTIONDISPLAY
280
     0
  9
$INTERSECTIONCOLOR
 70
   257
  9
$DIMASSOC
280
     1
  9
$PROJECTNAME
  1

  0
ENDSEC
  0
SECTION
  2
CLASSES
  0
CLASS
  1
ACDBDICTIONARYWDFLT
  2
AcDbDictionaryWithDefault
  3
ObjectDBX Classes
 90
        0
 91
        1
280
     0
281
     0
  0
CLASS
  1
TABLESTYLE
  2
AcDbTableStyle
  3
ObjectDBX Classes
 90
     2047
 91
        1
280
     0
281
     0
  0
CLASS
  1
DICTIONARYVAR
  2
AcDbDictionaryVar
  3
ObjectDBX Classes
 90
        0
 91
        1
280
     0
281
     0
  0
ENDSEC
  0
SECTION
  2
TABLES
  0
TABLE
  2
VPORT
  5
8
330
0
100
AcDbSymbolTable
 70
     2
  0
VPORT
  5
22C
330
8
100
AcDbSymbolTableRecord
100
AcDbViewportTableRecord
  2
*Active
 70
     0
 10
0.0
 20
0.0
 11
1.0
 21
1.0
 12
-214.0
 22
145.5
 13
0.0
 23
0.0
 14
1.0
 24
1.0
 15
0.0
 25
0.0
 16
0.0
 26
0.0
 36
1.0
 17
0.0
 27
0.0
 37
0.0
 40
297.3320158102766
 41
1.707124010554089
 42
50.0
 43
0.0
 44
0.0
 50
0.0
 51
0.0
 71
     0
 72
   100
 73
     1
 74
     1
 75
     0
 76
     0
 77
     0
 78
     0
281
     0
 65
     1
110
0.0
120
0.0
130
0.0
111
1.0
121
0.0
131
0.0
112
0.0
122
1.0
132
0.0
 79
     0
146
0.0
  0
ENDTAB
  0
TABLE
  2
LTYPE
  5
5
330
0
100
AcDbSymbolTable
 70
     6
  0
LTYPE
  5
13
330
5
100
AcDbSymbolTableRecord
100
AcDbLinetypeTableRecord
  2
ByBlock
 70
     0
  3

 72
    65
 73
     0
 40
0.0
  0
LTYPE
  5
14
330
5
100
AcDbSymbolTableRecord
100
AcDbLinetypeTableRecord
  2
ByLayer
 70
     0
  3

 72
    65
 73
     0
 40
0.0
  0
LTYPE
  5
15
330
5
100
AcDbSymbolTableRecord
100
AcDbLinetypeTableRecord
  2
CONTINUOUS
 70
     0
  3
Solid line
 72
    65
 73
     0
 40
0.0
  0
LTYPE
  5
26
330
5
100
AcDbSymbolTableRecord
100
AcDbLinetypeTableRecord
  2
DASHED
 70
     0
  3
__ __ __ __ __ __ __ __ __ __ __ __ __ __ __
 72
    65
 73
     2
 40
3.5
 49
2.0
 74
     0
 49
-1.5
 74
     0
  0
LTYPE
  5
27
330
5
100
AcDbSymbolTableRecord
100
AcDbLinetypeTableRecord
  2
CENTER
 70
     0
  3
____ _ ____ _ ____ _ ____ _ ____ _ ____ _ ____
 72
    65
 73
     4
 40
17.5
 49
13.0
 74
     0
 49
-1.5
 74
     0
 49
1.5
 74
     0
 49
-1.5
 74
     0
  0
LTYPE
  5
28
330
5
100
AcDbSymbolTableRecord
100
AcDbLinetypeTableRecord
  2
PHANTOM
 70
     0
  3
_____ _ _ _____ _ _ _____ _ _ _____ _ _ ____  
 72
    65
 73
     6
 40
15.5
 49
8.0
 74
     0
 49
-1.5
 74
     0
 49
1.5
 74
     0
 49
-1.5
 74
     0
 49
1.5
 74
     0
 49
-1.5
 74
     0
  0
LTYPE
  5
29
330
5
100
AcDbSymbolTableRecord
100
AcDbLinetypeTableRecord
  2
DOT
 70
     0
  3
. . . . . . . . . . . . . . . . . . . . . . . .
 72
    65
 73
     2
 40
0.25
 49
0.0
 74
     0
 49
-0.25
 74
     0
  0
LTYPE
  5
2A
330
5
100
AcDbSymbolTableRecord
100
AcDbLinetypeTableRecord
  2
HIDDEN
 70
     0
  3
__ __ __ __ __ __ __ __ __ __ __ __ __ __ __
 72
    65
 73
     2
 40
3.5
 49
2.0
 74
     0
 49
-1.5
 74
     0
  0
ENDTAB
  0
TABLE
  2
LAYER
  5
2
330
0
100
AcDbSymbolTable
 70
     3
  0
LAYER
  5
10
330
2
100
AcDbSymbolTableRecord
100
AcDbLayerTableRecord
  2
0
 70
     0
 62
     7
  6
CONTINUOUS
370
    -3
390
F
  0
LAYER
  5
2B
330
2
100
AcDbSymbolTableRecord
100
AcDbLayerTableRecord
  2
1
 70
     0
 62
     7
  6
CONTINUOUS
370
    -3
390
F
  0
LAYER
  5
2C
330
2
100
AcDbSymbolTableRecord
100
AcDbLayerTableRecord
  2
DEFPOINTS
 70
     0
 62
     7
  6
CONTINUOUS
290
     0
370
    -3
390
F
  0
ENDTAB
  0
TABLE
  2
STYLE
  5
3
330
0
100
AcDbSymbolTable
 70
     2
  0
STYLE
  5
11
330
3
100
AcDbSymbolTableRecord
100
AcDbTextStyleTableRecord
  2
STANDARD
 70
     0
 40
0.0
 41
1.0
 50
0.0
 71
     0
 42
0.2
  3

  4

1001
ACAD
1000
MS Gothic
1071
    32817
  0
ENDTAB
  0
TABLE
  2
VIEW
  5
6
330
0
100
AcDbSymbolTable
 70
     0
  0
ENDTAB
  0
TABLE
  2
UCS
  5
7
330
0
100
AcDbSymbolTable
 70
     0
  0
ENDTAB
  0
TABLE
  2
APPID
  5
9
330
0
100
AcDbSymbolTable
 70
     2
  0
APPID
  5
12
330
9
100
AcDbSymbolTableRecord
100
AcDbRegAppTableRecord
  2
ACAD
 70
     0
  0
APPID
  5
221
330
9
100
AcDbSymbolTableRecord
100
AcDbRegAppTableRecord
  2
ACAD_PSEXT
 70
     0
  0
ENDTAB
  0
TABLE
  2
DIMSTYLE
  5
A
330
0
100
AcDbSymbolTable
 70
     5
100
AcDbDimStyleTable
 71
     1
340
2D
  0
DIMSTYLE
105
2D
102
{ACAD_REACTORS
330
219
102
}
330
A
100
AcDbSymbolTableRecord
100
AcDbDimStyleTableRecord
  2
DIMSTYLE1
 70
     0
 41
1.0
 42
2.54
 44
2.54
 73
     0
 74
     0
 75
     1
 76
     1
 77
     1
140
3.0
145
1.0
147
1.5
172
     1
173
     1
279
     2
340
11
  0
DIMSTYLE
105
2E
102
{ACAD_REACTORS
330
21A
102
}
330
A
100
AcDbSymbolTableRecord
100
AcDbDimStyleTableRecord
  2
DIMSTYLE2
 70
     0
 41
1.0
 42
2.54
 44
2.54
 73
     0
 74
     0
 75
     1
 76
     1
 77
     1
140
3.0
145
1.0
147
1.5
172
     1
173
     1
279
     2
340
11
  0
DIMSTYLE
105
2F
102
{ACAD_REACTORS
330
21B
102
}
330
A
100
AcDbSymbolTableRecord
100
AcDbDimStyleTableRecord
  2
DIMSTYLE3
 70
     0
 41
1.0
 42
2.54
 44
2.54
 73
     0
 74
     0
 75
     1
 76
     1
 77
     1
140
3.0
145
1.0
147
1.5
172
     1
173
     1
279
     2
340
11
  0
DIMSTYLE
105
30
102
{ACAD_REACTORS
330
21D
102
}
330
A
100
AcDbSymbolTableRecord
100
AcDbDimStyleTableRecord
  2
DIMSTYLE4
 70
     0
 41
1.0
 42
2.54
 44
2.54
 73
     0
 74
     0
 77
     1
140
3.0
145
1.0
147
1.5
172
     1
173
     1
279
     2
340
11
  0
ENDTAB
  0
TABLE
  2
BLOCK_RECORD
  5
1
330
0
100
AcDbSymbolTable
 70
     7
  0
BLOCK_RECORD
  5
22
330
1
100
AcDbSymbolTableRecord
100
AcDbBlockTableRecord
  2
*Model_Space
340
25
  0
BLOCK_RECORD
  5
1E
330
1
100
AcDbSymbolTableRecord
100
AcDbBlockTableRecord
  2
*Paper_Space
340
21
  0
BLOCK_RECORD
  5
34
330
1
100
AcDbSymbolTableRecord
100
AcDbBlockTableRecord
  2
_OPEN30
340
0
102
{BLKREFS
331
3E
331
3F
331
48
331
49
331
52
331
53
331
5B
331
5C
102
}
  0
BLOCK_RECORD
  5
3A
330
1
100
AcDbSymbolTableRecord
100
AcDbBlockTableRecord
  2
*D1
340
0
  0
BLOCK_RECORD
  5
44
330
1
100
AcDbSymbolTableRecord
100
AcDbBlockTableRecord
  2
*D2
340
0
  0
BLOCK_RECORD
  5
4E
330
1
100
AcDbSymbolTableRecord
100
AcDbBlockTableRecord
  2
*D3
340
0
  0
BLOCK_RECORD
  5
58
330
1
100
AcDbSymbolTableRecord
100
AcDbBlockTableRecord
  2
*D4
340
0
  0
BLOCK_RECORD
  5
64
330
1
100
AcDbSymbolTableRecord
100
AcDbBlockTableRecord
  2
KOZU0001
340
0
102
{BLKREFS
331
21C
102
}
  0
ENDTAB
  0
ENDSEC
  0
SECTION
  2
BLOCKS
  0
BLOCK
  5
23
330
22
100
AcDbEntity
  8
0
100
AcDbBlockBegin
  2
*Model_Space
 70
     0
 10
0.0
 20
0.0
 30
0.0
  3
*Model_Space
  1

  0
ENDBLK
  5
24
330
22
100
AcDbEntity
  8
0
100
AcDbBlockEnd
  0
BLOCK
  5
1F
330
1E
100
AcDbEntity
 67
     1
  8
0
100
AcDbBlockBegin
  2
*Paper_Space
 70
     0
 10
0.0
 20
0.0
 30
0.0
  3
*Paper_Space
  1

  0
ENDBLK
  5
20
330
1E
100
AcDbEntity
 67
     1
  8
0
100
AcDbBlockEnd
  0
BLOCK
  5
35
330
34
100
AcDbEntity
  8
0
100
AcDbBlockBegin
  2
_OPEN30
 70
     0
 10
0.0
 20
0.0
 30
0.0
  3
_OPEN30
  1

  0
LINE
  5
36
330
34
100
AcDbEntity
  8
0
  6
ByBlock
 62
     0
100
AcDbLine
 10
0.0
 20
0.0
 30
0.0
 11
-2.999999999999993
 21
-1.000000000000017
 31
0.0
  0
LINE
  5
37
330
34
100
AcDbEntity
  8
0
  6
ByBlock
 62
     0
100
AcDbLine
 10
0.0
 20
0.0
 30
0.0
 11
-3.000000000000006
 21
0.9999999999999815
 31
0.0
  0
LINE
  5
38
330
34
100
AcDbEntity
  8
0
  6
ByBlock
 62
     0
100
AcDbLine
 10
0.0
 20
0.0
 30
0.0
 11
-3.0
 21
0.0
 31
0.0
  0
ENDBLK
  5
39
330
34
100
AcDbEntity
  8
0
100
AcDbBlockEnd
  0
BLOCK
  5
3B
330
3A
100
AcDbEntity
  8
0
100
AcDbBlockBegin
  2
*D1
 70
     1
 10
0.0
 20
0.0
 30
0.0
  3
*D1
  1

  0
LINE
  5
3C
330
3A
100
AcDbEntity
  8
0
  6
Continuous
 62
     7
100
AcDbLine
 10
-163.8348541259766
 20
236.664794921875
 30
0.0
 11
-128.3348236083984
 21
251.0040130615234
 31
0.0
  0
LINE
  5
3D
330
3A
100
AcDbEntity
  8
0
  6
Continuous
 62
     7
100
AcDbLine
 10
-276.9554077373285
 20
190.9729801662205
 30
0.0
 11
-166.616506935523
 21
235.5412257663967
 31
0.0
  0
INSERT
  5
3E
330
3A
100
AcDbEntity
  8
0
  6
Continuous
 62
     7
100
AcDbBlockReference
  2
_OPEN30
 10
-279.737060546875
 20
189.8494110107422
 30
0.0
 50
201.9948376005785
  0
INSERT
  5
3F
330
3A
100
AcDbEntity
  8
0
  6
Continuous
 62
     7
100
AcDbBlockReference
  2
_OPEN30
 10
-163.8348541259766
 20
236.664794921875
 30
0.0
 50
21.99483760057784
  0
TEXT
  5
40
330
3A
100
AcDbEntity
  8
0
  6
Continuous
 62
     7
100
AcDbText
 10
-155.6344151176773
 20
240.7845802872562
 30
0.0
 40
3.0
  1
%%C１２５（本体外径）
 50
22.00000004302335
 41
0.8443929326254473
100
AcDbText
  0
POINT
  5
41
330
3A
100
AcDbEntity
  8
DEFPOINTS
  6
Continuous
 62
     7
100
AcDbPoint
 10
-279.737060546875
 20
189.8494110107422
 30
0.0
  0
POINT
  5
42
330
3A
100
AcDbEntity
  8
DEFPOINTS
  6
Continuous
 62
     7
100
AcDbPoint
 10
-163.8348541259766
 20
236.664794921875
 30
0.0
  0
ENDBLK
  5
43
330
3A
100
AcDbEntity
  8
0
100
AcDbBlockEnd
  0
BLOCK
  5
45
330
44
100
AcDbEntity
  8
0
100
AcDbBlockBegin
  2
*D2
 70
     1
 10
0.0
 20
0.0
 30
0.0
  3
*D2
  1

  0
LINE
  5
46
330
44
100
AcDbEntity
  8
0
  6
Continuous
 62
     7
100
AcDbLine
 10
-174.3235015869141
 20
220.4205627441406
 30
0.0
 11
-122.1936874389648
 21
228.2884521484375
 31
0.0
  0
LINE
  5
47
330
44
100
AcDbEntity
  8
0
  6
Continuous
 62
     7
100
AcDbLine
 10
-266.2820095126028
 20
206.5413594380223
 30
0.0
 11
-177.2899051602486
 21
219.9728464945949
 31
0.0
  0
INSERT
  5
48
330
44
100
AcDbEntity
  8
0
  6
Continuous
 62
     7
100
AcDbBlockReference
  2
_OPEN30
 10
-269.2484130859375
 20
206.0936431884766
 30
0.0
 50
188.5828135864731
  0
INSERT
  5
49
330
44
100
AcDbEntity
  8
0
  6
Continuous
 62
     7
100
AcDbBlockReference
  2
_OPEN30
 10
-174.3235015869141
 20
220.4205627441406
 30
0.0
 50
8.582813586472406
  0
TEXT
  5
4A
330
44
100
AcDbEntity
  8
0
  6
Continuous
 62
     7
100
AcDbText
 10
-151.1188574737558
 20
224.6768815312113
 30
0.0
 40
3.0
  1
%%C９６（排水栓外径）
 50
8.599999613216128
 41
0.8443929326254473
100
AcDbText
  0
POINT
  5
4B
330
44
100
AcDbEntity
  8
DEFPOINTS
  6
Continuous
 62
     7
100
AcDbPoint
 10
-269.2484130859375
 20
206.0936431884766
 30
0.0
  0
POINT
  5
4C
330
44
100
AcDbEntity
  8
DEFPOINTS
  6
Continuous
 62
     7
100
AcDbPoint
 10
-174.3235015869141
 20
220.4205627441406
 30
0.0
  0
ENDBLK
  5
4D
330
44
100
AcDbEntity
  8
0
100
AcDbBlockEnd
  0
BLOCK
  5
4F
330
4E
100
AcDbEntity
  8
0
100
AcDbBlockBegin
  2
*D3
 70
     1
 10
0.0
 20
0.0
 30
0.0
  3
*D3
  1

  0
LINE
  5
50
330
4E
100
AcDbEntity
  8
0
  6
Continuous
 62
     7
100
AcDbLine
 10
-203.0425109863281
 20
207.7973327636719
 30
0.0
 11
-132.8412475585938
 21
184.3393249511719
 31
0.0
  0
LINE
  5
51
330
4E
100
AcDbEntity
  8
0
  6
Continuous
 62
     7
100
AcDbLine
 10
-238.1351350395076
 20
219.5236580392919
 30
0.0
 11
-205.8878599556096
 21
208.7481162527003
 31
0.0
  0
INSERT
  5
52
330
4E
100
AcDbEntity
  8
0
  6
Continuous
 62
     7
100
AcDbBlockReference
  2
_OPEN30
 10
-240.9804840087891
 20
220.4744415283203
 30
0.0
 50
161.5227655890774
  0
INSERT
  5
53
330
4E
100
AcDbEntity
  8
0
  6
Continuous
 62
     7
100
AcDbBlockReference
  2
_OPEN30
 10
-203.0425109863281
 20
207.7973327636719
 30
0.0
 50
341.5227655890781
  0
TEXT
  5
54
330
4E
100
AcDbEntity
  8
0
  6
Continuous
 62
     7
100
AcDbText
 10
-157.3941000290221
 20
193.339982019076
 30
0.0
 40
3.0
  1
%%C４０（子栓外径）
 50
341.5000006235555
 41
0.8448610247221777
100
AcDbText
  0
POINT
  5
55
330
4E
100
AcDbEntity
  8
DEFPOINTS
  6
Continuous
 62
     7
100
AcDbPoint
 10
-240.9804840087891
 20
220.4744415283203
 30
0.0
  0
POINT
  5
56
330
4E
100
AcDbEntity
  8
DEFPOINTS
  6
Continuous
 62
     7
100
AcDbPoint
 10
-203.0425109863281
 20
207.7973327636719
 30
0.0
  0
ENDBLK
  5
57
330
4E
100
AcDbEntity
  8
0
100
AcDbBlockEnd
  0
BLOCK
  5
59
330
58
100
AcDbEntity
  8
0
100
AcDbBlockBegin
  2
*D4
 70
     1
 10
0.0
 20
0.0
 30
0.0
  3
*D4
  1

  0
LINE
  5
5A
330
58
100
AcDbEntity
  8
0
  6
Continuous
 62
     7
100
AcDbLine
 10
-121.3726348876953
 20
74.63588714599609
 30
0.0
 11
-121.3726348876953
 21
123.6358871459961
 31
0.0
  0
INSERT
  5
5B
330
58
100
AcDbEntity
  8
0
  6
Continuous
 62
     7
100
AcDbBlockReference
  2
_OPEN30
 10
-121.3726348876953
 20
71.63588714599609
 30
0.0
 50
270.0000000000005
  0
INSERT
  5
5C
330
58
100
AcDbEntity
  8
0
  6
Continuous
 62
     7
100
AcDbBlockReference
  2
_OPEN30
 10
-121.3726348876953
 20
126.6358871459961
 30
0.0
 50
90.00000000000019
  0
LINE
  5
5D
330
58
100
AcDbEntity
  8
0
  6
Continuous
 62
     7
100
AcDbLine
 10
-171.7459497070313
 20
71.63588714599609
 30
0.0
 11
-119.0866394042969
 21
71.63588714599609
 31
0.0
  0
LINE
  5
5E
330
58
100
AcDbEntity
  8
0
  6
Continuous
 62
     7
100
AcDbLine
 10
-157.9959497070313
 20
126.6358871459961
 30
0.0
 11
-119.0866394042969
 21
126.6358871459961
 31
0.0
  0
TEXT
  5
5F
330
58
100
AcDbEntity
  8
0
  6
Continuous
 62
     7
100
AcDbText
 10
-122.122634775357
 20
96.56588700115582
 30
0.0
 40
3.0
  1
55
 50
90.00000250447815
 41
1.028000020980834
100
AcDbText
  0
POINT
  5
60
330
58
100
AcDbEntity
  8
DEFPOINTS
  6
Continuous
 62
     7
100
AcDbPoint
 10
-174.2859497070313
 20
71.63588714599609
 30
0.0
  0
POINT
  5
61
330
58
100
AcDbEntity
  8
DEFPOINTS
  6
Continuous
 62
     7
100
AcDbPoint
 10
-160.5359497070313
 20
126.6358871459961
 30
0.0
  0
POINT
  5
62
330
58
100
AcDbEntity
  8
DEFPOINTS
  6
Continuous
 62
     7
100
AcDbPoint
 10
-121.3726348876953
 20
126.6358871459961
 30
0.0
  0
ENDBLK
  5
63
330
58
100
AcDbEntity
  8
0
100
AcDbBlockEnd
  0
BLOCK
  5
65
330
64
100
AcDbEntity
  8
0
100
AcDbBlockBegin
  2
KOZU0001
 70
     0
 10
0.0
 20
0.0
 30
0.0
  3
KOZU0001
  1

  0
LINE
  5
66
330
64
100
AcDbEntity
  8
0
  6
Continuous
 62
     7
100
AcDbLine
 10
0.0
 20
0.0
 30
0.0
 11
-17.54710388183594
 21
-24.11503601074219
 31
0.0
  0
LINE
  5
67
330
64
100
AcDbEntity
  8
0
  6
Continuous
 62
     7
100
AcDbLine
 10
-17.54710388183594
 20
-24.11503601074219
 30
0.0
 11
-61.70796203613281
 21
-24.11503601074219
 31
0.0
  0
LINE
  5
68
330
64
100
AcDbEntity
  8
0
  6
Continuous
 62
     7
100
AcDbLine
 10
0.0
 20
0.0
 30
0.0
 11
-0.9565061512084872
 21
-3.014149296683946
 31
0.0
  0
LINE
  5
69
330
64
100
AcDbEntity
  8
0
  6
Continuous
 62
     7
100
AcDbLine
 10
0.0
 20
0.0
 30
0.0
 11
-2.573694498977157
 21
-1.837415746622065
 31
0.0
  0
TEXT
  5
6A
330
64
100
AcDbEntity
  8
0
  6
Continuous
 62
     7
100
AcDbText
 10
-59.98796200752257
 20
-23.36503601074219
 30
0.0
 40
3.0
  1
配管接続口
 41
0.8487395020950888
100
AcDbText
  0
TEXT
  5
6B
330
64
100
AcDbEntity
  8
0
  6
Continuous
 62
     7
100
AcDbText
 10
-59.98796200752257
 20
-28.63003601074219
 30
0.0
 40
3.0
  1
Ｇ２　１／２（６５Ａ）
 41
0.8440126077968535
100
AcDbText
  0
ENDBLK
  5
6C
330
64
100
AcDbEntity
  8
0
100
AcDbBlockEnd
  0
ENDSEC
  0
SECTION
  2
ENTITIES
  0
POINT
  5
6D
330
22
100
AcDbEntity
  8
0
  6
Continuous
 62
     7
100
AcDbPoint
 10
-221.7859497070314
 20
214.1358947753906
 30
0.0
  0
POINT
  5
6E
330
22
100
AcDbEntity
  8
0
  6
Continuous
 62
     7
100
AcDbPoint
 10
-185.8549194335938
 20
73.40189361572265
 30
0.0
  0
POINT
  5
6F
330
22
100
AcDbEntity
  8
0
  6
Continuous
 62
     7
100
AcDbPoint
 10
-185.8549194335938
 20
76.96269226074218
 30
0.0
  0
POINT
  5
70
330
22
100
AcDbEntity
  8
0
  6
Continuous
 62
     7
100
AcDbPoint
 10
-185.8549194335938
 20
80.52349853515625
 30
0.0
  0
POINT
  5
71
330
22
100
AcDbEntity
  8
0
  6
Continuous
 62
     7
100
AcDbPoint
 10
-185.8549194335938
 20
84.08430480957031
 30
0.0
  0
LINE
  5
72
330
22
100
AcDbEntity
  8
0
  6
CENTER
 62
     7
100
AcDbLine
 10
-155.4096374511719
 20
214.1358947753906
 30
0.0
 11
-292.3217163085938
 21
214.1358947753906
 31
0.0
  0
LINE
  5
73
330
22
100
AcDbEntity
  8
0
  6
Continuous
 62
     7
100
AcDbLine
 10
-219.5415344238281
 20
124.3861618041992
 30
0.0
 11
-218.2917938232422
 21
125.6358871459961
 31
0.0
  0
LINE
  5
74
330
22
100
AcDbEntity
  8
0
  6
Continuous
 62
     7
100
AcDbLine
 10
-221.7915344238281
 20
95.13588714599608
 30
0.0
 11
-215.7915344238281
 21
95.13588714599608
 31
0.0
  0
LINE
  5
75
330
22
100
AcDbEntity
  8
0
  6
Continuous
 62
     7
100
AcDbLine
 10
-213.7915344238281
 20
116.6358871459961
 30
0.0
 11
-221.7915344238281
 21
116.6358871459961
 31
0.0
  0
LINE
  5
76
330
22
100
AcDbEntity
  8
0
  6
Continuous
 62
     7
100
AcDbLine
 10
-214.5115203857422
 20
110.6358871459961
 30
0.0
 11
-214.5115203857422
 21
107.6358871459961
 31
0.0
  0
LINE
  5
77
330
22
100
AcDbEntity
  8
0
  6
Continuous
 62
     7
100
AcDbLine
 10
-219.5032196044922
 20
123.7741928100586
 30
0.0
 11
-213.7943267822266
 21
123.7741928100586
 31
0.0
  0
LINE
  5
78
330
22
100
AcDbEntity
  8
0
  6
Continuous
 62
     7
100
AcDbLine
 10
-219.5415344238281
 20
124.6358871459961
 30
0.0
 11
-219.5415344238281
 21
122.6358871459961
 31
0.0
  0
LINE
  5
79
330
22
100
AcDbEntity
  8
0
  6
Continuous
 62
     7
100
AcDbLine
 10
-221.7859497070314
 20
125.6358871459961
 30
0.0
 11
-161.7859497070313
 21
125.6358871459961
 31
0.0
  0
LINE
  5
7A
330
22
100
AcDbEntity
  8
0
  6
Continuous
 62
     7
100
AcDbLine
 10
-219.5415344238281
 20
122.6358871459961
 30
0.0
 11
-213.7915344238281
 21
122.6358871459961
 31
0.0
  0
LINE
  5
7B
330
22
100
AcDbEntity
  8
0
  6
Continuous
 62
     7
100
AcDbLine
 10
-270.2859497070313
 20
72.6358871459961
 30
0.0
 11
-270.2859497070313
 21
106.6358871459961
 31
0.0
  0
LINE
  5
7C
330
22
100
AcDbEntity
  8
0
  6
Continuous
 62
     7
100
AcDbLine
 10
-272.2859497070313
 20
76.63588714599609
 30
0.0
 11
-272.2859497070313
 21
106.4500045776367
 31
0.0
  0
LINE
  5
7D
330
22
100
AcDbEntity
  8
0
  6
Continuous
 62
     7
100
AcDbLine
 10
-284.2859497070313
 20
122.6358871459961
 30
0.0
 11
-221.7859497070314
 21
122.6358871459961
 31
0.0
  0
LINE
  5
7E
330
22
100
AcDbEntity
  8
0
  6
Continuous
 62
     7
100
AcDbLine
 10
-283.0359497070313
 20
126.6358871459961
 30
0.0
 11
-160.5359497070313
 21
126.6358871459961
 31
0.0
  0
LINE
  5
7F
330
22
100
AcDbEntity
  8
0
  6
Continuous
 62
     7
100
AcDbLine
 10
-270.2859497070313
 20
72.6358871459961
 30
0.0
 11
-221.7859497070314
 21
72.6358871459961
 31
0.0
  0
LINE
  5
80
330
22
100
AcDbEntity
  8
0
  6
Continuous
 62
     7
100
AcDbLine
 10
-269.2859497070313
 20
71.63588714599609
 30
0.0
 11
-221.7859497070314
 21
71.63588714599609
 31
0.0
  0
LINE
  5
81
330
22
100
AcDbEntity
  8
0
  6
Continuous
 62
     7
100
AcDbLine
 10
-227.7859497070313
 20
76.63588714599609
 30
0.0
 11
-221.7859497070314
 21
76.63588714599609
 31
0.0
  0
LINE
  5
82
330
22
100
AcDbEntity
  8
0
  6
Continuous
 62
     7
100
AcDbLine
 10
-270.2859497070313
 20
72.6358871459961
 30
0.0
 11
-269.2859497070313
 21
71.63588714599609
 31
0.0
  0
LINE
  5
83
330
22
100
AcDbEntity
  8
0
  6
Continuous
 62
     7
100
AcDbLine
 10
-173.2859497070313
 20
72.6358871459961
 30
0.0
 11
-173.2859497070313
 21
106.6358871459961
 31
0.0
  0
LINE
  5
84
330
22
100
AcDbEntity
  8
0
  6
Continuous
 62
     7
100
AcDbLine
 10
-175.6993255615234
 20
71.63588714599609
 30
0.0
 11
-173.2859497070313
 21
74.04925537109375
 31
0.0
  0
LINE
  5
85
330
22
100
AcDbEntity
  8
0
  6
Continuous
 62
     7
100
AcDbLine
 10
-177.1135406494141
 20
71.63588714599609
 30
0.0
 11
-173.2859497070313
 21
75.46347045898437
 31
0.0
  0
LINE
  5
86
330
22
100
AcDbEntity
  8
0
  6
Continuous
 62
     7
100
AcDbLine
 10
-178.5277557373047
 20
71.63588714599609
 30
0.0
 11
-173.2859497070313
 21
76.877685546875
 31
0.0
  0
LINE
  5
87
330
22
100
AcDbEntity
  8
0
  6
Continuous
 62
     7
100
AcDbLine
 10
-179.9419708251953
 20
71.63588714599609
 30
0.0
 11
-173.2859497070313
 21
78.29189300537109
 31
0.0
  0
LINE
  5
88
330
22
100
AcDbEntity
  8
0
  6
Continuous
 62
     7
100
AcDbLine
 10
-181.3561706542969
 20
71.63588714599609
 30
0.0
 11
-173.2859497070313
 21
79.70610809326172
 31
0.0
  0
LINE
  5
89
330
22
100
AcDbEntity
  8
0
  6
Continuous
 62
     7
100
AcDbLine
 10
-182.7703857421875
 20
71.63588714599609
 30
0.0
 11
-173.2859497070313
 21
81.12032318115234
 31
0.0
  0
LINE
  5
8A
330
22
100
AcDbEntity
  8
0
  6
Continuous
 62
     7
100
AcDbLine
 10
-184.1846008300781
 20
71.63588714599609
 30
0.0
 11
-173.2859497070313
 21
82.53453826904296
 31
0.0
  0
LINE
  5
8B
330
22
100
AcDbEntity
  8
0
  6
Continuous
 62
     7
100
AcDbLine
 10
-184.1959533691406
 20
73.03874969482421
 30
0.0
 11
-173.2859497070313
 21
83.9487533569336
 31
0.0
  0
LINE
  5
8C
330
22
100
AcDbEntity
  8
0
  6
Continuous
 62
     7
100
AcDbLine
 10
-184.1959533691406
 20
74.45296478271484
 30
0.0
 11
-173.2859497070313
 21
85.36296081542969
 31
0.0
  0
LINE
  5
8D
330
22
100
AcDbEntity
  8
0
  6
Continuous
 62
     7
100
AcDbLine
 10
-184.1959533691406
 20
75.86717987060547
 30
0.0
 11
-173.2859497070313
 21
86.77717590332031
 31
0.0
  0
LINE
  5
8E
330
22
100
AcDbEntity
  8
0
  6
Continuous
 62
     7
100
AcDbLine
 10
-184.1959533691406
 20
77.28138732910156
 30
0.0
 11
-173.2859497070313
 21
88.19139099121093
 31
0.0
  0
LINE
  5
8F
330
22
100
AcDbEntity
  8
0
  6
Continuous
 62
     7
100
AcDbLine
 10
-184.1959533691406
 20
78.69560241699218
 30
0.0
 11
-173.2859497070313
 21
89.60560607910156
 31
0.0
  0
LINE
  5
90
330
22
100
AcDbEntity
  8
0
  6
Continuous
 62
     7
100
AcDbLine
 10
-184.1959533691406
 20
80.10981750488282
 30
0.0
 11
-178.6698913574219
 21
85.63588714599609
 31
0.0
  0
LINE
  5
91
330
22
100
AcDbEntity
  8
0
  6
Continuous
 62
     7
100
AcDbLine
 10
-178.114501953125
 20
86.19126892089843
 30
0.0
 11
-173.2859497070313
 21
91.0198211669922
 31
0.0
  0
LINE
  5
92
330
22
100
AcDbEntity
  8
0
  6
Continuous
 62
     7
100
AcDbLine
 10
-184.1959533691406
 20
81.52403259277344
 30
0.0
 11
-180.0841064453125
 21
85.63588714599609
 31
0.0
  0
LINE
  5
93
330
22
100
AcDbEntity
  8
0
  6
Continuous
 62
     7
100
AcDbLine
 10
-178.114501953125
 20
87.60547637939453
 30
0.0
 11
-173.2859497070313
 21
92.43402862548828
 31
0.0
  0
LINE
  5
94
330
22
100
AcDbEntity
  8
0
  6
Continuous
 62
     7
100
AcDbLine
 10
-184.1959533691406
 20
82.93824768066405
 30
0.0
 11
-181.4983062744141
 21
85.63588714599609
 31
0.0
  0
LINE
  5
95
330
22
100
AcDbEntity
  8
0
  6
Continuous
 62
     7
100
AcDbLine
 10
-178.114501953125
 20
89.01969146728516
 30
0.0
 11
-173.2859497070313
 21
93.84824371337892
 31
0.0
  0
LINE
  5
96
330
22
100
AcDbEntity
  8
0
  6
Continuous
 62
     7
100
AcDbLine
 10
-184.1959533691406
 20
84.35245513916015
 30
0.0
 11
-182.9125213623047
 21
85.63588714599609
 31
0.0
  0
LINE
  5
97
330
22
100
AcDbEntity
  8
0
  6
Continuous
 62
     7
100
AcDbLine
 10
-178.114501953125
 20
90.43390655517578
 30
0.0
 11
-173.2859497070313
 21
95.26245880126952
 31
0.0
  0
LINE
  5
98
330
22
100
AcDbEntity
  8
0
  6
Continuous
 62
     7
100
AcDbLine
 10
-179.3267364501953
 20
90.63588714599609
 30
0.0
 11
-173.2859497070313
 21
96.67667388916015
 31
0.0
  0
LINE
  5
99
330
22
100
AcDbEntity
  8
0
  6
Continuous
 62
     7
100
AcDbLine
 10
-180.7409515380859
 20
90.63588714599609
 30
0.0
 11
-173.2859497070313
 21
98.09088897705079
 31
0.0
  0
LINE
  5
9A
330
22
100
AcDbEntity
  8
0
  6
Continuous
 62
     7
100
AcDbLine
 10
-182.1551666259766
 20
90.63588714599609
 30
0.0
 11
-178.1551666259766
 21
94.63588714599607
 31
0.0
  0
LINE
  5
9B
330
22
100
AcDbEntity
  8
0
  6
Continuous
 62
     7
100
AcDbLine
 10
-177.6769866943359
 20
95.11406707763672
 30
0.0
 11
-173.2859497070313
 21
99.50509643554688
 31
0.0
  0
LINE
  5
9C
330
22
100
AcDbEntity
  8
0
  6
Continuous
 62
     7
100
AcDbLine
 10
-183.5693817138672
 20
90.63588714599609
 30
0.0
 11
-179.5693817138672
 21
94.63588714599607
 31
0.0
  0
LINE
  5
9D
330
22
100
AcDbEntity
  8
0
  6
Continuous
 62
     7
100
AcDbLine
 10
-177.6769866943359
 20
96.52828216552734
 30
0.0
 11
-173.2859497070313
 21
100.9193115234375
 31
0.0
  0
LINE
  5
9E
330
22
100
AcDbEntity
  8
0
  6
Continuous
 62
     7
100
AcDbLine
 10
-184.9835968017578
 20
90.63588714599609
 30
0.0
 11
-180.9835968017578
 21
94.63588714599607
 31
0.0
  0
LINE
  5
9F
330
22
100
AcDbEntity
  8
0
  6
Continuous
 62
     7
100
AcDbLine
 10
-177.6769866943359
 20
97.94249725341796
 30
0.0
 11
-173.2859497070313
 21
102.3335266113281
 31
0.0
  0
LINE
  5
A0
330
22
100
AcDbEntity
  8
0
  6
Continuous
 62
     7
100
AcDbLine
 10
-186.3978118896484
 20
90.63588714599609
 30
0.0
 11
-182.3978118896484
 21
94.63588714599607
 31
0.0
  0
LINE
  5
A1
330
22
100
AcDbEntity
  8
0
  6
Continuous
 62
     7
100
AcDbLine
 10
-177.6769866943359
 20
99.35671234130859
 30
0.0
 11
-173.2859497070313
 21
103.7477416992188
 31
0.0
  0
LINE
  5
A2
330
22
100
AcDbEntity
  8
0
  6
Continuous
 62
     7
100
AcDbLine
 10
-187.8120269775391
 20
90.63588714599609
 30
0.0
 11
-183.8120269775391
 21
94.63588714599607
 31
0.0
  0
LINE
  5
A3
330
22
100
AcDbEntity
  8
0
  6
Continuous
 62
     7
100
AcDbLine
 10
-177.6769866943359
 20
100.7709197998047
 30
0.0
 11
-173.2859497070313
 21
105.1619567871094
 31
0.0
  0
LINE
  5
A4
330
22
100
AcDbEntity
  8
0
  6
Continuous
 62
     7
100
AcDbLine
 10
-189.2262420654297
 20
90.63588714599609
 30
0.0
 11
-185.2262420654296
 21
94.63588714599607
 31
0.0
  0
LINE
  5
A5
330
22
100
AcDbEntity
  8
0
  6
Continuous
 62
     7
100
AcDbLine
 10
-177.6540985107422
 20
102.2080230712891
 30
0.0
 11
-173.2859497070313
 21
106.5761642456055
 31
0.0
  0
LINE
  5
A6
330
22
100
AcDbEntity
  8
0
  6
Continuous
 62
     7
100
AcDbLine
 10
-190.6404418945313
 20
90.63588714599609
 30
0.0
 11
-186.6404418945313
 21
94.63588714599607
 31
0.0
  0
LINE
  5
A7
330
22
100
AcDbEntity
  8
0
  6
Continuous
 62
     7
100
AcDbLine
 10
-177.5951690673828
 20
103.6811599731445
 30
0.0
 11
-172.9733734130859
 21
108.3029556274414
 31
0.0
  0
LINE
  5
A8
330
22
100
AcDbEntity
  8
0
  6
Continuous
 62
     7
100
AcDbLine
 10
-192.0546569824219
 20
90.63588714599609
 30
0.0
 11
-188.0546569824219
 21
94.63588714599607
 31
0.0
  0
LINE
  5
A9
330
22
100
AcDbEntity
  8
0
  6
Continuous
 62
     7
100
AcDbLine
 10
-177.3676910400391
 20
105.3228607177734
 30
0.0
 11
-172.6470184326172
 21
110.0435256958008
 31
0.0
  0
LINE
  5
AA
330
22
100
AcDbEntity
  8
0
  6
Continuous
 62
     7
100
AcDbLine
 10
-160.0546569824219
 20
122.6358871459961
 30
0.0
 11
-159.2859497070313
 21
123.4045944213867
 31
0.0
  0
LINE
  5
AB
330
22
100
AcDbEntity
  8
0
  6
Continuous
 62
     7
100
AcDbLine
 10
-193.4688720703125
 20
90.63588714599609
 30
0.0
 11
-189.4688720703125
 21
94.63588714599607
 31
0.0
  0
LINE
  5
AC
330
22
100
AcDbEntity
  8
0
  6
Continuous
 62
     7
100
AcDbLine
 10
-177.06494140625
 20
107.0398178100586
 30
0.0
 11
-172.3206634521484
 21
111.7840957641602
 31
0.0
  0
LINE
  5
AD
330
22
100
AcDbEntity
  8
0
  6
Continuous
 62
     7
100
AcDbLine
 10
-161.4688720703125
 20
122.6358871459961
 30
0.0
 11
-159.2859497070313
 21
124.8188095092773
 31
0.0
  0
LINE
  5
AE
330
22
100
AcDbEntity
  8
0
  6
Continuous
 62
     7
100
AcDbLine
 10
-194.8830871582031
 20
90.63588714599609
 30
0.0
 11
-190.8830871582031
 21
94.63588714599607
 31
0.0
  0
LINE
  5
AF
330
22
100
AcDbEntity
  8
0
  6
Continuous
 62
     7
100
AcDbLine
 10
-176.7621917724609
 20
108.7567825317383
 30
0.0
 11
-171.9943084716797
 21
113.5246658325195
 31
0.0
  0
LINE
  5
B0
330
22
100
AcDbEntity
  8
0
  6
Continuous
 62
     7
100
AcDbLine
 10
-162.8830871582031
 20
122.6358871459961
 30
0.0
 11
-159.4907073974609
 21
126.0282669067383
 31
0.0
  0
LINE
  5
B1
330
22
100
AcDbEntity
  8
0
  6
Continuous
 62
     7
100
AcDbLine
 10
-196.2973022460938
 20
90.63588714599609
 30
0.0
 11
-192.2973022460938
 21
94.63588714599607
 31
0.0
  0
LINE
  5
B2
330
22
100
AcDbEntity
  8
0
  6
Continuous
 62
     7
100
AcDbLine
 10
-176.4594573974609
 20
110.4737396240234
 30
0.0
 11
-171.6679534912109
 21
115.2652359008789
 31
0.0
  0
LINE
  5
B3
330
22
100
AcDbEntity
  8
0
  6
Continuous
 62
     7
100
AcDbLine
 10
-164.2973022460938
 20
122.6358871459961
 30
0.0
 11
-160.3368988037109
 21
126.5962905883789
 31
0.0
  0
LINE
  5
B4
330
22
100
AcDbEntity
  8
0
  6
Continuous
 62
     7
100
AcDbLine
 10
-197.7115173339844
 20
90.63588714599609
 30
0.0
 11
-193.7115173339844
 21
94.63588714599607
 31
0.0
  0
LINE
  5
B5
330
22
100
AcDbEntity
  8
0
  6
Continuous
 62
     7
100
AcDbLine
 10
-176.1567077636719
 20
112.1906967163086
 30
0.0
 11
-171.3415985107422
 21
117.0058059692383
 31
0.0
  0
LINE
  5
B6
330
22
100
AcDbEntity
  8
0
  6
Continuous
 62
     7
100
AcDbLine
 10
-165.7115173339844
 20
122.6358871459961
 30
0.0
 11
-162.7115173339844
 21
125.6358871459961
 31
0.0
  0
LINE
  5
B7
330
22
100
AcDbEntity
  8
0
  6
Continuous
 62
     7
100
AcDbLine
 10
-199.125732421875
 20
90.63588714599609
 30
0.0
 11
-195.125732421875
 21
94.63588714599607
 31
0.0
  0
LINE
  5
B8
330
22
100
AcDbEntity
  8
0
  6
Continuous
 62
     7
100
AcDbLine
 10
-175.8539581298828
 20
113.9076614379883
 30
0.0
 11
-171.0152435302734
 21
118.7463760375977
 31
0.0
  0
LINE
  5
B9
330
22
100
AcDbEntity
  8
0
  6
Continuous
 62
     7
100
AcDbLine
 10
-167.125732421875
 20
122.6358871459961
 30
0.0
 11
-164.125732421875
 21
125.6358871459961
 31
0.0
  0
LINE
  5
BA
330
22
100
AcDbEntity
  8
0
  6
Continuous
 62
     7
100
AcDbLine
 10
-200.5399475097656
 20
90.63588714599609
 30
0.0
 11
-196.5399475097656
 21
94.63588714599607
 31
0.0
  0
LINE
  5
BB
330
22
100
AcDbEntity
  8
0
  6
Continuous
 62
     7
100
AcDbLine
 10
-175.5512084960938
 20
115.6246185302734
 30
0.0
 11
-170.6888732910156
 21
120.486946105957
 31
0.0
  0
LINE
  5
BC
330
22
100
AcDbEntity
  8
0
  6
Continuous
 62
     7
100
AcDbLine
 10
-168.5399475097656
 20
122.6358871459961
 30
0.0
 11
-165.5399475097656
 21
125.6358871459961
 31
0.0
  0
LINE
  5
BD
330
22
100
AcDbEntity
  8
0
  6
Continuous
 62
     7
100
AcDbLine
 10
-201.9541625976563
 20
90.63588714599609
 30
0.0
 11
-197.9541625976563
 21
94.63588714599607
 31
0.0
  0
LINE
  5
BE
330
22
100
AcDbEntity
  8
0
  6
Continuous
 62
     7
100
AcDbLine
 10
-175.2484588623047
 20
117.3415756225586
 30
0.0
 11
-166.9541625976563
 21
125.6358871459961
 31
0.0
  0
LINE
  5
BF
330
22
100
AcDbEntity
  8
0
  6
Continuous
 62
     7
100
AcDbLine
 10
-203.3683776855469
 20
90.63588714599609
 30
0.0
 11
-199.3683776855469
 21
94.63588714599607
 31
0.0
  0
LINE
  5
C0
330
22
100
AcDbEntity
  8
0
  6
Continuous
 62
     7
100
AcDbLine
 10
-174.9457244873047
 20
119.0585403442383
 30
0.0
 11
-168.3683776855469
 21
125.6358871459961
 31
0.0
  0
LINE
  5
C1
330
22
100
AcDbEntity
  8
0
  6
Continuous
 62
     7
100
AcDbLine
 10
-204.7825775146484
 20
90.63588714599609
 30
0.0
 11
-200.7825775146484
 21
94.63588714599607
 31
0.0
  0
LINE
  5
C2
330
22
100
AcDbEntity
  8
0
  6
Continuous
 62
     7
100
AcDbLine
 10
-174.6429748535156
 20
120.7754974365234
 30
0.0
 11
-169.7825775146484
 21
125.6358871459961
 31
0.0
  0
LINE
  5
C3
330
22
100
AcDbEntity
  8
0
  6
Continuous
 62
     7
100
AcDbLine
 10
-206.1967926025391
 20
90.63588714599609
 30
0.0
 11
-202.1967926025391
 21
94.63588714599607
 31
0.0
  0
LINE
  5
C4
330
22
100
AcDbEntity
  8
0
  6
Continuous
 62
     7
100
AcDbLine
 10
-174.3402252197266
 20
122.4924621582031
 30
0.0
 11
-171.1967926025391
 21
125.6358871459961
 31
0.0
  0
LINE
  5
C5
330
22
100
AcDbEntity
  8
0
  6
Continuous
 62
     7
100
AcDbLine
 10
-207.6110076904297
 20
90.63588714599609
 30
0.0
 11
-203.6110076904297
 21
94.63588714599607
 31
0.0
  0
LINE
  5
C6
330
22
100
AcDbEntity
  8
0
  6
Continuous
 62
     7
100
AcDbLine
 10
-174.0374755859375
 20
124.2094192504883
 30
0.0
 11
-172.6110076904297
 21
125.6358871459961
 31
0.0
  0
LINE
  5
C7
330
22
100
AcDbEntity
  8
0
  6
Continuous
 62
     7
100
AcDbLine
 10
-209.0252227783203
 20
90.63588714599609
 30
0.0
 11
-205.0252227783203
 21
94.63588714599607
 31
0.0
  0
LINE
  5
C8
330
22
100
AcDbEntity
  8
0
  6
Continuous
 62
     7
100
AcDbLine
 10
-210.4394378662109
 20
90.63588714599609
 30
0.0
 11
-206.4394378662109
 21
94.63588714599607
 31
0.0
  0
LINE
  5
C9
330
22
100
AcDbEntity
  8
0
  6
Continuous
 62
     7
100
AcDbLine
 10
-211.7859497070313
 20
90.70358276367187
 30
0.0
 11
-207.8536529541016
 21
94.63588714599607
 31
0.0
  0
LINE
  5
CA
330
22
100
AcDbEntity
  8
0
  6
Continuous
 62
     7
100
AcDbLine
 10
-211.7859497070313
 20
92.11779785156251
 30
0.0
 11
-209.2678680419922
 21
94.63588714599607
 31
0.0
  0
LINE
  5
CB
330
22
100
AcDbEntity
  8
0
  6
Continuous
 62
     7
100
AcDbLine
 10
-211.7859497070313
 20
93.53201293945312
 30
0.0
 11
-210.6820831298828
 21
94.63588714599607
 31
0.0
  0
LINE
  5
CC
330
22
100
AcDbEntity
  8
0
  6
Continuous
 62
     7
100
AcDbLine
 10
-211.7859497070313
 20
90.63588714599609
 30
0.0
 11
-211.7859497070313
 21
94.63588714599607
 31
0.0
  0
LINE
  5
CD
330
22
100
AcDbEntity
  8
0
  6
Continuous
 62
     7
100
AcDbLine
 10
-211.7859497070313
 20
94.63588714599607
 30
0.0
 11
-215.7915344238281
 21
94.63588714599607
 31
0.0
  0
LINE
  5
CE
330
22
100
AcDbEntity
  8
0
  6
Continuous
 62
     7
100
AcDbLine
 10
-177.6769866943359
 20
95.63588714599609
 30
0.0
 11
-177.6769866943359
 21
94.63588714599607
 31
0.0
  0
LINE
  5
CF
330
22
100
AcDbEntity
  8
0
  6
Continuous
 62
     7
100
AcDbLine
 10
-211.7859497070313
 20
94.63588714599607
 30
0.0
 11
-177.6769866943359
 21
94.63588714599607
 31
0.0
  0
LINE
  5
D0
330
22
100
AcDbEntity
  8
0
  6
Continuous
 62
     7
100
AcDbLine
 10
-215.7915344238281
 20
95.13588714599608
 30
0.0
 11
-215.7915344238281
 21
91.63588714599608
 31
0.0
  0
LINE
  5
D1
330
22
100
AcDbEntity
  8
0
  6
Continuous
 62
     7
100
AcDbLine
 10
-180.5969848632813
 20
95.63588714599609
 30
0.0
 11
-180.8132171630859
 21
95.83522796630859
 31
0.0
  0
LINE
  5
D2
330
22
100
AcDbEntity
  8
0
  6
Continuous
 62
     7
100
AcDbLine
 10
-178.1769866943359
 20
95.63588714599609
 30
0.0
 11
-180.5969848632813
 21
95.63588714599609
 31
0.0
  0
LINE
  5
D3
330
22
100
AcDbEntity
  8
0
  6
Continuous
 62
     7
100
AcDbLine
 10
-177.6769866943359
 20
95.63588714599609
 30
0.0
 11
-177.6769866943359
 21
101.6358871459961
 31
0.0
  0
LINE
  5
D4
330
22
100
AcDbEntity
  8
0
  6
Continuous
 62
     7
100
AcDbLine
 10
-182.7697448730469
 20
119.8725738525391
 30
0.0
 11
-180.8132171630859
 21
95.83522796630859
 31
0.0
  0
LINE
  5
D5
330
22
100
AcDbEntity
  8
0
  6
Continuous
 62
     7
100
AcDbLine
 10
-217.7915344238281
 20
95.63588714599609
 30
0.0
 11
-178.1769866943359
 21
95.63588714599609
 31
0.0
  0
LINE
  5
D6
330
22
100
AcDbEntity
  8
0
  6
Continuous
 62
     7
100
AcDbLine
 10
-217.7915344238281
 20
95.13588714599608
 30
0.0
 11
-217.7915344238281
 21
111.2853469848633
 31
0.0
  0
LINE
  5
D7
330
22
100
AcDbEntity
  8
0
  6
Continuous
 62
     7
100
AcDbLine
 10
-216.97802734375
 20
106.2413330078125
 30
0.0
 11
-216.9162902832031
 21
106.1796035766602
 31
0.0
  0
LINE
  5
D8
330
22
100
AcDbEntity
  8
0
  6
Continuous
 62
     7
100
AcDbLine
 10
-217.0115203857422
 20
106.6283950805664
 30
0.0
 11
-216.5190124511719
 21
106.1358871459961
 31
0.0
  0
LINE
  5
D9
330
22
100
AcDbEntity
  8
0
  6
Continuous
 62
     7
100
AcDbLine
 10
-217.0115203857422
 20
107.6890563964844
 30
0.0
 11
-215.6351013183594
 21
106.312629699707
 31
0.0
  0
LINE
  5
DA
330
22
100
AcDbEntity
  8
0
  6
Continuous
 62
     7
100
AcDbLine
 10
-217.0115203857422
 20
108.042610168457
 30
0.0
 11
-215.5228118896484
 21
106.5538864135742
 31
0.0
  0
LINE
  5
DB
330
22
100
AcDbEntity
  8
0
  6
Continuous
 62
     7
100
AcDbLine
 10
-217.0115203857422
 20
109.103271484375
 30
0.0
 11
-215.2317047119141
 21
107.3234405517578
 31
0.0
  0
LINE
  5
DC
330
22
100
AcDbEntity
  8
0
  6
Continuous
 62
     7
100
AcDbLine
 10
-217.0115203857422
 20
109.4568252563477
 30
0.0
 11
-215.0262451171875
 21
107.4715423583984
 31
0.0
  0
LINE
  5
DD
330
22
100
AcDbEntity
  8
0
  6
Continuous
 62
     7
100
AcDbLine
 10
-217.0115203857422
 20
110.5174789428711
 30
0.0
 11
-214.5115203857422
 21
108.0174789428711
 31
0.0
  0
LINE
  5
DE
330
22
100
AcDbEntity
  8
0
  6
Continuous
 62
     7
100
AcDbLine
 10
-216.7763824462891
 20
110.6358871459961
 30
0.0
 11
-214.5115203857422
 21
108.3710327148438
 31
0.0
  0
LINE
  5
DF
330
22
100
AcDbEntity
  8
0
  6
Continuous
 62
     7
100
AcDbLine
 10
-215.7157135009766
 20
110.6358871459961
 30
0.0
 11
-214.5115203857422
 21
109.4316940307617
 31
0.0
  0
LINE
  5
E0
330
22
100
AcDbEntity
  8
0
  6
Continuous
 62
     7
100
AcDbLine
 10
-215.3621673583984
 20
110.6358871459961
 30
0.0
 11
-214.5115203857422
 21
109.7852478027344
 31
0.0
  0
LINE
  5
E1
330
22
100
AcDbEntity
  8
0
  6
Continuous
 62
     7
100
AcDbLine
 10
-205.7115325927734
 20
107.702766418457
 30
0.0
 11
-205.6446533203125
 21
107.6358871459961
 31
0.0
  0
LINE
  5
E2
330
22
100
AcDbEntity
  8
0
  6
Continuous
 62
     7
100
AcDbLine
 10
-205.7115325927734
 20
108.0563201904297
 30
0.0
 11
-205.2910919189453
 21
107.6358871459961
 31
0.0
  0
LINE
  5
E3
330
22
100
AcDbEntity
  8
0
  6
Continuous
 62
     7
100
AcDbLine
 10
-205.7115325927734
 20
109.1169738769531
 30
0.0
 11
-204.2304382324219
 21
107.6358871459961
 31
0.0
  0
LINE
  5
E4
330
22
100
AcDbEntity
  8
0
  6
Continuous
 62
     7
100
AcDbLine
 10
-205.7115325927734
 20
109.4705276489258
 30
0.0
 11
-203.8768768310547
 21
107.6358871459961
 31
0.0
  0
LINE
  5
E5
330
22
100
AcDbEntity
  8
0
  6
Continuous
 62
     7
100
AcDbLine
 10
-205.7115325927734
 20
110.5311889648438
 30
0.0
 11
-202.8162231445314
 21
107.6358871459961
 31
0.0
  0
LINE
  5
E6
330
22
100
AcDbEntity
  8
0
  6
Continuous
 62
     7
100
AcDbLine
 10
-205.4626770019531
 20
110.6358871459961
 30
0.0
 11
-202.4901885986328
 21
107.6634063720703
 31
0.0
  0
LINE
  5
E7
330
22
100
AcDbEntity
  8
0
  6
Continuous
 62
     7
100
AcDbLine
 10
-204.4020080566406
 20
110.6358871459961
 30
0.0
 11
-201.7086181640625
 21
107.942497253418
 31
0.0
  0
LINE
  5
E8
330
22
100
AcDbEntity
  8
0
  6
Continuous
 62
     7
100
AcDbLine
 10
-204.0484619140625
 20
110.6358871459961
 30
0.0
 11
-201.5024566650391
 21
108.0898818969727
 31
0.0
  0
LINE
  5
E9
330
22
100
AcDbEntity
  8
0
  6
Continuous
 62
     7
100
AcDbLine
 10
-203.7929382324219
 20
111.4410247802734
 30
0.0
 11
-201.0175323486328
 21
108.6656188964844
 31
0.0
  0
LINE
  5
EA
330
22
100
AcDbEntity
  8
0
  6
Continuous
 62
     7
100
AcDbLine
 10
-203.7929382324219
 20
111.7945785522461
 30
0.0
 11
-200.8991851806641
 21
108.9008255004883
 31
0.0
  0
LINE
  5
EB
330
22
100
AcDbEntity
  8
0
  6
Continuous
 62
     7
100
AcDbLine
 10
-203.7929382324219
 20
112.8552398681641
 30
0.0
 11
-200.7366027832031
 21
109.7989044189453
 31
0.0
  0
LINE
  5
EC
330
22
100
AcDbEntity
  8
0
  6
Continuous
 62
     7
100
AcDbLine
 10
-203.7929382324219
 20
113.2087936401367
 30
0.0
 11
-200.7091064453125
 21
110.1249618530273
 31
0.0
  0
LINE
  5
ED
330
22
100
AcDbEntity
  8
0
  6
Continuous
 62
     7
100
AcDbLine
 10
-203.7929382324219
 20
114.2694549560547
 30
0.0
 11
-200.6266174316406
 21
111.1031341552734
 31
0.0
  0
LINE
  5
EE
330
22
100
AcDbEntity
  8
0
  6
Continuous
 62
     7
100
AcDbLine
 10
-203.7929382324219
 20
114.6230010986328
 30
0.0
 11
-200.59912109375
 21
111.4291915893555
 31
0.0
  0
LINE
  5
EF
330
22
100
AcDbEntity
  8
0
  6
Continuous
 62
     7
100
AcDbLine
 10
-203.7929382324219
 20
115.6836624145508
 30
0.0
 11
-200.5166320800781
 21
112.4073638916016
 31
0.0
  0
LINE
  5
F0
330
22
100
AcDbEntity
  8
0
  6
Continuous
 62
     7
100
AcDbLine
 10
-203.7929382324219
 20
116.0372161865234
 30
0.0
 11
-200.4891357421875
 21
112.7334213256836
 31
0.0
  0
LINE
  5
F1
330
22
100
AcDbEntity
  8
0
  6
Continuous
 62
     7
100
AcDbLine
 10
-203.7683563232422
 20
117.0733032226563
 30
0.0
 11
-200.4066467285156
 21
113.7116012573242
 31
0.0
  0
LINE
  5
F2
330
22
100
AcDbEntity
  8
0
  6
Continuous
 62
     7
100
AcDbLine
 10
-203.7020416259766
 20
117.3605422973633
 30
0.0
 11
-200.379150390625
 21
114.0376586914063
 31
0.0
  0
LINE
  5
F3
330
22
100
AcDbEntity
  8
0
  6
Continuous
 62
     7
100
AcDbLine
 10
-203.5030975341797
 20
118.2222595214844
 30
0.0
 11
-200.2966766357422
 21
115.0158309936523
 31
0.0
  0
LINE
  5
F4
330
22
100
AcDbEntity
  8
0
  6
Continuous
 62
     7
100
AcDbLine
 10
-203.4367828369141
 20
118.5094985961914
 30
0.0
 11
-200.2691802978516
 21
115.3418884277344
 31
0.0
  0
LINE
  5
F5
330
22
100
AcDbEntity
  8
0
  6
Continuous
 62
     7
100
AcDbLine
 10
-180.8177032470703
 20
95.89041137695312
 30
0.0
 11
-180.5631713867188
 21
95.63588714599609
 31
0.0
  0
LINE
  5
F6
330
22
100
AcDbEntity
  8
0
  6
Continuous
 62
     7
100
AcDbLine
 10
-203.2378387451172
 20
119.3712158203125
 30
0.0
 11
-200.1866912841797
 21
116.3200607299805
 31
0.0
  0
LINE
  5
F7
330
22
100
AcDbEntity
  8
0
  6
CENTER
 62
     7
100
AcDbLine
 10
-221.7859497070314
 20
65.72859954833984
 30
0.0
 11
-221.7859497070314
 21
132.2216339111328
 31
0.0
  0
LINE
  5
F8
330
22
100
AcDbEntity
  8
0
  6
Continuous
 62
     7
100
AcDbLine
 10
-180.9116821289063
 20
97.04505920410156
 30
0.0
 11
-179.5025177001953
 21
95.63588714599609
 31
0.0
  0
LINE
  5
F9
330
22
100
AcDbEntity
  8
0
  6
Continuous
 62
     7
100
AcDbLine
 10
-203.1715240478516
 20
119.6584548950195
 30
0.0
 11
-200.1591949462891
 21
116.6461181640625
 31
0.0
  0
LINE
  5
FA
330
22
100
AcDbEntity
  8
0
  6
Continuous
 62
     7
100
AcDbLine
 10
-180.9430084228516
 20
97.42993927001952
 30
0.0
 11
-179.1489562988281
 21
95.63588714599609
 31
0.0
  0
LINE
  5
FB
330
22
100
AcDbEntity
  8
0
  6
Continuous
 62
     7
100
AcDbLine
 10
-202.9725799560547
 20
120.5201721191406
 30
0.0
 11
-200.0767059326172
 21
117.6242904663086
 31
0.0
  0
LINE
  5
FC
330
22
100
AcDbEntity
  8
0
  6
Continuous
 62
     7
100
AcDbLine
 10
-181.0369873046875
 20
98.58457946777344
 30
0.0
 11
-178.1030120849609
 21
95.65060424804688
 31
0.0
  0
LINE
  5
FD
330
22
100
AcDbEntity
  8
0
  6
Continuous
 62
     7
100
AcDbLine
 10
-202.9062652587891
 20
120.8074111938477
 30
0.0
 11
-200.0492095947266
 21
117.9503479003906
 31
0.0
  0
LINE
  5
FE
330
22
100
AcDbEntity
  8
0
  6
Continuous
 62
     7
100
AcDbLine
 10
-181.0683288574219
 20
98.9694595336914
 30
0.0
 11
-177.8580627441406
 21
95.75920104980468
 31
0.0
  0
LINE
  5
FF
330
22
100
AcDbEntity
  8
0
  6
Continuous
 62
     7
100
AcDbLine
 10
-202.7073211669922
 20
121.6691284179688
 30
0.0
 11
-199.9667205810547
 21
118.9285278320313
 31
0.0
  0
LINE
  5
100
330
22
100
AcDbEntity
  8
0
  6
Continuous
 62
     7
100
AcDbLine
 10
-181.1623077392578
 20
100.1241073608398
 30
0.0
 11
-177.6769866943359
 21
96.63878631591796
 31
0.0
  0
LINE
  5
101
330
22
100
AcDbEntity
  8
0
  6
Continuous
 62
     7
100
AcDbLine
 10
-202.6410064697266
 20
121.9563674926758
 30
0.0
 11
-199.9392242431641
 21
119.2545852661133
 31
0.0
  0
LINE
  5
102
330
22
100
AcDbEntity
  8
0
  6
Continuous
 62
     7
100
AcDbLine
 10
-181.1936340332031
 20
100.5089874267578
 30
0.0
 11
-177.6769866943359
 21
96.99234008789064
 31
0.0
  0
LINE
  5
103
330
22
100
AcDbEntity
  8
0
  6
Continuous
 62
     7
100
AcDbLine
 10
-202.4420623779297
 20
122.8180847167969
 30
0.0
 11
-199.8003997802734
 21
120.1764144897461
 31
0.0
  0
LINE
  5
104
330
22
100
AcDbEntity
  8
0
  6
Continuous
 62
     7
100
AcDbLine
 10
-181.2876129150391
 20
101.6636276245117
 30
0.0
 11
-177.6769866943359
 21
98.05300140380859
 31
0.0
  0
LINE
  5
105
330
22
100
AcDbEntity
  8
0
  6
Continuous
 62
     7
100
AcDbLine
 10
-202.3757476806641
 20
123.1053237915039
 30
0.0
 11
-199.7164154052734
 21
120.4459762573242
 31
0.0
  0
LINE
  5
106
330
22
100
AcDbEntity
  8
0
  6
Continuous
 62
     7
100
AcDbLine
 10
-181.3189392089844
 20
102.0485076904297
 30
0.0
 11
-177.6769866943359
 21
98.40654754638672
 31
0.0
  0
LINE
  5
107
330
22
100
AcDbEntity
  8
0
  6
Continuous
 62
     7
100
AcDbLine
 10
-202.1768188476563
 20
123.967041015625
 30
0.0
 11
-199.1987609863281
 21
120.9889831542969
 31
0.0
  0
LINE
  5
108
330
22
100
AcDbEntity
  8
0
  6
Continuous
 62
     7
100
AcDbLine
 10
-181.4129180908203
 20
103.2031478881836
 30
0.0
 11
-177.6769866943359
 21
99.46720886230469
 31
0.0
  0
LINE
  5
109
330
22
100
AcDbEntity
  8
0
  6
Continuous
 62
     7
100
AcDbLine
 10
-202.1105041503906
 20
124.254280090332
 30
0.0
 11
-198.9669036865234
 21
121.1106796264648
 31
0.0
  0
LINE
  5
10A
330
22
100
AcDbEntity
  8
0
  6
Continuous
 62
     7
100
AcDbLine
 10
-181.4442596435547
 20
103.5880355834961
 30
0.0
 11
-179.5769805908203
 21
101.7207641601563
 31
0.0
  0
LINE
  5
10B
330
22
100
AcDbEntity
  8
0
  6
Continuous
 62
     7
100
AcDbLine
 10
-179.4921112060547
 20
101.6358871459961
 30
0.0
 11
-177.6769866943359
 21
99.82076263427735
 31
0.0
  0
LINE
  5
10C
330
22
100
AcDbEntity
  8
0
  6
Continuous
 62
     7
100
AcDbLine
 10
-201.9215545654297
 20
125.1259994506836
 30
0.0
 11
-198.0464477539063
 21
121.2508850097655
 31
0.0
  0
LINE
  5
10D
330
22
100
AcDbEntity
  8
0
  6
Continuous
 62
     7
100
AcDbLine
 10
-181.5382385253906
 20
104.74267578125
 30
0.0
 11
-179.5769805908203
 21
102.7814254760742
 31
0.0
  0
LINE
  5
10E
330
22
100
AcDbEntity
  8
0
  6
Continuous
 62
     7
100
AcDbLine
 10
-178.4314422607422
 20
101.6358871459961
 30
0.0
 11
-177.6769866943359
 21
100.8814239501953
 31
0.0
  0
LINE
  5
10F
330
22
100
AcDbEntity
  8
0
  6
Continuous
 62
     7
100
AcDbLine
 10
-201.8210906982422
 20
125.3790893554688
 30
0.0
 11
-197.6928863525391
 21
121.2508850097655
 31
0.0
  0
LINE
  5
110
330
22
100
AcDbEntity
  8
0
  6
Continuous
 62
     7
100
AcDbLine
 10
-181.5695648193359
 20
105.127555847168
 30
0.0
 11
-179.5769805908203
 21
103.1349792480469
 31
0.0
  0
LINE
  5
111
330
22
100
AcDbEntity
  8
0
  6
Continuous
 62
     7
100
AcDbLine
 10
-178.0778961181641
 20
101.6358871459961
 30
0.0
 11
-177.6769866943359
 21
101.234977722168
 31
0.0
  0
LINE
  5
112
330
22
100
AcDbEntity
  8
0
  6
Continuous
 62
     7
100
AcDbLine
 10
-201.0172271728516
 20
125.6358871459961
 30
0.0
 11
-196.6322326660156
 21
121.2508850097655
 31
0.0
  0
LINE
  5
113
330
22
100
AcDbEntity
  8
0
  6
Continuous
 62
     7
100
AcDbLine
 10
-181.6635437011719
 20
106.2821960449219
 30
0.0
 11
-179.5172271728516
 21
104.1358871459961
 31
0.0
  0
LINE
  5
114
330
22
100
AcDbEntity
  8
0
  6
Continuous
 62
     7
100
AcDbLine
 10
-200.6636810302734
 20
125.6358871459961
 30
0.0
 11
-196.2786865234375
 21
121.2508850097655
 31
0.0
  0
LINE
  5
115
330
22
100
AcDbEntity
  8
0
  6
Continuous
 62
     7
100
AcDbLine
 10
-181.6948699951172
 20
106.6670761108398
 30
0.0
 11
-179.1636810302734
 21
104.1358871459961
 31
0.0
  0
LINE
  5
116
330
22
100
AcDbEntity
  8
0
  6
Continuous
 62
     7
100
AcDbLine
 10
-199.60302734375
 20
125.6358871459961
 30
0.0
 11
-195.218017578125
 21
121.2508850097655
 31
0.0
  0
LINE
  5
117
330
22
100
AcDbEntity
  8
0
  6
Continuous
 62
     7
100
AcDbLine
 10
-181.7888488769531
 20
107.8217239379883
 30
0.0
 11
-178.10302734375
 21
104.1358871459961
 31
0.0
  0
LINE
  5
118
330
22
100
AcDbEntity
  8
0
  6
Continuous
 62
     7
100
AcDbLine
 10
-199.2494659423828
 20
125.6358871459961
 30
0.0
 11
-194.8644714355469
 21
121.2508850097655
 31
0.0
  0
LINE
  5
119
330
22
100
AcDbEntity
  8
0
  6
Continuous
 62
     7
100
AcDbLine
 10
-181.8201751708984
 20
108.2066040039063
 30
0.0
 11
-177.7494659423828
 21
104.1358871459961
 31
0.0
  0
LINE
  5
11A
330
22
100
AcDbEntity
  8
0
  6
Continuous
 62
     7
100
AcDbLine
 10
-198.1888122558594
 20
125.6358871459961
 30
0.0
 11
-193.8038024902344
 21
121.2508850097655
 31
0.0
  0
LINE
  5
11B
330
22
100
AcDbEntity
  8
0
  6
Continuous
 62
     7
100
AcDbLine
 10
-181.9141693115234
 20
109.3612442016602
 30
0.0
 11
-177.44384765625
 21
104.8909301757813
 31
0.0
  0
LINE
  5
11C
330
22
100
AcDbEntity
  8
0
  6
Continuous
 62
     7
100
AcDbLine
 10
-197.8352508544922
 20
125.6358871459961
 30
0.0
 11
-193.4502563476563
 21
121.2508850097655
 31
0.0
  0
LINE
  5
11D
330
22
100
AcDbEntity
  8
0
  6
Continuous
 62
     7
100
AcDbLine
 10
-181.9454956054688
 20
109.7461242675781
 30
0.0
 11
-177.3908538818359
 21
105.1914901733398
 31
0.0
  0
LINE
  5
11E
330
22
100
AcDbEntity
  8
0
  6
Continuous
 62
     7
100
AcDbLine
 10
-196.7745971679688
 20
125.6358871459961
 30
0.0
 11
-192.3895874023438
 21
121.2508850097655
 31
0.0
  0
LINE
  5
11F
330
22
100
AcDbEntity
  8
0
  6
Continuous
 62
     7
100
AcDbLine
 10
-182.0394744873047
 20
110.9007720947266
 30
0.0
 11
-177.2318725585938
 21
106.0931625366211
 31
0.0
  0
LINE
  5
120
330
22
100
AcDbEntity
  8
0
  6
Continuous
 62
     7
100
AcDbLine
 10
-196.4210357666016
 20
125.6358871459961
 30
0.0
 11
-192.0360412597656
 21
121.2508850097655
 31
0.0
  0
LINE
  5
121
330
22
100
AcDbEntity
  8
0
  6
Continuous
 62
     7
100
AcDbLine
 10
-182.07080078125
 20
111.2856521606445
 30
0.0
 11
-177.1788635253906
 21
106.3937149047852
 31
0.0
  0
LINE
  5
122
330
22
100
AcDbEntity
  8
0
  6
Continuous
 62
     7
100
AcDbLine
 10
-195.3603820800781
 20
125.6358871459961
 30
0.0
 11
-190.9753723144531
 21
121.2508850097655
 31
0.0
  0
LINE
  5
123
330
22
100
AcDbEntity
  8
0
  6
Continuous
 62
     7
100
AcDbLine
 10
-182.1647796630859
 20
112.4402923583984
 30
0.0
 11
-177.0198822021484
 21
107.2953872680664
 31
0.0
  0
LINE
  5
124
330
22
100
AcDbEntity
  8
0
  6
Continuous
 62
     7
100
AcDbLine
 10
-195.0068206787109
 20
125.6358871459961
 30
0.0
 11
-190.621826171875
 21
121.2508850097655
 31
0.0
  0
LINE
  5
125
330
22
100
AcDbEntity
  8
0
  6
Continuous
 62
     7
100
AcDbLine
 10
-182.1961059570313
 20
112.8251724243164
 30
0.0
 11
-176.9668884277344
 21
107.595947265625
 31
0.0
  0
LINE
  5
126
330
22
100
AcDbEntity
  8
0
  6
Continuous
 62
     7
100
AcDbLine
 10
-193.9461669921875
 20
125.6358871459961
 30
0.0
 11
-189.5611572265625
 21
121.2508850097655
 31
0.0
  0
LINE
  5
127
330
22
100
AcDbEntity
  8
0
  6
Continuous
 62
     7
100
AcDbLine
 10
-182.2901000976563
 20
113.9798202514648
 30
0.0
 11
-176.8078918457031
 21
108.4976196289063
 31
0.0
  0
LINE
  5
128
330
22
100
AcDbEntity
  8
0
  6
Continuous
 62
     7
100
AcDbLine
 10
-193.5926055908203
 20
125.6358871459961
 30
0.0
 11
-189.2076110839844
 21
121.2508850097655
 31
0.0
  0
LINE
  5
129
330
22
100
AcDbEntity
  8
0
  6
Continuous
 62
     7
100
AcDbLine
 10
-182.3214263916016
 20
114.3647003173828
 30
0.0
 11
-176.7548980712891
 21
108.7981719970703
 31
0.0
  0
LINE
  5
12A
330
22
100
AcDbEntity
  8
0
  6
Continuous
 62
     7
100
AcDbLine
 10
-192.5319519042969
 20
125.6358871459961
 30
0.0
 11
-188.1469573974609
 21
121.2508850097655
 31
0.0
  0
LINE
  5
12B
330
22
100
AcDbEntity
  8
0
  6
Continuous
 62
     7
100
AcDbLine
 10
-182.4154052734375
 20
115.5193405151367
 30
0.0
 11
-176.5959167480469
 21
109.6998443603516
 31
0.0
  0
LINE
  5
12C
330
22
100
AcDbEntity
  8
0
  6
Continuous
 62
     7
100
AcDbLine
 10
-192.1784057617188
 20
125.6358871459961
 30
0.0
 11
-187.7933959960938
 21
121.2508850097655
 31
0.0
  0
LINE
  5
12D
330
22
100
AcDbEntity
  8
0
  6
Continuous
 62
     7
100
AcDbLine
 10
-182.4467315673828
 20
115.9042205810547
 30
0.0
 11
-176.5429077148438
 21
110.0004043579102
 31
0.0
  0
LINE
  5
12E
330
22
100
AcDbEntity
  8
0
  6
Continuous
 62
     7
100
AcDbLine
 10
-191.1177368164063
 20
125.6358871459961
 30
0.0
 11
-186.7327423095703
 21
121.2508850097655
 31
0.0
  0
LINE
  5
12F
330
22
100
AcDbEntity
  8
0
  6
Continuous
 62
     7
100
AcDbLine
 10
-182.5407104492188
 20
117.0588607788086
 30
0.0
 11
-176.3839263916016
 21
110.9020690917969
 31
0.0
  0
LINE
  5
130
330
22
100
AcDbEntity
  8
0
  6
Continuous
 62
     7
100
AcDbLine
 10
-190.7641906738281
 20
125.6358871459961
 30
0.0
 11
-186.3791809082031
 21
121.2508850097655
 31
0.0
  0
LINE
  5
131
330
22
100
AcDbEntity
  8
0
  6
Continuous
 62
     7
100
AcDbLine
 10
-182.5720367431641
 20
117.4437484741211
 30
0.0
 11
-176.3309326171875
 21
111.2026290893555
 31
0.0
  0
LINE
  5
132
330
22
100
AcDbEntity
  8
0
  6
Continuous
 62
     7
100
AcDbLine
 10
-189.7035217285156
 20
125.6358871459961
 30
0.0
 11
-185.3185272216797
 21
121.2508850097655
 31
0.0
  0
LINE
  5
133
330
22
100
AcDbEntity
  8
0
  6
Continuous
 62
     7
100
AcDbLine
 10
-182.6660308837891
 20
118.598388671875
 30
0.0
 11
-176.1719360351563
 21
112.1043014526367
 31
0.0
  0
LINE
  5
134
330
22
100
AcDbEntity
  8
0
  6
Continuous
 62
     7
100
AcDbLine
 10
-189.3499755859375
 20
125.6358871459961
 30
0.0
 11
-184.9649658203125
 21
121.2508850097655
 31
0.0
  0
LINE
  5
135
330
22
100
AcDbEntity
  8
0
  6
Continuous
 62
     7
100
AcDbLine
 10
-182.6973571777344
 20
118.983268737793
 30
0.0
 11
-176.1189422607422
 21
112.4048614501953
 31
0.0
  0
LINE
  5
136
330
22
100
AcDbEntity
  8
0
  6
Continuous
 62
     7
100
AcDbLine
 10
-188.289306640625
 20
125.6358871459961
 30
0.0
 11
-183.8148040771484
 21
121.161376953125
 31
0.0
  0
LINE
  5
137
330
22
100
AcDbEntity
  8
0
  6
Continuous
 62
     7
100
AcDbLine
 10
-182.8473358154297
 20
120.1939163208008
 30
0.0
 11
-175.9599609375
 21
113.306526184082
 31
0.0
  0
LINE
  5
138
330
22
100
AcDbEntity
  8
0
  6
Continuous
 62
     7
100
AcDbLine
 10
-187.9357604980469
 20
125.6358871459961
 30
0.0
 11
-175.9069519042969
 21
113.6070861816406
 31
0.0
  0
LINE
  5
139
330
22
100
AcDbEntity
  8
0
  6
Continuous
 62
     7
100
AcDbLine
 10
-186.8750915527344
 20
125.6358871459961
 30
0.0
 11
-175.7479705810547
 21
114.5087585449219
 31
0.0
  0
LINE
  5
13A
330
22
100
AcDbEntity
  8
0
  6
Continuous
 62
     7
100
AcDbLine
 10
-186.5215454101563
 20
125.6358871459961
 30
0.0
 11
-175.6949768066406
 21
114.8093109130859
 31
0.0
  0
LINE
  5
13B
330
22
100
AcDbEntity
  8
0
  6
Continuous
 62
     7
100
AcDbLine
 10
-185.4608917236328
 20
125.6358871459961
 30
0.0
 11
-175.5359802246094
 21
115.7109832763672
 31
0.0
  0
LINE
  5
13C
330
22
100
AcDbEntity
  8
0
  6
Continuous
 62
     7
100
AcDbLine
 10
-185.1073303222656
 20
125.6358871459961
 30
0.0
 11
-175.4829864501953
 21
116.0115432739258
 31
0.0
  0
LINE
  5
13D
330
22
100
AcDbEntity
  8
0
  6
Continuous
 62
     7
100
AcDbLine
 10
-184.0466766357422
 20
125.6358871459961
 30
0.0
 11
-175.3240051269531
 21
116.913215637207
 31
0.0
  0
LINE
  5
13E
330
22
100
AcDbEntity
  8
0
  6
Continuous
 62
     7
100
AcDbLine
 10
-183.693115234375
 20
125.6358871459961
 30
0.0
 11
-175.27099609375
 21
117.2137680053711
 31
0.0
  0
LINE
  5
13F
330
22
100
AcDbEntity
  8
0
  6
Continuous
 62
     7
100
AcDbLine
 10
-182.6324615478516
 20
125.6358871459961
 30
0.0
 11
-175.1120147705078
 21
118.1154403686523
 31
0.0
  0
LINE
  5
140
330
22
100
AcDbEntity
  8
0
  6
Continuous
 62
     7
100
AcDbLine
 10
-182.2789001464844
 20
125.6358871459961
 30
0.0
 11
-175.0590209960938
 21
118.4160003662109
 31
0.0
  0
LINE
  5
141
330
22
100
AcDbEntity
  8
0
  6
Continuous
 62
     7
100
AcDbLine
 10
-181.2182464599609
 20
125.6358871459961
 30
0.0
 11
-174.9000244140625
 21
119.3176727294922
 31
0.0
  0
LINE
  5
142
330
22
100
AcDbEntity
  8
0
  6
Continuous
 62
     7
100
AcDbLine
 10
-180.8646850585938
 20
125.6358871459961
 30
0.0
 11
-174.8470306396484
 21
119.6182250976563
 31
0.0
  0
LINE
  5
143
330
22
100
AcDbEntity
  8
0
  6
Continuous
 62
     7
100
AcDbLine
 10
-179.8040313720703
 20
125.6358871459961
 30
0.0
 11
-174.6880493164063
 21
120.5198974609375
 31
0.0
  0
LINE
  5
144
330
22
100
AcDbEntity
  8
0
  6
Continuous
 62
     7
100
AcDbLine
 10
-179.4504699707031
 20
125.6358871459961
 30
0.0
 11
-174.6350402832031
 21
120.8204574584961
 31
0.0
  0
LINE
  5
145
330
22
100
AcDbEntity
  8
0
  6
Continuous
 62
     7
100
AcDbLine
 10
-178.3898162841797
 20
125.6358871459961
 30
0.0
 11
-174.4760589599609
 21
121.7221298217773
 31
0.0
  0
LINE
  5
146
330
22
100
AcDbEntity
  8
0
  6
Continuous
 62
     7
100
AcDbLine
 10
-178.0362701416016
 20
125.6358871459961
 30
0.0
 11
-174.4230651855469
 21
122.0226821899414
 31
0.0
  0
LINE
  5
147
330
22
100
AcDbEntity
  8
0
  6
Continuous
 62
     7
100
AcDbLine
 10
-176.9756011962891
 20
125.6358871459961
 30
0.0
 11
-174.2640686035156
 21
122.9243545532227
 31
0.0
  0
LINE
  5
148
330
22
100
AcDbEntity
  8
0
  6
Continuous
 62
     7
100
AcDbLine
 10
-176.6220550537109
 20
125.6358871459961
 30
0.0
 11
-174.2110748291016
 21
123.2249145507813
 31
0.0
  0
LINE
  5
149
330
22
100
AcDbEntity
  8
0
  6
Continuous
 62
     7
100
AcDbLine
 10
-175.5613861083984
 20
125.6358871459961
 30
0.0
 11
-174.0520782470703
 21
124.1265869140625
 31
0.0
  0
LINE
  5
14A
330
22
100
AcDbEntity
  8
0
  6
Continuous
 62
     7
100
AcDbLine
 10
-175.2078399658203
 20
125.6358871459961
 30
0.0
 11
-173.9990844726563
 21
124.4271392822266
 31
0.0
  0
LINE
  5
14B
330
22
100
AcDbEntity
  8
0
  6
Continuous
 62
     7
100
AcDbLine
 10
-227.7859497070313
 20
122.6358871459961
 30
0.0
 11
-227.7859497070313
 21
74.63588714599609
 31
0.0
  0
LINE
  5
14C
330
22
100
AcDbEntity
  8
0
  6
Continuous
 62
     7
100
AcDbLine
 10
-272.2859497070313
 20
106.4500045776367
 30
0.0
 11
-275.251708984375
 21
122.2673110961914
 31
0.0
  0
LINE
  5
14D
330
22
100
AcDbEntity
  8
0
  6
Continuous
 62
     7
100
AcDbLine
 10
-270.2859497070313
 20
74.63588714599609
 30
0.0
 11
-272.2859497070313
 21
76.63588714599609
 31
0.0
  0
LINE
  5
14E
330
22
100
AcDbEntity
  8
0
  6
CENTER
 62
     7
100
AcDbLine
 10
-221.7859497070314
 20
147.3927307128906
 30
0.0
 11
-221.7859497070314
 21
281.933349609375
 31
0.0
  0
LINE
  5
14F
330
22
100
AcDbEntity
  8
0
  6
Continuous
 62
     7
100
AcDbLine
 10
-221.7859497070314
 20
71.63588714599609
 30
0.0
 11
-174.2859497070313
 21
71.63588714599609
 31
0.0
  0
LINE
  5
150
330
22
100
AcDbEntity
  8
0
  6
Continuous
 62
     7
100
AcDbLine
 10
-174.2859497070313
 20
71.63588714599609
 30
0.0
 11
-173.2859497070313
 21
72.6358871459961
 31
0.0
  0
LINE
  5
151
330
22
100
AcDbEntity
  8
0
  6
Continuous
 62
     7
100
AcDbLine
 10
-185.9092712402344
 20
73.34921264648437
 30
0.0
 11
-184.1959533691406
 21
71.63588714599609
 31
0.0
  0
LINE
  5
152
330
22
100
AcDbEntity
  8
0
  6
Continuous
 62
     7
100
AcDbLine
 10
-178.114501953125
 20
90.63588714599609
 30
0.0
 11
-211.7859497070313
 21
90.63588714599609
 31
0.0
  0
LINE
  5
153
330
22
100
AcDbEntity
  8
0
  6
Continuous
 62
     7
100
AcDbLine
 10
-270.2859497070313
 20
106.6358871459961
 30
0.0
 11
-227.7859497070313
 21
106.6358871459961
 31
0.0
  0
LINE
  5
154
330
22
100
AcDbEntity
  8
0
  6
Continuous
 62
     7
100
AcDbLine
 10
-284.2859497070313
 20
125.3858871459961
 30
0.0
 11
-284.2859497070313
 21
122.6358871459961
 31
0.0
  0
LINE
  5
155
330
22
100
AcDbEntity
  8
0
  6
Continuous
 62
     7
100
AcDbLine
 10
-270.2859497070313
 20
106.6358871459961
 30
0.0
 11
-273.2859497070313
 21
122.6358871459961
 31
0.0
  0
LINE
  5
156
330
22
100
AcDbEntity
  8
0
  6
Continuous
 62
     7
100
AcDbLine
 10
-178.114501953125
 20
90.63588714599609
 30
0.0
 11
-178.114501953125
 21
85.63588714599609
 31
0.0
  0
LINE
  5
157
330
22
100
AcDbEntity
  8
0
  6
Continuous
 62
     7
100
AcDbLine
 10
-177.6769866943359
 20
101.6358871459961
 30
0.0
 11
-177.5769805908203
 21
104.1358871459961
 31
0.0
  0
LINE
  5
158
330
22
100
AcDbEntity
  8
0
  6
Continuous
 62
     7
100
AcDbLine
 10
-179.5769805908203
 20
104.1358871459961
 30
0.0
 11
-179.5769805908203
 21
101.6358871459961
 31
0.0
  0
LINE
  5
159
330
22
100
AcDbEntity
  8
0
  6
Continuous
 62
     7
100
AcDbLine
 10
-179.5769805908203
 20
101.6358871459961
 30
0.0
 11
-177.6769866943359
 21
101.6358871459961
 31
0.0
  0
LINE
  5
15A
330
22
100
AcDbEntity
  8
0
  6
Continuous
 62
     7
100
AcDbLine
 10
-217.0115203857422
 20
106.264533996582
 30
0.0
 11
-216.8828735351564
 21
106.1358871459961
 31
0.0
  0
LINE
  5
15B
330
22
100
AcDbEntity
  8
0
  6
Continuous
 62
     7
100
AcDbLine
 10
-217.0115203857422
 20
106.1358871459961
 30
0.0
 11
-217.7915344238281
 21
106.1358871459961
 31
0.0
  0
LINE
  5
15C
330
22
100
AcDbEntity
  8
0
  6
Continuous
 62
     7
100
AcDbLine
 10
-217.0115203857422
 20
110.6358871459961
 30
0.0
 11
-217.7915344238281
 21
110.6358871459961
 31
0.0
  0
LINE
  5
15D
330
22
100
AcDbEntity
  8
0
  6
Continuous
 62
     7
100
AcDbLine
 10
-217.0115203857422
 20
110.6358871459961
 30
0.0
 11
-203.7929382324219
 21
110.6358871459961
 31
0.0
  0
LINE
  5
15E
330
22
100
AcDbEntity
  8
0
  6
Continuous
 62
     7
100
AcDbLine
 10
-217.0115203857422
 20
106.1358871459961
 30
0.0
 11
-217.0115203857422
 21
110.6358871459961
 31
0.0
  0
LINE
  5
15F
330
22
100
AcDbEntity
  8
0
  6
Continuous
 62
     7
100
AcDbLine
 10
-216.0115203857422
 20
106.1358871459961
 30
0.0
 11
-217.0115203857422
 21
106.1358871459961
 31
0.0
  0
LINE
  5
160
330
22
100
AcDbEntity
  8
0
  6
Continuous
 62
     7
100
AcDbLine
 10
-185.8549194335938
 20
84.02640533447266
 30
0.0
 11
-184.1959533691406
 21
85.63588714599609
 31
0.0
  0
LINE
  5
161
330
22
100
AcDbEntity
  8
0
  6
Continuous
 62
     7
100
AcDbLine
 10
-185.8549194335938
 20
73.40189361572265
 30
0.0
 11
-185.8549194335938
 21
84.08430480957031
 31
0.0
  0
LINE
  5
162
330
22
100
AcDbEntity
  8
0
  6
Continuous
 62
     7
100
AcDbLine
 10
-184.6158752441406
 20
85.63588714599609
 30
0.0
 11
-184.6334838867188
 21
85.63588714599609
 31
0.0
  0
LINE
  5
163
330
22
100
AcDbEntity
  8
0
  6
Continuous
 62
     7
100
AcDbLine
 10
-184.1959533691406
 20
71.63588714599609
 30
0.0
 11
-184.1959533691406
 21
85.64272308349609
 31
0.0
  0
LINE
  5
164
330
22
100
AcDbEntity
  8
0
  6
Continuous
 62
     7
100
AcDbLine
 10
-221.7859497070314
 20
85.63588714599609
 30
0.0
 11
-178.114501953125
 21
85.63588714599609
 31
0.0
  0
LINE
  5
165
330
22
100
AcDbEntity
  8
0
  6
Continuous
 62
     7
100
AcDbLine
 10
-213.7943267822266
 20
123.7741928100586
 30
0.0
 11
-213.7943267822266
 21
122.6249542236328
 31
0.0
  0
LINE
  5
166
330
22
100
AcDbEntity
  8
0
  6
Continuous
 62
     7
100
AcDbLine
 10
-208.7911224365234
 20
114.2853469848633
 30
0.0
 11
-214.7915344238281
 21
114.2853469848633
 31
0.0
  0
LINE
  5
167
330
22
100
AcDbEntity
  8
0
  6
Continuous
 62
     7
100
AcDbLine
 10
-202.7574462890625
 20
107.6358871459961
 30
0.0
 11
-214.5115203857422
 21
107.6358871459961
 31
0.0
  0
LINE
  5
168
330
22
100
AcDbEntity
  8
0
  6
Continuous
 62
     7
100
AcDbLine
 10
-203.7929382324219
 20
116.6353530883789
 30
0.0
 11
-203.7929382324219
 21
116.9668426513672
 31
0.0
  0
LINE
  5
169
330
22
100
AcDbEntity
  8
0
  6
Continuous
 62
     7
100
AcDbLine
 10
-203.7929382324219
 20
116.9668426513672
 30
0.0
 11
-203.7929382324219
 21
110.6358871459961
 31
0.0
  0
LINE
  5
16A
330
22
100
AcDbEntity
  8
0
  6
Continuous
 62
     7
100
AcDbLine
 10
-198.3920593261719
 20
121.2508850097655
 30
0.0
 11
-184.2648010253906
 21
121.2508850097655
 31
0.0
  0
LINE
  5
16B
330
22
100
AcDbEntity
  8
0
  6
Continuous
 62
     7
100
AcDbLine
 10
-205.7115325927734
 20
107.6358871459961
 30
0.0
 11
-205.7115325927734
 21
110.6358871459961
 31
0.0
  0
LINE
  5
16C
330
22
100
AcDbEntity
  8
0
  6
Continuous
 62
     7
100
AcDbLine
 10
-203.8911285400391
 20
114.1358871459961
 30
0.0
 11
-203.8911285400391
 21
112.1358871459961
 31
0.0
  0
LINE
  5
16D
330
22
100
AcDbEntity
  8
0
  6
Continuous
 62
     7
100
AcDbLine
 10
-207.7911224365234
 20
113.1358871459961
 30
0.0
 11
-207.7911224365234
 21
113.2853469848633
 31
0.0
  0
LINE
  5
16E
330
22
100
AcDbEntity
  8
0
  6
Continuous
 62
     7
100
AcDbLine
 10
-205.7911224365234
 20
114.1358871459961
 30
0.0
 11
-203.8911285400391
 21
114.1358871459961
 31
0.0
  0
LINE
  5
16F
330
22
100
AcDbEntity
  8
0
  6
Continuous
 62
     7
100
AcDbLine
 10
-205.7911224365234
 20
116.6353530883789
 30
0.0
 11
-205.7911224365234
 21
114.1358871459961
 31
0.0
  0
LINE
  5
170
330
22
100
AcDbEntity
  8
0
  6
Continuous
 62
     7
100
AcDbLine
 10
-199.8867492675781
 20
119.8769302368164
 30
0.0
 11
-200.7645111083984
 21
109.4678268432617
 31
0.0
  0
LINE
  5
171
330
22
100
AcDbEntity
  8
0
  6
Continuous
 62
     7
100
AcDbLine
 10
-173.2859497070313
 20
106.6358871459961
 30
0.0
 11
-170.4771423339844
 21
121.6162490844727
 31
0.0
  0
LINE
  5
172
330
22
100
AcDbEntity
  8
0
  6
Continuous
 62
     7
100
AcDbLine
 10
-203.7929382324219
 20
116.6353530883789
 30
0.0
 11
-205.7911224365234
 21
116.6353530883789
 31
0.0
  0
LINE
  5
173
330
22
100
AcDbEntity
  8
0
  6
Continuous
 62
     7
100
AcDbLine
 10
-213.7915344238281
 20
122.6358871459961
 30
0.0
 11
-213.7915344238281
 21
116.6358871459961
 31
0.0
  0
LINE
  5
174
330
22
100
AcDbEntity
  8
0
  6
Continuous
 62
     7
100
AcDbLine
 10
-159.2859497070313
 20
125.3858871459961
 30
0.0
 11
-159.2859497070313
 21
122.6358871459961
 31
0.0
  0
LINE
  5
175
330
22
100
AcDbEntity
  8
0
  6
Continuous
 62
     7
100
AcDbLine
 10
-201.9329223632813
 20
125.0234146118164
 30
0.0
 11
-203.7929382324219
 21
116.9668426513672
 31
0.0
  0
LINE
  5
176
330
22
100
AcDbEntity
  8
0
  6
Continuous
 62
     7
100
AcDbLine
 10
-173.7859497070313
 20
125.6358871459961
 30
0.0
 11
-177.5769805908203
 21
104.1358871459961
 31
0.0
  0
LINE
  5
177
330
22
100
AcDbEntity
  8
0
  6
Continuous
 62
     7
100
AcDbLine
 10
-177.5769805908203
 20
104.1358871459961
 30
0.0
 11
-179.5769805908203
 21
104.1358871459961
 31
0.0
  0
LINE
  5
178
330
22
100
AcDbEntity
  8
0
  6
Continuous
 62
     7
100
AcDbLine
 10
-169.2485504150391
 20
122.6358871459961
 30
0.0
 11
-159.2859497070313
 21
122.6358871459961
 31
0.0
  0
LINE
  5
179
330
22
100
AcDbEntity
  8
0
  6
Continuous
 62
     7
100
AcDbLine
 10
-204.3911285400391
 20
111.6358871459961
 30
0.0
 11
-206.2911224365234
 21
111.6358871459961
 31
0.0
  0
LINE
  5
17A
330
22
100
AcDbEntity
  8
0
  6
Continuous
 62
     7
100
AcDbLine
 10
-205.7115325927734
 20
107.6924591064453
 30
0.0
 11
-205.6549530029297
 21
107.6358871459961
 31
0.0
  0
LINE
  5
17B
330
22
100
AcDbEntity
  8
0
  6
Continuous
 62
     7
100
AcDbLine
 10
-229.2359619140625
 20
215.7071075439453
 30
0.0
 11
-229.2359619140625
 21
210.8070983886719
 31
0.0
  0
LINE
  5
17C
330
22
100
AcDbEntity
  8
0
  6
Continuous
 62
     7
100
AcDbLine
 10
-225.5007934570314
 20
215.7071075439453
 30
0.0
 11
-229.2359619140625
 21
215.7071075439453
 31
0.0
  0
LINE
  5
17D
330
22
100
AcDbEntity
  8
0
  6
Continuous
 62
     7
100
AcDbLine
 10
-225.5007934570314
 20
210.8070983886719
 30
0.0
 11
-229.2359619140625
 21
210.8070983886719
 31
0.0
  0
LINE
  5
17E
330
22
100
AcDbEntity
  8
0
  6
Continuous
 62
     7
100
AcDbLine
 10
-214.3359527587891
 20
215.7071075439453
 30
0.0
 11
-214.3359527587891
 21
210.8070983886719
 31
0.0
  0
LINE
  5
17F
330
22
100
AcDbEntity
  8
0
  6
Continuous
 62
     7
100
AcDbLine
 10
-218.0711212158203
 20
210.8070983886719
 30
0.0
 11
-214.3359527587891
 21
210.8070983886719
 31
0.0
  0
LINE
  5
180
330
22
100
AcDbEntity
  8
0
  6
Continuous
 62
     7
100
AcDbLine
 10
-218.0321655273438
 20
123.7741928100586
 30
0.0
 11
-216.1704711914063
 21
125.6358871459961
 31
0.0
  0
LINE
  5
181
330
22
100
AcDbEntity
  8
0
  6
Continuous
 62
     7
100
AcDbLine
 10
-218.0711212158203
 20
215.7071075439453
 30
0.0
 11
-214.3359527587891
 21
215.7071075439453
 31
0.0
  0
LINE
  5
182
330
22
100
AcDbEntity
  8
0
  6
Continuous
 62
     7
100
AcDbLine
 10
-215.9108581542969
 20
123.7741928100586
 30
0.0
 11
-214.0491638183594
 21
125.6358871459961
 31
0.0
  0
LINE
  5
183
330
22
100
AcDbEntity
  8
0
  6
Continuous
 62
     7
100
AcDbLine
 10
-213.7943267822266
 20
123.7693939208984
 30
0.0
 11
-211.9278411865234
 21
125.6358871459961
 31
0.0
  0
LINE
  5
184
330
22
100
AcDbEntity
  8
0
  6
Continuous
 62
     7
100
AcDbLine
 10
-221.7859497070314
 20
115.7777709960938
 30
0.0
 11
-220.9278411865234
 21
116.6358871459961
 31
0.0
  0
LINE
  5
185
330
22
100
AcDbEntity
  8
0
  6
Continuous
 62
     7
100
AcDbLine
 10
-213.7915344238281
 20
121.65087890625
 30
0.0
 11
-209.8065185546875
 21
125.6358871459961
 31
0.0
  0
LINE
  5
186
330
22
100
AcDbEntity
  8
0
  6
Continuous
 62
     7
100
AcDbLine
 10
-221.7859497070314
 20
113.6564483642578
 30
0.0
 11
-218.8065185546875
 21
116.6358871459961
 31
0.0
  0
LINE
  5
187
330
22
100
AcDbEntity
  8
0
  6
Continuous
 62
     7
100
AcDbLine
 10
-213.7915344238281
 20
119.5295562744141
 30
0.0
 11
-207.6851959228516
 21
125.6358871459961
 31
0.0
  0
LINE
  5
188
330
22
100
AcDbEntity
  8
0
  6
Continuous
 62
     7
100
AcDbLine
 10
-221.7859497070314
 20
111.5351333618164
 30
0.0
 11
-216.6851959228516
 21
116.6358871459961
 31
0.0
  0
LINE
  5
189
330
22
100
AcDbEntity
  8
0
  6
Continuous
 62
     7
100
AcDbLine
 10
-213.7915344238281
 20
117.4082336425781
 30
0.0
 11
-205.5638732910156
 21
125.6358871459961
 31
0.0
  0
LINE
  5
18A
330
22
100
AcDbEntity
  8
0
  6
Continuous
 62
     7
100
AcDbLine
 10
-221.7859497070314
 20
109.4138107299805
 30
0.0
 11
-214.5638732910156
 21
116.6358871459961
 31
0.0
  0
LINE
  5
18B
330
22
100
AcDbEntity
  8
0
  6
Continuous
 62
     7
100
AcDbLine
 10
-214.7932586669922
 20
114.2851791381836
 30
0.0
 11
-203.4425506591797
 21
125.6358871459961
 31
0.0
  0
LINE
  5
18C
330
22
100
AcDbEntity
  8
0
  6
Continuous
 62
     7
100
AcDbLine
 10
-221.7859497070314
 20
107.2924880981445
 30
0.0
 11
-217.7913513183594
 21
111.2870864868164
 31
0.0
  0
LINE
  5
18D
330
22
100
AcDbEntity
  8
0
  6
Continuous
 62
     7
100
AcDbLine
 10
-212.6717681884766
 20
114.2853469848633
 30
0.0
 11
-201.9327087402344
 21
125.0244216918945
 31
0.0
  0
LINE
  5
18E
330
22
100
AcDbEntity
  8
0
  6
Continuous
 62
     7
100
AcDbLine
 10
-221.7859497070314
 20
105.1711654663086
 30
0.0
 11
-217.7915344238281
 21
109.1655960083008
 31
0.0
  0
LINE
  5
18F
330
22
100
AcDbEntity
  8
0
  6
Continuous
 62
     7
100
AcDbLine
 10
-210.5504608154297
 20
114.2853469848633
 30
0.0
 11
-202.5694427490234
 21
122.266357421875
 31
0.0
  0
LINE
  5
190
330
22
100
AcDbEntity
  8
0
  6
Continuous
 62
     7
100
AcDbLine
 10
-221.7859497070314
 20
103.0498504638672
 30
0.0
 11
-217.7915344238281
 21
107.0442733764648
 31
0.0
  0
LINE
  5
191
330
22
100
AcDbEntity
  8
0
  6
Continuous
 62
     7
100
AcDbLine
 10
-208.4891967773438
 20
114.2252883911133
 30
0.0
 11
-203.2061920166016
 21
119.5082855224609
 31
0.0
  0
LINE
  5
192
330
22
100
AcDbEntity
  8
0
  6
Continuous
 62
     7
100
AcDbLine
 10
-221.7859497070314
 20
100.9285278320313
 30
0.0
 11
-217.7915344238281
 21
104.9229583740234
 31
0.0
  0
LINE
  5
193
330
22
100
AcDbEntity
  8
0
  6
Continuous
 62
     7
100
AcDbLine
 10
-203.9578094482422
 20
116.6353530883789
 30
0.0
 11
-203.7929382324219
 21
116.8002319335938
 31
0.0
  0
LINE
  5
194
330
22
100
AcDbEntity
  8
0
  6
Continuous
 62
     7
100
AcDbLine
 10
-207.7597351074219
 20
112.8334274291992
 30
0.0
 11
-205.7911224365234
 21
114.8020401000977
 31
0.0
  0
LINE
  5
195
330
22
100
AcDbEntity
  8
0
  6
Continuous
 62
     7
100
AcDbLine
 10
-221.7859497070314
 20
98.80720520019531
 30
0.0
 11
-217.7915344238281
 21
102.8016357421875
 31
0.0
  0
LINE
  5
196
330
22
100
AcDbEntity
  8
0
  6
Continuous
 62
     7
100
AcDbLine
 10
-206.7554931640625
 20
111.7163543701172
 30
0.0
 11
-204.3359527587891
 21
114.1358871459961
 31
0.0
  0
LINE
  5
197
330
22
100
AcDbEntity
  8
0
  6
Continuous
 62
     7
100
AcDbLine
 10
-221.7859497070314
 20
96.68589019775392
 30
0.0
 11
-217.7915344238281
 21
100.6803131103516
 31
0.0
  0
LINE
  5
198
330
22
100
AcDbEntity
  8
0
  6
Continuous
 62
     7
100
AcDbLine
 10
-204.7146301269531
 20
111.6358871459961
 30
0.0
 11
-203.8911285400391
 21
112.4593963623047
 31
0.0
  0
LINE
  5
199
330
22
100
AcDbEntity
  8
0
  6
Continuous
 62
     7
100
AcDbLine
 10
-221.2146301269531
 20
95.13588714599608
 30
0.0
 11
-217.7915344238281
 21
98.55899810791015
 31
0.0
  0
LINE
  5
19A
330
22
100
AcDbEntity
  8
0
  6
Continuous
 62
     7
100
AcDbLine
 10
-221.7859497070314
 20
94.56456756591796
 30
0.0
 11
-221.2146301269531
 21
95.13588714599608
 31
0.0
  0
LINE
  5
19B
330
22
100
AcDbEntity
  8
0
  6
Continuous
 62
     7
100
AcDbLine
 10
-219.0933074951172
 20
95.13588714599608
 30
0.0
 11
-217.7915344238281
 21
96.43767547607422
 31
0.0
  0
LINE
  5
19C
330
22
100
AcDbEntity
  8
0
  6
Continuous
 62
     7
100
AcDbLine
 10
-221.7859497070314
 20
92.44324493408205
 30
0.0
 11
-219.0933074951172
 21
95.13588714599608
 31
0.0
  0
LINE
  5
19D
330
22
100
AcDbEntity
  8
0
  6
Continuous
 62
     7
100
AcDbLine
 10
-220.4720001220703
 20
91.63588714599608
 30
0.0
 11
-216.9720001220703
 21
95.13588714599608
 31
0.0
  0
LINE
  5
19E
330
22
100
AcDbEntity
  8
0
  6
Continuous
 62
     7
100
AcDbLine
 10
-218.3506774902344
 20
91.63588714599608
 30
0.0
 11
-215.7915344238281
 21
94.19503021240235
 31
0.0
  0
LINE
  5
19F
330
22
100
AcDbEntity
  8
0
  6
Continuous
 62
     7
100
AcDbLine
 10
-216.2293548583984
 20
91.63588714599608
 30
0.0
 11
-215.7915344238281
 21
92.07371520996094
 31
0.0
  0
LINE
  5
1A0
330
22
100
AcDbEntity
  8
0
  6
Continuous
 62
     7
100
AcDbLine
 10
-219.0928344726563
 20
123.7741928100586
 30
0.0
 11
-217.2311401367188
 21
125.6358871459961
 31
0.0
  0
LINE
  5
1A1
330
22
100
AcDbEntity
  8
0
  6
Continuous
 62
     7
100
AcDbLine
 10
-216.9715118408203
 20
123.7741928100586
 30
0.0
 11
-215.1098175048828
 21
125.6358871459961
 31
0.0
  0
LINE
  5
1A2
330
22
100
AcDbEntity
  8
0
  6
Continuous
 62
     7
100
AcDbLine
 10
-214.8501892089844
 20
123.7741928100586
 30
0.0
 11
-212.9884948730469
 21
125.6358871459961
 31
0.0
  0
LINE
  5
1A3
330
22
100
AcDbEntity
  8
0
  6
Continuous
 62
     7
100
AcDbLine
 10
-213.7942810058594
 20
122.7087860107422
 30
0.0
 11
-210.8671722412109
 21
125.6358871459961
 31
0.0
  0
LINE
  5
1A4
330
22
100
AcDbEntity
  8
0
  6
Continuous
 62
     7
100
AcDbLine
 10
-221.7859497070314
 20
114.7171096801758
 30
0.0
 11
-219.8671722412109
 21
116.6358871459961
 31
0.0
  0
LINE
  5
1A5
330
22
100
AcDbEntity
  8
0
  6
Continuous
 62
     7
100
AcDbLine
 10
-213.7915344238281
 20
120.590217590332
 30
0.0
 11
-208.7458648681641
 21
125.6358871459961
 31
0.0
  0
LINE
  5
1A6
330
22
100
AcDbEntity
  8
0
  6
Continuous
 62
     7
100
AcDbLine
 10
-221.7859497070314
 20
112.5957870483398
 30
0.0
 11
-217.7458648681641
 21
116.6358871459961
 31
0.0
  0
LINE
  5
1A7
330
22
100
AcDbEntity
  8
0
  6
Continuous
 62
     7
100
AcDbLine
 10
-213.7915344238281
 20
118.4688949584961
 30
0.0
 11
-206.6245422363281
 21
125.6358871459961
 31
0.0
  0
LINE
  5
1A8
330
22
100
AcDbEntity
  8
0
  6
Continuous
 62
     7
100
AcDbLine
 10
-221.7859497070314
 20
110.4744720458984
 30
0.0
 11
-215.6245422363281
 21
116.6358871459961
 31
0.0
  0
LINE
  5
1A9
330
22
100
AcDbEntity
  8
0
  6
Continuous
 62
     7
100
AcDbLine
 10
-216.2457885742188
 20
113.8933181762695
 30
0.0
 11
-204.5032196044922
 21
125.6358871459961
 31
0.0
  0
LINE
  5
1AA
330
22
100
AcDbEntity
  8
0
  6
Continuous
 62
     7
100
AcDbLine
 10
-221.7859497070314
 20
108.3531494140625
 30
0.0
 11
-217.3994903564453
 21
112.7396087646484
 31
0.0
  0
LINE
  5
1AB
330
22
100
AcDbEntity
  8
0
  6
Continuous
 62
     7
100
AcDbLine
 10
-213.7324371337891
 20
114.2853469848633
 30
0.0
 11
-202.3857116699219
 21
125.6320648193359
 31
0.0
  0
LINE
  5
1AC
330
22
100
AcDbEntity
  8
0
  6
Continuous
 62
     7
100
AcDbLine
 10
-221.7859497070314
 20
106.2318267822266
 30
0.0
 11
-217.7915344238281
 21
110.2262573242188
 31
0.0
  0
LINE
  5
1AD
330
22
100
AcDbEntity
  8
0
  6
Continuous
 62
     7
100
AcDbLine
 10
-211.6111145019531
 20
114.2853469848633
 30
0.0
 11
-202.2510681152344
 21
123.645393371582
 31
0.0
  0
LINE
  5
1AE
330
22
100
AcDbEntity
  8
0
  6
Continuous
 62
     7
100
AcDbLine
 10
-221.7859497070314
 20
104.1105117797852
 30
0.0
 11
-217.7915344238281
 21
108.1049346923828
 31
0.0
  0
LINE
  5
1AF
330
22
100
AcDbEntity
  8
0
  6
Continuous
 62
     7
100
AcDbLine
 10
-209.4897918701172
 20
114.2853469848633
 30
0.0
 11
-202.8878173828125
 21
120.887321472168
 31
0.0
  0
LINE
  5
1B0
330
22
100
AcDbEntity
  8
0
  6
Continuous
 62
     7
100
AcDbLine
 10
-221.7859497070314
 20
101.9891891479492
 30
0.0
 11
-217.7915344238281
 21
105.9836196899414
 31
0.0
  0
LINE
  5
1B1
330
22
100
AcDbEntity
  8
0
  6
Continuous
 62
     7
100
AcDbLine
 10
-205.0184783935547
 20
116.6353530883789
 30
0.0
 11
-203.5245666503906
 21
118.1292495727539
 31
0.0
  0
LINE
  5
1B2
330
22
100
AcDbEntity
  8
0
  6
Continuous
 62
     7
100
AcDbLine
 10
-207.9147338867188
 20
113.7390975952148
 30
0.0
 11
-205.7911224365234
 21
115.8627014160156
 31
0.0
  0
LINE
  5
1B3
330
22
100
AcDbEntity
  8
0
  6
Continuous
 62
     7
100
AcDbLine
 10
-221.7859497070314
 20
99.86786651611328
 30
0.0
 11
-217.7915344238281
 21
103.8622970581055
 31
0.0
  0
LINE
  5
1B4
330
22
100
AcDbEntity
  8
0
  6
Continuous
 62
     7
100
AcDbLine
 10
-207.3988494873047
 20
112.1336517333984
 30
0.0
 11
-205.3966217041016
 21
114.1358871459961
 31
0.0
  0
LINE
  5
1B5
330
22
100
AcDbEntity
  8
0
  6
Continuous
 62
     7
100
AcDbLine
 10
-221.7859497070314
 20
97.74655151367188
 30
0.0
 11
-217.7915344238281
 21
101.7409744262695
 31
0.0
  0
LINE
  5
1B6
330
22
100
AcDbEntity
  8
0
  6
Continuous
 62
     7
100
AcDbLine
 10
-205.7752990722656
 20
111.6358871459961
 30
0.0
 11
-203.8911285400391
 21
113.5200576782227
 31
0.0
  0
LINE
  5
1B7
330
22
100
AcDbEntity
  8
0
  6
Continuous
 62
     7
100
AcDbLine
 10
-221.7859497070314
 20
95.62522888183593
 30
0.0
 11
-217.7915344238281
 21
99.6196517944336
 31
0.0
  0
LINE
  5
1B8
330
22
100
AcDbEntity
  8
0
  6
Continuous
 62
     7
100
AcDbLine
 10
-220.1539764404297
 20
95.13588714599608
 30
0.0
 11
-217.7915344238281
 21
97.4983367919922
 31
0.0
  0
LINE
  5
1B9
330
22
100
AcDbEntity
  8
0
  6
Continuous
 62
     7
100
AcDbLine
 10
-221.7859497070314
 20
93.50390625000001
 30
0.0
 11
-220.1539764404297
 21
95.13588714599608
 31
0.0
  0
LINE
  5
1BA
330
22
100
AcDbEntity
  8
0
  6
Continuous
 62
     7
100
AcDbLine
 10
-218.0326538085938
 20
95.13588714599608
 30
0.0
 11
-217.7915344238281
 21
95.37701416015623
 31
0.0
  0
LINE
  5
1BB
330
22
100
AcDbEntity
  8
0
  6
Continuous
 62
     7
100
AcDbLine
 10
-221.5326538085939
 20
91.63588714599608
 30
0.0
 11
-218.0326538085938
 21
95.13588714599608
 31
0.0
  0
LINE
  5
1BC
330
22
100
AcDbEntity
  8
0
  6
Continuous
 62
     7
100
AcDbLine
 10
-219.4113311767578
 20
91.63588714599608
 30
0.0
 11
-215.9113311767578
 21
95.13588714599608
 31
0.0
  0
LINE
  5
1BD
330
22
100
AcDbEntity
  8
0
  6
Continuous
 62
     7
100
AcDbLine
 10
-217.2900085449219
 20
91.63588714599608
 30
0.0
 11
-215.7915344238281
 21
93.13437652587891
 31
0.0
  0
LINE
  5
1BE
330
22
100
AcDbEntity
  8
0
  6
Continuous
 62
     7
100
AcDbLine
 10
-211.7859497070313
 20
90.63588714599609
 30
0.0
 11
-221.7859497070314
 21
90.63588714599609
 31
0.0
  0
LINE
  5
1BF
330
22
100
AcDbEntity
  8
0
  6
Continuous
 62
     7
100
AcDbLine
 10
-215.7915344238281
 20
91.63588714599608
 30
0.0
 11
-221.7915344238281
 21
91.63588714599608
 31
0.0
  0
LINE
  5
1C0
330
22
100
AcDbEntity
  8
0
  6
Continuous
 62
     7
100
AcDbLine
 10
-227.7859497070313
 20
74.63588714599609
 30
0.0
 11
-221.7859497070314
 21
74.63588714599609
 31
0.0
  0
LINE
  5
1C1
330
22
100
AcDbEntity
  8
0
  6
Continuous
 62
     7
100
AcDbLine
 10
-221.7859497070314
 20
84.08430480957031
 30
0.0
 11
-185.8549194335938
 21
84.08430480957031
 31
0.0
  0
LINE
  5
1C2
330
22
100
AcDbEntity
  8
0
  6
Continuous
 62
     7
100
AcDbLine
 10
-221.7859497070314
 20
73.40189361572265
 30
0.0
 11
-185.8549194335938
 21
73.40189361572265
 31
0.0
  0
ARC
  5
1C3
330
22
100
AcDbEntity
  8
0
  6
Continuous
 62
     7
100
AcDbCircle
 10
-218.5415344238281
 20
124.6358871459961
 30
0.0
 40
1.0
100
AcDbArc
 50
90.00000000000019
 51
180.0000000000004
  0
ARC
  5
1C4
330
22
100
AcDbEntity
  8
0
  6
Continuous
 62
     7
100
AcDbCircle
 10
-178.1769866943359
 20
96.13588714599607
 30
0.0
 40
0.5
100
AcDbArc
 50
270.0000000000005
 51
0.0
  0
ARC
  5
1C5
330
22
100
AcDbEntity
  8
0
  6
Continuous
 62
     7
100
AcDbCircle
 10
-283.0359497070313
 20
125.3858871459961
 30
0.0
 40
1.25
100
AcDbArc
 50
90.00000000000019
 51
180.0000000000004
  0
CIRCLE
  5
1C6
330
22
100
AcDbEntity
  8
0
  6
Continuous
 62
     7
100
AcDbCircle
 10
-178.5769805908203
 20
102.8858871459961
 30
0.0
 40
1.0
  0
ARC
  5
1C7
330
22
100
AcDbEntity
  8
0
  6
Continuous
 62
     7
100
AcDbCircle
 10
-214.7915344238281
 20
111.2853469848633
 30
0.0
 40
3.0
100
AcDbArc
 50
90.00000000000019
 51
180.0000000000004
  0
ARC
  5
1C8
330
22
100
AcDbEntity
  8
0
  6
Continuous
 62
     7
100
AcDbCircle
 10
-216.0115203857422
 20
106.6358871459961
 30
0.0
 40
0.5
100
AcDbArc
 50
270.0000000000005
 51
0.0
  0
ARC
  5
1C9
330
22
100
AcDbEntity
  8
0
  6
Continuous
 62
     7
100
AcDbCircle
 10
-202.7574462890625
 20
109.6358871459961
 30
0.0
 40
2.0
100
AcDbArc
 50
270.0000000000005
 51
355.1797639697097
  0
ARC
  5
1CA
330
22
100
AcDbEntity
  8
0
  6
Continuous
 62
     7
100
AcDbCircle
 10
-206.2911224365234
 20
113.1358871459961
 30
0.0
 40
1.5
100
AcDbArc
 50
180.0000000000004
 51
270.0000000000005
  0
ARC
  5
1CB
330
22
100
AcDbEntity
  8
0
  6
Continuous
 62
     7
100
AcDbCircle
 10
-204.3911285400391
 20
112.1358871459961
 30
0.0
 40
0.5
100
AcDbArc
 50
270.0000000000005
 51
0.0
  0
ARC
  5
1CC
330
22
100
AcDbEntity
  8
0
  6
Continuous
 62
     7
100
AcDbCircle
 10
-198.3920593261719
 20
119.7508850097656
 30
0.0
 40
1.5
100
AcDbArc
 50
90.00000000000019
 51
175.1797272374731
  0
ARC
  5
1CD
330
22
100
AcDbEntity
  8
0
  6
Continuous
 62
     7
100
AcDbCircle
 10
-208.7911224365234
 20
113.2853469848633
 30
0.0
 40
1.0
100
AcDbArc
 50
0.0
 51
90.00000000000019
  0
ARC
  5
1CE
330
22
100
AcDbEntity
  8
0
  6
Continuous
 62
     7
100
AcDbCircle
 10
-174.3818359375
 20
125.1358871459961
 30
0.0
 40
0.5
100
AcDbArc
 50
350.0001234095527
 51
90.00000000000019
  0
ARC
  5
1CF
330
22
100
AcDbEntity
  8
0
  6
Continuous
 62
     7
100
AcDbCircle
 10
-184.2648010253906
 20
119.7508850097656
 30
0.0
 40
1.5
100
AcDbArc
 50
4.653284038258425
 51
90.00000000000019
  0
ARC
  5
1D0
330
22
100
AcDbEntity
  8
0
  6
Continuous
 62
     7
100
AcDbCircle
 10
-160.5359497070313
 20
125.3858871459961
 30
0.0
 40
1.25
100
AcDbArc
 50
0.0
 51
168.4630577682079
  0
ARC
  5
1D1
330
22
100
AcDbEntity
  8
0
  6
Continuous
 62
     7
100
AcDbCircle
 10
-214.5115203857422
 20
106.6358871459961
 30
0.0
 40
1.0
100
AcDbArc
 50
90.00000000000019
 51
180.0000000000004
  0
CIRCLE
  5
1D2
330
22
100
AcDbEntity
  8
0
  6
Continuous
 62
     7
100
AcDbCircle
 10
-204.7911224365234
 20
115.3358840942383
 30
0.0
 40
1.0
  0
ARC
  5
1D3
330
22
100
AcDbEntity
  8
0
  6
Continuous
 62
     7
100
AcDbCircle
 10
-221.7859497070314
 20
213.2570953369141
 30
0.0
 40
4.449999809265136
100
AcDbArc
 50
213.4054692351411
 51
326.5944225994533
  0
ARC
  5
1D4
330
22
100
AcDbEntity
  8
0
  6
Continuous
 62
     7
100
AcDbCircle
 10
-201.3938140869141
 20
125.1358871459961
 30
0.0
 40
0.5
100
AcDbArc
 50
90.00000000000019
 51
167.0002719250218
  0
ARC
  5
1D5
330
22
100
AcDbEntity
  8
0
  6
Continuous
 62
     7
100
AcDbCircle
 10
-221.7859497070314
 20
213.2570953369141
 30
0.0
 40
4.449999809265136
100
AcDbArc
 50
33.40574140741593
 51
146.5943667582564
  0
ARC
  5
1D6
330
22
100
AcDbEntity
  8
0
  6
Continuous
 62
     7
100
AcDbCircle
 10
-169.2485504150391
 20
121.3858871459961
 30
0.0
 40
1.25
100
AcDbArc
 50
90.00000000000019
 51
169.3803017594109
  0
CIRCLE
  5
1D7
330
22
100
AcDbEntity
  8
0
  6
Continuous
 62
     7
100
AcDbCircle
 10
-221.7859497070314
 20
213.2570953369141
 30
0.0
 40
60.0
  0
CIRCLE
  5
1D8
330
22
100
AcDbEntity
  8
0
  6
Continuous
 62
     7
100
AcDbCircle
 10
-221.7859497070314
 20
213.2570953369141
 30
0.0
 40
48.0
  0
CIRCLE
  5
1D9
330
22
100
AcDbEntity
  8
0
  6
Continuous
 62
     7
100
AcDbCircle
 10
-221.7859497070314
 20
213.2570953369141
 30
0.0
 40
62.5
  0
ARC
  5
1DA
330
22
100
AcDbEntity
  8
0
  6
Continuous
 62
     7
100
AcDbCircle
 10
-202.4201202392578
 20
125.1358871459961
 30
0.0
 40
0.5
100
AcDbArc
 50
347.0006652409353
 51
90.00000000000019
  0
CIRCLE
  5
1DB
330
22
100
AcDbEntity
  8
0
  6
Continuous
 62
     7
100
AcDbCircle
 10
-221.7859497070314
 20
213.2570953369141
 30
0.0
 40
20.0
  0
TEXT
  5
1DC
330
22
100
AcDbEntity
  8
0
  6
Continuous
 62
     7
100
AcDbText
 10
-137.2464075088501
 20
152.3490905761719
 30
0.0
 40
7.0
  1
ＤＬ－ＣＨＧ－６５
 41
0.8448610808647003
100
AcDbText
  0
SOLID
  5
1DD
330
22
100
AcDbEntity
  8
0
  6
Continuous
 62
     7
100
AcDbTrace
 10
-178.4779510498047
 20
101.8922348022461
 30
0.0
 11
-178.6894378662109
 21
101.8922348022461
 31
0.0
 12
-178.3006286621094
 22
101.9248352050781
 32
0.0
 13
-178.8417510986328
 23
101.9248352050781
 33
0.0
  0
SOLID
  5
1DE
330
22
100
AcDbEntity
  8
0
  6
Continuous
 62
     7
100
AcDbTrace
 10
-178.3006286621094
 20
101.9248352050781
 30
0.0
 11
-178.8417510986328
 21
101.9248352050781
 31
0.0
 12
-178.2794036865234
 22
101.9332656860352
 32
0.0
 13
-178.8811340332031
 23
101.9332656860352
 33
0.0
  0
SOLID
  5
1DF
330
22
100
AcDbEntity
  8
0
  6
Continuous
 62
     7
100
AcDbTrace
 10
-178.2794036865234
 20
101.9332656860352
 30
0.0
 11
-178.8811340332031
 21
101.9332656860352
 31
0.0
 12
-178.1184387207031
 22
101.9972152709961
 32
0.0
 13
-179.0294036865234
 23
101.9972152709961
 33
0.0
  0
SOLID
  5
1E0
330
22
100
AcDbEntity
  8
0
  6
Continuous
 62
     7
100
AcDbTrace
 10
-178.1184387207031
 20
101.9972152709961
 30
0.0
 11
-179.0294036865234
 21
101.9972152709961
 31
0.0
 12
-178.0972900390625
 22
102.0109024047852
 32
0.0
 13
-179.0611419677734
 23
102.0109024047852
 33
0.0
  0
SOLID
  5
1E1
330
22
100
AcDbEntity
  8
0
  6
Continuous
 62
     7
100
AcDbTrace
 10
-178.0972900390625
 20
102.0109024047852
 30
0.0
 11
-179.0611419677734
 21
102.0109024047852
 31
0.0
 12
-177.9538879394531
 22
102.1037445068359
 32
0.0
 13
-179.1958160400391
 23
102.1037445068359
 33
0.0
  0
SOLID
  5
1E2
330
22
100
AcDbEntity
  8
0
  6
Continuous
 62
     7
100
AcDbTrace
 10
-177.9538879394531
 20
102.1037445068359
 30
0.0
 11
-179.1958160400391
 21
102.1037445068359
 31
0.0
 12
-177.9349212646484
 22
102.1221694946289
 32
0.0
 13
-179.2225341796875
 23
102.1221694946289
 33
0.0
  0
SOLID
  5
1E3
330
22
100
AcDbEntity
  8
0
  6
Continuous
 62
     7
100
AcDbTrace
 10
-177.9349212646484
 20
102.1221694946289
 30
0.0
 11
-179.2225341796875
 21
102.1221694946289
 31
0.0
 12
-177.8132629394531
 22
102.2403335571289
 32
0.0
 13
-179.3373260498047
 23
102.2403335571289
 33
0.0
  0
SOLID
  5
1E4
330
22
100
AcDbEntity
  8
0
  6
Continuous
 62
     7
100
AcDbTrace
 10
-177.8132629394531
 20
102.2403335571289
 30
0.0
 11
-179.3373260498047
 21
102.2403335571289
 31
0.0
 12
-177.7977905273438
 22
102.2627868652344
 32
0.0
 13
-179.359130859375
 23
102.2627868652344
 33
0.0
  0
SOLID
  5
1E5
330
22
100
AcDbEntity
  8
0
  6
Continuous
 62
     7
100
AcDbTrace
 10
-177.7977905273438
 20
102.2627868652344
 30
0.0
 11
-179.359130859375
 21
102.2627868652344
 31
0.0
 12
-177.7019958496094
 22
102.4017333984375
 32
0.0
 13
-179.4490814208984
 23
102.4017333984375
 33
0.0
  0
SOLID
  5
1E6
330
22
100
AcDbEntity
  8
0
  6
Continuous
 62
     7
100
AcDbTrace
 10
-177.7019958496094
 20
102.4017333984375
 30
0.0
 11
-179.4490814208984
 21
102.4017333984375
 31
0.0
 12
-177.6901702880859
 22
102.4273452758789
 32
0.0
 13
-179.4656524658203
 23
102.4273452758789
 33
0.0
  0
SOLID
  5
1E7
330
22
100
AcDbEntity
  8
0
  6
Continuous
 62
     7
100
AcDbTrace
 10
-177.6901702880859
 20
102.4273452758789
 30
0.0
 11
-179.4656524658203
 21
102.4273452758789
 31
0.0
 12
-177.6410675048828
 22
102.5336532592773
 32
0.0
 13
-179.5078887939453
 23
102.5336532592773
 33
0.0
  0
SOLID
  5
1E8
330
22
100
AcDbEntity
  8
0
  6
Continuous
 62
     7
100
AcDbTrace
 10
-177.6410675048828
 20
102.5336532592773
 30
0.0
 11
-179.5078887939453
 21
102.5336532592773
 31
0.0
 12
-177.6380462646484
 22
102.6095275878906
 32
0.0
 13
-179.5380401611328
 23
102.6095275878906
 33
0.0
  0
SOLID
  5
1E9
330
22
100
AcDbEntity
  8
0
  6
Continuous
 62
     7
100
AcDbTrace
 10
-177.6380462646484
 20
102.6095275878906
 30
0.0
 11
-179.5380401611328
 21
102.6095275878906
 31
0.0
 12
-177.6303253173828
 22
102.8023300170898
 32
0.0
 13
-179.573486328125
 23
102.8023300170898
 33
0.0
  0
SOLID
  5
1EA
330
22
100
AcDbEntity
  8
0
  6
Continuous
 62
     7
100
AcDbTrace
 10
-177.6303253173828
 20
102.8023300170898
 30
0.0
 11
-179.573486328125
 21
102.8023300170898
 31
0.0
 12
-177.6224822998047
 22
102.9983444213867
 32
0.0
 13
-179.5706481933594
 23
102.9983444213867
 33
0.0
  0
SOLID
  5
1EB
330
22
100
AcDbEntity
  8
0
  6
Continuous
 62
     7
100
AcDbTrace
 10
-177.6224822998047
 20
102.9983444213867
 30
0.0
 11
-179.5706481933594
 21
102.9983444213867
 31
0.0
 12
-177.6159362792969
 22
103.1622467041016
 32
0.0
 13
-179.5355529785156
 23
103.1622467041016
 33
0.0
  0
SOLID
  5
1EC
330
22
100
AcDbEntity
  8
0
  6
Continuous
 62
     7
100
AcDbTrace
 10
-177.6159362792969
 20
103.1622467041016
 30
0.0
 11
-179.5355529785156
 21
103.1622467041016
 31
0.0
 12
-177.6269683837891
 22
103.1900329589844
 32
0.0
 13
-179.5296020507813
 23
103.1900329589844
 33
0.0
  0
SOLID
  5
1ED
330
22
100
AcDbEntity
  8
0
  6
Continuous
 62
     7
100
AcDbTrace
 10
-177.6269683837891
 20
103.1900329589844
 30
0.0
 11
-179.5296020507813
 21
103.1900329589844
 31
0.0
 12
-177.6883087158203
 22
103.3444290161133
 32
0.0
 13
-179.4630126953125
 23
103.3444290161133
 33
0.0
  0
SOLID
  5
1EE
330
22
100
AcDbEntity
  8
0
  6
Continuous
 62
     7
100
AcDbTrace
 10
-177.6883087158203
 20
103.3444290161133
 30
0.0
 11
-179.4630126953125
 21
103.3444290161133
 31
0.0
 12
-177.7048950195313
 22
103.3700408935547
 32
0.0
 13
-179.4519653320313
 23
103.3700408935547
 33
0.0
  0
SOLID
  5
1EF
330
22
100
AcDbEntity
  8
0
  6
Continuous
 62
     7
100
AcDbTrace
 10
-177.7048950195313
 20
103.3700408935547
 30
0.0
 11
-179.4519653320313
 21
103.3700408935547
 31
0.0
 12
-177.7948455810547
 22
103.5089874267578
 32
0.0
 13
-179.3561706542969
 23
103.5089874267578
 33
0.0
  0
SOLID
  5
1F0
330
22
100
AcDbEntity
  8
0
  6
Continuous
 62
     7
100
AcDbTrace
 10
-177.7948455810547
 20
103.5089874267578
 30
0.0
 11
-179.3561706542969
 21
103.5089874267578
 31
0.0
 12
-177.816650390625
 22
103.5314407348633
 32
0.0
 13
-179.3406982421875
 23
103.5314407348633
 33
0.0
  0
SOLID
  5
1F1
330
22
100
AcDbEntity
  8
0
  6
Continuous
 62
     7
100
AcDbTrace
 10
-177.816650390625
 20
103.5314407348633
 30
0.0
 11
-179.3406982421875
 21
103.5314407348633
 31
0.0
 12
-177.9314270019531
 22
103.6496047973633
 32
0.0
 13
-179.2190551757813
 23
103.6496047973633
 33
0.0
  0
SOLID
  5
1F2
330
22
100
AcDbEntity
  8
0
  6
Continuous
 62
     7
100
AcDbTrace
 10
-177.9314270019531
 20
103.6496047973633
 30
0.0
 11
-179.2190551757813
 21
103.6496047973633
 31
0.0
 12
-177.9581604003906
 22
103.6680297851563
 32
0.0
 13
-179.2000885009766
 23
103.6680297851563
 33
0.0
  0
SOLID
  5
1F3
330
22
100
AcDbEntity
  8
0
  6
Continuous
 62
     7
100
AcDbTrace
 10
-177.9581604003906
 20
103.6680297851563
 30
0.0
 11
-179.2000885009766
 21
103.6680297851563
 31
0.0
 12
-178.0928344726563
 22
103.760871887207
 32
0.0
 13
-179.0566711425781
 23
103.760871887207
 33
0.0
  0
SOLID
  5
1F4
330
22
100
AcDbEntity
  8
0
  6
Continuous
 62
     7
100
AcDbTrace
 10
-178.0928344726563
 20
103.760871887207
 30
0.0
 11
-179.0566711425781
 21
103.760871887207
 31
0.0
 12
-178.1245727539063
 22
103.7745590209961
 32
0.0
 13
-179.0355224609375
 23
103.7745590209961
 33
0.0
  0
SOLID
  5
1F5
330
22
100
AcDbEntity
  8
0
  6
Continuous
 62
     7
100
AcDbTrace
 10
-178.1245727539063
 20
103.7745590209961
 30
0.0
 11
-179.0355224609375
 21
103.7745590209961
 31
0.0
 12
-178.2728424072266
 22
103.838508605957
 32
0.0
 13
-178.8745574951172
 23
103.838508605957
 33
0.0
  0
SOLID
  5
1F6
330
22
100
AcDbEntity
  8
0
  6
Continuous
 62
     7
100
AcDbTrace
 10
-178.2728424072266
 20
103.838508605957
 30
0.0
 11
-178.8745574951172
 21
103.838508605957
 31
0.0
 12
-178.3122253417969
 22
103.8469390869141
 32
0.0
 13
-178.8533477783203
 23
103.8469390869141
 33
0.0
  0
SOLID
  5
1F7
330
22
100
AcDbEntity
  8
0
  6
Continuous
 62
     7
100
AcDbTrace
 10
-178.3122253417969
 20
103.8469390869141
 30
0.0
 11
-178.8533477783203
 21
103.8469390869141
 31
0.0
 12
-178.4645233154297
 22
103.8795471191406
 32
0.0
 13
-178.676025390625
 23
103.8795471191406
 33
0.0
  0
SOLID
  5
1F8
330
22
100
AcDbEntity
  8
0
  6
Continuous
 62
     7
100
AcDbTrace
 10
-178.4645233154297
 20
103.8795471191406
 30
0.0
 11
-178.676025390625
 21
103.8795471191406
 31
0.0
 12
-178.6605377197266
 22
103.8823928833008
 32
0.0
 13
-178.6605377197266
 23
103.8823928833008
 33
0.0
  0
SOLID
  5
1F9
330
22
100
AcDbEntity
  8
0
  6
Continuous
 62
     7
100
AcDbTrace
 10
-178.4934234619141
 20
101.8893814086914
 30
0.0
 11
-178.6894378662109
 21
101.8922348022461
 31
0.0
 12
-178.4779510498047
 22
101.8922348022461
 32
0.0
 13
-178.4779510498047
 23
101.8922348022461
 33
0.0
  0
SOLID
  5
1FA
330
22
100
AcDbEntity
  8
0
  6
Continuous
 62
     7
100
AcDbTrace
 10
-204.6843414306641
 20
114.3451461791992
 30
0.0
 11
-204.9268951416016
 21
114.3451461791992
 31
0.0
 12
-204.5374145507814
 22
114.3686065673828
 32
0.0
 13
-205.025146484375
 23
114.3686065673828
 33
0.0
  0
SOLID
  5
1FB
330
22
100
AcDbEntity
  8
0
  6
Continuous
 62
     7
100
AcDbTrace
 10
-204.5374145507814
 20
114.3686065673828
 30
0.0
 11
-205.025146484375
 21
114.3686065673828
 31
0.0
 12
-204.4778442382813
 22
114.3906707763672
 32
0.0
 13
-205.1175689697266
 23
114.3906707763672
 33
0.0
  0
SOLID
  5
1FC
330
22
100
AcDbEntity
  8
0
  6
Continuous
 62
     7
100
AcDbTrace
 10
-204.4778442382813
 20
114.3906707763672
 30
0.0
 11
-205.1175689697266
 21
114.3906707763672
 31
0.0
 12
-204.3535766601563
 22
114.4366912841797
 32
0.0
 13
-205.2177124023438
 23
114.4366912841797
 33
0.0
  0
SOLID
  5
1FD
330
22
100
AcDbEntity
  8
0
  6
Continuous
 62
     7
100
AcDbTrace
 10
-204.3535766601563
 20
114.4366912841797
 30
0.0
 11
-205.2177124023438
 21
114.4366912841797
 31
0.0
 12
-204.2952880859375
 22
114.4725189208984
 32
0.0
 13
-205.2957000732422
 23
114.4725189208984
 33
0.0
  0
SOLID
  5
1FE
330
22
100
AcDbEntity
  8
0
  6
Continuous
 62
     7
100
AcDbTrace
 10
-204.2952880859375
 20
114.4725189208984
 30
0.0
 11
-205.2957000732422
 21
114.4725189208984
 31
0.0
 12
-204.1865692138672
 22
114.5393295288086
 32
0.0
 13
-205.3878936767578
 23
114.5393295288086
 33
0.0
  0
SOLID
  5
1FF
330
22
100
AcDbEntity
  8
0
  6
Continuous
 62
     7
100
AcDbTrace
 10
-204.1865692138672
 20
114.5393295288086
 30
0.0
 11
-205.3878936767578
 21
114.5393295288086
 31
0.0
 12
-204.1345367431641
 22
114.5875473022461
 32
0.0
 13
-205.4544372558594
 23
114.5875473022461
 33
0.0
  0
SOLID
  5
200
330
22
100
AcDbEntity
  8
0
  6
Continuous
 62
     7
100
AcDbTrace
 10
-204.1345367431641
 20
114.5875473022461
 30
0.0
 11
-205.4544372558594
 21
114.5875473022461
 31
0.0
 12
-204.0427856445313
 22
114.6725769042969
 32
0.0
 13
-205.5332336425781
 23
114.6725769042969
 33
0.0
  0
SOLID
  5
201
330
22
100
AcDbEntity
  8
0
  6
Continuous
 62
     7
100
AcDbTrace
 10
-204.0427856445313
 20
114.6725769042969
 30
0.0
 11
-205.5332336425781
 21
114.6725769042969
 31
0.0
 12
-204.0002136230469
 22
114.731330871582
 32
0.0
 13
-205.5876922607422
 23
114.731330871582
 33
0.0
  0
SOLID
  5
202
330
22
100
AcDbEntity
  8
0
  6
Continuous
 62
     7
100
AcDbTrace
 10
-204.0002136230469
 20
114.731330871582
 30
0.0
 11
-205.5876922607422
 21
114.731330871582
 31
0.0
 12
-203.9277496337891
 22
114.8313140869141
 32
0.0
 13
-205.6491241455078
 23
114.8313140869141
 33
0.0
  0
SOLID
  5
203
330
22
100
AcDbEntity
  8
0
  6
Continuous
 62
     7
100
AcDbTrace
 10
-203.9277496337891
 20
114.8313140869141
 30
0.0
 11
-205.6491241455078
 21
114.8313140869141
 31
0.0
 12
-203.8969573974609
 22
114.8983459472656
 32
0.0
 13
-205.6903228759766
 23
114.8983459472656
 33
0.0
  0
SOLID
  5
204
330
22
100
AcDbEntity
  8
0
  6
Continuous
 62
     7
100
AcDbTrace
 10
-203.8969573974609
 20
114.8983459472656
 30
0.0
 11
-205.6903228759766
 21
114.8983459472656
 31
0.0
 12
-203.8459014892578
 22
115.0094451904297
 32
0.0
 13
-205.7314605712891
 23
115.0094451904297
 33
0.0
  0
SOLID
  5
205
330
22
100
AcDbEntity
  8
0
  6
Continuous
 62
     7
100
AcDbTrace
 10
-203.8459014892578
 20
115.0094451904297
 30
0.0
 11
-205.7314605712891
 21
115.0094451904297
 31
0.0
 12
-203.8285369873047
 22
115.0821762084961
 32
0.0
 13
-205.7584075927734
 23
115.0821762084961
 33
0.0
  0
SOLID
  5
206
330
22
100
AcDbEntity
  8
0
  6
Continuous
 62
     7
100
AcDbTrace
 10
-203.8285369873047
 20
115.0821762084961
 30
0.0
 11
-205.7584075927734
 21
115.0821762084961
 31
0.0
 12
-203.8003845214844
 22
115.2001190185547
 32
0.0
 13
-205.7772369384766
 23
115.2001190185547
 33
0.0
  0
SOLID
  5
207
330
22
100
AcDbEntity
  8
0
  6
Continuous
 62
     7
100
AcDbTrace
 10
-203.8003845214844
 20
115.2001190185547
 30
0.0
 11
-205.7772369384766
 21
115.2001190185547
 31
0.0
 12
-203.7929382324219
 22
115.275764465332
 32
0.0
 13
-205.7893218994141
 23
115.275764465332
 33
0.0
  0
SOLID
  5
208
330
22
100
AcDbEntity
  8
0
  6
Continuous
 62
     7
100
AcDbTrace
 10
-203.7929382324219
 20
115.275764465332
 30
0.0
 11
-205.7893218994141
 21
115.275764465332
 31
0.0
 12
-203.7929382324219
 22
115.3960113525391
 32
0.0
 13
-205.7847442626953
 23
115.3960113525391
 33
0.0
  0
SOLID
  5
209
330
22
100
AcDbEntity
  8
0
  6
Continuous
 62
     7
100
AcDbTrace
 10
-203.7929382324219
 20
115.3960113525391
 30
0.0
 11
-205.7847442626953
 21
115.3960113525391
 31
0.0
 12
-203.8050079345703
 22
115.4716567993164
 32
0.0
 13
-205.7818603515625
 23
115.4716567993164
 33
0.0
  0
SOLID
  5
20A
330
22
100
AcDbEntity
  8
0
  6
Continuous
 62
     7
100
AcDbTrace
 10
-203.8050079345703
 20
115.4716567993164
 30
0.0
 11
-205.7818603515625
 21
115.4716567993164
 31
0.0
 12
-203.8238372802734
 22
115.589599609375
 32
0.0
 13
-205.7537078857422
 23
115.589599609375
 33
0.0
  0
SOLID
  5
20B
330
22
100
AcDbEntity
  8
0
  6
Continuous
 62
     7
100
AcDbTrace
 10
-203.8238372802734
 20
115.589599609375
 30
0.0
 11
-205.7537078857422
 21
115.589599609375
 31
0.0
 12
-203.8507843017578
 22
115.6623306274414
 32
0.0
 13
-205.7363433837891
 23
115.6623306274414
 33
0.0
  0
SOLID
  5
20C
330
22
100
AcDbEntity
  8
0
  6
Continuous
 62
     7
100
AcDbTrace
 10
-203.8507843017578
 20
115.6623306274414
 30
0.0
 11
-205.7363433837891
 21
115.6623306274414
 31
0.0
 12
-203.8919219970703
 22
115.7734298706055
 32
0.0
 13
-205.6852874755859
 23
115.7734298706055
 33
0.0
  0
SOLID
  5
20D
330
22
100
AcDbEntity
  8
0
  6
Continuous
 62
     7
100
AcDbTrace
 10
-203.8919219970703
 20
115.7734298706055
 30
0.0
 11
-205.6852874755859
 21
115.7734298706055
 31
0.0
 12
-203.9331207275391
 22
115.840461730957
 32
0.0
 13
-205.6544952392578
 23
115.840461730957
 33
0.0
  0
SOLID
  5
20E
330
22
100
AcDbEntity
  8
0
  6
Continuous
 62
     7
100
AcDbTrace
 10
-203.9331207275391
 20
115.840461730957
 30
0.0
 11
-205.6544952392578
 21
115.840461730957
 31
0.0
 12
-203.9945678710938
 22
115.9404449462891
 32
0.0
 13
-205.5820465087891
 23
115.9404449462891
 33
0.0
  0
SOLID
  5
20F
330
22
100
AcDbEntity
  8
0
  6
Continuous
 62
     7
100
AcDbTrace
 10
-203.9945678710938
 20
115.9404449462891
 30
0.0
 11
-205.5820465087891
 21
115.9404449462891
 31
0.0
 12
-204.0490112304688
 22
115.9991989135742
 32
0.0
 13
-205.5394744873047
 23
115.9991989135742
 33
0.0
  0
SOLID
  5
210
330
22
100
AcDbEntity
  8
0
  6
Continuous
 62
     7
100
AcDbTrace
 10
-204.0490112304688
 20
115.9991989135742
 30
0.0
 11
-205.5394744873047
 21
115.9991989135742
 31
0.0
 12
-204.1278076171875
 22
116.084228515625
 32
0.0
 13
-205.4477081298828
 23
116.084228515625
 33
0.0
  0
SOLID
  5
211
330
22
100
AcDbEntity
  8
0
  6
Continuous
 62
     7
100
AcDbTrace
 10
-204.1278076171875
 20
116.084228515625
 30
0.0
 11
-205.4477081298828
 21
116.084228515625
 31
0.0
 12
-204.1943511962891
 22
116.1324462890625
 32
0.0
 13
-205.3956756591797
 23
116.1324462890625
 33
0.0
  0
SOLID
  5
212
330
22
100
AcDbEntity
  8
0
  6
Continuous
 62
     7
100
AcDbTrace
 10
-204.1943511962891
 20
116.1324462890625
 30
0.0
 11
-205.3956756591797
 21
116.1324462890625
 31
0.0
 12
-204.2865447998047
 22
116.1992568969727
 32
0.0
 13
-205.2869720458984
 23
116.1992568969727
 33
0.0
  0
SOLID
  5
213
330
22
100
AcDbEntity
  8
0
  6
Continuous
 62
     7
100
AcDbTrace
 10
-204.2865447998047
 20
116.1992568969727
 30
0.0
 11
-205.2869720458984
 21
116.1992568969727
 31
0.0
 12
-204.3645324707031
 22
116.2350845336914
 32
0.0
 13
-205.2286682128906
 23
116.2350845336914
 33
0.0
  0
SOLID
  5
214
330
22
100
AcDbEntity
  8
0
  6
Continuous
 62
     7
100
AcDbTrace
 10
-204.3645324707031
 20
116.2350845336914
 30
0.0
 11
-205.2286682128906
 21
116.2350845336914
 31
0.0
 12
-204.4646759033203
 22
116.2811050415039
 32
0.0
 13
-205.1044006347656
 23
116.2811050415039
 33
0.0
  0
SOLID
  5
215
330
22
100
AcDbEntity
  8
0
  6
Continuous
 62
     7
100
AcDbTrace
 10
-204.4646759033203
 20
116.2811050415039
 30
0.0
 11
-205.1044006347656
 21
116.2811050415039
 31
0.0
 12
-204.5570983886719
 22
116.3031692504883
 32
0.0
 13
-205.0448303222656
 23
116.3031692504883
 33
0.0
  0
SOLID
  5
216
330
22
100
AcDbEntity
  8
0
  6
Continuous
 62
     7
100
AcDbTrace
 10
-204.5570983886719
 20
116.3031692504883
 30
0.0
 11
-205.0448303222656
 21
116.3031692504883
 31
0.0
 12
-204.6553649902344
 22
116.3266296386719
 32
0.0
 13
-204.8979034423828
 23
116.3266296386719
 33
0.0
  0
SOLID
  5
217
330
22
100
AcDbEntity
  8
0
  6
Continuous
 62
     7
100
AcDbTrace
 10
-204.6553649902344
 20
116.3266296386719
 30
0.0
 11
-204.8979034423828
 21
116.3266296386719
 31
0.0
 12
-204.8512573242188
 22
116.3340759277344
 32
0.0
 13
-204.8512573242188
 23
116.3340759277344
 33
0.0
  0
SOLID
  5
218
330
22
100
AcDbEntity
  8
0
  6
Continuous
 62
     7
100
AcDbTrace
 10
-204.7310028076172
 20
114.3376998901367
 30
0.0
 11
-204.9268951416016
 21
114.3451461791992
 31
0.0
 12
-204.6843414306641
 22
114.3451461791992
 32
0.0
 13
-204.6843414306641
 23
114.3451461791992
 33
0.0
  0
DIMENSION
  5
219
330
22
100
AcDbEntity
  8
0
  6
Continuous
 62
     7
100
AcDbDimension
  2
*D1
 10
-279.7370503882265
 20
189.8494057918528
 30
0.0
 11
-141.8443908691406
 21
245.5472106933594
 31
0.0
 70
     3
 71
     5
 42
-1.0
  3
DIMSTYLE1
100
AcDbDiametricDimension
 15
-163.834849025836
 25
236.6647848819754
 35
0.0
 40
0.0
  0
DIMENSION
  5
21A
330
22
100
AcDbEntity
  8
0
  6
Continuous
 62
     7
100
AcDbDimension
  2
*D2
 10
-269.2484073619672
 20
206.0936385349635
 30
0.0
 11
-136.6005249023438
 21
226.1140441894531
 31
0.0
 70
     3
 71
     5
 42
-1.0
  3
DIMSTYLE2
100
AcDbDiametricDimension
 15
-174.3234920520953
 25
220.4205521388647
 35
0.0
 40
0.0
  0
DIMENSION
  5
21B
330
22
100
AcDbEntity
  8
0
  6
Continuous
 62
     7
100
AcDbDimension
  2
*D3
 10
-240.9804822471746
 20
220.4744536119906
 30
0.0
 11
-145.2374877929688
 21
188.4815673828125
 31
0.0
 70
     3
 71
     5
 42
-1.0
  3
DIMSTYLE3
100
AcDbDiametricDimension
 15
-203.0424974891535
 25
207.7973359387906
 35
0.0
 40
0.0
  0
INSERT
  5
21C
330
22
100
AcDbEntity
  8
0
  6
Continuous
 62
     7
100
AcDbBlockReference
  2
KOZU0001
 10
-185.8549194335938
 20
76.96269226074218
 30
0.0
  0
DIMENSION
  5
21D
330
22
100
AcDbEntity
  8
0
  6
Continuous
 62
     7
100
AcDbDimension
  2
*D4
 10
-121.3726348876953
 20
126.6358871459961
 30
0.0
 11
-121.3726348876953
 21
99.13588714599608
 31
0.0
 71
     5
 42
-1.0
  3
DIMSTYLE4
100
AcDbAlignedDimension
 13
-174.2859497070313
 23
71.63588714599609
 33
0.0
 14
-160.5359497070313
 24
126.6358871459961
 34
0.0
 50
90.0
100
AcDbRotatedDimension
  0
ENDSEC
  0
SECTION
  2
OBJECTS
  0
DICTIONARY
  5
C
330
0
100
AcDbDictionary
281
     1
  3
ACAD_COLOR
350
1B
  3
ACAD_GROUP
350
D
  3
ACAD_LAYOUT
350
19
  3
ACAD_MATERIAL
350
1A
  3
ACAD_MLINESTYLE
350
16
  3
ACAD_PLOTSETTINGS
350
18
  3
ACAD_PLOTSTYLENAME
350
E
  3
ACAD_TABLESTYLE
350
1C
  3
AcDbVariableDictionary
350
22A
  0
DICTIONARY
  5
1B
102
{ACAD_REACTORS
330
C
102
}
330
C
100
AcDbDictionary
281
     1
  0
DICTIONARY
  5
D
102
{ACAD_REACTORS
330
C
102
}
330
C
100
AcDbDictionary
281
     1
  0
DICTIONARY
  5
19
102
{ACAD_REACTORS
330
C
102
}
330
C
100
AcDbDictionary
281
     1
  3
Model
350
25
  3
レイアウト1
350
21
  0
DICTIONARY
  5
1A
102
{ACAD_REACTORS
330
C
102
}
330
C
100
AcDbDictionary
281
     1
  0
DICTIONARY
  5
16
102
{ACAD_REACTORS
330
C
102
}
330
C
100
AcDbDictionary
281
     1
  3
Standard
350
17
  0
DICTIONARY
  5
18
102
{ACAD_REACTORS
330
C
102
}
330
C
100
AcDbDictionary
281
     1
  0
ACDBDICTIONARYWDFLT
  5
E
102
{ACAD_REACTORS
330
C
102
}
330
C
100
AcDbDictionary
281
     1
  3
Normal
350
F
100
AcDbDictionaryWithDefault
340
F
  0
DICTIONARY
  5
1C
102
{ACAD_REACTORS
330
C
102
}
330
C
100
AcDbDictionary
281
     1
  3
Standard
350
1D
  0
DICTIONARY
  5
22A
102
{ACAD_REACTORS
330
C
102
}
330
C
100
AcDbDictionary
281
     1
  3
CTABLESTYLE
350
22B
  0
LAYOUT
  5
25
102
{ACAD_REACTORS
330
19
102
}
330
19
100
AcDbPlotSettings
  1

  2
PDF reDirect v2
  4
A3
  6

 40
3.174999952316284
 41
3.174999952316284
 42
3.17498779296875
 43
3.17498779296875
 44
297.0530090332031
 45
420.1583251953125
 46
0.0
 47
0.0
 48
0.0
 49
0.0
140
0.0
141
0.0
142
1.0
143
1.0
 70
 11952
 72
     1
 73
     1
 74
     2
  7
C:\Users\ck\AppData\Roaming\Autodesk\AutoCAD 2005\R16.1\jpn\Plot Styles\black.ctb
 75
    16
147
1.0
 76
     0
 77
     2
 78
   300
148
423.0
149
2.0
100
AcDbLayout
  1
Model
 70
     1
 71
     0
 10
0.0
 20
0.0
 11
12.0
 21
9.0
 12
0.0
 22
0.0
 32
0.0
 14
0.0
 24
0.0
 34
0.0
 15
0.0
 25
0.0
 35
0.0
146
0.0
 13
0.0
 23
0.0
 33
0.0
 16
1.0
 26
0.0
 36
0.0
 17
0.0
 27
1.0
 37
0.0
 76
     0
330
22
1001
ACAD_PSEXT
1000
PDF reDirect v2
1000
PDF reDirect Pro
1000
PDF_REDIRECT_PORT:
1000
PDF reDirect provided by EXP Systems
1070
     0
  0
LAYOUT
  5
21
102
{ACAD_REACTORS
330
19
102
}
330
19
100
AcDbPlotSettings
  1

  2
PDF reDirect v2
  4

  6

 40
0.0
 41
0.0
 42
0.0
 43
0.0
 44
0.0
 45
0.0
 46
0.0
 47
0.0
 48
0.0
 49
0.0
140
0.0
141
0.0
142
1.0
143
1.0
 70
   688
 72
     0
 73
     0
 74
     5
  7
C:\Users\ck\AppData\Roaming\Autodesk\AutoCAD 2005\R16.1\jpn\Plot Styles\black.ctb
 75
    16
147
1.0
 76
     0
 77
     2
 78
   300
148
0.0
149
0.0
100
AcDbLayout
  1
レイアウト1
 70
     1
 71
     1
 10
-423.0
 20
-2.0
 11
-5.0
 21
293.0
 12
0.0
 22
0.0
 32
0.0
 14
1.000000000000000E+20
 24
1.000000000000000E+20
 34
1.000000000000000E+20
 15
-1.000000000000000E+20
 25
-1.000000000000000E+20
 35
-1.000000000000000E+20
146
0.0
 13
0.0
 23
0.0
 33
0.0
 16
1.0
 26
0.0
 36
0.0
 17
0.0
 27
1.0
 37
0.0
 76
     0
330
1E
  0
MLINESTYLE
  5
17
102
{ACAD_REACTORS
330
16
102
}
330
16
100
AcDbMlineStyle
  2
STANDARD
 70
     0
  3

 62
   256
 51
90.0
 52
90.0
 71
     2
 49
0.5
 62
   256
  6
BYLAYER
 49
-0.5
 62
   256
  6
BYLAYER
  0
ACDBPLACEHOLDER
  5
F
102
{ACAD_REACTORS
330
E
102
}
330
E
  0
TABLESTYLE
  5
1D
102
{ACAD_REACTORS
330
1C
102
}
330
1C
100
AcDbTableStyle
  3
Standard
 70
     0
 71
     0
 40
0.06
 41
0.06
280
     0
281
     0
  7
STANDARD
140
0.18
170
     2
 62
     0
 63
     7
283
     0
274
    -2
284
     1
 64
     0
275
    -2
285
     1
 65
     0
276
    -2
286
     1
 66
     0
277
    -2
287
     1
 67
     0
278
    -2
288
     1
 68
     0
279
    -2
289
     1
 69
     0
  7
STANDARD
140
0.25
170
     5
 62
     0
 63
     7
283
     0
274
    -2
284
     1
 64
     0
275
    -2
285
     1
 65
     0
276
    -2
286
     1
 66
     0
277
    -2
287
     1
 67
     0
278
    -2
288
     1
 68
     0
279
    -2
289
     1
 69
     0
  7
STANDARD
140
0.18
170
     5
 62
     0
 63
     7
283
     0
274
    -2
284
     1
 64
     0
275
    -2
285
     1
 65
     0
276
    -2
286
     1
 66
     0
277
    -2
287
     1
 67
     0
278
    -2
288
     1
 68
     0
279
    -2
289
     1
 69
     0
  0
DICTIONARYVAR
  5
22B
102
{ACAD_REACTORS
330
22A
102
}
330
22A
100
DictionaryVariables
280
     0
  1
STANDARD
  0
ENDSEC
  0
EOF
