  0
SECTION
  2
HEADER
  9
$ACADVER
  1
AC1018
  9
$ACADMAINTVER
 70
    39
  9
$DWGCODEPAGE
  3
ANSI_932
  9
$INSBASE
 10
0.0
 20
0.0
 30
0.0
  9
$EXTMIN
 10
-303.1668690044512
 20
14.55593942682719
 30
-0.0015258207003583
  9
$EXTMAX
 10
-137.3981315051183
 20
266.8336951143966
 30
0.0000000349246037
  9
$LIMMIN
 10
-423.0
 20
-2.0
  9
$LIMMAX
 10
-5.0
 20
293.0
  9
$ORTHOMODE
 70
     0
  9
$REGENMODE
 70
     1
  9
$FILLMODE
 70
     1
  9
$QTEXTMODE
 70
     0
  9
$MIRRTEXT
 70
     0
  9
$LTSCALE
 40
1.0
  9
$ATTMODE
 70
     1
  9
$TEXTSIZE
 40
0.2
  9
$TRACEWID
 40
0.05
  9
$TEXTSTYLE
  7
STANDARD
  9
$CLAYER
  8
0
  9
$CELTYPE
  6
CONTINUOUS
  9
$CECOLOR
 62
   256
  9
$CELTSCALE
 40
1.0
  9
$DISPSILH
 70
     0
  9
$DIMSCALE
 40
1.0
  9
$DIMASZ
 40
1.0
  9
$DIMEXO
 40
2.54
  9
$DIMDLI
 40
0.38
  9
$DIMRND
 40
0.0
  9
$DIMDLE
 40
0.0
  9
$DIMEXE
 40
2.54
  9
$DIMTP
 40
0.0
  9
$DIMTM
 40
0.0
  9
$DIMTXT
 40
3.0
  9
$DIMCEN
 40
0.09
  9
$DIMTSZ
 40
0.0
  9
$DIMTOL
 70
     0
  9
$DIMLIM
 70
     0
  9
$DIMTIH
 70
     0
  9
$DIMTOH
 70
     0
  9
$DIMSE1
 70
     0
  9
$DIMSE2
 70
     0
  9
$DIMTAD
 70
     1
  9
$DIMZIN
 70
     0
  9
$DIMBLK
  1

  9
$DIMASO
 70
     1
  9
$DIMSHO
 70
     0
  9
$DIMPOST
  1

  9
$DIMAPOST
  1

  9
$DIMALT
 70
     0
  9
$DIMALTD
 70
     2
  9
$DIMALTF
 40
25.4
  9
$DIMLFAC
 40
1.0
  9
$DIMTOFL
 70
     0
  9
$DIMTVP
 40
1.0
  9
$DIMTIX
 70
     0
  9
$DIMSOXD
 70
     0
  9
$DIMSAH
 70
     1
  9
$DIMBLK1
  1

  9
$DIMBLK2
  1

  9
$DIMSTYLE
  2
DIMSTYLE1
  9
$DIMCLRD
 70
     0
  9
$DIMCLRE
 70
     0
  9
$DIMCLRT
 70
     0
  9
$DIMTFAC
 40
1.0
  9
$DIMGAP
 40
1.5
  9
$DIMJUST
 70
     0
  9
$DIMSD1
 70
     0
  9
$DIMSD2
 70
     0
  9
$DIMTOLJ
 70
     1
  9
$DIMTZIN
 70
     0
  9
$DIMALTZ
 70
     0
  9
$DIMALTTZ
 70
     0
  9
$DIMUPT
 70
     0
  9
$DIMDEC
 70
     4
  9
$DIMTDEC
 70
     4
  9
$DIMALTU
 70
     2
  9
$DIMALTTD
 70
     2
  9
$DIMTXSTY
  7
STANDARD
  9
$DIMAUNIT
 70
     0
  9
$DIMADEC
 70
     0
  9
$DIMALTRND
 40
0.0
  9
$DIMAZIN
 70
     0
  9
$DIMDSEP
 70
    46
  9
$DIMATFIT
 70
     3
  9
$DIMFRAC
 70
     0
  9
$DIMLDRBLK
  1

  9
$DIMLUNIT
 70
     2
  9
$DIMLWD
 70
    -2
  9
$DIMLWE
 70
    -2
  9
$DIMTMOVE
 70
     0
  9
$LUNITS
 70
     2
  9
$LUPREC
 70
     4
  9
$SKETCHINC
 40
0.1
  9
$FILLETRAD
 40
0.0
  9
$AUNITS
 70
     0
  9
$AUPREC
 70
     0
  9
$MENU
  1
.
  9
$ELEVATION
 40
0.0
  9
$PELEVATION
 40
0.0
  9
$THICKNESS
 40
0.0
  9
$LIMCHECK
 70
     0
  9
$CHAMFERA
 40
0.0
  9
$CHAMFERB
 40
0.0
  9
$CHAMFERC
 40
0.0
  9
$CHAMFERD
 40
0.0
  9
$SKPOLY
 70
     0
  9
$TDCREATE
 40
2457842.789014086
  9
$TDUCREATE
 40
2457842.414014085
  9
$TDUPDATE
 40
2457842.789561817
  9
$TDUUPDATE
 40
2457842.414561817
  9
$TDINDWG
 40
0.0005484259
  9
$TDUSRTIMER
 40
0.0005484259
  9
$USRTIMER
 70
     1
  9
$ANGBASE
 50
0.0
  9
$ANGDIR
 70
     0
  9
$PDMODE
 70
     0
  9
$PDSIZE
 40
0.0
  9
$PLINEWID
 40
0.0
  9
$SPLFRAME
 70
     0
  9
$SPLINETYPE
 70
     6
  9
$SPLINESEGS
 70
     8
  9
$HANDSEED
  5
1F0
  9
$SURFTAB1
 70
     6
  9
$SURFTAB2
 70
     6
  9
$SURFTYPE
 70
     6
  9
$SURFU
 70
     6
  9
$SURFV
 70
     6
  9
$UCSBASE
  2

  9
$UCSNAME
  2

  9
$UCSORG
 10
0.0
 20
0.0
 30
0.0
  9
$UCSXDIR
 10
1.0
 20
0.0
 30
0.0
  9
$UCSYDIR
 10
0.0
 20
1.0
 30
0.0
  9
$UCSORTHOREF
  2

  9
$UCSORTHOVIEW
 70
     0
  9
$UCSORGTOP
 10
0.0
 20
0.0
 30
0.0
  9
$UCSORGBOTTOM
 10
0.0
 20
0.0
 30
0.0
  9
$UCSORGLEFT
 10
0.0
 20
0.0
 30
0.0
  9
$UCSORGRIGHT
 10
0.0
 20
0.0
 30
0.0
  9
$UCSORGFRONT
 10
0.0
 20
0.0
 30
0.0
  9
$UCSORGBACK
 10
0.0
 20
0.0
 30
0.0
  9
$PUCSBASE
  2

  9
$PUCSNAME
  2

  9
$PUCSORG
 10
0.0
 20
0.0
 30
0.0
  9
$PUCSXDIR
 10
1.0
 20
0.0
 30
0.0
  9
$PUCSYDIR
 10
0.0
 20
1.0
 30
0.0
  9
$PUCSORTHOREF
  2

  9
$PUCSORTHOVIEW
 70
     0
  9
$PUCSORGTOP
 10
0.0
 20
0.0
 30
0.0
  9
$PUCSORGBOTTOM
 10
0.0
 20
0.0
 30
0.0
  9
$PUCSORGLEFT
 10
0.0
 20
0.0
 30
0.0
  9
$PUCSORGRIGHT
 10
0.0
 20
0.0
 30
0.0
  9
$PUCSORGFRONT
 10
0.0
 20
0.0
 30
0.0
  9
$PUCSORGBACK
 10
0.0
 20
0.0
 30
0.0
  9
$USERI1
 70
     0
  9
$USERI2
 70
     0
  9
$USERI3
 70
     0
  9
$USERI4
 70
     0
  9
$USERI5
 70
     0
  9
$USERR1
 40
0.0
  9
$USERR2
 40
0.0
  9
$USERR3
 40
0.0
  9
$USERR4
 40
0.0
  9
$USERR5
 40
0.0
  9
$WORLDVIEW
 70
     1
  9
$SHADEDGE
 70
     3
  9
$SHADEDIF
 70
    70
  9
$TILEMODE
 70
     1
  9
$MAXACTVP
 70
    64
  9
$PINSBASE
 10
0.0
 20
0.0
 30
0.0
  9
$PLIMCHECK
 70
     0
  9
$PEXTMIN
 10
1.000000000000000E+20
 20
1.000000000000000E+20
 30
1.000000000000000E+20
  9
$PEXTMAX
 10
-1.000000000000000E+20
 20
-1.000000000000000E+20
 30
-1.000000000000000E+20
  9
$PLIMMIN
 10
-423.0
 20
-2.0
  9
$PLIMMAX
 10
-5.0
 20
293.0
  9
$UNITMODE
 70
     0
  9
$VISRETAIN
 70
     1
  9
$PLINEGEN
 70
     0
  9
$PSLTSCALE
 70
     1
  9
$TREEDEPTH
 70
  3020
  9
$CMLSTYLE
  2
Standard
  9
$CMLJUST
 70
     0
  9
$CMLSCALE
 40
1.0
  9
$PROXYGRAPHICS
 70
     1
  9
$MEASUREMENT
 70
     0
  9
$CELWEIGHT
370
    -1
  9
$ENDCAPS
280
     0
  9
$JOINSTYLE
280
     0
  9
$LWDISPLAY
290
     0
  9
$INSUNITS
 70
     0
  9
$HYPERLINKBASE
  1

  9
$STYLESHEET
  1

  9
$XEDIT
290
     1
  9
$CEPSNTYPE
380
     0
  9
$PSTYLEMODE
290
     1
  9
$FINGERPRINTGUID
  2
{20E89C46-0403-4165-9D57-9B8AFF6C0134}
  9
$VERSIONGUID
  2
{30FC3711-9F3B-4B2A-8BCF-B7ADCC4C6259}
  9
$EXTNAMES
290
     1
  9
$PSVPSCALE
 40
0.0
  9
$OLESTARTUP
290
     0
  9
$SORTENTS
280
   127
  9
$INDEXCTL
280
     0
  9
$HIDETEXT
280
     0
  9
$XCLIPFRAME
290
     0
  9
$HALOGAP
280
     0
  9
$OBSCOLOR
 70
   257
  9
$OBSLTYPE
280
     0
  9
$INTERSECTIONDISPLAY
280
     0
  9
$INTERSECTIONCOLOR
 70
   257
  9
$DIMASSOC
280
     1
  9
$PROJECTNAME
  1

  0
ENDSEC
  0
SECTION
  2
CLASSES
  0
CLASS
  1
ACDBDICTIONARYWDFLT
  2
AcDbDictionaryWithDefault
  3
ObjectDBX Classes
 90
        0
 91
        1
280
     0
281
     0
  0
CLASS
  1
TABLESTYLE
  2
AcDbTableStyle
  3
ObjectDBX Classes
 90
     2047
 91
        1
280
     0
281
     0
  0
CLASS
  1
DICTIONARYVAR
  2
AcDbDictionaryVar
  3
ObjectDBX Classes
 90
        0
 91
        1
280
     0
281
     0
  0
ENDSEC
  0
SECTION
  2
TABLES
  0
TABLE
  2
VPORT
  5
8
330
0
100
AcDbSymbolTable
 70
     2
  0
VPORT
  5
1EF
330
8
100
AcDbSymbolTableRecord
100
AcDbViewportTableRecord
  2
*Active
 70
     0
 10
0.0
 20
0.0
 11
1.0
 21
1.0
 12
-214.0
 22
145.5
 13
0.0
 23
0.0
 14
1.0
 24
1.0
 15
0.0
 25
0.0
 16
0.0
 26
0.0
 36
1.0
 17
0.0
 27
0.0
 37
0.0
 40
297.3320158102766
 41
1.707124010554089
 42
50.0
 43
0.0
 44
0.0
 50
0.0
 51
0.0
 71
     0
 72
   100
 73
     1
 74
     1
 75
     0
 76
     0
 77
     0
 78
     0
281
     0
 65
     1
110
0.0
120
0.0
130
0.0
111
1.0
121
0.0
131
0.0
112
0.0
122
1.0
132
0.0
 79
     0
146
0.0
  0
ENDTAB
  0
TABLE
  2
LTYPE
  5
5
330
0
100
AcDbSymbolTable
 70
     6
  0
LTYPE
  5
13
330
5
100
AcDbSymbolTableRecord
100
AcDbLinetypeTableRecord
  2
ByBlock
 70
     0
  3

 72
    65
 73
     0
 40
0.0
  0
LTYPE
  5
14
330
5
100
AcDbSymbolTableRecord
100
AcDbLinetypeTableRecord
  2
ByLayer
 70
     0
  3

 72
    65
 73
     0
 40
0.0
  0
LTYPE
  5
15
330
5
100
AcDbSymbolTableRecord
100
AcDbLinetypeTableRecord
  2
CONTINUOUS
 70
     0
  3
Solid line
 72
    65
 73
     0
 40
0.0
  0
LTYPE
  5
26
330
5
100
AcDbSymbolTableRecord
100
AcDbLinetypeTableRecord
  2
DASHED
 70
     0
  3
__ __ __ __ __ __ __ __ __ __ __ __ __ __ __
 72
    65
 73
     2
 40
3.5
 49
2.0
 74
     0
 49
-1.5
 74
     0
  0
LTYPE
  5
27
330
5
100
AcDbSymbolTableRecord
100
AcDbLinetypeTableRecord
  2
CENTER
 70
     0
  3
____ _ ____ _ ____ _ ____ _ ____ _ ____ _ ____
 72
    65
 73
     4
 40
17.5
 49
13.0
 74
     0
 49
-1.5
 74
     0
 49
1.5
 74
     0
 49
-1.5
 74
     0
  0
LTYPE
  5
28
330
5
100
AcDbSymbolTableRecord
100
AcDbLinetypeTableRecord
  2
PHANTOM
 70
     0
  3
_____ _ _ _____ _ _ _____ _ _ _____ _ _ ____  
 72
    65
 73
     6
 40
15.5
 49
8.0
 74
     0
 49
-1.5
 74
     0
 49
1.5
 74
     0
 49
-1.5
 74
     0
 49
1.5
 74
     0
 49
-1.5
 74
     0
  0
LTYPE
  5
29
330
5
100
AcDbSymbolTableRecord
100
AcDbLinetypeTableRecord
  2
DOT
 70
     0
  3
. . . . . . . . . . . . . . . . . . . . . . . .
 72
    65
 73
     2
 40
0.25
 49
0.0
 74
     0
 49
-0.25
 74
     0
  0
LTYPE
  5
2A
330
5
100
AcDbSymbolTableRecord
100
AcDbLinetypeTableRecord
  2
HIDDEN
 70
     0
  3
__ __ __ __ __ __ __ __ __ __ __ __ __ __ __
 72
    65
 73
     2
 40
3.5
 49
2.0
 74
     0
 49
-1.5
 74
     0
  0
ENDTAB
  0
TABLE
  2
LAYER
  5
2
330
0
100
AcDbSymbolTable
 70
     3
  0
LAYER
  5
10
330
2
100
AcDbSymbolTableRecord
100
AcDbLayerTableRecord
  2
0
 70
     0
 62
     7
  6
CONTINUOUS
370
    -3
390
F
  0
LAYER
  5
2B
330
2
100
AcDbSymbolTableRecord
100
AcDbLayerTableRecord
  2
1
 70
     0
 62
     7
  6
CONTINUOUS
370
    -3
390
F
  0
LAYER
  5
2C
330
2
100
AcDbSymbolTableRecord
100
AcDbLayerTableRecord
  2
DEFPOINTS
 70
     0
 62
     7
  6
CONTINUOUS
290
     0
370
    -3
390
F
  0
ENDTAB
  0
TABLE
  2
STYLE
  5
3
330
0
100
AcDbSymbolTable
 70
     2
  0
STYLE
  5
11
330
3
100
AcDbSymbolTableRecord
100
AcDbTextStyleTableRecord
  2
STANDARD
 70
     0
 40
0.0
 41
1.0
 50
0.0
 71
     0
 42
0.2
  3

  4

1001
ACAD
1000
MS Gothic
1071
    32817
  0
ENDTAB
  0
TABLE
  2
VIEW
  5
6
330
0
100
AcDbSymbolTable
 70
     0
  0
ENDTAB
  0
TABLE
  2
UCS
  5
7
330
0
100
AcDbSymbolTable
 70
     0
  0
ENDTAB
  0
TABLE
  2
APPID
  5
9
330
0
100
AcDbSymbolTable
 70
     2
  0
APPID
  5
12
330
9
100
AcDbSymbolTableRecord
100
AcDbRegAppTableRecord
  2
ACAD
 70
     0
  0
APPID
  5
1E4
330
9
100
AcDbSymbolTableRecord
100
AcDbRegAppTableRecord
  2
ACAD_PSEXT
 70
     0
  0
ENDTAB
  0
TABLE
  2
DIMSTYLE
  5
A
330
0
100
AcDbSymbolTable
 70
     5
100
AcDbDimStyleTable
 71
     1
340
2D
  0
DIMSTYLE
105
2D
102
{ACAD_REACTORS
330
1DD
102
}
330
A
100
AcDbSymbolTableRecord
100
AcDbDimStyleTableRecord
  2
DIMSTYLE1
 70
     0
 41
1.0
 42
2.54
 44
2.54
 73
     0
 74
     0
 77
     1
140
3.0
145
1.0
147
1.5
172
     1
173
     1
279
     2
340
11
  0
DIMSTYLE
105
2E
102
{ACAD_REACTORS
330
1DE
102
}
330
A
100
AcDbSymbolTableRecord
100
AcDbDimStyleTableRecord
  2
DIMSTYLE2
 70
     0
 41
1.0
 42
2.54
 44
2.54
 73
     0
 74
     0
 75
     1
 76
     1
 77
     1
140
3.0
145
1.0
147
1.5
172
     1
173
     1
279
     2
340
11
  0
DIMSTYLE
105
2F
102
{ACAD_REACTORS
330
1DF
102
}
330
A
100
AcDbSymbolTableRecord
100
AcDbDimStyleTableRecord
  2
DIMSTYLE3
 70
     0
 41
1.0
 42
2.54
 44
2.54
 73
     0
 74
     0
 75
     1
 76
     1
 77
     1
140
3.0
145
1.0
147
1.5
172
     1
173
     1
279
     2
340
11
  0
DIMSTYLE
105
30
102
{ACAD_REACTORS
330
1E0
102
}
330
A
100
AcDbSymbolTableRecord
100
AcDbDimStyleTableRecord
  2
DIMSTYLE4
 70
     0
 41
1.0
 42
2.54
 44
2.54
 73
     0
 74
     0
 75
     1
 76
     1
 77
     1
140
3.0
145
1.0
147
1.5
172
     1
173
     1
279
     2
340
11
  0
ENDTAB
  0
TABLE
  2
BLOCK_RECORD
  5
1
330
0
100
AcDbSymbolTable
 70
     7
  0
BLOCK_RECORD
  5
22
330
1
100
AcDbSymbolTableRecord
100
AcDbBlockTableRecord
  2
*Model_Space
340
25
  0
BLOCK_RECORD
  5
1E
330
1
100
AcDbSymbolTableRecord
100
AcDbBlockTableRecord
  2
*Paper_Space
340
21
  0
BLOCK_RECORD
  5
34
330
1
100
AcDbSymbolTableRecord
100
AcDbBlockTableRecord
  2
_OPEN30
340
0
102
{BLKREFS
331
3D
331
3E
331
4A
331
4B
331
54
331
55
331
5E
331
5F
102
}
  0
BLOCK_RECORD
  5
3A
330
1
100
AcDbSymbolTableRecord
100
AcDbBlockTableRecord
  2
*D1
340
0
  0
BLOCK_RECORD
  5
46
330
1
100
AcDbSymbolTableRecord
100
AcDbBlockTableRecord
  2
*D2
340
0
  0
BLOCK_RECORD
  5
50
330
1
100
AcDbSymbolTableRecord
100
AcDbBlockTableRecord
  2
*D3
340
0
  0
BLOCK_RECORD
  5
5A
330
1
100
AcDbSymbolTableRecord
100
AcDbBlockTableRecord
  2
*D4
340
0
  0
BLOCK_RECORD
  5
64
330
1
100
AcDbSymbolTableRecord
100
AcDbBlockTableRecord
  2
KOZU0001
340
0
102
{BLKREFS
331
1E1
102
}
  0
ENDTAB
  0
ENDSEC
  0
SECTION
  2
BLOCKS
  0
BLOCK
  5
23
330
22
100
AcDbEntity
  8
0
100
AcDbBlockBegin
  2
*Model_Space
 70
     0
 10
0.0
 20
0.0
 30
0.0
  3
*Model_Space
  1

  0
ENDBLK
  5
24
330
22
100
AcDbEntity
  8
0
100
AcDbBlockEnd
  0
BLOCK
  5
1F
330
1E
100
AcDbEntity
 67
     1
  8
0
100
AcDbBlockBegin
  2
*Paper_Space
 70
     0
 10
0.0
 20
0.0
 30
0.0
  3
*Paper_Space
  1

  0
ENDBLK
  5
20
330
1E
100
AcDbEntity
 67
     1
  8
0
100
AcDbBlockEnd
  0
BLOCK
  5
35
330
34
100
AcDbEntity
  8
0
100
AcDbBlockBegin
  2
_OPEN30
 70
     0
 10
0.0
 20
0.0
 30
0.0
  3
_OPEN30
  1

  0
LINE
  5
36
330
34
100
AcDbEntity
  8
0
  6
ByBlock
 62
     0
100
AcDbLine
 10
0.0
 20
0.0
 30
0.0
 11
-2.999999999999993
 21
-1.000000000000017
 31
0.0
  0
LINE
  5
37
330
34
100
AcDbEntity
  8
0
  6
ByBlock
 62
     0
100
AcDbLine
 10
0.0
 20
0.0
 30
0.0
 11
-3.000000000000006
 21
0.9999999999999815
 31
0.0
  0
LINE
  5
38
330
34
100
AcDbEntity
  8
0
  6
ByBlock
 62
     0
100
AcDbLine
 10
0.0
 20
0.0
 30
0.0
 11
-3.0
 21
0.0
 31
0.0
  0
ENDBLK
  5
39
330
34
100
AcDbEntity
  8
0
100
AcDbBlockEnd
  0
BLOCK
  5
3B
330
3A
100
AcDbEntity
  8
0
100
AcDbBlockBegin
  2
*D1
 70
     1
 10
0.0
 20
0.0
 30
0.0
  3
*D1
  1

  0
LINE
  5
3C
330
3A
100
AcDbEntity
  8
0
  6
Continuous
 62
     7
100
AcDbLine
 10
-158.8746795654297
 20
87.6358871459961
 30
0.0
 11
-158.8746795654297
 21
130.6358947753906
 31
0.0
  0
INSERT
  5
3D
330
3A
100
AcDbEntity
  8
0
  6
Continuous
 62
     7
100
AcDbBlockReference
  2
_OPEN30
 10
-158.8746795654297
 20
84.63588714599609
 30
0.0
 50
270.0000000000005
  0
INSERT
  5
3E
330
3A
100
AcDbEntity
  8
0
  6
Continuous
 62
     7
100
AcDbBlockReference
  2
_OPEN30
 10
-158.8746795654297
 20
133.6358947753906
 30
0.0
 50
90.00000000000019
  0
LINE
  5
3F
330
3A
100
AcDbEntity
  8
0
  6
Continuous
 62
     7
100
AcDbLine
 10
-185.7459497070313
 20
84.63588714599609
 30
0.0
 11
-156.5886840820313
 21
84.63588714599609
 31
0.0
  0
LINE
  5
40
330
3A
100
AcDbEntity
  8
0
  6
Continuous
 62
     7
100
AcDbLine
 10
-177.7459497070313
 20
133.6358947753906
 30
0.0
 11
-156.5886840820313
 21
133.6358947753906
 31
0.0
  0
TEXT
  5
41
330
3A
100
AcDbEntity
  8
0
  6
Continuous
 62
     7
100
AcDbText
 10
-159.6246794530914
 20
106.5658870011558
 30
0.0
 40
3.0
  1
49
 50
90.00000250447815
 41
1.028000020980834
100
AcDbText
  0
POINT
  5
42
330
3A
100
AcDbEntity
  8
DEFPOINTS
  6
Continuous
 62
     7
100
AcDbPoint
 10
-188.2859497070313
 20
84.63588714599609
 30
0.0
  0
POINT
  5
43
330
3A
100
AcDbEntity
  8
DEFPOINTS
  6
Continuous
 62
     7
100
AcDbPoint
 10
-180.2859497070313
 20
133.6358947753906
 30
0.0
  0
POINT
  5
44
330
3A
100
AcDbEntity
  8
DEFPOINTS
  6
Continuous
 62
     7
100
AcDbPoint
 10
-158.8746795654297
 20
133.6358947753906
 30
0.0
  0
ENDBLK
  5
45
330
3A
100
AcDbEntity
  8
0
100
AcDbBlockEnd
  0
BLOCK
  5
47
330
46
100
AcDbEntity
  8
0
100
AcDbBlockBegin
  2
*D2
 70
     1
 10
0.0
 20
0.0
 30
0.0
  3
*D2
  1

  0
LINE
  5
48
330
46
100
AcDbEntity
  8
0
  6
Continuous
 62
     7
100
AcDbLine
 10
-182.7802886962891
 20
235.4809875488281
 30
0.0
 11
-149.7793731689453
 21
249.2303314208984
 31
0.0
  0
LINE
  5
49
330
46
100
AcDbEntity
  8
0
  6
Continuous
 62
     7
100
AcDbLine
 10
-258.4734445403306
 20
203.9445585199567
 30
0.0
 11
-185.5495504547866
 21
234.3272157720354
 31
0.0
  0
INSERT
  5
4A
330
46
100
AcDbEntity
  8
0
  6
Continuous
 62
     7
100
AcDbBlockReference
  2
_OPEN30
 10
-261.2427062988281
 20
202.7907867431641
 30
0.0
 50
202.6183260848086
  0
INSERT
  5
4B
330
46
100
AcDbEntity
  8
0
  6
Continuous
 62
     7
100
AcDbBlockReference
  2
_OPEN30
 10
-182.7802886962891
 20
235.4809875488281
 30
0.0
 50
22.61832608480796
  0
TEXT
  5
4C
330
46
100
AcDbEntity
  8
0
  6
Continuous
 62
     7
100
AcDbText
 10
-174.1987110093306
 20
239.873403004592
 30
0.0
 40
3.0
  1
%%C８５（本体外径）
 50
22.59999971821041
 41
0.8448610247221777
100
AcDbText
  0
POINT
  5
4D
330
46
100
AcDbEntity
  8
DEFPOINTS
  6
Continuous
 62
     7
100
AcDbPoint
 10
-261.2427062988281
 20
202.7907867431641
 30
0.0
  0
POINT
  5
4E
330
46
100
AcDbEntity
  8
DEFPOINTS
  6
Continuous
 62
     7
100
AcDbPoint
 10
-182.7802886962891
 20
235.4809875488281
 30
0.0
  0
ENDBLK
  5
4F
330
46
100
AcDbEntity
  8
0
100
AcDbBlockEnd
  0
BLOCK
  5
51
330
50
100
AcDbEntity
  8
0
100
AcDbBlockBegin
  2
*D3
 70
     1
 10
0.0
 20
0.0
 30
0.0
  3
*D3
  1

  0
LINE
  5
52
330
50
100
AcDbEntity
  8
0
  6
Continuous
 62
     7
100
AcDbLine
 10
-189.8840179443359
 20
224.0424957275391
 30
0.0
 11
-139.7782897949219
 21
231.6947937011719
 31
0.0
  0
LINE
  5
53
330
50
100
AcDbEntity
  8
0
  6
Continuous
 62
     7
100
AcDbLine
 10
-251.1733632029026
 20
214.6821963332261
 30
0.0
 11
-192.8496317922146
 21
223.5895779587661
 31
0.0
  0
INSERT
  5
54
330
50
100
AcDbEntity
  8
0
  6
Continuous
 62
     7
100
AcDbBlockReference
  2
_OPEN30
 10
-254.1389770507813
 20
214.2292785644531
 30
0.0
 50
188.6832937439758
  0
INSERT
  5
55
330
50
100
AcDbEntity
  8
0
  6
Continuous
 62
     7
100
AcDbBlockReference
  2
_OPEN30
 10
-189.8840179443359
 20
224.0424957275391
 30
0.0
 50
8.683293743975129
  0
TEXT
  5
56
330
50
100
AcDbEntity
  8
0
  6
Continuous
 62
     7
100
AcDbText
 10
-171.6626512814318
 20
227.5792703193846
 30
0.0
 40
3.0
  1
%%C６５（排水共栓外径）
 50
8.700000412854285
 41
0.8440126077968535
100
AcDbText
  0
POINT
  5
57
330
50
100
AcDbEntity
  8
DEFPOINTS
  6
Continuous
 62
     7
100
AcDbPoint
 10
-254.1389770507813
 20
214.2292785644531
 30
0.0
  0
POINT
  5
58
330
50
100
AcDbEntity
  8
DEFPOINTS
  6
Continuous
 62
     7
100
AcDbPoint
 10
-189.8840179443359
 20
224.0424957275391
 30
0.0
  0
ENDBLK
  5
59
330
50
100
AcDbEntity
  8
0
100
AcDbBlockEnd
  0
BLOCK
  5
5B
330
5A
100
AcDbEntity
  8
0
100
AcDbBlockBegin
  2
*D4
 70
     1
 10
0.0
 20
0.0
 30
0.0
  3
*D4
  1

  0
LINE
  5
5C
330
5A
100
AcDbEntity
  8
0
  6
Continuous
 62
     7
100
AcDbLine
 10
-203.3843383789063
 20
211.8537902832031
 30
0.0
 11
-148.8129425048828
 21
190.5196533203125
 31
0.0
  0
LINE
  5
5D
330
5A
100
AcDbEntity
  8
0
  6
Continuous
 62
     7
100
AcDbLine
 10
-237.8445827189031
 20
225.3256694678335
 30
0.0
 11
-206.1784122762141
 21
212.9461048241587
 31
0.0
  0
INSERT
  5
5E
330
5A
100
AcDbEntity
  8
0
  6
Continuous
 62
     7
100
AcDbBlockReference
  2
_OPEN30
 10
-240.6386566162109
 20
226.4179840087891
 30
0.0
 50
158.6474961582073
  0
INSERT
  5
5F
330
5A
100
AcDbEntity
  8
0
  6
Continuous
 62
     7
100
AcDbBlockReference
  2
_OPEN30
 10
-203.3843383789063
 20
211.8537902832031
 30
0.0
 50
338.647496158208
  0
TEXT
  5
60
330
5A
100
AcDbEntity
  8
0
  6
Continuous
 62
     7
100
AcDbText
 10
-172.8810364501513
 20
200.7457351206506
 30
0.0
 40
3.0
  1
%%C４０（子栓外径）
 50
338.5999996321637
 41
0.8448610247221777
100
AcDbText
  0
POINT
  5
61
330
5A
100
AcDbEntity
  8
DEFPOINTS
  6
Continuous
 62
     7
100
AcDbPoint
 10
-240.6386566162109
 20
226.4179840087891
 30
0.0
  0
POINT
  5
62
330
5A
100
AcDbEntity
  8
DEFPOINTS
  6
Continuous
 62
     7
100
AcDbPoint
 10
-203.3843383789063
 20
211.8537902832031
 30
0.0
  0
ENDBLK
  5
63
330
5A
100
AcDbEntity
  8
0
100
AcDbBlockEnd
  0
BLOCK
  5
65
330
64
100
AcDbEntity
  8
0
100
AcDbBlockBegin
  2
KOZU0001
 70
     0
 10
0.0
 20
0.0
 30
0.0
  3
KOZU0001
  1

  0
LINE
  5
66
330
64
100
AcDbEntity
  8
0
  6
Continuous
 62
     7
100
AcDbLine
 10
0.0
 20
0.0
 30
0.0
 11
-10.09567260742188
 21
-27.68987274169922
 31
0.0
  0
LINE
  5
67
330
64
100
AcDbEntity
  8
0
  6
Continuous
 62
     7
100
AcDbLine
 10
-10.09567260742188
 20
-27.68987274169922
 30
0.0
 11
-48.18901062011718
 21
-27.68987274169922
 31
0.0
  0
LINE
  5
68
330
64
100
AcDbEntity
  8
0
  6
Continuous
 62
     7
100
AcDbLine
 10
0.0
 20
0.0
 30
0.0
 11
-0.0881197759471678
 21
-3.161049652423546
 31
0.0
  0
LINE
  5
69
330
64
100
AcDbEntity
  8
0
  6
Continuous
 62
     7
100
AcDbLine
 10
0.0
 20
0.0
 30
0.0
 11
-1.967125612211861
 21
-2.475967856370536
 31
0.0
  0
TEXT
  5
6A
330
64
100
AcDbEntity
  8
0
  6
Continuous
 62
     7
100
AcDbText
 10
-46.46901059150695
 20
-26.93987274169922
 30
0.0
 40
3.0
  1
配管接続口
 41
0.8487395020950888
100
AcDbText
  0
TEXT
  5
6B
330
64
100
AcDbEntity
  8
0
  6
Continuous
 62
     7
100
AcDbText
 10
-46.46901059150695
 20
-32.20487274169922
 30
0.0
 40
3.0
  1
Ｇ１　１／２（４０Ａ）
 41
0.8440126077968535
100
AcDbText
  0
ENDBLK
  5
6C
330
64
100
AcDbEntity
  8
0
100
AcDbBlockEnd
  0
ENDSEC
  0
SECTION
  2
ENTITIES
  0
LINE
  5
6D
330
22
100
AcDbEntity
  8
0
  6
CENTER
 62
     7
100
AcDbLine
 10
-176.7125854492188
 20
219.1358947753906
 30
0.0
 11
-270.8832092285156
 21
219.1358947753906
 31
0.0
  0
LINE
  5
6E
330
22
100
AcDbEntity
  8
0
  6
Continuous
 62
     7
100
AcDbLine
 10
-218.2966613769531
 20
221.5858917236328
 30
0.0
 11
-214.5614929199219
 21
221.5858917236328
 31
0.0
  0
LINE
  5
6F
330
22
100
AcDbEntity
  8
0
  6
Continuous
 62
     7
100
AcDbLine
 10
-218.2966613769531
 20
216.6858825683594
 30
0.0
 11
-214.5614929199219
 21
216.6858825683594
 31
0.0
  0
LINE
  5
70
330
22
100
AcDbEntity
  8
0
  6
Continuous
 62
     7
100
AcDbLine
 10
-214.5614929199219
 20
216.6858825683594
 30
0.0
 11
-214.5614929199219
 21
221.5858917236328
 31
0.0
  0
LINE
  5
71
330
22
100
AcDbEntity
  8
0
  6
Continuous
 62
     7
100
AcDbLine
 10
-225.7263336181641
 20
221.5858917236328
 30
0.0
 11
-229.4615020751953
 21
221.5858917236328
 31
0.0
  0
LINE
  5
72
330
22
100
AcDbEntity
  8
0
  6
Continuous
 62
     7
100
AcDbLine
 10
-225.7263336181641
 20
216.6858825683594
 30
0.0
 11
-229.4615020751953
 21
216.6858825683594
 31
0.0
  0
LINE
  5
73
330
22
100
AcDbEntity
  8
0
  6
Continuous
 62
     7
100
AcDbLine
 10
-229.4615020751953
 20
216.6858825683594
 30
0.0
 11
-229.4615020751953
 21
221.5858917236328
 31
0.0
  0
LINE
  5
74
330
22
100
AcDbEntity
  8
0
  6
Continuous
 62
     7
100
AcDbLine
 10
-211.7859497070313
 20
98.63588714599607
 30
0.0
 11
-215.7859497070313
 21
98.63588714599607
 31
0.0
  0
LINE
  5
75
330
22
100
AcDbEntity
  8
0
  6
Continuous
 62
     7
100
AcDbLine
 10
-211.7859497070313
 20
102.6358871459961
 30
0.0
 11
-217.7859497070314
 21
102.6358871459961
 31
0.0
  0
LINE
  5
76
330
22
100
AcDbEntity
  8
0
  6
Continuous
 62
     7
100
AcDbLine
 10
-194.8059539794922
 20
106.6358871459961
 30
0.0
 11
-217.7859497070314
 21
106.6358871459961
 31
0.0
  0
LINE
  5
77
330
22
100
AcDbEntity
  8
0
  6
Continuous
 62
     7
100
AcDbLine
 10
-217.0059509277344
 20
113.264533996582
 30
0.0
 11
-217.7859497070314
 21
113.264533996582
 31
0.0
  0
LINE
  5
78
330
22
100
AcDbEntity
  8
0
  6
Continuous
 62
     7
100
AcDbLine
 10
-213.7859497070313
 20
123.6358871459961
 30
0.0
 11
-221.7859497070314
 21
123.6358871459961
 31
0.0
  0
LINE
  5
79
330
22
100
AcDbEntity
  8
0
  6
Continuous
 62
     7
100
AcDbLine
 10
-217.0059509277344
 20
117.6358871459961
 30
0.0
 11
-217.7859497070314
 21
117.6358871459961
 31
0.0
  0
LINE
  5
7A
330
22
100
AcDbEntity
  8
0
  6
Continuous
 62
     7
100
AcDbLine
 10
-214.5059509277344
 20
117.6358871459961
 30
0.0
 11
-214.5059509277344
 21
114.6358871459961
 31
0.0
  0
LINE
  5
7B
330
22
100
AcDbEntity
  8
0
  6
Continuous
 62
     7
100
AcDbLine
 10
-217.0059509277344
 20
117.6358871459961
 30
0.0
 11
-203.787353515625
 21
117.6358871459961
 31
0.0
  0
LINE
  5
7C
330
22
100
AcDbEntity
  8
0
  6
Continuous
 62
     7
100
AcDbLine
 10
-217.0059509277344
 20
113.1358871459961
 30
0.0
 11
-217.0059509277344
 21
117.6358871459961
 31
0.0
  0
LINE
  5
7D
330
22
100
AcDbEntity
  8
0
  6
Continuous
 62
     7
100
AcDbLine
 10
-217.4285736083984
 20
98.63588714599607
 30
0.0
 11
-215.7859497070313
 21
100.2785034179688
 31
0.0
  0
LINE
  5
7E
330
22
100
AcDbEntity
  8
0
  6
Continuous
 62
     7
100
AcDbLine
 10
-219.5498962402344
 20
98.63588714599607
 30
0.0
 11
-216.0498962402344
 21
102.1358871459961
 31
0.0
  0
LINE
  5
7F
330
22
100
AcDbEntity
  8
0
  6
Continuous
 62
     7
100
AcDbLine
 10
-221.6712188720703
 20
98.63588714599607
 30
0.0
 11
-218.1712188720703
 21
102.1358871459961
 31
0.0
  0
LINE
  5
80
330
22
100
AcDbEntity
  8
0
  6
Continuous
 62
     7
100
AcDbLine
 10
-218.1712188720703
 20
102.1358871459961
 30
0.0
 11
-217.7859497070314
 21
102.5211486816406
 31
0.0
  0
LINE
  5
81
330
22
100
AcDbEntity
  8
0
  6
Continuous
 62
     7
100
AcDbLine
 10
-221.7859497070314
 20
100.642463684082
 30
0.0
 11
-220.2925262451172
 21
102.1358871459961
 31
0.0
  0
LINE
  5
82
330
22
100
AcDbEntity
  8
0
  6
Continuous
 62
     7
100
AcDbLine
 10
-220.2925262451172
 20
102.1358871459961
 30
0.0
 11
-217.7859497070314
 21
104.642463684082
 31
0.0
  0
LINE
  5
83
330
22
100
AcDbEntity
  8
0
  6
Continuous
 62
     7
100
AcDbLine
 10
-221.7859497070314
 20
102.763786315918
 30
0.0
 11
-217.7859497070314
 21
106.763786315918
 31
0.0
  0
LINE
  5
84
330
22
100
AcDbEntity
  8
0
  6
Continuous
 62
     7
100
AcDbLine
 10
-205.9138488769531
 20
118.6358871459961
 30
0.0
 11
-203.8855590820313
 21
120.664192199707
 31
0.0
  0
LINE
  5
85
330
22
100
AcDbEntity
  8
0
  6
Continuous
 62
     7
100
AcDbLine
 10
-221.7859497070314
 20
104.8851089477539
 30
0.0
 11
-217.7859497070314
 21
108.8851089477539
 31
0.0
  0
LINE
  5
86
330
22
100
AcDbEntity
  8
0
  6
Continuous
 62
     7
100
AcDbLine
 10
-207.4591522216797
 20
119.2118988037109
 30
0.0
 11
-205.5351715087891
 21
121.1358871459961
 31
0.0
  0
LINE
  5
87
330
22
100
AcDbEntity
  8
0
  6
Continuous
 62
     7
100
AcDbLine
 10
-221.7859497070314
 20
107.0064239501953
 30
0.0
 11
-217.7859497070314
 21
111.0064239501953
 31
0.0
  0
LINE
  5
88
330
22
100
AcDbEntity
  8
0
  6
Continuous
 62
     7
100
AcDbLine
 10
-207.9668884277344
 20
120.8254928588867
 30
0.0
 11
-205.7855529785156
 21
123.0068283081055
 31
0.0
  0
LINE
  5
89
330
22
100
AcDbEntity
  8
0
  6
Continuous
 62
     7
100
AcDbLine
 10
-205.1570281982422
 20
123.6353530883789
 30
0.0
 11
-203.4757385253906
 21
125.3166427612305
 31
0.0
  0
LINE
  5
8A
330
22
100
AcDbEntity
  8
0
  6
Continuous
 62
     7
100
AcDbLine
 10
-221.7859497070314
 20
109.1277465820313
 30
0.0
 11
-217.7859497070314
 21
113.1277465820313
 31
0.0
  0
LINE
  5
8B
330
22
100
AcDbEntity
  8
0
  6
Continuous
 62
     7
100
AcDbLine
 10
-209.6283569335938
 20
121.2853469848633
 30
0.0
 11
-202.8389892578125
 21
128.0747222900391
 31
0.0
  0
LINE
  5
8C
330
22
100
AcDbEntity
  8
0
  6
Continuous
 62
     7
100
AcDbLine
 10
-221.7859497070314
 20
111.2490692138672
 30
0.0
 11
-217.7859497070314
 21
115.2490692138672
 31
0.0
  0
LINE
  5
8D
330
22
100
AcDbEntity
  8
0
  6
Continuous
 62
     7
100
AcDbLine
 10
-211.7496643066406
 20
121.2853469848633
 30
0.0
 11
-202.2022399902344
 21
130.8327941894531
 31
0.0
  0
LINE
  5
8E
330
22
100
AcDbEntity
  8
0
  6
Continuous
 62
     7
100
AcDbLine
 10
-221.7859497070314
 20
113.3703842163086
 30
0.0
 11
-217.7859497070314
 21
117.3703842163086
 31
0.0
  0
LINE
  5
8F
330
22
100
AcDbEntity
  8
0
  6
Continuous
 62
     7
100
AcDbLine
 10
-213.8709869384766
 20
121.2853469848633
 30
0.0
 11
-202.5204620361328
 21
132.6358947753906
 31
0.0
  0
LINE
  5
90
330
22
100
AcDbEntity
  8
0
  6
Continuous
 62
     7
100
AcDbLine
 10
-221.7859497070314
 20
115.4917068481445
 30
0.0
 11
-217.0733337402344
 21
120.2043380737305
 31
0.0
  0
LINE
  5
91
330
22
100
AcDbEntity
  8
0
  6
Continuous
 62
     7
100
AcDbLine
 10
-216.7049407958984
 20
120.5727233886719
 30
0.0
 11
-204.6417694091797
 21
132.6358947753906
 31
0.0
  0
LINE
  5
92
330
22
100
AcDbEntity
  8
0
  6
Continuous
 62
     7
100
AcDbLine
 10
-221.7859497070314
 20
117.6130294799805
 30
0.0
 11
-215.7630920410156
 21
123.6358871459961
 31
0.0
  0
LINE
  5
93
330
22
100
AcDbEntity
  8
0
  6
Continuous
 62
     7
100
AcDbLine
 10
-213.7859497070313
 20
125.6130294799805
 30
0.0
 11
-206.7630920410156
 21
132.6358947753906
 31
0.0
  0
LINE
  5
94
330
22
100
AcDbEntity
  8
0
  6
Continuous
 62
     7
100
AcDbLine
 10
-221.7859497070314
 20
119.7343521118164
 30
0.0
 11
-217.8844146728516
 21
123.6358871459961
 31
0.0
  0
LINE
  5
95
330
22
100
AcDbEntity
  8
0
  6
Continuous
 62
     7
100
AcDbLine
 10
-213.7859497070313
 20
127.7343521118164
 30
0.0
 11
-208.8844146728516
 21
132.6358947753906
 31
0.0
  0
LINE
  5
96
330
22
100
AcDbEntity
  8
0
  6
Continuous
 62
     7
100
AcDbLine
 10
-221.7859497070314
 20
121.8556671142578
 30
0.0
 11
-220.0057373046875
 21
123.6358871459961
 31
0.0
  0
LINE
  5
97
330
22
100
AcDbEntity
  8
0
  6
Continuous
 62
     7
100
AcDbLine
 10
-213.7887573242188
 20
129.8528594970703
 30
0.0
 11
-211.0057373046875
 21
132.6358947753906
 31
0.0
  0
LINE
  5
98
330
22
100
AcDbEntity
  8
0
  6
Continuous
 62
     7
100
AcDbLine
 10
-214.9887542724609
 20
130.7742004394531
 30
0.0
 11
-213.1270599365234
 21
132.6358947753906
 31
0.0
  0
LINE
  5
99
330
22
100
AcDbEntity
  8
0
  6
Continuous
 62
     7
100
AcDbLine
 10
-217.1100769042969
 20
130.7742004394531
 30
0.0
 11
-215.2483825683594
 21
132.6358947753906
 31
0.0
  0
LINE
  5
9A
330
22
100
AcDbEntity
  8
0
  6
Continuous
 62
     7
100
AcDbLine
 10
-219.2313842773438
 20
130.7742004394531
 30
0.0
 11
-217.3696899414063
 21
132.6358947753906
 31
0.0
  0
LINE
  5
9B
330
22
100
AcDbEntity
  8
0
  6
Continuous
 62
     7
100
AcDbLine
 10
-216.3679046630859
 20
98.63588714599607
 30
0.0
 11
-215.7859497070313
 21
99.21784210205078
 31
0.0
  0
LINE
  5
9C
330
22
100
AcDbEntity
  8
0
  6
Continuous
 62
     7
100
AcDbLine
 10
-218.4892272949219
 20
98.63588714599607
 30
0.0
 11
-215.7859497070313
 21
101.3391647338867
 31
0.0
  0
LINE
  5
9D
330
22
100
AcDbEntity
  8
0
  6
Continuous
 62
     7
100
AcDbLine
 10
-220.6105499267578
 20
98.63588714599607
 30
0.0
 11
-217.1105499267578
 21
102.1358871459961
 31
0.0
  0
LINE
  5
9E
330
22
100
AcDbEntity
  8
0
  6
Continuous
 62
     7
100
AcDbLine
 10
-221.7859497070314
 20
99.58180236816406
 30
0.0
 11
-219.2318725585938
 21
102.1358871459961
 31
0.0
  0
LINE
  5
9F
330
22
100
AcDbEntity
  8
0
  6
Continuous
 62
     7
100
AcDbLine
 10
-219.2318725585938
 20
102.1358871459961
 30
0.0
 11
-217.7859497070314
 21
103.5818023681641
 31
0.0
  0
LINE
  5
A0
330
22
100
AcDbEntity
  8
0
  6
Continuous
 62
     7
100
AcDbLine
 10
-221.7859497070314
 20
101.703125
 30
0.0
 11
-221.3531951904297
 21
102.1358871459961
 31
0.0
  0
LINE
  5
A1
330
22
100
AcDbEntity
  8
0
  6
Continuous
 62
     7
100
AcDbLine
 10
-221.3531951904297
 20
102.1358871459961
 30
0.0
 11
-217.7859497070314
 21
105.703125
 31
0.0
  0
LINE
  5
A2
330
22
100
AcDbEntity
  8
0
  6
Continuous
 62
     7
100
AcDbLine
 10
-204.8531951904297
 20
118.6358871459961
 30
0.0
 11
-203.8855590820313
 21
119.6035308837891
 31
0.0
  0
LINE
  5
A3
330
22
100
AcDbEntity
  8
0
  6
Continuous
 62
     7
100
AcDbLine
 10
-221.7859497070314
 20
103.8244476318359
 30
0.0
 11
-217.7859497070314
 21
107.8244476318359
 31
0.0
  0
LINE
  5
A4
330
22
100
AcDbEntity
  8
0
  6
Continuous
 62
     7
100
AcDbLine
 10
-206.8585968017578
 20
118.7518081665039
 30
0.0
 11
-204.4745178222656
 21
121.1358871459961
 31
0.0
  0
LINE
  5
A5
330
22
100
AcDbEntity
  8
0
  6
Continuous
 62
     7
100
AcDbLine
 10
-221.7859497070314
 20
105.9457626342773
 30
0.0
 11
-217.7859497070314
 21
109.9457626342773
 31
0.0
  0
LINE
  5
A6
330
22
100
AcDbEntity
  8
0
  6
Continuous
 62
     7
100
AcDbLine
 10
-207.7683410644531
 20
119.9633865356445
 30
0.0
 11
-205.7855529785156
 21
121.9461669921875
 31
0.0
  0
LINE
  5
A7
330
22
100
AcDbEntity
  8
0
  6
Continuous
 62
     7
100
AcDbLine
 10
-204.0963745117188
 20
123.6353530883789
 30
0.0
 11
-203.787353515625
 21
123.9443588256836
 31
0.0
  0
LINE
  5
A8
330
22
100
AcDbEntity
  8
0
  6
Continuous
 62
     7
100
AcDbLine
 10
-221.7859497070314
 20
108.0670852661133
 30
0.0
 11
-217.7859497070314
 21
112.0670852661133
 31
0.0
  0
LINE
  5
A9
330
22
100
AcDbEntity
  8
0
  6
Continuous
 62
     7
100
AcDbLine
 10
-208.6038360595703
 20
121.2492065429688
 30
0.0
 11
-203.1573638916016
 21
126.6956787109375
 31
0.0
  0
LINE
  5
AA
330
22
100
AcDbEntity
  8
0
  6
Continuous
 62
     7
100
AcDbLine
 10
-221.7859497070314
 20
110.1884078979492
 30
0.0
 11
-217.7859497070314
 21
114.1884078979492
 31
0.0
  0
LINE
  5
AB
330
22
100
AcDbEntity
  8
0
  6
Continuous
 62
     7
100
AcDbLine
 10
-210.6890106201172
 20
121.2853469848633
 30
0.0
 11
-202.5206146240234
 21
129.4537506103516
 31
0.0
  0
LINE
  5
AC
330
22
100
AcDbEntity
  8
0
  6
Continuous
 62
     7
100
AcDbLine
 10
-221.7859497070314
 20
112.3097305297852
 30
0.0
 11
-217.7859497070314
 21
116.3097305297852
 31
0.0
  0
LINE
  5
AD
330
22
100
AcDbEntity
  8
0
  6
Continuous
 62
     7
100
AcDbLine
 10
-212.8103332519531
 20
121.2853469848633
 30
0.0
 11
-201.9249725341797
 21
132.1707153320313
 31
0.0
  0
LINE
  5
AE
330
22
100
AcDbEntity
  8
0
  6
Continuous
 62
     7
100
AcDbLine
 10
-221.7859497070314
 20
114.4310455322266
 30
0.0
 11
-217.7700347900391
 21
118.4469680786133
 31
0.0
  0
LINE
  5
AF
330
22
100
AcDbEntity
  8
0
  6
Continuous
 62
     7
100
AcDbLine
 10
-214.9475708007813
 20
121.2694320678711
 30
0.0
 11
-203.5811157226564
 21
132.6358947753906
 31
0.0
  0
LINE
  5
B0
330
22
100
AcDbEntity
  8
0
  6
Continuous
 62
     7
100
AcDbLine
 10
-221.7859497070314
 20
116.5523681640625
 30
0.0
 11
-214.7024383544922
 21
123.6358871459961
 31
0.0
  0
LINE
  5
B1
330
22
100
AcDbEntity
  8
0
  6
Continuous
 62
     7
100
AcDbLine
 10
-213.7859497070313
 20
124.5523681640625
 30
0.0
 11
-205.7024383544922
 21
132.6358947753906
 31
0.0
  0
LINE
  5
B2
330
22
100
AcDbEntity
  8
0
  6
Continuous
 62
     7
100
AcDbLine
 10
-221.7859497070314
 20
118.6736907958984
 30
0.0
 11
-216.8237609863281
 21
123.6358871459961
 31
0.0
  0
LINE
  5
B3
330
22
100
AcDbEntity
  8
0
  6
Continuous
 62
     7
100
AcDbLine
 10
-213.7859497070313
 20
126.6736907958984
 30
0.0
 11
-207.8237609863281
 21
132.6358947753906
 31
0.0
  0
LINE
  5
B4
330
22
100
AcDbEntity
  8
0
  6
Continuous
 62
     7
100
AcDbLine
 10
-221.7859497070314
 20
120.7950057983398
 30
0.0
 11
-218.945068359375
 21
123.6358871459961
 31
0.0
  0
LINE
  5
B5
330
22
100
AcDbEntity
  8
0
  6
Continuous
 62
     7
100
AcDbLine
 10
-213.7859497070313
 20
128.7950134277344
 30
0.0
 11
-209.945068359375
 21
132.6358947753906
 31
0.0
  0
LINE
  5
B6
330
22
100
AcDbEntity
  8
0
  6
Continuous
 62
     7
100
AcDbLine
 10
-221.7859497070314
 20
122.9163284301758
 30
0.0
 11
-221.0663909912109
 21
123.6358871459961
 31
0.0
  0
LINE
  5
B7
330
22
100
AcDbEntity
  8
0
  6
Continuous
 62
     7
100
AcDbLine
 10
-213.9280853271484
 20
130.7742004394531
 30
0.0
 11
-212.0663909912109
 21
132.6358947753906
 31
0.0
  0
LINE
  5
B8
330
22
100
AcDbEntity
  8
0
  6
Continuous
 62
     7
100
AcDbLine
 10
-216.0494079589844
 20
130.7742004394531
 30
0.0
 11
-214.1877136230469
 21
132.6358947753906
 31
0.0
  0
LINE
  5
B9
330
22
100
AcDbEntity
  8
0
  6
Continuous
 62
     7
100
AcDbLine
 10
-218.1707305908203
 20
130.7742004394531
 30
0.0
 11
-216.3090362548828
 21
132.6358947753906
 31
0.0
  0
LINE
  5
BA
330
22
100
AcDbEntity
  8
0
  6
Continuous
 62
     7
100
AcDbLine
 10
-219.5359497070313
 20
131.5302886962891
 30
0.0
 11
-218.4303588867188
 21
132.6358947753906
 31
0.0
  0
LINE
  5
BB
330
22
100
AcDbEntity
  8
0
  6
Continuous
 62
     7
100
AcDbLine
 10
-208.7855529785156
 20
121.2853469848633
 30
0.0
 11
-214.7859497070313
 21
121.2853469848633
 31
0.0
  0
LINE
  5
BC
330
22
100
AcDbEntity
  8
0
  6
Continuous
 62
     7
100
AcDbLine
 10
-189.6716003417969
 20
84.63588714599609
 30
0.0
 11
-187.2429656982422
 21
87.0645294189453
 31
0.0
  0
LINE
  5
BD
330
22
100
AcDbEntity
  8
0
  6
Continuous
 62
     7
100
AcDbLine
 10
-191.0858154296875
 20
84.63588714599609
 30
0.0
 11
-185.1857452392578
 21
90.53595733642579
 31
0.0
  0
LINE
  5
BE
330
22
100
AcDbEntity
  8
0
  6
Continuous
 62
     7
100
AcDbLine
 10
-192.5000305175781
 20
84.63588714599609
 30
0.0
 11
-185.1587219238281
 21
91.97719573974607
 31
0.0
  0
LINE
  5
BF
330
22
100
AcDbEntity
  8
0
  6
Continuous
 62
     7
100
AcDbLine
 10
-193.9142456054688
 20
84.63588714599609
 30
0.0
 11
-185.1316986083984
 21
93.41843414306641
 31
0.0
  0
LINE
  5
C0
330
22
100
AcDbEntity
  8
0
  6
Continuous
 62
     7
100
AcDbLine
 10
-195.3284606933594
 20
84.63588714599609
 30
0.0
 11
-185.1046752929688
 21
94.85966491699221
 31
0.0
  0
LINE
  5
C1
330
22
100
AcDbEntity
  8
0
  6
Continuous
 62
     7
100
AcDbLine
 10
-196.7426605224609
 20
84.63588714599609
 30
0.0
 11
-185.0776519775391
 21
96.30090332031251
 31
0.0
  0
LINE
  5
C2
330
22
100
AcDbEntity
  8
0
  6
Continuous
 62
     7
100
AcDbLine
 10
-197.8859558105469
 20
84.90681457519531
 30
0.0
 11
-185.0506286621094
 21
97.74214172363279
 31
0.0
  0
LINE
  5
C3
330
22
100
AcDbEntity
  8
0
  6
Continuous
 62
     7
100
AcDbLine
 10
-197.8859558105469
 20
86.32102966308593
 30
0.0
 11
-185.0236053466797
 21
99.18338012695313
 31
0.0
  0
LINE
  5
C4
330
22
100
AcDbEntity
  8
0
  6
Continuous
 62
     7
100
AcDbLine
 10
-197.8859558105469
 20
87.73523712158203
 30
0.0
 11
-184.99658203125
 21
100.6246109008789
 31
0.0
  0
LINE
  5
C5
330
22
100
AcDbEntity
  8
0
  6
Continuous
 62
     7
100
AcDbLine
 10
-197.8859558105469
 20
89.14945220947265
 30
0.0
 11
-184.9695587158203
 21
102.0658493041992
 31
0.0
  0
LINE
  5
C6
330
22
100
AcDbEntity
  8
0
  6
Continuous
 62
     7
100
AcDbLine
 10
-197.8859558105469
 20
90.56366729736328
 30
0.0
 11
-184.9425354003906
 21
103.5070877075195
 31
0.0
  0
LINE
  5
C7
330
22
100
AcDbEntity
  8
0
  6
Continuous
 62
     7
100
AcDbLine
 10
-197.8859558105469
 20
91.97788238525392
 30
0.0
 11
-193.2279510498047
 21
96.63588714599608
 31
0.0
  0
LINE
  5
C8
330
22
100
AcDbEntity
  8
0
  6
Continuous
 62
     7
100
AcDbLine
 10
-192.0859527587891
 20
97.7778778076172
 30
0.0
 11
-184.9155120849609
 21
104.9483261108398
 31
0.0
  0
LINE
  5
C9
330
22
100
AcDbEntity
  8
0
  6
Continuous
 62
     7
100
AcDbLine
 10
-197.8859558105469
 20
93.39209747314452
 30
0.0
 11
-194.6421661376953
 21
96.63588714599608
 31
0.0
  0
LINE
  5
CA
330
22
100
AcDbEntity
  8
0
  6
Continuous
 62
     7
100
AcDbLine
 10
-192.6421661376953
 20
98.63588714599607
 30
0.0
 11
-184.8884887695313
 21
106.3895645141602
 31
0.0
  0
LINE
  5
CB
330
22
100
AcDbEntity
  8
0
  6
Continuous
 62
     7
100
AcDbLine
 10
-197.8859558105469
 20
94.80630493164063
 30
0.0
 11
-196.0563812255859
 21
96.63588714599608
 31
0.0
  0
LINE
  5
CC
330
22
100
AcDbEntity
  8
0
  6
Continuous
 62
     7
100
AcDbLine
 10
-194.0563812255859
 20
98.63588714599607
 30
0.0
 11
-184.8614654541016
 21
107.8307952880859
 31
0.0
  0
LINE
  5
CD
330
22
100
AcDbEntity
  8
0
  6
Continuous
 62
     7
100
AcDbLine
 10
-197.8859558105469
 20
96.22052001953123
 30
0.0
 11
-197.4705963134766
 21
96.63588714599608
 31
0.0
  0
LINE
  5
CE
330
22
100
AcDbEntity
  8
0
  6
Continuous
 62
     7
100
AcDbLine
 10
-195.4705963134766
 20
98.63588714599607
 30
0.0
 11
-184.8344421386719
 21
109.2720336914063
 31
0.0
  0
LINE
  5
CF
330
22
100
AcDbEntity
  8
0
  6
Continuous
 62
     7
100
AcDbLine
 10
-196.8847961425781
 20
98.63588714599607
 30
0.0
 11
-184.8074188232422
 21
110.7132720947266
 31
0.0
  0
LINE
  5
D0
330
22
100
AcDbEntity
  8
0
  6
Continuous
 62
     7
100
AcDbLine
 10
-198.2990112304688
 20
98.63588714599607
 30
0.0
 11
-193.2990112304688
 21
103.6358871459961
 31
0.0
  0
LINE
  5
D1
330
22
100
AcDbEntity
  8
0
  6
Continuous
 62
     7
100
AcDbLine
 10
-191.7859497070313
 20
105.1489486694336
 30
0.0
 11
-184.7803955078125
 21
112.1545104980469
 31
0.0
  0
LINE
  5
D2
330
22
100
AcDbEntity
  8
0
  6
Continuous
 62
     7
100
AcDbLine
 10
-199.7132263183594
 20
98.63588714599607
 30
0.0
 11
-195.7132263183594
 21
102.6358871459961
 31
0.0
  0
LINE
  5
D3
330
22
100
AcDbEntity
  8
0
  6
Continuous
 62
     7
100
AcDbLine
 10
-191.7859497070313
 20
106.5631637573242
 30
0.0
 11
-184.7636260986328
 21
113.5854873657227
 31
0.0
  0
LINE
  5
D4
330
22
100
AcDbEntity
  8
0
  6
Continuous
 62
     7
100
AcDbLine
 10
-201.12744140625
 20
98.63588714599607
 30
0.0
 11
-197.12744140625
 21
102.6358871459961
 31
0.0
  0
LINE
  5
D5
330
22
100
AcDbEntity
  8
0
  6
Continuous
 62
     7
100
AcDbLine
 10
-191.7859497070313
 20
107.9773788452148
 30
0.0
 11
-184.5745086669922
 21
115.1888275146484
 31
0.0
  0
LINE
  5
D6
330
22
100
AcDbEntity
  8
0
  6
Continuous
 62
     7
100
AcDbLine
 10
-202.5416564941406
 20
98.63588714599607
 30
0.0
 11
-198.5416564941406
 21
102.6358871459961
 31
0.0
  0
LINE
  5
D7
330
22
100
AcDbEntity
  8
0
  6
Continuous
 62
     7
100
AcDbLine
 10
-191.7859497070313
 20
109.3915863037109
 30
0.0
 11
-184.3515930175781
 21
116.8259506225586
 31
0.0
  0
LINE
  5
D8
330
22
100
AcDbEntity
  8
0
  6
Continuous
 62
     7
100
AcDbLine
 10
-203.9558715820313
 20
98.63588714599607
 30
0.0
 11
-199.9558715820313
 21
102.6358871459961
 31
0.0
  0
LINE
  5
D9
330
22
100
AcDbEntity
  8
0
  6
Continuous
 62
     7
100
AcDbLine
 10
-191.7859497070313
 20
110.8058013916016
 30
0.0
 11
-184.1286773681641
 21
118.4630737304688
 31
0.0
  0
LINE
  5
DA
330
22
100
AcDbEntity
  8
0
  6
Continuous
 62
     7
100
AcDbLine
 10
-205.3700866699219
 20
98.63588714599607
 30
0.0
 11
-201.3700866699219
 21
102.6358871459961
 31
0.0
  0
LINE
  5
DB
330
22
100
AcDbEntity
  8
0
  6
Continuous
 62
     7
100
AcDbLine
 10
-191.7859497070313
 20
112.2200164794922
 30
0.0
 11
-183.90576171875
 21
120.1002044677734
 31
0.0
  0
LINE
  5
DC
330
22
100
AcDbEntity
  8
0
  6
Continuous
 62
     7
100
AcDbLine
 10
-206.7843017578125
 20
98.63588714599607
 30
0.0
 11
-202.7843017578125
 21
102.6358871459961
 31
0.0
  0
LINE
  5
DD
330
22
100
AcDbEntity
  8
0
  6
Continuous
 62
     7
100
AcDbLine
 10
-191.7859497070313
 20
113.6342315673828
 30
0.0
 11
-183.682861328125
 21
121.7373275756836
 31
0.0
  0
LINE
  5
DE
330
22
100
AcDbEntity
  8
0
  6
Continuous
 62
     7
100
AcDbLine
 10
-208.1985168457031
 20
98.63588714599607
 30
0.0
 11
-204.1985168457031
 21
102.6358871459961
 31
0.0
  0
LINE
  5
DF
330
22
100
AcDbEntity
  8
0
  6
Continuous
 62
     7
100
AcDbLine
 10
-191.7859497070313
 20
115.0484466552734
 30
0.0
 11
-183.4599456787109
 21
123.3744583129883
 31
0.0
  0
LINE
  5
E0
330
22
100
AcDbEntity
  8
0
  6
Continuous
 62
     7
100
AcDbLine
 10
-209.6127319335938
 20
98.63588714599607
 30
0.0
 11
-205.6127319335938
 21
102.6358871459961
 31
0.0
  0
LINE
  5
E1
330
22
100
AcDbEntity
  8
0
  6
Continuous
 62
     7
100
AcDbLine
 10
-191.7859497070313
 20
116.4626541137695
 30
0.0
 11
-183.2370300292969
 21
125.0115814208984
 31
0.0
  0
LINE
  5
E2
330
22
100
AcDbEntity
  8
0
  6
Continuous
 62
     7
100
AcDbLine
 10
-211.0269317626953
 20
98.63588714599607
 30
0.0
 11
-207.0269317626953
 21
102.6358871459961
 31
0.0
  0
LINE
  5
E3
330
22
100
AcDbEntity
  8
0
  6
Continuous
 62
     7
100
AcDbLine
 10
-191.7859497070313
 20
117.8768692016602
 30
0.0
 11
-183.0141143798828
 21
126.6487045288086
 31
0.0
  0
LINE
  5
E4
330
22
100
AcDbEntity
  8
0
  6
Continuous
 62
     7
100
AcDbLine
 10
-180.0269317626953
 20
129.6358947753906
 30
0.0
 11
-179.2859497070313
 21
130.3768768310547
 31
0.0
  0
LINE
  5
E5
330
22
100
AcDbEntity
  8
0
  6
Continuous
 62
     7
100
AcDbLine
 10
-211.7859497070313
 20
99.29108428955078
 30
0.0
 11
-208.4411468505859
 21
102.6358871459961
 31
0.0
  0
LINE
  5
E6
330
22
100
AcDbEntity
  8
0
  6
Continuous
 62
     7
100
AcDbLine
 10
-191.6075439453125
 20
119.4694976806641
 30
0.0
 11
-182.7912139892578
 21
128.2858276367188
 31
0.0
  0
LINE
  5
E7
330
22
100
AcDbEntity
  8
0
  6
Continuous
 62
     7
100
AcDbLine
 10
-181.4411468505859
 20
129.6358947753906
 30
0.0
 11
-179.2859497070313
 21
131.7910919189453
 31
0.0
  0
LINE
  5
E8
330
22
100
AcDbEntity
  8
0
  6
Continuous
 62
     7
100
AcDbLine
 10
-211.7859497070313
 20
100.7052993774414
 30
0.0
 11
-209.8553619384766
 21
102.6358871459961
 31
0.0
  0
LINE
  5
E9
330
22
100
AcDbEntity
  8
0
  6
Continuous
 62
     7
100
AcDbLine
 10
-191.3047943115234
 20
121.1864547729492
 30
0.0
 11
-179.4063720703125
 21
133.0848693847656
 31
0.0
  0
LINE
  5
EA
330
22
100
AcDbEntity
  8
0
  6
Continuous
 62
     7
100
AcDbLine
 10
-211.7859497070313
 20
102.119514465332
 30
0.0
 11
-211.2695770263672
 21
102.6358871459961
 31
0.0
  0
LINE
  5
EB
330
22
100
AcDbEntity
  8
0
  6
Continuous
 62
     7
100
AcDbLine
 10
-191.0020599365234
 20
122.9034118652344
 30
0.0
 11
-180.2699584960938
 21
133.6355133056641
 31
0.0
  0
LINE
  5
EC
330
22
100
AcDbEntity
  8
0
  6
Continuous
 62
     7
100
AcDbLine
 10
-190.6993103027344
 20
124.6203765869141
 30
0.0
 11
-182.6837921142578
 21
132.6358947753906
 31
0.0
  0
LINE
  5
ED
330
22
100
AcDbEntity
  8
0
  6
Continuous
 62
     7
100
AcDbLine
 10
-190.3965606689453
 20
126.3373336791992
 30
0.0
 11
-184.0980072021484
 21
132.6358947753906
 31
0.0
  0
LINE
  5
EE
330
22
100
AcDbEntity
  8
0
  6
Continuous
 62
     7
100
AcDbLine
 10
-190.0938110351563
 20
128.0542907714844
 30
0.0
 11
-185.5122222900391
 21
132.6358947753906
 31
0.0
  0
LINE
  5
EF
330
22
100
AcDbEntity
  8
0
  6
Continuous
 62
     7
100
AcDbLine
 10
-189.7910614013672
 20
129.7712554931641
 30
0.0
 11
-186.9264373779297
 21
132.6358947753906
 31
0.0
  0
LINE
  5
F0
330
22
100
AcDbEntity
  8
0
  6
Continuous
 62
     7
100
AcDbLine
 10
-189.4883270263672
 20
131.4882202148438
 30
0.0
 11
-188.3406524658203
 21
132.6358947753906
 31
0.0
  0
LINE
  5
F1
330
22
100
AcDbEntity
  8
0
  6
Continuous
 62
     7
100
AcDbLine
 10
-211.7859497070313
 20
98.63588714599607
 30
0.0
 11
-211.7859497070313
 21
102.6358871459961
 31
0.0
  0
LINE
  5
F2
330
22
100
AcDbEntity
  8
0
  6
Continuous
 62
     7
100
AcDbLine
 10
-211.7859497070313
 20
102.6358871459961
 30
0.0
 11
-195.2859497070313
 21
102.6358871459961
 31
0.0
  0
LINE
  5
F3
330
22
100
AcDbEntity
  8
0
  6
Continuous
 62
     7
100
AcDbLine
 10
-192.0859527587891
 20
98.63588714599607
 30
0.0
 11
-211.7859497070313
 21
98.63588714599607
 31
0.0
  0
LINE
  5
F4
330
22
100
AcDbEntity
  8
0
  6
Continuous
 62
     7
100
AcDbLine
 10
-213.7887573242188
 20
130.7742004394531
 30
0.0
 11
-213.7887573242188
 21
129.6249542236328
 31
0.0
  0
LINE
  5
F5
330
22
100
AcDbEntity
  8
0
  6
Continuous
 62
     7
100
AcDbLine
 10
-213.7859497070313
 20
129.6358947753906
 30
0.0
 11
-213.7859497070313
 21
123.6358871459961
 31
0.0
  0
LINE
  5
F6
330
22
100
AcDbEntity
  8
0
  6
CENTER
 62
     7
100
AcDbLine
 10
-221.7859497070314
 20
79.07608795166016
 30
0.0
 11
-221.7859497070314
 21
140.3094482421875
 31
0.0
  0
LINE
  5
F7
330
22
100
AcDbEntity
  8
0
  6
Continuous
 62
     7
100
AcDbLine
 10
-218.5359497070313
 20
132.6358947753906
 30
0.0
 11
-202.4145355224609
 21
132.6358947753906
 31
0.0
  0
LINE
  5
F8
330
22
100
AcDbEntity
  8
0
  6
Continuous
 62
     7
100
AcDbLine
 10
-180.2859497070313
 20
133.6358947753906
 30
0.0
 11
-221.7803802490234
 21
133.6358947753906
 31
0.0
  0
LINE
  5
F9
330
22
100
AcDbEntity
  8
0
  6
Continuous
 62
     7
100
AcDbLine
 10
-215.7859497070313
 20
102.1358871459961
 30
0.0
 11
-215.7859497070313
 21
98.63588714599607
 31
0.0
  0
LINE
  5
FA
330
22
100
AcDbEntity
  8
0
  6
Continuous
 62
     7
100
AcDbLine
 10
-215.7859497070313
 20
98.63588714599607
 30
0.0
 11
-221.7859497070314
 21
98.63588714599607
 31
0.0
  0
LINE
  5
FB
330
22
100
AcDbEntity
  8
0
  6
Continuous
 62
     7
100
AcDbLine
 10
-202.7518768310547
 20
114.6358871459961
 30
0.0
 11
-214.5059509277344
 21
114.6358871459961
 31
0.0
  0
LINE
  5
FC
330
22
100
AcDbEntity
  8
0
  6
Continuous
 62
     7
100
AcDbLine
 10
-219.5359497070313
 20
129.6358947753906
 30
0.0
 11
-213.7859497070313
 21
129.6358947753906
 31
0.0
  0
LINE
  5
FD
330
22
100
AcDbEntity
  8
0
  6
Continuous
 62
     7
100
AcDbLine
 10
-219.4976501464844
 20
130.7742004394531
 30
0.0
 11
-213.7887573242188
 21
130.7742004394531
 31
0.0
  0
LINE
  5
FE
330
22
100
AcDbEntity
  8
0
  6
Continuous
 62
     7
100
AcDbLine
 10
-217.0059509277344
 20
113.4804534912109
 30
0.0
 11
-216.6613922119141
 21
113.1358871459961
 31
0.0
  0
LINE
  5
FF
330
22
100
AcDbEntity
  8
0
  6
Continuous
 62
     7
100
AcDbLine
 10
-217.0059509277344
 20
114.5411148071289
 30
0.0
 11
-215.7098388671875
 21
113.2449951171875
 31
0.0
  0
LINE
  5
100
330
22
100
AcDbEntity
  8
0
  6
Continuous
 62
     7
100
AcDbLine
 10
-217.0059509277344
 20
114.8946685791016
 30
0.0
 11
-215.5519256591797
 21
113.4406433105469
 31
0.0
  0
LINE
  5
101
330
22
100
AcDbEntity
  8
0
  6
Continuous
 62
     7
100
AcDbLine
 10
-217.0059509277344
 20
115.955322265625
 30
0.0
 11
-215.2853851318359
 21
114.2347564697266
 31
0.0
  0
LINE
  5
102
330
22
100
AcDbEntity
  8
0
  6
Continuous
 62
     7
100
AcDbLine
 10
-217.0059509277344
 20
116.3088760375977
 30
0.0
 11
-215.1093597412109
 21
114.4122848510742
 31
0.0
  0
LINE
  5
103
330
22
100
AcDbEntity
  8
0
  6
Continuous
 62
     7
100
AcDbLine
 10
-217.0059509277344
 20
117.3695373535156
 30
0.0
 11
-214.5059509277344
 21
114.8695373535156
 31
0.0
  0
LINE
  5
104
330
22
100
AcDbEntity
  8
0
  6
Continuous
 62
     7
100
AcDbLine
 10
-216.9187469482422
 20
117.6358871459961
 30
0.0
 11
-214.5059509277344
 21
115.2230911254883
 31
0.0
  0
LINE
  5
105
330
22
100
AcDbEntity
  8
0
  6
Continuous
 62
     7
100
AcDbLine
 10
-215.8580932617188
 20
117.6358871459961
 30
0.0
 11
-214.5059509277344
 21
116.2837524414063
 31
0.0
  0
LINE
  5
106
330
22
100
AcDbEntity
  8
0
  6
Continuous
 62
     7
100
AcDbLine
 10
-215.5045318603516
 20
117.6358871459961
 30
0.0
 11
-214.5059509277344
 21
116.6373062133789
 31
0.0
  0
LINE
  5
107
330
22
100
AcDbEntity
  8
0
  6
Continuous
 62
     7
100
AcDbLine
 10
-205.7059478759766
 20
114.9083709716797
 30
0.0
 11
-205.4334716796875
 21
114.6358871459961
 31
0.0
  0
LINE
  5
108
330
22
100
AcDbEntity
  8
0
  6
Continuous
 62
     7
100
AcDbLine
 10
-205.7059478759766
 20
115.9690322875977
 30
0.0
 11
-204.372802734375
 21
114.6358871459961
 31
0.0
  0
LINE
  5
109
330
22
100
AcDbEntity
  8
0
  6
Continuous
 62
     7
100
AcDbLine
 10
-205.7059478759766
 20
116.3225860595703
 30
0.0
 11
-204.0192565917969
 21
114.6358871459961
 31
0.0
  0
LINE
  5
10A
330
22
100
AcDbEntity
  8
0
  6
Continuous
 62
     7
100
AcDbLine
 10
-205.7059478759766
 20
117.3832473754883
 30
0.0
 11
-202.9585876464844
 21
114.6358871459961
 31
0.0
  0
LINE
  5
10B
330
22
100
AcDbEntity
  8
0
  6
Continuous
 62
     7
100
AcDbLine
 10
-205.6050415039063
 20
117.6358871459961
 30
0.0
 11
-202.6128997802734
 21
114.6437454223633
 31
0.0
  0
LINE
  5
10C
330
22
100
AcDbEntity
  8
0
  6
Continuous
 62
     7
100
AcDbLine
 10
-195.0414733886719
 20
107.0723266601563
 30
0.0
 11
-194.6050415039063
 21
106.6358871459961
 31
0.0
  0
LINE
  5
10D
330
22
100
AcDbEntity
  8
0
  6
Continuous
 62
     7
100
AcDbLine
 10
-204.5443878173828
 20
117.6358871459961
 30
0.0
 11
-201.7962646484375
 21
114.8877716064453
 31
0.0
  0
LINE
  5
10E
330
22
100
AcDbEntity
  8
0
  6
Continuous
 62
     7
100
AcDbLine
 10
-195.1354675292969
 20
108.2269668579102
 30
0.0
 11
-193.5443878173828
 21
106.6358871459961
 31
0.0
  0
LINE
  5
10F
330
22
100
AcDbEntity
  8
0
  6
Continuous
 62
     7
100
AcDbLine
 10
-204.1908264160156
 20
117.6358871459961
 30
0.0
 11
-201.575927734375
 21
115.0209808349609
 31
0.0
  0
LINE
  5
110
330
22
100
AcDbEntity
  8
0
  6
Continuous
 62
     7
100
AcDbLine
 10
-195.1667938232422
 20
108.6118469238281
 30
0.0
 11
-193.1908264160156
 21
106.6358871459961
 31
0.0
  0
LINE
  5
111
330
22
100
AcDbEntity
  8
0
  6
Continuous
 62
     7
100
AcDbLine
 10
-203.787353515625
 20
118.293083190918
 30
0.0
 11
-201.0647277832031
 21
115.570442199707
 31
0.0
  0
LINE
  5
112
330
22
100
AcDbEntity
  8
0
  6
Continuous
 62
     7
100
AcDbLine
 10
-195.2607727050781
 20
109.7664947509766
 30
0.0
 11
-192.1788024902344
 21
106.6845169067383
 31
0.0
  0
LINE
  5
113
330
22
100
AcDbEntity
  8
0
  6
Continuous
 62
     7
100
AcDbLine
 10
-203.787353515625
 20
118.6466369628906
 30
0.0
 11
-200.9439849853516
 21
115.8032608032227
 31
0.0
  0
LINE
  5
114
330
22
100
AcDbEntity
  8
0
  6
Continuous
 62
     7
100
AcDbLine
 10
-195.2920989990234
 20
110.1513748168945
 30
0.0
 11
-191.9886016845703
 21
106.8478775024414
 31
0.0
  0
LINE
  5
115
330
22
100
AcDbEntity
  8
0
  6
Continuous
 62
     7
100
AcDbLine
 10
-203.787353515625
 20
119.7072982788086
 30
0.0
 11
-200.7425384521484
 21
116.662467956543
 31
0.0
  0
LINE
  5
116
330
22
100
AcDbEntity
  8
0
  6
Continuous
 62
     7
100
AcDbLine
 10
-195.3860778808594
 20
111.3060150146484
 30
0.0
 11
-191.8859558105469
 21
107.8058853149414
 31
0.0
  0
LINE
  5
117
330
22
100
AcDbEntity
  8
0
  6
Continuous
 62
     7
100
AcDbLine
 10
-203.787353515625
 20
120.0608444213867
 30
0.0
 11
-200.7150421142578
 21
116.988525390625
 31
0.0
  0
LINE
  5
118
330
22
100
AcDbEntity
  8
0
  6
Continuous
 62
     7
100
AcDbLine
 10
-195.4174041748047
 20
111.6908950805664
 30
0.0
 11
-191.8859558105469
 21
108.1594390869141
 31
0.0
  0
LINE
  5
119
330
22
100
AcDbEntity
  8
0
  6
Continuous
 62
     7
100
AcDbLine
 10
-203.787353515625
 20
121.1215057373047
 30
0.0
 11
-200.6325531005859
 21
117.9666976928711
 31
0.0
  0
LINE
  5
11A
330
22
100
AcDbEntity
  8
0
  6
Continuous
 62
     7
100
AcDbLine
 10
-195.5113983154297
 20
112.8455429077148
 30
0.0
 11
-191.8859558105469
 21
109.220100402832
 31
0.0
  0
LINE
  5
11B
330
22
100
AcDbEntity
  8
0
  6
Continuous
 62
     7
100
AcDbLine
 10
-203.787353515625
 20
121.4750595092773
 30
0.0
 11
-200.6050567626953
 21
118.292755126953
 31
0.0
  0
LINE
  5
11C
330
22
100
AcDbEntity
  8
0
  6
Continuous
 62
     7
100
AcDbLine
 10
-195.542724609375
 20
113.2304229736328
 30
0.0
 11
-191.8859558105469
 21
109.5736541748047
 31
0.0
  0
LINE
  5
11D
330
22
100
AcDbEntity
  8
0
  6
Continuous
 62
     7
100
AcDbLine
 10
-203.787353515625
 20
122.5357208251953
 30
0.0
 11
-200.5225677490234
 21
119.2709274291992
 31
0.0
  0
LINE
  5
11E
330
22
100
AcDbEntity
  8
0
  6
Continuous
 62
     7
100
AcDbLine
 10
-195.6367034912109
 20
114.3850631713867
 30
0.0
 11
-191.8859558105469
 21
110.6343154907227
 31
0.0
  0
LINE
  5
11F
330
22
100
AcDbEntity
  8
0
  6
Continuous
 62
     7
100
AcDbLine
 10
-203.787353515625
 20
122.889274597168
 30
0.0
 11
-200.4950714111328
 21
119.5969848632813
 31
0.0
  0
LINE
  5
120
330
22
100
AcDbEntity
  8
0
  6
Continuous
 62
     7
100
AcDbLine
 10
-195.6680297851563
 20
114.7699432373047
 30
0.0
 11
-191.8859558105469
 21
110.9878692626953
 31
0.0
  0
LINE
  5
121
330
22
100
AcDbEntity
  8
0
  6
Continuous
 62
     7
100
AcDbLine
 10
-203.787353515625
 20
123.9499359130859
 30
0.0
 11
-200.4125823974609
 21
120.5751571655273
 31
0.0
  0
LINE
  5
122
330
22
100
AcDbEntity
  8
0
  6
Continuous
 62
     7
100
AcDbLine
 10
-195.7620086669922
 20
115.9245834350586
 30
0.0
 11
-191.8859558105469
 21
112.0485305786133
 31
0.0
  0
LINE
  5
123
330
22
100
AcDbEntity
  8
0
  6
Continuous
 62
     7
100
AcDbLine
 10
-203.7242126464844
 20
124.240348815918
 30
0.0
 11
-200.3850860595703
 21
120.9012222290039
 31
0.0
  0
LINE
  5
124
330
22
100
AcDbEntity
  8
0
  6
Continuous
 62
     7
100
AcDbLine
 10
-195.7933349609375
 20
116.3094635009766
 30
0.0
 11
-191.8859558105469
 21
112.4020843505859
 31
0.0
  0
LINE
  5
125
330
22
100
AcDbEntity
  8
0
  6
Continuous
 62
     7
100
AcDbLine
 10
-203.5252685546875
 20
125.1020660400391
 30
0.0
 11
-200.3025970458984
 21
121.87939453125
 31
0.0
  0
LINE
  5
126
330
22
100
AcDbEntity
  8
0
  6
Continuous
 62
     7
100
AcDbLine
 10
-195.8873291015625
 20
117.464111328125
 30
0.0
 11
-193.7859497070313
 21
115.3627395629883
 31
0.0
  0
LINE
  5
127
330
22
100
AcDbEntity
  8
0
  6
Continuous
 62
     7
100
AcDbLine
 10
-193.5608978271484
 20
115.1376800537109
 30
0.0
 11
-191.8859558105469
 21
113.4627456665039
 31
0.0
  0
LINE
  5
128
330
22
100
AcDbEntity
  8
0
  6
Continuous
 62
     7
100
AcDbLine
 10
-203.4589538574219
 20
125.3893051147461
 30
0.0
 11
-200.2751159667969
 21
122.205451965332
 31
0.0
  0
LINE
  5
129
330
22
100
AcDbEntity
  8
0
  6
Continuous
 62
     7
100
AcDbLine
 10
-195.9186553955078
 20
117.848991394043
 30
0.0
 11
-193.7859497070313
 21
115.7162933349609
 31
0.0
  0
LINE
  5
12A
330
22
100
AcDbEntity
  8
0
  6
Continuous
 62
     7
100
AcDbLine
 10
-193.2073364257813
 20
115.1376800537109
 30
0.0
 11
-191.8859558105469
 21
113.8162994384766
 31
0.0
  0
LINE
  5
12B
330
22
100
AcDbEntity
  8
0
  6
Continuous
 62
     7
100
AcDbLine
 10
-203.2600250244141
 20
126.2510223388672
 30
0.0
 11
-200.192626953125
 21
123.1836242675781
 31
0.0
  0
LINE
  5
12C
330
22
100
AcDbEntity
  8
0
  6
Continuous
 62
     7
100
AcDbLine
 10
-196.0126342773438
 20
119.0036315917969
 30
0.0
 11
-193.7859497070313
 21
116.7769546508789
 31
0.0
  0
LINE
  5
12D
330
22
100
AcDbEntity
  8
0
  6
Continuous
 62
     7
100
AcDbLine
 10
-192.1466827392578
 20
115.1376800537109
 30
0.0
 11
-191.8859558105469
 21
114.876953125
 31
0.0
  0
LINE
  5
12E
330
22
100
AcDbEntity
  8
0
  6
Continuous
 62
     7
100
AcDbLine
 10
-203.1937103271484
 20
126.5382614135742
 30
0.0
 11
-200.1651306152344
 21
123.5096817016602
 31
0.0
  0
LINE
  5
12F
330
22
100
AcDbEntity
  8
0
  6
Continuous
 62
     7
100
AcDbLine
 10
-196.0439605712891
 20
119.3885116577148
 30
0.0
 11
-193.7859497070313
 21
117.1305084228516
 31
0.0
  0
LINE
  5
130
330
22
100
AcDbEntity
  8
0
  6
Continuous
 62
     7
100
AcDbLine
 10
-202.9947662353516
 20
127.3999786376953
 30
0.0
 11
-200.0826416015625
 21
124.4878540039063
 31
0.0
  0
LINE
  5
131
330
22
100
AcDbEntity
  8
0
  6
Continuous
 62
     7
100
AcDbLine
 10
-196.137939453125
 20
120.5431594848633
 30
0.0
 11
-193.2324676513672
 21
117.6376800537109
 31
0.0
  0
LINE
  5
132
330
22
100
AcDbEntity
  8
0
  6
Continuous
 62
     7
100
AcDbLine
 10
-202.9284515380859
 20
127.6872177124023
 30
0.0
 11
-200.0551452636719
 21
124.8139114379883
 31
0.0
  0
LINE
  5
133
330
22
100
AcDbEntity
  8
0
  6
Continuous
 62
     7
100
AcDbLine
 10
-196.1692657470703
 20
120.9280395507813
 30
0.0
 11
-192.8789215087891
 21
117.6376800537109
 31
0.0
  0
LINE
  5
134
330
22
100
AcDbEntity
  8
0
  6
Continuous
 62
     7
100
AcDbLine
 10
-202.7295074462891
 20
128.5489349365234
 30
0.0
 11
-199.97265625
 21
125.7920837402344
 31
0.0
  0
LINE
  5
135
330
22
100
AcDbEntity
  8
0
  6
Continuous
 62
     7
100
AcDbLine
 10
-196.2632446289063
 20
122.0826797485352
 30
0.0
 11
-191.9333038330078
 21
117.7527313232422
 31
0.0
  0
LINE
  5
136
330
22
100
AcDbEntity
  8
0
  6
Continuous
 62
     7
100
AcDbLine
 10
-202.6631927490234
 20
128.8361663818359
 30
0.0
 11
-199.9451599121094
 21
126.1181488037109
 31
0.0
  0
LINE
  5
137
330
22
100
AcDbEntity
  8
0
  6
Continuous
 62
     7
100
AcDbLine
 10
-196.2945861816406
 20
122.467559814453
 30
0.0
 11
-191.7859497070313
 21
117.9589385986328
 31
0.0
  0
LINE
  5
138
330
22
100
AcDbEntity
  8
0
  6
Continuous
 62
     7
100
AcDbLine
 10
-202.4642486572266
 20
129.6978912353516
 30
0.0
 11
-199.8434295654297
 21
127.0770721435547
 31
0.0
  0
LINE
  5
139
330
22
100
AcDbEntity
  8
0
  6
Continuous
 62
     7
100
AcDbLine
 10
-196.3885650634766
 20
123.6222076416016
 30
0.0
 11
-191.7017211914063
 21
118.9353713989258
 31
0.0
  0
LINE
  5
13A
330
22
100
AcDbEntity
  8
0
  6
Continuous
 62
     7
100
AcDbLine
 10
-202.3979339599609
 20
129.9851226806641
 30
0.0
 11
-199.7568817138672
 21
127.3440780639648
 31
0.0
  0
LINE
  5
13B
330
22
100
AcDbEntity
  8
0
  6
Continuous
 62
     7
100
AcDbLine
 10
-196.4198913574219
 20
124.0070877075195
 30
0.0
 11
-191.6487274169922
 21
119.2359237670898
 31
0.0
  0
LINE
  5
13C
330
22
100
AcDbEntity
  8
0
  6
Continuous
 62
     7
100
AcDbLine
 10
-202.1989898681641
 20
130.8468475341797
 30
0.0
 11
-199.2953186035156
 21
127.9431762695313
 31
0.0
  0
LINE
  5
13D
330
22
100
AcDbEntity
  8
0
  6
Continuous
 62
     7
100
AcDbLine
 10
-196.5138702392578
 20
125.1617279052734
 30
0.0
 11
-191.48974609375
 21
120.1375961303711
 31
0.0
  0
LINE
  5
13E
330
22
100
AcDbEntity
  8
0
  6
Continuous
 62
     7
100
AcDbLine
 10
-202.1326751708984
 20
131.1340789794922
 30
0.0
 11
-199.0768737792969
 21
128.0782928466797
 31
0.0
  0
LINE
  5
13F
330
22
100
AcDbEntity
  8
0
  6
Continuous
 62
     7
100
AcDbLine
 10
-196.5451965332031
 20
125.5466079711914
 30
0.0
 11
-191.4367370605469
 21
120.4381561279297
 31
0.0
  0
LINE
  5
140
330
22
100
AcDbEntity
  8
0
  6
Continuous
 62
     7
100
AcDbLine
 10
-201.9337310791016
 20
131.9958038330078
 30
0.0
 11
-198.1887359619141
 21
128.2508087158203
 31
0.0
  0
LINE
  5
141
330
22
100
AcDbEntity
  8
0
  6
Continuous
 62
     7
100
AcDbLine
 10
-196.6391754150391
 20
126.7012481689453
 30
0.0
 11
-191.2777557373047
 21
121.3398284912109
 31
0.0
  0
LINE
  5
142
330
22
100
AcDbEntity
  8
0
  6
Continuous
 62
     7
100
AcDbLine
 10
-201.8650665283203
 20
132.2807006835938
 30
0.0
 11
-197.7872161865234
 21
128.2028350830078
 31
0.0
  0
LINE
  5
143
330
22
100
AcDbEntity
  8
0
  6
Continuous
 62
     7
100
AcDbLine
 10
-196.6998443603516
 20
127.1154632568359
 30
0.0
 11
-191.2247619628906
 21
121.640380859375
 31
0.0
  0
LINE
  5
144
330
22
100
AcDbEntity
  8
0
  6
Continuous
 62
     7
100
AcDbLine
 10
-201.1596069335938
 20
132.6358947753906
 30
0.0
 11
-191.0657653808594
 21
122.5420532226563
 31
0.0
  0
LINE
  5
145
330
22
100
AcDbEntity
  8
0
  6
Continuous
 62
     7
100
AcDbLine
 10
-200.8060455322266
 20
132.6358947753906
 30
0.0
 11
-191.0127716064453
 21
122.8426132202148
 31
0.0
  0
LINE
  5
146
330
22
100
AcDbEntity
  8
0
  6
Continuous
 62
     7
100
AcDbLine
 10
-199.7453918457031
 20
132.6358947753906
 30
0.0
 11
-190.8537902832031
 21
123.7442779541016
 31
0.0
  0
LINE
  5
147
330
22
100
AcDbEntity
  8
0
  6
Continuous
 62
     7
100
AcDbLine
 10
-199.3918304443359
 20
132.6358947753906
 30
0.0
 11
-190.80078125
 21
124.0448379516602
 31
0.0
  0
LINE
  5
148
330
22
100
AcDbEntity
  8
0
  6
Continuous
 62
     7
100
AcDbLine
 10
-198.3311767578125
 20
132.6358947753906
 30
0.0
 11
-190.6417999267578
 21
124.9465103149414
 31
0.0
  0
LINE
  5
149
330
22
100
AcDbEntity
  8
0
  6
Continuous
 62
     7
100
AcDbLine
 10
-197.9776306152344
 20
132.6358947753906
 30
0.0
 11
-190.5888061523438
 21
125.2470703125
 31
0.0
  0
LINE
  5
14A
330
22
100
AcDbEntity
  8
0
  6
Continuous
 62
     7
100
AcDbLine
 10
-196.9169616699219
 20
132.6358947753906
 30
0.0
 11
-190.4298095703125
 21
126.1487350463867
 31
0.0
  0
LINE
  5
14B
330
22
100
AcDbEntity
  8
0
  6
Continuous
 62
     7
100
AcDbLine
 10
-196.5634155273438
 20
132.6358947753906
 30
0.0
 11
-190.3768157958984
 21
126.4492950439453
 31
0.0
  0
LINE
  5
14C
330
22
100
AcDbEntity
  8
0
  6
Continuous
 62
     7
100
AcDbLine
 10
-195.5027465820313
 20
132.6358947753906
 30
0.0
 11
-190.2178344726563
 21
127.3509674072266
 31
0.0
  0
LINE
  5
14D
330
22
100
AcDbEntity
  8
0
  6
Continuous
 62
     7
100
AcDbLine
 10
-195.1492004394531
 20
132.6358947753906
 30
0.0
 11
-190.1648254394531
 21
127.6515197753905
 31
0.0
  0
LINE
  5
14E
330
22
100
AcDbEntity
  8
0
  6
Continuous
 62
     7
100
AcDbLine
 10
-194.0885314941406
 20
132.6358947753906
 30
0.0
 11
-190.0058441162109
 21
128.5531921386719
 31
0.0
  0
LINE
  5
14F
330
22
100
AcDbEntity
  8
0
  6
Continuous
 62
     7
100
AcDbLine
 10
-193.7349853515625
 20
132.6358947753906
 30
0.0
 11
-189.9528503417969
 21
128.8537445068359
 31
0.0
  0
LINE
  5
150
330
22
100
AcDbEntity
  8
0
  6
CENTER
 62
     7
100
AcDbLine
 10
-221.7859497070314
 20
172.1638336181641
 30
0.0
 11
-221.7859497070314
 21
266.8149108886719
 31
0.0
  0
LINE
  5
151
330
22
100
AcDbEntity
  8
0
  6
Continuous
 62
     7
100
AcDbLine
 10
-192.67431640625
 20
132.6358947753906
 30
0.0
 11
-189.7938537597656
 21
129.7554168701172
 31
0.0
  0
LINE
  5
152
330
22
100
AcDbEntity
  8
0
  6
Continuous
 62
     7
100
AcDbLine
 10
-192.3207702636719
 20
132.6358947753906
 30
0.0
 11
-189.7408599853516
 21
130.0559844970702
 31
0.0
  0
LINE
  5
153
330
22
100
AcDbEntity
  8
0
  6
Continuous
 62
     7
100
AcDbLine
 10
-191.2601165771484
 20
132.6358947753906
 30
0.0
 11
-189.5818786621094
 21
130.9576568603516
 31
0.0
  0
LINE
  5
154
330
22
100
AcDbEntity
  8
0
  6
Continuous
 62
     7
100
AcDbLine
 10
-190.9065551757813
 20
132.6358947753906
 30
0.0
 11
-189.5288696289063
 21
131.2582092285156
 31
0.0
  0
LINE
  5
155
330
22
100
AcDbEntity
  8
0
  6
Continuous
 62
     7
100
AcDbLine
 10
-189.8431549072266
 20
132.6331481933594
 30
0.0
 11
-189.3934936523438
 21
132.1834869384766
 31
0.0
  0
LINE
  5
156
330
22
100
AcDbEntity
  8
0
  6
Continuous
 62
     7
100
AcDbLine
 10
-221.7859497070314
 20
102.1358871459961
 30
0.0
 11
-215.7859497070313
 21
102.1358871459961
 31
0.0
  0
LINE
  5
157
330
22
100
AcDbEntity
  8
0
  6
Continuous
 62
     7
100
AcDbLine
 10
-216.0059509277344
 20
113.1358871459961
 30
0.0
 11
-217.0059509277344
 21
113.1358871459961
 31
0.0
  0
LINE
  5
158
330
22
100
AcDbEntity
  8
0
  6
Continuous
 62
     7
100
AcDbLine
 10
-217.0059509277344
 20
113.264533996582
 30
0.0
 11
-216.8773040771484
 21
113.1358871459961
 31
0.0
  0
LINE
  5
159
330
22
100
AcDbEntity
  8
0
  6
Continuous
 62
     7
100
AcDbLine
 10
-199.8811798095703
 20
126.8769302368164
 30
0.0
 11
-200.7589416503906
 21
116.4678268432617
 31
0.0
  0
LINE
  5
15A
330
22
100
AcDbEntity
  8
0
  6
Continuous
 62
     7
100
AcDbLine
 10
-203.787353515625
 20
123.6353530883789
 30
0.0
 11
-203.787353515625
 21
123.9668426513672
 31
0.0
  0
LINE
  5
15B
330
22
100
AcDbEntity
  8
0
  6
Continuous
 62
     7
100
AcDbLine
 10
-196.6531219482422
 20
126.8725738525391
 30
0.0
 11
-195.0221862792969
 21
106.8352279663086
 31
0.0
  0
LINE
  5
15C
330
22
100
AcDbEntity
  8
0
  6
Continuous
 62
     7
100
AcDbLine
 10
-203.787353515625
 20
123.9668426513672
 30
0.0
 11
-203.787353515625
 21
117.6358871459961
 31
0.0
  0
LINE
  5
15D
330
22
100
AcDbEntity
  8
0
  6
Continuous
 62
     7
100
AcDbLine
 10
-189.3894348144531
 20
132.0490570068359
 30
0.0
 11
-191.7859497070313
 21
118.4576797485352
 31
0.0
  0
LINE
  5
15E
330
22
100
AcDbEntity
  8
0
  6
Continuous
 62
     7
100
AcDbLine
 10
-203.8855590820313
 20
121.1358871459961
 30
0.0
 11
-203.8855590820313
 21
119.1358871459961
 31
0.0
  0
LINE
  5
15F
330
22
100
AcDbEntity
  8
0
  6
Continuous
 62
     7
100
AcDbLine
 10
-205.7855529785156
 20
123.6353530883789
 30
0.0
 11
-205.7855529785156
 21
121.1358871459961
 31
0.0
  0
LINE
  5
160
330
22
100
AcDbEntity
  8
0
  6
Continuous
 62
     7
100
AcDbLine
 10
-205.7855529785156
 20
121.1358871459961
 30
0.0
 11
-203.8855590820313
 21
121.1358871459961
 31
0.0
  0
LINE
  5
161
330
22
100
AcDbEntity
  8
0
  6
Continuous
 62
     7
100
AcDbLine
 10
-201.8754272460938
 20
132.2483673095703
 30
0.0
 11
-203.787353515625
 21
123.9668426513672
 31
0.0
  0
LINE
  5
162
330
22
100
AcDbEntity
  8
0
  6
Continuous
 62
     7
100
AcDbLine
 10
-226.0046997070313
 20
87.63574981689453
 30
0.0
 11
-226.5046997070313
 21
128.6357421875
 31
0.0
  0
LINE
  5
163
330
22
100
AcDbEntity
  8
0
  6
Continuous
 62
     7
100
AcDbLine
 10
-256.825439453125
 20
114.0043106079102
 30
0.0
 11
-258.8688049316406
 21
128.7424163818359
 31
0.0
  0
LINE
  5
164
330
22
100
AcDbEntity
  8
0
  6
Continuous
 62
     7
100
AcDbLine
 10
-258.7859497070313
 20
113.6358871459961
 30
0.0
 11
-260.9645385742188
 21
129.6358947753906
 31
0.0
  0
LINE
  5
165
330
22
100
AcDbEntity
  8
0
  6
Continuous
 62
     7
100
AcDbLine
 10
-256.825439453125
 20
114.0043106079102
 30
0.0
 11
-226.3479309082031
 21
114.0043106079102
 31
0.0
  0
LINE
  5
166
330
22
100
AcDbEntity
  8
0
  6
Continuous
 62
     7
100
AcDbLine
 10
-256.825439453125
 20
114.0043106079102
 30
0.0
 11
-256.3026123046875
 21
85.63574981689454
 31
0.0
  0
LINE
  5
167
330
22
100
AcDbEntity
  8
0
  6
Continuous
 62
     7
100
AcDbLine
 10
-256.3026123046875
 20
85.63574981689454
 30
0.0
 11
-255.2859497070314
 21
84.63588714599609
 31
0.0
  0
LINE
  5
168
330
22
100
AcDbEntity
  8
0
  6
Continuous
 62
     7
100
AcDbLine
 10
-258.3692626953125
 20
89.63477325439454
 30
0.0
 11
-256.3359375
 21
87.63505554199218
 31
0.0
  0
LINE
  5
169
330
22
100
AcDbEntity
  8
0
  6
Continuous
 62
     7
100
AcDbLine
 10
-258.8192749023438
 20
113.6353302001953
 30
0.0
 11
-258.3692626953125
 21
89.63477325439454
 31
0.0
  0
LINE
  5
16A
330
22
100
AcDbEntity
  8
0
  6
Continuous
 62
     7
100
AcDbLine
 10
-201.9273529052734
 20
132.0234069824219
 30
0.0
 11
-203.787353515625
 21
123.9668426513672
 31
0.0
  0
LINE
  5
16B
330
22
100
AcDbEntity
  8
0
  6
Continuous
 62
     7
100
AcDbLine
 10
-203.787353515625
 20
123.6353530883789
 30
0.0
 11
-205.7855529785156
 21
123.6353530883789
 31
0.0
  0
LINE
  5
16C
330
22
100
AcDbEntity
  8
0
  6
Continuous
 62
     7
100
AcDbLine
 10
-184.7859497070313
 20
113.6358871459961
 30
0.0
 11
-182.6073760986328
 21
129.6358947753906
 31
0.0
  0
LINE
  5
16D
330
22
100
AcDbEntity
  8
0
  6
Continuous
 62
     7
100
AcDbLine
 10
-207.7855529785156
 20
120.1358871459961
 30
0.0
 11
-207.7855529785156
 21
120.2853469848633
 31
0.0
  0
LINE
  5
16E
330
22
100
AcDbEntity
  8
0
  6
Continuous
 62
     7
100
AcDbLine
 10
-221.7859497070314
 20
84.63588714599609
 30
0.0
 11
-255.2859497070314
 21
84.63588714599609
 31
0.0
  0
LINE
  5
16F
330
22
100
AcDbEntity
  8
0
  6
Continuous
 62
     7
100
AcDbLine
 10
-221.7859497070314
 20
87.63574981689453
 30
0.0
 11
-226.0046997070313
 21
87.63574981689453
 31
0.0
  0
LINE
  5
170
330
22
100
AcDbEntity
  8
0
  6
Continuous
 62
     7
100
AcDbLine
 10
-226.0303344726563
 20
89.63477325439454
 30
0.0
 11
-221.7975921630859
 21
89.63477325439454
 31
0.0
  0
LINE
  5
171
330
22
100
AcDbEntity
  8
0
  6
Continuous
 62
     7
100
AcDbLine
 10
-217.7859497070314
 20
102.1358871459961
 30
0.0
 11
-217.7859497070314
 21
118.2853469848633
 31
0.0
  0
LINE
  5
172
330
22
100
AcDbEntity
  8
0
  6
Continuous
 62
     7
100
AcDbLine
 10
-193.7859497070313
 20
117.6376800537109
 30
0.0
 11
-193.7859497070313
 21
115.1376800537109
 31
0.0
  0
LINE
  5
173
330
22
100
AcDbEntity
  8
0
  6
Continuous
 62
     7
100
AcDbLine
 10
-204.3855590820313
 20
118.6358871459961
 30
0.0
 11
-206.2855529785156
 21
118.6358871459961
 31
0.0
  0
LINE
  5
174
330
22
100
AcDbEntity
  8
0
  6
Continuous
 62
     7
100
AcDbLine
 10
-191.7859497070313
 20
117.6376800537109
 30
0.0
 11
-191.7859497070313
 21
118.4576797485352
 31
0.0
  0
LINE
  5
175
330
22
100
AcDbEntity
  8
0
  6
Continuous
 62
     7
100
AcDbLine
 10
-263.2859497070313
 20
133.6358947753906
 30
0.0
 11
-221.7803802490234
 21
133.6358947753906
 31
0.0
  0
LINE
  5
176
330
22
100
AcDbEntity
  8
0
  6
Continuous
 62
     7
100
AcDbLine
 10
-258.8688049316406
 20
128.7424163818359
 30
0.0
 11
-221.7859497070314
 21
128.7424163818359
 31
0.0
  0
LINE
  5
177
330
22
100
AcDbEntity
  8
0
  6
Continuous
 62
     7
100
AcDbLine
 10
-263.2859497070313
 20
129.6358947753906
 30
0.0
 11
-221.7859497070314
 21
129.6358947753906
 31
0.0
  0
LINE
  5
178
330
22
100
AcDbEntity
  8
0
  6
Continuous
 62
     7
100
AcDbLine
 10
-219.5359497070313
 20
131.6358947753906
 30
0.0
 11
-219.5359497070313
 21
129.6358947753906
 31
0.0
  0
LINE
  5
179
330
22
100
AcDbEntity
  8
0
  6
Continuous
 62
     7
100
AcDbLine
 10
-218.5359497070313
 20
132.6358947753906
 30
0.0
 11
-221.7859497070314
 21
132.6358947753906
 31
0.0
  0
LINE
  5
17A
330
22
100
AcDbEntity
  8
0
  6
Continuous
 62
     7
100
AcDbLine
 10
-264.2859497070313
 20
132.6358947753906
 30
0.0
 11
-264.2859497070313
 21
130.1358947753906
 31
0.0
  0
LINE
  5
17B
330
22
100
AcDbEntity
  8
0
  6
Continuous
 62
     7
100
AcDbLine
 10
-263.7859497070313
 20
129.6358947753906
 30
0.0
 11
-259.8630981445313
 21
129.6358947753906
 31
0.0
  0
LINE
  5
17C
330
22
100
AcDbEntity
  8
0
  6
Continuous
 62
     7
100
AcDbLine
 10
-256.3026123046875
 20
85.63574981689454
 30
0.0
 11
-221.7859497070314
 21
85.63574981689454
 31
0.0
  0
LINE
  5
17D
330
22
100
AcDbEntity
  8
0
  6
Continuous
 62
     7
100
AcDbLine
 10
-197.8859558105469
 20
84.63588714599609
 30
0.0
 11
-199.0859527587891
 21
85.83588409423828
 31
0.0
  0
LINE
  5
17E
330
22
100
AcDbEntity
  8
0
  6
Continuous
 62
     7
100
AcDbLine
 10
-185.20263671875
 20
89.63477325439454
 30
0.0
 11
-187.2359619140625
 21
87.63505554199218
 31
0.0
  0
LINE
  5
17F
330
22
100
AcDbEntity
  8
0
  6
Continuous
 62
     7
100
AcDbLine
 10
-193.7859497070313
 20
115.1376800537109
 30
0.0
 11
-191.8859558105469
 21
115.1376800537109
 31
0.0
  0
LINE
  5
180
330
22
100
AcDbEntity
  8
0
  6
Continuous
 62
     7
100
AcDbLine
 10
-194.8059539794922
 20
106.6358871459961
 30
0.0
 11
-195.0221862792969
 21
106.8352279663086
 31
0.0
  0
LINE
  5
181
330
22
100
AcDbEntity
  8
0
  6
Continuous
 62
     7
100
AcDbLine
 10
-184.7526245117188
 20
113.6353302001953
 30
0.0
 11
-185.20263671875
 21
89.63477325439454
 31
0.0
  0
LINE
  5
182
330
22
100
AcDbEntity
  8
0
  6
Continuous
 62
     7
100
AcDbLine
 10
-221.7859497070314
 20
96.63588714599608
 30
0.0
 11
-192.0859527587891
 21
96.63588714599608
 31
0.0
  0
LINE
  5
183
330
22
100
AcDbEntity
  8
0
  6
Continuous
 62
     7
100
AcDbLine
 10
-192.0859527587891
 20
98.63588714599607
 30
0.0
 11
-192.0859527587891
 21
96.63588714599608
 31
0.0
  0
LINE
  5
184
330
22
100
AcDbEntity
  8
0
  6
Continuous
 62
     7
100
AcDbLine
 10
-199.0859527587891
 20
95.43589019775392
 30
0.0
 11
-197.8859558105469
 21
96.63588714599608
 31
0.0
  0
LINE
  5
185
330
22
100
AcDbEntity
  8
0
  6
Continuous
 62
     7
100
AcDbLine
 10
-191.8859558105469
 20
115.1376800537109
 30
0.0
 11
-191.8859558105469
 21
107.1358871459961
 31
0.0
  0
LINE
  5
186
330
22
100
AcDbEntity
  8
0
  6
Continuous
 62
     7
100
AcDbLine
 10
-192.5859527587891
 20
103.6358871459961
 30
0.0
 11
-194.2869567871094
 21
103.6358871459961
 31
0.0
  0
LINE
  5
187
330
22
100
AcDbEntity
  8
0
  6
Continuous
 62
     7
100
AcDbLine
 10
-195.0223541259766
 20
106.8372802734375
 30
0.0
 11
-194.9980773925781
 21
106.8130035400391
 31
0.0
  0
LINE
  5
188
330
22
100
AcDbEntity
  8
0
  6
Continuous
 62
     7
100
AcDbLine
 10
-194.2869567871094
 20
103.6358871459961
 30
0.0
 11
-195.2859497070313
 21
102.6368865966797
 31
0.0
  0
LINE
  5
189
330
22
100
AcDbEntity
  8
0
  6
Continuous
 62
     7
100
AcDbLine
 10
-205.7059478759766
 20
114.6924591064453
 30
0.0
 11
-205.6493835449219
 21
114.6358871459961
 31
0.0
  0
LINE
  5
18A
330
22
100
AcDbEntity
  8
0
  6
Continuous
 62
     7
100
AcDbLine
 10
-192.3859558105469
 20
106.6358871459961
 30
0.0
 11
-194.8059539794922
 21
106.6358871459961
 31
0.0
  0
LINE
  5
18B
330
22
100
AcDbEntity
  8
0
  6
Continuous
 62
     7
100
AcDbLine
 10
-192.0090484619141
 20
115.1376800537109
 30
0.0
 11
-191.8859558105469
 21
115.0145950317383
 31
0.0
  0
LINE
  5
18C
330
22
100
AcDbEntity
  8
0
  6
Continuous
 62
     7
100
AcDbLine
 10
-205.7059478759766
 20
114.6358871459961
 30
0.0
 11
-205.7059478759766
 21
117.6358871459961
 31
0.0
  0
LINE
  5
18D
330
22
100
AcDbEntity
  8
0
  6
Continuous
 62
     7
100
AcDbLine
 10
-191.7859497070313
 20
104.4358901977539
 30
0.0
 11
-191.7859497070313
 21
118.4576797485352
 31
0.0
  0
LINE
  5
18E
330
22
100
AcDbEntity
  8
0
  6
Continuous
 62
     7
100
AcDbLine
 10
-191.7859497070313
 20
117.6376800537109
 30
0.0
 11
-193.7859497070313
 21
117.6376800537109
 31
0.0
  0
LINE
  5
18F
330
22
100
AcDbEntity
  8
0
  6
Continuous
 62
     7
100
AcDbLine
 10
-188.2859497070313
 20
84.63588714599609
 30
0.0
 11
-221.7859497070314
 21
84.63588714599609
 31
0.0
  0
LINE
  5
190
330
22
100
AcDbEntity
  8
0
  6
Continuous
 62
     7
100
AcDbLine
 10
-187.269287109375
 20
85.63574981689454
 30
0.0
 11
-188.2859497070313
 21
84.63588714599609
 31
0.0
  0
LINE
  5
191
330
22
100
AcDbEntity
  8
0
  6
Continuous
 62
     7
100
AcDbLine
 10
-187.2323760986328
 20
87.63858032226563
 30
0.0
 11
-187.269287109375
 21
85.63574981689454
 31
0.0
  0
LINE
  5
192
330
22
100
AcDbEntity
  8
0
  6
Continuous
 62
     7
100
AcDbLine
 10
-199.0859527587891
 20
85.83588409423828
 30
0.0
 11
-199.0859527587891
 21
95.43589019775392
 31
0.0
  0
LINE
  5
193
330
22
100
AcDbEntity
  8
0
  6
Continuous
 62
     7
100
AcDbLine
 10
-197.8859558105469
 20
96.63588714599608
 30
0.0
 11
-197.8859558105469
 21
84.63588714599609
 31
0.0
  0
LINE
  5
194
330
22
100
AcDbEntity
  8
0
  6
Continuous
 62
     7
100
AcDbLine
 10
-181.6275939941406
 20
132.6358947753906
 30
0.0
 11
-188.8664093017578
 21
132.6358947753906
 31
0.0
  0
LINE
  5
195
330
22
100
AcDbEntity
  8
0
  6
Continuous
 62
     7
100
AcDbLine
 10
-179.2859497070313
 20
132.6358947753906
 30
0.0
 11
-179.2859497070313
 21
130.1358947753906
 31
0.0
  0
LINE
  5
196
330
22
100
AcDbEntity
  8
0
  6
Continuous
 62
     7
100
AcDbLine
 10
-179.7859497070313
 20
129.6358947753906
 30
0.0
 11
-182.6073760986328
 21
129.6358947753906
 31
0.0
  0
LINE
  5
197
330
22
100
AcDbEntity
  8
0
  6
Continuous
 62
     7
100
AcDbLine
 10
-189.6526336669922
 20
132.5802612304687
 30
0.0
 11
-189.4374542236328
 21
132.3650817871094
 31
0.0
  0
LINE
  5
198
330
22
100
AcDbEntity
  8
0
  6
Continuous
 62
     7
100
AcDbLine
 10
-202.4403686523438
 20
132.6324462890625
 30
0.0
 11
-202.4369201660156
 21
132.6358947753906
 31
0.0
  0
LINE
  5
199
330
22
100
AcDbEntity
  8
0
  6
Continuous
 62
     7
100
AcDbLine
 10
-198.1481781005859
 20
128.2508850097656
 30
0.0
 11
-198.386474609375
 21
128.2508850097656
 31
0.0
  0
LINE
  5
19A
330
22
100
AcDbEntity
  8
0
  6
Continuous
 62
     7
100
AcDbLine
 10
-201.3882293701172
 20
132.6358947753906
 30
0.0
 11
-189.8818359375
 21
132.6358947753906
 31
0.0
  0
LINE
  5
19B
330
22
100
AcDbEntity
  8
0
  6
Continuous
 62
     7
100
AcDbLine
 10
-199.0859527587891
 20
85.83588409423828
 30
0.0
 11
-221.7859497070314
 21
85.83588409423828
 31
0.0
  0
LINE
  5
19C
330
22
100
AcDbEntity
  8
0
  6
Continuous
 62
     7
100
AcDbLine
 10
-199.0859527587891
 20
95.43589019775392
 30
0.0
 11
-221.7859497070314
 21
95.43589019775392
 31
0.0
  0
CIRCLE
  5
19D
330
22
100
AcDbEntity
  8
0
  6
Continuous
 62
     7
100
AcDbCircle
 10
-222.0114898681641
 20
219.1358947753906
 30
0.0
 40
20.0
  0
CIRCLE
  5
19E
330
22
100
AcDbEntity
  8
0
  6
Continuous
 62
     7
100
AcDbCircle
 10
-222.0114898681641
 20
219.1358947753906
 30
0.0
 40
42.5
  0
CIRCLE
  5
19F
330
22
100
AcDbEntity
  8
0
  6
Continuous
 62
     7
100
AcDbCircle
 10
-222.0114898681641
 20
219.1358947753906
 30
0.0
 40
32.5
  0
CIRCLE
  5
1A0
330
22
100
AcDbEntity
  8
0
  6
Continuous
 62
     7
100
AcDbCircle
 10
-222.0114898681641
 20
219.1358947753906
 30
0.0
 40
40.49999999999999
  0
ARC
  5
1A1
330
22
100
AcDbEntity
  8
0
  6
Continuous
 62
     7
100
AcDbCircle
 10
-222.0114898681641
 20
219.1358947753906
 30
0.0
 40
4.449999809265136
100
AcDbArc
 50
33.40557740054741
 51
146.5945307648596
  0
ARC
  5
1A2
330
22
100
AcDbEntity
  8
0
  6
Continuous
 62
     7
100
AcDbCircle
 10
-222.0114898681641
 20
219.1358947753906
 30
0.0
 40
4.449999809265136
100
AcDbArc
 50
213.4056332417444
 51
326.5942585925848
  0
ARC
  5
1A3
330
22
100
AcDbEntity
  8
0
  6
Continuous
 62
     7
100
AcDbCircle
 10
-214.5059509277344
 20
113.6358871459961
 30
0.0
 40
1.0
100
AcDbArc
 50
90.00000000000019
 51
180.0000000000004
  0
ARC
  5
1A4
330
22
100
AcDbEntity
  8
0
  6
Continuous
 62
     7
100
AcDbCircle
 10
-216.0059509277344
 20
113.6358871459961
 30
0.0
 40
0.5
100
AcDbArc
 50
270.0000000000005
 51
0.0
  0
ARC
  5
1A5
330
22
100
AcDbEntity
  8
0
  6
Continuous
 62
     7
100
AcDbCircle
 10
-214.7859497070313
 20
118.2853469848633
 30
0.0
 40
3.0
100
AcDbArc
 50
90.00000000000019
 51
180.0000000000004
  0
ARC
  5
1A6
330
22
100
AcDbEntity
  8
0
  6
Continuous
 62
     7
100
AcDbCircle
 10
-206.2855529785156
 20
120.1358871459961
 30
0.0
 40
1.5
100
AcDbArc
 50
180.0000000000004
 51
270.0000000000005
  0
ARC
  5
1A7
330
22
100
AcDbEntity
  8
0
  6
Continuous
 62
     7
100
AcDbCircle
 10
-204.3855590820313
 20
119.1358871459961
 30
0.0
 40
0.5
100
AcDbArc
 50
270.0000000000005
 51
0.0
  0
ARC
  5
1A8
330
22
100
AcDbEntity
  8
0
  6
Continuous
 62
     7
100
AcDbCircle
 10
-208.7855529785156
 20
120.2853469848633
 30
0.0
 40
1.0
100
AcDbArc
 50
0.0
 51
90.00000000000019
  0
CIRCLE
  5
1A9
330
22
100
AcDbEntity
  8
0
  6
Continuous
 62
     7
100
AcDbCircle
 10
-204.7855529785156
 20
122.3358840942383
 30
0.0
 40
1.0
  0
ARC
  5
1AA
330
22
100
AcDbEntity
  8
0
  6
Continuous
 62
     7
100
AcDbCircle
 10
-202.7518768310547
 20
116.6358871459961
 30
0.0
 40
2.0
100
AcDbArc
 50
270.0000000000005
 51
355.1797639697097
  0
CIRCLE
  5
1AB
330
22
100
AcDbEntity
  8
0
  6
Continuous
 62
     7
100
AcDbCircle
 10
-192.7859497070313
 20
116.3876800537109
 30
0.0
 40
1.0
  0
ARC
  5
1AC
330
22
100
AcDbEntity
  8
0
  6
Continuous
 62
     7
100
AcDbCircle
 10
-218.5359497070313
 20
131.6358947753906
 30
0.0
 40
1.0
100
AcDbArc
 50
90.00000000000019
 51
180.0000000000004
  0
ARC
  5
1AD
330
22
100
AcDbEntity
  8
0
  6
Continuous
 62
     7
100
AcDbCircle
 10
-263.2859497070313
 20
132.6358947753906
 30
0.0
 40
1.0
100
AcDbArc
 50
90.00000000000019
 51
180.0000000000004
  0
ARC
  5
1AE
330
22
100
AcDbEntity
  8
0
  6
Continuous
 62
     7
100
AcDbCircle
 10
-259.8630981445313
 20
128.6358947753906
 30
0.0
 40
1.0
100
AcDbArc
 50
6.114944728156551
 51
90.00000000000019
  0
ARC
  5
1AF
330
22
100
AcDbEntity
  8
0
  6
Continuous
 62
     7
100
AcDbCircle
 10
-263.7859497070313
 20
130.1358947753906
 30
0.0
 40
0.5
100
AcDbArc
 50
180.0000000000004
 51
270.0000000000005
  0
ARC
  5
1B0
330
22
100
AcDbEntity
  8
0
  6
Continuous
 62
     7
100
AcDbCircle
 10
-192.3859558105469
 20
107.1358871459961
 30
0.0
 40
0.5
100
AcDbArc
 50
270.0000000000005
 51
0.0
  0
ARC
  5
1B1
330
22
100
AcDbEntity
  8
0
  6
Continuous
 62
     7
100
AcDbCircle
 10
-192.5859527587891
 20
104.4358901977539
 30
0.0
 40
0.8000000119209291
100
AcDbArc
 50
270.0000000000005
 51
0.0
  0
ARC
  5
1B2
330
22
100
AcDbEntity
  8
0
  6
Continuous
 62
     7
100
AcDbCircle
 10
-179.7859497070313
 20
130.1358947753906
 30
0.0
 40
0.5
100
AcDbArc
 50
270.0000000000005
 51
0.0
  0
ARC
  5
1B3
330
22
100
AcDbEntity
  8
0
  6
Continuous
 62
     7
100
AcDbCircle
 10
-181.6275939941406
 20
133.035888671875
 30
0.0
 40
0.4000000059604645
100
AcDbArc
 50
270.0000000000005
 51
343.3983106911117
  0
ARC
  5
1B4
330
22
100
AcDbEntity
  8
0
  6
Continuous
 62
     7
100
AcDbCircle
 10
-189.8818359375
 20
132.1358947753906
 30
0.0
 40
0.5
100
AcDbArc
 50
349.9984014433896
 51
90.00000000000019
  0
ARC
  5
1B5
330
22
100
AcDbEntity
  8
0
  6
Continuous
 62
     7
100
AcDbCircle
 10
-198.386474609375
 20
126.7508850097656
 30
0.0
 40
1.5
100
AcDbArc
 50
90.00000000000019
 51
175.1797762136634
  0
ARC
  5
1B6
330
22
100
AcDbEntity
  8
0
  6
Continuous
 62
     7
100
AcDbCircle
 10
-198.1481781005859
 20
126.7508850097656
 30
0.0
 40
1.5
100
AcDbArc
 50
4.653284038258425
 51
90.00000000000019
  0
ARC
  5
1B7
330
22
100
AcDbEntity
  8
0
  6
Continuous
 62
     7
100
AcDbCircle
 10
-202.4145355224609
 20
132.1358947753906
 30
0.0
 40
0.5
100
AcDbArc
 50
346.9985682107818
 51
90.00000000000019
  0
ARC
  5
1B8
330
22
100
AcDbEntity
  8
0
  6
Continuous
 62
     7
100
AcDbCircle
 10
-201.3882293701172
 20
132.1358947753906
 30
0.0
 40
0.5
100
AcDbArc
 50
90.00000000000019
 51
167.0006652409346
  0
ARC
  5
1B9
330
22
100
AcDbEntity
  8
0
  6
Continuous
 62
     7
100
AcDbCircle
 10
-188.8664093017578
 20
132.1358947753906
 30
0.0
 40
0.5
100
AcDbArc
 50
90.00000000000019
 51
170.000123409552
  0
ARC
  5
1BA
330
22
100
AcDbEntity
  8
0
  6
Continuous
 62
     7
100
AcDbCircle
 10
-180.2859497070313
 20
132.6358947753906
 30
0.0
 40
1.0
100
AcDbArc
 50
90.00000000000019
 51
163.3988987215728
  0
ARC
  5
1BB
330
22
100
AcDbEntity
  8
0
  6
Continuous
 62
     7
100
AcDbCircle
 10
-180.2859497070313
 20
132.6358947753906
 30
0.0
 40
1.0
100
AcDbArc
 50
0.0
 51
90.00000000000019
  0
TEXT
  5
1BC
330
22
100
AcDbEntity
  8
0
  6
Continuous
 62
     7
100
AcDbText
 10
-303.1502313613892
 20
15.84553527832031
 30
0.0
 40
7.0
  1
ＤＬ－ＣＨＧ－４０
 41
0.8448610808647003
100
AcDbText
  0
SOLID
  5
1BD
330
22
100
AcDbEntity
  8
0
  6
Continuous
 62
     7
100
AcDbTrace
 10
-204.5904541015625
 20
121.3551025390625
 30
0.0
 11
-204.9806365966797
 21
121.3551025390625
 31
0.0
 12
-204.4028625488281
 22
121.4120101928711
 32
0.0
 13
-205.1682281494141
 23
121.4120101928711
 33
0.0
  0
SOLID
  5
1BE
330
22
100
AcDbEntity
  8
0
  6
Continuous
 62
     7
100
AcDbTrace
 10
-204.4028625488281
 20
121.4120101928711
 30
0.0
 11
-205.1682281494141
 21
121.4120101928711
 31
0.0
 12
-204.22998046875
 22
121.5044174194336
 32
0.0
 13
-205.3411254882813
 23
121.5044174194336
 33
0.0
  0
SOLID
  5
1BF
330
22
100
AcDbEntity
  8
0
  6
Continuous
 62
     7
100
AcDbTrace
 10
-204.22998046875
 20
121.5044174194336
 30
0.0
 11
-205.3411254882813
 21
121.5044174194336
 31
0.0
 12
-204.0784454345703
 22
121.6287841796875
 32
0.0
 13
-205.4926605224609
 23
121.6287841796875
 33
0.0
  0
SOLID
  5
1C0
330
22
100
AcDbEntity
  8
0
  6
Continuous
 62
     7
100
AcDbTrace
 10
-204.0784454345703
 20
121.6287841796875
 30
0.0
 11
-205.4926605224609
 21
121.6287841796875
 31
0.0
 12
-203.9540863037109
 22
121.7803192138672
 32
0.0
 13
-205.6170196533203
 23
121.7803192138672
 33
0.0
  0
SOLID
  5
1C1
330
22
100
AcDbEntity
  8
0
  6
Continuous
 62
     7
100
AcDbTrace
 10
-203.9540863037109
 20
121.7803192138672
 30
0.0
 11
-205.6170196533203
 21
121.7803192138672
 31
0.0
 12
-203.8616790771484
 22
121.9532012939453
 32
0.0
 13
-205.7094268798828
 23
121.9532012939453
 33
0.0
  0
SOLID
  5
1C2
330
22
100
AcDbEntity
  8
0
  6
Continuous
 62
     7
100
AcDbTrace
 10
-203.8616790771484
 20
121.9532012939453
 30
0.0
 11
-205.7094268798828
 21
121.9532012939453
 31
0.0
 12
-203.8047637939453
 22
122.1408004760742
 32
0.0
 13
-205.7663421630859
 23
122.1408004760742
 33
0.0
  0
SOLID
  5
1C3
330
22
100
AcDbEntity
  8
0
  6
Continuous
 62
     7
100
AcDbTrace
 10
-203.8047637939453
 20
122.1408004760742
 30
0.0
 11
-205.7663421630859
 21
122.1408004760742
 31
0.0
 12
-203.7855529785156
 22
122.3358840942383
 32
0.0
 13
-205.7855529785156
 23
122.3358840942383
 33
0.0
  0
SOLID
  5
1C4
330
22
100
AcDbEntity
  8
0
  6
Continuous
 62
     7
100
AcDbTrace
 10
-203.7855529785156
 20
122.3358840942383
 30
0.0
 11
-205.7855529785156
 21
122.3358840942383
 31
0.0
 12
-203.8047637939453
 22
122.5309753417969
 32
0.0
 13
-205.7663421630859
 23
122.5309753417969
 33
0.0
  0
SOLID
  5
1C5
330
22
100
AcDbEntity
  8
0
  6
Continuous
 62
     7
100
AcDbTrace
 10
-203.8047637939453
 20
122.5309753417969
 30
0.0
 11
-205.7663421630859
 21
122.5309753417969
 31
0.0
 12
-203.8616790771484
 22
122.7185745239258
 32
0.0
 13
-205.7094268798828
 23
122.7185745239258
 33
0.0
  0
SOLID
  5
1C6
330
22
100
AcDbEntity
  8
0
  6
Continuous
 62
     7
100
AcDbTrace
 10
-203.8616790771484
 20
122.7185745239258
 30
0.0
 11
-205.7094268798828
 21
122.7185745239258
 31
0.0
 12
-203.9540863037109
 22
122.8914566040039
 32
0.0
 13
-205.6170196533203
 23
122.8914566040039
 33
0.0
  0
SOLID
  5
1C7
330
22
100
AcDbEntity
  8
0
  6
Continuous
 62
     7
100
AcDbTrace
 10
-203.9540863037109
 20
122.8914566040039
 30
0.0
 11
-205.6170196533203
 21
122.8914566040039
 31
0.0
 12
-204.0784454345703
 22
123.0429916381836
 32
0.0
 13
-205.4926605224609
 23
123.0429916381836
 33
0.0
  0
SOLID
  5
1C8
330
22
100
AcDbEntity
  8
0
  6
Continuous
 62
     7
100
AcDbTrace
 10
-204.0784454345703
 20
123.0429916381836
 30
0.0
 11
-205.4926605224609
 21
123.0429916381836
 31
0.0
 12
-204.22998046875
 22
123.1673583984375
 32
0.0
 13
-205.3411254882813
 23
123.1673583984375
 33
0.0
  0
SOLID
  5
1C9
330
22
100
AcDbEntity
  8
0
  6
Continuous
 62
     7
100
AcDbTrace
 10
-204.22998046875
 20
123.1673583984375
 30
0.0
 11
-205.3411254882813
 21
123.1673583984375
 31
0.0
 12
-204.4028625488281
 22
123.259765625
 32
0.0
 13
-205.1682281494141
 23
123.259765625
 33
0.0
  0
SOLID
  5
1CA
330
22
100
AcDbEntity
  8
0
  6
Continuous
 62
     7
100
AcDbTrace
 10
-204.4028625488281
 20
123.259765625
 30
0.0
 11
-205.1682281494141
 21
123.259765625
 31
0.0
 12
-204.5904541015625
 22
123.3166732788086
 32
0.0
 13
-204.9806365966797
 23
123.3166732788086
 33
0.0
  0
SOLID
  5
1CB
330
22
100
AcDbEntity
  8
0
  6
Continuous
 62
     7
100
AcDbTrace
 10
-204.7855529785156
 20
121.3358840942383
 30
0.0
 11
-204.9806365966797
 21
121.3551025390625
 31
0.0
 12
-204.5904541015625
 22
121.3551025390625
 32
0.0
 13
-204.5904541015625
 23
121.3551025390625
 33
0.0
  0
SOLID
  5
1CC
330
22
100
AcDbEntity
  8
0
  6
Continuous
 62
     7
100
AcDbTrace
 10
-204.5904541015625
 20
123.3166732788086
 30
0.0
 11
-204.9806365966797
 21
123.3166732788086
 31
0.0
 12
-204.7855529785156
 22
123.3358840942383
 32
0.0
 13
-204.7855529785156
 23
123.3358840942383
 33
0.0
  0
SOLID
  5
1CD
330
22
100
AcDbEntity
  8
0
  6
Continuous
 62
     7
100
AcDbTrace
 10
-192.5908660888672
 20
115.4068984985352
 30
0.0
 11
-192.9810485839844
 21
115.4068984985352
 31
0.0
 12
-192.4032745361328
 22
115.4638061523438
 32
0.0
 13
-193.1686401367188
 23
115.4638061523438
 33
0.0
  0
SOLID
  5
1CE
330
22
100
AcDbEntity
  8
0
  6
Continuous
 62
     7
100
AcDbTrace
 10
-192.4032745361328
 20
115.4638061523438
 30
0.0
 11
-193.1686401367188
 21
115.4638061523438
 31
0.0
 12
-192.2303771972656
 22
115.5562133789063
 32
0.0
 13
-193.3415222167969
 23
115.5562133789063
 33
0.0
  0
SOLID
  5
1CF
330
22
100
AcDbEntity
  8
0
  6
Continuous
 62
     7
100
AcDbTrace
 10
-192.2303771972656
 20
115.5562133789063
 30
0.0
 11
-193.3415222167969
 21
115.5562133789063
 31
0.0
 12
-192.0788421630859
 22
115.6805725097656
 32
0.0
 13
-193.4930572509766
 23
115.6805725097656
 33
0.0
  0
SOLID
  5
1D0
330
22
100
AcDbEntity
  8
0
  6
Continuous
 62
     7
100
AcDbTrace
 10
-192.0788421630859
 20
115.6805725097656
 30
0.0
 11
-193.4930572509766
 21
115.6805725097656
 31
0.0
 12
-191.9544830322266
 22
115.8321151733398
 32
0.0
 13
-193.617431640625
 23
115.8321151733398
 33
0.0
  0
SOLID
  5
1D1
330
22
100
AcDbEntity
  8
0
  6
Continuous
 62
     7
100
AcDbTrace
 10
-191.9544830322266
 20
115.8321151733398
 30
0.0
 11
-193.617431640625
 21
115.8321151733398
 31
0.0
 12
-191.8620758056641
 22
116.004997253418
 32
0.0
 13
-193.7098388671875
 23
116.004997253418
 33
0.0
  0
SOLID
  5
1D2
330
22
100
AcDbEntity
  8
0
  6
Continuous
 62
     7
100
AcDbTrace
 10
-191.8620758056641
 20
116.004997253418
 30
0.0
 11
-193.7098388671875
 21
116.004997253418
 31
0.0
 12
-191.80517578125
 22
116.1925964355469
 32
0.0
 13
-193.7667388916016
 23
116.1925964355469
 33
0.0
  0
SOLID
  5
1D3
330
22
100
AcDbEntity
  8
0
  6
Continuous
 62
     7
100
AcDbTrace
 10
-191.80517578125
 20
116.1925964355469
 30
0.0
 11
-193.7667388916016
 21
116.1925964355469
 31
0.0
 12
-191.7859497070313
 22
116.3876800537109
 32
0.0
 13
-193.7859497070313
 23
116.3876800537109
 33
0.0
  0
SOLID
  5
1D4
330
22
100
AcDbEntity
  8
0
  6
Continuous
 62
     7
100
AcDbTrace
 10
-191.7859497070313
 20
116.3876800537109
 30
0.0
 11
-193.7859497070313
 21
116.3876800537109
 31
0.0
 12
-191.80517578125
 22
116.5827713012695
 32
0.0
 13
-193.7667388916016
 23
116.5827713012695
 33
0.0
  0
SOLID
  5
1D5
330
22
100
AcDbEntity
  8
0
  6
Continuous
 62
     7
100
AcDbTrace
 10
-191.80517578125
 20
116.5827713012695
 30
0.0
 11
-193.7667388916016
 21
116.5827713012695
 31
0.0
 12
-191.8620758056641
 22
116.7703628540039
 32
0.0
 13
-193.7098388671875
 23
116.7703628540039
 33
0.0
  0
SOLID
  5
1D6
330
22
100
AcDbEntity
  8
0
  6
Continuous
 62
     7
100
AcDbTrace
 10
-191.8620758056641
 20
116.7703628540039
 30
0.0
 11
-193.7098388671875
 21
116.7703628540039
 31
0.0
 12
-191.9544830322266
 22
116.9432525634766
 32
0.0
 13
-193.617431640625
 23
116.9432525634766
 33
0.0
  0
SOLID
  5
1D7
330
22
100
AcDbEntity
  8
0
  6
Continuous
 62
     7
100
AcDbTrace
 10
-191.9544830322266
 20
116.9432525634766
 30
0.0
 11
-193.617431640625
 21
116.9432525634766
 31
0.0
 12
-192.0788421630859
 22
117.0947875976563
 32
0.0
 13
-193.4930572509766
 23
117.0947875976563
 33
0.0
  0
SOLID
  5
1D8
330
22
100
AcDbEntity
  8
0
  6
Continuous
 62
     7
100
AcDbTrace
 10
-192.0788421630859
 20
117.0947875976563
 30
0.0
 11
-193.4930572509766
 21
117.0947875976563
 31
0.0
 12
-192.2303771972656
 22
117.2191543579102
 32
0.0
 13
-193.3415222167969
 23
117.2191543579102
 33
0.0
  0
SOLID
  5
1D9
330
22
100
AcDbEntity
  8
0
  6
Continuous
 62
     7
100
AcDbTrace
 10
-192.2303771972656
 20
117.2191543579102
 30
0.0
 11
-193.3415222167969
 21
117.2191543579102
 31
0.0
 12
-192.4032745361328
 22
117.3115615844727
 32
0.0
 13
-193.1686401367188
 23
117.3115615844727
 33
0.0
  0
SOLID
  5
1DA
330
22
100
AcDbEntity
  8
0
  6
Continuous
 62
     7
100
AcDbTrace
 10
-192.4032745361328
 20
117.3115615844727
 30
0.0
 11
-193.1686401367188
 21
117.3115615844727
 31
0.0
 12
-192.5908660888672
 22
117.3684692382813
 32
0.0
 13
-192.9810485839844
 23
117.3684692382813
 33
0.0
  0
SOLID
  5
1DB
330
22
100
AcDbEntity
  8
0
  6
Continuous
 62
     7
100
AcDbTrace
 10
-192.7859497070313
 20
115.3876800537109
 30
0.0
 11
-192.9810485839844
 21
115.4068984985352
 31
0.0
 12
-192.5908660888672
 22
115.4068984985352
 32
0.0
 13
-192.5908660888672
 23
115.4068984985352
 33
0.0
  0
SOLID
  5
1DC
330
22
100
AcDbEntity
  8
0
  6
Continuous
 62
     7
100
AcDbTrace
 10
-192.5908660888672
 20
117.3684692382813
 30
0.0
 11
-192.9810485839844
 21
117.3684692382813
 31
0.0
 12
-192.7859497070313
 22
117.3876800537109
 32
0.0
 13
-192.7859497070313
 23
117.3876800537109
 33
0.0
  0
DIMENSION
  5
1DD
330
22
100
AcDbEntity
  8
0
  6
Continuous
 62
     7
100
AcDbDimension
  2
*D1
 10
-158.8746795654297
 20
133.6358947753906
 30
0.0
 11
-158.8746795654297
 21
109.1358871459961
 31
0.0
 71
     5
 42
-1.0
  3
DIMSTYLE1
100
AcDbAlignedDimension
 13
-188.2859497070313
 23
84.63588714599609
 33
0.0
 14
-180.2859497070313
 24
133.6358947753906
 34
0.0
 50
90.0
100
AcDbRotatedDimension
  0
DIMENSION
  5
1DE
330
22
100
AcDbEntity
  8
0
  6
Continuous
 62
     7
100
AcDbDimension
  2
*D2
 10
-261.2426964415052
 20
202.7907905909617
 30
0.0
 11
-161.8441314697266
 21
244.2037353515625
 31
0.0
 70
     3
 71
     5
 42
-1.0
  3
DIMSTYLE2
100
AcDbDiametricDimension
 15
-182.7802832948229
 25
235.4809989598196
 35
0.0
 40
0.0
  0
DIMENSION
  5
1DF
330
22
100
AcDbEntity
  8
0
  6
Continuous
 62
     7
100
AcDbDimension
  2
*D3
 10
-254.1389733641703
 20
214.2292865564834
 30
0.0
 11
-155.6641082763672
 21
229.2686614990234
 31
0.0
 70
     3
 71
     5
 42
-1.0
  3
DIMSTYLE3
100
AcDbDiametricDimension
 15
-189.8840063721578
 25
224.0425029942979
 35
0.0
 40
0.0
  0
DIMENSION
  5
1E0
330
22
100
AcDbEntity
  8
0
  6
Continuous
 62
     7
100
AcDbDimension
  2
*D4
 10
-240.6386488269612
 20
226.417992627226
 30
0.0
 11
-160.9857940673828
 21
195.2785034179688
 31
0.0
 70
     3
 71
     5
 42
-1.0
  3
DIMSTYLE4
100
AcDbDiametricDimension
 15
-203.384330909367
 25
211.8537969235553
 35
0.0
 40
0.0
  0
INSERT
  5
1E1
330
22
100
AcDbEntity
  8
0
  6
Continuous
 62
     7
100
AcDbBlockReference
  2
KOZU0001
 10
-199.0859527587891
 20
92.2358856201172
 30
0.0
  0
ENDSEC
  0
SECTION
  2
OBJECTS
  0
DICTIONARY
  5
C
330
0
100
AcDbDictionary
281
     1
  3
ACAD_COLOR
350
1B
  3
ACAD_GROUP
350
D
  3
ACAD_LAYOUT
350
19
  3
ACAD_MATERIAL
350
1A
  3
ACAD_MLINESTYLE
350
16
  3
ACAD_PLOTSETTINGS
350
18
  3
ACAD_PLOTSTYLENAME
350
E
  3
ACAD_TABLESTYLE
350
1C
  3
AcDbVariableDictionary
350
1ED
  0
DICTIONARY
  5
1B
102
{ACAD_REACTORS
330
C
102
}
330
C
100
AcDbDictionary
281
     1
  0
DICTIONARY
  5
D
102
{ACAD_REACTORS
330
C
102
}
330
C
100
AcDbDictionary
281
     1
  0
DICTIONARY
  5
19
102
{ACAD_REACTORS
330
C
102
}
330
C
100
AcDbDictionary
281
     1
  3
Model
350
25
  3
レイアウト1
350
21
  0
DICTIONARY
  5
1A
102
{ACAD_REACTORS
330
C
102
}
330
C
100
AcDbDictionary
281
     1
  0
DICTIONARY
  5
16
102
{ACAD_REACTORS
330
C
102
}
330
C
100
AcDbDictionary
281
     1
  3
Standard
350
17
  0
DICTIONARY
  5
18
102
{ACAD_REACTORS
330
C
102
}
330
C
100
AcDbDictionary
281
     1
  0
ACDBDICTIONARYWDFLT
  5
E
102
{ACAD_REACTORS
330
C
102
}
330
C
100
AcDbDictionary
281
     1
  3
Normal
350
F
100
AcDbDictionaryWithDefault
340
F
  0
DICTIONARY
  5
1C
102
{ACAD_REACTORS
330
C
102
}
330
C
100
AcDbDictionary
281
     1
  3
Standard
350
1D
  0
DICTIONARY
  5
1ED
102
{ACAD_REACTORS
330
C
102
}
330
C
100
AcDbDictionary
281
     1
  3
CTABLESTYLE
350
1EE
  0
LAYOUT
  5
25
102
{ACAD_REACTORS
330
19
102
}
330
19
100
AcDbPlotSettings
  1

  2
PDF reDirect v2
  4
A3
  6

 40
3.174999952316284
 41
3.174999952316284
 42
3.17498779296875
 43
3.17498779296875
 44
297.0530090332031
 45
420.1583251953125
 46
0.0
 47
0.0
 48
0.0
 49
0.0
140
0.0
141
0.0
142
1.0
143
1.0
 70
 11952
 72
     1
 73
     1
 74
     2
  7
C:\Users\ck\AppData\Roaming\Autodesk\AutoCAD 2005\R16.1\jpn\Plot Styles\black.ctb
 75
    16
147
1.0
 76
     0
 77
     2
 78
   300
148
423.0
149
2.0
100
AcDbLayout
  1
Model
 70
     1
 71
     0
 10
0.0
 20
0.0
 11
12.0
 21
9.0
 12
0.0
 22
0.0
 32
0.0
 14
0.0
 24
0.0
 34
0.0
 15
0.0
 25
0.0
 35
0.0
146
0.0
 13
0.0
 23
0.0
 33
0.0
 16
1.0
 26
0.0
 36
0.0
 17
0.0
 27
1.0
 37
0.0
 76
     0
330
22
1001
ACAD_PSEXT
1000
PDF reDirect v2
1000
PDF reDirect Pro
1000
PDF_REDIRECT_PORT:
1000
PDF reDirect provided by EXP Systems
1070
     0
  0
LAYOUT
  5
21
102
{ACAD_REACTORS
330
19
102
}
330
19
100
AcDbPlotSettings
  1

  2
PDF reDirect v2
  4

  6

 40
0.0
 41
0.0
 42
0.0
 43
0.0
 44
0.0
 45
0.0
 46
0.0
 47
0.0
 48
0.0
 49
0.0
140
0.0
141
0.0
142
1.0
143
1.0
 70
   688
 72
     0
 73
     0
 74
     5
  7
C:\Users\ck\AppData\Roaming\Autodesk\AutoCAD 2005\R16.1\jpn\Plot Styles\black.ctb
 75
    16
147
1.0
 76
     0
 77
     2
 78
   300
148
0.0
149
0.0
100
AcDbLayout
  1
レイアウト1
 70
     1
 71
     1
 10
-423.0
 20
-2.0
 11
-5.0
 21
293.0
 12
0.0
 22
0.0
 32
0.0
 14
1.000000000000000E+20
 24
1.000000000000000E+20
 34
1.000000000000000E+20
 15
-1.000000000000000E+20
 25
-1.000000000000000E+20
 35
-1.000000000000000E+20
146
0.0
 13
0.0
 23
0.0
 33
0.0
 16
1.0
 26
0.0
 36
0.0
 17
0.0
 27
1.0
 37
0.0
 76
     0
330
1E
  0
MLINESTYLE
  5
17
102
{ACAD_REACTORS
330
16
102
}
330
16
100
AcDbMlineStyle
  2
STANDARD
 70
     0
  3

 62
   256
 51
90.0
 52
90.0
 71
     2
 49
0.5
 62
   256
  6
BYLAYER
 49
-0.5
 62
   256
  6
BYLAYER
  0
ACDBPLACEHOLDER
  5
F
102
{ACAD_REACTORS
330
E
102
}
330
E
  0
TABLESTYLE
  5
1D
102
{ACAD_REACTORS
330
1C
102
}
330
1C
100
AcDbTableStyle
  3
Standard
 70
     0
 71
     0
 40
0.06
 41
0.06
280
     0
281
     0
  7
STANDARD
140
0.18
170
     2
 62
     0
 63
     7
283
     0
274
    -2
284
     1
 64
     0
275
    -2
285
     1
 65
     0
276
    -2
286
     1
 66
     0
277
    -2
287
     1
 67
     0
278
    -2
288
     1
 68
     0
279
    -2
289
     1
 69
     0
  7
STANDARD
140
0.25
170
     5
 62
     0
 63
     7
283
     0
274
    -2
284
     1
 64
     0
275
    -2
285
     1
 65
     0
276
    -2
286
     1
 66
     0
277
    -2
287
     1
 67
     0
278
    -2
288
     1
 68
     0
279
    -2
289
     1
 69
     0
  7
STANDARD
140
0.18
170
     5
 62
     0
 63
     7
283
     0
274
    -2
284
     1
 64
     0
275
    -2
285
     1
 65
     0
276
    -2
286
     1
 66
     0
277
    -2
287
     1
 67
     0
278
    -2
288
     1
 68
     0
279
    -2
289
     1
 69
     0
  0
DICTIONARYVAR
  5
1EE
102
{ACAD_REACTORS
330
1ED
102
}
330
1ED
100
DictionaryVariables
280
     0
  1
STANDARD
  0
ENDSEC
  0
EOF
