  0
SECTION
  2
HEADER
  9
$ACADVER
  1
AC1018
  9
$ACADMAINTVER
 70
    39
  9
$DWGCODEPAGE
  3
ANSI_932
  9
$INSBASE
 10
0.0
 20
0.0
 30
0.0
  9
$EXTMIN
 10
-307.1851185208478
 20
37.58030773976384
 30
-0.0015258207003583
  9
$EXTMAX
 10
-57.38394073814152
 20
283.8712775316919
 30
0.0000000349246037
  9
$LIMMIN
 10
-423.0
 20
-2.0
  9
$LIMMAX
 10
-5.0
 20
293.0
  9
$ORTHOMODE
 70
     0
  9
$REGENMODE
 70
     1
  9
$FILLMODE
 70
     1
  9
$QTEXTMODE
 70
     0
  9
$MIRRTEXT
 70
     0
  9
$LTSCALE
 40
1.0
  9
$ATTMODE
 70
     1
  9
$TEXTSIZE
 40
0.2
  9
$TRACEWID
 40
0.05
  9
$TEXTSTYLE
  7
STANDARD
  9
$CLAYER
  8
0
  9
$CELTYPE
  6
CONTINUOUS
  9
$CECOLOR
 62
   256
  9
$CELTSCALE
 40
1.0
  9
$DISPSILH
 70
     0
  9
$DIMSCALE
 40
1.0
  9
$DIMASZ
 40
1.0
  9
$DIMEXO
 40
2.54
  9
$DIMDLI
 40
0.38
  9
$DIMRND
 40
0.0
  9
$DIMDLE
 40
0.0
  9
$DIMEXE
 40
2.54
  9
$DIMTP
 40
0.0
  9
$DIMTM
 40
0.0
  9
$DIMTXT
 40
3.0
  9
$DIMCEN
 40
0.09
  9
$DIMTSZ
 40
0.0
  9
$DIMTOL
 70
     0
  9
$DIMLIM
 70
     0
  9
$DIMTIH
 70
     0
  9
$DIMTOH
 70
     0
  9
$DIMSE1
 70
     0
  9
$DIMSE2
 70
     0
  9
$DIMTAD
 70
     1
  9
$DIMZIN
 70
     0
  9
$DIMBLK
  1

  9
$DIMASO
 70
     1
  9
$DIMSHO
 70
     0
  9
$DIMPOST
  1

  9
$DIMAPOST
  1

  9
$DIMALT
 70
     0
  9
$DIMALTD
 70
     2
  9
$DIMALTF
 40
25.4
  9
$DIMLFAC
 40
1.0
  9
$DIMTOFL
 70
     0
  9
$DIMTVP
 40
1.0
  9
$DIMTIX
 70
     0
  9
$DIMSOXD
 70
     0
  9
$DIMSAH
 70
     1
  9
$DIMBLK1
  1

  9
$DIMBLK2
  1

  9
$DIMSTYLE
  2
DIMSTYLE1
  9
$DIMCLRD
 70
     0
  9
$DIMCLRE
 70
     0
  9
$DIMCLRT
 70
     0
  9
$DIMTFAC
 40
1.0
  9
$DIMGAP
 40
1.5
  9
$DIMJUST
 70
     0
  9
$DIMSD1
 70
     0
  9
$DIMSD2
 70
     0
  9
$DIMTOLJ
 70
     1
  9
$DIMTZIN
 70
     0
  9
$DIMALTZ
 70
     0
  9
$DIMALTTZ
 70
     0
  9
$DIMUPT
 70
     0
  9
$DIMDEC
 70
     4
  9
$DIMTDEC
 70
     4
  9
$DIMALTU
 70
     2
  9
$DIMALTTD
 70
     2
  9
$DIMTXSTY
  7
STANDARD
  9
$DIMAUNIT
 70
     0
  9
$DIMADEC
 70
     0
  9
$DIMALTRND
 40
0.0
  9
$DIMAZIN
 70
     0
  9
$DIMDSEP
 70
    46
  9
$DIMATFIT
 70
     3
  9
$DIMFRAC
 70
     0
  9
$DIMLDRBLK
  1

  9
$DIMLUNIT
 70
     2
  9
$DIMLWD
 70
    -2
  9
$DIMLWE
 70
    -2
  9
$DIMTMOVE
 70
     0
  9
$LUNITS
 70
     2
  9
$LUPREC
 70
     4
  9
$SKETCHINC
 40
0.1
  9
$FILLETRAD
 40
0.0
  9
$AUNITS
 70
     0
  9
$AUPREC
 70
     0
  9
$MENU
  1
.
  9
$ELEVATION
 40
0.0
  9
$PELEVATION
 40
0.0
  9
$THICKNESS
 40
0.0
  9
$LIMCHECK
 70
     0
  9
$CHAMFERA
 40
0.0
  9
$CHAMFERB
 40
0.0
  9
$CHAMFERC
 40
0.0
  9
$CHAMFERD
 40
0.0
  9
$SKPOLY
 70
     0
  9
$TDCREATE
 40
2457842.852996122
  9
$TDUCREATE
 40
2457842.477996123
  9
$TDUPDATE
 40
2457842.853475683
  9
$TDUUPDATE
 40
2457842.478475683
  9
$TDINDWG
 40
0.0004808333
  9
$TDUSRTIMER
 40
0.0004808333
  9
$USRTIMER
 70
     1
  9
$ANGBASE
 50
0.0
  9
$ANGDIR
 70
     0
  9
$PDMODE
 70
     0
  9
$PDSIZE
 40
0.0
  9
$PLINEWID
 40
0.0
  9
$SPLFRAME
 70
     0
  9
$SPLINETYPE
 70
     6
  9
$SPLINESEGS
 70
     8
  9
$HANDSEED
  5
225
  9
$SURFTAB1
 70
     6
  9
$SURFTAB2
 70
     6
  9
$SURFTYPE
 70
     6
  9
$SURFU
 70
     6
  9
$SURFV
 70
     6
  9
$UCSBASE
  2

  9
$UCSNAME
  2

  9
$UCSORG
 10
0.0
 20
0.0
 30
0.0
  9
$UCSXDIR
 10
1.0
 20
0.0
 30
0.0
  9
$UCSYDIR
 10
0.0
 20
1.0
 30
0.0
  9
$UCSORTHOREF
  2

  9
$UCSORTHOVIEW
 70
     0
  9
$UCSORGTOP
 10
0.0
 20
0.0
 30
0.0
  9
$UCSORGBOTTOM
 10
0.0
 20
0.0
 30
0.0
  9
$UCSORGLEFT
 10
0.0
 20
0.0
 30
0.0
  9
$UCSORGRIGHT
 10
0.0
 20
0.0
 30
0.0
  9
$UCSORGFRONT
 10
0.0
 20
0.0
 30
0.0
  9
$UCSORGBACK
 10
0.0
 20
0.0
 30
0.0
  9
$PUCSBASE
  2

  9
$PUCSNAME
  2

  9
$PUCSORG
 10
0.0
 20
0.0
 30
0.0
  9
$PUCSXDIR
 10
1.0
 20
0.0
 30
0.0
  9
$PUCSYDIR
 10
0.0
 20
1.0
 30
0.0
  9
$PUCSORTHOREF
  2

  9
$PUCSORTHOVIEW
 70
     0
  9
$PUCSORGTOP
 10
0.0
 20
0.0
 30
0.0
  9
$PUCSORGBOTTOM
 10
0.0
 20
0.0
 30
0.0
  9
$PUCSORGLEFT
 10
0.0
 20
0.0
 30
0.0
  9
$PUCSORGRIGHT
 10
0.0
 20
0.0
 30
0.0
  9
$PUCSORGFRONT
 10
0.0
 20
0.0
 30
0.0
  9
$PUCSORGBACK
 10
0.0
 20
0.0
 30
0.0
  9
$USERI1
 70
     0
  9
$USERI2
 70
     0
  9
$USERI3
 70
     0
  9
$USERI4
 70
     0
  9
$USERI5
 70
     0
  9
$USERR1
 40
0.0
  9
$USERR2
 40
0.0
  9
$USERR3
 40
0.0
  9
$USERR4
 40
0.0
  9
$USERR5
 40
0.0
  9
$WORLDVIEW
 70
     1
  9
$SHADEDGE
 70
     3
  9
$SHADEDIF
 70
    70
  9
$TILEMODE
 70
     1
  9
$MAXACTVP
 70
    64
  9
$PINSBASE
 10
0.0
 20
0.0
 30
0.0
  9
$PLIMCHECK
 70
     0
  9
$PEXTMIN
 10
1.000000000000000E+20
 20
1.000000000000000E+20
 30
1.000000000000000E+20
  9
$PEXTMAX
 10
-1.000000000000000E+20
 20
-1.000000000000000E+20
 30
-1.000000000000000E+20
  9
$PLIMMIN
 10
-423.0
 20
-2.0
  9
$PLIMMAX
 10
-5.0
 20
293.0
  9
$UNITMODE
 70
     0
  9
$VISRETAIN
 70
     1
  9
$PLINEGEN
 70
     0
  9
$PSLTSCALE
 70
     1
  9
$TREEDEPTH
 70
  3020
  9
$CMLSTYLE
  2
Standard
  9
$CMLJUST
 70
     0
  9
$CMLSCALE
 40
1.0
  9
$PROXYGRAPHICS
 70
     1
  9
$MEASUREMENT
 70
     0
  9
$CELWEIGHT
370
    -1
  9
$ENDCAPS
280
     0
  9
$JOINSTYLE
280
     0
  9
$LWDISPLAY
290
     0
  9
$INSUNITS
 70
     0
  9
$HYPERLINKBASE
  1

  9
$STYLESHEET
  1

  9
$XEDIT
290
     1
  9
$CEPSNTYPE
380
     0
  9
$PSTYLEMODE
290
     1
  9
$FINGERPRINTGUID
  2
{36A55BA0-429E-4465-9920-F2E50FD5A946}
  9
$VERSIONGUID
  2
{FB02C3D7-193E-432F-BB3C-2A2D0AEE4CE1}
  9
$EXTNAMES
290
     1
  9
$PSVPSCALE
 40
0.0
  9
$OLESTARTUP
290
     0
  9
$SORTENTS
280
   127
  9
$INDEXCTL
280
     0
  9
$HIDETEXT
280
     0
  9
$XCLIPFRAME
290
     0
  9
$HALOGAP
280
     0
  9
$OBSCOLOR
 70
   257
  9
$OBSLTYPE
280
     0
  9
$INTERSECTIONDISPLAY
280
     0
  9
$INTERSECTIONCOLOR
 70
   257
  9
$DIMASSOC
280
     1
  9
$PROJECTNAME
  1

  0
ENDSEC
  0
SECTION
  2
CLASSES
  0
CLASS
  1
ACDBDICTIONARYWDFLT
  2
AcDbDictionaryWithDefault
  3
ObjectDBX Classes
 90
        0
 91
        1
280
     0
281
     0
  0
CLASS
  1
TABLESTYLE
  2
AcDbTableStyle
  3
ObjectDBX Classes
 90
     2047
 91
        1
280
     0
281
     0
  0
CLASS
  1
DICTIONARYVAR
  2
AcDbDictionaryVar
  3
ObjectDBX Classes
 90
        0
 91
        1
280
     0
281
     0
  0
ENDSEC
  0
SECTION
  2
TABLES
  0
TABLE
  2
VPORT
  5
8
330
0
100
AcDbSymbolTable
 70
     2
  0
VPORT
  5
224
330
8
100
AcDbSymbolTableRecord
100
AcDbViewportTableRecord
  2
*Active
 70
     0
 10
0.0
 20
0.0
 11
1.0
 21
1.0
 12
-214.0
 22
145.5
 13
0.0
 23
0.0
 14
1.0
 24
1.0
 15
0.0
 25
0.0
 16
0.0
 26
0.0
 36
1.0
 17
0.0
 27
0.0
 37
0.0
 40
297.3320158102766
 41
1.707124010554089
 42
50.0
 43
0.0
 44
0.0
 50
0.0
 51
0.0
 71
     0
 72
   100
 73
     1
 74
     1
 75
     0
 76
     0
 77
     0
 78
     0
281
     0
 65
     1
110
0.0
120
0.0
130
0.0
111
1.0
121
0.0
131
0.0
112
0.0
122
1.0
132
0.0
 79
     0
146
0.0
  0
ENDTAB
  0
TABLE
  2
LTYPE
  5
5
330
0
100
AcDbSymbolTable
 70
     6
  0
LTYPE
  5
13
330
5
100
AcDbSymbolTableRecord
100
AcDbLinetypeTableRecord
  2
ByBlock
 70
     0
  3

 72
    65
 73
     0
 40
0.0
  0
LTYPE
  5
14
330
5
100
AcDbSymbolTableRecord
100
AcDbLinetypeTableRecord
  2
ByLayer
 70
     0
  3

 72
    65
 73
     0
 40
0.0
  0
LTYPE
  5
15
330
5
100
AcDbSymbolTableRecord
100
AcDbLinetypeTableRecord
  2
CONTINUOUS
 70
     0
  3
Solid line
 72
    65
 73
     0
 40
0.0
  0
LTYPE
  5
26
330
5
100
AcDbSymbolTableRecord
100
AcDbLinetypeTableRecord
  2
DASHED
 70
     0
  3
__ __ __ __ __ __ __ __ __ __ __ __ __ __ __
 72
    65
 73
     2
 40
3.5
 49
2.0
 74
     0
 49
-1.5
 74
     0
  0
LTYPE
  5
27
330
5
100
AcDbSymbolTableRecord
100
AcDbLinetypeTableRecord
  2
CENTER
 70
     0
  3
____ _ ____ _ ____ _ ____ _ ____ _ ____ _ ____
 72
    65
 73
     4
 40
17.5
 49
13.0
 74
     0
 49
-1.5
 74
     0
 49
1.5
 74
     0
 49
-1.5
 74
     0
  0
LTYPE
  5
28
330
5
100
AcDbSymbolTableRecord
100
AcDbLinetypeTableRecord
  2
PHANTOM
 70
     0
  3
_____ _ _ _____ _ _ _____ _ _ _____ _ _ ____  
 72
    65
 73
     6
 40
15.5
 49
8.0
 74
     0
 49
-1.5
 74
     0
 49
1.5
 74
     0
 49
-1.5
 74
     0
 49
1.5
 74
     0
 49
-1.5
 74
     0
  0
LTYPE
  5
29
330
5
100
AcDbSymbolTableRecord
100
AcDbLinetypeTableRecord
  2
DOT
 70
     0
  3
. . . . . . . . . . . . . . . . . . . . . . . .
 72
    65
 73
     2
 40
0.25
 49
0.0
 74
     0
 49
-0.25
 74
     0
  0
LTYPE
  5
2A
330
5
100
AcDbSymbolTableRecord
100
AcDbLinetypeTableRecord
  2
HIDDEN
 70
     0
  3
__ __ __ __ __ __ __ __ __ __ __ __ __ __ __
 72
    65
 73
     2
 40
3.5
 49
2.0
 74
     0
 49
-1.5
 74
     0
  0
ENDTAB
  0
TABLE
  2
LAYER
  5
2
330
0
100
AcDbSymbolTable
 70
     3
  0
LAYER
  5
10
330
2
100
AcDbSymbolTableRecord
100
AcDbLayerTableRecord
  2
0
 70
     0
 62
     7
  6
CONTINUOUS
370
    -3
390
F
  0
LAYER
  5
2B
330
2
100
AcDbSymbolTableRecord
100
AcDbLayerTableRecord
  2
1
 70
     0
 62
     7
  6
CONTINUOUS
370
    -3
390
F
  0
LAYER
  5
2C
330
2
100
AcDbSymbolTableRecord
100
AcDbLayerTableRecord
  2
DEFPOINTS
 70
     0
 62
     7
  6
CONTINUOUS
290
     0
370
    -3
390
F
  0
ENDTAB
  0
TABLE
  2
STYLE
  5
3
330
0
100
AcDbSymbolTable
 70
     2
  0
STYLE
  5
11
330
3
100
AcDbSymbolTableRecord
100
AcDbTextStyleTableRecord
  2
STANDARD
 70
     0
 40
0.0
 41
1.0
 50
0.0
 71
     0
 42
0.2
  3

  4

1001
ACAD
1000
MS Gothic
1071
    32817
  0
ENDTAB
  0
TABLE
  2
VIEW
  5
6
330
0
100
AcDbSymbolTable
 70
     0
  0
ENDTAB
  0
TABLE
  2
UCS
  5
7
330
0
100
AcDbSymbolTable
 70
     0
  0
ENDTAB
  0
TABLE
  2
APPID
  5
9
330
0
100
AcDbSymbolTable
 70
     2
  0
APPID
  5
12
330
9
100
AcDbSymbolTableRecord
100
AcDbRegAppTableRecord
  2
ACAD
 70
     0
  0
APPID
  5
219
330
9
100
AcDbSymbolTableRecord
100
AcDbRegAppTableRecord
  2
ACAD_PSEXT
 70
     0
  0
ENDTAB
  0
TABLE
  2
DIMSTYLE
  5
A
330
0
100
AcDbSymbolTable
 70
     5
100
AcDbDimStyleTable
 71
     1
340
2D
  0
DIMSTYLE
105
2D
102
{ACAD_REACTORS
330
212
102
}
330
A
100
AcDbSymbolTableRecord
100
AcDbDimStyleTableRecord
  2
DIMSTYLE1
 70
     0
 41
1.0
 42
2.54
 44
2.54
 73
     0
 74
     0
 75
     1
 76
     1
 77
     1
140
3.0
145
1.0
147
1.5
172
     1
173
     1
279
     2
340
11
  0
DIMSTYLE
105
2E
102
{ACAD_REACTORS
330
213
102
}
330
A
100
AcDbSymbolTableRecord
100
AcDbDimStyleTableRecord
  2
DIMSTYLE2
 70
     0
 41
1.0
 42
2.54
 44
2.54
 73
     0
 74
     0
 75
     1
 76
     1
 77
     1
140
3.0
145
1.0
147
1.5
172
     1
173
     1
279
     2
340
11
  0
DIMSTYLE
105
2F
102
{ACAD_REACTORS
330
214
102
}
330
A
100
AcDbSymbolTableRecord
100
AcDbDimStyleTableRecord
  2
DIMSTYLE3
 70
     0
 41
1.0
 42
2.54
 44
2.54
 73
     0
 74
     0
 75
     1
 76
     1
 77
     1
140
3.0
145
1.0
147
1.5
172
     1
173
     1
279
     2
340
11
  0
DIMSTYLE
105
30
102
{ACAD_REACTORS
330
215
102
}
330
A
100
AcDbSymbolTableRecord
100
AcDbDimStyleTableRecord
  2
DIMSTYLE4
 70
     0
 41
1.0
 42
2.54
 44
2.54
 73
     0
 74
     0
 77
     1
140
3.0
145
1.0
147
1.5
172
     1
173
     1
279
     2
340
11
  0
ENDTAB
  0
TABLE
  2
BLOCK_RECORD
  5
1
330
0
100
AcDbSymbolTable
 70
     7
  0
BLOCK_RECORD
  5
22
330
1
100
AcDbSymbolTableRecord
100
AcDbBlockTableRecord
  2
*Model_Space
340
25
  0
BLOCK_RECORD
  5
1E
330
1
100
AcDbSymbolTableRecord
100
AcDbBlockTableRecord
  2
*Paper_Space
340
21
  0
BLOCK_RECORD
  5
34
330
1
100
AcDbSymbolTableRecord
100
AcDbBlockTableRecord
  2
_OPEN30
340
0
102
{BLKREFS
331
3E
331
3F
331
48
331
49
331
52
331
53
331
5B
331
5C
102
}
  0
BLOCK_RECORD
  5
3A
330
1
100
AcDbSymbolTableRecord
100
AcDbBlockTableRecord
  2
*D1
340
0
  0
BLOCK_RECORD
  5
44
330
1
100
AcDbSymbolTableRecord
100
AcDbBlockTableRecord
  2
*D2
340
0
  0
BLOCK_RECORD
  5
4E
330
1
100
AcDbSymbolTableRecord
100
AcDbBlockTableRecord
  2
*D3
340
0
  0
BLOCK_RECORD
  5
58
330
1
100
AcDbSymbolTableRecord
100
AcDbBlockTableRecord
  2
*D4
340
0
  0
BLOCK_RECORD
  5
64
330
1
100
AcDbSymbolTableRecord
100
AcDbBlockTableRecord
  2
KOZU0001
340
0
102
{BLKREFS
331
216
102
}
  0
ENDTAB
  0
ENDSEC
  0
SECTION
  2
BLOCKS
  0
BLOCK
  5
23
330
22
100
AcDbEntity
  8
0
100
AcDbBlockBegin
  2
*Model_Space
 70
     0
 10
0.0
 20
0.0
 30
0.0
  3
*Model_Space
  1

  0
ENDBLK
  5
24
330
22
100
AcDbEntity
  8
0
100
AcDbBlockEnd
  0
BLOCK
  5
1F
330
1E
100
AcDbEntity
 67
     1
  8
0
100
AcDbBlockBegin
  2
*Paper_Space
 70
     0
 10
0.0
 20
0.0
 30
0.0
  3
*Paper_Space
  1

  0
ENDBLK
  5
20
330
1E
100
AcDbEntity
 67
     1
  8
0
100
AcDbBlockEnd
  0
BLOCK
  5
35
330
34
100
AcDbEntity
  8
0
100
AcDbBlockBegin
  2
_OPEN30
 70
     0
 10
0.0
 20
0.0
 30
0.0
  3
_OPEN30
  1

  0
LINE
  5
36
330
34
100
AcDbEntity
  8
0
  6
ByBlock
 62
     0
100
AcDbLine
 10
0.0
 20
0.0
 30
0.0
 11
-2.999999999999993
 21
-1.000000000000017
 31
0.0
  0
LINE
  5
37
330
34
100
AcDbEntity
  8
0
  6
ByBlock
 62
     0
100
AcDbLine
 10
0.0
 20
0.0
 30
0.0
 11
-3.000000000000006
 21
0.9999999999999815
 31
0.0
  0
LINE
  5
38
330
34
100
AcDbEntity
  8
0
  6
ByBlock
 62
     0
100
AcDbLine
 10
0.0
 20
0.0
 30
0.0
 11
-3.0
 21
0.0
 31
0.0
  0
ENDBLK
  5
39
330
34
100
AcDbEntity
  8
0
100
AcDbBlockEnd
  0
BLOCK
  5
3B
330
3A
100
AcDbEntity
  8
0
100
AcDbBlockBegin
  2
*D1
 70
     1
 10
0.0
 20
0.0
 30
0.0
  3
*D1
  1

  0
LINE
  5
3C
330
3A
100
AcDbEntity
  8
0
  6
Continuous
 62
     7
100
AcDbLine
 10
-160.8192596435547
 20
211.3386993408203
 30
0.0
 11
-102.6014633178711
 21
219.055908203125
 31
0.0
  0
LINE
  5
3D
330
3A
100
AcDbEntity
  8
0
  6
Continuous
 62
     7
100
AcDbLine
 10
-279.7786699440713
 20
195.5697307829066
 30
0.0
 11
-163.7932447287802
 21
210.9444751497104
 31
0.0
  0
INSERT
  5
3E
330
3A
100
AcDbEntity
  8
0
  6
Continuous
 62
     7
100
AcDbBlockReference
  2
_OPEN30
 10
-282.7526550292969
 20
195.1755065917969
 30
0.0
 50
187.5509665050363
  0
INSERT
  5
3F
330
3A
100
AcDbEntity
  8
0
  6
Continuous
 62
     7
100
AcDbBlockReference
  2
_OPEN30
 10
-160.8192596435547
 20
211.3386993408203
 30
0.0
 50
7.550966505035652
  0
TEXT
  5
40
330
3A
100
AcDbEntity
  8
0
  6
Continuous
 62
     7
100
AcDbText
 10
-134.5601387851908
 20
215.562234684358
 30
0.0
 40
3.0
  1
%%C１２３（排水栓外径）
 50
7.600000154571024
 41
0.8440126077968535
100
AcDbText
  0
POINT
  5
41
330
3A
100
AcDbEntity
  8
DEFPOINTS
  6
Continuous
 62
     7
100
AcDbPoint
 10
-282.7526550292969
 20
195.1755065917969
 30
0.0
  0
POINT
  5
42
330
3A
100
AcDbEntity
  8
DEFPOINTS
  6
Continuous
 62
     7
100
AcDbPoint
 10
-160.8192596435547
 20
211.3386993408203
 30
0.0
  0
ENDBLK
  5
43
330
3A
100
AcDbEntity
  8
0
100
AcDbBlockEnd
  0
BLOCK
  5
45
330
44
100
AcDbEntity
  8
0
100
AcDbBlockBegin
  2
*D2
 70
     1
 10
0.0
 20
0.0
 30
0.0
  3
*D2
  1

  0
LINE
  5
46
330
44
100
AcDbEntity
  8
0
  6
Continuous
 62
     7
100
AcDbLine
 10
-203.1589813232422
 20
196.5800628662109
 30
0.0
 11
-115.3098220825195
 21
165.4662933349609
 31
0.0
  0
LINE
  5
47
330
44
100
AcDbEntity
  8
0
  6
Continuous
 62
     7
100
AcDbLine
 10
-238.0361219296305
 20
208.932586979949
 30
0.0
 11
-205.9868578066976
 21
197.5816189526683
 31
0.0
  0
INSERT
  5
48
330
44
100
AcDbEntity
  8
0
  6
Continuous
 62
     7
100
AcDbBlockReference
  2
_OPEN30
 10
-240.8639984130859
 20
209.9341430664063
 30
0.0
 50
160.4972544720494
  0
INSERT
  5
49
330
44
100
AcDbEntity
  8
0
  6
Continuous
 62
     7
100
AcDbBlockReference
  2
_OPEN30
 10
-203.1589813232422
 20
196.5800628662109
 30
0.0
 50
340.4972544720501
  0
TEXT
  5
4A
330
44
100
AcDbEntity
  8
0
  6
Continuous
 62
     7
100
AcDbText
 10
-139.6999058133258
 20
174.8995642323488
 30
0.0
 40
3.0
  1
%%C４０（子栓外径）
 50
340.4999994573631
 41
0.8448610247221777
100
AcDbText
  0
POINT
  5
4B
330
44
100
AcDbEntity
  8
DEFPOINTS
  6
Continuous
 62
     7
100
AcDbPoint
 10
-240.8639984130859
 20
209.9341430664063
 30
0.0
  0
POINT
  5
4C
330
44
100
AcDbEntity
  8
DEFPOINTS
  6
Continuous
 62
     7
100
AcDbPoint
 10
-203.1589813232422
 20
196.5800628662109
 30
0.0
  0
ENDBLK
  5
4D
330
44
100
AcDbEntity
  8
0
100
AcDbBlockEnd
  0
BLOCK
  5
4F
330
4E
100
AcDbEntity
  8
0
100
AcDbBlockBegin
  2
*D3
 70
     1
 10
0.0
 20
0.0
 30
0.0
  3
*D3
  1

  0
LINE
  5
50
330
4E
100
AcDbEntity
  8
0
  6
Continuous
 62
     7
100
AcDbLine
 10
-148.0713653564453
 20
234.3402099609375
 30
0.0
 11
-115.3290176391602
 21
248.1466217041016
 31
0.0
  0
LINE
  5
51
330
4E
100
AcDbEntity
  8
0
  6
Continuous
 62
     7
100
AcDbLine
 10
-292.7362522491553
 20
173.3396124283188
 30
0.0
 11
-150.8356624236963
 21
233.1745935042984
 31
0.0
  0
INSERT
  5
52
330
4E
100
AcDbEntity
  8
0
  6
Continuous
 62
     7
100
AcDbBlockReference
  2
_OPEN30
 10
-295.5005493164063
 20
172.1739959716797
 30
0.0
 50
202.8636109547352
  0
INSERT
  5
53
330
4E
100
AcDbEntity
  8
0
  6
Continuous
 62
     7
100
AcDbBlockReference
  2
_OPEN30
 10
-148.0713653564453
 20
234.3402099609375
 30
0.0
 50
22.86361095473453
  0
TEXT
  5
54
330
4E
100
AcDbEntity
  8
0
  6
Continuous
 62
     7
100
AcDbText
 10
-142.4678025483149
 20
237.5069637353621
 30
0.0
 40
3.0
  1
%%C１６０（本体外径）
 50
22.90000040957758
 41
0.8443929326254473
100
AcDbText
  0
POINT
  5
55
330
4E
100
AcDbEntity
  8
DEFPOINTS
  6
Continuous
 62
     7
100
AcDbPoint
 10
-295.5005493164063
 20
172.1739959716797
 30
0.0
  0
POINT
  5
56
330
4E
100
AcDbEntity
  8
DEFPOINTS
  6
Continuous
 62
     7
100
AcDbPoint
 10
-148.0713653564453
 20
234.3402099609375
 30
0.0
  0
ENDBLK
  5
57
330
4E
100
AcDbEntity
  8
0
100
AcDbBlockEnd
  0
BLOCK
  5
59
330
58
100
AcDbEntity
  8
0
100
AcDbBlockBegin
  2
*D4
 70
     1
 10
0.0
 20
0.0
 30
0.0
  3
*D4
  1

  0
LINE
  5
5A
330
58
100
AcDbEntity
  8
0
  6
Continuous
 62
     7
100
AcDbLine
 10
-125.369255065918
 20
47.75709915161132
 30
0.0
 11
-125.3692550659179
 21
110.7571029663086
 31
0.0
  0
INSERT
  5
5B
330
58
100
AcDbEntity
  8
0
  6
Continuous
 62
     7
100
AcDbBlockReference
  2
_OPEN30
 10
-125.369255065918
 20
44.75709915161132
 30
0.0
 50
270.0000000000005
  0
INSERT
  5
5C
330
58
100
AcDbEntity
  8
0
  6
Continuous
 62
     7
100
AcDbBlockReference
  2
_OPEN30
 10
-125.369255065918
 20
113.7571029663086
 30
0.0
 50
90.00000000000019
  0
LINE
  5
5D
330
58
100
AcDbEntity
  8
0
  6
Continuous
 62
     7
100
AcDbLine
 10
-158.246605834961
 20
44.75709915161132
 30
0.0
 11
-123.0832595825195
 21
44.75709915161132
 31
0.0
  0
LINE
  5
5E
330
58
100
AcDbEntity
  8
0
  6
Continuous
 62
     7
100
AcDbLine
 10
-140.246605834961
 20
113.7571029663086
 30
0.0
 11
-123.0832595825195
 21
113.7571029663086
 31
0.0
  0
TEXT
  5
5F
330
58
100
AcDbEntity
  8
0
  6
Continuous
 62
     7
100
AcDbText
 10
-126.1192549535797
 20
76.68710282146832
 30
0.0
 40
3.0
  1
69
 50
90.00000250447815
 41
1.028000020980834
100
AcDbText
  0
POINT
  5
60
330
58
100
AcDbEntity
  8
DEFPOINTS
  6
Continuous
 62
     7
100
AcDbPoint
 10
-160.7866058349609
 20
44.75709915161132
 30
0.0
  0
POINT
  5
61
330
58
100
AcDbEntity
  8
DEFPOINTS
  6
Continuous
 62
     7
100
AcDbPoint
 10
-142.7866058349609
 20
113.7571029663086
 30
0.0
  0
POINT
  5
62
330
58
100
AcDbEntity
  8
DEFPOINTS
  6
Continuous
 62
     7
100
AcDbPoint
 10
-125.369255065918
 20
113.7571029663086
 30
0.0
  0
ENDBLK
  5
63
330
58
100
AcDbEntity
  8
0
100
AcDbBlockEnd
  0
BLOCK
  5
65
330
64
100
AcDbEntity
  8
0
100
AcDbBlockBegin
  2
KOZU0001
 70
     0
 10
0.0
 20
0.0
 30
0.0
  3
KOZU0001
  1

  0
LINE
  5
66
330
64
100
AcDbEntity
  8
0
  6
Continuous
 62
     7
100
AcDbLine
 10
0.0
 20
0.0
 30
0.0
 11
-6.356735229492187
 21
-4.288234710693358
 31
0.0
  0
LINE
  5
67
330
64
100
AcDbEntity
  8
0
  6
Continuous
 62
     7
100
AcDbLine
 10
-6.356735229492187
 20
-4.288234710693358
 30
0.0
 11
-32.07783508300781
 21
-4.288234710693358
 31
0.0
  0
LINE
  5
68
330
64
100
AcDbEntity
  8
0
  6
Continuous
 62
     7
100
AcDbLine
 10
0.0
 20
0.0
 30
0.0
 11
-1.927767324730337
 21
-2.506733560173884
 31
0.0
  0
LINE
  5
69
330
64
100
AcDbEntity
  8
0
  6
Continuous
 62
     7
100
AcDbLine
 10
0.0
 20
0.0
 30
0.0
 11
-3.046253995888601
 21
-0.8487264533009051
 31
0.0
  0
TEXT
  5
6A
330
64
100
AcDbEntity
  8
0
  6
Continuous
 62
     7
100
AcDbText
 10
-31.10920798778534
 20
-3.538234710693358
 30
0.0
 40
3.0
  1
配管接続口
 41
0.8487395020950888
100
AcDbText
  0
TEXT
  5
6B
330
64
100
AcDbEntity
  8
0
  6
Continuous
 62
     7
100
AcDbText
 10
-31.10920798778534
 20
-8.803234710693359
 30
0.0
 40
3.0
  1
Ｇ４（１００Ａ）
 41
0.8454512278006642
100
AcDbText
  0
ENDBLK
  5
6C
330
64
100
AcDbEntity
  8
0
100
AcDbBlockEnd
  0
ENDSEC
  0
SECTION
  2
ENTITIES
  0
LINE
  5
6D
330
22
100
AcDbEntity
  8
0
  6
Continuous
 62
     7
100
AcDbLine
 10
-221.2367553710938
 20
78.75358581542968
 30
0.0
 11
-217.7367553710938
 21
82.25358581542968
 31
0.0
  0
LINE
  5
6E
330
22
100
AcDbEntity
  8
0
  6
Continuous
 62
     7
100
AcDbLine
 10
-214.3359527587891
 20
205.7071075439453
 30
0.0
 11
-214.3359527587891
 21
200.8070983886719
 31
0.0
  0
LINE
  5
6F
330
22
100
AcDbEntity
  8
0
  6
CENTER
 62
     7
100
AcDbLine
 10
-221.7859497070314
 20
37.59656524658203
 30
0.0
 11
-221.7859497070314
 21
119.5587844848633
 31
0.0
  0
LINE
  5
70
330
22
100
AcDbEntity
  8
0
  6
CENTER
 62
     7
100
AcDbLine
 10
-137.5094299316406
 20
203.2570953369141
 30
0.0
 11
-307.1689453125
 21
203.2570953369141
 31
0.0
  0
LINE
  5
71
330
22
100
AcDbEntity
  8
0
  6
CENTER
 62
     7
100
AcDbLine
 10
-221.7859497070314
 20
121.5060729980469
 30
0.0
 11
-221.7859497070314
 21
283.8702392578125
 31
0.0
  0
LINE
  5
72
330
22
100
AcDbEntity
  8
0
  6
Continuous
 62
     7
100
AcDbLine
 10
-217.0119171142578
 20
93.38223266601564
 30
0.0
 11
-216.8832702636719
 21
93.25358581542969
 31
0.0
  0
LINE
  5
73
330
22
100
AcDbEntity
  8
0
  6
Continuous
 62
     7
100
AcDbLine
 10
-207.7915191650391
 20
100.2535858154297
 30
0.0
 11
-207.7915191650391
 21
100.4030532836914
 31
0.0
  0
LINE
  5
74
330
22
100
AcDbEntity
  8
0
  6
Continuous
 62
     7
100
AcDbLine
 10
-202.7578430175781
 20
94.75358581542968
 30
0.0
 11
-214.5119171142578
 21
94.75358581542968
 31
0.0
  0
LINE
  5
75
330
22
100
AcDbEntity
  8
0
  6
Continuous
 62
     7
100
AcDbLine
 10
-155.9278106689453
 20
108.9307479858398
 30
0.0
 11
-159.7866058349609
 21
89.75710296630859
 31
0.0
  0
LINE
  5
76
330
22
100
AcDbEntity
  8
0
  6
Continuous
 62
     7
100
AcDbLine
 10
-217.0119171142578
 20
97.75358581542969
 30
0.0
 11
-203.7933197021484
 21
97.75358581542969
 31
0.0
  0
LINE
  5
77
330
22
100
AcDbEntity
  8
0
  6
Continuous
 62
     7
100
AcDbLine
 10
-229.2359619140625
 20
205.7071075439453
 30
0.0
 11
-229.2359619140625
 21
200.8070983886719
 31
0.0
  0
LINE
  5
78
330
22
100
AcDbEntity
  8
0
  6
Continuous
 62
     7
100
AcDbLine
 10
-225.5007934570314
 20
200.8070983886719
 30
0.0
 11
-229.2359619140625
 21
200.8070983886719
 31
0.0
  0
LINE
  5
79
330
22
100
AcDbEntity
  8
0
  6
Continuous
 62
     7
100
AcDbLine
 10
-225.5007934570314
 20
205.7071075439453
 30
0.0
 11
-229.2359619140625
 21
205.7071075439453
 31
0.0
  0
LINE
  5
7A
330
22
100
AcDbEntity
  8
0
  6
Continuous
 62
     7
100
AcDbLine
 10
-218.0711212158203
 20
205.7071075439453
 30
0.0
 11
-214.3359527587891
 21
205.7071075439453
 31
0.0
  0
LINE
  5
7B
330
22
100
AcDbEntity
  8
0
  6
Continuous
 62
     7
100
AcDbLine
 10
-218.0711212158203
 20
200.8070983886719
 30
0.0
 11
-214.3359527587891
 21
200.8070983886719
 31
0.0
  0
LINE
  5
7C
330
22
100
AcDbEntity
  8
0
  6
Continuous
 62
     7
100
AcDbLine
 10
-217.0119171142578
 20
93.25358581542969
 30
0.0
 11
-217.0119171142578
 21
97.75358581542969
 31
0.0
  0
LINE
  5
7D
330
22
100
AcDbEntity
  8
0
  6
Continuous
 62
     7
100
AcDbLine
 10
-216.0119171142578
 20
93.25358581542969
 30
0.0
 11
-217.0119171142578
 21
93.25358581542969
 31
0.0
  0
LINE
  5
7E
330
22
100
AcDbEntity
  8
0
  6
Continuous
 62
     7
100
AcDbLine
 10
-203.7933197021484
 20
104.0845489501953
 30
0.0
 11
-203.7933197021484
 21
97.75358581542969
 31
0.0
  0
LINE
  5
7F
330
22
100
AcDbEntity
  8
0
  6
Continuous
 62
     7
100
AcDbLine
 10
-205.7119140625
 20
94.75358581542968
 30
0.0
 11
-205.7119140625
 21
97.75358581542969
 31
0.0
  0
LINE
  5
80
330
22
100
AcDbEntity
  8
0
  6
Continuous
 62
     7
100
AcDbLine
 10
-203.7933197021484
 20
103.7530517578125
 30
0.0
 11
-205.7915191650391
 21
103.7530517578125
 31
0.0
  0
LINE
  5
81
330
22
100
AcDbEntity
  8
0
  6
Continuous
 62
     7
100
AcDbLine
 10
-203.8915252685547
 20
101.2535858154297
 30
0.0
 11
-203.8915252685547
 21
99.25358581542969
 31
0.0
  0
LINE
  5
82
330
22
100
AcDbEntity
  8
0
  6
Continuous
 62
     7
100
AcDbLine
 10
-204.3915252685547
 20
98.75358581542968
 30
0.0
 11
-206.2915191650391
 21
98.75358581542968
 31
0.0
  0
LINE
  5
83
330
22
100
AcDbEntity
  8
0
  6
Continuous
 62
     7
100
AcDbLine
 10
-205.7119140625
 20
94.81015777587892
 30
0.0
 11
-205.6553497314453
 21
94.75358581542968
 31
0.0
  0
LINE
  5
84
330
22
100
AcDbEntity
  8
0
  6
Continuous
 62
     7
100
AcDbLine
 10
-208.7915191650391
 20
101.4030532836914
 30
0.0
 11
-214.7919158935547
 21
101.4030532836914
 31
0.0
  0
LINE
  5
85
330
22
100
AcDbEntity
  8
0
  6
Continuous
 62
     7
100
AcDbLine
 10
-214.5119171142578
 20
97.75358581542969
 30
0.0
 11
-214.5119171142578
 21
94.75358581542968
 31
0.0
  0
LINE
  5
86
330
22
100
AcDbEntity
  8
0
  6
Continuous
 62
     7
100
AcDbLine
 10
-165.7831573486328
 20
91.25358581542968
 30
0.0
 11
-165.7831573486328
 21
88.75358581542968
 31
0.0
  0
LINE
  5
87
330
22
100
AcDbEntity
  8
0
  6
Continuous
 62
     7
100
AcDbLine
 10
-165.7831573486328
 20
88.75358581542968
 30
0.0
 11
-163.8831481933594
 21
88.75358581542968
 31
0.0
  0
LINE
  5
88
330
22
100
AcDbEntity
  8
0
  6
Continuous
 62
     7
100
AcDbLine
 10
-163.8831481933594
 20
82.75358581542969
 30
0.0
 11
-163.8831481933594
 21
88.75358581542968
 31
0.0
  0
LINE
  5
89
330
22
100
AcDbEntity
  8
0
  6
Continuous
 62
     7
100
AcDbLine
 10
-163.7831573486328
 20
91.25358581542968
 30
0.0
 11
-165.7831573486328
 21
91.25358581542968
 31
0.0
  0
LINE
  5
8A
330
22
100
AcDbEntity
  8
0
  6
Continuous
 62
     7
100
AcDbLine
 10
-163.8831481933594
 20
88.75358581542968
 30
0.0
 11
-163.7831573486328
 21
91.25358581542968
 31
0.0
  0
LINE
  5
8B
330
22
100
AcDbEntity
  8
0
  6
Continuous
 62
     7
100
AcDbLine
 10
-166.8031463623047
 20
82.75358581542969
 30
0.0
 11
-167.0193786621094
 21
82.95292663574219
 31
0.0
  0
LINE
  5
8C
330
22
100
AcDbEntity
  8
0
  6
Continuous
 62
     7
100
AcDbLine
 10
-164.3831481933594
 20
82.75358581542969
 30
0.0
 11
-166.8031463623047
 21
82.75358581542969
 31
0.0
  0
LINE
  5
8D
330
22
100
AcDbEntity
  8
0
  6
Continuous
 62
     7
100
AcDbLine
 10
-168.9759063720703
 20
106.9902801513672
 30
0.0
 11
-167.0193786621094
 21
82.95292663574219
 31
0.0
  0
LINE
  5
8E
330
22
100
AcDbEntity
  8
0
  6
Continuous
 62
     7
100
AcDbLine
 10
-198.3924407958984
 20
108.3685836791992
 30
0.0
 11
-170.4709625244141
 21
108.3685836791992
 31
0.0
  0
LINE
  5
8F
330
22
100
AcDbEntity
  8
0
  6
Continuous
 62
     7
100
AcDbLine
 10
-205.7915191650391
 20
103.7530517578125
 30
0.0
 11
-205.7915191650391
 21
101.2535858154297
 31
0.0
  0
LINE
  5
90
330
22
100
AcDbEntity
  8
0
  6
Continuous
 62
     7
100
AcDbLine
 10
-205.7915191650391
 20
101.2535858154297
 30
0.0
 11
-203.8915252685547
 21
101.2535858154297
 31
0.0
  0
LINE
  5
91
330
22
100
AcDbEntity
  8
0
  6
Continuous
 62
     7
100
AcDbLine
 10
-199.8871459960938
 20
106.99462890625
 30
0.0
 11
-200.7649078369141
 21
96.58553314208985
 31
0.0
  0
LINE
  5
92
330
22
100
AcDbEntity
  8
0
  6
Continuous
 62
     7
100
AcDbLine
 10
-203.7933197021484
 20
103.7530517578125
 30
0.0
 11
-203.7933197021484
 21
104.0845489501953
 31
0.0
  0
LINE
  5
93
330
22
100
AcDbEntity
  8
0
  6
Continuous
 62
     7
100
AcDbLine
 10
-221.7859497070314
 20
44.75709915161132
 30
0.0
 11
-160.7866058349609
 21
44.75709915161132
 31
0.0
  0
LINE
  5
94
330
22
100
AcDbEntity
  8
0
  6
Continuous
 62
     7
100
AcDbLine
 10
-159.7866058349609
 20
47.75709915161132
 30
0.0
 11
-157.7866058349609
 21
49.75709915161132
 31
0.0
  0
LINE
  5
95
330
22
100
AcDbEntity
  8
0
  6
Continuous
 62
     7
100
AcDbLine
 10
-165.2825164794922
 20
66.75710296630859
 30
0.0
 11
-166.7825164794922
 21
65.25710296630859
 31
0.0
  0
LINE
  5
96
330
22
100
AcDbEntity
  8
0
  6
Continuous
 62
     7
100
AcDbLine
 10
-165.2825164794922
 20
44.75709915161132
 30
0.0
 11
-166.7825164794922
 21
46.25709915161133
 31
0.0
  0
LINE
  5
97
330
22
100
AcDbEntity
  8
0
  6
Continuous
 62
     7
100
AcDbLine
 10
-166.7825164794922
 20
46.25709915161133
 30
0.0
 11
-166.7825164794922
 21
65.25710296630859
 31
0.0
  0
LINE
  5
98
330
22
100
AcDbEntity
  8
0
  6
Continuous
 62
     7
100
AcDbLine
 10
-160.7866058349609
 20
44.75709915161132
 30
0.0
 11
-159.7866058349609
 21
45.75709915161133
 31
0.0
  0
LINE
  5
99
330
22
100
AcDbEntity
  8
0
  6
Continuous
 62
     7
100
AcDbLine
 10
-221.7859497070314
 20
46.25709915161133
 30
0.0
 11
-166.7825164794922
 21
46.25709915161133
 31
0.0
  0
LINE
  5
9A
330
22
100
AcDbEntity
  8
0
  6
Continuous
 62
     7
100
AcDbLine
 10
-169.2840881347656
 20
71.75710296630859
 30
0.0
 11
-168.2840881347656
 21
72.75710296630859
 31
0.0
  0
LINE
  5
9B
330
22
100
AcDbEntity
  8
0
  6
Continuous
 62
     7
100
AcDbLine
 10
-221.7859497070314
 20
66.75710296630859
 30
0.0
 11
-165.2825164794922
 21
66.75710296630859
 31
0.0
  0
LINE
  5
9C
330
22
100
AcDbEntity
  8
0
  6
Continuous
 62
     7
100
AcDbLine
 10
-221.7859497070314
 20
65.25710296630859
 30
0.0
 11
-166.7825164794922
 21
65.25710296630859
 31
0.0
  0
LINE
  5
9D
330
22
100
AcDbEntity
  8
0
  6
Continuous
 62
     7
100
AcDbLine
 10
-283.7787475585938
 20
47.7501106262207
 30
0.0
 11
-285.7789916992188
 21
49.74988555908203
 31
0.0
  0
LINE
  5
9E
330
22
100
AcDbEntity
  8
0
  6
Continuous
 62
     7
100
AcDbLine
 10
-282.7784118652344
 20
44.75022506713867
 30
0.0
 11
-283.7785339355469
 21
45.7501106262207
 31
0.0
  0
LINE
  5
9F
330
22
100
AcDbEntity
  8
0
  6
Continuous
 62
     7
100
AcDbLine
 10
-287.6444396972656
 20
108.9233245849609
 30
0.0
 11
-283.7834777832031
 21
89.75011444091796
 31
0.0
  0
LINE
  5
A0
330
22
100
AcDbEntity
  8
0
  6
Continuous
 62
     7
100
AcDbLine
 10
-168.2840881347656
 20
72.75710296630859
 30
0.0
 11
-163.7831573486328
 21
72.75710296630859
 31
0.0
  0
LINE
  5
A1
330
22
100
AcDbEntity
  8
0
  6
Continuous
 62
     7
100
AcDbLine
 10
-157.7866058349609
 20
49.75709915161132
 30
0.0
 11
-157.7866058349609
 21
89.55784606933594
 31
0.0
  0
LINE
  5
A2
330
22
100
AcDbEntity
  8
0
  6
Continuous
 62
     7
100
AcDbLine
 10
-215.7919158935547
 20
82.25358581542968
 30
0.0
 11
-215.7919158935547
 21
78.75358581542968
 31
0.0
  0
LINE
  5
A3
330
22
100
AcDbEntity
  8
0
  6
Continuous
 62
     7
100
AcDbLine
 10
-165.2825164794922
 20
44.75709915161132
 30
0.0
 11
-165.2825164794922
 21
68.7571029663086
 31
0.0
  0
LINE
  5
A4
330
22
100
AcDbEntity
  8
0
  6
Continuous
 62
     7
100
AcDbLine
 10
-211.7866058349609
 20
68.7571029663086
 30
0.0
 11
-165.2825164794922
 21
68.7571029663086
 31
0.0
  0
LINE
  5
A5
330
22
100
AcDbEntity
  8
0
  6
Continuous
 62
     7
100
AcDbLine
 10
-211.7866058349609
 20
71.75710296630859
 30
0.0
 11
-211.7866058349609
 21
68.7571029663086
 31
0.0
  0
LINE
  5
A6
330
22
100
AcDbEntity
  8
0
  6
Continuous
 62
     7
100
AcDbLine
 10
-163.7831573486328
 20
91.25358581542968
 30
0.0
 11
-163.7831573486328
 21
72.75710296630859
 31
0.0
  0
LINE
  5
A7
330
22
100
AcDbEntity
  8
0
  6
Continuous
 62
     7
100
AcDbLine
 10
-159.7866058349609
 20
45.75709915161133
 30
0.0
 11
-159.7866058349609
 21
89.75710296630859
 31
0.0
  0
LINE
  5
A8
330
22
100
AcDbEntity
  8
0
  6
Continuous
 62
     7
100
AcDbLine
 10
-211.7866058349609
 20
71.75710296630859
 30
0.0
 11
-169.2840881347656
 21
71.75710296630859
 31
0.0
  0
LINE
  5
A9
330
22
100
AcDbEntity
  8
0
  6
Continuous
 62
     7
100
AcDbLine
 10
-141.7866058349609
 20
112.7571029663086
 30
0.0
 11
-141.7866058349609
 21
109.7571029663086
 31
0.0
  0
LINE
  5
AA
330
22
100
AcDbEntity
  8
0
  6
Continuous
 62
     7
100
AcDbLine
 10
-283.7834777832031
 20
89.75011444091796
 30
0.0
 11
-227.1210021972656
 21
89.75011444091796
 31
0.0
  0
LINE
  5
AB
330
22
100
AcDbEntity
  8
0
  6
Continuous
 62
     7
100
AcDbLine
 10
-283.7785339355469
 20
45.7501106262207
 30
0.0
 11
-283.7834777832031
 21
89.75011444091796
 31
0.0
  0
LINE
  5
AC
330
22
100
AcDbEntity
  8
0
  6
Continuous
 62
     7
100
AcDbLine
 10
-285.7789916992188
 20
49.74988555908203
 30
0.0
 11
-285.7834777832031
 21
89.55062866210937
 31
0.0
  0
LINE
  5
AD
330
22
100
AcDbEntity
  8
0
  6
Continuous
 62
     7
100
AcDbLine
 10
-227.2821044921875
 20
109.7571029663086
 30
0.0
 11
-226.7825164794922
 21
47.71683883666992
 31
0.0
  0
LINE
  5
AE
330
22
100
AcDbEntity
  8
0
  6
Continuous
 62
     7
100
AcDbLine
 10
-301.78662109375
 20
112.7571029663086
 30
0.0
 11
-301.78662109375
 21
109.7571029663086
 31
0.0
  0
LINE
  5
AF
330
22
100
AcDbEntity
  8
0
  6
Continuous
 62
     7
100
AcDbLine
 10
-289.8509521484375
 20
109.7494277954102
 30
0.0
 11
-285.7834777832031
 21
89.55062866210937
 31
0.0
  0
LINE
  5
B0
330
22
100
AcDbEntity
  8
0
  6
Continuous
 62
     7
100
AcDbLine
 10
-211.7866058349609
 20
70.11917877197266
 30
0.0
 11
-210.1486968994141
 21
71.75710296630859
 31
0.0
  0
LINE
  5
B1
330
22
100
AcDbEntity
  8
0
  6
Continuous
 62
     7
100
AcDbLine
 10
-210.3202667236328
 20
68.7571029663086
 30
0.0
 11
-207.3202667236328
 21
71.75710296630859
 31
0.0
  0
LINE
  5
B2
330
22
100
AcDbEntity
  8
0
  6
Continuous
 62
     7
100
AcDbLine
 10
-207.4918365478516
 20
68.7571029663086
 30
0.0
 11
-204.4918365478516
 21
71.75710296630859
 31
0.0
  0
LINE
  5
B3
330
22
100
AcDbEntity
  8
0
  6
Continuous
 62
     7
100
AcDbLine
 10
-204.6634063720703
 20
68.7571029663086
 30
0.0
 11
-201.6634063720703
 21
71.75710296630859
 31
0.0
  0
LINE
  5
B4
330
22
100
AcDbEntity
  8
0
  6
Continuous
 62
     7
100
AcDbLine
 10
-160.4531555175781
 20
110.1389312744141
 30
0.0
 11
-157.8349914550781
 21
112.7571029663086
 31
0.0
  0
LINE
  5
B5
330
22
100
AcDbEntity
  8
0
  6
Continuous
 62
     7
100
AcDbLine
 10
-201.8349914550781
 20
68.7571029663086
 30
0.0
 11
-198.8349914550781
 21
71.75710296630859
 31
0.0
  0
LINE
  5
B6
330
22
100
AcDbEntity
  8
0
  6
Continuous
 62
     7
100
AcDbLine
 10
-161.0586547851563
 20
106.7050094604492
 30
0.0
 11
-155.0065612792969
 21
112.7571029663086
 31
0.0
  0
LINE
  5
B7
330
22
100
AcDbEntity
  8
0
  6
Continuous
 62
     7
100
AcDbLine
 10
-199.0065612792969
 20
68.7571029663086
 30
0.0
 11
-196.0065612792969
 21
71.75710296630859
 31
0.0
  0
LINE
  5
B8
330
22
100
AcDbEntity
  8
0
  6
Continuous
 62
     7
100
AcDbLine
 10
-155.2446441650391
 20
109.6905822753906
 30
0.0
 11
-152.1781311035156
 21
112.7571029663086
 31
0.0
  0
LINE
  5
B9
330
22
100
AcDbEntity
  8
0
  6
Continuous
 62
     7
100
AcDbLine
 10
-161.6641387939453
 20
103.2710876464844
 30
0.0
 11
-155.9030914306641
 21
109.0321426391602
 31
0.0
  0
LINE
  5
BA
330
22
100
AcDbEntity
  8
0
  6
Continuous
 62
     7
100
AcDbLine
 10
-196.1781311035156
 20
68.7571029663086
 30
0.0
 11
-193.1781311035156
 21
71.75710296630859
 31
0.0
  0
LINE
  5
BB
330
22
100
AcDbEntity
  8
0
  6
Continuous
 62
     7
100
AcDbLine
 10
-152.3497009277344
 20
109.7571029663086
 30
0.0
 11
-149.3497009277344
 21
112.7571029663086
 31
0.0
  0
LINE
  5
BC
330
22
100
AcDbEntity
  8
0
  6
Continuous
 62
     7
100
AcDbLine
 10
-162.2696380615234
 20
99.83717346191406
 30
0.0
 11
-156.6211547851563
 21
105.4856414794922
 31
0.0
  0
LINE
  5
BD
330
22
100
AcDbEntity
  8
0
  6
Continuous
 62
     7
100
AcDbLine
 10
-193.3497009277344
 20
68.7571029663086
 30
0.0
 11
-190.3497009277344
 21
71.75710296630859
 31
0.0
  0
LINE
  5
BE
330
22
100
AcDbEntity
  8
0
  6
Continuous
 62
     7
100
AcDbLine
 10
-149.5212707519531
 20
109.7571029663086
 30
0.0
 11
-146.5212707519531
 21
112.7571029663086
 31
0.0
  0
LINE
  5
BF
330
22
100
AcDbEntity
  8
0
  6
Continuous
 62
     7
100
AcDbLine
 10
-162.8751220703125
 20
96.40325164794923
 30
0.0
 11
-157.3338165283203
 21
101.9445571899414
 31
0.0
  0
LINE
  5
C0
330
22
100
AcDbEntity
  8
0
  6
Continuous
 62
     7
100
AcDbLine
 10
-190.5212707519531
 20
68.7571029663086
 30
0.0
 11
-187.5212707519531
 21
71.75710296630859
 31
0.0
  0
LINE
  5
C1
330
22
100
AcDbEntity
  8
0
  6
Continuous
 62
     7
100
AcDbLine
 10
-146.6928558349609
 20
109.7571029663086
 30
0.0
 11
-142.7145538330078
 21
113.7353973388672
 31
0.0
  0
LINE
  5
C2
330
22
100
AcDbEntity
  8
0
  6
Continuous
 62
     7
100
AcDbLine
 10
-163.4806213378906
 20
92.96932983398438
 30
0.0
 11
-158.0464782714844
 21
98.40346527099608
 31
0.0
  0
LINE
  5
C3
330
22
100
AcDbEntity
  8
0
  6
Continuous
 62
     7
100
AcDbLine
 10
-187.6928558349609
 20
68.7571029663086
 30
0.0
 11
-184.6928558349609
 21
71.75710296630859
 31
0.0
  0
LINE
  5
C4
330
22
100
AcDbEntity
  8
0
  6
Continuous
 62
     7
100
AcDbLine
 10
-143.8644256591797
 20
109.7571029663086
 30
0.0
 11
-141.7866058349609
 21
111.8349075317383
 31
0.0
  0
LINE
  5
C5
330
22
100
AcDbEntity
  8
0
  6
Continuous
 62
     7
100
AcDbLine
 10
-163.7831573486328
 20
89.83837127685546
 30
0.0
 11
-158.7591552734375
 21
94.86237335205078
 31
0.0
  0
LINE
  5
C6
330
22
100
AcDbEntity
  8
0
  6
Continuous
 62
     7
100
AcDbLine
 10
-184.8644256591797
 20
68.7571029663086
 30
0.0
 11
-181.8644256591797
 21
71.75710296630859
 31
0.0
  0
LINE
  5
C7
330
22
100
AcDbEntity
  8
0
  6
Continuous
 62
     7
100
AcDbLine
 10
-163.7831573486328
 20
87.00994873046875
 30
0.0
 11
-159.4718170166016
 21
91.32128143310549
 31
0.0
  0
LINE
  5
C8
330
22
100
AcDbEntity
  8
0
  6
Continuous
 62
     7
100
AcDbLine
 10
-182.0359954833984
 20
68.7571029663086
 30
0.0
 11
-179.0359954833984
 21
71.75710296630859
 31
0.0
  0
LINE
  5
C9
330
22
100
AcDbEntity
  8
0
  6
Continuous
 62
     7
100
AcDbLine
 10
-163.7831573486328
 20
84.1815185546875
 30
0.0
 11
-159.7866058349609
 21
88.17805480957032
 31
0.0
  0
LINE
  5
CA
330
22
100
AcDbEntity
  8
0
  6
Continuous
 62
     7
100
AcDbLine
 10
-179.2075653076172
 20
68.7571029663086
 30
0.0
 11
-176.2075653076172
 21
71.75710296630859
 31
0.0
  0
LINE
  5
CB
330
22
100
AcDbEntity
  8
0
  6
Continuous
 62
     7
100
AcDbLine
 10
-163.7831573486328
 20
81.35308837890624
 30
0.0
 11
-159.7866058349609
 21
85.34963226318359
 31
0.0
  0
LINE
  5
CC
330
22
100
AcDbEntity
  8
0
  6
Continuous
 62
     7
100
AcDbLine
 10
-176.3791351318359
 20
68.7571029663086
 30
0.0
 11
-173.3791351318359
 21
71.75710296630859
 31
0.0
  0
LINE
  5
CD
330
22
100
AcDbEntity
  8
0
  6
Continuous
 62
     7
100
AcDbLine
 10
-163.7831573486328
 20
78.52466583251953
 30
0.0
 11
-159.7866058349609
 21
82.52120208740235
 31
0.0
  0
LINE
  5
CE
330
22
100
AcDbEntity
  8
0
  6
Continuous
 62
     7
100
AcDbLine
 10
-173.5507202148438
 20
68.7571029663086
 30
0.0
 11
-170.5507202148438
 21
71.75710296630859
 31
0.0
  0
LINE
  5
CF
330
22
100
AcDbEntity
  8
0
  6
Continuous
 62
     7
100
AcDbLine
 10
-163.7831573486328
 20
75.69623565673828
 30
0.0
 11
-159.7866058349609
 21
79.6927719116211
 31
0.0
  0
LINE
  5
D0
330
22
100
AcDbEntity
  8
0
  6
Continuous
 62
     7
100
AcDbLine
 10
-170.7222900390625
 20
68.7571029663086
 30
0.0
 11
-166.7222900390625
 21
72.75710296630859
 31
0.0
  0
LINE
  5
D1
330
22
100
AcDbEntity
  8
0
  6
Continuous
 62
     7
100
AcDbLine
 10
-163.7831573486328
 20
72.86781311035156
 30
0.0
 11
-159.7866058349609
 21
76.86434936523437
 31
0.0
  0
LINE
  5
D2
330
22
100
AcDbEntity
  8
0
  6
Continuous
 62
     7
100
AcDbLine
 10
-167.8938598632813
 20
68.7571029663086
 30
0.0
 11
-163.8938598632813
 21
72.75710296630859
 31
0.0
  0
LINE
  5
D3
330
22
100
AcDbEntity
  8
0
  6
Continuous
 62
     7
100
AcDbLine
 10
-165.2825164794922
 20
68.54001617431641
 30
0.0
 11
-159.7866058349609
 21
74.03591918945313
 31
0.0
  0
LINE
  5
D4
330
22
100
AcDbEntity
  8
0
  6
Continuous
 62
     7
100
AcDbLine
 10
-165.2825164794922
 20
65.71158599853515
 30
0.0
 11
-159.7866058349609
 21
71.2074966430664
 31
0.0
  0
LINE
  5
D5
330
22
100
AcDbEntity
  8
0
  6
Continuous
 62
     7
100
AcDbLine
 10
-165.2825164794922
 20
62.88316345214844
 30
0.0
 11
-159.7866058349609
 21
68.37906646728516
 31
0.0
  0
LINE
  5
D6
330
22
100
AcDbEntity
  8
0
  6
Continuous
 62
     7
100
AcDbLine
 10
-165.2825164794922
 20
60.05473327636718
 30
0.0
 11
-159.7866058349609
 21
65.5506362915039
 31
0.0
  0
LINE
  5
D7
330
22
100
AcDbEntity
  8
0
  6
Continuous
 62
     7
100
AcDbLine
 10
-165.2825164794922
 20
57.2263069152832
 30
0.0
 11
-159.7866058349609
 21
62.72221374511719
 31
0.0
  0
LINE
  5
D8
330
22
100
AcDbEntity
  8
0
  6
Continuous
 62
     7
100
AcDbLine
 10
-165.2825164794922
 20
54.39788055419922
 30
0.0
 11
-159.7866058349609
 21
59.89378356933594
 31
0.0
  0
LINE
  5
D9
330
22
100
AcDbEntity
  8
0
  6
Continuous
 62
     7
100
AcDbLine
 10
-165.2825164794922
 20
51.56945419311522
 30
0.0
 11
-159.7866058349609
 21
57.06535720825195
 31
0.0
  0
LINE
  5
DA
330
22
100
AcDbEntity
  8
0
  6
Continuous
 62
     7
100
AcDbLine
 10
-165.2825164794922
 20
48.74102783203125
 30
0.0
 11
-159.7866058349609
 21
54.23693084716797
 31
0.0
  0
LINE
  5
DB
330
22
100
AcDbEntity
  8
0
  6
Continuous
 62
     7
100
AcDbLine
 10
-165.2825164794922
 20
45.91259765624999
 30
0.0
 11
-159.7866058349609
 21
51.40850448608397
 31
0.0
  0
LINE
  5
DC
330
22
100
AcDbEntity
  8
0
  6
Continuous
 62
     7
100
AcDbLine
 10
-163.6095886230469
 20
44.75709915161132
 30
0.0
 11
-159.7866058349609
 21
48.580078125
 31
0.0
  0
LINE
  5
DD
330
22
100
AcDbEntity
  8
0
  6
Continuous
 62
     7
100
AcDbLine
 10
-213.7919158935547
 20
109.7535858154297
 30
0.0
 11
-213.7919158935547
 21
103.7535858154297
 31
0.0
  0
LINE
  5
DE
330
22
100
AcDbEntity
  8
0
  6
Continuous
 62
     7
100
AcDbLine
 10
-159.9921264648438
 20
112.7535858154297
 30
0.0
 11
-163.7831573486328
 21
91.25358581542968
 31
0.0
  0
LINE
  5
DF
330
22
100
AcDbEntity
  8
0
  6
Continuous
 62
     7
100
AcDbLine
 10
-161.0862426757813
 20
112.7535858154297
 30
0.0
 11
-160.1561279296875
 21
111.8234786987305
 31
0.0
  0
LINE
  5
E0
330
22
100
AcDbEntity
  8
0
  6
Continuous
 62
     7
100
AcDbLine
 10
-161.4397888183594
 20
112.7535858154297
 30
0.0
 11
-160.2091217041016
 21
111.5229187011719
 31
0.0
  0
LINE
  5
E1
330
22
100
AcDbEntity
  8
0
  6
Continuous
 62
     7
100
AcDbLine
 10
-162.5004425048828
 20
112.7535858154297
 30
0.0
 11
-160.3681030273438
 21
110.6212463378906
 31
0.0
  0
LINE
  5
E2
330
22
100
AcDbEntity
  8
0
  6
Continuous
 62
     7
100
AcDbLine
 10
-162.85400390625
 20
112.7535858154297
 30
0.0
 11
-160.4211120605469
 21
110.3206939697266
 31
0.0
  0
LINE
  5
E3
330
22
100
AcDbEntity
  8
0
  6
Continuous
 62
     7
100
AcDbLine
 10
-163.9146575927734
 20
112.7535858154297
 30
0.0
 11
-160.5800933837891
 21
109.4190216064453
 31
0.0
  0
LINE
  5
E4
330
22
100
AcDbEntity
  8
0
  6
Continuous
 62
     7
100
AcDbLine
 10
-164.2682189941406
 20
112.7535858154297
 30
0.0
 11
-160.6330871582031
 21
109.1184616088867
 31
0.0
  0
LINE
  5
E5
330
22
100
AcDbEntity
  8
0
  6
Continuous
 62
     7
100
AcDbLine
 10
-165.3288726806641
 20
112.7535858154297
 30
0.0
 11
-160.7920837402344
 21
108.2167892456055
 31
0.0
  0
LINE
  5
E6
330
22
100
AcDbEntity
  8
0
  6
Continuous
 62
     7
100
AcDbLine
 10
-165.6824340820313
 20
112.7535858154297
 30
0.0
 11
-160.8450775146484
 21
107.9162368774414
 31
0.0
  0
LINE
  5
E7
330
22
100
AcDbEntity
  8
0
  6
Continuous
 62
     7
100
AcDbLine
 10
-166.7430877685547
 20
112.7535858154297
 30
0.0
 11
-161.0040588378906
 21
107.0145645141602
 31
0.0
  0
LINE
  5
E8
330
22
100
AcDbEntity
  8
0
  6
Continuous
 62
     7
100
AcDbLine
 10
-167.0966491699219
 20
112.7535858154297
 30
0.0
 11
-161.0570678710938
 21
106.7140045166016
 31
0.0
  0
LINE
  5
E9
330
22
100
AcDbEntity
  8
0
  6
Continuous
 62
     7
100
AcDbLine
 10
-168.1573028564453
 20
112.7535858154297
 30
0.0
 11
-161.2160491943359
 21
105.8123321533203
 31
0.0
  0
LINE
  5
EA
330
22
100
AcDbEntity
  8
0
  6
Continuous
 62
     7
100
AcDbLine
 10
-168.5108642578125
 20
112.7535858154297
 30
0.0
 11
-161.26904296875
 21
105.5117797851563
 31
0.0
  0
LINE
  5
EB
330
22
100
AcDbEntity
  8
0
  6
Continuous
 62
     7
100
AcDbLine
 10
-169.5715179443359
 20
112.7535858154297
 30
0.0
 11
-161.4280395507813
 21
104.610107421875
 31
0.0
  0
LINE
  5
EC
330
22
100
AcDbEntity
  8
0
  6
Continuous
 62
     7
100
AcDbLine
 10
-169.9250640869141
 20
112.7535858154297
 30
0.0
 11
-161.4810333251953
 21
104.3095474243164
 31
0.0
  0
LINE
  5
ED
330
22
100
AcDbEntity
  8
0
  6
Continuous
 62
     7
100
AcDbLine
 10
-170.9857330322266
 20
112.7535858154297
 30
0.0
 11
-161.6400146484375
 21
103.4078750610352
 31
0.0
  0
LINE
  5
EE
330
22
100
AcDbEntity
  8
0
  6
Continuous
 62
     7
100
AcDbLine
 10
-171.3392791748047
 20
112.7535858154297
 30
0.0
 11
-161.6930236816406
 21
103.1073226928711
 31
0.0
  0
LINE
  5
EF
330
22
100
AcDbEntity
  8
0
  6
Continuous
 62
     7
100
AcDbLine
 10
-172.3999481201172
 20
112.7535858154297
 30
0.0
 11
-161.8520050048828
 21
102.2056503295898
 31
0.0
  0
LINE
  5
F0
330
22
100
AcDbEntity
  8
0
  6
Continuous
 62
     7
100
AcDbLine
 10
-172.7534942626953
 20
112.7535858154297
 30
0.0
 11
-161.9049987792969
 21
101.9050903320313
 31
0.0
  0
LINE
  5
F1
330
22
100
AcDbEntity
  8
0
  6
Continuous
 62
     7
100
AcDbLine
 10
-173.8141632080078
 20
112.7535858154297
 30
0.0
 11
-162.0639953613281
 21
101.00341796875
 31
0.0
  0
LINE
  5
F2
330
22
100
AcDbEntity
  8
0
  6
Continuous
 62
     7
100
AcDbLine
 10
-174.1677093505859
 20
112.7535858154297
 30
0.0
 11
-162.1169891357422
 21
100.7028656005859
 31
0.0
  0
LINE
  5
F3
330
22
100
AcDbEntity
  8
0
  6
Continuous
 62
     7
100
AcDbLine
 10
-168.9325561523438
 20
106.4577789306641
 30
0.0
 11
-162.2759704589844
 21
99.8011932373047
 31
0.0
  0
LINE
  5
F4
330
22
100
AcDbEntity
  8
0
  6
Continuous
 62
     7
100
AcDbLine
 10
-175.2283782958984
 20
112.7535858154297
 30
0.0
 11
-170.8433685302734
 21
108.3685836791992
 31
0.0
  0
LINE
  5
F5
330
22
100
AcDbEntity
  8
0
  6
Continuous
 62
     7
100
AcDbLine
 10
-168.9012298583984
 20
106.0728988647461
 30
0.0
 11
-162.3289794921875
 21
99.50063323974609
 31
0.0
  0
LINE
  5
F6
330
22
100
AcDbEntity
  8
0
  6
Continuous
 62
     7
100
AcDbLine
 10
-175.5819244384766
 20
112.7535858154297
 30
0.0
 11
-171.1969299316406
 21
108.3685836791992
 31
0.0
  0
LINE
  5
F7
330
22
100
AcDbEntity
  8
0
  6
Continuous
 62
     7
100
AcDbLine
 10
-168.8072509765625
 20
104.9182510375977
 30
0.0
 11
-162.4879608154297
 21
98.59896850585938
 31
0.0
  0
LINE
  5
F8
330
22
100
AcDbEntity
  8
0
  6
Continuous
 62
     7
100
AcDbLine
 10
-176.642578125
 20
112.7535858154297
 30
0.0
 11
-172.2575836181641
 21
108.3685836791992
 31
0.0
  0
LINE
  5
F9
330
22
100
AcDbEntity
  8
0
  6
Continuous
 62
     7
100
AcDbLine
 10
-168.7759246826172
 20
104.5333709716797
 30
0.0
 11
-162.5409545898438
 21
98.29840850830079
 31
0.0
  0
LINE
  5
FA
330
22
100
AcDbEntity
  8
0
  6
Continuous
 62
     7
100
AcDbLine
 10
-176.9961395263672
 20
112.7535858154297
 30
0.0
 11
-172.6111297607422
 21
108.3685836791992
 31
0.0
  0
LINE
  5
FB
330
22
100
AcDbEntity
  8
0
  6
Continuous
 62
     7
100
AcDbLine
 10
-168.6819458007813
 20
103.3787307739258
 30
0.0
 11
-162.699951171875
 21
97.39673614501953
 31
0.0
  0
LINE
  5
FC
330
22
100
AcDbEntity
  8
0
  6
Continuous
 62
     7
100
AcDbLine
 10
-178.0567932128906
 20
112.7535858154297
 30
0.0
 11
-173.6717987060547
 21
108.3685836791992
 31
0.0
  0
LINE
  5
FD
330
22
100
AcDbEntity
  8
0
  6
Continuous
 62
     7
100
AcDbLine
 10
-168.6506195068359
 20
102.9938507080078
 30
0.0
 11
-162.7529449462891
 21
97.09617614746093
 31
0.0
  0
LINE
  5
FE
330
22
100
AcDbEntity
  8
0
  6
Continuous
 62
     7
100
AcDbLine
 10
-178.4103546142578
 20
112.7535858154297
 30
0.0
 11
-174.0253448486328
 21
108.3685836791992
 31
0.0
  0
LINE
  5
FF
330
22
100
AcDbEntity
  8
0
  6
Continuous
 62
     7
100
AcDbLine
 10
-168.5566253662109
 20
101.8392028808594
 30
0.0
 11
-162.9119262695313
 21
96.19451141357423
 31
0.0
  0
LINE
  5
100
330
22
100
AcDbEntity
  8
0
  6
Continuous
 62
     7
100
AcDbLine
 10
-179.4710083007813
 20
112.7535858154297
 30
0.0
 11
-175.0860137939453
 21
108.3685836791992
 31
0.0
  0
LINE
  5
101
330
22
100
AcDbEntity
  8
0
  6
Continuous
 62
     7
100
AcDbLine
 10
-168.5252990722656
 20
101.4543228149414
 30
0.0
 11
-162.9649353027344
 21
95.89395141601563
 31
0.0
  0
LINE
  5
102
330
22
100
AcDbEntity
  8
0
  6
Continuous
 62
     7
100
AcDbLine
 10
-179.8245697021484
 20
112.7535858154297
 30
0.0
 11
-175.4395599365234
 21
108.3685836791992
 31
0.0
  0
LINE
  5
103
330
22
100
AcDbEntity
  8
0
  6
Continuous
 62
     7
100
AcDbLine
 10
-168.4313201904297
 20
100.2996826171875
 30
0.0
 11
-163.1239166259766
 21
94.99227905273437
 31
0.0
  0
LINE
  5
104
330
22
100
AcDbEntity
  8
0
  6
Continuous
 62
     7
100
AcDbLine
 10
-180.8852233886719
 20
112.7535858154297
 30
0.0
 11
-176.5002288818359
 21
108.3685836791992
 31
0.0
  0
LINE
  5
105
330
22
100
AcDbEntity
  8
0
  6
Continuous
 62
     7
100
AcDbLine
 10
-168.3999938964844
 20
99.91480255126951
 30
0.0
 11
-163.1769104003906
 21
94.69171905517578
 31
0.0
  0
LINE
  5
106
330
22
100
AcDbEntity
  8
0
  6
Continuous
 62
     7
100
AcDbLine
 10
-181.2387847900391
 20
112.7535858154297
 30
0.0
 11
-176.8537750244141
 21
108.3685836791992
 31
0.0
  0
LINE
  5
107
330
22
100
AcDbEntity
  8
0
  6
Continuous
 62
     7
100
AcDbLine
 10
-168.3060150146484
 20
98.76016235351563
 30
0.0
 11
-163.3359069824219
 21
93.79005432128906
 31
0.0
  0
LINE
  5
108
330
22
100
AcDbEntity
  8
0
  6
Continuous
 62
     7
100
AcDbLine
 10
-182.2994384765625
 20
112.7535858154297
 30
0.0
 11
-177.9144439697266
 21
108.3685836791992
 31
0.0
  0
LINE
  5
109
330
22
100
AcDbEntity
  8
0
  6
Continuous
 62
     7
100
AcDbLine
 10
-168.2746887207031
 20
98.37527465820313
 30
0.0
 11
-163.3889007568359
 21
93.48949432373048
 31
0.0
  0
LINE
  5
10A
330
22
100
AcDbEntity
  8
0
  6
Continuous
 62
     7
100
AcDbLine
 10
-182.6529998779297
 20
112.7535858154297
 30
0.0
 11
-178.2679901123047
 21
108.3685836791992
 31
0.0
  0
LINE
  5
10B
330
22
100
AcDbEntity
  8
0
  6
Continuous
 62
     7
100
AcDbLine
 10
-168.1806945800781
 20
97.22063446044922
 30
0.0
 11
-163.5478820800781
 21
92.58782196044922
 31
0.0
  0
LINE
  5
10C
330
22
100
AcDbEntity
  8
0
  6
Continuous
 62
     7
100
AcDbLine
 10
-183.7136535644531
 20
112.7535858154297
 30
0.0
 11
-179.3286437988281
 21
108.3685836791992
 31
0.0
  0
LINE
  5
10D
330
22
100
AcDbEntity
  8
0
  6
Continuous
 62
     7
100
AcDbLine
 10
-168.1493682861328
 20
96.83575439453123
 30
0.0
 11
-163.6008911132813
 21
92.28726959228515
 31
0.0
  0
LINE
  5
10E
330
22
100
AcDbEntity
  8
0
  6
Continuous
 62
     7
100
AcDbLine
 10
-184.0671997070313
 20
112.7535858154297
 30
0.0
 11
-179.6822052001953
 21
108.3685836791992
 31
0.0
  0
LINE
  5
10F
330
22
100
AcDbEntity
  8
0
  6
Continuous
 62
     7
100
AcDbLine
 10
-168.0553894042969
 20
95.68111419677734
 30
0.0
 11
-163.7598724365234
 21
91.38559722900392
 31
0.0
  0
LINE
  5
110
330
22
100
AcDbEntity
  8
0
  6
Continuous
 62
     7
100
AcDbLine
 10
-185.1278686523438
 20
112.7535858154297
 30
0.0
 11
-180.7428588867188
 21
108.3685836791992
 31
0.0
  0
LINE
  5
111
330
22
100
AcDbEntity
  8
0
  6
Continuous
 62
     7
100
AcDbLine
 10
-168.0240631103516
 20
95.29623413085937
 30
0.0
 11
-163.9814147949219
 21
91.25358581542968
 31
0.0
  0
LINE
  5
112
330
22
100
AcDbEntity
  8
0
  6
Continuous
 62
     7
100
AcDbLine
 10
-185.4814147949219
 20
112.7535858154297
 30
0.0
 11
-181.0964202880859
 21
108.3685836791992
 31
0.0
  0
LINE
  5
113
330
22
100
AcDbEntity
  8
0
  6
Continuous
 62
     7
100
AcDbLine
 10
-167.9300842285156
 20
94.14158630371094
 30
0.0
 11
-165.0420837402344
 21
91.25358581542968
 31
0.0
  0
LINE
  5
114
330
22
100
AcDbEntity
  8
0
  6
Continuous
 62
     7
100
AcDbLine
 10
-186.5420837402344
 20
112.7535858154297
 30
0.0
 11
-182.1570739746094
 21
108.3685836791992
 31
0.0
  0
LINE
  5
115
330
22
100
AcDbEntity
  8
0
  6
Continuous
 62
     7
100
AcDbLine
 10
-167.8987579345703
 20
93.75670623779296
 30
0.0
 11
-165.3956298828125
 21
91.25358581542968
 31
0.0
  0
LINE
  5
116
330
22
100
AcDbEntity
  8
0
  6
Continuous
 62
     7
100
AcDbLine
 10
-186.8956298828125
 20
112.7535858154297
 30
0.0
 11
-182.5106353759766
 21
108.3685836791992
 31
0.0
  0
LINE
  5
117
330
22
100
AcDbEntity
  8
0
  6
Continuous
 62
     7
100
AcDbLine
 10
-163.956298828125
 20
88.75358581542968
 30
0.0
 11
-163.8831481933594
 21
88.68044281005859
 31
0.0
  0
LINE
  5
118
330
22
100
AcDbEntity
  8
0
  6
Continuous
 62
     7
100
AcDbLine
 10
-167.8047637939453
 20
92.60206604003906
 30
0.0
 11
-165.7831573486328
 21
90.5804443359375
 31
0.0
  0
LINE
  5
119
330
22
100
AcDbEntity
  8
0
  6
Continuous
 62
     7
100
AcDbLine
 10
-187.956298828125
 20
112.7535858154297
 30
0.0
 11
-183.5712890625
 21
108.3685836791992
 31
0.0
  0
LINE
  5
11A
330
22
100
AcDbEntity
  8
0
  6
Continuous
 62
     7
100
AcDbLine
 10
-164.3098449707031
 20
88.75358581542968
 30
0.0
 11
-163.8831481933594
 21
88.32688903808593
 31
0.0
  0
LINE
  5
11B
330
22
100
AcDbEntity
  8
0
  6
Continuous
 62
     7
100
AcDbLine
 10
-167.7734375
 20
92.21718597412108
 30
0.0
 11
-165.7831573486328
 21
90.22689056396485
 31
0.0
  0
LINE
  5
11C
330
22
100
AcDbEntity
  8
0
  6
Continuous
 62
     7
100
AcDbLine
 10
-188.3098449707031
 20
112.7535858154297
 30
0.0
 11
-183.9248504638672
 21
108.3685836791992
 31
0.0
  0
LINE
  5
11D
330
22
100
AcDbEntity
  8
0
  6
Continuous
 62
     7
100
AcDbLine
 10
-165.3705139160156
 20
88.75358581542968
 30
0.0
 11
-163.8831481933594
 21
87.26622772216797
 31
0.0
  0
LINE
  5
11E
330
22
100
AcDbEntity
  8
0
  6
Continuous
 62
     7
100
AcDbLine
 10
-167.6794586181641
 20
91.06253814697266
 30
0.0
 11
-165.7831573486328
 21
89.16622924804688
 31
0.0
  0
LINE
  5
11F
330
22
100
AcDbEntity
  8
0
  6
Continuous
 62
     7
100
AcDbLine
 10
-189.3705139160156
 20
112.7535858154297
 30
0.0
 11
-184.9855041503906
 21
108.3685836791992
 31
0.0
  0
LINE
  5
120
330
22
100
AcDbEntity
  8
0
  6
Continuous
 62
     7
100
AcDbLine
 10
-165.7240600585938
 20
88.75358581542968
 30
0.0
 11
-163.8831481933594
 21
86.91267395019531
 31
0.0
  0
LINE
  5
121
330
22
100
AcDbEntity
  8
0
  6
Continuous
 62
     7
100
AcDbLine
 10
-167.6481323242188
 20
90.67765808105468
 30
0.0
 11
-165.7831573486328
 21
88.81267547607421
 31
0.0
  0
LINE
  5
122
330
22
100
AcDbEntity
  8
0
  6
Continuous
 62
     7
100
AcDbLine
 10
-189.7240600585938
 20
112.7535858154297
 30
0.0
 11
-185.3390655517578
 21
108.3685836791992
 31
0.0
  0
LINE
  5
123
330
22
100
AcDbEntity
  8
0
  6
Continuous
 62
     7
100
AcDbLine
 10
-167.5541534423828
 20
89.52301788330078
 30
0.0
 11
-163.8831481933594
 21
85.85202026367188
 31
0.0
  0
LINE
  5
124
330
22
100
AcDbEntity
  8
0
  6
Continuous
 62
     7
100
AcDbLine
 10
-190.7847137451172
 20
112.7535858154297
 30
0.0
 11
-186.3997192382813
 21
108.3685836791992
 31
0.0
  0
LINE
  5
125
330
22
100
AcDbEntity
  8
0
  6
Continuous
 62
     7
100
AcDbLine
 10
-167.5228271484375
 20
89.13813781738282
 30
0.0
 11
-163.8831481933594
 21
85.49846649169921
 31
0.0
  0
LINE
  5
126
330
22
100
AcDbEntity
  8
0
  6
Continuous
 62
     7
100
AcDbLine
 10
-191.1382751464844
 20
112.7535858154297
 30
0.0
 11
-186.7532653808594
 21
108.3685836791992
 31
0.0
  0
LINE
  5
127
330
22
100
AcDbEntity
  8
0
  6
Continuous
 62
     7
100
AcDbLine
 10
-167.4288330078125
 20
87.9834976196289
 30
0.0
 11
-163.8831481933594
 21
84.43780517578124
 31
0.0
  0
LINE
  5
128
330
22
100
AcDbEntity
  8
0
  6
Continuous
 62
     7
100
AcDbLine
 10
-192.1989288330078
 20
112.7535858154297
 30
0.0
 11
-187.8139343261719
 21
108.3685836791992
 31
0.0
  0
LINE
  5
129
330
22
100
AcDbEntity
  8
0
  6
Continuous
 62
     7
100
AcDbLine
 10
-167.3975067138672
 20
87.5986099243164
 30
0.0
 11
-163.8831481933594
 21
84.0842514038086
 31
0.0
  0
LINE
  5
12A
330
22
100
AcDbEntity
  8
0
  6
Continuous
 62
     7
100
AcDbLine
 10
-192.552490234375
 20
112.7535858154297
 30
0.0
 11
-188.16748046875
 21
108.3685836791992
 31
0.0
  0
LINE
  5
12B
330
22
100
AcDbEntity
  8
0
  6
Continuous
 62
     7
100
AcDbLine
 10
-167.3035278320313
 20
86.44396972656251
 30
0.0
 11
-163.9505157470703
 21
83.09095764160156
 31
0.0
  0
LINE
  5
12C
330
22
100
AcDbEntity
  8
0
  6
Continuous
 62
     7
100
AcDbLine
 10
-193.6131439208984
 20
112.7535858154297
 30
0.0
 11
-189.2281494140625
 21
108.3685836791992
 31
0.0
  0
LINE
  5
12D
330
22
100
AcDbEntity
  8
0
  6
Continuous
 62
     7
100
AcDbLine
 10
-167.2722015380859
 20
86.05908966064452
 30
0.0
 11
-164.0886688232422
 21
82.87556457519531
 31
0.0
  0
LINE
  5
12E
330
22
100
AcDbEntity
  8
0
  6
Continuous
 62
     7
100
AcDbLine
 10
-193.9667053222656
 20
112.7535858154297
 30
0.0
 11
-189.5816955566406
 21
108.3685836791992
 31
0.0
  0
LINE
  5
12F
330
22
100
AcDbEntity
  8
0
  6
Continuous
 62
     7
100
AcDbLine
 10
-167.17822265625
 20
84.90444946289063
 30
0.0
 11
-165.0273590087891
 21
82.75358581542969
 31
0.0
  0
LINE
  5
130
330
22
100
AcDbEntity
  8
0
  6
Continuous
 62
     7
100
AcDbLine
 10
-195.0273590087891
 20
112.7535858154297
 30
0.0
 11
-190.6423645019531
 21
108.3685836791992
 31
0.0
  0
LINE
  5
131
330
22
100
AcDbEntity
  8
0
  6
Continuous
 62
     7
100
AcDbLine
 10
-167.1468963623047
 20
84.51956939697266
 30
0.0
 11
-165.3809204101563
 21
82.75358581542969
 31
0.0
  0
LINE
  5
132
330
22
100
AcDbEntity
  8
0
  6
Continuous
 62
     7
100
AcDbLine
 10
-195.3809204101563
 20
112.7535858154297
 30
0.0
 11
-190.9959106445313
 21
108.3685836791992
 31
0.0
  0
LINE
  5
133
330
22
100
AcDbEntity
  8
0
  6
Continuous
 62
     7
100
AcDbLine
 10
-167.0529174804688
 20
83.36492156982421
 30
0.0
 11
-166.4415740966797
 21
82.75358581542969
 31
0.0
  0
LINE
  5
134
330
22
100
AcDbEntity
  8
0
  6
Continuous
 62
     7
100
AcDbLine
 10
-196.4415740966797
 20
112.7535858154297
 30
0.0
 11
-192.0565795898438
 21
108.3685836791992
 31
0.0
  0
LINE
  5
135
330
22
100
AcDbEntity
  8
0
  6
Continuous
 62
     7
100
AcDbLine
 10
-166.9935150146484
 20
82.95196533203125
 30
0.0
 11
-166.7951354980469
 21
82.75358581542969
 31
0.0
  0
LINE
  5
136
330
22
100
AcDbEntity
  8
0
  6
Continuous
 62
     7
100
AcDbLine
 10
-196.7951354980469
 20
112.7535858154297
 30
0.0
 11
-192.4101257324219
 21
108.3685836791992
 31
0.0
  0
LINE
  5
137
330
22
100
AcDbEntity
  8
0
  6
Continuous
 62
     7
100
AcDbLine
 10
-197.8557891845703
 20
112.7535858154297
 30
0.0
 11
-193.4707794189453
 21
108.3685836791992
 31
0.0
  0
LINE
  5
138
330
22
100
AcDbEntity
  8
0
  6
Continuous
 62
     7
100
AcDbLine
 10
-198.2093353271484
 20
112.7535858154297
 30
0.0
 11
-193.8243408203125
 21
108.3685836791992
 31
0.0
  0
LINE
  5
139
330
22
100
AcDbEntity
  8
0
  6
Continuous
 62
     7
100
AcDbLine
 10
-199.2700042724609
 20
112.7535858154297
 30
0.0
 11
-194.8849945068359
 21
108.3685836791992
 31
0.0
  0
LINE
  5
13A
330
22
100
AcDbEntity
  8
0
  6
Continuous
 62
     7
100
AcDbLine
 10
-199.6235504150391
 20
112.7535858154297
 30
0.0
 11
-195.2385559082031
 21
108.3685836791992
 31
0.0
  0
LINE
  5
13B
330
22
100
AcDbEntity
  8
0
  6
Continuous
 62
     7
100
AcDbLine
 10
-200.6842193603516
 20
112.7535858154297
 30
0.0
 11
-196.2992095947266
 21
108.3685836791992
 31
0.0
  0
LINE
  5
13C
330
22
100
AcDbEntity
  8
0
  6
Continuous
 62
     7
100
AcDbLine
 10
-201.0377655029297
 20
112.7535858154297
 30
0.0
 11
-196.6527709960938
 21
108.3685836791992
 31
0.0
  0
LINE
  5
13D
330
22
100
AcDbEntity
  8
0
  6
Continuous
 62
     7
100
AcDbLine
 10
-201.8205871582031
 20
112.4757461547852
 30
0.0
 11
-197.7134246826172
 21
108.3685836791992
 31
0.0
  0
LINE
  5
13E
330
22
100
AcDbEntity
  8
0
  6
Continuous
 62
     7
100
AcDbLine
 10
-201.9232482910156
 20
112.2248458862305
 30
0.0
 11
-198.0669860839844
 21
108.3685836791992
 31
0.0
  0
LINE
  5
13F
330
22
100
AcDbEntity
  8
0
  6
Continuous
 62
     7
100
AcDbLine
 10
-202.1146697998047
 20
111.3556137084961
 30
0.0
 11
-198.9804992675781
 21
108.2214431762695
 31
0.0
  0
LINE
  5
140
330
22
100
AcDbEntity
  8
0
  6
Continuous
 62
     7
100
AcDbLine
 10
-202.1809844970703
 20
111.0683746337891
 30
0.0
 11
-199.2123565673828
 21
108.0997543334961
 31
0.0
  0
LINE
  5
141
330
22
100
AcDbEntity
  8
0
  6
Continuous
 62
     7
100
AcDbLine
 10
-202.3799285888672
 20
110.206657409668
 30
0.0
 11
-199.7215881347656
 21
107.5483245849609
 31
0.0
  0
LINE
  5
142
330
22
100
AcDbEntity
  8
0
  6
Continuous
 62
     7
100
AcDbLine
 10
-202.4462432861328
 20
109.9194183349609
 30
0.0
 11
-199.8055877685547
 21
107.2787628173828
 31
0.0
  0
LINE
  5
143
330
22
100
AcDbEntity
  8
0
  6
Continuous
 62
     7
100
AcDbLine
 10
-202.6451873779297
 20
109.0577011108398
 30
0.0
 11
-199.9411926269531
 21
106.3537063598633
 31
0.0
  0
LINE
  5
144
330
22
100
AcDbEntity
  8
0
  6
Continuous
 62
     7
100
AcDbLine
 10
-202.7115020751953
 20
108.7704620361328
 30
0.0
 11
-199.9686889648438
 21
106.0276489257813
 31
0.0
  0
LINE
  5
145
330
22
100
AcDbEntity
  8
0
  6
Continuous
 62
     7
100
AcDbLine
 10
-202.9104461669922
 20
107.9087448120117
 30
0.0
 11
-200.0511779785156
 21
105.0494766235352
 31
0.0
  0
LINE
  5
146
330
22
100
AcDbEntity
  8
0
  6
Continuous
 62
     7
100
AcDbLine
 10
-202.9767608642578
 20
107.6215057373047
 30
0.0
 11
-200.0786743164063
 21
104.7234191894531
 31
0.0
  0
LINE
  5
147
330
22
100
AcDbEntity
  8
0
  6
Continuous
 62
     7
100
AcDbLine
 10
-203.1757049560547
 20
106.7597885131836
 30
0.0
 11
-200.1611480712891
 21
103.745246887207
 31
0.0
  0
LINE
  5
148
330
22
100
AcDbEntity
  8
0
  6
Continuous
 62
     7
100
AcDbLine
 10
-203.2420196533203
 20
106.4725494384766
 30
0.0
 11
-200.1886444091797
 21
103.419189453125
 31
0.0
  0
LINE
  5
149
330
22
100
AcDbEntity
  8
0
  6
Continuous
 62
     7
100
AcDbLine
 10
-203.4409484863281
 20
105.6108322143555
 30
0.0
 11
-200.2711334228516
 21
102.4410095214844
 31
0.0
  0
LINE
  5
14A
330
22
100
AcDbEntity
  8
0
  6
Continuous
 62
     7
100
AcDbLine
 10
-203.5072631835938
 20
105.3235931396484
 30
0.0
 11
-200.2986297607422
 21
102.1149520874023
 31
0.0
  0
LINE
  5
14B
330
22
100
AcDbEntity
  8
0
  6
Continuous
 62
     7
100
AcDbLine
 10
-203.7062072753906
 20
104.4618759155273
 30
0.0
 11
-200.3811187744141
 21
101.1367797851563
 31
0.0
  0
LINE
  5
14C
330
22
100
AcDbEntity
  8
0
  6
Continuous
 62
     7
100
AcDbLine
 10
-203.7725219726563
 20
104.1746368408203
 30
0.0
 11
-200.4086151123047
 21
100.8107223510742
 31
0.0
  0
LINE
  5
14D
330
22
100
AcDbEntity
  8
0
  6
Continuous
 62
     7
100
AcDbLine
 10
-203.7933197021484
 20
103.1347808837891
 30
0.0
 11
-200.4911041259766
 21
99.83255004882813
 31
0.0
  0
LINE
  5
14E
330
22
100
AcDbEntity
  8
0
  6
Continuous
 62
     7
100
AcDbLine
 10
-203.7933197021484
 20
102.7812271118164
 30
0.0
 11
-200.5186004638672
 21
99.50649261474609
 31
0.0
  0
LINE
  5
14F
330
22
100
AcDbEntity
  8
0
  6
Continuous
 62
     7
100
AcDbLine
 10
-203.7933197021484
 20
101.7205657958984
 30
0.0
 11
-200.6010894775391
 21
98.52832031250001
 31
0.0
  0
LINE
  5
150
330
22
100
AcDbEntity
  8
0
  6
Continuous
 62
     7
100
AcDbLine
 10
-203.7933197021484
 20
101.3670120239258
 30
0.0
 11
-200.6285705566406
 21
98.20226287841796
 31
0.0
  0
LINE
  5
151
330
22
100
AcDbEntity
  8
0
  6
Continuous
 62
     7
100
AcDbLine
 10
-203.7933197021484
 20
100.3063507080078
 30
0.0
 11
-200.7110595703125
 21
97.22409057617188
 31
0.0
  0
LINE
  5
152
330
22
100
AcDbEntity
  8
0
  6
Continuous
 62
     7
100
AcDbLine
 10
-203.7933197021484
 20
99.95279693603515
 30
0.0
 11
-200.7385559082031
 21
96.89802551269531
 31
0.0
  0
LINE
  5
153
330
22
100
AcDbEntity
  8
0
  6
Continuous
 62
     7
100
AcDbLine
 10
-203.7933197021484
 20
98.8921356201172
 30
0.0
 11
-200.9086151123047
 21
96.00742340087892
 31
0.0
  0
LINE
  5
154
330
22
100
AcDbEntity
  8
0
  6
Continuous
 62
     7
100
AcDbLine
 10
-203.7933197021484
 20
98.53858184814452
 30
0.0
 11
-201.0456695556641
 21
95.79092407226564
 31
0.0
  0
LINE
  5
155
330
22
100
AcDbEntity
  8
0
  6
Continuous
 62
     7
100
AcDbLine
 10
-204.0689849853516
 20
97.75358581542969
 30
0.0
 11
-201.5326538085938
 21
95.21725463867188
 31
0.0
  0
LINE
  5
156
330
22
100
AcDbEntity
  8
0
  6
Continuous
 62
     7
100
AcDbLine
 10
-204.4225463867188
 20
97.75358581542969
 30
0.0
 11
-201.7400817871094
 21
95.0711212158203
 31
0.0
  0
LINE
  5
157
330
22
100
AcDbEntity
  8
0
  6
Continuous
 62
     7
100
AcDbLine
 10
-205.4832000732422
 20
97.75358581542969
 30
0.0
 11
-202.5250244140625
 21
94.79541778564451
 31
0.0
  0
LINE
  5
158
330
22
100
AcDbEntity
  8
0
  6
Continuous
 62
     7
100
AcDbLine
 10
-205.7119140625
 20
97.62875366210938
 30
0.0
 11
-202.8367614746094
 21
94.75358581542968
 31
0.0
  0
LINE
  5
159
330
22
100
AcDbEntity
  8
0
  6
Continuous
 62
     7
100
AcDbLine
 10
-205.7119140625
 20
96.5680923461914
 30
0.0
 11
-203.8974151611328
 21
94.75358581542968
 31
0.0
  0
LINE
  5
15A
330
22
100
AcDbEntity
  8
0
  6
Continuous
 62
     7
100
AcDbLine
 10
-205.7119140625
 20
96.21453857421876
 30
0.0
 11
-204.2509765625
 21
94.75358581542968
 31
0.0
  0
LINE
  5
15B
330
22
100
AcDbEntity
  8
0
  6
Continuous
 62
     7
100
AcDbLine
 10
-205.7119140625
 20
95.15387725830079
 30
0.0
 11
-205.3116302490234
 21
94.75358581542968
 31
0.0
  0
LINE
  5
15C
330
22
100
AcDbEntity
  8
0
  6
Continuous
 62
     7
100
AcDbLine
 10
-205.7119140625
 20
94.80032348632812
 30
0.0
 11
-205.6651916503906
 21
94.75358581542968
 31
0.0
  0
LINE
  5
15D
330
22
100
AcDbEntity
  8
0
  6
Continuous
 62
     7
100
AcDbLine
 10
-215.3827056884766
 20
97.75358581542969
 30
0.0
 11
-214.5119171142578
 21
96.88280487060549
 31
0.0
  0
LINE
  5
15E
330
22
100
AcDbEntity
  8
0
  6
Continuous
 62
     7
100
AcDbLine
 10
-215.7362518310547
 20
97.75358581542969
 30
0.0
 11
-214.5119171142578
 21
96.52925872802734
 31
0.0
  0
LINE
  5
15F
330
22
100
AcDbEntity
  8
0
  6
Continuous
 62
     7
100
AcDbLine
 10
-216.7969207763672
 20
97.75358581542969
 30
0.0
 11
-214.5119171142578
 21
95.46859741210937
 31
0.0
  0
LINE
  5
160
330
22
100
AcDbEntity
  8
0
  6
Continuous
 62
     7
100
AcDbLine
 10
-217.0119171142578
 20
97.61504364013672
 30
0.0
 11
-214.5119171142578
 21
95.11504364013672
 31
0.0
  0
LINE
  5
161
330
22
100
AcDbEntity
  8
0
  6
Continuous
 62
     7
100
AcDbLine
 10
-217.0119171142578
 20
96.55438232421877
 30
0.0
 11
-215.0387115478516
 21
94.58117675781251
 31
0.0
  0
LINE
  5
162
330
22
100
AcDbEntity
  8
0
  6
Continuous
 62
     7
100
AcDbLine
 10
-217.0119171142578
 20
96.20082855224609
 30
0.0
 11
-215.2401580810547
 21
94.42906951904296
 31
0.0
  0
LINE
  5
163
330
22
100
AcDbEntity
  8
0
  6
Continuous
 62
     7
100
AcDbLine
 10
-217.0119171142578
 20
95.14016723632812
 30
0.0
 11
-215.5410766601563
 21
93.66931915283204
 31
0.0
  0
LINE
  5
164
330
22
100
AcDbEntity
  8
0
  6
Continuous
 62
     7
100
AcDbLine
 10
-217.0119171142578
 20
94.78661346435549
 30
0.0
 11
-215.6515502929688
 21
93.42623901367188
 31
0.0
  0
LINE
  5
165
330
22
100
AcDbEntity
  8
0
  6
Continuous
 62
     7
100
AcDbLine
 10
-217.0119171142578
 20
93.7259521484375
 30
0.0
 11
-216.53955078125
 21
93.25358581542969
 31
0.0
  0
LINE
  5
166
330
22
100
AcDbEntity
  8
0
  6
Continuous
 62
     7
100
AcDbLine
 10
-213.7947235107422
 20
110.8918914794922
 30
0.0
 11
-213.7947235107422
 21
109.7426528930664
 31
0.0
  0
LINE
  5
167
330
22
100
AcDbEntity
  8
0
  6
Continuous
 62
     7
100
AcDbLine
 10
-154.9430084228516
 20
109.7571029663086
 30
0.0
 11
-141.7866058349609
 21
109.7571029663086
 31
0.0
  0
LINE
  5
168
330
22
100
AcDbEntity
  8
0
  6
Continuous
 62
     7
100
AcDbLine
 10
-153.7214050292969
 20
109.7571029663086
 30
0.0
 11
-157.7866058349609
 21
89.55784606933594
 31
0.0
  0
LINE
  5
169
330
22
100
AcDbEntity
  8
0
  6
Continuous
 62
     7
100
AcDbLine
 10
-159.447509765625
 20
112.7571029663086
 30
0.0
 11
-143.7866058349609
 21
112.7571029663086
 31
0.0
  0
LINE
  5
16A
330
22
100
AcDbEntity
  8
0
  6
Continuous
 62
     7
100
AcDbLine
 10
-160.13720703125
 20
111.9307479858398
 30
0.0
 11
-163.7831573486328
 21
91.25358581542968
 31
0.0
  0
LINE
  5
16B
330
22
100
AcDbEntity
  8
0
  6
Continuous
 62
     7
100
AcDbLine
 10
-201.9333190917969
 20
112.14111328125
 30
0.0
 11
-203.7933197021484
 21
104.0845489501953
 31
0.0
  0
LINE
  5
16C
330
22
100
AcDbEntity
  8
0
  6
Continuous
 62
     7
100
AcDbLine
 10
-211.7866058349609
 20
71.75710296630859
 30
0.0
 11
-221.7840423583984
 21
71.75653839111328
 31
0.0
  0
LINE
  5
16D
330
22
100
AcDbEntity
  8
0
  6
Continuous
 62
     7
100
AcDbLine
 10
-215.7919158935547
 20
78.75358581542968
 30
0.0
 11
-221.7919158935547
 21
78.75358581542968
 31
0.0
  0
LINE
  5
16E
330
22
100
AcDbEntity
  8
0
  6
Continuous
 62
     7
100
AcDbLine
 10
-221.7826080322266
 20
46.25400161743164
 30
0.0
 11
-221.7859497070314
 21
46.25400161743164
 31
0.0
  0
LINE
  5
16F
330
22
100
AcDbEntity
  8
0
  6
Continuous
 62
     7
100
AcDbLine
 10
-226.7988891601564
 20
49.74988555908203
 30
0.0
 11
-221.7827911376953
 21
49.75016784667968
 31
0.0
  0
LINE
  5
170
330
22
100
AcDbEntity
  8
0
  6
Continuous
 62
     7
100
AcDbLine
 10
-213.7919158935547
 20
103.7535858154297
 30
0.0
 11
-221.7919158935547
 21
103.7535858154297
 31
0.0
  0
LINE
  5
171
330
22
100
AcDbEntity
  8
0
  6
Continuous
 62
     7
100
AcDbLine
 10
-217.0119171142578
 20
93.25358581542969
 30
0.0
 11
-217.7919158935547
 21
93.25358581542969
 31
0.0
  0
LINE
  5
172
330
22
100
AcDbEntity
  8
0
  6
Continuous
 62
     7
100
AcDbLine
 10
-219.5419158935547
 20
111.7535858154297
 30
0.0
 11
-219.5419158935547
 21
109.7535858154297
 31
0.0
  0
LINE
  5
173
330
22
100
AcDbEntity
  8
0
  6
Continuous
 62
     7
100
AcDbLine
 10
-219.5419158935547
 20
109.7535858154297
 30
0.0
 11
-213.7919158935547
 21
109.7535858154297
 31
0.0
  0
LINE
  5
174
330
22
100
AcDbEntity
  8
0
  6
Continuous
 62
     7
100
AcDbLine
 10
-217.0119171142578
 20
97.75358581542969
 30
0.0
 11
-217.7919158935547
 21
97.75358581542969
 31
0.0
  0
LINE
  5
175
330
22
100
AcDbEntity
  8
0
  6
Continuous
 62
     7
100
AcDbLine
 10
-159.447509765625
 20
112.7571029663086
 30
0.0
 11
-221.7863464355469
 21
112.7535858154297
 31
0.0
  0
LINE
  5
176
330
22
100
AcDbEntity
  8
0
  6
Continuous
 62
     7
100
AcDbLine
 10
-219.5036163330078
 20
110.8918914794922
 30
0.0
 11
-213.7947235107422
 21
110.8918914794922
 31
0.0
  0
LINE
  5
177
330
22
100
AcDbEntity
  8
0
  6
Continuous
 62
     7
100
AcDbLine
 10
-217.7919158935547
 20
82.25358581542968
 30
0.0
 11
-217.7919158935547
 21
98.4030532836914
 31
0.0
  0
LINE
  5
178
330
22
100
AcDbEntity
  8
0
  6
Continuous
 62
     7
100
AcDbLine
 10
-221.7919158935547
 20
82.25358581542968
 30
0.0
 11
-215.7919158935547
 21
82.25358581542968
 31
0.0
  0
LINE
  5
179
330
22
100
AcDbEntity
  8
0
  6
Continuous
 62
     7
100
AcDbLine
 10
-301.78662109375
 20
109.7571029663086
 30
0.0
 11
-221.7821044921875
 21
109.7571029663086
 31
0.0
  0
LINE
  5
17A
330
22
100
AcDbEntity
  8
0
  6
Continuous
 62
     7
100
AcDbLine
 10
-300.78662109375
 20
113.7571029663086
 30
0.0
 11
-142.7866058349609
 21
113.7571029663086
 31
0.0
  0
LINE
  5
17B
330
22
100
AcDbEntity
  8
0
  6
Continuous
 62
     7
100
AcDbLine
 10
-282.7853088378906
 20
44.75709915161132
 30
0.0
 11
-221.7859497070314
 21
44.75709915161132
 31
0.0
  0
LINE
  5
17C
330
22
100
AcDbEntity
  8
0
  6
Continuous
 62
     7
100
AcDbLine
 10
-219.5419158935547
 20
111.2075653076172
 30
0.0
 11
-217.9958953857422
 21
112.7535858154297
 31
0.0
  0
LINE
  5
17D
330
22
100
AcDbEntity
  8
0
  6
Continuous
 62
     7
100
AcDbLine
 10
-217.7362823486328
 20
110.8918914794922
 30
0.0
 11
-215.8745880126953
 21
112.7535858154297
 31
0.0
  0
LINE
  5
17E
330
22
100
AcDbEntity
  8
0
  6
Continuous
 62
     7
100
AcDbLine
 10
-215.6149597167969
 20
110.8918914794922
 30
0.0
 11
-213.7532653808594
 21
112.7535858154297
 31
0.0
  0
LINE
  5
17F
330
22
100
AcDbEntity
  8
0
  6
Continuous
 62
     7
100
AcDbLine
 10
-213.7947235107422
 20
110.5907974243164
 30
0.0
 11
-211.6319427490234
 21
112.7535858154297
 31
0.0
  0
LINE
  5
180
330
22
100
AcDbEntity
  8
0
  6
Continuous
 62
     7
100
AcDbLine
 10
-221.7863464355469
 20
102.5991821289063
 30
0.0
 11
-220.6319427490234
 21
103.7535858154297
 31
0.0
  0
LINE
  5
181
330
22
100
AcDbEntity
  8
0
  6
Continuous
 62
     7
100
AcDbLine
 10
-213.7919158935547
 20
108.4722900390625
 30
0.0
 11
-209.5106201171875
 21
112.7535858154297
 31
0.0
  0
LINE
  5
182
330
22
100
AcDbEntity
  8
0
  6
Continuous
 62
     7
100
AcDbLine
 10
-221.7863464355469
 20
100.4778594970703
 30
0.0
 11
-218.5106201171875
 21
103.7535858154297
 31
0.0
  0
LINE
  5
183
330
22
100
AcDbEntity
  8
0
  6
Continuous
 62
     7
100
AcDbLine
 10
-213.7919158935547
 20
106.3509674072266
 30
0.0
 11
-207.3892974853516
 21
112.7535858154297
 31
0.0
  0
LINE
  5
184
330
22
100
AcDbEntity
  8
0
  6
Continuous
 62
     7
100
AcDbLine
 10
-221.7863464355469
 20
98.35653686523437
 30
0.0
 11
-216.3892974853516
 21
103.7535858154297
 31
0.0
  0
LINE
  5
185
330
22
100
AcDbEntity
  8
0
  6
Continuous
 62
     7
100
AcDbLine
 10
-213.7919158935547
 20
104.2296447753906
 30
0.0
 11
-205.2679748535156
 21
112.7535858154297
 31
0.0
  0
LINE
  5
186
330
22
100
AcDbEntity
  8
0
  6
Continuous
 62
     7
100
AcDbLine
 10
-221.7863464355469
 20
96.23521423339845
 30
0.0
 11
-214.2679748535156
 21
103.7535858154297
 31
0.0
  0
LINE
  5
187
330
22
100
AcDbEntity
  8
0
  6
Continuous
 62
     7
100
AcDbLine
 10
-214.4971923828125
 20
101.4030532836914
 30
0.0
 11
-203.1466522216797
 21
112.7535858154297
 31
0.0
  0
LINE
  5
188
330
22
100
AcDbEntity
  8
0
  6
Continuous
 62
     7
100
AcDbLine
 10
-221.7863464355469
 20
94.11389923095704
 30
0.0
 11
-217.7919158935547
 21
98.10832214355469
 31
0.0
  0
LINE
  5
189
330
22
100
AcDbEntity
  8
0
  6
Continuous
 62
     7
100
AcDbLine
 10
-212.3758697509766
 20
101.4030532836914
 30
0.0
 11
-202.0220184326172
 21
111.7569046020508
 31
0.0
  0
LINE
  5
18A
330
22
100
AcDbEntity
  8
0
  6
Continuous
 62
     7
100
AcDbLine
 10
-221.7863464355469
 20
91.99257659912108
 30
0.0
 11
-217.7919158935547
 21
95.98700714111329
 31
0.0
  0
LINE
  5
18B
330
22
100
AcDbEntity
  8
0
  6
Continuous
 62
     7
100
AcDbLine
 10
-210.2545623779297
 20
101.4030532836914
 30
0.0
 11
-202.6587677001953
 21
108.9988327026367
 31
0.0
  0
LINE
  5
18C
330
22
100
AcDbEntity
  8
0
  6
Continuous
 62
     7
100
AcDbLine
 10
-221.7863464355469
 20
89.87125396728515
 30
0.0
 11
-217.7919158935547
 21
93.86568450927734
 31
0.0
  0
LINE
  5
18D
330
22
100
AcDbEntity
  8
0
  6
Continuous
 62
     7
100
AcDbLine
 10
-205.7832336425781
 20
103.7530517578125
 30
0.0
 11
-203.2955322265625
 21
106.2407608032227
 31
0.0
  0
LINE
  5
18E
330
22
100
AcDbEntity
  8
0
  6
Continuous
 62
     7
100
AcDbLine
 10
-208.2892608642578
 20
101.2470321655273
 30
0.0
 11
-205.7915191650391
 21
103.7447662353516
 31
0.0
  0
LINE
  5
18F
330
22
100
AcDbEntity
  8
0
  6
Continuous
 62
     7
100
AcDbLine
 10
-221.7863464355469
 20
87.74993896484375
 30
0.0
 11
-217.7919158935547
 21
91.7443618774414
 31
0.0
  0
LINE
  5
190
330
22
100
AcDbEntity
  8
0
  6
Continuous
 62
     7
100
AcDbLine
 10
-207.6900634765625
 20
99.7248992919922
 30
0.0
 11
-205.7915191650391
 21
101.6234436035156
 31
0.0
  0
LINE
  5
191
330
22
100
AcDbEntity
  8
0
  6
Continuous
 62
     7
100
AcDbLine
 10
-221.7863464355469
 20
85.62861633300782
 30
0.0
 11
-217.7919158935547
 21
89.62304687499999
 31
0.0
  0
LINE
  5
192
330
22
100
AcDbEntity
  8
0
  6
Continuous
 62
     7
100
AcDbLine
 10
-206.5197296142578
 20
98.77391815185548
 30
0.0
 11
-204.0400543212891
 21
101.2535858154297
 31
0.0
  0
LINE
  5
193
330
22
100
AcDbEntity
  8
0
  6
Continuous
 62
     7
100
AcDbLine
 10
-221.7863464355469
 20
83.50729370117187
 30
0.0
 11
-217.7919158935547
 21
87.50172424316406
 31
0.0
  0
LINE
  5
194
330
22
100
AcDbEntity
  8
0
  6
Continuous
 62
     7
100
AcDbLine
 10
-204.4187316894531
 20
98.75358581542968
 30
0.0
 11
-203.8915252685547
 21
99.28080749511721
 31
0.0
  0
LINE
  5
195
330
22
100
AcDbEntity
  8
0
  6
Continuous
 62
     7
100
AcDbLine
 10
-220.9187316894531
 20
82.25358581542968
 30
0.0
 11
-217.7919158935547
 21
85.38040161132812
 31
0.0
  0
LINE
  5
196
330
22
100
AcDbEntity
  8
0
  6
Continuous
 62
     7
100
AcDbLine
 10
-221.7863464355469
 20
81.38597869873047
 30
0.0
 11
-220.9187316894531
 21
82.25358581542968
 31
0.0
  0
LINE
  5
197
330
22
100
AcDbEntity
  8
0
  6
Continuous
 62
     7
100
AcDbLine
 10
-218.7974243164063
 20
82.25358581542968
 30
0.0
 11
-217.7919158935547
 21
83.25908660888671
 31
0.0
  0
LINE
  5
198
330
22
100
AcDbEntity
  8
0
  6
Continuous
 62
     7
100
AcDbLine
 10
-221.7863464355469
 20
79.26465606689453
 30
0.0
 11
-218.7974243164063
 21
82.25358581542968
 31
0.0
  0
LINE
  5
199
330
22
100
AcDbEntity
  8
0
  6
Continuous
 62
     7
100
AcDbLine
 10
-220.1761016845703
 20
78.75358581542968
 30
0.0
 11
-216.6761016845703
 21
82.25358581542968
 31
0.0
  0
LINE
  5
19A
330
22
100
AcDbEntity
  8
0
  6
Continuous
 62
     7
100
AcDbLine
 10
-218.0547790527344
 20
78.75358581542968
 30
0.0
 11
-215.7919158935547
 21
81.01644134521484
 31
0.0
  0
LINE
  5
19B
330
22
100
AcDbEntity
  8
0
  6
Continuous
 62
     7
100
AcDbLine
 10
-215.9334564208984
 20
78.75358581542968
 30
0.0
 11
-215.7919158935547
 21
78.89511871337891
 31
0.0
  0
LINE
  5
19C
330
22
100
AcDbEntity
  8
0
  6
Continuous
 62
     7
100
AcDbLine
 10
-218.7969360351563
 20
110.8918914794922
 30
0.0
 11
-216.9352416992188
 21
112.7535858154297
 31
0.0
  0
LINE
  5
19D
330
22
100
AcDbEntity
  8
0
  6
Continuous
 62
     7
100
AcDbLine
 10
-216.6756134033203
 20
110.8918914794922
 30
0.0
 11
-214.8139190673828
 21
112.7535858154297
 31
0.0
  0
LINE
  5
19E
330
22
100
AcDbEntity
  8
0
  6
Continuous
 62
     7
100
AcDbLine
 10
-214.5542907714844
 20
110.8918914794922
 30
0.0
 11
-212.6925964355469
 21
112.7535858154297
 31
0.0
  0
LINE
  5
19F
330
22
100
AcDbEntity
  8
0
  6
Continuous
 62
     7
100
AcDbLine
 10
-221.7863464355469
 20
103.6598358154297
 30
0.0
 11
-221.6925964355469
 21
103.7535858154297
 31
0.0
  0
LINE
  5
1A0
330
22
100
AcDbEntity
  8
0
  6
Continuous
 62
     7
100
AcDbLine
 10
-213.7919158935547
 20
109.5329437255859
 30
0.0
 11
-210.5712738037109
 21
112.7535858154297
 31
0.0
  0
LINE
  5
1A1
330
22
100
AcDbEntity
  8
0
  6
Continuous
 62
     7
100
AcDbLine
 10
-221.7863464355469
 20
101.5385208129883
 30
0.0
 11
-219.5712738037109
 21
103.7535858154297
 31
0.0
  0
LINE
  5
1A2
330
22
100
AcDbEntity
  8
0
  6
Continuous
 62
     7
100
AcDbLine
 10
-213.7919158935547
 20
107.4116287231445
 30
0.0
 11
-208.4499664306641
 21
112.7535858154297
 31
0.0
  0
LINE
  5
1A3
330
22
100
AcDbEntity
  8
0
  6
Continuous
 62
     7
100
AcDbLine
 10
-221.7863464355469
 20
99.41719818115235
 30
0.0
 11
-217.4499664306641
 21
103.7535858154297
 31
0.0
  0
LINE
  5
1A4
330
22
100
AcDbEntity
  8
0
  6
Continuous
 62
     7
100
AcDbLine
 10
-213.7919158935547
 20
105.2903060913086
 30
0.0
 11
-206.3286437988281
 21
112.7535858154297
 31
0.0
  0
LINE
  5
1A5
330
22
100
AcDbEntity
  8
0
  6
Continuous
 62
     7
100
AcDbLine
 10
-221.7863464355469
 20
97.2958755493164
 30
0.0
 11
-215.3286437988281
 21
103.7535858154297
 31
0.0
  0
LINE
  5
1A6
330
22
100
AcDbEntity
  8
0
  6
Continuous
 62
     7
100
AcDbLine
 10
-215.7192687988281
 20
101.2416381835938
 30
0.0
 11
-204.2073211669922
 21
112.7535858154297
 31
0.0
  0
LINE
  5
1A7
330
22
100
AcDbEntity
  8
0
  6
Continuous
 62
     7
100
AcDbLine
 10
-221.7863464355469
 20
95.174560546875
 30
0.0
 11
-217.6305084228516
 21
99.33039855957032
 31
0.0
  0
LINE
  5
1A8
330
22
100
AcDbEntity
  8
0
  6
Continuous
 62
     7
100
AcDbLine
 10
-213.4365386962891
 20
101.4030532836914
 30
0.0
 11
-202.1635284423828
 21
112.6760635375977
 31
0.0
  0
LINE
  5
1A9
330
22
100
AcDbEntity
  8
0
  6
Continuous
 62
     7
100
AcDbLine
 10
-221.7863464355469
 20
93.05323791503907
 30
0.0
 11
-217.7919158935547
 21
97.04766845703124
 31
0.0
  0
LINE
  5
1AA
330
22
100
AcDbEntity
  8
0
  6
Continuous
 62
     7
100
AcDbLine
 10
-211.3152160644531
 20
101.4030532836914
 30
0.0
 11
-202.3403930664063
 21
110.3778686523438
 31
0.0
  0
LINE
  5
1AB
330
22
100
AcDbEntity
  8
0
  6
Continuous
 62
     7
100
AcDbLine
 10
-221.7863464355469
 20
90.93191528320312
 30
0.0
 11
-217.7919158935547
 21
94.92634582519531
 31
0.0
  0
LINE
  5
1AC
330
22
100
AcDbEntity
  8
0
  6
Continuous
 62
     7
100
AcDbLine
 10
-209.1938934326172
 20
101.4030532836914
 30
0.0
 11
-202.9771575927734
 21
107.6197967529297
 31
0.0
  0
LINE
  5
1AD
330
22
100
AcDbEntity
  8
0
  6
Continuous
 62
     7
100
AcDbLine
 10
-221.7863464355469
 20
88.81060028076172
 30
0.0
 11
-217.7919158935547
 21
92.80502319335937
 31
0.0
  0
LINE
  5
1AE
330
22
100
AcDbEntity
  8
0
  6
Continuous
 62
     7
100
AcDbLine
 10
-204.7225799560547
 20
103.7530517578125
 30
0.0
 11
-203.6139068603516
 21
104.8617248535156
 31
0.0
  0
LINE
  5
1AF
330
22
100
AcDbEntity
  8
0
  6
Continuous
 62
     7
100
AcDbLine
 10
-207.8381500244141
 20
100.6374740600586
 30
0.0
 11
-205.7915191650391
 21
102.6841049194336
 31
0.0
  0
LINE
  5
1B0
330
22
100
AcDbEntity
  8
0
  6
Continuous
 62
     7
100
AcDbLine
 10
-221.7863464355469
 20
80.3253173828125
 30
0.0
 11
-219.8580780029297
 21
82.25358581542968
 31
0.0
  0
LINE
  5
1B1
330
22
100
AcDbEntity
  8
0
  6
Continuous
 62
     7
100
AcDbLine
 10
-221.7863464355469
 20
84.56795501708985
 30
0.0
 11
-217.7919158935547
 21
88.56238555908204
 31
0.0
  0
LINE
  5
1B2
330
22
100
AcDbEntity
  8
0
  6
Continuous
 62
     7
100
AcDbLine
 10
-221.7863464355469
 20
86.68927764892577
 30
0.0
 11
-217.7919158935547
 21
90.68370056152344
 31
0.0
  0
LINE
  5
1B3
330
22
100
AcDbEntity
  8
0
  6
Continuous
 62
     7
100
AcDbLine
 10
-207.2475280761719
 20
99.10677337646484
 30
0.0
 11
-205.1007232666016
 21
101.2535858154297
 31
0.0
  0
LINE
  5
1B4
330
22
100
AcDbEntity
  8
0
  6
Continuous
 62
     7
100
AcDbLine
 10
-205.4794006347656
 20
98.75358581542968
 30
0.0
 11
-203.8915252685547
 21
100.3414688110352
 31
0.0
  0
LINE
  5
1B5
330
22
100
AcDbEntity
  8
0
  6
Continuous
 62
     7
100
AcDbLine
 10
-221.7863464355469
 20
82.4466323852539
 30
0.0
 11
-217.7919158935547
 21
86.44106292724609
 31
0.0
  0
LINE
  5
1B6
330
22
100
AcDbEntity
  8
0
  6
Continuous
 62
     7
100
AcDbLine
 10
-219.8580780029297
 20
82.25358581542968
 30
0.0
 11
-217.7919158935547
 21
84.31974029541015
 31
0.0
  0
LINE
  5
1B7
330
22
100
AcDbEntity
  8
0
  6
Continuous
 62
     7
100
AcDbLine
 10
-219.1154327392578
 20
78.75358581542968
 30
0.0
 11
-215.7919158935547
 21
82.07710266113281
 31
0.0
  0
LINE
  5
1B8
330
22
100
AcDbEntity
  8
0
  6
Continuous
 62
     7
100
AcDbLine
 10
-216.9941101074219
 20
78.75358581542968
 30
0.0
 11
-215.7919158935547
 21
79.95578002929687
 31
0.0
  0
LINE
  5
1B9
330
22
100
AcDbEntity
  8
0
  6
Continuous
 62
     7
100
AcDbLine
 10
-211.7866058349609
 20
68.7571029663086
 30
0.0
 11
-221.7838745117188
 21
68.75653839111328
 31
0.0
  0
CIRCLE
  5
1BA
330
22
100
AcDbEntity
  8
0
  6
Continuous
 62
     7
100
AcDbCircle
 10
-204.7915191650391
 20
102.4535903930664
 30
0.0
 40
1.0
  0
ARC
  5
1BB
330
22
100
AcDbEntity
  8
0
  6
Continuous
 62
     7
100
AcDbCircle
 10
-221.7859497070314
 20
203.2570953369141
 30
0.0
 40
4.449999809265136
100
AcDbArc
 50
33.40574140741593
 51
146.5943667582564
  0
ARC
  5
1BC
330
22
100
AcDbEntity
  8
0
  6
Continuous
 62
     7
100
AcDbCircle
 10
-221.7859497070314
 20
203.2570953369141
 30
0.0
 40
4.449999809265136
100
AcDbArc
 50
213.4054692351411
 51
326.5944225994533
  0
CIRCLE
  5
1BD
330
22
100
AcDbEntity
  8
0
  6
Continuous
 62
     7
100
AcDbCircle
 10
-221.7859497070314
 20
203.2570953369141
 30
0.0
 40
78.0
  0
CIRCLE
  5
1BE
330
22
100
AcDbEntity
  8
0
  6
Continuous
 62
     7
100
AcDbCircle
 10
-221.7859497070314
 20
203.2570953369141
 30
0.0
 40
80.0
  0
ARC
  5
1BF
330
22
100
AcDbEntity
  8
0
  6
Continuous
 62
     7
100
AcDbCircle
 10
-216.0119171142578
 20
93.75358581542968
 30
0.0
 40
0.5
100
AcDbArc
 50
270.0000000000005
 51
0.0
  0
CIRCLE
  5
1C0
330
22
100
AcDbEntity
  8
0
  6
Continuous
 62
     7
100
AcDbCircle
 10
-221.7859497070314
 20
203.2570953369141
 30
0.0
 40
61.5
  0
ARC
  5
1C1
330
22
100
AcDbEntity
  8
0
  6
Continuous
 62
     7
100
AcDbCircle
 10
-214.5119171142578
 20
93.75358581542968
 30
0.0
 40
1.0
100
AcDbArc
 50
90.00000000000019
 51
180.0000000000004
  0
ARC
  5
1C2
330
22
100
AcDbEntity
  8
0
  6
Continuous
 62
     7
100
AcDbCircle
 10
-206.2915191650391
 20
100.2535858154297
 30
0.0
 40
1.5
100
AcDbArc
 50
180.0000000000004
 51
270.0000000000005
  0
CIRCLE
  5
1C3
330
22
100
AcDbEntity
  8
0
  6
Continuous
 62
     7
100
AcDbCircle
 10
-221.7859497070314
 20
203.2570953369141
 30
0.0
 40
20.0
  0
ARC
  5
1C4
330
22
100
AcDbEntity
  8
0
  6
Continuous
 62
     7
100
AcDbCircle
 10
-198.3924407958984
 20
106.8685836791992
 30
0.0
 40
1.5
100
AcDbArc
 50
90.00000000000019
 51
175.1797762136634
  0
ARC
  5
1C5
330
22
100
AcDbEntity
  8
0
  6
Continuous
 62
     7
100
AcDbCircle
 10
-204.3915252685547
 20
99.25358581542969
 30
0.0
 40
0.5
100
AcDbArc
 50
270.0000000000005
 51
0.0
  0
ARC
  5
1C6
330
22
100
AcDbEntity
  8
0
  6
Continuous
 62
     7
100
AcDbCircle
 10
-202.7578430175781
 20
96.75358581542969
 30
0.0
 40
2.0
100
AcDbArc
 50
270.0000000000005
 51
355.1799817618679
  0
ARC
  5
1C7
330
22
100
AcDbEntity
  8
0
  6
Continuous
 62
     7
100
AcDbCircle
 10
-208.7915191650391
 20
100.4030532836914
 30
0.0
 40
1.0
100
AcDbArc
 50
0.0
 51
90.00000000000019
  0
ARC
  5
1C8
330
22
100
AcDbEntity
  8
0
  6
Continuous
 62
     7
100
AcDbCircle
 10
-164.3831481933594
 20
83.25358581542969
 30
0.0
 40
0.5
100
AcDbArc
 50
270.0000000000005
 51
0.0
  0
CIRCLE
  5
1C9
330
22
100
AcDbEntity
  8
0
  6
Continuous
 62
     7
100
AcDbCircle
 10
-164.7831573486328
 20
90.00358581542968
 30
0.0
 40
1.0
  0
ARC
  5
1CA
330
22
100
AcDbEntity
  8
0
  6
Continuous
 62
     7
100
AcDbCircle
 10
-170.4709625244141
 20
106.8685836791992
 30
0.0
 40
1.5
100
AcDbArc
 50
4.653574498909272
 51
90.00000000000019
  0
ARC
  5
1CB
330
22
100
AcDbEntity
  8
0
  6
Continuous
 62
     7
100
AcDbCircle
 10
-142.7866058349609
 20
112.7571029663086
 30
0.0
 40
1.0
100
AcDbArc
 50
0.0
 51
180.0000000000004
  0
ARC
  5
1CC
330
22
100
AcDbEntity
  8
0
  6
Continuous
 62
     7
100
AcDbCircle
 10
-300.78662109375
 20
112.7571029663086
 30
0.0
 40
1.0
100
AcDbArc
 50
90.00000000000019
 51
180.0000000000004
  0
ARC
  5
1CD
330
22
100
AcDbEntity
  8
0
  6
Continuous
 62
     7
100
AcDbCircle
 10
-288.6292419433594
 20
108.7495651245117
 30
0.0
 40
1.0
100
AcDbArc
 50
10.00633386943253
 51
90.00699411367536
  0
ARC
  5
1CE
330
22
100
AcDbEntity
  8
0
  6
Continuous
 62
     7
100
AcDbCircle
 10
-160.5879974365234
 20
112.2535858154297
 30
0.0
 40
0.5
100
AcDbArc
 50
350.0001234095527
 51
90.00000000000019
  0
ARC
  5
1CF
330
22
100
AcDbEntity
  8
0
  6
Continuous
 62
     7
100
AcDbCircle
 10
-159.1524047851563
 20
111.7571029663086
 30
0.0
 40
1.0
100
AcDbArc
 50
90.00000000000019
 51
170.000123409552
  0
ARC
  5
1D0
330
22
100
AcDbEntity
  8
0
  6
Continuous
 62
     7
100
AcDbCircle
 10
-154.9430084228516
 20
108.7571029663086
 30
0.0
 40
1.0
100
AcDbArc
 50
90.00000000000019
 51
170.000123409552
  0
ARC
  5
1D1
330
22
100
AcDbEntity
  8
0
  6
Continuous
 62
     7
100
AcDbCircle
 10
-202.4205017089844
 20
112.2535858154297
 30
0.0
 40
0.5
100
AcDbArc
 50
347.0002719250225
 51
90.00000000000019
  0
ARC
  5
1D2
330
22
100
AcDbEntity
  8
0
  6
Continuous
 62
     7
100
AcDbCircle
 10
-201.3942108154297
 20
112.2535858154297
 30
0.0
 40
0.5
100
AcDbArc
 50
90.00000000000019
 51
166.9994200649773
  0
ARC
  5
1D3
330
22
100
AcDbEntity
  8
0
  6
Continuous
 62
     7
100
AcDbCircle
 10
-214.7919158935547
 20
98.4030532836914
 30
0.0
 40
3.0
100
AcDbArc
 50
90.00000000000019
 51
180.0000000000004
  0
ARC
  5
1D4
330
22
100
AcDbEntity
  8
0
  6
Continuous
 62
     7
100
AcDbCircle
 10
-218.5419158935547
 20
111.7535858154297
 30
0.0
 40
1.0
100
AcDbArc
 50
90.00000000000019
 51
180.0000000000004
  0
TEXT
  5
1D5
330
22
100
AcDbEntity
  8
0
  6
Continuous
 62
     7
100
AcDbText
 10
-134.218316078186
 20
135.6402587890625
 30
0.0
 40
7.0
  1
ＤＬ－ＣＨＧ－１００
 41
0.8443929888818491
100
AcDbText
  0
SOLID
  5
1D6
330
22
100
AcDbEntity
  8
0
  6
Continuous
 62
     7
100
AcDbTrace
 10
-204.7313842773438
 20
101.4553985595703
 30
0.0
 11
-204.9272918701172
 21
101.4628448486328
 31
0.0
 12
-204.6847381591797
 22
101.4628448486328
 32
0.0
 13
-204.6847381591797
 23
101.4628448486328
 33
0.0
  0
SOLID
  5
1D7
330
22
100
AcDbEntity
  8
0
  6
Continuous
 62
     7
100
AcDbTrace
 10
-204.6557464599609
 20
103.4443283081055
 30
0.0
 11
-204.8983001708984
 21
103.4443283081055
 31
0.0
 12
-204.8516387939453
 22
103.451774597168
 32
0.0
 13
-204.8516387939453
 23
103.451774597168
 33
0.0
  0
SOLID
  5
1D8
330
22
100
AcDbEntity
  8
0
  6
Continuous
 62
     7
100
AcDbTrace
 10
-204.5574951171875
 20
103.4208679199219
 30
0.0
 11
-205.0452270507813
 21
103.4208679199219
 31
0.0
 12
-204.6557464599609
 22
103.4443283081055
 32
0.0
 13
-204.8983001708984
 23
103.4443283081055
 33
0.0
  0
SOLID
  5
1D9
330
22
100
AcDbEntity
  8
0
  6
Continuous
 62
     7
100
AcDbTrace
 10
-204.4650726318359
 20
103.3988037109375
 30
0.0
 11
-205.1047973632813
 21
103.3988037109375
 31
0.0
 12
-204.5574951171875
 22
103.4208679199219
 32
0.0
 13
-205.0452270507813
 23
103.4208679199219
 33
0.0
  0
SOLID
  5
1DA
330
22
100
AcDbEntity
  8
0
  6
Continuous
 62
     7
100
AcDbTrace
 10
-204.3649291992188
 20
103.352783203125
 30
0.0
 11
-205.2290649414064
 21
103.352783203125
 31
0.0
 12
-204.4650726318359
 22
103.3988037109375
 32
0.0
 13
-205.1047973632813
 23
103.3988037109375
 33
0.0
  0
SOLID
  5
1DB
330
22
100
AcDbEntity
  8
0
  6
Continuous
 62
     7
100
AcDbTrace
 10
-204.2869415283203
 20
103.3169555664063
 30
0.0
 11
-205.2873687744141
 21
103.3169555664063
 31
0.0
 12
-204.3649291992188
 22
103.352783203125
 32
0.0
 13
-205.2290649414064
 23
103.352783203125
 33
0.0
  0
SOLID
  5
1DC
330
22
100
AcDbEntity
  8
0
  6
Continuous
 62
     7
100
AcDbTrace
 10
-204.1947479248047
 20
103.2501449584961
 30
0.0
 11
-205.3960723876953
 21
103.2501449584961
 31
0.0
 12
-204.2869415283203
 22
103.3169555664063
 32
0.0
 13
-205.2873687744141
 23
103.3169555664063
 33
0.0
  0
SOLID
  5
1DD
330
22
100
AcDbEntity
  8
0
  6
Continuous
 62
     7
100
AcDbTrace
 10
-204.1282043457031
 20
103.2019271850586
 30
0.0
 11
-205.4481048583984
 21
103.2019271850586
 31
0.0
 12
-204.1947479248047
 22
103.2501449584961
 32
0.0
 13
-205.3960723876953
 23
103.2501449584961
 33
0.0
  0
SOLID
  5
1DE
330
22
100
AcDbEntity
  8
0
  6
Continuous
 62
     7
100
AcDbTrace
 10
-204.0494079589844
 20
103.1168975830078
 30
0.0
 11
-205.5398559570313
 21
103.1168975830078
 31
0.0
 12
-204.1282043457031
 22
103.2019271850586
 32
0.0
 13
-205.4481048583984
 23
103.2019271850586
 33
0.0
  0
SOLID
  5
1DF
330
22
100
AcDbEntity
  8
0
  6
Continuous
 62
     7
100
AcDbTrace
 10
-203.9949645996094
 20
103.0581436157227
 30
0.0
 11
-205.5824279785156
 21
103.0581436157227
 31
0.0
 12
-204.0494079589844
 22
103.1168975830078
 32
0.0
 13
-205.5398559570313
 23
103.1168975830078
 33
0.0
  0
SOLID
  5
1E0
330
22
100
AcDbEntity
  8
0
  6
Continuous
 62
     7
100
AcDbTrace
 10
-203.9335174560547
 20
102.9581604003906
 30
0.0
 11
-205.6548919677734
 21
102.9581604003906
 31
0.0
 12
-203.9949645996094
 22
103.0581436157227
 32
0.0
 13
-205.5824279785156
 23
103.0581436157227
 33
0.0
  0
SOLID
  5
1E1
330
22
100
AcDbEntity
  8
0
  6
Continuous
 62
     7
100
AcDbTrace
 10
-203.8923187255859
 20
102.8911285400391
 30
0.0
 11
-205.6856842041016
 21
102.8911285400391
 31
0.0
 12
-203.9335174560547
 22
102.9581604003906
 32
0.0
 13
-205.6548919677734
 23
102.9581604003906
 33
0.0
  0
SOLID
  5
1E2
330
22
100
AcDbEntity
  8
0
  6
Continuous
 62
     7
100
AcDbTrace
 10
-203.8511810302734
 20
102.780029296875
 30
0.0
 11
-205.7367401123047
 21
102.780029296875
 31
0.0
 12
-203.8923187255859
 22
102.8911285400391
 32
0.0
 13
-205.6856842041016
 23
102.8911285400391
 33
0.0
  0
SOLID
  5
1E3
330
22
100
AcDbEntity
  8
0
  6
Continuous
 62
     7
100
AcDbTrace
 10
-203.8242340087891
 20
102.7072982788086
 30
0.0
 11
-205.7541046142578
 21
102.7072982788086
 31
0.0
 12
-203.8511810302734
 22
102.780029296875
 32
0.0
 13
-205.7367401123047
 23
102.780029296875
 33
0.0
  0
SOLID
  5
1E4
330
22
100
AcDbEntity
  8
0
  6
Continuous
 62
     7
100
AcDbTrace
 10
-203.8054046630859
 20
102.58935546875
 30
0.0
 11
-205.7822570800781
 21
102.58935546875
 31
0.0
 12
-203.8242340087891
 22
102.7072982788086
 32
0.0
 13
-205.7541046142578
 23
102.7072982788086
 33
0.0
  0
SOLID
  5
1E5
330
22
100
AcDbEntity
  8
0
  6
Continuous
 62
     7
100
AcDbTrace
 10
-203.7933197021484
 20
102.5137100219727
 30
0.0
 11
-205.7851409912109
 21
102.5137100219727
 31
0.0
 12
-203.8054046630859
 22
102.58935546875
 32
0.0
 13
-205.7822570800781
 23
102.58935546875
 33
0.0
  0
SOLID
  5
1E6
330
22
100
AcDbEntity
  8
0
  6
Continuous
 62
     7
100
AcDbTrace
 10
-203.7933197021484
 20
102.3934631347656
 30
0.0
 11
-205.7897033691406
 21
102.3934631347656
 31
0.0
 12
-203.7933197021484
 22
102.5137100219727
 32
0.0
 13
-205.7851409912109
 23
102.5137100219727
 33
0.0
  0
SOLID
  5
1E7
330
22
100
AcDbEntity
  8
0
  6
Continuous
 62
     7
100
AcDbTrace
 10
-203.80078125
 20
102.3178176879883
 30
0.0
 11
-205.7776336669922
 21
102.3178176879883
 31
0.0
 12
-203.7933197021484
 22
102.3934631347656
 32
0.0
 13
-205.7897033691406
 23
102.3934631347656
 33
0.0
  0
SOLID
  5
1E8
330
22
100
AcDbEntity
  8
0
  6
Continuous
 62
     7
100
AcDbTrace
 10
-203.8289337158203
 20
102.1998825073242
 30
0.0
 11
-205.7588043212891
 21
102.1998825073242
 31
0.0
 12
-203.80078125
 22
102.3178176879883
 32
0.0
 13
-205.7776336669922
 23
102.3178176879883
 33
0.0
  0
SOLID
  5
1E9
330
22
100
AcDbEntity
  8
0
  6
Continuous
 62
     7
100
AcDbTrace
 10
-203.8462982177734
 20
102.1271438598633
 30
0.0
 11
-205.7318572998047
 21
102.1271438598633
 31
0.0
 12
-203.8289337158203
 22
102.1998825073242
 32
0.0
 13
-205.7588043212891
 23
102.1998825073242
 33
0.0
  0
SOLID
  5
1EA
330
22
100
AcDbEntity
  8
0
  6
Continuous
 62
     7
100
AcDbTrace
 10
-203.8973541259766
 20
102.0160446166992
 30
0.0
 11
-205.6907196044922
 21
102.0160446166992
 31
0.0
 12
-203.8462982177734
 22
102.1271438598633
 32
0.0
 13
-205.7318572998047
 23
102.1271438598633
 33
0.0
  0
SOLID
  5
1EB
330
22
100
AcDbEntity
  8
0
  6
Continuous
 62
     7
100
AcDbTrace
 10
-203.9281463623047
 20
101.9490127563477
 30
0.0
 11
-205.6495208740234
 21
101.9490127563477
 31
0.0
 12
-203.8973541259766
 22
102.0160446166992
 32
0.0
 13
-205.6907196044922
 23
102.0160446166992
 33
0.0
  0
SOLID
  5
1EC
330
22
100
AcDbEntity
  8
0
  6
Continuous
 62
     7
100
AcDbTrace
 10
-204.0005950927734
 20
101.8490295410156
 30
0.0
 11
-205.5880737304689
 21
101.8490295410156
 31
0.0
 12
-203.9281463623047
 22
101.9490127563477
 32
0.0
 13
-205.6495208740234
 23
101.9490127563477
 33
0.0
  0
SOLID
  5
1ED
330
22
100
AcDbEntity
  8
0
  6
Continuous
 62
     7
100
AcDbTrace
 10
-204.0431823730469
 20
101.7902755737305
 30
0.0
 11
-205.5336303710938
 21
101.7902755737305
 31
0.0
 12
-204.0005950927734
 22
101.8490295410156
 32
0.0
 13
-205.5880737304689
 23
101.8490295410156
 33
0.0
  0
SOLID
  5
1EE
330
22
100
AcDbEntity
  8
0
  6
Continuous
 62
     7
100
AcDbTrace
 10
-204.1349334716797
 20
101.7052459716797
 30
0.0
 11
-205.454833984375
 21
101.7052459716797
 31
0.0
 12
-204.0431823730469
 22
101.7902755737305
 32
0.0
 13
-205.5336303710938
 23
101.7902755737305
 33
0.0
  0
SOLID
  5
1EF
330
22
100
AcDbEntity
  8
0
  6
Continuous
 62
     7
100
AcDbTrace
 10
-204.1869659423828
 20
101.6570281982422
 30
0.0
 11
-205.3882904052734
 21
101.6570281982422
 31
0.0
 12
-204.1349334716797
 22
101.7052459716797
 32
0.0
 13
-205.454833984375
 23
101.7052459716797
 33
0.0
  0
SOLID
  5
1F0
330
22
100
AcDbEntity
  8
0
  6
Continuous
 62
     7
100
AcDbTrace
 10
-204.2956695556641
 20
101.590217590332
 30
0.0
 11
-205.2960968017578
 21
101.590217590332
 31
0.0
 12
-204.1869659423828
 22
101.6570281982422
 32
0.0
 13
-205.3882904052734
 23
101.6570281982422
 33
0.0
  0
SOLID
  5
1F1
330
22
100
AcDbEntity
  8
0
  6
Continuous
 62
     7
100
AcDbTrace
 10
-204.3539733886719
 20
101.5543899536133
 30
0.0
 11
-205.2181091308594
 21
101.5543899536133
 31
0.0
 12
-204.2956695556641
 22
101.590217590332
 32
0.0
 13
-205.2960968017578
 23
101.590217590332
 33
0.0
  0
SOLID
  5
1F2
330
22
100
AcDbEntity
  8
0
  6
Continuous
 62
     7
100
AcDbTrace
 10
-204.4782409667969
 20
101.5083694458008
 30
0.0
 11
-205.1179656982422
 21
101.5083694458008
 31
0.0
 12
-204.3539733886719
 22
101.5543899536133
 32
0.0
 13
-205.2181091308594
 23
101.5543899536133
 33
0.0
  0
SOLID
  5
1F3
330
22
100
AcDbEntity
  8
0
  6
Continuous
 62
     7
100
AcDbTrace
 10
-204.5378112792969
 20
101.4863052368164
 30
0.0
 11
-205.0255432128906
 21
101.4863052368164
 31
0.0
 12
-204.4782409667969
 22
101.5083694458008
 32
0.0
 13
-205.1179656982422
 23
101.5083694458008
 33
0.0
  0
SOLID
  5
1F4
330
22
100
AcDbEntity
  8
0
  6
Continuous
 62
     7
100
AcDbTrace
 10
-204.6847381591797
 20
101.4628448486328
 30
0.0
 11
-204.9272918701172
 21
101.4628448486328
 31
0.0
 12
-204.5378112792969
 22
101.4863052368164
 32
0.0
 13
-205.0255432128906
 23
101.4863052368164
 33
0.0
  0
SOLID
  5
1F5
330
22
100
AcDbEntity
  8
0
  6
Continuous
 62
     7
100
AcDbTrace
 10
-164.6996002197266
 20
89.00708770751952
 30
0.0
 11
-164.8956146240234
 21
89.00993347167968
 31
0.0
 12
-164.6841125488281
 22
89.00993347167968
 32
0.0
 13
-164.6841125488281
 23
89.00993347167968
 33
0.0
  0
SOLID
  5
1F6
330
22
100
AcDbEntity
  8
0
  6
Continuous
 62
     7
100
AcDbTrace
 10
-164.6707000732422
 20
90.99724578857422
 30
0.0
 11
-164.8821868896484
 21
90.99724578857422
 31
0.0
 12
-164.8667144775391
 22
91.00009155273438
 32
0.0
 13
-164.8667144775391
 23
91.00009155273438
 33
0.0
  0
SOLID
  5
1F7
330
22
100
AcDbEntity
  8
0
  6
Continuous
 62
     7
100
AcDbTrace
 10
-164.5183868408203
 20
90.9646453857422
 30
0.0
 11
-165.0595092773438
 21
90.9646453857422
 31
0.0
 12
-164.6707000732422
 22
90.99724578857422
 32
0.0
 13
-164.8821868896484
 23
90.99724578857422
 33
0.0
  0
SOLID
  5
1F8
330
22
100
AcDbEntity
  8
0
  6
Continuous
 62
     7
100
AcDbTrace
 10
-164.47900390625
 20
90.95621490478515
 30
0.0
 11
-165.0807342529297
 21
90.95621490478515
 31
0.0
 12
-164.5183868408203
 22
90.9646453857422
 32
0.0
 13
-165.0595092773438
 23
90.9646453857422
 33
0.0
  0
SOLID
  5
1F9
330
22
100
AcDbEntity
  8
0
  6
Continuous
 62
     7
100
AcDbTrace
 10
-164.3307342529297
 20
90.89225769042968
 30
0.0
 11
-165.24169921875
 21
90.89225769042968
 31
0.0
 12
-164.47900390625
 22
90.95621490478515
 32
0.0
 13
-165.0807342529297
 23
90.95621490478515
 33
0.0
  0
SOLID
  5
1FA
330
22
100
AcDbEntity
  8
0
  6
Continuous
 62
     7
100
AcDbTrace
 10
-164.2989959716797
 20
90.87857055664064
 30
0.0
 11
-165.2628326416016
 21
90.87857055664064
 31
0.0
 12
-164.3307342529297
 22
90.89225769042968
 32
0.0
 13
-165.24169921875
 23
90.89225769042968
 33
0.0
  0
SOLID
  5
1FB
330
22
100
AcDbEntity
  8
0
  6
Continuous
 62
     7
100
AcDbTrace
 10
-164.1643218994141
 20
90.78572845458984
 30
0.0
 11
-165.40625
 21
90.78572845458984
 31
0.0
 12
-164.2989959716797
 22
90.87857055664064
 32
0.0
 13
-165.2628326416016
 23
90.87857055664064
 33
0.0
  0
SOLID
  5
1FC
330
22
100
AcDbEntity
  8
0
  6
Continuous
 62
     7
100
AcDbTrace
 10
-164.1376037597656
 20
90.76730346679687
 30
0.0
 11
-165.4252166748047
 21
90.76730346679687
 31
0.0
 12
-164.1643218994141
 22
90.78572845458984
 32
0.0
 13
-165.40625
 23
90.78572845458984
 33
0.0
  0
SOLID
  5
1FD
330
22
100
AcDbEntity
  8
0
  6
Continuous
 62
     7
100
AcDbTrace
 10
-164.0228118896484
 20
90.64913940429688
 30
0.0
 11
-165.546875
 21
90.64913940429688
 31
0.0
 12
-164.1376037597656
 22
90.76730346679687
 32
0.0
 13
-165.4252166748047
 23
90.76730346679687
 33
0.0
  0
SOLID
  5
1FE
330
22
100
AcDbEntity
  8
0
  6
Continuous
 62
     7
100
AcDbTrace
 10
-164.0010070800781
 20
90.62668609619141
 30
0.0
 11
-165.5623474121094
 21
90.62668609619141
 31
0.0
 12
-164.0228118896484
 22
90.64913940429688
 32
0.0
 13
-165.546875
 23
90.64913940429688
 33
0.0
  0
SOLID
  5
1FF
330
22
100
AcDbEntity
  8
0
  6
Continuous
 62
     7
100
AcDbTrace
 10
-163.9110565185547
 20
90.48773956298829
 30
0.0
 11
-165.6581268310547
 21
90.48773956298829
 31
0.0
 12
-164.0010070800781
 22
90.62668609619141
 32
0.0
 13
-165.5623474121094
 23
90.62668609619141
 33
0.0
  0
SOLID
  5
200
330
22
100
AcDbEntity
  8
0
  6
Continuous
 62
     7
100
AcDbTrace
 10
-163.8944702148438
 20
90.46212768554687
 30
0.0
 11
-165.6691741943359
 21
90.46212768554687
 31
0.0
 12
-163.9110565185547
 22
90.48773956298829
 32
0.0
 13
-165.6581268310547
 23
90.48773956298829
 33
0.0
  0
SOLID
  5
201
330
22
100
AcDbEntity
  8
0
  6
Continuous
 62
     7
100
AcDbTrace
 10
-163.8331298828125
 20
90.3077392578125
 30
0.0
 11
-165.7357788085938
 21
90.3077392578125
 31
0.0
 12
-163.8944702148438
 22
90.46212768554687
 32
0.0
 13
-165.6691741943359
 23
90.46212768554687
 33
0.0
  0
SOLID
  5
202
330
22
100
AcDbEntity
  8
0
  6
Continuous
 62
     7
100
AcDbTrace
 10
-163.8220977783203
 20
90.27994537353515
 30
0.0
 11
-165.7417297363281
 21
90.27994537353515
 31
0.0
 12
-163.8331298828125
 22
90.3077392578125
 32
0.0
 13
-165.7357788085938
 23
90.3077392578125
 33
0.0
  0
SOLID
  5
203
330
22
100
AcDbEntity
  8
0
  6
Continuous
 62
     7
100
AcDbTrace
 10
-163.8286590576172
 20
90.11604309082031
 30
0.0
 11
-165.7768096923828
 21
90.11604309082031
 31
0.0
 12
-163.8220977783203
 22
90.27994537353515
 32
0.0
 13
-165.7417297363281
 23
90.27994537353515
 33
0.0
  0
SOLID
  5
204
330
22
100
AcDbEntity
  8
0
  6
Continuous
 62
     7
100
AcDbTrace
 10
-163.8364868164063
 20
89.92002868652344
 30
0.0
 11
-165.7796478271484
 21
89.92002868652344
 31
0.0
 12
-163.8286590576172
 22
90.11604309082031
 32
0.0
 13
-165.7768096923828
 23
90.11604309082031
 33
0.0
  0
SOLID
  5
205
330
22
100
AcDbEntity
  8
0
  6
Continuous
 62
     7
100
AcDbTrace
 10
-163.8442077636719
 20
89.72722625732421
 30
0.0
 11
-165.7442016601563
 21
89.72722625732421
 31
0.0
 12
-163.8364868164063
 22
89.92002868652344
 32
0.0
 13
-165.7796478271484
 23
89.92002868652344
 33
0.0
  0
SOLID
  5
206
330
22
100
AcDbEntity
  8
0
  6
Continuous
 62
     7
100
AcDbTrace
 10
-163.8472442626953
 20
89.65135192871093
 30
0.0
 11
-165.7140655517578
 21
89.65135192871093
 31
0.0
 12
-163.8442077636719
 22
89.72722625732421
 32
0.0
 13
-165.7442016601563
 23
89.72722625732421
 33
0.0
  0
SOLID
  5
207
330
22
100
AcDbEntity
  8
0
  6
Continuous
 62
     7
100
AcDbTrace
 10
-163.8963317871094
 20
89.5450439453125
 30
0.0
 11
-165.6718292236328
 21
89.5450439453125
 31
0.0
 12
-163.8472442626953
 22
89.65135192871093
 32
0.0
 13
-165.7140655517578
 23
89.65135192871093
 33
0.0
  0
SOLID
  5
208
330
22
100
AcDbEntity
  8
0
  6
Continuous
 62
     7
100
AcDbTrace
 10
-163.9081726074219
 20
89.5194320678711
 30
0.0
 11
-165.6552429199219
 21
89.5194320678711
 31
0.0
 12
-163.8963317871094
 22
89.5450439453125
 32
0.0
 13
-165.6718292236328
 23
89.5450439453125
 33
0.0
  0
SOLID
  5
209
330
22
100
AcDbEntity
  8
0
  6
Continuous
 62
     7
100
AcDbTrace
 10
-164.0039520263672
 20
89.38048553466797
 30
0.0
 11
-165.5652923583984
 21
89.38048553466797
 31
0.0
 12
-163.9081726074219
 22
89.5194320678711
 32
0.0
 13
-165.6552429199219
 23
89.5194320678711
 33
0.0
  0
SOLID
  5
20A
330
22
100
AcDbEntity
  8
0
  6
Continuous
 62
     7
100
AcDbTrace
 10
-164.0194396972656
 20
89.35803985595702
 30
0.0
 11
-165.5434875488281
 21
89.35803985595702
 31
0.0
 12
-164.0039520263672
 22
89.38048553466797
 32
0.0
 13
-165.5652923583984
 23
89.38048553466797
 33
0.0
  0
SOLID
  5
20B
330
22
100
AcDbEntity
  8
0
  6
Continuous
 62
     7
100
AcDbTrace
 10
-164.1410827636719
 20
89.2398681640625
 30
0.0
 11
-165.4286956787109
 21
89.2398681640625
 31
0.0
 12
-164.0194396972656
 22
89.35803985595702
 32
0.0
 13
-165.5434875488281
 23
89.35803985595702
 33
0.0
  0
SOLID
  5
20C
330
22
100
AcDbEntity
  8
0
  6
Continuous
 62
     7
100
AcDbTrace
 10
-164.1600494384766
 20
89.22145080566407
 30
0.0
 11
-165.4019775390625
 21
89.22145080566407
 31
0.0
 12
-164.1410827636719
 22
89.2398681640625
 32
0.0
 13
-165.4286956787109
 23
89.2398681640625
 33
0.0
  0
SOLID
  5
20D
330
22
100
AcDbEntity
  8
0
  6
Continuous
 62
     7
100
AcDbTrace
 10
-164.303466796875
 20
89.12860107421876
 30
0.0
 11
-165.2673034667969
 21
89.12860107421876
 31
0.0
 12
-164.1600494384766
 22
89.22145080566407
 32
0.0
 13
-165.4019775390625
 23
89.22145080566407
 33
0.0
  0
SOLID
  5
20E
330
22
100
AcDbEntity
  8
0
  6
Continuous
 62
     7
100
AcDbTrace
 10
-164.3246154785156
 20
89.11491394042968
 30
0.0
 11
-165.2355651855469
 21
89.11491394042968
 31
0.0
 12
-164.303466796875
 22
89.12860107421876
 32
0.0
 13
-165.2673034667969
 23
89.12860107421876
 33
0.0
  0
SOLID
  5
20F
330
22
100
AcDbEntity
  8
0
  6
Continuous
 62
     7
100
AcDbTrace
 10
-164.4855804443359
 20
89.05096435546875
 30
0.0
 11
-165.0872955322266
 21
89.05096435546875
 31
0.0
 12
-164.3246154785156
 22
89.11491394042968
 32
0.0
 13
-165.2355651855469
 23
89.11491394042968
 33
0.0
  0
SOLID
  5
210
330
22
100
AcDbEntity
  8
0
  6
Continuous
 62
     7
100
AcDbTrace
 10
-164.5067901611328
 20
89.04253387451172
 30
0.0
 11
-165.0479125976563
 21
89.04253387451172
 31
0.0
 12
-164.4855804443359
 22
89.05096435546875
 32
0.0
 13
-165.0872955322266
 23
89.05096435546875
 33
0.0
  0
SOLID
  5
211
330
22
100
AcDbEntity
  8
0
  6
Continuous
 62
     7
100
AcDbTrace
 10
-164.6841125488281
 20
89.00993347167968
 30
0.0
 11
-164.8956146240234
 21
89.00993347167968
 31
0.0
 12
-164.5067901611328
 22
89.04253387451172
 32
0.0
 13
-165.0479125976563
 23
89.04253387451172
 33
0.0
  0
DIMENSION
  5
212
330
22
100
AcDbEntity
  8
0
  6
Continuous
 62
     7
100
AcDbDimension
  2
*D1
 10
-282.7526438730139
 20
195.1754988070483
 30
0.0
 11
-118.532112121582
 21
216.9441833496094
 31
0.0
 70
     3
 71
     5
 42
-1.0
  3
DIMSTYLE1
100
AcDbDiametricDimension
 15
-160.8192555410486
 25
211.3386918667798
 35
0.0
 40
0.0
  0
DIMENSION
  5
213
330
22
100
AcDbEntity
  8
0
  6
Continuous
 62
     7
100
AcDbDimension
  2
*D2
 10
-240.8639988744139
 20
209.9341384077103
 30
0.0
 11
-127.6299362182617
 21
169.8297271728516
 31
0.0
 70
     3
 71
     5
 42
-1.0
  3
DIMSTYLE2
100
AcDbDiametricDimension
 15
-203.1589808619142
 25
196.5800522661178
 35
0.0
 40
0.0
  0
DIMENSION
  5
214
330
22
100
AcDbEntity
  8
0
  6
Continuous
 62
     7
100
AcDbDimension
  2
*D3
 10
-295.5005382134444
 20
172.1739899365495
 30
0.0
 11
-128.7542877197266
 21
242.4856109619141
 31
0.0
 70
     3
 71
     5
 42
-1.0
  3
DIMSTYLE3
100
AcDbDiametricDimension
 15
-148.0713612006181
 25
234.3402007372787
 35
0.0
 40
0.0
  0
DIMENSION
  5
215
330
22
100
AcDbEntity
  8
0
  6
Continuous
 62
     7
100
AcDbDimension
  2
*D4
 10
-125.369255065918
 20
113.7571029663086
 30
0.0
 11
-125.369255065918
 21
79.25710296630859
 31
0.0
 71
     5
 42
-1.0
  3
DIMSTYLE4
100
AcDbAlignedDimension
 13
-160.7866058349609
 23
44.75709915161132
 33
0.0
 14
-142.7866058349609
 24
113.7571029663086
 34
0.0
 50
90.0
100
AcDbRotatedDimension
  0
INSERT
  5
216
330
22
100
AcDbEntity
  8
0
  6
Continuous
 62
     7
100
AcDbBlockReference
  2
KOZU0001
 10
-166.7825164794922
 20
58.92376708984375
 30
0.0
  0
ENDSEC
  0
SECTION
  2
OBJECTS
  0
DICTIONARY
  5
C
330
0
100
AcDbDictionary
281
     1
  3
ACAD_COLOR
350
1B
  3
ACAD_GROUP
350
D
  3
ACAD_LAYOUT
350
19
  3
ACAD_MATERIAL
350
1A
  3
ACAD_MLINESTYLE
350
16
  3
ACAD_PLOTSETTINGS
350
18
  3
ACAD_PLOTSTYLENAME
350
E
  3
ACAD_TABLESTYLE
350
1C
  3
AcDbVariableDictionary
350
222
  0
DICTIONARY
  5
1B
102
{ACAD_REACTORS
330
C
102
}
330
C
100
AcDbDictionary
281
     1
  0
DICTIONARY
  5
D
102
{ACAD_REACTORS
330
C
102
}
330
C
100
AcDbDictionary
281
     1
  0
DICTIONARY
  5
19
102
{ACAD_REACTORS
330
C
102
}
330
C
100
AcDbDictionary
281
     1
  3
Model
350
25
  3
レイアウト1
350
21
  0
DICTIONARY
  5
1A
102
{ACAD_REACTORS
330
C
102
}
330
C
100
AcDbDictionary
281
     1
  0
DICTIONARY
  5
16
102
{ACAD_REACTORS
330
C
102
}
330
C
100
AcDbDictionary
281
     1
  3
Standard
350
17
  0
DICTIONARY
  5
18
102
{ACAD_REACTORS
330
C
102
}
330
C
100
AcDbDictionary
281
     1
  0
ACDBDICTIONARYWDFLT
  5
E
102
{ACAD_REACTORS
330
C
102
}
330
C
100
AcDbDictionary
281
     1
  3
Normal
350
F
100
AcDbDictionaryWithDefault
340
F
  0
DICTIONARY
  5
1C
102
{ACAD_REACTORS
330
C
102
}
330
C
100
AcDbDictionary
281
     1
  3
Standard
350
1D
  0
DICTIONARY
  5
222
102
{ACAD_REACTORS
330
C
102
}
330
C
100
AcDbDictionary
281
     1
  3
CTABLESTYLE
350
223
  0
LAYOUT
  5
25
102
{ACAD_REACTORS
330
19
102
}
330
19
100
AcDbPlotSettings
  1

  2
PDF reDirect v2
  4
A3
  6

 40
3.174999952316284
 41
3.174999952316284
 42
3.17498779296875
 43
3.17498779296875
 44
297.0530090332031
 45
420.1583251953125
 46
0.0
 47
0.0
 48
0.0
 49
0.0
140
0.0
141
0.0
142
1.0
143
1.0
 70
 11952
 72
     1
 73
     1
 74
     2
  7
C:\Users\ck\AppData\Roaming\Autodesk\AutoCAD 2005\R16.1\jpn\Plot Styles\black.ctb
 75
    16
147
1.0
 76
     0
 77
     2
 78
   300
148
423.0
149
2.0
100
AcDbLayout
  1
Model
 70
     1
 71
     0
 10
0.0
 20
0.0
 11
12.0
 21
9.0
 12
0.0
 22
0.0
 32
0.0
 14
0.0
 24
0.0
 34
0.0
 15
0.0
 25
0.0
 35
0.0
146
0.0
 13
0.0
 23
0.0
 33
0.0
 16
1.0
 26
0.0
 36
0.0
 17
0.0
 27
1.0
 37
0.0
 76
     0
330
22
1001
ACAD_PSEXT
1000
PDF reDirect v2
1000
PDF reDirect Pro
1000
PDF_REDIRECT_PORT:
1000
PDF reDirect provided by EXP Systems
1070
     0
  0
LAYOUT
  5
21
102
{ACAD_REACTORS
330
19
102
}
330
19
100
AcDbPlotSettings
  1

  2
PDF reDirect v2
  4

  6

 40
0.0
 41
0.0
 42
0.0
 43
0.0
 44
0.0
 45
0.0
 46
0.0
 47
0.0
 48
0.0
 49
0.0
140
0.0
141
0.0
142
1.0
143
1.0
 70
   688
 72
     0
 73
     0
 74
     5
  7
C:\Users\ck\AppData\Roaming\Autodesk\AutoCAD 2005\R16.1\jpn\Plot Styles\black.ctb
 75
    16
147
1.0
 76
     0
 77
     2
 78
   300
148
0.0
149
0.0
100
AcDbLayout
  1
レイアウト1
 70
     1
 71
     1
 10
-423.0
 20
-2.0
 11
-5.0
 21
293.0
 12
0.0
 22
0.0
 32
0.0
 14
1.000000000000000E+20
 24
1.000000000000000E+20
 34
1.000000000000000E+20
 15
-1.000000000000000E+20
 25
-1.000000000000000E+20
 35
-1.000000000000000E+20
146
0.0
 13
0.0
 23
0.0
 33
0.0
 16
1.0
 26
0.0
 36
0.0
 17
0.0
 27
1.0
 37
0.0
 76
     0
330
1E
  0
MLINESTYLE
  5
17
102
{ACAD_REACTORS
330
16
102
}
330
16
100
AcDbMlineStyle
  2
STANDARD
 70
     0
  3

 62
   256
 51
90.0
 52
90.0
 71
     2
 49
0.5
 62
   256
  6
BYLAYER
 49
-0.5
 62
   256
  6
BYLAYER
  0
ACDBPLACEHOLDER
  5
F
102
{ACAD_REACTORS
330
E
102
}
330
E
  0
TABLESTYLE
  5
1D
102
{ACAD_REACTORS
330
1C
102
}
330
1C
100
AcDbTableStyle
  3
Standard
 70
     0
 71
     0
 40
0.06
 41
0.06
280
     0
281
     0
  7
STANDARD
140
0.18
170
     2
 62
     0
 63
     7
283
     0
274
    -2
284
     1
 64
     0
275
    -2
285
     1
 65
     0
276
    -2
286
     1
 66
     0
277
    -2
287
     1
 67
     0
278
    -2
288
     1
 68
     0
279
    -2
289
     1
 69
     0
  7
STANDARD
140
0.25
170
     5
 62
     0
 63
     7
283
     0
274
    -2
284
     1
 64
     0
275
    -2
285
     1
 65
     0
276
    -2
286
     1
 66
     0
277
    -2
287
     1
 67
     0
278
    -2
288
     1
 68
     0
279
    -2
289
     1
 69
     0
  7
STANDARD
140
0.18
170
     5
 62
     0
 63
     7
283
     0
274
    -2
284
     1
 64
     0
275
    -2
285
     1
 65
     0
276
    -2
286
     1
 66
     0
277
    -2
287
     1
 67
     0
278
    -2
288
     1
 68
     0
279
    -2
289
     1
 69
     0
  0
DICTIONARYVAR
  5
223
102
{ACAD_REACTORS
330
222
102
}
330
222
100
DictionaryVariables
280
     0
  1
STANDARD
  0
ENDSEC
  0
EOF
