  0
SECTION
  2
HEADER
  9
$ACADVER
  1
AC1018
  9
$ACADMAINTVER
 70
    39
  9
$DWGCODEPAGE
  3
ANSI_932
  9
$INSBASE
 10
0.0
 20
0.0
 30
0.0
  9
$EXTMIN
 10
-538.9438148359115
 20
33.12291096048762
 30
-0.0015258207003583
  9
$EXTMAX
 10
-291.478758151502
 20
533.0777448388722
 30
0.0000000349246037
  9
$LIMMIN
 10
-839.0
 20
0.0
  9
$LIMMAX
 10
0.0
 20
591.0
  9
$ORTHOMODE
 70
     0
  9
$REGENMODE
 70
     1
  9
$FILLMODE
 70
     1
  9
$QTEXTMODE
 70
     0
  9
$MIRRTEXT
 70
     0
  9
$LTSCALE
 40
1.0
  9
$ATTMODE
 70
     1
  9
$TEXTSIZE
 40
0.2
  9
$TRACEWID
 40
0.05
  9
$TEXTSTYLE
  7
STANDARD
  9
$CLAYER
  8
0
  9
$CELTYPE
  6
CONTINUOUS
  9
$CECOLOR
 62
   256
  9
$CELTSCALE
 40
1.0
  9
$DISPSILH
 70
     0
  9
$DIMSCALE
 40
1.0
  9
$DIMASZ
 40
1.0
  9
$DIMEXO
 40
2.54
  9
$DIMDLI
 40
0.38
  9
$DIMRND
 40
0.0
  9
$DIMDLE
 40
0.0
  9
$DIMEXE
 40
2.54
  9
$DIMTP
 40
0.0
  9
$DIMTM
 40
0.0
  9
$DIMTXT
 40
3.0
  9
$DIMCEN
 40
0.09
  9
$DIMTSZ
 40
0.0
  9
$DIMTOL
 70
     0
  9
$DIMLIM
 70
     0
  9
$DIMTIH
 70
     0
  9
$DIMTOH
 70
     0
  9
$DIMSE1
 70
     0
  9
$DIMSE2
 70
     0
  9
$DIMTAD
 70
     1
  9
$DIMZIN
 70
     0
  9
$DIMBLK
  1

  9
$DIMASO
 70
     1
  9
$DIMSHO
 70
     0
  9
$DIMPOST
  1

  9
$DIMAPOST
  1

  9
$DIMALT
 70
     0
  9
$DIMALTD
 70
     2
  9
$DIMALTF
 40
25.4
  9
$DIMLFAC
 40
1.0
  9
$DIMTOFL
 70
     0
  9
$DIMTVP
 40
1.0
  9
$DIMTIX
 70
     0
  9
$DIMSOXD
 70
     0
  9
$DIMSAH
 70
     1
  9
$DIMBLK1
  1

  9
$DIMBLK2
  1

  9
$DIMSTYLE
  2
DIMSTYLE1
  9
$DIMCLRD
 70
     0
  9
$DIMCLRE
 70
     0
  9
$DIMCLRT
 70
     0
  9
$DIMTFAC
 40
1.0
  9
$DIMGAP
 40
1.5
  9
$DIMJUST
 70
     0
  9
$DIMSD1
 70
     0
  9
$DIMSD2
 70
     0
  9
$DIMTOLJ
 70
     1
  9
$DIMTZIN
 70
     0
  9
$DIMALTZ
 70
     0
  9
$DIMALTTZ
 70
     0
  9
$DIMUPT
 70
     0
  9
$DIMDEC
 70
     4
  9
$DIMTDEC
 70
     4
  9
$DIMALTU
 70
     2
  9
$DIMALTTD
 70
     2
  9
$DIMTXSTY
  7
STANDARD
  9
$DIMAUNIT
 70
     0
  9
$DIMADEC
 70
     0
  9
$DIMALTRND
 40
0.0
  9
$DIMAZIN
 70
     0
  9
$DIMDSEP
 70
    46
  9
$DIMATFIT
 70
     3
  9
$DIMFRAC
 70
     0
  9
$DIMLDRBLK
  1

  9
$DIMLUNIT
 70
     2
  9
$DIMLWD
 70
    -2
  9
$DIMLWE
 70
    -2
  9
$DIMTMOVE
 70
     0
  9
$LUNITS
 70
     2
  9
$LUPREC
 70
     4
  9
$SKETCHINC
 40
0.1
  9
$FILLETRAD
 40
0.0
  9
$AUNITS
 70
     0
  9
$AUPREC
 70
     0
  9
$MENU
  1
.
  9
$ELEVATION
 40
0.0
  9
$PELEVATION
 40
0.0
  9
$THICKNESS
 40
0.0
  9
$LIMCHECK
 70
     0
  9
$CHAMFERA
 40
0.0
  9
$CHAMFERB
 40
0.0
  9
$CHAMFERC
 40
0.0
  9
$CHAMFERD
 40
0.0
  9
$SKPOLY
 70
     0
  9
$TDCREATE
 40
2457840.764999907
  9
$TDUCREATE
 40
2457840.389999908
  9
$TDUPDATE
 40
2457840.765683357
  9
$TDUUPDATE
 40
2457840.390683357
  9
$TDINDWG
 40
0.0006842593
  9
$TDUSRTIMER
 40
0.0006842593
  9
$USRTIMER
 70
     1
  9
$ANGBASE
 50
0.0
  9
$ANGDIR
 70
     0
  9
$PDMODE
 70
     0
  9
$PDSIZE
 40
0.0
  9
$PLINEWID
 40
0.0
  9
$SPLFRAME
 70
     0
  9
$SPLINETYPE
 70
     6
  9
$SPLINESEGS
 70
     8
  9
$HANDSEED
  5
335
  9
$SURFTAB1
 70
     6
  9
$SURFTAB2
 70
     6
  9
$SURFTYPE
 70
     6
  9
$SURFU
 70
     6
  9
$SURFV
 70
     6
  9
$UCSBASE
  2

  9
$UCSNAME
  2

  9
$UCSORG
 10
0.0
 20
0.0
 30
0.0
  9
$UCSXDIR
 10
1.0
 20
0.0
 30
0.0
  9
$UCSYDIR
 10
0.0
 20
1.0
 30
0.0
  9
$UCSORTHOREF
  2

  9
$UCSORTHOVIEW
 70
     0
  9
$UCSORGTOP
 10
0.0
 20
0.0
 30
0.0
  9
$UCSORGBOTTOM
 10
0.0
 20
0.0
 30
0.0
  9
$UCSORGLEFT
 10
0.0
 20
0.0
 30
0.0
  9
$UCSORGRIGHT
 10
0.0
 20
0.0
 30
0.0
  9
$UCSORGFRONT
 10
0.0
 20
0.0
 30
0.0
  9
$UCSORGBACK
 10
0.0
 20
0.0
 30
0.0
  9
$PUCSBASE
  2

  9
$PUCSNAME
  2

  9
$PUCSORG
 10
0.0
 20
0.0
 30
0.0
  9
$PUCSXDIR
 10
1.0
 20
0.0
 30
0.0
  9
$PUCSYDIR
 10
0.0
 20
1.0
 30
0.0
  9
$PUCSORTHOREF
  2

  9
$PUCSORTHOVIEW
 70
     0
  9
$PUCSORGTOP
 10
0.0
 20
0.0
 30
0.0
  9
$PUCSORGBOTTOM
 10
0.0
 20
0.0
 30
0.0
  9
$PUCSORGLEFT
 10
0.0
 20
0.0
 30
0.0
  9
$PUCSORGRIGHT
 10
0.0
 20
0.0
 30
0.0
  9
$PUCSORGFRONT
 10
0.0
 20
0.0
 30
0.0
  9
$PUCSORGBACK
 10
0.0
 20
0.0
 30
0.0
  9
$USERI1
 70
     0
  9
$USERI2
 70
     0
  9
$USERI3
 70
     0
  9
$USERI4
 70
     0
  9
$USERI5
 70
     0
  9
$USERR1
 40
0.0
  9
$USERR2
 40
0.0
  9
$USERR3
 40
0.0
  9
$USERR4
 40
0.0
  9
$USERR5
 40
0.0
  9
$WORLDVIEW
 70
     1
  9
$SHADEDGE
 70
     3
  9
$SHADEDIF
 70
    70
  9
$TILEMODE
 70
     1
  9
$MAXACTVP
 70
    64
  9
$PINSBASE
 10
0.0
 20
0.0
 30
0.0
  9
$PLIMCHECK
 70
     0
  9
$PEXTMIN
 10
1.000000000000000E+20
 20
1.000000000000000E+20
 30
1.000000000000000E+20
  9
$PEXTMAX
 10
-1.000000000000000E+20
 20
-1.000000000000000E+20
 30
-1.000000000000000E+20
  9
$PLIMMIN
 10
-839.0
 20
0.0
  9
$PLIMMAX
 10
0.0
 20
591.0
  9
$UNITMODE
 70
     0
  9
$VISRETAIN
 70
     1
  9
$PLINEGEN
 70
     0
  9
$PSLTSCALE
 70
     1
  9
$TREEDEPTH
 70
  3020
  9
$CMLSTYLE
  2
Standard
  9
$CMLJUST
 70
     0
  9
$CMLSCALE
 40
1.0
  9
$PROXYGRAPHICS
 70
     1
  9
$MEASUREMENT
 70
     0
  9
$CELWEIGHT
370
    -1
  9
$ENDCAPS
280
     0
  9
$JOINSTYLE
280
     0
  9
$LWDISPLAY
290
     0
  9
$INSUNITS
 70
     0
  9
$HYPERLINKBASE
  1

  9
$STYLESHEET
  1

  9
$XEDIT
290
     1
  9
$CEPSNTYPE
380
     0
  9
$PSTYLEMODE
290
     1
  9
$FINGERPRINTGUID
  2
{2F8A8037-8570-4795-8275-06B813F13289}
  9
$VERSIONGUID
  2
{096ED084-9C3B-4FF7-B37C-9E0D2894E65F}
  9
$EXTNAMES
290
     1
  9
$PSVPSCALE
 40
0.0
  9
$OLESTARTUP
290
     0
  9
$SORTENTS
280
   127
  9
$INDEXCTL
280
     0
  9
$HIDETEXT
280
     0
  9
$XCLIPFRAME
290
     0
  9
$HALOGAP
280
     0
  9
$OBSCOLOR
 70
   257
  9
$OBSLTYPE
280
     0
  9
$INTERSECTIONDISPLAY
280
     0
  9
$INTERSECTIONCOLOR
 70
   257
  9
$DIMASSOC
280
     1
  9
$PROJECTNAME
  1

  0
ENDSEC
  0
SECTION
  2
CLASSES
  0
CLASS
  1
ACDBDICTIONARYWDFLT
  2
AcDbDictionaryWithDefault
  3
ObjectDBX Classes
 90
        0
 91
        1
280
     0
281
     0
  0
CLASS
  1
TABLESTYLE
  2
AcDbTableStyle
  3
ObjectDBX Classes
 90
     2047
 91
        1
280
     0
281
     0
  0
CLASS
  1
DICTIONARYVAR
  2
AcDbDictionaryVar
  3
ObjectDBX Classes
 90
        0
 91
        1
280
     0
281
     0
  0
ENDSEC
  0
SECTION
  2
TABLES
  0
TABLE
  2
VPORT
  5
8
330
0
100
AcDbSymbolTable
 70
     2
  0
VPORT
  5
334
330
8
100
AcDbSymbolTableRecord
100
AcDbViewportTableRecord
  2
*Active
 70
     0
 10
0.0
 20
0.0
 11
1.0
 21
1.0
 12
-419.5
 22
295.5
 13
0.0
 23
0.0
 14
1.0
 24
1.0
 15
0.0
 25
0.0
 16
0.0
 26
0.0
 36
1.0
 17
0.0
 27
0.0
 37
0.0
 40
595.6719367588932
 41
1.707124010554089
 42
50.0
 43
0.0
 44
0.0
 50
0.0
 51
0.0
 71
     0
 72
   100
 73
     1
 74
     1
 75
     0
 76
     0
 77
     0
 78
     0
281
     0
 65
     1
110
0.0
120
0.0
130
0.0
111
1.0
121
0.0
131
0.0
112
0.0
122
1.0
132
0.0
 79
     0
146
0.0
  0
ENDTAB
  0
TABLE
  2
LTYPE
  5
5
330
0
100
AcDbSymbolTable
 70
     6
  0
LTYPE
  5
13
330
5
100
AcDbSymbolTableRecord
100
AcDbLinetypeTableRecord
  2
ByBlock
 70
     0
  3

 72
    65
 73
     0
 40
0.0
  0
LTYPE
  5
14
330
5
100
AcDbSymbolTableRecord
100
AcDbLinetypeTableRecord
  2
ByLayer
 70
     0
  3

 72
    65
 73
     0
 40
0.0
  0
LTYPE
  5
15
330
5
100
AcDbSymbolTableRecord
100
AcDbLinetypeTableRecord
  2
CONTINUOUS
 70
     0
  3
Solid line
 72
    65
 73
     0
 40
0.0
  0
LTYPE
  5
26
330
5
100
AcDbSymbolTableRecord
100
AcDbLinetypeTableRecord
  2
DASHED
 70
     0
  3
__ __ __ __ __ __ __ __ __ __ __ __ __ __ __
 72
    65
 73
     2
 40
3.5
 49
2.0
 74
     0
 49
-1.5
 74
     0
  0
LTYPE
  5
27
330
5
100
AcDbSymbolTableRecord
100
AcDbLinetypeTableRecord
  2
CENTER
 70
     0
  3
____ _ ____ _ ____ _ ____ _ ____ _ ____ _ ____
 72
    65
 73
     4
 40
17.5
 49
13.0
 74
     0
 49
-1.5
 74
     0
 49
1.5
 74
     0
 49
-1.5
 74
     0
  0
LTYPE
  5
28
330
5
100
AcDbSymbolTableRecord
100
AcDbLinetypeTableRecord
  2
PHANTOM
 70
     0
  3
_____ _ _ _____ _ _ _____ _ _ _____ _ _ ____  
 72
    65
 73
     6
 40
15.5
 49
8.0
 74
     0
 49
-1.5
 74
     0
 49
1.5
 74
     0
 49
-1.5
 74
     0
 49
1.5
 74
     0
 49
-1.5
 74
     0
  0
LTYPE
  5
29
330
5
100
AcDbSymbolTableRecord
100
AcDbLinetypeTableRecord
  2
DOT
 70
     0
  3
. . . . . . . . . . . . . . . . . . . . . . . .
 72
    65
 73
     2
 40
0.25
 49
0.0
 74
     0
 49
-0.25
 74
     0
  0
LTYPE
  5
2A
330
5
100
AcDbSymbolTableRecord
100
AcDbLinetypeTableRecord
  2
HIDDEN
 70
     0
  3
__ __ __ __ __ __ __ __ __ __ __ __ __ __ __
 72
    65
 73
     2
 40
3.5
 49
2.0
 74
     0
 49
-1.5
 74
     0
  0
ENDTAB
  0
TABLE
  2
LAYER
  5
2
330
0
100
AcDbSymbolTable
 70
     2
  0
LAYER
  5
10
330
2
100
AcDbSymbolTableRecord
100
AcDbLayerTableRecord
  2
0
 70
     0
 62
     7
  6
CONTINUOUS
370
    -3
390
F
  0
LAYER
  5
2B
330
2
100
AcDbSymbolTableRecord
100
AcDbLayerTableRecord
  2
DEFPOINTS
 70
     0
 62
     7
  6
CONTINUOUS
290
     0
370
    -3
390
F
  0
ENDTAB
  0
TABLE
  2
STYLE
  5
3
330
0
100
AcDbSymbolTable
 70
     2
  0
STYLE
  5
11
330
3
100
AcDbSymbolTableRecord
100
AcDbTextStyleTableRecord
  2
STANDARD
 70
     0
 40
0.0
 41
1.0
 50
0.0
 71
     0
 42
0.2
  3

  4

1001
ACAD
1000
MS Gothic
1071
    32817
  0
ENDTAB
  0
TABLE
  2
VIEW
  5
6
330
0
100
AcDbSymbolTable
 70
     0
  0
ENDTAB
  0
TABLE
  2
UCS
  5
7
330
0
100
AcDbSymbolTable
 70
     0
  0
ENDTAB
  0
TABLE
  2
APPID
  5
9
330
0
100
AcDbSymbolTable
 70
     2
  0
APPID
  5
12
330
9
100
AcDbSymbolTableRecord
100
AcDbRegAppTableRecord
  2
ACAD
 70
     0
  0
APPID
  5
329
330
9
100
AcDbSymbolTableRecord
100
AcDbRegAppTableRecord
  2
ACAD_PSEXT
 70
     0
  0
ENDTAB
  0
TABLE
  2
DIMSTYLE
  5
A
330
0
100
AcDbSymbolTable
 70
    15
100
AcDbDimStyleTable
 71
     1
340
2C
  0
DIMSTYLE
105
2C
102
{ACAD_REACTORS
330
318
102
}
330
A
100
AcDbSymbolTableRecord
100
AcDbDimStyleTableRecord
  2
DIMSTYLE1
 70
     0
 41
1.0
 42
2.54
 44
2.54
 73
     0
 74
     0
 75
     1
 76
     1
 77
     1
140
3.0
145
1.0
147
1.5
172
     1
173
     1
279
     2
340
11
  0
DIMSTYLE
105
2D
102
{ACAD_REACTORS
330
319
102
}
330
A
100
AcDbSymbolTableRecord
100
AcDbDimStyleTableRecord
  2
DIMSTYLE2
 70
     0
 41
1.0
 42
2.54
 44
2.54
 73
     0
 74
     0
 77
     1
140
3.0
145
1.0
147
1.5
172
     1
173
     1
279
     2
340
11
  0
DIMSTYLE
105
2E
102
{ACAD_REACTORS
330
31A
102
}
330
A
100
AcDbSymbolTableRecord
100
AcDbDimStyleTableRecord
  2
DIMSTYLE3
 70
     0
 41
1.0
 42
2.54
 44
2.54
 73
     0
 74
     0
 75
     1
 76
     1
 77
     1
140
3.0
145
1.0
147
1.5
172
     1
173
     1
279
     2
340
11
  0
DIMSTYLE
105
2F
102
{ACAD_REACTORS
330
31B
102
}
330
A
100
AcDbSymbolTableRecord
100
AcDbDimStyleTableRecord
  2
DIMSTYLE4
 70
     0
 41
1.0
 42
2.54
 44
2.54
 73
     0
 74
     0
 75
     1
 76
     1
 77
     1
140
3.0
145
1.0
147
1.5
172
     1
173
     1
279
     2
340
11
  0
DIMSTYLE
105
30
102
{ACAD_REACTORS
330
31C
102
}
330
A
100
AcDbSymbolTableRecord
100
AcDbDimStyleTableRecord
  2
DIMSTYLE5
 70
     0
 41
1.0
 42
2.54
 44
2.54
 73
     0
 74
     0
 75
     1
 76
     1
 77
     1
140
3.0
145
1.0
147
1.5
172
     1
173
     1
279
     2
340
11
  0
DIMSTYLE
105
31
102
{ACAD_REACTORS
330
31D
102
}
330
A
100
AcDbSymbolTableRecord
100
AcDbDimStyleTableRecord
  2
DIMSTYLE6
 70
     0
 41
1.0
 42
2.54
 44
2.54
 73
     0
 74
     0
 77
     1
140
3.0
145
1.0
147
1.5
172
     1
173
     1
279
     2
340
11
  0
DIMSTYLE
105
32
102
{ACAD_REACTORS
330
31E
102
}
330
A
100
AcDbSymbolTableRecord
100
AcDbDimStyleTableRecord
  2
DIMSTYLE7
 70
     0
 41
1.0
 42
2.54
 44
2.54
 73
     0
 74
     0
 77
     1
140
3.0
145
1.0
147
1.5
172
     1
173
     1
279
     2
340
11
  0
DIMSTYLE
105
33
102
{ACAD_REACTORS
330
31F
102
}
330
A
100
AcDbSymbolTableRecord
100
AcDbDimStyleTableRecord
  2
DIMSTYLE8
 70
     0
 41
1.0
 42
2.54
 44
2.54
 73
     0
 74
     0
 77
     1
140
3.0
145
1.0
147
1.5
172
     1
173
     1
279
     2
340
11
  0
DIMSTYLE
105
34
102
{ACAD_REACTORS
330
320
102
}
330
A
100
AcDbSymbolTableRecord
100
AcDbDimStyleTableRecord
  2
DIMSTYLE9
 70
     0
 41
1.0
 42
2.54
 44
2.54
 73
     0
 74
     0
 77
     1
140
3.0
145
1.0
147
1.5
172
     1
173
     1
279
     2
340
11
  0
DIMSTYLE
105
35
102
{ACAD_REACTORS
330
321
102
}
330
A
100
AcDbSymbolTableRecord
100
AcDbDimStyleTableRecord
  2
DIMSTYLE10
 70
     0
 41
1.0
 42
2.54
 44
2.54
 73
     0
 74
     0
 77
     1
140
3.0
145
1.0
147
1.5
172
     1
173
     1
279
     2
340
11
  0
DIMSTYLE
105
36
102
{ACAD_REACTORS
330
322
102
}
330
A
100
AcDbSymbolTableRecord
100
AcDbDimStyleTableRecord
  2
DIMSTYLE11
 70
     0
 41
1.0
 42
2.54
 44
2.54
 73
     0
 74
     0
 77
     1
140
3.0
145
1.0
147
1.5
172
     1
173
     1
279
     2
340
11
  0
DIMSTYLE
105
37
102
{ACAD_REACTORS
330
323
102
}
330
A
100
AcDbSymbolTableRecord
100
AcDbDimStyleTableRecord
  2
DIMSTYLE12
 70
     0
 41
1.0
 42
2.54
 44
2.54
 73
     0
 74
     0
 77
     1
140
3.0
145
1.0
147
1.5
172
     1
173
     1
279
     2
340
11
  0
DIMSTYLE
105
38
102
{ACAD_REACTORS
330
324
102
}
330
A
100
AcDbSymbolTableRecord
100
AcDbDimStyleTableRecord
  2
DIMSTYLE13
 70
     0
 41
1.0
 42
2.54
 44
2.54
 73
     0
 74
     0
 77
     1
140
3.0
145
1.0
147
1.5
172
     1
173
     1
279
     2
340
11
  0
DIMSTYLE
105
39
102
{ACAD_REACTORS
330
325
102
}
330
A
100
AcDbSymbolTableRecord
100
AcDbDimStyleTableRecord
  2
DIMSTYLE14
 70
     0
 41
1.0
 42
2.54
 44
2.54
 73
     0
 74
     0
 77
     1
140
3.0
145
1.0
147
1.5
172
     1
173
     1
279
     2
340
11
  0
ENDTAB
  0
TABLE
  2
BLOCK_RECORD
  5
1
330
0
100
AcDbSymbolTable
 70
    18
  0
BLOCK_RECORD
  5
22
330
1
100
AcDbSymbolTableRecord
100
AcDbBlockTableRecord
  2
*Model_Space
340
25
  0
BLOCK_RECORD
  5
1E
330
1
100
AcDbSymbolTableRecord
100
AcDbBlockTableRecord
  2
*Paper_Space
340
21
  0
BLOCK_RECORD
  5
3D
330
1
100
AcDbSymbolTableRecord
100
AcDbBlockTableRecord
  2
_OPEN30
340
0
102
{BLKREFS
331
47
331
48
331
51
331
53
331
5F
331
60
331
69
331
6A
331
73
331
74
331
7C
331
7D
331
88
331
89
331
93
331
94
331
9F
331
A0
331
AA
331
AB
331
B4
331
B5
331
BF
331
C0
331
CB
331
CC
331
D6
331
D7
102
}
  0
BLOCK_RECORD
  5
43
330
1
100
AcDbSymbolTableRecord
100
AcDbBlockTableRecord
  2
*D1
340
0
  0
BLOCK_RECORD
  5
4D
330
1
100
AcDbSymbolTableRecord
100
AcDbBlockTableRecord
  2
*D2
340
0
  0
BLOCK_RECORD
  5
5B
330
1
100
AcDbSymbolTableRecord
100
AcDbBlockTableRecord
  2
*D3
340
0
  0
BLOCK_RECORD
  5
65
330
1
100
AcDbSymbolTableRecord
100
AcDbBlockTableRecord
  2
*D4
340
0
  0
BLOCK_RECORD
  5
6F
330
1
100
AcDbSymbolTableRecord
100
AcDbBlockTableRecord
  2
*D5
340
0
  0
BLOCK_RECORD
  5
79
330
1
100
AcDbSymbolTableRecord
100
AcDbBlockTableRecord
  2
*D6
340
0
  0
BLOCK_RECORD
  5
85
330
1
100
AcDbSymbolTableRecord
100
AcDbBlockTableRecord
  2
*D7
340
0
  0
BLOCK_RECORD
  5
90
330
1
100
AcDbSymbolTableRecord
100
AcDbBlockTableRecord
  2
*D8
340
0
  0
BLOCK_RECORD
  5
9C
330
1
100
AcDbSymbolTableRecord
100
AcDbBlockTableRecord
  2
*D9
340
0
  0
BLOCK_RECORD
  5
A7
330
1
100
AcDbSymbolTableRecord
100
AcDbBlockTableRecord
  2
*D10
340
0
  0
BLOCK_RECORD
  5
B1
330
1
100
AcDbSymbolTableRecord
100
AcDbBlockTableRecord
  2
*D11
340
0
  0
BLOCK_RECORD
  5
BC
330
1
100
AcDbSymbolTableRecord
100
AcDbBlockTableRecord
  2
*D12
340
0
  0
BLOCK_RECORD
  5
C8
330
1
100
AcDbSymbolTableRecord
100
AcDbBlockTableRecord
  2
*D13
340
0
  0
BLOCK_RECORD
  5
D3
330
1
100
AcDbSymbolTableRecord
100
AcDbBlockTableRecord
  2
*D14
340
0
  0
BLOCK_RECORD
  5
DE
330
1
100
AcDbSymbolTableRecord
100
AcDbBlockTableRecord
  2
KOZU0001
340
0
102
{BLKREFS
331
317
102
}
  0
BLOCK_RECORD
  5
E7
330
1
100
AcDbSymbolTableRecord
100
AcDbBlockTableRecord
  2
KOZU0002
340
0
102
{BLKREFS
331
326
102
}
  0
ENDTAB
  0
ENDSEC
  0
SECTION
  2
BLOCKS
  0
BLOCK
  5
23
330
22
100
AcDbEntity
  8
0
100
AcDbBlockBegin
  2
*Model_Space
 70
     0
 10
0.0
 20
0.0
 30
0.0
  3
*Model_Space
  1

  0
ENDBLK
  5
24
330
22
100
AcDbEntity
  8
0
100
AcDbBlockEnd
  0
BLOCK
  5
1F
330
1E
100
AcDbEntity
 67
     1
  8
0
100
AcDbBlockBegin
  2
*Paper_Space
 70
     0
 10
0.0
 20
0.0
 30
0.0
  3
*Paper_Space
  1

  0
ENDBLK
  5
20
330
1E
100
AcDbEntity
 67
     1
  8
0
100
AcDbBlockEnd
  0
BLOCK
  5
3E
330
3D
100
AcDbEntity
  8
0
100
AcDbBlockBegin
  2
_OPEN30
 70
     0
 10
0.0
 20
0.0
 30
0.0
  3
_OPEN30
  1

  0
LINE
  5
3F
330
3D
100
AcDbEntity
  8
0
  6
ByBlock
 62
     0
100
AcDbLine
 10
0.0
 20
0.0
 30
0.0
 11
-2.999999999999993
 21
-1.000000000000017
 31
0.0
  0
LINE
  5
40
330
3D
100
AcDbEntity
  8
0
  6
ByBlock
 62
     0
100
AcDbLine
 10
0.0
 20
0.0
 30
0.0
 11
-3.000000000000006
 21
0.9999999999999815
 31
0.0
  0
LINE
  5
41
330
3D
100
AcDbEntity
  8
0
  6
ByBlock
 62
     0
100
AcDbLine
 10
0.0
 20
0.0
 30
0.0
 11
-3.0
 21
0.0
 31
0.0
  0
ENDBLK
  5
42
330
3D
100
AcDbEntity
  8
0
100
AcDbBlockEnd
  0
BLOCK
  5
44
330
43
100
AcDbEntity
  8
0
100
AcDbBlockBegin
  2
*D1
 70
     1
 10
0.0
 20
0.0
 30
0.0
  3
*D1
  1

  0
LINE
  5
45
330
43
100
AcDbEntity
  8
0
  6
Continuous
 62
     7
100
AcDbLine
 10
-369.2194519042969
 20
455.7235107421875
 30
0.0
 11
-307.24658203125
 21
481.8554992675781
 31
0.0
  0
LINE
  5
46
330
43
100
AcDbEntity
  8
0
  6
Continuous
 62
     7
100
AcDbLine
 10
-481.6342014595131
 20
408.3217748840023
 30
0.0
 11
-371.9837489799401
 21
454.5578943054508
 31
0.0
  0
INSERT
  5
47
330
43
100
AcDbEntity
  8
0
  6
Continuous
 62
     7
100
AcDbBlockReference
  2
_OPEN30
 10
-484.3984985351562
 20
407.1561584472656
 30
0.0
 50
202.8636105422158
  0
INSERT
  5
48
330
43
100
AcDbEntity
  8
0
  6
Continuous
 62
     7
100
AcDbBlockReference
  2
_OPEN30
 10
-369.2194519042969
 20
455.7235107421875
 30
0.0
 50
22.86361054221514
  0
TEXT
  5
49
330
43
100
AcDbEntity
  8
0
  6
Continuous
 62
     7
100
AcDbText
 10
-334.3853593110103
 20
471.2158412988386
 30
0.0
 40
3.0
  1
%%C１２５（本体外径）
 50
22.90000040957758
 41
0.8443929326254473
100
AcDbText
  0
POINT
  5
4A
330
43
100
AcDbEntity
  8
DEFPOINTS
  6
Continuous
 62
     7
100
AcDbPoint
 10
-484.3984985351562
 20
407.1561584472656
 30
0.0
  0
POINT
  5
4B
330
43
100
AcDbEntity
  8
DEFPOINTS
  6
Continuous
 62
     7
100
AcDbPoint
 10
-369.2194519042969
 20
455.7235107421875
 30
0.0
  0
ENDBLK
  5
4C
330
43
100
AcDbEntity
  8
0
100
AcDbBlockEnd
  0
BLOCK
  5
4E
330
4D
100
AcDbEntity
  8
0
100
AcDbBlockBegin
  2
*D2
 70
     1
 10
0.0
 20
0.0
 30
0.0
  3
*D2
  1

  0
LINE
  5
4F
330
4D
100
AcDbEntity
  8
0
  6
Continuous
 62
     7
100
AcDbLine
 10
-307.6138916015625
 20
102.3186111450195
 30
0.0
 11
-307.6138916015625
 21
89.04286193847656
 31
0.0
  0
LINE
  5
50
330
4D
100
AcDbEntity
  8
0
  6
Continuous
 62
     7
100
AcDbLine
 10
-307.6138916015625
 20
105.8186111450195
 30
0.0
 11
-307.6138916015625
 21
102.3186111450195
 31
0.0
  0
INSERT
  5
51
330
4D
100
AcDbEntity
  8
0
  6
Continuous
 62
     7
100
AcDbBlockReference
  2
_OPEN30
 10
-307.6138916015625
 20
105.8186111450195
 30
0.0
 50
270.0000000000002
  0
LINE
  5
52
330
4D
100
AcDbEntity
  8
0
  6
Continuous
 62
     7
100
AcDbLine
 10
-307.6138916015625
 20
108.8186111450195
 30
0.0
 11
-307.6138916015625
 21
112.1686111450195
 31
0.0
  0
INSERT
  5
53
330
4D
100
AcDbEntity
  8
0
  6
Continuous
 62
     7
100
AcDbBlockReference
  2
_OPEN30
 10
-307.6138916015625
 20
102.3186111450195
 30
0.0
 50
90.00000000000049
  0
LINE
  5
54
330
4D
100
AcDbEntity
  8
0
  6
Continuous
 62
     7
100
AcDbLine
 10
-307.6138916015625
 20
99.31861114501952
 30
0.0
 11
-307.6138916015624
 21
95.96861114501955
 31
0.0
  0
LINE
  5
55
330
4D
100
AcDbEntity
  8
0
  6
Continuous
 62
     7
100
AcDbLine
 10
-327.2689904785156
 20
102.3186111450195
 30
0.0
 11
-305.327880859375
 21
102.3186111450195
 31
0.0
  0
TEXT
  5
56
330
4D
100
AcDbEntity
  8
0
  6
Continuous
 62
     7
100
AcDbText
 10
-308.3638914236572
 20
89.04286142885586
 30
0.0
 40
3.0
  1
3.5
 50
90.00000250447815
 41
1.356666684150696
100
AcDbText
  0
POINT
  5
57
330
4D
100
AcDbEntity
  8
DEFPOINTS
  6
Continuous
 62
     7
100
AcDbPoint
 10
-305.327880859375
 20
105.8186111450195
 30
0.0
  0
POINT
  5
58
330
4D
100
AcDbEntity
  8
DEFPOINTS
  6
Continuous
 62
     7
100
AcDbPoint
 10
-329.8089904785156
 20
102.3186111450195
 30
0.0
  0
POINT
  5
59
330
4D
100
AcDbEntity
  8
DEFPOINTS
  6
Continuous
 62
     7
100
AcDbPoint
 10
-307.6138916015625
 20
102.3186111450195
 30
0.0
  0
ENDBLK
  5
5A
330
4D
100
AcDbEntity
  8
0
100
AcDbBlockEnd
  0
BLOCK
  5
5C
330
5B
100
AcDbEntity
  8
0
100
AcDbBlockBegin
  2
*D3
 70
     1
 10
0.0
 20
0.0
 30
0.0
  3
*D3
  1

  0
LINE
  5
5D
330
5B
100
AcDbEntity
  8
0
  6
Continuous
 62
     7
100
AcDbLine
 10
-379.2252197265625
 20
437.7474060058593
 30
0.0
 11
-293.595458984375
 21
449.0982971191406
 31
0.0
  0
LINE
  5
5E
330
5B
100
AcDbEntity
  8
0
  6
Continuous
 62
     7
100
AcDbLine
 10
-471.4187456308431
 20
425.5264568811001
 30
0.0
 11
-382.19920480861
 21
437.3531817907748
 31
0.0
  0
INSERT
  5
5F
330
5B
100
AcDbEntity
  8
0
  6
Continuous
 62
     7
100
AcDbBlockReference
  2
_OPEN30
 10
-474.3927307128906
 20
425.1322326660156
 30
0.0
 50
187.5509669669255
  0
INSERT
  5
60
330
5B
100
AcDbEntity
  8
0
  6
Continuous
 62
     7
100
AcDbBlockReference
  2
_OPEN30
 10
-379.2252197265625
 20
437.7474060058593
 30
0.0
 50
7.550966966924749
  0
TEXT
  5
61
330
5B
100
AcDbEntity
  8
0
  6
Continuous
 62
     7
100
AcDbText
 10
-322.5803268298419
 20
446.0000907171848
 30
0.0
 40
3.0
  1
%%C９６（排水栓外径）
 50
7.600000154571024
 41
0.8443929326254473
100
AcDbText
  0
POINT
  5
62
330
5B
100
AcDbEntity
  8
DEFPOINTS
  6
Continuous
 62
     7
100
AcDbPoint
 10
-474.3927307128906
 20
425.1322326660156
 30
0.0
  0
POINT
  5
63
330
5B
100
AcDbEntity
  8
DEFPOINTS
  6
Continuous
 62
     7
100
AcDbPoint
 10
-379.2252197265625
 20
437.7474060058593
 30
0.0
  0
ENDBLK
  5
64
330
5B
100
AcDbEntity
  8
0
100
AcDbBlockEnd
  0
BLOCK
  5
66
330
65
100
AcDbEntity
  8
0
100
AcDbBlockBegin
  2
*D4
 70
     1
 10
0.0
 20
0.0
 30
0.0
  3
*D4
  1

  0
LINE
  5
67
330
65
100
AcDbEntity
  8
0
  6
Continuous
 62
     7
100
AcDbLine
 10
-408.2439270019531
 20
425.469268798828
 30
0.0
 11
-303.1187133789063
 21
387.1500854492188
 31
0.0
  0
LINE
  5
68
330
65
100
AcDbEntity
  8
0
  6
Continuous
 62
     7
100
AcDbLine
 10
-443.0065148219358
 20
438.1405660054333
 30
0.0
 11
-411.0625159397829
 21
426.4966715433947
 31
0.0
  0
INSERT
  5
69
330
65
100
AcDbEntity
  8
0
  6
Continuous
 62
     7
100
AcDbBlockReference
  2
_OPEN30
 10
-445.8251037597656
 20
439.1679687499999
 30
0.0
 50
159.972716032344
  0
INSERT
  5
6A
330
65
100
AcDbEntity
  8
0
  6
Continuous
 62
     7
100
AcDbBlockReference
  2
_OPEN30
 10
-408.2439270019531
 20
425.469268798828
 30
0.0
 50
339.9727160323448
  0
TEXT
  5
6B
330
65
100
AcDbEntity
  8
0
  6
Continuous
 62
     7
100
AcDbText
 10
-327.4236444609402
 20
396.8011324657408
 30
0.0
 40
3.0
  1
%%C４０（子栓外径）
 50
340.0000005818142
 41
0.8448610247221777
100
AcDbText
  0
POINT
  5
6C
330
65
100
AcDbEntity
  8
DEFPOINTS
  6
Continuous
 62
     7
100
AcDbPoint
 10
-445.8251037597656
 20
439.1679687499999
 30
0.0
  0
POINT
  5
6D
330
65
100
AcDbEntity
  8
DEFPOINTS
  6
Continuous
 62
     7
100
AcDbPoint
 10
-408.2439270019531
 20
425.469268798828
 30
0.0
  0
ENDBLK
  5
6E
330
65
100
AcDbEntity
  8
0
100
AcDbBlockEnd
  0
BLOCK
  5
70
330
6F
100
AcDbEntity
  8
0
100
AcDbBlockBegin
  2
*D5
 70
     1
 10
0.0
 20
0.0
 30
0.0
  3
*D5
  1

  0
LINE
  5
71
330
6F
100
AcDbEntity
  8
0
  6
Continuous
 62
     7
100
AcDbLine
 10
-349.497314453125
 20
491.7253112792969
 30
0.0
 11
-317.968505859375
 21
515.9522094726563
 31
0.0
  0
LINE
  5
72
330
6F
100
AcDbEntity
  8
0
  6
Continuous
 62
     7
100
AcDbLine
 10
-501.7418156322524
 20
374.7397944698901
 30
0.0
 11
-351.8761348072006
 21
489.8974125613598
 31
0.0
  0
INSERT
  5
73
330
6F
100
AcDbEntity
  8
0
  6
Continuous
 62
     7
100
AcDbBlockReference
  2
_OPEN30
 10
-504.1206359863281
 20
372.9118957519531
 30
0.0
 50
217.5388747212233
  0
INSERT
  5
74
330
6F
100
AcDbEntity
  8
0
  6
Continuous
 62
     7
100
AcDbBlockReference
  2
_OPEN30
 10
-349.497314453125
 20
491.7253112792969
 30
0.0
 50
37.53887472122257
  0
TEXT
  5
75
330
6F
100
AcDbEntity
  8
0
  6
Continuous
 62
     7
100
AcDbText
 10
-343.9168194415171
 20
496.9729852008746
 30
0.0
 40
3.0
  1
%%C１９５（防水皿外径）
 50
37.49999933598528
 41
0.8440126077968535
100
AcDbText
  0
POINT
  5
76
330
6F
100
AcDbEntity
  8
DEFPOINTS
  6
Continuous
 62
     7
100
AcDbPoint
 10
-504.1206359863281
 20
372.9118957519531
 30
0.0
  0
POINT
  5
77
330
6F
100
AcDbEntity
  8
DEFPOINTS
  6
Continuous
 62
     7
100
AcDbPoint
 10
-349.497314453125
 20
491.7253112792969
 30
0.0
  0
ENDBLK
  5
78
330
6F
100
AcDbEntity
  8
0
100
AcDbBlockEnd
  0
BLOCK
  5
7A
330
79
100
AcDbEntity
  8
0
100
AcDbBlockBegin
  2
*D6
 70
     1
 10
0.0
 20
0.0
 30
0.0
  3
*D6
  1

  0
LINE
  5
7B
330
79
100
AcDbEntity
  8
0
  6
Continuous
 62
     7
100
AcDbLine
 10
-472.3089904785156
 20
35.44455718994141
 30
0.0
 11
-381.3089904785156
 21
35.44455718994139
 31
0.0
  0
INSERT
  5
7C
330
79
100
AcDbEntity
  8
0
  6
Continuous
 62
     7
100
AcDbBlockReference
  2
_OPEN30
 10
-475.3089904785156
 20
35.44455718994141
 30
0.0
 50
180.0000000000004
  0
INSERT
  5
7D
330
79
100
AcDbEntity
  8
0
  6
Continuous
 62
     7
100
AcDbBlockReference
  2
_OPEN30
 10
-378.3089904785156
 20
35.44455718994141
 30
0.0
  0
LINE
  5
7E
330
79
100
AcDbEntity
  8
0
  6
Continuous
 62
     7
100
AcDbLine
 10
-475.3089904785156
 20
65.27861114501952
 30
0.0
 11
-475.3089904785156
 21
33.1585578918457
 31
0.0
  0
LINE
  5
7F
330
79
100
AcDbEntity
  8
0
  6
Continuous
 62
     7
100
AcDbLine
 10
-378.3089904785156
 20
65.27861114501952
 30
0.0
 11
-378.3089904785156
 21
33.1585578918457
 31
0.0
  0
TEXT
  5
80
330
79
100
AcDbEntity
  8
0
  6
Continuous
 62
     7
100
AcDbText
 10
-430.878990650177
 20
36.19455718994141
 30
0.0
 40
3.0
  1
%%C97
 41
0.9498249830693319
100
AcDbText
  0
POINT
  5
81
330
79
100
AcDbEntity
  8
DEFPOINTS
  6
Continuous
 62
     7
100
AcDbPoint
 10
-475.3089904785156
 20
67.81861114501953
 30
0.0
  0
POINT
  5
82
330
79
100
AcDbEntity
  8
DEFPOINTS
  6
Continuous
 62
     7
100
AcDbPoint
 10
-378.3089904785156
 20
67.81861114501953
 30
0.0
  0
POINT
  5
83
330
79
100
AcDbEntity
  8
DEFPOINTS
  6
Continuous
 62
     7
100
AcDbPoint
 10
-378.3089904785156
 20
35.44455718994141
 30
0.0
  0
ENDBLK
  5
84
330
79
100
AcDbEntity
  8
0
100
AcDbBlockEnd
  0
BLOCK
  5
86
330
85
100
AcDbEntity
  8
0
100
AcDbBlockBegin
  2
*D7
 70
     1
 10
0.0
 20
0.0
 30
0.0
  3
*D7
  1

  0
LINE
  5
87
330
85
100
AcDbEntity
  8
0
  6
Continuous
 62
     7
100
AcDbLine
 10
-317.8771362304688
 20
108.8186111450195
 30
0.0
 11
-317.8771362304688
 21
137.818603515625
 31
0.0
  0
INSERT
  5
88
330
85
100
AcDbEntity
  8
0
  6
Continuous
 62
     7
100
AcDbBlockReference
  2
_OPEN30
 10
-317.8771362304688
 20
105.8186111450195
 30
0.0
 50
270.0000000000005
  0
INSERT
  5
89
330
85
100
AcDbEntity
  8
0
  6
Continuous
 62
     7
100
AcDbBlockReference
  2
_OPEN30
 10
-317.8771362304688
 20
140.818603515625
 30
0.0
 50
90.00000000000019
  0
LINE
  5
8A
330
85
100
AcDbEntity
  8
0
  6
Continuous
 62
     7
100
AcDbLine
 10
-377.7689904785156
 20
140.818603515625
 30
0.0
 11
-315.5911254882813
 21
140.818603515625
 31
0.0
  0
TEXT
  5
8B
330
85
100
AcDbEntity
  8
0
  6
Continuous
 62
     7
100
AcDbText
 10
-318.6271361181305
 20
120.7486110001793
 30
0.0
 40
3.0
  1
35
 50
90.00000250447815
 41
1.028000020980834
100
AcDbText
  0
POINT
  5
8C
330
85
100
AcDbEntity
  8
DEFPOINTS
  6
Continuous
 62
     7
100
AcDbPoint
 10
-305.327880859375
 20
105.8186111450195
 30
0.0
  0
POINT
  5
8D
330
85
100
AcDbEntity
  8
DEFPOINTS
  6
Continuous
 62
     7
100
AcDbPoint
 10
-380.3089904785156
 20
140.818603515625
 30
0.0
  0
POINT
  5
8E
330
85
100
AcDbEntity
  8
DEFPOINTS
  6
Continuous
 62
     7
100
AcDbPoint
 10
-317.8771362304688
 20
140.818603515625
 30
0.0
  0
ENDBLK
  5
8F
330
85
100
AcDbEntity
  8
0
100
AcDbBlockEnd
  0
BLOCK
  5
91
330
90
100
AcDbEntity
  8
0
100
AcDbBlockBegin
  2
*D8
 70
     1
 10
0.0
 20
0.0
 30
0.0
  3
*D8
  1

  0
LINE
  5
92
330
90
100
AcDbEntity
  8
0
  6
Continuous
 62
     7
100
AcDbLine
 10
-307.6138916015625
 20
108.8186111450195
 30
0.0
 11
-307.6138916015625
 21
255.818603515625
 31
0.0
  0
INSERT
  5
93
330
90
100
AcDbEntity
  8
0
  6
Continuous
 62
     7
100
AcDbBlockReference
  2
_OPEN30
 10
-307.6138916015625
 20
105.8186111450195
 30
0.0
 50
270.0000000000005
  0
INSERT
  5
94
330
90
100
AcDbEntity
  8
0
  6
Continuous
 62
     7
100
AcDbBlockReference
  2
_OPEN30
 10
-307.6138916015625
 20
258.818603515625
 30
0.0
 50
90.00000000000019
  0
LINE
  5
95
330
90
100
AcDbEntity
  8
0
  6
Continuous
 62
     7
100
AcDbLine
 10
-328.7689904785156
 20
105.8186111450195
 30
0.0
 11
-305.327880859375
 21
105.8186111450195
 31
0.0
  0
LINE
  5
96
330
90
100
AcDbEntity
  8
0
  6
Continuous
 62
     7
100
AcDbLine
 10
-363.0189904785156
 20
258.818603515625
 30
0.0
 11
-305.327880859375
 21
258.818603515625
 31
0.0
  0
TEXT
  5
97
330
90
100
AcDbEntity
  8
0
  6
Continuous
 62
     7
100
AcDbText
 10
-308.3638907679863
 20
163.2486027151337
 30
0.0
 40
3.0
  1
１５３　（１４２～１６４）
 50
90.00000250447815
 41
0.8434321120058422
100
AcDbText
  0
POINT
  5
98
330
90
100
AcDbEntity
  8
DEFPOINTS
  6
Continuous
 62
     7
100
AcDbPoint
 10
-331.3089904785156
 20
105.8186111450195
 30
0.0
  0
POINT
  5
99
330
90
100
AcDbEntity
  8
DEFPOINTS
  6
Continuous
 62
     7
100
AcDbPoint
 10
-365.5589904785156
 20
258.818603515625
 30
0.0
  0
POINT
  5
9A
330
90
100
AcDbEntity
  8
DEFPOINTS
  6
Continuous
 62
     7
100
AcDbPoint
 10
-307.6138916015625
 20
258.818603515625
 30
0.0
  0
ENDBLK
  5
9B
330
90
100
AcDbEntity
  8
0
100
AcDbBlockEnd
  0
BLOCK
  5
9D
330
9C
100
AcDbEntity
  8
0
100
AcDbBlockBegin
  2
*D9
 70
     1
 10
0.0
 20
0.0
 30
0.0
  3
*D9
  1

  0
LINE
  5
9E
330
9C
100
AcDbEntity
  8
0
  6
Continuous
 62
     7
100
AcDbLine
 10
-317.8771362304688
 20
255.818603515625
 30
0.0
 11
-317.8771362304688
 21
206.818603515625
 31
0.0
  0
INSERT
  5
9F
330
9C
100
AcDbEntity
  8
0
  6
Continuous
 62
     7
100
AcDbBlockReference
  2
_OPEN30
 10
-317.8771362304688
 20
258.818603515625
 30
0.0
 50
90.00000000000019
  0
INSERT
  5
A0
330
9C
100
AcDbEntity
  8
0
  6
Continuous
 62
     7
100
AcDbBlockReference
  2
_OPEN30
 10
-317.8771362304688
 20
203.818603515625
 30
0.0
 50
270.0000000000005
  0
LINE
  5
A1
330
9C
100
AcDbEntity
  8
0
  6
Continuous
 62
     7
100
AcDbLine
 10
-376.7689904785156
 20
203.818603515625
 30
0.0
 11
-315.5911254882813
 21
203.818603515625
 31
0.0
  0
TEXT
  5
A2
330
9C
100
AcDbEntity
  8
0
  6
Continuous
 62
     7
100
AcDbText
 10
-318.6271361181305
 20
228.7486033707847
 30
0.0
 40
3.0
  1
55
 50
90.00000250447815
 41
1.028000020980834
100
AcDbText
  0
POINT
  5
A3
330
9C
100
AcDbEntity
  8
DEFPOINTS
  6
Continuous
 62
     7
100
AcDbPoint
 10
-305.327880859375
 20
258.818603515625
 30
0.0
  0
POINT
  5
A4
330
9C
100
AcDbEntity
  8
DEFPOINTS
  6
Continuous
 62
     7
100
AcDbPoint
 10
-379.3089904785156
 20
203.818603515625
 30
0.0
  0
POINT
  5
A5
330
9C
100
AcDbEntity
  8
DEFPOINTS
  6
Continuous
 62
     7
100
AcDbPoint
 10
-317.8771362304688
 20
203.818603515625
 30
0.0
  0
ENDBLK
  5
A6
330
9C
100
AcDbEntity
  8
0
100
AcDbBlockEnd
  0
BLOCK
  5
A8
330
A7
100
AcDbEntity
  8
0
100
AcDbBlockBegin
  2
*D10
 70
     1
 10
0.0
 20
0.0
 30
0.0
  3
*D10
  1

  0
LINE
  5
A9
330
A7
100
AcDbEntity
  8
0
  6
Continuous
 62
     7
100
AcDbLine
 10
-412.8457031249999
 20
123.8186111450195
 30
0.0
 11
-412.8457031249999
 21
217.818603515625
 31
0.0
  0
INSERT
  5
AA
330
A7
100
AcDbEntity
  8
0
  6
Continuous
 62
     7
100
AcDbBlockReference
  2
_OPEN30
 10
-412.8457031249999
 20
120.8186111450195
 30
0.0
 50
270.0000000000005
  0
INSERT
  5
AB
330
A7
100
AcDbEntity
  8
0
  6
Continuous
 62
     7
100
AcDbBlockReference
  2
_OPEN30
 10
-412.8457031249999
 20
220.818603515625
 30
0.0
 50
90.00000000000019
  0
TEXT
  5
AC
330
A7
100
AcDbEntity
  8
0
  6
Continuous
 62
     7
100
AcDbText
 10
-413.5957029470946
 20
166.7486033111801
 30
0.0
 40
3.0
  1
100
 50
90.00000250447815
 41
1.320000017011488
100
AcDbText
  0
POINT
  5
AD
330
A7
100
AcDbEntity
  8
DEFPOINTS
  6
Continuous
 62
     7
100
AcDbPoint
 10
-426.8089904785155
 20
120.8186111450195
 30
0.0
  0
POINT
  5
AE
330
A7
100
AcDbEntity
  8
DEFPOINTS
  6
Continuous
 62
     7
100
AcDbPoint
 10
-426.8089904785155
 20
220.818603515625
 30
0.0
  0
POINT
  5
AF
330
A7
100
AcDbEntity
  8
DEFPOINTS
  6
Continuous
 62
     7
100
AcDbPoint
 10
-412.8457031249999
 20
220.818603515625
 30
0.0
  0
ENDBLK
  5
B0
330
A7
100
AcDbEntity
  8
0
100
AcDbBlockEnd
  0
BLOCK
  5
B2
330
B1
100
AcDbEntity
  8
0
100
AcDbBlockBegin
  2
*D11
 70
     1
 10
0.0
 20
0.0
 30
0.0
  3
*D11
  1

  0
LINE
  5
B3
330
B1
100
AcDbEntity
  8
0
  6
Continuous
 62
     7
100
AcDbLine
 10
-397.2456359863281
 20
123.8186111450195
 30
0.0
 11
-397.2456359863281
 21
167.818603515625
 31
0.0
  0
INSERT
  5
B4
330
B1
100
AcDbEntity
  8
0
  6
Continuous
 62
     7
100
AcDbBlockReference
  2
_OPEN30
 10
-397.2456359863281
 20
120.8186111450195
 30
0.0
 50
270.0000000000005
  0
INSERT
  5
B5
330
B1
100
AcDbEntity
  8
0
  6
Continuous
 62
     7
100
AcDbBlockReference
  2
_OPEN30
 10
-397.2456359863281
 20
170.818603515625
 30
0.0
 50
90.00000000000019
  0
LINE
  5
B6
330
B1
100
AcDbEntity
  8
0
  6
Continuous
 62
     7
100
AcDbLine
 10
-386.8989782714844
 20
170.818603515625
 30
0.0
 11
-399.5316467285156
 21
170.818603515625
 31
0.0
  0
TEXT
  5
B7
330
B1
100
AcDbEntity
  8
0
  6
Continuous
 62
     7
100
AcDbText
 10
-397.9956358739898
 20
143.2486033707847
 30
0.0
 40
3.0
  1
50
 50
90.00000250447815
 41
1.101428593908038
100
AcDbText
  0
POINT
  5
B8
330
B1
100
AcDbEntity
  8
DEFPOINTS
  6
Continuous
 62
     7
100
AcDbPoint
 10
-384.3589782714844
 20
120.8186111450195
 30
0.0
  0
POINT
  5
B9
330
B1
100
AcDbEntity
  8
DEFPOINTS
  6
Continuous
 62
     7
100
AcDbPoint
 10
-384.3589782714844
 20
170.818603515625
 30
0.0
  0
POINT
  5
BA
330
B1
100
AcDbEntity
  8
DEFPOINTS
  6
Continuous
 62
     7
100
AcDbPoint
 10
-397.2456359863281
 20
170.818603515625
 30
0.0
  0
ENDBLK
  5
BB
330
B1
100
AcDbEntity
  8
0
100
AcDbBlockEnd
  0
BLOCK
  5
BD
330
BC
100
AcDbEntity
  8
0
100
AcDbBlockBegin
  2
*D12
 70
     1
 10
0.0
 20
0.0
 30
0.0
  3
*D12
  1

  0
LINE
  5
BE
330
BC
100
AcDbEntity
  8
0
  6
Continuous
 62
     7
100
AcDbLine
 10
-532.3168334960938
 20
69.81861114501953
 30
0.0
 11
-532.3168334960938
 21
137.818603515625
 31
0.0
  0
INSERT
  5
BF
330
BC
100
AcDbEntity
  8
0
  6
Continuous
 62
     7
100
AcDbBlockReference
  2
_OPEN30
 10
-532.3168334960938
 20
66.81861114501953
 30
0.0
 50
270.0000000000005
  0
INSERT
  5
C0
330
BC
100
AcDbEntity
  8
0
  6
Continuous
 62
     7
100
AcDbBlockReference
  2
_OPEN30
 10
-532.3168334960938
 20
140.818603515625
 30
0.0
 50
90.00000000000019
  0
LINE
  5
C1
330
BC
100
AcDbEntity
  8
0
  6
Continuous
 62
     7
100
AcDbLine
 10
-476.8489904785156
 20
66.81861114501952
 30
0.0
 11
-534.6028442382813
 21
66.81861114501953
 31
0.0
  0
LINE
  5
C2
330
BC
100
AcDbEntity
  8
0
  6
Continuous
 62
     7
100
AcDbLine
 10
-475.8489904785156
 20
140.818603515625
 30
0.0
 11
-534.6028442382813
 21
140.818603515625
 31
0.0
  0
TEXT
  5
C3
330
BC
100
AcDbEntity
  8
0
  6
Continuous
 62
     7
100
AcDbText
 10
-533.0668333837555
 20
101.2486110001793
 30
0.0
 40
3.0
  1
74
 50
90.00000250447815
 41
1.028000020980834
100
AcDbText
  0
POINT
  5
C4
330
BC
100
AcDbEntity
  8
DEFPOINTS
  6
Continuous
 62
     7
100
AcDbPoint
 10
-474.3089904785156
 20
66.81861114501953
 30
0.0
  0
POINT
  5
C5
330
BC
100
AcDbEntity
  8
DEFPOINTS
  6
Continuous
 62
     7
100
AcDbPoint
 10
-473.3089904785156
 20
140.818603515625
 30
0.0
  0
POINT
  5
C6
330
BC
100
AcDbEntity
  8
DEFPOINTS
  6
Continuous
 62
     7
100
AcDbPoint
 10
-532.3168334960938
 20
140.818603515625
 30
0.0
  0
ENDBLK
  5
C7
330
BC
100
AcDbEntity
  8
0
100
AcDbBlockEnd
  0
BLOCK
  5
C9
330
C8
100
AcDbEntity
  8
0
100
AcDbBlockBegin
  2
*D13
 70
     1
 10
0.0
 20
0.0
 30
0.0
  3
*D13
  1

  0
LINE
  5
CA
330
C8
100
AcDbEntity
  8
0
  6
Continuous
 62
     7
100
AcDbLine
 10
-478.3089904785156
 20
72.20449066162108
 30
0.0
 11
-489.3089904785155
 21
72.20449066162109
 31
0.0
  0
INSERT
  5
CB
330
C8
100
AcDbEntity
  8
0
  6
Continuous
 62
     7
100
AcDbBlockReference
  2
_OPEN30
 10
-475.3089904785156
 20
72.20449066162109
 30
0.0
  0
INSERT
  5
CC
330
C8
100
AcDbEntity
  8
0
  6
Continuous
 62
     7
100
AcDbBlockReference
  2
_OPEN30
 10
-492.3089904785156
 20
72.20449066162109
 30
0.0
 50
180.0000000000004
  0
LINE
  5
CD
330
C8
100
AcDbEntity
  8
0
  6
Continuous
 62
     7
100
AcDbLine
 10
-492.3089904785156
 20
98.30201812744141
 30
0.0
 11
-492.3089904785156
 21
69.91849517822266
 31
0.0
  0
TEXT
  5
CE
330
C8
100
AcDbEntity
  8
0
  6
Continuous
 62
     7
100
AcDbText
 10
-486.3789905905723
 20
72.9544906616211
 30
0.0
 40
3.0
  1
17
 41
1.285000026226043
100
AcDbText
  0
POINT
  5
CF
330
C8
100
AcDbEntity
  8
DEFPOINTS
  6
Continuous
 62
     7
100
AcDbPoint
 10
-475.3089904785156
 20
67.81861114501953
 30
0.0
  0
POINT
  5
D0
330
C8
100
AcDbEntity
  8
DEFPOINTS
  6
Continuous
 62
     7
100
AcDbPoint
 10
-492.3089904785156
 20
100.8420181274414
 30
0.0
  0
POINT
  5
D1
330
C8
100
AcDbEntity
  8
DEFPOINTS
  6
Continuous
 62
     7
100
AcDbPoint
 10
-492.3089904785156
 20
72.20449066162109
 30
0.0
  0
ENDBLK
  5
D2
330
C8
100
AcDbEntity
  8
0
100
AcDbBlockEnd
  0
BLOCK
  5
D4
330
D3
100
AcDbEntity
  8
0
100
AcDbBlockBegin
  2
*D14
 70
     1
 10
0.0
 20
0.0
 30
0.0
  3
*D14
  1

  0
LINE
  5
D5
330
D3
100
AcDbEntity
  8
0
  6
Continuous
 62
     7
100
AcDbLine
 10
-504.8963317871093
 20
99.31861114501952
 30
0.0
 11
-504.8963317871093
 21
85.31861114501953
 31
0.0
  0
INSERT
  5
D6
330
D3
100
AcDbEntity
  8
0
  6
Continuous
 62
     7
100
AcDbBlockReference
  2
_OPEN30
 10
-504.8963317871093
 20
102.3186111450195
 30
0.0
 50
90.00000000000019
  0
INSERT
  5
D7
330
D3
100
AcDbEntity
  8
0
  6
Continuous
 62
     7
100
AcDbBlockReference
  2
_OPEN30
 10
-504.8963317871093
 20
82.31861114501953
 30
0.0
 50
270.0000000000005
  0
LINE
  5
D8
330
D3
100
AcDbEntity
  8
0
  6
Continuous
 62
     7
100
AcDbLine
 10
-479.8489904785157
 20
82.31861114501951
 30
0.0
 11
-507.1823425292969
 21
82.31861114501953
 31
0.0
  0
TEXT
  5
D9
330
D3
100
AcDbEntity
  8
0
  6
Continuous
 62
     7
100
AcDbText
 10
-505.646331674771
 20
89.74861100017925
 30
0.0
 40
3.0
  1
20
 50
90.00000250447815
 41
1.101428593908038
100
AcDbText
  0
POINT
  5
DA
330
D3
100
AcDbEntity
  8
DEFPOINTS
  6
Continuous
 62
     7
100
AcDbPoint
 10
-480.3089904785156
 20
102.3186111450195
 30
0.0
  0
POINT
  5
DB
330
D3
100
AcDbEntity
  8
DEFPOINTS
  6
Continuous
 62
     7
100
AcDbPoint
 10
-477.3089904785156
 20
82.31861114501953
 30
0.0
  0
POINT
  5
DC
330
D3
100
AcDbEntity
  8
DEFPOINTS
  6
Continuous
 62
     7
100
AcDbPoint
 10
-504.8963317871093
 20
82.31861114501953
 30
0.0
  0
ENDBLK
  5
DD
330
D3
100
AcDbEntity
  8
0
100
AcDbBlockEnd
  0
BLOCK
  5
DF
330
DE
100
AcDbEntity
  8
0
100
AcDbBlockBegin
  2
KOZU0001
 70
     0
 10
0.0
 20
0.0
 30
0.0
  3
KOZU0001
  1

  0
LINE
  5
E0
330
DE
100
AcDbEntity
  8
0
  6
Continuous
 62
     7
100
AcDbLine
 10
0.0
 20
0.0
 30
0.0
 11
10.79525756835938
 21
-8.688575744628906
 31
0.0
  0
LINE
  5
E1
330
DE
100
AcDbEntity
  8
0
  6
Continuous
 62
     7
100
AcDbLine
 10
10.79525756835938
 20
-8.688575744628906
 30
0.0
 11
40.12615966796874
 21
-8.688575744628906
 31
0.0
  0
LINE
  5
E2
330
DE
100
AcDbEntity
  8
0
  6
Continuous
 62
     7
100
AcDbLine
 10
0.0
 20
0.0
 30
0.0
 11
2.964062432799372
 21
-1.101968191223082
 31
0.0
  0
LINE
  5
E3
330
DE
100
AcDbEntity
  8
0
  6
Continuous
 62
     7
100
AcDbLine
 10
0.0
 20
0.0
 30
0.0
 11
1.710069031505648
 21
-2.660012012658088
 31
0.0
  0
TEXT
  5
E4
330
DE
100
AcDbEntity
  8
0
  6
Continuous
 62
     7
100
AcDbText
 10
15.26615834236145
 20
-7.938575744628906
 30
0.0
 40
3.0
  1
配管接続口
 41
0.8487395020950888
100
AcDbText
  0
TEXT
  5
E5
330
DE
100
AcDbEntity
  8
0
  6
Continuous
 62
     7
100
AcDbText
 10
15.26615834236145
 20
-13.20357574462891
 30
0.0
 40
3.0
  1
Ｒｃ３（８０Ａ）
 41
0.8454512278006642
100
AcDbText
  0
ENDBLK
  5
E6
330
DE
100
AcDbEntity
  8
0
100
AcDbBlockEnd
  0
BLOCK
  5
E8
330
E7
100
AcDbEntity
  8
0
100
AcDbBlockBegin
  2
KOZU0002
 70
     0
 10
0.0
 20
0.0
 30
0.0
  3
KOZU0002
  1

  0
LINE
  5
E9
330
E7
100
AcDbEntity
  8
0
  6
Continuous
 62
     7
100
AcDbLine
 10
0.0
 20
0.0
 30
0.0
 11
-26.50335693359375
 21
-48.39000701904296
 31
0.0
  0
LINE
  5
EA
330
E7
100
AcDbEntity
  8
0
  6
Continuous
 62
     7
100
AcDbLine
 10
-26.50335693359375
 20
-48.39000701904296
 30
0.0
 11
-57.5240478515625
 21
-48.39000701904296
 31
0.0
  0
LINE
  5
EB
330
E7
100
AcDbEntity
  8
0
  6
Continuous
 62
     7
100
AcDbLine
 10
0.0
 20
0.0
 30
0.0
 11
-0.5640487967966954
 21
-3.11156696132868
 31
0.0
  0
LINE
  5
EC
330
E7
100
AcDbEntity
  8
0
  6
Continuous
 62
     7
100
AcDbLine
 10
0.0
 20
0.0
 30
0.0
 11
-2.318179214234564
 21
-2.150824290984928
 31
0.0
  0
TEXT
  5
ED
330
E7
100
AcDbEntity
  8
0
  6
Continuous
 62
     7
100
AcDbText
 10
-55.80401694774628
 20
-47.64000701904296
 30
0.0
 40
3.0
  1
共廻り防止用羽根
 41
0.8454512278006642
100
AcDbText
  0
TEXT
  5
EE
330
E7
100
AcDbEntity
  8
0
  6
Continuous
 62
     7
100
AcDbText
 10
-55.80401694774628
 20
-52.90500701904297
 30
0.0
 40
3.0
  1
３ヶ所
 41
0.8550420278260688
100
AcDbText
  0
ENDBLK
  5
EF
330
E7
100
AcDbEntity
  8
0
100
AcDbBlockEnd
  0
ENDSEC
  0
SECTION
  2
ENTITIES
  0
LINE
  5
F0
330
22
100
AcDbEntity
  8
0
  6
CENTER
 62
     7
100
AcDbLine
 10
-322.5157165527344
 20
432.318603515625
 30
0.0
 11
-528.979736328125
 21
432.318603515625
 31
0.0
  0
LINE
  5
F1
330
22
100
AcDbEntity
  8
0
  6
CENTER
 62
     7
100
AcDbLine
 10
-426.8089904785155
 20
61.90064239501953
 30
0.0
 11
-426.8089904785155
 21
267.8940734863281
 31
0.0
  0
LINE
  5
F2
330
22
100
AcDbEntity
  8
0
  6
CENTER
 62
     7
100
AcDbLine
 10
-426.8089904785155
 20
328.9742126464844
 30
0.0
 11
-426.8089904785155
 21
533.03662109375
 31
0.0
  0
LINE
  5
F3
330
22
100
AcDbEntity
  8
0
  6
Continuous
 62
     7
100
AcDbLine
 10
-434.2589721679687
 20
434.7686157226562
 30
0.0
 11
-434.2589721679687
 21
429.8686218261718
 31
0.0
  0
LINE
  5
F4
330
22
100
AcDbEntity
  8
0
  6
Continuous
 62
     7
100
AcDbLine
 10
-430.5238342285156
 20
434.7686157226562
 30
0.0
 11
-434.2589721679687
 21
434.7686157226562
 31
0.0
  0
LINE
  5
F5
330
22
100
AcDbEntity
  8
0
  6
Continuous
 62
     7
100
AcDbLine
 10
-430.5238342285156
 20
429.8686218261718
 30
0.0
 11
-434.2589721679687
 21
429.8686218261718
 31
0.0
  0
LINE
  5
F6
330
22
100
AcDbEntity
  8
0
  6
Continuous
 62
     7
100
AcDbLine
 10
-419.3589782714843
 20
434.7686157226562
 30
0.0
 11
-419.3589782714843
 21
429.8686218261718
 31
0.0
  0
LINE
  5
F7
330
22
100
AcDbEntity
  8
0
  6
Continuous
 62
     7
100
AcDbLine
 10
-423.0941467285155
 20
429.8686218261718
 30
0.0
 11
-419.3589782714843
 21
429.8686218261718
 31
0.0
  0
LINE
  5
F8
330
22
100
AcDbEntity
  8
0
  6
Continuous
 62
     7
100
AcDbLine
 10
-423.0941467285155
 20
434.7686157226562
 30
0.0
 11
-419.3589782714843
 21
434.7686157226562
 31
0.0
  0
LINE
  5
F9
330
22
100
AcDbEntity
  8
0
  6
Continuous
 62
     7
100
AcDbLine
 10
-408.8159484863281
 20
249.1495666503906
 30
0.0
 11
-408.8159484863281
 21
242.818603515625
 31
0.0
  0
LINE
  5
FA
330
22
100
AcDbEntity
  8
0
  6
Continuous
 62
     7
100
AcDbLine
 10
-424.5262451171875
 20
255.9569091796875
 30
0.0
 11
-418.8173522949218
 21
255.9569091796875
 31
0.0
  0
LINE
  5
FB
330
22
100
AcDbEntity
  8
0
  6
Continuous
 62
     7
100
AcDbLine
 10
-424.5645446777343
 20
254.818603515625
 30
0.0
 11
-418.8145446777343
 21
254.818603515625
 31
0.0
  0
LINE
  5
FC
330
22
100
AcDbEntity
  8
0
  6
Continuous
 62
     7
100
AcDbLine
 10
-424.5645446777343
 20
256.818603515625
 30
0.0
 11
-424.5645446777343
 21
254.818603515625
 31
0.0
  0
LINE
  5
FD
330
22
100
AcDbEntity
  8
0
  6
Continuous
 62
     7
100
AcDbLine
 10
-374.2715759277344
 20
254.818603515625
 30
0.0
 11
-364.3089904785156
 21
254.818603515625
 31
0.0
  0
LINE
  5
FE
330
22
100
AcDbEntity
  8
0
  6
Continuous
 62
     7
100
AcDbLine
 10
-418.8145446777343
 20
254.818603515625
 30
0.0
 11
-418.8145446777343
 21
248.818603515625
 31
0.0
  0
LINE
  5
FF
330
22
100
AcDbEntity
  8
0
  6
Continuous
 62
     7
100
AcDbLine
 10
-418.8173522949218
 20
255.9569091796875
 30
0.0
 11
-418.8173522949218
 21
254.8076782226563
 31
0.0
  0
LINE
  5
100
330
22
100
AcDbEntity
  8
0
  6
Continuous
 62
     7
100
AcDbLine
 10
-382.7000122070313
 20
227.818603515625
 30
0.0
 11
-382.7000122070313
 21
226.818603515625
 31
0.0
  0
LINE
  5
101
330
22
100
AcDbEntity
  8
0
  6
Continuous
 62
     7
100
AcDbLine
 10
-416.8089904785156
 20
226.818603515625
 30
0.0
 11
-382.7000122070313
 21
226.818603515625
 31
0.0
  0
LINE
  5
102
330
22
100
AcDbEntity
  8
0
  6
Continuous
 62
     7
100
AcDbLine
 10
-385.6200256347656
 20
227.818603515625
 30
0.0
 11
-385.8362426757813
 21
228.0179443359375
 31
0.0
  0
LINE
  5
103
330
22
100
AcDbEntity
  8
0
  6
Continuous
 62
     7
100
AcDbLine
 10
-383.2000122070313
 20
227.818603515625
 30
0.0
 11
-385.6200256347656
 21
227.818603515625
 31
0.0
  0
LINE
  5
104
330
22
100
AcDbEntity
  8
0
  6
Continuous
 62
     7
100
AcDbLine
 10
-416.8089904785156
 20
226.818603515625
 30
0.0
 11
-420.8145446777344
 21
226.818603515625
 31
0.0
  0
LINE
  5
105
330
22
100
AcDbEntity
  8
0
  6
Continuous
 62
     7
100
AcDbLine
 10
-408.9141540527343
 20
246.318603515625
 30
0.0
 11
-408.9141540527343
 21
244.318603515625
 31
0.0
  0
LINE
  5
106
330
22
100
AcDbEntity
  8
0
  6
Continuous
 62
     7
100
AcDbLine
 10
-408.8159484863281
 20
248.8180694580078
 30
0.0
 11
-410.8141479492187
 21
248.8180694580078
 31
0.0
  0
LINE
  5
107
330
22
100
AcDbEntity
  8
0
  6
Continuous
 62
     7
100
AcDbLine
 10
-387.7927551269531
 20
252.0552978515625
 30
0.0
 11
-385.8362426757813
 21
228.0179443359375
 31
0.0
  0
LINE
  5
108
330
22
100
AcDbEntity
  8
0
  6
Continuous
 62
     7
100
AcDbLine
 10
-410.8141479492187
 20
246.318603515625
 30
0.0
 11
-408.9141540527343
 21
246.318603515625
 31
0.0
  0
LINE
  5
109
330
22
100
AcDbEntity
  8
0
  6
Continuous
 62
     7
100
AcDbLine
 10
-410.8141479492187
 20
248.8180694580078
 30
0.0
 11
-410.8141479492187
 21
246.318603515625
 31
0.0
  0
LINE
  5
10A
330
22
100
AcDbEntity
  8
0
  6
Continuous
 62
     7
100
AcDbLine
 10
-412.8141479492188
 20
245.318603515625
 30
0.0
 11
-412.8141479492188
 21
245.4680786132813
 31
0.0
  0
LINE
  5
10B
330
22
100
AcDbEntity
  8
0
  6
Continuous
 62
     7
100
AcDbLine
 10
-419.5345458984375
 20
242.818603515625
 30
0.0
 11
-419.5345458984375
 21
239.818603515625
 31
0.0
  0
LINE
  5
10C
330
22
100
AcDbEntity
  8
0
  6
Continuous
 62
     7
100
AcDbLine
 10
-413.8141479492188
 20
246.4680786132813
 30
0.0
 11
-419.8145446777344
 21
246.4680786132813
 31
0.0
  0
LINE
  5
10D
330
22
100
AcDbEntity
  8
0
  6
Continuous
 62
     7
100
AcDbLine
 10
-403.415069580078
 20
253.4336090087891
 30
0.0
 11
-389.2878112792969
 21
253.4336090087891
 31
0.0
  0
LINE
  5
10E
330
22
100
AcDbEntity
  8
0
  6
Continuous
 62
     7
100
AcDbLine
 10
-410.7345581054688
 20
239.8751831054688
 30
0.0
 11
-410.6779785156249
 21
239.818603515625
 31
0.0
  0
LINE
  5
10F
330
22
100
AcDbEntity
  8
0
  6
Continuous
 62
     7
100
AcDbLine
 10
-409.4141540527344
 20
243.818603515625
 30
0.0
 11
-411.3141479492187
 21
243.818603515625
 31
0.0
  0
LINE
  5
110
330
22
100
AcDbEntity
  8
0
  6
Continuous
 62
     7
100
AcDbLine
 10
-408.8159484863281
 20
248.8180694580078
 30
0.0
 11
-408.8159484863281
 21
249.1495666503906
 31
0.0
  0
LINE
  5
111
330
22
100
AcDbEntity
  8
0
  6
Continuous
 62
     7
100
AcDbLine
 10
-384.6000061035156
 20
233.818603515625
 30
0.0
 11
-382.7000122070313
 21
233.818603515625
 31
0.0
  0
LINE
  5
112
330
22
100
AcDbEntity
  8
0
  6
Continuous
 62
     7
100
AcDbLine
 10
-362.0589904785156
 20
104.8186111450195
 30
0.0
 11
-363.0589904785156
 21
105.8186111450195
 31
0.0
  0
LINE
  5
113
330
22
100
AcDbEntity
  8
0
  6
Continuous
 62
     7
100
AcDbLine
 10
-382.7000122070313
 20
233.818603515625
 30
0.0
 11
-382.6000061035156
 21
236.318603515625
 31
0.0
  0
LINE
  5
114
330
22
100
AcDbEntity
  8
0
  6
Continuous
 62
     7
100
AcDbLine
 10
-384.6000061035156
 20
236.318603515625
 30
0.0
 11
-384.6000061035156
 21
233.818603515625
 31
0.0
  0
LINE
  5
115
330
22
100
AcDbEntity
  8
0
  6
Continuous
 62
     7
100
AcDbLine
 10
-422.8145446777343
 20
227.818603515625
 30
0.0
 11
-383.2000122070313
 21
227.818603515625
 31
0.0
  0
LINE
  5
116
330
22
100
AcDbEntity
  8
0
  6
Continuous
 62
     7
100
AcDbLine
 10
-426.8145446777343
 20
227.318603515625
 30
0.0
 11
-420.8145446777344
 21
227.318603515625
 31
0.0
  0
LINE
  5
117
330
22
100
AcDbEntity
  8
0
  6
Continuous
 62
     7
100
AcDbLine
 10
-422.0345458984374
 20
238.318603515625
 30
0.0
 11
-422.8145446777343
 21
238.318603515625
 31
0.0
  0
LINE
  5
118
330
22
100
AcDbEntity
  8
0
  6
Continuous
 62
     7
100
AcDbLine
 10
-422.0345458984374
 20
238.318603515625
 30
0.0
 11
-422.0345458984374
 21
242.818603515625
 31
0.0
  0
LINE
  5
119
330
22
100
AcDbEntity
  8
0
  6
Continuous
 62
     7
100
AcDbLine
 10
-421.0345458984375
 20
238.318603515625
 30
0.0
 11
-422.0345458984374
 21
238.318603515625
 31
0.0
  0
LINE
  5
11A
330
22
100
AcDbEntity
  8
0
  6
Continuous
 62
     7
100
AcDbLine
 10
-422.0345458984374
 20
238.447265625
 30
0.0
 11
-421.9059143066406
 21
238.318603515625
 31
0.0
  0
LINE
  5
11B
330
22
100
AcDbEntity
  8
0
  6
Continuous
 62
     7
100
AcDbLine
 10
-422.8145446777343
 20
227.318603515625
 30
0.0
 11
-422.8145446777343
 21
243.4680786132813
 31
0.0
  0
LINE
  5
11C
330
22
100
AcDbEntity
  8
0
  6
Continuous
 62
     7
100
AcDbLine
 10
-422.0345458984374
 20
242.818603515625
 30
0.0
 11
-408.8159484863281
 21
242.818603515625
 31
0.0
  0
LINE
  5
11D
330
22
100
AcDbEntity
  8
0
  6
Continuous
 62
     7
100
AcDbLine
 10
-422.0345458984374
 20
242.818603515625
 30
0.0
 11
-422.8145446777343
 21
242.818603515625
 31
0.0
  0
LINE
  5
11E
330
22
100
AcDbEntity
  8
0
  6
Continuous
 62
     7
100
AcDbLine
 10
-418.8145446777343
 20
248.818603515625
 30
0.0
 11
-426.8145446777343
 21
248.818603515625
 31
0.0
  0
LINE
  5
11F
330
22
100
AcDbEntity
  8
0
  6
Continuous
 62
     7
100
AcDbLine
 10
-382.7000122070313
 20
227.818603515625
 30
0.0
 11
-382.7000122070313
 21
233.818603515625
 31
0.0
  0
LINE
  5
120
330
22
100
AcDbEntity
  8
0
  6
Continuous
 62
     7
100
AcDbLine
 10
-407.7804870605469
 20
239.818603515625
 30
0.0
 11
-419.5345458984375
 21
239.818603515625
 31
0.0
  0
LINE
  5
121
330
22
100
AcDbEntity
  8
0
  6
Continuous
 62
     7
100
AcDbLine
 10
-404.9097900390624
 20
252.0596466064453
 30
0.0
 11
-405.7875366210938
 21
241.6505584716797
 31
0.0
  0
LINE
  5
122
330
22
100
AcDbEntity
  8
0
  6
Continuous
 62
     7
100
AcDbLine
 10
-410.7345581054688
 20
239.818603515625
 30
0.0
 11
-410.7345581054688
 21
242.818603515625
 31
0.0
  0
LINE
  5
123
330
22
100
AcDbEntity
  8
0
  6
Continuous
 62
     7
100
AcDbLine
 10
-382.6000061035156
 20
236.318603515625
 30
0.0
 11
-384.6000061035156
 21
236.318603515625
 31
0.0
  0
LINE
  5
124
330
22
100
AcDbEntity
  8
0
  6
Continuous
 62
     7
100
AcDbLine
 10
-378.3089904785156
 20
238.818603515625
 30
0.0
 11
-375.5001525878906
 21
253.7989654541016
 31
0.0
  0
LINE
  5
125
330
22
100
AcDbEntity
  8
0
  6
Continuous
 62
     7
100
AcDbLine
 10
-426.8089904785155
 20
107.2936096191406
 30
0.0
 11
-384.343994140625
 21
107.2936096191406
 31
0.0
  0
LINE
  5
126
330
22
100
AcDbEntity
  8
0
  6
Continuous
 62
     7
100
AcDbLine
 10
-426.8089904785155
 20
120.8186111450195
 30
0.0
 11
-384.3589782714844
 21
120.8186111450195
 31
0.0
  0
LINE
  5
127
330
22
100
AcDbEntity
  8
0
  6
Continuous
 62
     7
100
AcDbLine
 10
-384.1112060546875
 20
192.2899169921875
 30
0.0
 11
-382.2589721679688
 21
190.4376983642578
 31
0.0
  0
LINE
  5
128
330
22
100
AcDbEntity
  8
0
  6
Continuous
 62
     7
100
AcDbLine
 10
-384.3589782714844
 20
170.818603515625
 30
0.0
 11
-382.2589721679688
 21
172.9186096191406
 31
0.0
  0
LINE
  5
129
330
22
100
AcDbEntity
  8
0
  6
Continuous
 62
     7
100
AcDbLine
 10
-382.2589721679688
 20
172.9186096191406
 30
0.0
 11
-382.2589721679688
 21
190.4376983642578
 31
0.0
  0
LINE
  5
12A
330
22
100
AcDbEntity
  8
0
  6
Continuous
 62
     7
100
AcDbLine
 10
-384.343994140625
 20
107.2936096191406
 30
0.0
 11
-382.8689880371094
 21
105.8186111450195
 31
0.0
  0
LINE
  5
12B
330
22
100
AcDbEntity
  8
0
  6
Continuous
 62
     7
100
AcDbLine
 10
-352.8089904785156
 20
105.8186111450195
 30
0.0
 11
-344.7860717773438
 21
105.8186111450195
 31
0.0
  0
LINE
  5
12C
330
22
100
AcDbEntity
  8
0
  6
Continuous
 62
     7
100
AcDbLine
 10
-379.3089904785156
 20
110.8186111450195
 30
0.0
 11
-379.3089904785156
 21
139.818603515625
 31
0.0
  0
LINE
  5
12D
330
22
100
AcDbEntity
  8
0
  6
Continuous
 62
     7
100
AcDbLine
 10
-384.3589782714844
 20
120.8186111450195
 30
0.0
 11
-382.8689880371094
 21
122.3086090087891
 31
0.0
  0
LINE
  5
12E
330
22
100
AcDbEntity
  8
0
  6
Continuous
 62
     7
100
AcDbLine
 10
-382.8689880371094
 20
140.818603515625
 30
0.0
 11
-382.8689880371094
 21
105.8186111450195
 31
0.0
  0
LINE
  5
12F
330
22
100
AcDbEntity
  8
0
  6
Continuous
 62
     7
100
AcDbLine
 10
-384.343994140625
 20
139.3436126708984
 30
0.0
 11
-384.343994140625
 21
107.2936096191406
 31
0.0
  0
LINE
  5
130
330
22
100
AcDbEntity
  8
0
  6
Continuous
 62
     7
100
AcDbLine
 10
-382.8689880371094
 20
140.818603515625
 30
0.0
 11
-380.3089904785156
 21
140.818603515625
 31
0.0
  0
LINE
  5
131
330
22
100
AcDbEntity
  8
0
  6
Continuous
 62
     7
100
AcDbLine
 10
-382.8689880371094
 20
140.818603515625
 30
0.0
 11
-384.343994140625
 21
139.3436126708984
 31
0.0
  0
LINE
  5
132
330
22
100
AcDbEntity
  8
0
  6
Continuous
 62
     7
100
AcDbLine
 10
-385.3760070800781
 20
99.81861114501953
 30
0.0
 11
-383.9450073242188
 21
101.2496109008789
 31
0.0
  0
LINE
  5
133
330
22
100
AcDbEntity
  8
0
  6
Continuous
 62
     7
100
AcDbLine
 10
-346.0565795898438
 20
104.8186111450195
 30
0.0
 11
-345.0565795898438
 21
105.8186111450195
 31
0.0
  0
LINE
  5
134
330
22
100
AcDbEntity
  8
0
  6
Continuous
 62
     7
100
AcDbLine
 10
-374.3089904785156
 20
105.8186111450195
 30
0.0
 11
-331.3089904785156
 21
105.8186111450195
 31
0.0
  0
LINE
  5
135
330
22
100
AcDbEntity
  8
0
  6
Continuous
 62
     7
100
AcDbLine
 10
-329.3089904785156
 20
102.8186111450195
 30
0.0
 11
-329.3089904785156
 21
103.8186111450195
 31
0.0
  0
LINE
  5
136
330
22
100
AcDbEntity
  8
0
  6
Continuous
 62
     7
100
AcDbLine
 10
-362.0589904785156
 20
104.8186111450195
 30
0.0
 11
-361.0589904785156
 21
105.8186111450195
 31
0.0
  0
LINE
  5
137
330
22
100
AcDbEntity
  8
0
  6
Continuous
 62
     7
100
AcDbLine
 10
-346.0565795898438
 20
104.8186111450195
 30
0.0
 11
-347.0565795898438
 21
105.8186111450195
 31
0.0
  0
LINE
  5
138
330
22
100
AcDbEntity
  8
0
  6
Continuous
 62
     7
100
AcDbLine
 10
-382.7000122070313
 20
222.825439453125
 30
0.0
 11
-382.7000122070313
 21
217.825439453125
 31
0.0
  0
LINE
  5
139
330
22
100
AcDbEntity
  8
0
  6
Continuous
 62
     7
100
AcDbLine
 10
-382.8689880371094
 20
138.1434173583984
 30
0.0
 11
-380.212890625
 21
140.7994995117188
 31
0.0
  0
LINE
  5
13A
330
22
100
AcDbEntity
  8
0
  6
Continuous
 62
     7
100
AcDbLine
 10
-382.8689880371094
 20
133.9007720947266
 30
0.0
 11
-379.3089904785156
 21
137.4607696533203
 31
0.0
  0
LINE
  5
13B
330
22
100
AcDbEntity
  8
0
  6
Continuous
 62
     7
100
AcDbLine
 10
-382.8689880371094
 20
129.6581420898438
 30
0.0
 11
-379.3089904785156
 21
133.2181396484375
 31
0.0
  0
LINE
  5
13C
330
22
100
AcDbEntity
  8
0
  6
Continuous
 62
     7
100
AcDbLine
 10
-382.8689880371094
 20
125.4154968261719
 30
0.0
 11
-379.3089904785156
 21
128.9754943847656
 31
0.0
  0
LINE
  5
13D
330
22
100
AcDbEntity
  8
0
  6
Continuous
 62
     7
100
AcDbLine
 10
-382.8689880371094
 20
121.1728515625
 30
0.0
 11
-379.3089904785156
 21
124.7328567504883
 31
0.0
  0
LINE
  5
13E
330
22
100
AcDbEntity
  8
0
  6
Continuous
 62
     7
100
AcDbLine
 10
-382.8689880371094
 20
116.9302139282227
 30
0.0
 11
-379.3089904785156
 21
120.4902114868164
 31
0.0
  0
LINE
  5
13F
330
22
100
AcDbEntity
  8
0
  6
Continuous
 62
     7
100
AcDbLine
 10
-382.8689880371094
 20
112.6875686645508
 30
0.0
 11
-379.3089904785156
 21
116.2475738525391
 31
0.0
  0
LINE
  5
140
330
22
100
AcDbEntity
  8
0
  6
Continuous
 62
     7
100
AcDbLine
 10
-382.8689880371094
 20
108.4449310302734
 30
0.0
 11
-379.3089904785156
 21
112.0049285888672
 31
0.0
  0
LINE
  5
141
330
22
100
AcDbEntity
  8
0
  6
Continuous
 62
     7
100
AcDbLine
 10
-383.3668823242188
 20
103.704376220703
 30
0.0
 11
-378.662841796875
 21
108.4084243774414
 31
0.0
  0
LINE
  5
142
330
22
100
AcDbEntity
  8
0
  6
Continuous
 62
     7
100
AcDbLine
 10
-383.8733215332031
 20
98.95532989501951
 30
0.0
 11
-376.4876403808594
 21
106.3409881591797
 31
0.0
  0
LINE
  5
143
330
22
100
AcDbEntity
  8
0
  6
Continuous
 62
     7
100
AcDbLine
 10
-376.2673950195313
 20
102.3186111450195
 30
0.0
 11
-372.7673950195313
 21
105.8186111450195
 31
0.0
  0
LINE
  5
144
330
22
100
AcDbEntity
  8
0
  6
Continuous
 62
     7
100
AcDbLine
 10
-383.7447509765625
 20
94.84125518798828
 30
0.0
 11
-378.3089904785156
 21
100.2770080566406
 31
0.0
  0
LINE
  5
145
330
22
100
AcDbEntity
  8
0
  6
Continuous
 62
     7
100
AcDbLine
 10
-372.0247497558594
 20
102.3186111450195
 30
0.0
 11
-368.5247497558594
 21
105.8186111450195
 31
0.0
  0
LINE
  5
146
330
22
100
AcDbEntity
  8
0
  6
Continuous
 62
     7
100
AcDbLine
 10
-383.6161499023438
 20
90.72718811035157
 30
0.0
 11
-378.3089904785156
 21
96.03437042236329
 31
0.0
  0
LINE
  5
147
330
22
100
AcDbEntity
  8
0
  6
Continuous
 62
     7
100
AcDbLine
 10
-367.7821044921875
 20
102.3186111450195
 30
0.0
 11
-364.2821044921875
 21
105.8186111450195
 31
0.0
  0
LINE
  5
148
330
22
100
AcDbEntity
  8
0
  6
Continuous
 62
     7
100
AcDbLine
 10
-383.4875793457031
 20
86.61312103271484
 30
0.0
 11
-378.3089904785156
 21
91.7917251586914
 31
0.0
  0
LINE
  5
149
330
22
100
AcDbEntity
  8
0
  6
Continuous
 62
     7
100
AcDbLine
 10
-363.5394592285156
 20
102.3186111450195
 30
0.0
 11
-360.0394592285156
 21
105.8186111450195
 31
0.0
  0
LINE
  5
14A
330
22
100
AcDbEntity
  8
0
  6
Continuous
 62
     7
100
AcDbLine
 10
-383.3590087890625
 20
82.49904632568359
 30
0.0
 11
-378.3089904785156
 21
87.54908752441407
 31
0.0
  0
LINE
  5
14B
330
22
100
AcDbEntity
  8
0
  6
Continuous
 62
     7
100
AcDbLine
 10
-359.2968139648438
 20
102.3186111450195
 30
0.0
 11
-355.7968139648438
 21
105.8186111450195
 31
0.0
  0
LINE
  5
14C
330
22
100
AcDbEntity
  8
0
  6
Continuous
 62
     7
100
AcDbLine
 10
-383.2304382324219
 20
78.38497924804688
 30
0.0
 11
-378.3089904785156
 21
83.30644989013672
 31
0.0
  0
LINE
  5
14D
330
22
100
AcDbEntity
  8
0
  6
Continuous
 62
     7
100
AcDbLine
 10
-355.0541687011719
 20
102.3186111450195
 30
0.0
 11
-351.5541687011719
 21
105.8186111450195
 31
0.0
  0
LINE
  5
14E
330
22
100
AcDbEntity
  8
0
  6
Continuous
 62
     7
100
AcDbLine
 10
-383.1018676757813
 20
74.27091217041016
 30
0.0
 11
-378.3089904785156
 21
79.06380462646485
 31
0.0
  0
LINE
  5
14F
330
22
100
AcDbEntity
  8
0
  6
Continuous
 62
     7
100
AcDbLine
 10
-350.8115539550781
 20
102.3186111450195
 30
0.0
 11
-347.3115539550781
 21
105.8186111450195
 31
0.0
  0
LINE
  5
150
330
22
100
AcDbEntity
  8
0
  6
Continuous
 62
     7
100
AcDbLine
 10
-382.9732971191406
 20
70.15683746337891
 30
0.0
 11
-378.3089904785156
 21
74.8211669921875
 31
0.0
  0
LINE
  5
151
330
22
100
AcDbEntity
  8
0
  6
Continuous
 62
     7
100
AcDbLine
 10
-346.5689086914063
 20
102.3186111450195
 30
0.0
 11
-343.0689086914063
 21
105.8186111450195
 31
0.0
  0
LINE
  5
152
330
22
100
AcDbEntity
  8
0
  6
Continuous
 62
     7
100
AcDbLine
 10
-382.0689086914063
 20
66.81861114501953
 30
0.0
 11
-378.3089904785156
 21
70.57852172851562
 31
0.0
  0
LINE
  5
153
330
22
100
AcDbEntity
  8
0
  6
Continuous
 62
     7
100
AcDbLine
 10
-342.3262634277344
 20
102.3186111450195
 30
0.0
 11
-338.8262634277344
 21
105.8186111450195
 31
0.0
  0
LINE
  5
154
330
22
100
AcDbEntity
  8
0
  6
Continuous
 62
     7
100
AcDbLine
 10
-338.0836181640625
 20
102.3186111450195
 30
0.0
 11
-334.5836181640625
 21
105.8186111450195
 31
0.0
  0
LINE
  5
155
330
22
100
AcDbEntity
  8
0
  6
Continuous
 62
     7
100
AcDbLine
 10
-333.8409729003906
 20
102.3186111450195
 30
0.0
 11
-330.5133972167969
 21
105.6461791992188
 31
0.0
  0
LINE
  5
156
330
22
100
AcDbEntity
  8
0
  6
Continuous
 62
     7
100
AcDbLine
 10
-378.3089904785156
 20
101.3186111450195
 30
0.0
 11
-378.3089904785156
 21
67.81861114501953
 31
0.0
  0
LINE
  5
157
330
22
100
AcDbEntity
  8
0
  6
Continuous
 62
     7
100
AcDbLine
 10
-385.3760070800781
 20
99.81861114501953
 30
0.0
 11
-384.3923034667969
 21
68.34193420410156
 31
0.0
  0
LINE
  5
158
330
22
100
AcDbEntity
  8
0
  6
Continuous
 62
     7
100
AcDbLine
 10
-382.8689880371094
 20
66.81861114501953
 30
0.0
 11
-383.9450073242188
 21
101.2496109008789
 31
0.0
  0
LINE
  5
159
330
22
100
AcDbEntity
  8
0
  6
Continuous
 62
     7
100
AcDbLine
 10
-382.8689880371094
 20
66.81861114501953
 30
0.0
 11
-384.3923034667969
 21
68.34193420410156
 31
0.0
  0
LINE
  5
15A
330
22
100
AcDbEntity
  8
0
  6
Continuous
 62
     7
100
AcDbLine
 10
-384.3923034667969
 20
68.34193420410156
 30
0.0
 11
-426.8089904785155
 21
68.34193420410156
 31
0.0
  0
LINE
  5
15B
330
22
100
AcDbEntity
  8
0
  6
Continuous
 62
     7
100
AcDbLine
 10
-379.3089904785156
 20
203.818603515625
 30
0.0
 11
-378.3089904785156
 21
204.818603515625
 31
0.0
  0
LINE
  5
15C
330
22
100
AcDbEntity
  8
0
  6
Continuous
 62
     7
100
AcDbLine
 10
-384.3589782714844
 20
205.5846099853516
 30
0.0
 11
-384.3589782714844
 21
216.2091217041016
 31
0.0
  0
LINE
  5
15D
330
22
100
AcDbEntity
  8
0
  6
Continuous
 62
     7
100
AcDbLine
 10
-382.9807739257813
 20
203.818603515625
 30
0.0
 11
-379.3089904785156
 21
203.818603515625
 31
0.0
  0
LINE
  5
15E
330
22
100
AcDbEntity
  8
0
  6
Continuous
 62
     7
100
AcDbLine
 10
-384.3589782714844
 20
205.5846099853516
 30
0.0
 11
-382.7000122070313
 21
203.9256439208984
 31
0.0
  0
LINE
  5
15F
330
22
100
AcDbEntity
  8
0
  6
Continuous
 62
     7
100
AcDbLine
 10
-407.7637329101563
 20
220.818603515625
 30
0.0
 11
-401.583984375
 21
220.818603515625
 31
0.0
  0
LINE
  5
160
330
22
100
AcDbEntity
  8
0
  6
Continuous
 62
     7
100
AcDbLine
 10
-377.3089904785156
 20
102.3186111450195
 30
0.0
 11
-329.8089904785156
 21
102.3186111450195
 31
0.0
  0
LINE
  5
161
330
22
100
AcDbEntity
  8
0
  6
Continuous
 62
     7
100
AcDbLine
 10
-383.9450073242188
 20
101.2496109008789
 30
0.0
 11
-383.9450073242188
 21
105.8186111450195
 31
0.0
  0
LINE
  5
162
330
22
100
AcDbEntity
  8
0
  6
Continuous
 62
     7
100
AcDbLine
 10
-384.3589782714844
 20
120.8186111450195
 30
0.0
 11
-384.3589782714844
 21
170.818603515625
 31
0.0
  0
LINE
  5
163
330
22
100
AcDbEntity
  8
0
  6
Continuous
 62
     7
100
AcDbLine
 10
-382.8689880371094
 20
122.3086090087891
 30
0.0
 11
-382.8689880371094
 21
172.3086090087891
 31
0.0
  0
LINE
  5
164
330
22
100
AcDbEntity
  8
0
  6
Continuous
 62
     7
100
AcDbLine
 10
-385.3760070800781
 20
99.81861114501953
 30
0.0
 11
-426.8089904785155
 21
99.81861114501953
 31
0.0
  0
LINE
  5
165
330
22
100
AcDbEntity
  8
0
  6
Continuous
 62
     7
100
AcDbLine
 10
-382.8689880371094
 20
105.8186111450195
 30
0.0
 11
-426.8089904785155
 21
105.8186111450195
 31
0.0
  0
LINE
  5
166
330
22
100
AcDbEntity
  8
0
  6
Continuous
 62
     7
100
AcDbLine
 10
-383.9450073242188
 20
101.2496109008789
 30
0.0
 11
-426.8089904785155
 21
101.2496109008789
 31
0.0
  0
LINE
  5
167
330
22
100
AcDbEntity
  8
0
  6
Continuous
 62
     7
100
AcDbLine
 10
-471.3589782714843
 20
172.9186096191406
 30
0.0
 11
-471.3589782714843
 21
190.4376983642578
 31
0.0
  0
LINE
  5
168
330
22
100
AcDbEntity
  8
0
  6
Continuous
 62
     7
100
AcDbLine
 10
-524.3089599609374
 20
102.8186111450195
 30
0.0
 11
-524.3089599609374
 21
103.8186111450195
 31
0.0
  0
LINE
  5
169
330
22
100
AcDbEntity
  8
0
  6
Continuous
 62
     7
100
AcDbLine
 10
-523.8089599609375
 20
102.3186111450195
 30
0.0
 11
-480.3089904785156
 21
102.3186111450195
 31
0.0
  0
LINE
  5
16A
330
22
100
AcDbEntity
  8
0
  6
Continuous
 62
     7
100
AcDbLine
 10
-522.3089599609375
 20
105.8186111450195
 30
0.0
 11
-479.3089904785156
 21
105.8186111450195
 31
0.0
  0
LINE
  5
16B
330
22
100
AcDbEntity
  8
0
  6
Continuous
 62
     7
100
AcDbLine
 10
-474.3089904785156
 20
110.8186111450195
 30
0.0
 11
-474.3089904785156
 21
139.818603515625
 31
0.0
  0
LINE
  5
16C
330
22
100
AcDbEntity
  8
0
  6
Continuous
 62
     7
100
AcDbLine
 10
-475.3089904785156
 20
238.818603515625
 30
0.0
 11
-478.3089904785156
 21
254.818603515625
 31
0.0
  0
LINE
  5
16D
330
22
100
AcDbEntity
  8
0
  6
Continuous
 62
     7
100
AcDbLine
 10
-477.3089904785156
 20
238.6327362060547
 30
0.0
 11
-480.2747192382812
 21
254.4500274658203
 31
0.0
  0
LINE
  5
16E
330
22
100
AcDbEntity
  8
0
  6
Continuous
 62
     7
100
AcDbLine
 10
-382.7000122070313
 20
203.818603515625
 30
0.0
 11
-382.7000122070313
 21
217.825439453125
 31
0.0
  0
LINE
  5
16F
330
22
100
AcDbEntity
  8
0
  6
Continuous
 62
     7
100
AcDbLine
 10
-382.5723876953125
 20
190.7510986328125
 30
0.0
 11
-383.4639587402344
 21
219.27978515625
 31
0.0
  0
LINE
  5
170
330
22
100
AcDbEntity
  8
0
  6
Continuous
 62
     7
100
AcDbLine
 10
-384.1112060546875
 20
192.2899169921875
 30
0.0
 11
-385.0027770996094
 21
220.818603515625
 31
0.0
  0
LINE
  5
171
330
22
100
AcDbEntity
  8
0
  6
Continuous
 62
     7
100
AcDbLine
 10
-378.3089904785156
 20
204.818603515625
 30
0.0
 11
-378.3089904785156
 21
238.818603515625
 31
0.0
  0
LINE
  5
172
330
22
100
AcDbEntity
  8
0
  6
Continuous
 62
     7
100
AcDbLine
 10
-386.2589721679688
 20
120.8186111450195
 30
0.0
 11
-386.2589721679688
 21
220.818603515625
 31
0.0
  0
LINE
  5
173
330
22
100
AcDbEntity
  8
0
  6
Continuous
 62
     7
100
AcDbLine
 10
-386.2589721679688
 20
217.9108581542969
 30
0.0
 11
-384.9527282714844
 21
219.2171325683594
 31
0.0
  0
LINE
  5
174
330
22
100
AcDbEntity
  8
0
  6
Continuous
 62
     7
100
AcDbLine
 10
-386.2589721679688
 20
214.3753356933594
 30
0.0
 11
-384.8455810546875
 21
215.7887420654297
 31
0.0
  0
LINE
  5
175
330
22
100
AcDbEntity
  8
0
  6
Continuous
 62
     7
100
AcDbLine
 10
-386.2589721679688
 20
210.8397979736328
 30
0.0
 11
-384.7384338378906
 21
212.3603515625
 31
0.0
  0
LINE
  5
176
330
22
100
AcDbEntity
  8
0
  6
Continuous
 62
     7
100
AcDbLine
 10
-386.2589721679688
 20
207.3042602539064
 30
0.0
 11
-384.6312866210938
 21
208.9319610595703
 31
0.0
  0
LINE
  5
177
330
22
100
AcDbEntity
  8
0
  6
Continuous
 62
     7
100
AcDbLine
 10
-386.2589721679688
 20
203.7687225341797
 30
0.0
 11
-384.5241394042969
 21
205.5035705566406
 31
0.0
  0
LINE
  5
178
330
22
100
AcDbEntity
  8
0
  6
Continuous
 62
     7
100
AcDbLine
 10
-386.2589721679688
 20
200.2332000732422
 30
0.0
 11
-384.4169921875
 21
202.0751800537109
 31
0.0
  0
LINE
  5
179
330
22
100
AcDbEntity
  8
0
  6
Continuous
 62
     7
100
AcDbLine
 10
-386.2589721679688
 20
196.6976623535156
 30
0.0
 11
-384.3098754882813
 21
198.6467895507813
 31
0.0
  0
LINE
  5
17A
330
22
100
AcDbEntity
  8
0
  6
Continuous
 62
     7
100
AcDbLine
 10
-386.2589721679688
 20
193.1621246337891
 30
0.0
 11
-384.2027282714844
 21
195.2183837890625
 31
0.0
  0
LINE
  5
17B
330
22
100
AcDbEntity
  8
0
  6
Continuous
 62
     7
100
AcDbLine
 10
-386.2589721679688
 20
189.6265869140625
 30
0.0
 11
-383.8534240722656
 21
192.0321502685547
 31
0.0
  0
LINE
  5
17C
330
22
100
AcDbEntity
  8
0
  6
Continuous
 62
     7
100
AcDbLine
 10
-386.2589721679688
 20
186.091064453125
 30
0.0
 11
-382.2589721679688
 21
190.091064453125
 31
0.0
  0
LINE
  5
17D
330
22
100
AcDbEntity
  8
0
  6
Continuous
 62
     7
100
AcDbLine
 10
-386.2589721679688
 20
182.5555267333984
 30
0.0
 11
-382.2589721679688
 21
186.5555267333984
 31
0.0
  0
LINE
  5
17E
330
22
100
AcDbEntity
  8
0
  6
Continuous
 62
     7
100
AcDbLine
 10
-386.2589721679688
 20
179.0199890136719
 30
0.0
 11
-382.2589721679688
 21
183.0199890136719
 31
0.0
  0
LINE
  5
17F
330
22
100
AcDbEntity
  8
0
  6
Continuous
 62
     7
100
AcDbLine
 10
-386.2589721679688
 20
175.4844512939453
 30
0.0
 11
-382.2589721679688
 21
179.4844512939453
 31
0.0
  0
LINE
  5
180
330
22
100
AcDbEntity
  8
0
  6
Continuous
 62
     7
100
AcDbLine
 10
-386.2589721679688
 20
171.9489288330078
 30
0.0
 11
-382.2589721679688
 21
175.9489288330078
 31
0.0
  0
LINE
  5
181
330
22
100
AcDbEntity
  8
0
  6
Continuous
 62
     7
100
AcDbLine
 10
-386.2589721679688
 20
168.4133911132813
 30
0.0
 11
-384.3589782714844
 21
170.3133850097656
 31
0.0
  0
LINE
  5
182
330
22
100
AcDbEntity
  8
0
  6
Continuous
 62
     7
100
AcDbLine
 10
-386.2589721679688
 20
164.8778533935547
 30
0.0
 11
-384.3589782714844
 21
166.7778625488281
 31
0.0
  0
LINE
  5
183
330
22
100
AcDbEntity
  8
0
  6
Continuous
 62
     7
100
AcDbLine
 10
-386.2589721679688
 20
161.3423156738281
 30
0.0
 11
-384.3589782714844
 21
163.2423248291016
 31
0.0
  0
LINE
  5
184
330
22
100
AcDbEntity
  8
0
  6
Continuous
 62
     7
100
AcDbLine
 10
-386.2589721679688
 20
157.8067932128906
 30
0.0
 11
-384.3589782714844
 21
159.706787109375
 31
0.0
  0
LINE
  5
185
330
22
100
AcDbEntity
  8
0
  6
Continuous
 62
     7
100
AcDbLine
 10
-386.2589721679688
 20
154.2712554931641
 30
0.0
 11
-384.3589782714844
 21
156.1712493896484
 31
0.0
  0
LINE
  5
186
330
22
100
AcDbEntity
  8
0
  6
Continuous
 62
     7
100
AcDbLine
 10
-386.2589721679688
 20
150.7357177734375
 30
0.0
 11
-384.3589782714844
 21
152.6357269287109
 31
0.0
  0
LINE
  5
187
330
22
100
AcDbEntity
  8
0
  6
Continuous
 62
     7
100
AcDbLine
 10
-386.2589721679688
 20
147.2001800537109
 30
0.0
 11
-384.3589782714844
 21
149.1001892089844
 31
0.0
  0
LINE
  5
188
330
22
100
AcDbEntity
  8
0
  6
Continuous
 62
     7
100
AcDbLine
 10
-386.2589721679688
 20
143.6646575927734
 30
0.0
 11
-384.3589782714844
 21
145.5646514892578
 31
0.0
  0
LINE
  5
189
330
22
100
AcDbEntity
  8
0
  6
Continuous
 62
     7
100
AcDbLine
 10
-386.2589721679688
 20
140.1291198730469
 30
0.0
 11
-384.3589782714844
 21
142.0291137695313
 31
0.0
  0
LINE
  5
18A
330
22
100
AcDbEntity
  8
0
  6
Continuous
 62
     7
100
AcDbLine
 10
-386.2589721679688
 20
136.5935821533203
 30
0.0
 11
-384.3589782714844
 21
138.4935913085937
 31
0.0
  0
LINE
  5
18B
330
22
100
AcDbEntity
  8
0
  6
Continuous
 62
     7
100
AcDbLine
 10
-386.2589721679688
 20
133.0580444335938
 30
0.0
 11
-384.3589782714844
 21
134.9580535888672
 31
0.0
  0
LINE
  5
18C
330
22
100
AcDbEntity
  8
0
  6
Continuous
 62
     7
100
AcDbLine
 10
-386.2589721679688
 20
129.5225219726563
 30
0.0
 11
-384.3589782714844
 21
131.4225158691406
 31
0.0
  0
LINE
  5
18D
330
22
100
AcDbEntity
  8
0
  6
Continuous
 62
     7
100
AcDbLine
 10
-386.2589721679688
 20
125.9869842529297
 30
0.0
 11
-384.3589782714844
 21
127.8869857788086
 31
0.0
  0
LINE
  5
18E
330
22
100
AcDbEntity
  8
0
  6
Continuous
 62
     7
100
AcDbLine
 10
-386.2589721679688
 20
122.4514465332031
 30
0.0
 11
-384.3589782714844
 21
124.351448059082
 31
0.0
  0
LINE
  5
18F
330
22
100
AcDbEntity
  8
0
  6
Continuous
 62
     7
100
AcDbLine
 10
-416.8089904785156
 20
222.818603515625
 30
0.0
 11
-426.8089904785155
 21
222.818603515625
 31
0.0
  0
LINE
  5
190
330
22
100
AcDbEntity
  8
0
  6
Continuous
 62
     7
100
AcDbLine
 10
-426.8089904785155
 20
220.818603515625
 30
0.0
 11
-385.0027770996094
 21
220.818603515625
 31
0.0
  0
LINE
  5
191
330
22
100
AcDbEntity
  8
0
  6
Continuous
 62
     7
100
AcDbLine
 10
-420.8145446777344
 20
223.818603515625
 30
0.0
 11
-426.8145446777343
 21
223.818603515625
 31
0.0
  0
LINE
  5
192
330
22
100
AcDbEntity
  8
0
  6
Continuous
 62
     7
100
AcDbLine
 10
-420.8145446777344
 20
227.318603515625
 30
0.0
 11
-420.8145446777344
 21
223.818603515625
 31
0.0
  0
LINE
  5
193
330
22
100
AcDbEntity
  8
0
  6
Continuous
 62
     7
100
AcDbLine
 10
-382.7000122070313
 20
217.825439453125
 30
0.0
 11
-383.4184875488281
 21
217.8253326416016
 31
0.0
  0
LINE
  5
194
330
22
100
AcDbEntity
  8
0
  6
Continuous
 62
     7
100
AcDbLine
 10
-385.0027770996094
 20
220.818603515625
 30
0.0
 11
-383.4639587402344
 21
219.27978515625
 31
0.0
  0
LINE
  5
195
330
22
100
AcDbEntity
  8
0
  6
Continuous
 62
     7
100
AcDbLine
 10
-384.3589782714844
 20
216.2091217041016
 30
0.0
 11
-382.7000122070313
 21
217.825439453125
 31
0.0
  0
LINE
  5
196
330
22
100
AcDbEntity
  8
0
  6
Continuous
 62
     7
100
AcDbLine
 10
-382.7000122070313
 20
222.825439453125
 30
0.0
 11
-416.8089904785156
 21
222.818603515625
 31
0.0
  0
LINE
  5
197
330
22
100
AcDbEntity
  8
0
  6
Continuous
 62
     7
100
AcDbLine
 10
-416.8089904785156
 20
222.818603515625
 30
0.0
 11
-416.8089904785156
 21
226.818603515625
 31
0.0
  0
LINE
  5
198
330
22
100
AcDbEntity
  8
0
  6
Continuous
 62
     7
100
AcDbLine
 10
-475.3089904785156
 20
101.3186111450195
 30
0.0
 11
-475.3089904785156
 21
67.81861114501953
 31
0.0
  0
LINE
  5
199
330
22
100
AcDbEntity
  8
0
  6
Continuous
 62
     7
100
AcDbLine
 10
-492.3089904785156
 20
102.3186111450195
 30
0.0
 11
-508.8908996582031
 21
102.3186111450195
 31
0.0
  0
LINE
  5
19A
330
22
100
AcDbEntity
  8
0
  6
Continuous
 62
     7
100
AcDbLine
 10
-475.3089904785156
 20
82.31861114501953
 30
0.0
 11
-477.3089904785156
 21
82.31861114501953
 31
0.0
  0
LINE
  5
19B
330
22
100
AcDbEntity
  8
0
  6
Continuous
 62
     7
100
AcDbLine
 10
-479.3089904785156
 20
84.31861114501954
 30
0.0
 11
-479.3089904785156
 21
85.31861114501953
 31
0.0
  0
LINE
  5
19C
330
22
100
AcDbEntity
  8
0
  6
Continuous
 62
     7
100
AcDbLine
 10
-475.3089904785156
 20
74.62081909179687
 30
0.0
 11
-475.3089904785156
 21
69.61278533935547
 31
0.0
  0
LINE
  5
19D
330
22
100
AcDbEntity
  8
0
  6
Continuous
 62
     7
100
AcDbLine
 10
-475.3089904785156
 20
204.818603515625
 30
0.0
 11
-474.3089904785156
 21
203.818603515625
 31
0.0
  0
LINE
  5
19E
330
22
100
AcDbEntity
  8
0
  6
Continuous
 62
     7
100
AcDbLine
 10
-475.3089904785156
 20
206.818603515625
 30
0.0
 11
-477.3089904785156
 21
208.818603515625
 31
0.0
  0
LINE
  5
19F
330
22
100
AcDbEntity
  8
0
  6
Continuous
 62
     7
100
AcDbLine
 10
-471.0455932617188
 20
190.7510986328125
 30
0.0
 11
-470.7309570312499
 21
203.818603515625
 31
0.0
  0
LINE
  5
1A0
330
22
100
AcDbEntity
  8
0
  6
Continuous
 62
     7
100
AcDbLine
 10
-469.5067749023437
 20
192.2899169921875
 30
0.0
 11
-469.240234375
 21
203.818603515625
 31
0.0
  0
LINE
  5
1A1
330
22
100
AcDbEntity
  8
0
  6
Continuous
 62
     7
100
AcDbLine
 10
-492.3089904785156
 20
102.3186111450195
 30
0.0
 11
-492.3089904785156
 21
100.8420181274414
 31
0.0
  0
LINE
  5
1A2
330
22
100
AcDbEntity
  8
0
  6
Continuous
 62
     7
100
AcDbLine
 10
-469.5067749023437
 20
192.2899169921875
 30
0.0
 11
-471.3589782714843
 21
190.4376983642578
 31
0.0
  0
LINE
  5
1A3
330
22
100
AcDbEntity
  8
0
  6
Continuous
 62
     7
100
AcDbLine
 10
-469.2589721679688
 20
170.818603515625
 30
0.0
 11
-471.3589782714843
 21
172.9186096191406
 31
0.0
  0
LINE
  5
1A4
330
22
100
AcDbEntity
  8
0
  6
Continuous
 62
     7
100
AcDbLine
 10
-469.2589721679688
 20
140.818603515625
 30
0.0
 11
-469.2589721679688
 21
170.818603515625
 31
0.0
  0
LINE
  5
1A5
330
22
100
AcDbEntity
  8
0
  6
Continuous
 62
     7
100
AcDbLine
 10
-470.7489929199218
 20
140.818603515625
 30
0.0
 11
-470.7489929199218
 21
172.3086090087891
 31
0.0
  0
LINE
  5
1A6
330
22
100
AcDbEntity
  8
0
  6
Continuous
 62
     7
100
AcDbLine
 10
-480.3089904785156
 20
102.3186111450195
 30
0.0
 11
-476.3089904785156
 21
102.3186111450195
 31
0.0
  0
LINE
  5
1A7
330
22
100
AcDbEntity
  8
0
  6
Continuous
 62
     7
100
AcDbLine
 10
-489.3089904785155
 20
257.568603515625
 30
0.0
 11
-489.3089904785155
 21
254.818603515625
 31
0.0
  0
LINE
  5
1A8
330
22
100
AcDbEntity
  8
0
  6
Continuous
 62
     7
100
AcDbLine
 10
-416.8089904785156
 20
225.7114410400391
 30
0.0
 11
-415.7018127441406
 21
226.818603515625
 31
0.0
  0
LINE
  5
1A9
330
22
100
AcDbEntity
  8
0
  6
Continuous
 62
     7
100
AcDbLine
 10
-416.8089904785156
 20
224.2972259521484
 30
0.0
 11
-414.28759765625
 21
226.818603515625
 31
0.0
  0
LINE
  5
1AA
330
22
100
AcDbEntity
  8
0
  6
Continuous
 62
     7
100
AcDbLine
 10
-416.8089904785156
 20
222.8830108642578
 30
0.0
 11
-412.8733825683593
 21
226.818603515625
 31
0.0
  0
LINE
  5
1AB
330
22
100
AcDbEntity
  8
0
  6
Continuous
 62
     7
100
AcDbLine
 10
-415.4588928222656
 20
222.8188781738281
 30
0.0
 11
-411.4591674804688
 21
226.818603515625
 31
0.0
  0
LINE
  5
1AC
330
22
100
AcDbEntity
  8
0
  6
Continuous
 62
     7
100
AcDbLine
 10
-414.0444030761718
 20
222.8191680908203
 30
0.0
 11
-410.0449523925781
 21
226.818603515625
 31
0.0
  0
LINE
  5
1AD
330
22
100
AcDbEntity
  8
0
  6
Continuous
 62
     7
100
AcDbLine
 10
-379.0612182617188
 20
256.3881225585938
 30
0.0
 11
-377.6307373046875
 21
257.818603515625
 31
0.0
  0
LINE
  5
1AE
330
22
100
AcDbEntity
  8
0
  6
Continuous
 62
     7
100
AcDbLine
 10
-412.6299133300781
 20
222.8194427490234
 30
0.0
 11
-408.6307373046874
 21
226.818603515625
 31
0.0
  0
LINE
  5
1AF
330
22
100
AcDbEntity
  8
0
  6
Continuous
 62
     7
100
AcDbLine
 10
-379.3639526367188
 20
254.6711730957031
 30
0.0
 11
-376.2165222167969
 21
257.818603515625
 31
0.0
  0
LINE
  5
1B0
330
22
100
AcDbEntity
  8
0
  6
Continuous
 62
     7
100
AcDbLine
 10
-411.2153930664063
 20
222.8197326660156
 30
0.0
 11
-407.2165222167968
 21
226.818603515625
 31
0.0
  0
LINE
  5
1B1
330
22
100
AcDbEntity
  8
0
  6
Continuous
 62
     7
100
AcDbLine
 10
-379.6667175292969
 20
252.9542083740234
 30
0.0
 11
-374.8023071289063
 21
257.818603515625
 31
0.0
  0
LINE
  5
1B2
330
22
100
AcDbEntity
  8
0
  6
Continuous
 62
     7
100
AcDbLine
 10
-409.8009033203124
 20
222.8200073242188
 30
0.0
 11
-405.8023071289063
 21
226.818603515625
 31
0.0
  0
LINE
  5
1B3
330
22
100
AcDbEntity
  8
0
  6
Continuous
 62
     7
100
AcDbLine
 10
-379.9694519042969
 20
251.2372589111328
 30
0.0
 11
-373.3880920410156
 21
257.818603515625
 31
0.0
  0
LINE
  5
1B4
330
22
100
AcDbEntity
  8
0
  6
Continuous
 62
     7
100
AcDbLine
 10
-408.3864135742188
 20
222.8202972412109
 30
0.0
 11
-404.3880920410156
 21
226.818603515625
 31
0.0
  0
LINE
  5
1B5
330
22
100
AcDbEntity
  8
0
  6
Continuous
 62
     7
100
AcDbLine
 10
-380.2721862792969
 20
249.5202941894531
 30
0.0
 11
-371.973876953125
 21
257.818603515625
 31
0.0
  0
LINE
  5
1B6
330
22
100
AcDbEntity
  8
0
  6
Continuous
 62
     7
100
AcDbLine
 10
-406.9719238281249
 20
222.8205871582031
 30
0.0
 11
-402.973876953125
 21
226.818603515625
 31
0.0
  0
LINE
  5
1B7
330
22
100
AcDbEntity
  8
0
  6
Continuous
 62
     7
100
AcDbLine
 10
-373.5596618652344
 20
254.818603515625
 30
0.0
 11
-370.5596618652344
 21
257.818603515625
 31
0.0
  0
LINE
  5
1B8
330
22
100
AcDbEntity
  8
0
  6
Continuous
 62
     7
100
AcDbLine
 10
-380.574951171875
 20
247.8033294677734
 30
0.0
 11
-375.7126770019531
 21
252.6656188964844
 31
0.0
  0
LINE
  5
1B9
330
22
100
AcDbEntity
  8
0
  6
Continuous
 62
     7
100
AcDbLine
 10
-405.557403564453
 20
222.8208618164063
 30
0.0
 11
-401.5596618652343
 21
226.818603515625
 31
0.0
  0
LINE
  5
1BA
330
22
100
AcDbEntity
  8
0
  6
Continuous
 62
     7
100
AcDbLine
 10
-372.1454467773438
 20
254.818603515625
 30
0.0
 11
-369.1454467773438
 21
257.818603515625
 31
0.0
  0
LINE
  5
1BB
330
22
100
AcDbEntity
  8
0
  6
Continuous
 62
     7
100
AcDbLine
 10
-380.877685546875
 20
246.0863800048828
 30
0.0
 11
-376.0390319824219
 21
250.9250335693359
 31
0.0
  0
LINE
  5
1BC
330
22
100
AcDbEntity
  8
0
  6
Continuous
 62
     7
100
AcDbLine
 10
-404.1429138183593
 20
222.8211517333984
 30
0.0
 11
-400.1454467773438
 21
226.818603515625
 31
0.0
  0
LINE
  5
1BD
330
22
100
AcDbEntity
  8
0
  6
Continuous
 62
     7
100
AcDbLine
 10
-370.7312316894531
 20
254.818603515625
 30
0.0
 11
-367.7312316894531
 21
257.818603515625
 31
0.0
  0
LINE
  5
1BE
330
22
100
AcDbEntity
  8
0
  6
Continuous
 62
     7
100
AcDbLine
 10
-381.1804504394531
 20
244.3694152832031
 30
0.0
 11
-376.3653869628906
 21
249.1844635009766
 31
0.0
  0
LINE
  5
1BF
330
22
100
AcDbEntity
  8
0
  6
Continuous
 62
     7
100
AcDbLine
 10
-402.7284240722655
 20
222.8214263916016
 30
0.0
 11
-398.7312316894531
 21
226.818603515625
 31
0.0
  0
LINE
  5
1C0
330
22
100
AcDbEntity
  8
0
  6
Continuous
 62
     7
100
AcDbLine
 10
-369.3170471191406
 20
254.818603515625
 30
0.0
 11
-365.357177734375
 21
258.7784729003906
 31
0.0
  0
LINE
  5
1C1
330
22
100
AcDbEntity
  8
0
  6
Continuous
 62
     7
100
AcDbLine
 10
-381.4831848144531
 20
242.6524505615234
 30
0.0
 11
-376.6917419433594
 21
247.4438934326172
 31
0.0
  0
LINE
  5
1C2
330
22
100
AcDbEntity
  8
0
  6
Continuous
 62
     7
100
AcDbLine
 10
-401.3139343261718
 20
222.8217163085938
 30
0.0
 11
-397.3170471191406
 21
226.818603515625
 31
0.0
  0
LINE
  5
1C3
330
22
100
AcDbEntity
  8
0
  6
Continuous
 62
     7
100
AcDbLine
 10
-367.90283203125
 20
254.818603515625
 30
0.0
 11
-364.5124206542969
 21
258.2090148925781
 31
0.0
  0
LINE
  5
1C4
330
22
100
AcDbEntity
  8
0
  6
Continuous
 62
     7
100
AcDbLine
 10
-381.7859191894531
 20
240.9355010986328
 30
0.0
 11
-377.0180969238281
 21
245.7033233642578
 31
0.0
  0
LINE
  5
1C5
330
22
100
AcDbEntity
  8
0
  6
Continuous
 62
     7
100
AcDbLine
 10
-399.8994445800781
 20
222.8219909667969
 30
0.0
 11
-395.90283203125
 21
226.818603515625
 31
0.0
  0
LINE
  5
1C6
330
22
100
AcDbEntity
  8
0
  6
Continuous
 62
     7
100
AcDbLine
 10
-366.4886169433594
 20
254.818603515625
 30
0.0
 11
-364.3089904785156
 21
256.9982299804688
 31
0.0
  0
LINE
  5
1C7
330
22
100
AcDbEntity
  8
0
  6
Continuous
 62
     7
100
AcDbLine
 10
-382.0886840820313
 20
239.2185363769531
 30
0.0
 11
-377.3444519042969
 21
243.9627532958984
 31
0.0
  0
LINE
  5
1C8
330
22
100
AcDbEntity
  8
0
  6
Continuous
 62
     7
100
AcDbLine
 10
-398.4849243164063
 20
222.8222808837891
 30
0.0
 11
-394.4886169433594
 21
226.818603515625
 31
0.0
  0
LINE
  5
1C9
330
22
100
AcDbEntity
  8
0
  6
Continuous
 62
     7
100
AcDbLine
 10
-365.0744018554688
 20
254.818603515625
 30
0.0
 11
-364.3089904785156
 21
255.5840148925781
 31
0.0
  0
LINE
  5
1CA
330
22
100
AcDbEntity
  8
0
  6
Continuous
 62
     7
100
AcDbLine
 10
-382.3914184570313
 20
237.5015716552734
 30
0.0
 11
-377.6708068847656
 21
242.2221832275391
 31
0.0
  0
LINE
  5
1CB
330
22
100
AcDbEntity
  8
0
  6
Continuous
 62
     7
100
AcDbLine
 10
-397.0704345703125
 20
222.8225708007813
 30
0.0
 11
-393.0744018554688
 21
226.818603515625
 31
0.0
  0
LINE
  5
1CC
330
22
100
AcDbEntity
  8
0
  6
Continuous
 62
     7
100
AcDbLine
 10
-382.6183471679688
 20
235.8604431152344
 30
0.0
 11
-377.9971618652344
 21
240.4816131591797
 31
0.0
  0
LINE
  5
1CD
330
22
100
AcDbEntity
  8
0
  6
Continuous
 62
     7
100
AcDbLine
 10
-395.6559448242188
 20
222.8228454589844
 30
0.0
 11
-391.6601867675781
 21
226.818603515625
 31
0.0
  0
LINE
  5
1CE
330
22
100
AcDbEntity
  8
0
  6
Continuous
 62
     7
100
AcDbLine
 10
-382.6772766113281
 20
234.3873138427734
 30
0.0
 11
-378.3089904785156
 21
238.7555847167969
 31
0.0
  0
LINE
  5
1CF
330
22
100
AcDbEntity
  8
0
  6
Continuous
 62
     7
100
AcDbLine
 10
-394.241455078125
 20
222.8231353759766
 30
0.0
 11
-390.2459716796875
 21
226.818603515625
 31
0.0
  0
LINE
  5
1D0
330
22
100
AcDbEntity
  8
0
  6
Continuous
 62
     7
100
AcDbLine
 10
-382.7000122070313
 20
232.9503479003906
 30
0.0
 11
-378.3089904785156
 21
237.3413696289063
 31
0.0
  0
LINE
  5
1D1
330
22
100
AcDbEntity
  8
0
  6
Continuous
 62
     7
100
AcDbLine
 10
-392.8269348144531
 20
222.8234100341797
 30
0.0
 11
-388.8317565917969
 21
226.818603515625
 31
0.0
  0
LINE
  5
1D2
330
22
100
AcDbEntity
  8
0
  6
Continuous
 62
     7
100
AcDbLine
 10
-382.7000122070313
 20
231.5361328125
 30
0.0
 11
-378.3089904785156
 21
235.9271697998047
 31
0.0
  0
LINE
  5
1D3
330
22
100
AcDbEntity
  8
0
  6
Continuous
 62
     7
100
AcDbLine
 10
-391.4124450683594
 20
222.8236999511719
 30
0.0
 11
-387.4175415039063
 21
226.818603515625
 31
0.0
  0
LINE
  5
1D4
330
22
100
AcDbEntity
  8
0
  6
Continuous
 62
     7
100
AcDbLine
 10
-382.7000122070313
 20
230.1219177246094
 30
0.0
 11
-378.3089904785156
 21
234.5129547119141
 31
0.0
  0
LINE
  5
1D5
330
22
100
AcDbEntity
  8
0
  6
Continuous
 62
     7
100
AcDbLine
 10
-389.9979553222656
 20
222.8239898681641
 30
0.0
 11
-386.0033264160156
 21
226.818603515625
 31
0.0
  0
LINE
  5
1D6
330
22
100
AcDbEntity
  8
0
  6
Continuous
 62
     7
100
AcDbLine
 10
-382.7000122070313
 20
228.7077026367188
 30
0.0
 11
-378.3089904785156
 21
233.0987396240234
 31
0.0
  0
LINE
  5
1D7
330
22
100
AcDbEntity
  8
0
  6
Continuous
 62
     7
100
AcDbLine
 10
-388.5834655761719
 20
222.8242645263672
 30
0.0
 11
-384.589111328125
 21
226.818603515625
 31
0.0
  0
LINE
  5
1D8
330
22
100
AcDbEntity
  8
0
  6
Continuous
 62
     7
100
AcDbLine
 10
-382.7000122070313
 20
227.2934875488281
 30
0.0
 11
-378.3089904785156
 21
231.6845245361328
 31
0.0
  0
LINE
  5
1D9
330
22
100
AcDbEntity
  8
0
  6
Continuous
 62
     7
100
AcDbLine
 10
-387.1689453125
 20
222.8245544433594
 30
0.0
 11
-383.1748962402344
 21
226.818603515625
 31
0.0
  0
LINE
  5
1DA
330
22
100
AcDbEntity
  8
0
  6
Continuous
 62
     7
100
AcDbLine
 10
-385.7544555664063
 20
222.8248291015625
 30
0.0
 11
-378.3089904785156
 21
230.2703094482422
 31
0.0
  0
LINE
  5
1DB
330
22
100
AcDbEntity
  8
0
  6
Continuous
 62
     7
100
AcDbLine
 10
-384.3399658203125
 20
222.8251190185547
 30
0.0
 11
-378.3089904785156
 21
228.8560943603516
 31
0.0
  0
LINE
  5
1DC
330
22
100
AcDbEntity
  8
0
  6
Continuous
 62
     7
100
AcDbLine
 10
-382.9254760742188
 20
222.8253936767578
 30
0.0
 11
-378.3089904785156
 21
227.4418792724609
 31
0.0
  0
LINE
  5
1DD
330
22
100
AcDbEntity
  8
0
  6
Continuous
 62
     7
100
AcDbLine
 10
-382.7000122070313
 20
221.6366424560547
 30
0.0
 11
-378.3089904785156
 21
226.0276641845703
 31
0.0
  0
LINE
  5
1DE
330
22
100
AcDbEntity
  8
0
  6
Continuous
 62
     7
100
AcDbLine
 10
-382.7000122070313
 20
220.2224273681641
 30
0.0
 11
-378.3089904785156
 21
224.6134490966797
 31
0.0
  0
LINE
  5
1DF
330
22
100
AcDbEntity
  8
0
  6
Continuous
 62
     7
100
AcDbLine
 10
-382.7000122070313
 20
218.8082122802734
 30
0.0
 11
-378.3089904785156
 21
223.1992340087891
 31
0.0
  0
LINE
  5
1E0
330
22
100
AcDbEntity
  8
0
  6
Continuous
 62
     7
100
AcDbLine
 10
-382.7000122070313
 20
217.3939971923828
 30
0.0
 11
-378.3089904785156
 21
221.7850341796875
 31
0.0
  0
LINE
  5
1E1
330
22
100
AcDbEntity
  8
0
  6
Continuous
 62
     7
100
AcDbLine
 10
-382.7000122070313
 20
215.9797821044922
 30
0.0
 11
-378.3089904785156
 21
220.3708190917969
 31
0.0
  0
LINE
  5
1E2
330
22
100
AcDbEntity
  8
0
  6
Continuous
 62
     7
100
AcDbLine
 10
-382.7000122070313
 20
214.5655670166016
 30
0.0
 11
-378.3089904785156
 21
218.9566040039063
 31
0.0
  0
LINE
  5
1E3
330
22
100
AcDbEntity
  8
0
  6
Continuous
 62
     7
100
AcDbLine
 10
-382.7000122070313
 20
213.1513519287109
 30
0.0
 11
-378.3089904785156
 21
217.5423889160156
 31
0.0
  0
LINE
  5
1E4
330
22
100
AcDbEntity
  8
0
  6
Continuous
 62
     7
100
AcDbLine
 10
-382.7000122070313
 20
211.7371368408203
 30
0.0
 11
-378.3089904785156
 21
216.128173828125
 31
0.0
  0
LINE
  5
1E5
330
22
100
AcDbEntity
  8
0
  6
Continuous
 62
     7
100
AcDbLine
 10
-382.7000122070313
 20
210.3229370117188
 30
0.0
 11
-378.3089904785156
 21
214.7139587402344
 31
0.0
  0
LINE
  5
1E6
330
22
100
AcDbEntity
  8
0
  6
Continuous
 62
     7
100
AcDbLine
 10
-382.7000122070313
 20
208.9087219238281
 30
0.0
 11
-378.3089904785156
 21
213.2997436523438
 31
0.0
  0
LINE
  5
1E7
330
22
100
AcDbEntity
  8
0
  6
Continuous
 62
     7
100
AcDbLine
 10
-382.7000122070313
 20
207.4945068359375
 30
0.0
 11
-378.3089904785156
 21
211.8855285644531
 31
0.0
  0
LINE
  5
1E8
330
22
100
AcDbEntity
  8
0
  6
Continuous
 62
     7
100
AcDbLine
 10
-382.7000122070313
 20
206.0802917480469
 30
0.0
 11
-378.3089904785156
 21
210.4713134765625
 31
0.0
  0
LINE
  5
1E9
330
22
100
AcDbEntity
  8
0
  6
Continuous
 62
     7
100
AcDbLine
 10
-382.7000122070313
 20
204.6660766601563
 30
0.0
 11
-378.3089904785156
 21
209.0570983886719
 31
0.0
  0
LINE
  5
1EA
330
22
100
AcDbEntity
  8
0
  6
Continuous
 62
     7
100
AcDbLine
 10
-382.1332702636719
 20
203.818603515625
 30
0.0
 11
-378.3089904785156
 21
207.6428985595703
 31
0.0
  0
LINE
  5
1EB
330
22
100
AcDbEntity
  8
0
  6
Continuous
 62
     7
100
AcDbLine
 10
-380.7190551757813
 20
203.818603515625
 30
0.0
 11
-378.3089904785156
 21
206.2286834716797
 31
0.0
  0
LINE
  5
1EC
330
22
100
AcDbEntity
  8
0
  6
Continuous
 62
     7
100
AcDbLine
 10
-424.4444274902344
 20
255.9569091796875
 30
0.0
 11
-422.5827331542968
 21
257.818603515625
 31
0.0
  0
LINE
  5
1ED
330
22
100
AcDbEntity
  8
0
  6
Continuous
 62
     7
100
AcDbLine
 10
-422.3231201171874
 20
255.9569091796875
 30
0.0
 11
-420.4614257812499
 21
257.818603515625
 31
0.0
  0
LINE
  5
1EE
330
22
100
AcDbEntity
  8
0
  6
Continuous
 62
     7
100
AcDbLine
 10
-420.2017822265625
 20
255.9569091796875
 30
0.0
 11
-418.3400878906249
 21
257.818603515625
 31
0.0
  0
LINE
  5
1EF
330
22
100
AcDbEntity
  8
0
  6
Continuous
 62
     7
100
AcDbLine
 10
-418.8173522949218
 20
255.2200164794922
 30
0.0
 11
-416.2187805175781
 21
257.818603515625
 31
0.0
  0
LINE
  5
1F0
330
22
100
AcDbEntity
  8
0
  6
Continuous
 62
     7
100
AcDbLine
 10
-426.8089904785155
 20
247.2283935546875
 30
0.0
 11
-425.2187805175781
 21
248.818603515625
 31
0.0
  0
LINE
  5
1F1
330
22
100
AcDbEntity
  8
0
  6
Continuous
 62
     7
100
AcDbLine
 10
-418.8145446777343
 20
253.1015014648438
 30
0.0
 11
-414.0974426269531
 21
257.818603515625
 31
0.0
  0
LINE
  5
1F2
330
22
100
AcDbEntity
  8
0
  6
Continuous
 62
     7
100
AcDbLine
 10
-426.8089904785155
 20
245.1070861816406
 30
0.0
 11
-423.0974426269531
 21
248.818603515625
 31
0.0
  0
LINE
  5
1F3
330
22
100
AcDbEntity
  8
0
  6
Continuous
 62
     7
100
AcDbLine
 10
-418.8145446777343
 20
250.9801940917969
 30
0.0
 11
-411.9761352539063
 21
257.818603515625
 31
0.0
  0
LINE
  5
1F4
330
22
100
AcDbEntity
  8
0
  6
Continuous
 62
     7
100
AcDbLine
 10
-426.8089904785155
 20
242.9857635498047
 30
0.0
 11
-420.9761352539063
 21
248.818603515625
 31
0.0
  0
LINE
  5
1F5
330
22
100
AcDbEntity
  8
0
  6
Continuous
 62
     7
100
AcDbLine
 10
-418.8145446777343
 20
248.8588714599609
 30
0.0
 11
-409.8548278808594
 21
257.818603515625
 31
0.0
  0
LINE
  5
1F6
330
22
100
AcDbEntity
  8
0
  6
Continuous
 62
     7
100
AcDbLine
 10
-426.8089904785155
 20
240.8644409179689
 30
0.0
 11
-418.8548278808593
 21
248.818603515625
 31
0.0
  0
LINE
  5
1F7
330
22
100
AcDbEntity
  8
0
  6
Continuous
 62
     7
100
AcDbLine
 10
-419.0840454101563
 20
246.4680786132813
 30
0.0
 11
-407.7334899902344
 21
257.818603515625
 31
0.0
  0
LINE
  5
1F8
330
22
100
AcDbEntity
  8
0
  6
Continuous
 62
     7
100
AcDbLine
 10
-426.8089904785155
 20
238.7431182861328
 30
0.0
 11
-422.8145446777343
 21
242.737548828125
 31
0.0
  0
LINE
  5
1F9
330
22
100
AcDbEntity
  8
0
  6
Continuous
 62
     7
100
AcDbLine
 10
-416.9627075195313
 20
246.4680786132813
 30
0.0
 11
-407.1754760742187
 21
256.2553100585938
 31
0.0
  0
LINE
  5
1FA
330
22
100
AcDbEntity
  8
0
  6
Continuous
 62
     7
100
AcDbLine
 10
-426.8089904785155
 20
236.6217956542969
 30
0.0
 11
-422.8145446777343
 21
240.6162261962891
 31
0.0
  0
LINE
  5
1FB
330
22
100
AcDbEntity
  8
0
  6
Continuous
 62
     7
100
AcDbLine
 10
-414.8414001464844
 20
246.4680786132813
 30
0.0
 11
-407.8122253417968
 21
253.4972381591797
 31
0.0
  0
LINE
  5
1FC
330
22
100
AcDbEntity
  8
0
  6
Continuous
 62
     7
100
AcDbLine
 10
-426.8089904785155
 20
234.5004730224609
 30
0.0
 11
-422.8145446777343
 21
238.4949035644531
 31
0.0
  0
LINE
  5
1FD
330
22
100
AcDbEntity
  8
0
  6
Continuous
 62
     7
100
AcDbLine
 10
-410.3700561523438
 20
248.8180694580078
 30
0.0
 11
-408.4489746093749
 21
250.7391662597656
 31
0.0
  0
LINE
  5
1FE
330
22
100
AcDbEntity
  8
0
  6
Continuous
 62
     7
100
AcDbLine
 10
-413.0693664550781
 20
246.1187744140625
 30
0.0
 11
-410.8141479492187
 21
248.3739929199219
 31
0.0
  0
LINE
  5
1FF
330
22
100
AcDbEntity
  8
0
  6
Continuous
 62
     7
100
AcDbLine
 10
-426.8089904785155
 20
232.379150390625
 30
0.0
 11
-422.8145446777343
 21
236.3735809326172
 31
0.0
  0
LINE
  5
200
330
22
100
AcDbEntity
  8
0
  6
Continuous
 62
     7
100
AcDbLine
 10
-412.5674133300781
 20
244.4994049072266
 30
0.0
 11
-410.7481994628906
 21
246.318603515625
 31
0.0
  0
LINE
  5
201
330
22
100
AcDbEntity
  8
0
  6
Continuous
 62
     7
100
AcDbLine
 10
-426.8089904785155
 20
230.2578430175781
 30
0.0
 11
-422.8145446777343
 21
234.2522583007813
 31
0.0
  0
LINE
  5
202
330
22
100
AcDbEntity
  8
0
  6
Continuous
 62
     7
100
AcDbLine
 10
-411.1268920898438
 20
243.818603515625
 30
0.0
 11
-408.9141540527343
 21
246.0313415527344
 31
0.0
  0
LINE
  5
203
330
22
100
AcDbEntity
  8
0
  6
Continuous
 62
     7
100
AcDbLine
 10
-426.8089904785155
 20
228.1365203857422
 30
0.0
 11
-422.8145446777343
 21
232.1309509277344
 31
0.0
  0
LINE
  5
204
330
22
100
AcDbEntity
  8
0
  6
Continuous
 62
     7
100
AcDbLine
 10
-425.5055847167969
 20
227.318603515625
 30
0.0
 11
-422.8145446777343
 21
230.0096282958984
 31
0.0
  0
LINE
  5
205
330
22
100
AcDbEntity
  8
0
  6
Continuous
 62
     7
100
AcDbLine
 10
-426.8089904785155
 20
226.0151977539063
 30
0.0
 11
-425.5055847167969
 21
227.318603515625
 31
0.0
  0
LINE
  5
206
330
22
100
AcDbEntity
  8
0
  6
Continuous
 62
     7
100
AcDbLine
 10
-423.3842468261718
 20
227.318603515625
 30
0.0
 11
-422.8145446777343
 21
227.8883056640625
 31
0.0
  0
LINE
  5
207
330
22
100
AcDbEntity
  8
0
  6
Continuous
 62
     7
100
AcDbLine
 10
-426.8089904785155
 20
223.8938751220703
 30
0.0
 11
-423.3842468261718
 21
227.318603515625
 31
0.0
  0
LINE
  5
208
330
22
100
AcDbEntity
  8
0
  6
Continuous
 62
     7
100
AcDbLine
 10
-424.762939453125
 20
223.818603515625
 30
0.0
 11
-421.262939453125
 21
227.318603515625
 31
0.0
  0
LINE
  5
209
330
22
100
AcDbEntity
  8
0
  6
Continuous
 62
     7
100
AcDbLine
 10
-422.6416015625
 20
223.818603515625
 30
0.0
 11
-420.8145446777344
 21
225.6456604003906
 31
0.0
  0
LINE
  5
20A
330
22
100
AcDbEntity
  8
0
  6
Continuous
 62
     7
100
AcDbLine
 10
-424.5449829101563
 20
256.9170227050781
 30
0.0
 11
-423.6629638671875
 21
257.7990417480469
 31
0.0
  0
LINE
  5
20B
330
22
100
AcDbEntity
  8
0
  6
Continuous
 62
     7
100
AcDbLine
 10
-423.3837585449219
 20
255.9569091796875
 30
0.0
 11
-421.5220642089843
 21
257.818603515625
 31
0.0
  0
LINE
  5
20C
330
22
100
AcDbEntity
  8
0
  6
Continuous
 62
     7
100
AcDbLine
 10
-421.2624511718749
 20
255.9569091796875
 30
0.0
 11
-419.4007568359374
 21
257.818603515625
 31
0.0
  0
LINE
  5
20D
330
22
100
AcDbEntity
  8
0
  6
Continuous
 62
     7
100
AcDbLine
 10
-419.1411437988281
 20
255.9569091796875
 30
0.0
 11
-417.2794494628906
 21
257.818603515625
 31
0.0
  0
LINE
  5
20E
330
22
100
AcDbEntity
  8
0
  6
Continuous
 62
     7
100
AcDbLine
 10
-426.8089904785155
 20
248.2890625
 30
0.0
 11
-426.2794494628906
 21
248.818603515625
 31
0.0
  0
LINE
  5
20F
330
22
100
AcDbEntity
  8
0
  6
Continuous
 62
     7
100
AcDbLine
 10
-418.8145446777343
 20
254.1621704101563
 30
0.0
 11
-415.1581115722656
 21
257.818603515625
 31
0.0
  0
LINE
  5
210
330
22
100
AcDbEntity
  8
0
  6
Continuous
 62
     7
100
AcDbLine
 10
-426.8089904785155
 20
246.1677398681641
 30
0.0
 11
-424.1581115722656
 21
248.818603515625
 31
0.0
  0
LINE
  5
211
330
22
100
AcDbEntity
  8
0
  6
Continuous
 62
     7
100
AcDbLine
 10
-418.8145446777343
 20
252.0408477783203
 30
0.0
 11
-413.0368041992188
 21
257.818603515625
 31
0.0
  0
LINE
  5
212
330
22
100
AcDbEntity
  8
0
  6
Continuous
 62
     7
100
AcDbLine
 10
-426.8089904785155
 20
244.0464172363281
 30
0.0
 11
-422.0368041992188
 21
248.818603515625
 31
0.0
  0
LINE
  5
213
330
22
100
AcDbEntity
  8
0
  6
Continuous
 62
     7
100
AcDbLine
 10
-418.8145446777343
 20
249.9195251464844
 30
0.0
 11
-410.9154663085938
 21
257.818603515625
 31
0.0
  0
LINE
  5
214
330
22
100
AcDbEntity
  8
0
  6
Continuous
 62
     7
100
AcDbLine
 10
-426.8089904785155
 20
241.9250946044922
 30
0.0
 11
-419.9154663085938
 21
248.818603515625
 31
0.0
  0
LINE
  5
215
330
22
100
AcDbEntity
  8
0
  6
Continuous
 62
     7
100
AcDbLine
 10
-420.1807556152344
 20
246.4320068359375
 30
0.0
 11
-408.7941589355469
 21
257.818603515625
 31
0.0
  0
LINE
  5
216
330
22
100
AcDbEntity
  8
0
  6
Continuous
 62
     7
100
AcDbLine
 10
-426.8089904785155
 20
239.8037719726563
 30
0.0
 11
-422.7785034179688
 21
243.8342742919922
 31
0.0
  0
LINE
  5
217
330
22
100
AcDbEntity
  8
0
  6
Continuous
 62
     7
100
AcDbLine
 10
-418.0233764648438
 20
246.4680786132813
 30
0.0
 11
-406.9885864257813
 21
257.5028381347656
 31
0.0
  0
LINE
  5
218
330
22
100
AcDbEntity
  8
0
  6
Continuous
 62
     7
100
AcDbLine
 10
-426.8089904785155
 20
237.6824645996094
 30
0.0
 11
-422.8145446777343
 21
241.6768798828125
 31
0.0
  0
LINE
  5
219
330
22
100
AcDbEntity
  8
0
  6
Continuous
 62
     7
100
AcDbLine
 10
-415.9020385742188
 20
246.4680786132813
 30
0.0
 11
-407.4938354492187
 21
254.8762817382813
 31
0.0
  0
LINE
  5
21A
330
22
100
AcDbEntity
  8
0
  6
Continuous
 62
     7
100
AcDbLine
 10
-426.8089904785155
 20
235.5611419677734
 30
0.0
 11
-422.8145446777343
 21
239.5555725097656
 31
0.0
  0
LINE
  5
21B
330
22
100
AcDbEntity
  8
0
  6
Continuous
 62
     7
100
AcDbLine
 10
-413.7862854003905
 20
246.4625244140625
 30
0.0
 11
-408.1305847167969
 21
252.1182098388672
 31
0.0
  0
LINE
  5
21C
330
22
100
AcDbEntity
  8
0
  6
Continuous
 62
     7
100
AcDbLine
 10
-426.8089904785155
 20
233.4398193359375
 30
0.0
 11
-422.8145446777343
 21
237.4342498779297
 31
0.0
  0
LINE
  5
21D
330
22
100
AcDbEntity
  8
0
  6
Continuous
 62
     7
100
AcDbLine
 10
-409.3094177246094
 20
248.8180694580078
 30
0.0
 11
-408.7673645019531
 21
249.3601379394531
 31
0.0
  0
LINE
  5
21E
330
22
100
AcDbEntity
  8
0
  6
Continuous
 62
     7
100
AcDbLine
 10
-412.8140869140625
 20
245.3134002685547
 30
0.0
 11
-410.8141479492187
 21
247.3133239746094
 31
0.0
  0
LINE
  5
21F
330
22
100
AcDbEntity
  8
0
  6
Continuous
 62
     7
100
AcDbLine
 10
-426.8089904785155
 20
231.3184967041016
 30
0.0
 11
-422.8145446777343
 21
235.3129272460938
 31
0.0
  0
LINE
  5
220
330
22
100
AcDbEntity
  8
0
  6
Continuous
 62
     7
100
AcDbLine
 10
-412.0088500976563
 20
243.997314453125
 30
0.0
 11
-409.6875610351562
 21
246.318603515625
 31
0.0
  0
LINE
  5
221
330
22
100
AcDbEntity
  8
0
  6
Continuous
 62
     7
100
AcDbLine
 10
-426.8089904785155
 20
229.1971740722656
 30
0.0
 11
-422.8145446777343
 21
233.1916046142578
 31
0.0
  0
LINE
  5
222
330
22
100
AcDbEntity
  8
0
  6
Continuous
 62
     7
100
AcDbLine
 10
-410.0662231445313
 20
243.818603515625
 30
0.0
 11
-408.9141540527343
 21
244.9706878662109
 31
0.0
  0
LINE
  5
223
330
22
100
AcDbEntity
  8
0
  6
Continuous
 62
     7
100
AcDbLine
 10
-426.5662231445313
 20
227.318603515625
 30
0.0
 11
-422.8145446777343
 21
231.0702819824219
 31
0.0
  0
LINE
  5
224
330
22
100
AcDbEntity
  8
0
  6
Continuous
 62
     7
100
AcDbLine
 10
-426.8089904785155
 20
227.0758514404297
 30
0.0
 11
-426.5662231445313
 21
227.318603515625
 31
0.0
  0
LINE
  5
225
330
22
100
AcDbEntity
  8
0
  6
Continuous
 62
     7
100
AcDbLine
 10
-424.4449157714844
 20
227.318603515625
 30
0.0
 11
-422.8145446777343
 21
228.9489593505859
 31
0.0
  0
LINE
  5
226
330
22
100
AcDbEntity
  8
0
  6
Continuous
 62
     7
100
AcDbLine
 10
-426.8089904785155
 20
224.9545440673828
 30
0.0
 11
-424.4449157714844
 21
227.318603515625
 31
0.0
  0
LINE
  5
227
330
22
100
AcDbEntity
  8
0
  6
Continuous
 62
     7
100
AcDbLine
 10
-425.8235778808593
 20
223.818603515625
 30
0.0
 11
-422.3235778808593
 21
227.318603515625
 31
0.0
  0
LINE
  5
228
330
22
100
AcDbEntity
  8
0
  6
Continuous
 62
     7
100
AcDbLine
 10
-423.7022705078125
 20
223.818603515625
 30
0.0
 11
-420.8145446777344
 21
226.7063293457031
 31
0.0
  0
LINE
  5
229
330
22
100
AcDbEntity
  8
0
  6
Continuous
 62
     7
100
AcDbLine
 10
-421.5809631347656
 20
223.818603515625
 30
0.0
 11
-420.8145446777344
 21
224.5850067138672
 31
0.0
  0
LINE
  5
22A
330
22
100
AcDbEntity
  8
0
  6
Continuous
 62
     7
100
AcDbLine
 10
-378.8089904785156
 20
257.818603515625
 30
0.0
 11
-382.6000061035156
 21
236.318603515625
 31
0.0
  0
LINE
  5
22B
330
22
100
AcDbEntity
  8
0
  6
Continuous
 62
     7
100
AcDbLine
 10
-380.2453002929688
 20
257.818603515625
 30
0.0
 11
-379.0242919921875
 21
256.5975952148438
 31
0.0
  0
LINE
  5
22C
330
22
100
AcDbEntity
  8
0
  6
Continuous
 62
     7
100
AcDbLine
 10
-380.5988464355469
 20
257.818603515625
 30
0.0
 11
-379.0772705078125
 21
256.2970275878906
 31
0.0
  0
LINE
  5
22D
330
22
100
AcDbEntity
  8
0
  6
Continuous
 62
     7
100
AcDbLine
 10
-381.6595153808594
 20
257.818603515625
 30
0.0
 11
-379.2362670898438
 21
255.3953704833984
 31
0.0
  0
LINE
  5
22E
330
22
100
AcDbEntity
  8
0
  6
Continuous
 62
     7
100
AcDbLine
 10
-382.0130615234375
 20
257.818603515625
 30
0.0
 11
-379.2892761230469
 21
255.0948028564453
 31
0.0
  0
LINE
  5
22F
330
22
100
AcDbEntity
  8
0
  6
Continuous
 62
     7
100
AcDbLine
 10
-383.07373046875
 20
257.818603515625
 30
0.0
 11
-379.4482421875
 21
254.1931304931641
 31
0.0
  0
LINE
  5
230
330
22
100
AcDbEntity
  8
0
  6
Continuous
 62
     7
100
AcDbLine
 10
-383.4272766113281
 20
257.818603515625
 30
0.0
 11
-379.5012512207031
 21
253.892578125
 31
0.0
  0
LINE
  5
231
330
22
100
AcDbEntity
  8
0
  6
Continuous
 62
     7
100
AcDbLine
 10
-384.4879455566406
 20
257.818603515625
 30
0.0
 11
-379.6602478027344
 21
252.9909057617188
 31
0.0
  0
LINE
  5
232
330
22
100
AcDbEntity
  8
0
  6
Continuous
 62
     7
100
AcDbLine
 10
-384.8414916992188
 20
257.818603515625
 30
0.0
 11
-379.7132263183594
 21
252.6903533935547
 31
0.0
  0
LINE
  5
233
330
22
100
AcDbEntity
  8
0
  6
Continuous
 62
     7
100
AcDbLine
 10
-385.9021606445313
 20
257.818603515625
 30
0.0
 11
-379.8722229003906
 21
251.7886810302734
 31
0.0
  0
LINE
  5
234
330
22
100
AcDbEntity
  8
0
  6
Continuous
 62
     7
100
AcDbLine
 10
-386.2557067871094
 20
257.818603515625
 30
0.0
 11
-379.9252319335938
 21
251.4881286621094
 31
0.0
  0
LINE
  5
235
330
22
100
AcDbEntity
  8
0
  6
Continuous
 62
     7
100
AcDbLine
 10
-387.3163757324219
 20
257.818603515625
 30
0.0
 11
-380.0841979980469
 21
250.5864562988281
 31
0.0
  0
LINE
  5
236
330
22
100
AcDbEntity
  8
0
  6
Continuous
 62
     7
100
AcDbLine
 10
-387.669921875
 20
257.818603515625
 30
0.0
 11
-380.13720703125
 21
250.285888671875
 31
0.0
  0
LINE
  5
237
330
22
100
AcDbEntity
  8
0
  6
Continuous
 62
     7
100
AcDbLine
 10
-388.7305908203125
 20
257.818603515625
 30
0.0
 11
-380.2962036132813
 21
249.3842163085938
 31
0.0
  0
LINE
  5
238
330
22
100
AcDbEntity
  8
0
  6
Continuous
 62
     7
100
AcDbLine
 10
-389.0841369628906
 20
257.818603515625
 30
0.0
 11
-380.3491821289063
 21
249.0836639404297
 31
0.0
  0
LINE
  5
239
330
22
100
AcDbEntity
  8
0
  6
Continuous
 62
     7
100
AcDbLine
 10
-390.1448059082031
 20
257.818603515625
 30
0.0
 11
-380.5081787109375
 21
248.1819915771484
 31
0.0
  0
LINE
  5
23A
330
22
100
AcDbEntity
  8
0
  6
Continuous
 62
     7
100
AcDbLine
 10
-390.4983520507813
 20
257.818603515625
 30
0.0
 11
-380.5611877441407
 21
247.8814392089844
 31
0.0
  0
LINE
  5
23B
330
22
100
AcDbEntity
  8
0
  6
Continuous
 62
     7
100
AcDbLine
 10
-391.5590209960938
 20
257.818603515625
 30
0.0
 11
-380.7201538085938
 21
246.9797668457031
 31
0.0
  0
LINE
  5
23C
330
22
100
AcDbEntity
  8
0
  6
Continuous
 62
     7
100
AcDbLine
 10
-391.9125671386719
 20
257.818603515625
 30
0.0
 11
-380.7731628417969
 21
246.6792144775391
 31
0.0
  0
LINE
  5
23D
330
22
100
AcDbEntity
  8
0
  6
Continuous
 62
     7
100
AcDbLine
 10
-392.9732360839844
 20
257.818603515625
 30
0.0
 11
-380.9321594238281
 21
245.7775421142578
 31
0.0
  0
LINE
  5
23E
330
22
100
AcDbEntity
  8
0
  6
Continuous
 62
     7
100
AcDbLine
 10
-387.8657836914063
 20
252.3576049804688
 30
0.0
 11
-380.9851379394531
 21
245.4769744873047
 31
0.0
  0
LINE
  5
23F
330
22
100
AcDbEntity
  8
0
  6
Continuous
 62
     7
100
AcDbLine
 10
-393.3267822265625
 20
257.818603515625
 30
0.0
 11
-388.8558349609375
 21
253.3476867675781
 31
0.0
  0
LINE
  5
240
330
22
100
AcDbEntity
  8
0
  6
Continuous
 62
     7
100
AcDbLine
 10
-387.7191162109375
 20
251.1502838134766
 30
0.0
 11
-381.1441345214844
 21
244.5753021240234
 31
0.0
  0
LINE
  5
241
330
22
100
AcDbEntity
  8
0
  6
Continuous
 62
     7
100
AcDbLine
 10
-394.3874206542969
 20
257.818603515625
 30
0.0
 11
-390.00244140625
 21
253.4336090087891
 31
0.0
  0
LINE
  5
242
330
22
100
AcDbEntity
  8
0
  6
Continuous
 62
     7
100
AcDbLine
 10
-387.6877746582031
 20
250.7653961181641
 30
0.0
 11
-381.1971435546875
 21
244.2747497558594
 31
0.0
  0
LINE
  5
243
330
22
100
AcDbEntity
  8
0
  6
Continuous
 62
     7
100
AcDbLine
 10
-394.7409973144531
 20
257.818603515625
 30
0.0
 11
-390.3559875488281
 21
253.4336090087891
 31
0.0
  0
LINE
  5
244
330
22
100
AcDbEntity
  8
0
  6
Continuous
 62
     7
100
AcDbLine
 10
-387.5937805175781
 20
249.6107482910156
 30
0.0
 11
-381.3561096191406
 21
243.3730773925781
 31
0.0
  0
LINE
  5
245
330
22
100
AcDbEntity
  8
0
  6
Continuous
 62
     7
100
AcDbLine
 10
-395.8016357421875
 20
257.818603515625
 30
0.0
 11
-391.4166564941406
 21
253.4336090087891
 31
0.0
  0
LINE
  5
246
330
22
100
AcDbEntity
  8
0
  6
Continuous
 62
     7
100
AcDbLine
 10
-387.5624694824219
 20
249.2258758544922
 30
0.0
 11
-381.4091186523438
 21
243.0725250244141
 31
0.0
  0
LINE
  5
247
330
22
100
AcDbEntity
  8
0
  6
Continuous
 62
     7
100
AcDbLine
 10
-396.1552124023438
 20
257.818603515625
 30
0.0
 11
-391.7702026367188
 21
253.4336090087891
 31
0.0
  0
LINE
  5
248
330
22
100
AcDbEntity
  8
0
  6
Continuous
 62
     7
100
AcDbLine
 10
-387.4684753417969
 20
248.0712280273438
 30
0.0
 11
-381.568115234375
 21
242.1708526611328
 31
0.0
  0
LINE
  5
249
330
22
100
AcDbEntity
  8
0
  6
Continuous
 62
     7
100
AcDbLine
 10
-397.2158508300781
 20
257.818603515625
 30
0.0
 11
-392.8308715820313
 21
253.4336090087891
 31
0.0
  0
LINE
  5
24A
330
22
100
AcDbEntity
  8
0
  6
Continuous
 62
     7
100
AcDbLine
 10
-387.4371643066406
 20
247.6863555908203
 30
0.0
 11
-381.62109375
 21
241.8703002929688
 31
0.0
  0
LINE
  5
24B
330
22
100
AcDbEntity
  8
0
  6
Continuous
 62
     7
100
AcDbLine
 10
-397.5694274902344
 20
257.818603515625
 30
0.0
 11
-393.1844177246094
 21
253.4336090087891
 31
0.0
  0
LINE
  5
24C
330
22
100
AcDbEntity
  8
0
  6
Continuous
 62
     7
100
AcDbLine
 10
-387.3431701660156
 20
246.5317077636719
 30
0.0
 11
-381.7800903320313
 21
240.9686279296875
 31
0.0
  0
LINE
  5
24D
330
22
100
AcDbEntity
  8
0
  6
Continuous
 62
     7
100
AcDbLine
 10
-398.6300659179688
 20
257.818603515625
 30
0.0
 11
-394.2450866699219
 21
253.4336090087891
 31
0.0
  0
LINE
  5
24E
330
22
100
AcDbEntity
  8
0
  6
Continuous
 62
     7
100
AcDbLine
 10
-387.3118591308594
 20
246.1468200683594
 30
0.0
 11
-381.8330993652344
 21
240.6680603027344
 31
0.0
  0
LINE
  5
24F
330
22
100
AcDbEntity
  8
0
  6
Continuous
 62
     7
100
AcDbLine
 10
-398.983642578125
 20
257.818603515625
 30
0.0
 11
-394.5986328125
 21
253.4336090087891
 31
0.0
  0
LINE
  5
250
330
22
100
AcDbEntity
  8
0
  6
Continuous
 62
     7
100
AcDbLine
 10
-387.2178649902344
 20
244.9921875
 30
0.0
 11
-381.9920654296875
 21
239.7664031982422
 31
0.0
  0
LINE
  5
251
330
22
100
AcDbEntity
  8
0
  6
Continuous
 62
     7
100
AcDbLine
 10
-400.0442810058594
 20
257.818603515625
 30
0.0
 11
-395.6593017578125
 21
253.4336090087891
 31
0.0
  0
LINE
  5
252
330
22
100
AcDbEntity
  8
0
  6
Continuous
 62
     7
100
AcDbLine
 10
-387.1865234375
 20
244.6072998046875
 30
0.0
 11
-382.0450744628906
 21
239.4658355712891
 31
0.0
  0
LINE
  5
253
330
22
100
AcDbEntity
  8
0
  6
Continuous
 62
     7
100
AcDbLine
 10
-400.3978576660156
 20
257.818603515625
 30
0.0
 11
-396.0128479003906
 21
253.4336090087891
 31
0.0
  0
LINE
  5
254
330
22
100
AcDbEntity
  8
0
  6
Continuous
 62
     7
100
AcDbLine
 10
-387.0925598144531
 20
243.4526672363281
 30
0.0
 11
-382.2040710449219
 21
238.5641632080078
 31
0.0
  0
LINE
  5
255
330
22
100
AcDbEntity
  8
0
  6
Continuous
 62
     7
100
AcDbLine
 10
-401.45849609375
 20
257.818603515625
 30
0.0
 11
-397.0735168457031
 21
253.4336090087891
 31
0.0
  0
LINE
  5
256
330
22
100
AcDbEntity
  8
0
  6
Continuous
 62
     7
100
AcDbLine
 10
-387.0612182617188
 20
243.0677795410156
 30
0.0
 11
-382.2570495605469
 21
238.2636108398438
 31
0.0
  0
LINE
  5
257
330
22
100
AcDbEntity
  8
0
  6
Continuous
 62
     7
100
AcDbLine
 10
-401.812042236328
 20
257.818603515625
 30
0.0
 11
-397.4270629882813
 21
253.4336090087891
 31
0.0
  0
LINE
  5
258
330
22
100
AcDbEntity
  8
0
  6
Continuous
 62
     7
100
AcDbLine
 10
-386.9672546386719
 20
241.9131317138672
 30
0.0
 11
-382.4160461425781
 21
237.3619384765625
 31
0.0
  0
LINE
  5
259
330
22
100
AcDbEntity
  8
0
  6
Continuous
 62
     7
100
AcDbLine
 10
-402.8727111816406
 20
257.818603515625
 30
0.0
 11
-398.4877014160156
 21
253.4336090087891
 31
0.0
  0
LINE
  5
25A
330
22
100
AcDbEntity
  8
0
  6
Continuous
 62
     7
100
AcDbLine
 10
-386.9359130859375
 20
241.5282592773438
 30
0.0
 11
-382.4690551757813
 21
237.0613861083984
 31
0.0
  0
LINE
  5
25B
330
22
100
AcDbEntity
  8
0
  6
Continuous
 62
     7
100
AcDbLine
 10
-403.2262573242188
 20
257.818603515625
 30
0.0
 11
-398.8412780761719
 21
253.4336090087891
 31
0.0
  0
LINE
  5
25C
330
22
100
AcDbEntity
  8
0
  6
Continuous
 62
     7
100
AcDbLine
 10
-386.8419189453125
 20
240.3736114501953
 30
0.0
 11
-382.7869262695313
 21
236.318603515625
 31
0.0
  0
LINE
  5
25D
330
22
100
AcDbEntity
  8
0
  6
Continuous
 62
     7
100
AcDbLine
 10
-404.2869262695313
 20
257.818603515625
 30
0.0
 11
-399.9019165039063
 21
253.4336090087891
 31
0.0
  0
LINE
  5
25E
330
22
100
AcDbEntity
  8
0
  6
Continuous
 62
     7
100
AcDbLine
 10
-386.8106079101563
 20
239.9887390136719
 30
0.0
 11
-383.1404724121094
 21
236.318603515625
 31
0.0
  0
LINE
  5
25F
330
22
100
AcDbEntity
  8
0
  6
Continuous
 62
     7
100
AcDbLine
 10
-404.6404724121093
 20
257.818603515625
 30
0.0
 11
-400.2554931640625
 21
253.4336090087891
 31
0.0
  0
LINE
  5
260
330
22
100
AcDbEntity
  8
0
  6
Continuous
 62
     7
100
AcDbLine
 10
-386.7166137695313
 20
238.8340911865234
 30
0.0
 11
-384.2011413574219
 21
236.318603515625
 31
0.0
  0
LINE
  5
261
330
22
100
AcDbEntity
  8
0
  6
Continuous
 62
     7
100
AcDbLine
 10
-405.7011413574218
 20
257.818603515625
 30
0.0
 11
-401.3161315917968
 21
253.4336090087891
 31
0.0
  0
LINE
  5
262
330
22
100
AcDbEntity
  8
0
  6
Continuous
 62
     7
100
AcDbLine
 10
-386.685302734375
 20
238.4492034912109
 30
0.0
 11
-384.5546875
 21
236.318603515625
 31
0.0
  0
LINE
  5
263
330
22
100
AcDbEntity
  8
0
  6
Continuous
 62
     7
100
AcDbLine
 10
-406.0546875
 20
257.818603515625
 30
0.0
 11
-401.6697082519531
 21
253.4336090087891
 31
0.0
  0
LINE
  5
264
330
22
100
AcDbEntity
  8
0
  6
Continuous
 62
     7
100
AcDbLine
 10
-383.1153564453125
 20
233.818603515625
 30
0.0
 11
-382.7000122070313
 21
233.4032592773438
 31
0.0
  0
LINE
  5
265
330
22
100
AcDbEntity
  8
0
  6
Continuous
 62
     7
100
AcDbLine
 10
-386.59130859375
 20
237.2945709228516
 30
0.0
 11
-384.6000061035156
 21
235.3032684326172
 31
0.0
  0
LINE
  5
266
330
22
100
AcDbEntity
  8
0
  6
Continuous
 62
     7
100
AcDbLine
 10
-406.8499145507812
 20
257.5531616210938
 30
0.0
 11
-402.7303466796874
 21
253.4336090087891
 31
0.0
  0
LINE
  5
267
330
22
100
AcDbEntity
  8
0
  6
Continuous
 62
     7
100
AcDbLine
 10
-383.4689025878906
 20
233.818603515625
 30
0.0
 11
-382.7000122070313
 21
233.0497131347656
 31
0.0
  0
LINE
  5
268
330
22
100
AcDbEntity
  8
0
  6
Continuous
 62
     7
100
AcDbLine
 10
-386.5599975585938
 20
236.9096832275391
 30
0.0
 11
-384.6000061035156
 21
234.94970703125
 31
0.0
  0
LINE
  5
269
330
22
100
AcDbEntity
  8
0
  6
Continuous
 62
     7
100
AcDbLine
 10
-406.9455261230468
 20
257.2952270507813
 30
0.0
 11
-403.0839233398437
 21
253.4336090087891
 31
0.0
  0
LINE
  5
26A
330
22
100
AcDbEntity
  8
0
  6
Continuous
 62
     7
100
AcDbLine
 10
-384.5295715332031
 20
233.818603515625
 30
0.0
 11
-382.7000122070313
 21
231.9890594482422
 31
0.0
  0
LINE
  5
26B
330
22
100
AcDbEntity
  8
0
  6
Continuous
 62
     7
100
AcDbLine
 10
-386.4660034179688
 20
235.7550354003906
 30
0.0
 11
-384.6000061035156
 21
233.8890533447266
 31
0.0
  0
LINE
  5
26C
330
22
100
AcDbEntity
  8
0
  6
Continuous
 62
     7
100
AcDbLine
 10
-407.1362304687499
 20
256.4252624511719
 30
0.0
 11
-403.9993896484374
 21
253.2884368896484
 31
0.0
  0
LINE
  5
26D
330
22
100
AcDbEntity
  8
0
  6
Continuous
 62
     7
100
AcDbLine
 10
-386.4346618652344
 20
235.3701629638672
 30
0.0
 11
-382.7000122070313
 21
231.635498046875
 31
0.0
  0
LINE
  5
26E
330
22
100
AcDbEntity
  8
0
  6
Continuous
 62
     7
100
AcDbLine
 10
-407.2025451660156
 20
256.1380310058595
 30
0.0
 11
-404.2312622070313
 21
253.1667327880859
 31
0.0
  0
LINE
  5
26F
330
22
100
AcDbEntity
  8
0
  6
Continuous
 62
     7
100
AcDbLine
 10
-386.3406982421875
 20
234.2155151367188
 30
0.0
 11
-382.7000122070313
 21
230.5748443603516
 31
0.0
  0
LINE
  5
270
330
22
100
AcDbEntity
  8
0
  6
Continuous
 62
     7
100
AcDbLine
 10
-407.4014892578125
 20
255.2763214111328
 30
0.0
 11
-404.7428588867187
 21
252.6176910400391
 31
0.0
  0
LINE
  5
271
330
22
100
AcDbEntity
  8
0
  6
Continuous
 62
     7
100
AcDbLine
 10
-386.3093566894531
 20
233.8306427001953
 30
0.0
 11
-382.7000122070313
 21
230.2212829589844
 31
0.0
  0
LINE
  5
272
330
22
100
AcDbEntity
  8
0
  6
Continuous
 62
     7
100
AcDbLine
 10
-407.467803955078
 20
254.9890747070314
 30
0.0
 11
-404.8268737792969
 21
252.3481292724609
 31
0.0
  0
LINE
  5
273
330
22
100
AcDbEntity
  8
0
  6
Continuous
 62
     7
100
AcDbLine
 10
-386.2153930664063
 20
232.6759948730469
 30
0.0
 11
-382.7000122070313
 21
229.1606292724609
 31
0.0
  0
LINE
  5
274
330
22
100
AcDbEntity
  8
0
  6
Continuous
 62
     7
100
AcDbLine
 10
-407.6667480468749
 20
254.1273651123047
 30
0.0
 11
-404.9633789062499
 21
251.4239959716797
 31
0.0
  0
LINE
  5
275
330
22
100
AcDbEntity
  8
0
  6
Continuous
 62
     7
100
AcDbLine
 10
-386.1840515136719
 20
232.2911071777344
 30
0.0
 11
-382.7000122070313
 21
228.8070678710938
 31
0.0
  0
LINE
  5
276
330
22
100
AcDbEntity
  8
0
  6
Continuous
 62
     7
100
AcDbLine
 10
-407.7330627441406
 20
253.8401184082031
 30
0.0
 11
-404.9908752441406
 21
251.0979309082031
 31
0.0
  0
LINE
  5
277
330
22
100
AcDbEntity
  8
0
  6
Continuous
 62
     7
100
AcDbLine
 10
-386.090087890625
 20
231.136474609375
 30
0.0
 11
-382.8897399902344
 21
227.9361419677734
 31
0.0
  0
LINE
  5
278
330
22
100
AcDbEntity
  8
0
  6
Continuous
 62
     7
100
AcDbLine
 10
-407.9320068359375
 20
252.9784088134766
 30
0.0
 11
-405.0733642578125
 21
250.1197662353516
 31
0.0
  0
LINE
  5
279
330
22
100
AcDbEntity
  8
0
  6
Continuous
 62
     7
100
AcDbLine
 10
-386.0587463378906
 20
230.7515869140625
 30
0.0
 11
-383.1380920410156
 21
227.8309326171875
 31
0.0
  0
LINE
  5
27A
330
22
100
AcDbEntity
  8
0
  6
Continuous
 62
     7
100
AcDbLine
 10
-407.9983215332031
 20
252.691162109375
 30
0.0
 11
-405.1008605957031
 21
249.793701171875
 31
0.0
  0
LINE
  5
27B
330
22
100
AcDbEntity
  8
0
  6
Continuous
 62
     7
100
AcDbLine
 10
-385.9647521972656
 20
229.5969543457031
 30
0.0
 11
-384.1864318847656
 21
227.818603515625
 31
0.0
  0
LINE
  5
27C
330
22
100
AcDbEntity
  8
0
  6
Continuous
 62
     7
100
AcDbLine
 10
-408.197265625
 20
251.8294525146484
 30
0.0
 11
-405.183349609375
 21
248.8155364990234
 31
0.0
  0
LINE
  5
27D
330
22
100
AcDbEntity
  8
0
  6
Continuous
 62
     7
100
AcDbLine
 10
-385.9334411621094
 20
229.2120666503906
 30
0.0
 11
-384.5399780273438
 21
227.818603515625
 31
0.0
  0
LINE
  5
27E
330
22
100
AcDbEntity
  8
0
  6
Continuous
 62
     7
100
AcDbLine
 10
-408.2635803222656
 20
251.5422058105469
 30
0.0
 11
-405.2108459472655
 21
248.4894714355469
 31
0.0
  0
LINE
  5
27F
330
22
100
AcDbEntity
  8
0
  6
Continuous
 62
     7
100
AcDbLine
 10
-385.8266296386719
 20
228.0445861816406
 30
0.0
 11
-385.6006469726563
 21
227.818603515625
 31
0.0
  0
LINE
  5
280
330
22
100
AcDbEntity
  8
0
  6
Continuous
 62
     7
100
AcDbLine
 10
-408.4625244140625
 20
250.6804962158203
 30
0.0
 11
-405.2933349609374
 21
247.5112915039063
 31
0.0
  0
LINE
  5
281
330
22
100
AcDbEntity
  8
0
  6
Continuous
 62
     7
100
AcDbLine
 10
-408.5288391113281
 20
250.3932495117188
 30
0.0
 11
-405.3208312988281
 21
247.1852416992188
 31
0.0
  0
LINE
  5
282
330
22
100
AcDbEntity
  8
0
  6
Continuous
 62
     7
100
AcDbLine
 10
-408.727783203125
 20
249.5315399169922
 30
0.0
 11
-405.4033203124999
 21
246.2070617675781
 31
0.0
  0
LINE
  5
283
330
22
100
AcDbEntity
  8
0
  6
Continuous
 62
     7
100
AcDbLine
 10
-408.7940979003906
 20
249.2442932128906
 30
0.0
 11
-405.4308166503906
 21
245.8810119628906
 31
0.0
  0
LINE
  5
284
330
22
100
AcDbEntity
  8
0
  6
Continuous
 62
     7
100
AcDbLine
 10
-408.8159484863281
 20
248.2055053710938
 30
0.0
 11
-405.5133056640625
 21
244.90283203125
 31
0.0
  0
LINE
  5
285
330
22
100
AcDbEntity
  8
0
  6
Continuous
 62
     7
100
AcDbLine
 10
-408.8159484863281
 20
247.8519592285156
 30
0.0
 11
-405.5408020019531
 21
244.5767822265625
 31
0.0
  0
LINE
  5
286
330
22
100
AcDbEntity
  8
0
  6
Continuous
 62
     7
100
AcDbLine
 10
-408.8159484863281
 20
246.7912902832031
 30
0.0
 11
-405.6232604980468
 21
243.5986022949219
 31
0.0
  0
LINE
  5
287
330
22
100
AcDbEntity
  8
0
  6
Continuous
 62
     7
100
AcDbLine
 10
-408.8159484863281
 20
246.437744140625
 30
0.0
 11
-405.6507568359375
 21
243.2725524902344
 31
0.0
  0
LINE
  5
288
330
22
100
AcDbEntity
  8
0
  6
Continuous
 62
     7
100
AcDbLine
 10
-408.8159484863281
 20
245.3770751953125
 30
0.0
 11
-405.7332458496094
 21
242.2943725585938
 31
0.0
  0
LINE
  5
289
330
22
100
AcDbEntity
  8
0
  6
Continuous
 62
     7
100
AcDbLine
 10
-408.8159484863281
 20
245.0235290527344
 30
0.0
 11
-405.7607421874999
 21
241.9683074951172
 31
0.0
  0
LINE
  5
28A
330
22
100
AcDbEntity
  8
0
  6
Continuous
 62
     7
100
AcDbLine
 10
-408.8159484863281
 20
243.9628601074219
 30
0.0
 11
-405.9270324707031
 21
241.0739440917969
 31
0.0
  0
LINE
  5
28B
330
22
100
AcDbEntity
  8
0
  6
Continuous
 62
     7
100
AcDbLine
 10
-408.8159484863281
 20
243.6093139648438
 30
0.0
 11
-406.0453796386719
 21
240.8387298583984
 31
0.0
  0
LINE
  5
28C
330
22
100
AcDbEntity
  8
0
  6
Continuous
 62
     7
100
AcDbLine
 10
-409.0859069824218
 20
242.818603515625
 30
0.0
 11
-406.5332336425781
 21
240.2659149169922
 31
0.0
  0
LINE
  5
28D
330
22
100
AcDbEntity
  8
0
  6
Continuous
 62
     7
100
AcDbLine
 10
-409.4394836425781
 20
242.818603515625
 30
0.0
 11
-406.7408752441406
 21
240.1199951171875
 31
0.0
  0
LINE
  5
28E
330
22
100
AcDbEntity
  8
0
  6
Continuous
 62
     7
100
AcDbLine
 10
-410.5001220703124
 20
242.818603515625
 30
0.0
 11
-407.5260620117187
 21
239.8445434570313
 31
0.0
  0
LINE
  5
28F
330
22
100
AcDbEntity
  8
0
  6
Continuous
 62
     7
100
AcDbLine
 10
-410.7345581054688
 20
242.6994781494141
 30
0.0
 11
-407.8536987304688
 21
239.818603515625
 31
0.0
  0
LINE
  5
290
330
22
100
AcDbEntity
  8
0
  6
Continuous
 62
     7
100
AcDbLine
 10
-410.7345581054688
 20
241.6388244628906
 30
0.0
 11
-408.914337158203
 21
239.818603515625
 31
0.0
  0
LINE
  5
291
330
22
100
AcDbEntity
  8
0
  6
Continuous
 62
     7
100
AcDbLine
 10
-410.7345581054688
 20
241.2852630615234
 30
0.0
 11
-409.2679138183593
 21
239.818603515625
 31
0.0
  0
LINE
  5
292
330
22
100
AcDbEntity
  8
0
  6
Continuous
 62
     7
100
AcDbLine
 10
-410.7345581054688
 20
240.224609375
 30
0.0
 11
-410.3285522460938
 21
239.818603515625
 31
0.0
  0
LINE
  5
293
330
22
100
AcDbEntity
  8
0
  6
Continuous
 62
     7
100
AcDbLine
 10
-410.7345581054688
 20
239.8710479736328
 30
0.0
 11
-410.68212890625
 21
239.818603515625
 31
0.0
  0
LINE
  5
294
330
22
100
AcDbEntity
  8
0
  6
Continuous
 62
     7
100
AcDbLine
 10
-420.3996276855468
 20
242.818603515625
 30
0.0
 11
-419.5345458984375
 21
241.9535369873047
 31
0.0
  0
LINE
  5
295
330
22
100
AcDbEntity
  8
0
  6
Continuous
 62
     7
100
AcDbLine
 10
-420.7531738281249
 20
242.818603515625
 30
0.0
 11
-419.5345458984375
 21
241.5999908447266
 31
0.0
  0
LINE
  5
296
330
22
100
AcDbEntity
  8
0
  6
Continuous
 62
     7
100
AcDbLine
 10
-421.8138427734374
 20
242.818603515625
 30
0.0
 11
-419.5345458984375
 21
240.5393218994141
 31
0.0
  0
LINE
  5
297
330
22
100
AcDbEntity
  8
0
  6
Continuous
 62
     7
100
AcDbLine
 10
-422.0345458984374
 20
242.6857757568359
 30
0.0
 11
-419.5345458984375
 21
240.1857757568359
 31
0.0
  0
LINE
  5
298
330
22
100
AcDbEntity
  8
0
  6
Continuous
 62
     7
100
AcDbLine
 10
-422.0345458984374
 20
241.6251068115234
 30
0.0
 11
-420.0579223632812
 21
239.6484832763672
 31
0.0
  0
LINE
  5
299
330
22
100
AcDbEntity
  8
0
  6
Continuous
 62
     7
100
AcDbLine
 10
-422.0345458984374
 20
241.2715606689453
 30
0.0
 11
-420.2604980468749
 21
239.4975128173828
 31
0.0
  0
LINE
  5
29A
330
22
100
AcDbEntity
  8
0
  6
Continuous
 62
     7
100
AcDbLine
 10
-422.0345458984374
 20
240.2108917236328
 30
0.0
 11
-420.5475769042968
 21
238.7239227294922
 31
0.0
  0
LINE
  5
29B
330
22
100
AcDbEntity
  8
0
  6
Continuous
 62
     7
100
AcDbLine
 10
-422.0345458984374
 20
239.8573455810547
 30
0.0
 11
-420.6658935546874
 21
238.4886932373047
 31
0.0
  0
LINE
  5
29C
330
22
100
AcDbEntity
  8
0
  6
Continuous
 62
     7
100
AcDbLine
 10
-422.0345458984374
 20
238.7966766357422
 30
0.0
 11
-421.5564880371093
 21
238.318603515625
 31
0.0
  0
LINE
  5
29D
330
22
100
AcDbEntity
  8
0
  6
Continuous
 62
     7
100
AcDbLine
 10
-426.8089904785155
 20
257.818603515625
 30
0.0
 11
-366.8089904785156
 21
257.818603515625
 31
0.0
  0
LINE
  5
29E
330
22
100
AcDbEntity
  8
0
  6
Continuous
 62
     7
100
AcDbLine
 10
-406.9559631347656
 20
257.2061462402345
 30
0.0
 11
-408.8159484863281
 21
249.1495666503906
 31
0.0
  0
LINE
  5
29F
330
22
100
AcDbEntity
  8
0
  6
Continuous
 62
     7
100
AcDbLine
 10
-364.3089904785156
 20
257.568603515625
 30
0.0
 11
-364.3089904785156
 21
254.818603515625
 31
0.0
  0
LINE
  5
2A0
330
22
100
AcDbEntity
  8
0
  6
Continuous
 62
     7
100
AcDbLine
 10
-477.3089904785156
 20
208.818603515625
 30
0.0
 11
-477.3089904785156
 21
238.6327362060547
 31
0.0
  0
LINE
  5
2A1
330
22
100
AcDbEntity
  8
0
  6
Continuous
 62
     7
100
AcDbLine
 10
-475.3089904785156
 20
204.818603515625
 30
0.0
 11
-475.3089904785156
 21
238.818603515625
 31
0.0
  0
LINE
  5
2A2
330
22
100
AcDbEntity
  8
0
  6
Continuous
 62
     7
100
AcDbLine
 10
-475.3089904785156
 20
238.818603515625
 30
0.0
 11
-432.8089904785156
 21
238.818603515625
 31
0.0
  0
LINE
  5
2A3
330
22
100
AcDbEntity
  8
0
  6
Continuous
 62
     7
100
AcDbLine
 10
-469.5067749023437
 20
192.2899169921875
 30
0.0
 11
-426.8089904785155
 21
192.2899169921875
 31
0.0
  0
LINE
  5
2A4
330
22
100
AcDbEntity
  8
0
  6
Continuous
 62
     7
100
AcDbLine
 10
-469.2589721679688
 20
170.818603515625
 30
0.0
 11
-426.8089904785155
 21
170.818603515625
 31
0.0
  0
LINE
  5
2A5
330
22
100
AcDbEntity
  8
0
  6
Continuous
 62
     7
100
AcDbLine
 10
-473.3089904785156
 20
140.818603515625
 30
0.0
 11
-426.8089904785155
 21
140.818603515625
 31
0.0
  0
LINE
  5
2A6
330
22
100
AcDbEntity
  8
0
  6
Continuous
 62
     7
100
AcDbLine
 10
-479.3089904785156
 20
105.8186111450195
 30
0.0
 11
-426.8089904785155
 21
105.8186111450195
 31
0.0
  0
LINE
  5
2A7
330
22
100
AcDbEntity
  8
0
  6
Continuous
 62
     7
100
AcDbLine
 10
-476.3089904785156
 20
102.3186111450195
 30
0.0
 11
-426.8089904785155
 21
102.3186111450195
 31
0.0
  0
LINE
  5
2A8
330
22
100
AcDbEntity
  8
0
  6
Continuous
 62
     7
100
AcDbLine
 10
-474.3089904785156
 20
66.81861114501953
 30
0.0
 11
-379.3089904785156
 21
66.81861114501953
 31
0.0
  0
LINE
  5
2A9
330
22
100
AcDbEntity
  8
0
  6
Continuous
 62
     7
100
AcDbLine
 10
-475.3089904785156
 20
204.818603515625
 30
0.0
 11
-426.8089904785155
 21
204.818603515625
 31
0.0
  0
LINE
  5
2AA
330
22
100
AcDbEntity
  8
0
  6
Continuous
 62
     7
100
AcDbLine
 10
-488.0589904785156
 20
258.818603515625
 30
0.0
 11
-365.5589904785156
 21
258.818603515625
 31
0.0
  0
LINE
  5
2AB
330
22
100
AcDbEntity
  8
0
  6
Continuous
 62
     7
100
AcDbLine
 10
-489.3089904785155
 20
254.818603515625
 30
0.0
 11
-426.8089904785155
 21
254.818603515625
 31
0.0
  0
LINE
  5
2AC
330
22
100
AcDbEntity
  8
0
  6
Continuous
 62
     7
100
AcDbLine
 10
-474.3089904785156
 20
203.818603515625
 30
0.0
 11
-426.8089904785155
 21
203.818603515625
 31
0.0
  0
LINE
  5
2AD
330
22
100
AcDbEntity
  8
0
  6
Continuous
 62
     7
100
AcDbLine
 10
-432.8089904785156
 20
254.818603515625
 30
0.0
 11
-432.8089904785156
 21
206.818603515625
 31
0.0
  0
LINE
  5
2AE
330
22
100
AcDbEntity
  8
0
  6
Continuous
 62
     7
100
AcDbLine
 10
-432.8089904785156
 20
208.818603515625
 30
0.0
 11
-426.8089904785155
 21
208.818603515625
 31
0.0
  0
LINE
  5
2AF
330
22
100
AcDbEntity
  8
0
  6
Continuous
 62
     7
100
AcDbLine
 10
-432.8089904785156
 20
206.818603515625
 30
0.0
 11
-426.8089904785155
 21
206.818603515625
 31
0.0
  0
CIRCLE
  5
2B0
330
22
100
AcDbEntity
  8
0
  6
Continuous
 62
     7
100
AcDbCircle
 10
-426.8089904785155
 20
432.318603515625
 30
0.0
 40
62.5
  0
CIRCLE
  5
2B1
330
22
100
AcDbEntity
  8
0
  6
Continuous
 62
     7
100
AcDbCircle
 10
-426.8089904785155
 20
432.318603515625
 30
0.0
 40
60.0
  0
CIRCLE
  5
2B2
330
22
100
AcDbEntity
  8
0
  6
Continuous
 62
     7
100
AcDbCircle
 10
-426.8089904785155
 20
432.318603515625
 30
0.0
 40
48.0
  0
CIRCLE
  5
2B3
330
22
100
AcDbEntity
  8
0
  6
Continuous
 62
     7
100
AcDbCircle
 10
-426.8089904785155
 20
432.318603515625
 30
0.0
 40
97.5
  0
CIRCLE
  5
2B4
330
22
100
AcDbEntity
  8
0
  6
Continuous
 62
     7
100
AcDbCircle
 10
-426.8089904785155
 20
432.318603515625
 30
0.0
 40
81.25240325927734
  0
ARC
  5
2B5
330
22
100
AcDbEntity
  8
0
  6
Continuous
 62
     7
100
AcDbCircle
 10
-426.8089904785155
 20
432.318603515625
 30
0.0
 40
4.449999809265136
100
AcDbArc
 50
213.4053052279186
 51
326.5946947720828
  0
ARC
  5
2B6
330
22
100
AcDbEntity
  8
0
  6
Continuous
 62
     7
100
AcDbCircle
 10
-426.8089904785155
 20
432.318603515625
 30
0.0
 40
4.449999809265136
100
AcDbArc
 50
33.40563324174365
 51
146.5943667582564
  0
CIRCLE
  5
2B7
330
22
100
AcDbEntity
  8
0
  6
Continuous
 62
     7
100
AcDbCircle
 10
-426.8089904785155
 20
432.318603515625
 30
0.0
 40
20.0
  0
ARC
  5
2B8
330
22
100
AcDbEntity
  8
0
  6
Continuous
 62
     7
100
AcDbCircle
 10
-383.2000122070313
 20
228.318603515625
 30
0.0
 40
0.5
100
AcDbArc
 50
270.0000000000005
 51
0.0
  0
ARC
  5
2B9
330
22
100
AcDbEntity
  8
0
  6
Continuous
 62
     7
100
AcDbCircle
 10
-374.2715759277344
 20
253.568603515625
 30
0.0
 40
1.25
100
AcDbArc
 50
90.00000000000019
 51
169.3801728640468
  0
ARC
  5
2BA
330
22
100
AcDbEntity
  8
0
  6
Continuous
 62
     7
100
AcDbCircle
 10
-409.4141540527344
 20
244.318603515625
 30
0.0
 40
0.5
100
AcDbArc
 50
270.0000000000005
 51
0.0
  0
ARC
  5
2BB
330
22
100
AcDbEntity
  8
0
  6
Continuous
 62
     7
100
AcDbCircle
 10
-389.2878112792969
 20
251.9336090087891
 30
0.0
 40
1.5
100
AcDbArc
 50
4.653284038258425
 51
90.00000000000019
  0
CIRCLE
  5
2BC
330
22
100
AcDbEntity
  8
0
  6
Continuous
 62
     7
100
AcDbCircle
 10
-409.8141479492188
 20
247.5186157226563
 30
0.0
 40
1.0
  0
ARC
  5
2BD
330
22
100
AcDbEntity
  8
0
  6
Continuous
 62
     7
100
AcDbCircle
 10
-403.415069580078
 20
251.9336090087891
 30
0.0
 40
1.5
100
AcDbArc
 50
90.00000000000019
 51
175.1801155747829
  0
ARC
  5
2BE
330
22
100
AcDbEntity
  8
0
  6
Continuous
 62
     7
100
AcDbCircle
 10
-413.8141479492188
 20
245.4680786132813
 30
0.0
 40
1.0
100
AcDbArc
 50
0.0
 51
90.00000000000019
  0
ARC
  5
2BF
330
22
100
AcDbEntity
  8
0
  6
Continuous
 62
     7
100
AcDbCircle
 10
-407.7804870605469
 20
241.818603515625
 30
0.0
 40
2.0
100
AcDbArc
 50
270.0000000000005
 51
355.1802362825551
  0
CIRCLE
  5
2C0
330
22
100
AcDbEntity
  8
0
  6
Continuous
 62
     7
100
AcDbCircle
 10
-383.6000061035156
 20
235.068603515625
 30
0.0
 40
1.0
  0
ARC
  5
2C1
330
22
100
AcDbEntity
  8
0
  6
Continuous
 62
     7
100
AcDbCircle
 10
-419.8145446777344
 20
243.4680786132813
 30
0.0
 40
3.0
100
AcDbArc
 50
90.00000000000019
 51
180.0000000000004
  0
ARC
  5
2C2
330
22
100
AcDbEntity
  8
0
  6
Continuous
 62
     7
100
AcDbCircle
 10
-411.3141479492187
 20
245.318603515625
 30
0.0
 40
1.5
100
AcDbArc
 50
180.0000000000004
 51
270.0000000000005
  0
ARC
  5
2C3
330
22
100
AcDbEntity
  8
0
  6
Continuous
 62
     7
100
AcDbCircle
 10
-419.5345458984375
 20
238.818603515625
 30
0.0
 40
1.0
100
AcDbArc
 50
90.00000000000019
 51
180.0000000000004
  0
ARC
  5
2C4
330
22
100
AcDbEntity
  8
0
  6
Continuous
 62
     7
100
AcDbCircle
 10
-421.0345458984375
 20
238.818603515625
 30
0.0
 40
0.5
100
AcDbArc
 50
270.0000000000005
 51
0.0
  0
ARC
  5
2C5
330
22
100
AcDbEntity
  8
0
  6
Continuous
 62
     7
100
AcDbCircle
 10
-380.3089904785156
 20
139.818603515625
 30
0.0
 40
1.0
100
AcDbArc
 50
0.0
 51
90.00000000000019
  0
ARC
  5
2C6
330
22
100
AcDbEntity
  8
0
  6
Continuous
 62
     7
100
AcDbCircle
 10
-374.3089904785156
 20
110.8186111450195
 30
0.0
 40
5.0
100
AcDbArc
 50
180.0000000000004
 51
270.0000000000005
  0
ARC
  5
2C7
330
22
100
AcDbEntity
  8
0
  6
Continuous
 62
     7
100
AcDbCircle
 10
-377.3089904785156
 20
101.3186111450195
 30
0.0
 40
1.0
100
AcDbArc
 50
90.00000000000019
 51
180.0000000000004
  0
ARC
  5
2C8
330
22
100
AcDbEntity
  8
0
  6
Continuous
 62
     7
100
AcDbCircle
 10
-329.8089904785156
 20
102.8186111450195
 30
0.0
 40
0.5
100
AcDbArc
 50
270.0000000000005
 51
0.0
  0
ARC
  5
2C9
330
22
100
AcDbEntity
  8
0
  6
Continuous
 62
     7
100
AcDbCircle
 10
-331.3089904785156
 20
103.8186111450195
 30
0.0
 40
2.0
100
AcDbArc
 50
0.0
 51
90.00000000000019
  0
ARC
  5
2CA
330
22
100
AcDbEntity
  8
0
  6
Continuous
 62
     7
100
AcDbCircle
 10
-379.3089904785156
 20
67.81861114501953
 30
0.0
 40
1.0
100
AcDbArc
 50
270.0000000000005
 51
0.0
  0
ARC
  5
2CB
330
22
100
AcDbEntity
  8
0
  6
Continuous
 62
     7
100
AcDbCircle
 10
-523.8089599609375
 20
102.8186111450195
 30
0.0
 40
0.5
100
AcDbArc
 50
180.0000000000004
 51
270.0000000000005
  0
ARC
  5
2CC
330
22
100
AcDbEntity
  8
0
  6
Continuous
 62
     7
100
AcDbCircle
 10
-496.1071472167969
 20
82.74833679199218
 30
0.0
 40
17.0
100
AcDbArc
 50
8.696034862492508
 51
72.23180593384426
  0
ARC
  5
2CD
330
22
100
AcDbEntity
  8
0
  6
Continuous
 62
     7
100
AcDbCircle
 10
-477.3089904785156
 20
84.31861114501954
 30
0.0
 40
2.0
100
AcDbArc
 50
180.0000000000004
 51
270.0000000000005
  0
ARC
  5
2CE
330
22
100
AcDbEntity
  8
0
  6
Continuous
 62
     7
100
AcDbCircle
 10
-474.3089904785156
 20
67.81861114501953
 30
0.0
 40
1.0
100
AcDbArc
 50
180.0000000000004
 51
270.0000000000005
  0
ARC
  5
2CF
330
22
100
AcDbEntity
  8
0
  6
Continuous
 62
     7
100
AcDbCircle
 10
-473.3089904785156
 20
139.818603515625
 30
0.0
 40
1.0
100
AcDbArc
 50
90.00000000000019
 51
180.0000000000004
  0
ARC
  5
2D0
330
22
100
AcDbEntity
  8
0
  6
Continuous
 62
     7
100
AcDbCircle
 10
-476.3089904785156
 20
101.3186111450195
 30
0.0
 40
1.0
100
AcDbArc
 50
0.0
 51
90.00000000000019
  0
ARC
  5
2D1
330
22
100
AcDbEntity
  8
0
  6
Continuous
 62
     7
100
AcDbCircle
 10
-479.3089904785156
 20
110.8186111450195
 30
0.0
 40
5.0
100
AcDbArc
 50
270.0000000000005
 51
0.0
  0
ARC
  5
2D2
330
22
100
AcDbEntity
  8
0
  6
Continuous
 62
     7
100
AcDbCircle
 10
-490.3089904785156
 20
100.8420181274414
 30
0.0
 40
2.0
100
AcDbArc
 50
180.0000000000004
 51
252.232113442842
  0
ARC
  5
2D3
330
22
100
AcDbEntity
  8
0
  6
Continuous
 62
     7
100
AcDbCircle
 10
-522.3089599609375
 20
103.8186111450195
 30
0.0
 40
2.0
100
AcDbArc
 50
90.00000000000019
 51
180.0000000000004
  0
ARC
  5
2D4
330
22
100
AcDbEntity
  8
0
  6
Continuous
 62
     7
100
AcDbCircle
 10
-488.0589904785156
 20
257.568603515625
 30
0.0
 40
1.25
100
AcDbArc
 50
90.00000000000019
 51
180.0000000000004
  0
ARC
  5
2D5
330
22
100
AcDbEntity
  8
0
  6
Continuous
 62
     7
100
AcDbCircle
 10
-423.5645446777343
 20
256.818603515625
 30
0.0
 40
1.0
100
AcDbArc
 50
90.00000000000019
 51
180.0000000000004
  0
ARC
  5
2D6
330
22
100
AcDbEntity
  8
0
  6
Continuous
 62
     7
100
AcDbCircle
 10
-365.5589904785156
 20
257.568603515625
 30
0.0
 40
1.25
100
AcDbArc
 50
0.0
 51
168.4629178846625
  0
ARC
  5
2D7
330
22
100
AcDbEntity
  8
0
  6
Continuous
 62
     7
100
AcDbCircle
 10
-379.4048461914063
 20
257.318603515625
 30
0.0
 40
0.5
100
AcDbArc
 50
350.0001234095527
 51
90.00000000000019
  0
ARC
  5
2D8
330
22
100
AcDbEntity
  8
0
  6
Continuous
 62
     7
100
AcDbCircle
 10
-406.4168395996094
 20
257.318603515625
 30
0.0
 40
0.5
100
AcDbArc
 50
90.00000000000019
 51
166.9985682107812
  0
ARC
  5
2D9
330
22
100
AcDbEntity
  8
0
  6
Continuous
 62
     7
100
AcDbCircle
 10
-407.4431457519531
 20
257.318603515625
 30
0.0
 40
0.5
100
AcDbArc
 50
347.0019756626547
 51
90.00000000000019
  0
TEXT
  5
2DA
330
22
100
AcDbEntity
  8
0
  6
Continuous
 62
     7
100
AcDbText
 10
-355.8570184707642
 20
47.66949081420897
 30
0.0
 40
7.0
  1
ＤＬ－ＣＨ－８０
 41
0.8454512837995997
100
AcDbText
  0
SOLID
  5
2DB
330
22
100
AcDbEntity
  8
0
  6
Continuous
 62
     7
100
AcDbTrace
 10
-409.7540283203125
 20
246.5204162597656
 30
0.0
 11
-409.9499206542969
 21
246.5278625488281
 31
0.0
 12
-409.7073669433593
 22
246.5278625488281
 32
0.0
 13
-409.7073669433593
 23
246.5278625488281
 33
0.0
  0
SOLID
  5
2DC
330
22
100
AcDbEntity
  8
0
  6
Continuous
 62
     7
100
AcDbTrace
 10
-409.6783752441406
 20
248.5093536376953
 30
0.0
 11
-409.9209289550781
 21
248.5093536376953
 31
0.0
 12
-409.874267578125
 22
248.5167999267578
 32
0.0
 13
-409.874267578125
 23
248.5167999267578
 33
0.0
  0
SOLID
  5
2DD
330
22
100
AcDbEntity
  8
0
  6
Continuous
 62
     7
100
AcDbTrace
 10
-409.5801391601563
 20
248.4858856201172
 30
0.0
 11
-410.06787109375
 21
248.4858856201172
 31
0.0
 12
-409.6783752441406
 22
248.5093536376953
 32
0.0
 13
-409.9209289550781
 23
248.5093536376953
 33
0.0
  0
SOLID
  5
2DE
330
22
100
AcDbEntity
  8
0
  6
Continuous
 62
     7
100
AcDbTrace
 10
-409.4877014160156
 20
248.4638214111328
 30
0.0
 11
-410.1274414062499
 21
248.4638214111328
 31
0.0
 12
-409.5801391601563
 22
248.4858856201172
 32
0.0
 13
-410.06787109375
 23
248.4858856201172
 33
0.0
  0
SOLID
  5
2DF
330
22
100
AcDbEntity
  8
0
  6
Continuous
 62
     7
100
AcDbTrace
 10
-409.3875732421874
 20
248.4178009033203
 30
0.0
 11
-410.2517089843749
 21
248.4178009033203
 31
0.0
 12
-409.4877014160156
 22
248.4638214111328
 32
0.0
 13
-410.1274414062499
 23
248.4638214111328
 33
0.0
  0
SOLID
  5
2E0
330
22
100
AcDbEntity
  8
0
  6
Continuous
 62
     7
100
AcDbTrace
 10
-409.3095703124999
 20
248.3819732666016
 30
0.0
 11
-410.3099975585938
 21
248.3819732666016
 31
0.0
 12
-409.3875732421874
 22
248.4178009033203
 32
0.0
 13
-410.2517089843749
 23
248.4178009033203
 33
0.0
  0
SOLID
  5
2E1
330
22
100
AcDbEntity
  8
0
  6
Continuous
 62
     7
100
AcDbTrace
 10
-409.2173767089843
 20
248.3151702880859
 30
0.0
 11
-410.418701171875
 21
248.3151702880859
 31
0.0
 12
-409.3095703124999
 22
248.3819732666016
 32
0.0
 13
-410.3099975585938
 23
248.3819732666016
 33
0.0
  0
SOLID
  5
2E2
330
22
100
AcDbEntity
  8
0
  6
Continuous
 62
     7
100
AcDbTrace
 10
-409.1508483886718
 20
248.2669525146484
 30
0.0
 11
-410.470733642578
 21
248.2669525146484
 31
0.0
 12
-409.2173767089843
 22
248.3151702880859
 32
0.0
 13
-410.418701171875
 23
248.3151702880859
 33
0.0
  0
SOLID
  5
2E3
330
22
100
AcDbEntity
  8
0
  6
Continuous
 62
     7
100
AcDbTrace
 10
-409.0720520019531
 20
248.1819152832031
 30
0.0
 11
-410.5624999999999
 21
248.1819152832031
 31
0.0
 12
-409.1508483886718
 22
248.2669525146484
 32
0.0
 13
-410.470733642578
 23
248.2669525146484
 33
0.0
  0
SOLID
  5
2E4
330
22
100
AcDbEntity
  8
0
  6
Continuous
 62
     7
100
AcDbTrace
 10
-409.017578125
 20
248.1231689453125
 30
0.0
 11
-410.6050720214843
 21
248.1231689453125
 31
0.0
 12
-409.0720520019531
 22
248.1819152832031
 32
0.0
 13
-410.5624999999999
 23
248.1819152832031
 33
0.0
  0
SOLID
  5
2E5
330
22
100
AcDbEntity
  8
0
  6
Continuous
 62
     7
100
AcDbTrace
 10
-408.9561462402343
 20
248.0231781005859
 30
0.0
 11
-410.6775207519531
 21
248.0231781005859
 31
0.0
 12
-409.017578125
 22
248.1231689453125
 32
0.0
 13
-410.6050720214843
 23
248.1231689453125
 33
0.0
  0
SOLID
  5
2E6
330
22
100
AcDbEntity
  8
0
  6
Continuous
 62
     7
100
AcDbTrace
 10
-408.9149475097656
 20
247.9561462402344
 30
0.0
 11
-410.7083129882813
 21
247.9561462402344
 31
0.0
 12
-408.9561462402343
 22
248.0231781005859
 32
0.0
 13
-410.6775207519531
 23
248.0231781005859
 33
0.0
  0
SOLID
  5
2E7
330
22
100
AcDbEntity
  8
0
  6
Continuous
 62
     7
100
AcDbTrace
 10
-408.873809814453
 20
247.8450469970703
 30
0.0
 11
-410.7593688964843
 21
247.8450469970703
 31
0.0
 12
-408.9149475097656
 22
247.9561462402344
 32
0.0
 13
-410.7083129882813
 23
247.9561462402344
 33
0.0
  0
SOLID
  5
2E8
330
22
100
AcDbEntity
  8
0
  6
Continuous
 62
     7
100
AcDbTrace
 10
-408.8468627929688
 20
247.7723236083984
 30
0.0
 11
-410.7767333984375
 21
247.7723236083984
 31
0.0
 12
-408.873809814453
 22
247.8450469970703
 32
0.0
 13
-410.7593688964843
 23
247.8450469970703
 33
0.0
  0
SOLID
  5
2E9
330
22
100
AcDbEntity
  8
0
  6
Continuous
 62
     7
100
AcDbTrace
 10
-408.8280334472655
 20
247.6543731689453
 30
0.0
 11
-410.8049011230468
 21
247.6543731689453
 31
0.0
 12
-408.8468627929688
 22
247.7723236083984
 32
0.0
 13
-410.7767333984375
 23
247.7723236083984
 33
0.0
  0
SOLID
  5
2EA
330
22
100
AcDbEntity
  8
0
  6
Continuous
 62
     7
100
AcDbTrace
 10
-408.8159484863281
 20
247.5787353515625
 30
0.0
 11
-410.8077697753905
 21
247.5787353515625
 31
0.0
 12
-408.8280334472655
 22
247.6543731689453
 32
0.0
 13
-410.8049011230468
 23
247.6543731689453
 33
0.0
  0
SOLID
  5
2EB
330
22
100
AcDbEntity
  8
0
  6
Continuous
 62
     7
100
AcDbTrace
 10
-408.8159484863281
 20
247.4584808349609
 30
0.0
 11
-410.8123474121093
 21
247.4584808349609
 31
0.0
 12
-408.8159484863281
 22
247.5787353515625
 32
0.0
 13
-410.8077697753905
 23
247.5787353515625
 33
0.0
  0
SOLID
  5
2EC
330
22
100
AcDbEntity
  8
0
  6
Continuous
 62
     7
100
AcDbTrace
 10
-408.8234252929687
 20
247.3828430175781
 30
0.0
 11
-410.8002624511718
 21
247.3828430175781
 31
0.0
 12
-408.8159484863281
 22
247.4584808349609
 32
0.0
 13
-410.8123474121093
 23
247.4584808349609
 33
0.0
  0
SOLID
  5
2ED
330
22
100
AcDbEntity
  8
0
  6
Continuous
 62
     7
100
AcDbTrace
 10
-408.8515625
 20
247.2649078369141
 30
0.0
 11
-410.7814331054687
 21
247.2649078369141
 31
0.0
 12
-408.8234252929687
 22
247.3828430175781
 32
0.0
 13
-410.8002624511718
 23
247.3828430175781
 33
0.0
  0
SOLID
  5
2EE
330
22
100
AcDbEntity
  8
0
  6
Continuous
 62
     7
100
AcDbTrace
 10
-408.8689270019531
 20
247.1921691894531
 30
0.0
 11
-410.7544860839843
 21
247.1921691894531
 31
0.0
 12
-408.8515625
 22
247.2649078369141
 32
0.0
 13
-410.7814331054687
 23
247.2649078369141
 33
0.0
  0
SOLID
  5
2EF
330
22
100
AcDbEntity
  8
0
  6
Continuous
 62
     7
100
AcDbTrace
 10
-408.9199829101563
 20
247.0810699462891
 30
0.0
 11
-410.7133483886718
 21
247.0810699462891
 31
0.0
 12
-408.8689270019531
 22
247.1921691894531
 32
0.0
 13
-410.7544860839843
 23
247.1921691894531
 33
0.0
  0
SOLID
  5
2F0
330
22
100
AcDbEntity
  8
0
  6
Continuous
 62
     7
100
AcDbTrace
 10
-408.9507751464843
 20
247.0140380859375
 30
0.0
 11
-410.672149658203
 21
247.0140380859375
 31
0.0
 12
-408.9199829101563
 22
247.0810699462891
 32
0.0
 13
-410.7133483886718
 23
247.0810699462891
 33
0.0
  0
SOLID
  5
2F1
330
22
100
AcDbEntity
  8
0
  6
Continuous
 62
     7
100
AcDbTrace
 10
-409.0232238769531
 20
246.9140472412109
 30
0.0
 11
-410.6107177734375
 21
246.9140472412109
 31
0.0
 12
-408.9507751464843
 22
247.0140380859375
 32
0.0
 13
-410.672149658203
 23
247.0140380859375
 33
0.0
  0
SOLID
  5
2F2
330
22
100
AcDbEntity
  8
0
  6
Continuous
 62
     7
100
AcDbTrace
 10
-409.0657958984374
 20
246.8553009033203
 30
0.0
 11
-410.5562744140625
 21
246.8553009033203
 31
0.0
 12
-409.0232238769531
 22
246.9140472412109
 32
0.0
 13
-410.6107177734375
 23
246.9140472412109
 33
0.0
  0
SOLID
  5
2F3
330
22
100
AcDbEntity
  8
0
  6
Continuous
 62
     7
100
AcDbTrace
 10
-409.1575622558593
 20
246.770263671875
 30
0.0
 11
-410.4774780273437
 21
246.770263671875
 31
0.0
 12
-409.0657958984374
 22
246.8553009033203
 32
0.0
 13
-410.5562744140625
 23
246.8553009033203
 33
0.0
  0
SOLID
  5
2F4
330
22
100
AcDbEntity
  8
0
  6
Continuous
 62
     7
100
AcDbTrace
 10
-409.2095947265624
 20
246.7220458984375
 30
0.0
 11
-410.4109191894531
 21
246.7220458984375
 31
0.0
 12
-409.1575622558593
 22
246.770263671875
 32
0.0
 13
-410.4774780273437
 23
246.770263671875
 33
0.0
  0
SOLID
  5
2F5
330
22
100
AcDbEntity
  8
0
  6
Continuous
 62
     7
100
AcDbTrace
 10
-409.3182983398437
 20
246.6552429199219
 30
0.0
 11
-410.3187255859374
 21
246.6552429199219
 31
0.0
 12
-409.2095947265624
 22
246.7220458984375
 32
0.0
 13
-410.4109191894531
 23
246.7220458984375
 33
0.0
  0
SOLID
  5
2F6
330
22
100
AcDbEntity
  8
0
  6
Continuous
 62
     7
100
AcDbTrace
 10
-409.3766174316406
 20
246.6194152832031
 30
0.0
 11
-410.2407531738281
 21
246.6194152832031
 31
0.0
 12
-409.3182983398437
 22
246.6552429199219
 32
0.0
 13
-410.3187255859374
 23
246.6552429199219
 33
0.0
  0
SOLID
  5
2F7
330
22
100
AcDbEntity
  8
0
  6
Continuous
 62
     7
100
AcDbTrace
 10
-409.5008850097656
 20
246.5733947753906
 30
0.0
 11
-410.1405944824218
 21
246.5733947753906
 31
0.0
 12
-409.3766174316406
 22
246.6194152832031
 32
0.0
 13
-410.2407531738281
 23
246.6194152832031
 33
0.0
  0
SOLID
  5
2F8
330
22
100
AcDbEntity
  8
0
  6
Continuous
 62
     7
100
AcDbTrace
 10
-409.5604553222655
 20
246.5513305664063
 30
0.0
 11
-410.0481872558593
 21
246.5513305664063
 31
0.0
 12
-409.5008850097656
 22
246.5733947753906
 32
0.0
 13
-410.1405944824218
 23
246.5733947753906
 33
0.0
  0
SOLID
  5
2F9
330
22
100
AcDbEntity
  8
0
  6
Continuous
 62
     7
100
AcDbTrace
 10
-409.7073669433593
 20
246.5278625488281
 30
0.0
 11
-409.9499206542969
 21
246.5278625488281
 31
0.0
 12
-409.5604553222655
 22
246.5513305664063
 32
0.0
 13
-410.0481872558593
 23
246.5513305664063
 33
0.0
  0
SOLID
  5
2FA
330
22
100
AcDbEntity
  8
0
  6
Continuous
 62
     7
100
AcDbTrace
 10
-383.5164489746094
 20
234.0721130371094
 30
0.0
 11
-383.7124633789063
 21
234.074951171875
 31
0.0
 12
-383.5009765625
 22
234.074951171875
 32
0.0
 13
-383.5009765625
 23
234.074951171875
 33
0.0
  0
SOLID
  5
2FB
330
22
100
AcDbEntity
  8
0
  6
Continuous
 62
     7
100
AcDbTrace
 10
-383.487548828125
 20
236.0622711181641
 30
0.0
 11
-383.6990661621094
 21
236.0622711181641
 31
0.0
 12
-383.6835632324219
 22
236.0651092529297
 32
0.0
 13
-383.6835632324219
 23
236.0651092529297
 33
0.0
  0
SOLID
  5
2FC
330
22
100
AcDbEntity
  8
0
  6
Continuous
 62
     7
100
AcDbTrace
 10
-383.3352355957032
 20
236.0296630859375
 30
0.0
 11
-383.8763732910156
 21
236.0296630859375
 31
0.0
 12
-383.487548828125
 22
236.0622711181641
 32
0.0
 13
-383.6990661621094
 23
236.0622711181641
 33
0.0
  0
SOLID
  5
2FD
330
22
100
AcDbEntity
  8
0
  6
Continuous
 62
     7
100
AcDbTrace
 10
-383.2958679199219
 20
236.021240234375
 30
0.0
 11
-383.8975830078125
 21
236.021240234375
 31
0.0
 12
-383.3352355957032
 22
236.0296630859375
 32
0.0
 13
-383.8763732910156
 23
236.0296630859375
 33
0.0
  0
SOLID
  5
2FE
330
22
100
AcDbEntity
  8
0
  6
Continuous
 62
     7
100
AcDbTrace
 10
-383.1476135253906
 20
235.957275390625
 30
0.0
 11
-384.0585632324219
 21
235.957275390625
 31
0.0
 12
-383.2958679199219
 22
236.021240234375
 32
0.0
 13
-383.8975830078125
 23
236.021240234375
 33
0.0
  0
SOLID
  5
2FF
330
22
100
AcDbEntity
  8
0
  6
Continuous
 62
     7
100
AcDbTrace
 10
-383.1158752441406
 20
235.9435882568359
 30
0.0
 11
-384.0797119140625
 21
235.9435882568359
 31
0.0
 12
-383.1476135253906
 22
235.957275390625
 32
0.0
 13
-384.0585632324219
 23
235.957275390625
 33
0.0
  0
SOLID
  5
300
330
22
100
AcDbEntity
  8
0
  6
Continuous
 62
     7
100
AcDbTrace
 10
-382.981201171875
 20
235.8507537841797
 30
0.0
 11
-384.2231140136719
 21
235.8507537841797
 31
0.0
 12
-383.1158752441406
 22
235.9435882568359
 32
0.0
 13
-384.0797119140625
 23
235.9435882568359
 33
0.0
  0
SOLID
  5
301
330
22
100
AcDbEntity
  8
0
  6
Continuous
 62
     7
100
AcDbTrace
 10
-382.9544677734375
 20
235.8323211669922
 30
0.0
 11
-384.2420959472656
 21
235.8323211669922
 31
0.0
 12
-382.981201171875
 22
235.8507537841797
 32
0.0
 13
-384.2231140136719
 23
235.8507537841797
 33
0.0
  0
SOLID
  5
302
330
22
100
AcDbEntity
  8
0
  6
Continuous
 62
     7
100
AcDbTrace
 10
-382.8396911621094
 20
235.7141571044922
 30
0.0
 11
-384.3637390136719
 21
235.7141571044922
 31
0.0
 12
-382.9544677734375
 22
235.8323211669922
 32
0.0
 13
-384.2420959472656
 23
235.8323211669922
 33
0.0
  0
SOLID
  5
303
330
22
100
AcDbEntity
  8
0
  6
Continuous
 62
     7
100
AcDbTrace
 10
-382.81787109375
 20
235.6917114257814
 30
0.0
 11
-384.3792114257813
 21
235.6917114257814
 31
0.0
 12
-382.8396911621094
 22
235.7141571044922
 32
0.0
 13
-384.3637390136719
 23
235.7141571044922
 33
0.0
  0
SOLID
  5
304
330
22
100
AcDbEntity
  8
0
  6
Continuous
 62
     7
100
AcDbTrace
 10
-382.7279357910157
 20
235.5527648925781
 30
0.0
 11
-384.4750061035156
 21
235.5527648925781
 31
0.0
 12
-382.81787109375
 22
235.6917114257814
 32
0.0
 13
-384.3792114257813
 23
235.6917114257814
 33
0.0
  0
SOLID
  5
305
330
22
100
AcDbEntity
  8
0
  6
Continuous
 62
     7
100
AcDbTrace
 10
-382.7113342285156
 20
235.5271453857422
 30
0.0
 11
-384.4860534667969
 21
235.5271453857422
 31
0.0
 12
-382.7279357910157
 22
235.5527648925781
 32
0.0
 13
-384.4750061035156
 23
235.5527648925781
 33
0.0
  0
SOLID
  5
306
330
22
100
AcDbEntity
  8
0
  6
Continuous
 62
     7
100
AcDbTrace
 10
-382.6499938964844
 20
235.3727569580078
 30
0.0
 11
-384.5526428222656
 21
235.3727569580078
 31
0.0
 12
-382.7113342285156
 22
235.5271453857422
 32
0.0
 13
-384.4860534667969
 23
235.5271453857422
 33
0.0
  0
SOLID
  5
307
330
22
100
AcDbEntity
  8
0
  6
Continuous
 62
     7
100
AcDbTrace
 10
-382.6389465332031
 20
235.344970703125
 30
0.0
 11
-384.55859375
 21
235.344970703125
 31
0.0
 12
-382.6499938964844
 22
235.3727569580078
 32
0.0
 13
-384.5526428222656
 23
235.3727569580078
 33
0.0
  0
SOLID
  5
308
330
22
100
AcDbEntity
  8
0
  6
Continuous
 62
     7
100
AcDbTrace
 10
-382.6455078125
 20
235.1810607910156
 30
0.0
 11
-384.5936584472656
 21
235.1810607910156
 31
0.0
 12
-382.6389465332031
 22
235.344970703125
 32
0.0
 13
-384.55859375
 23
235.344970703125
 33
0.0
  0
SOLID
  5
309
330
22
100
AcDbEntity
  8
0
  6
Continuous
 62
     7
100
AcDbTrace
 10
-382.6533508300781
 20
234.9850463867188
 30
0.0
 11
-384.5965270996094
 21
234.9850463867188
 31
0.0
 12
-382.6455078125
 22
235.1810607910156
 32
0.0
 13
-384.5936584472656
 23
235.1810607910156
 33
0.0
  0
SOLID
  5
30A
330
22
100
AcDbEntity
  8
0
  6
Continuous
 62
     7
100
AcDbTrace
 10
-382.6610717773438
 20
234.7922515869141
 30
0.0
 11
-384.5610656738281
 21
234.7922515869141
 31
0.0
 12
-382.6533508300781
 22
234.9850463867188
 32
0.0
 13
-384.5965270996094
 23
234.9850463867188
 33
0.0
  0
SOLID
  5
30B
330
22
100
AcDbEntity
  8
0
  6
Continuous
 62
     7
100
AcDbTrace
 10
-382.6640930175781
 20
234.7163696289063
 30
0.0
 11
-384.5309143066406
 21
234.7163696289063
 31
0.0
 12
-382.6610717773438
 22
234.7922515869141
 32
0.0
 13
-384.5610656738281
 23
234.7922515869141
 33
0.0
  0
SOLID
  5
30C
330
22
100
AcDbEntity
  8
0
  6
Continuous
 62
     7
100
AcDbTrace
 10
-382.7131958007813
 20
234.6100616455078
 30
0.0
 11
-384.4886779785156
 21
234.6100616455078
 31
0.0
 12
-382.6640930175781
 22
234.7163696289063
 32
0.0
 13
-384.5309143066406
 23
234.7163696289063
 33
0.0
  0
SOLID
  5
30D
330
22
100
AcDbEntity
  8
0
  6
Continuous
 62
     7
100
AcDbTrace
 10
-382.7250366210938
 20
234.5844573974609
 30
0.0
 11
-384.4721069335938
 21
234.5844573974609
 31
0.0
 12
-382.7131958007813
 22
234.6100616455078
 32
0.0
 13
-384.4886779785156
 23
234.6100616455078
 33
0.0
  0
SOLID
  5
30E
330
22
100
AcDbEntity
  8
0
  6
Continuous
 62
     7
100
AcDbTrace
 10
-382.8208312988281
 20
234.4455108642578
 30
0.0
 11
-384.3821411132813
 21
234.4455108642578
 31
0.0
 12
-382.7250366210938
 22
234.5844573974609
 32
0.0
 13
-384.4721069335938
 23
234.5844573974609
 33
0.0
  0
SOLID
  5
30F
330
22
100
AcDbEntity
  8
0
  6
Continuous
 62
     7
100
AcDbTrace
 10
-382.8363037109375
 20
234.4230651855469
 30
0.0
 11
-384.3603515625
 21
234.4230651855469
 31
0.0
 12
-382.8208312988281
 22
234.4455108642578
 32
0.0
 13
-384.3821411132813
 23
234.4455108642578
 33
0.0
  0
SOLID
  5
310
330
22
100
AcDbEntity
  8
0
  6
Continuous
 62
     7
100
AcDbTrace
 10
-382.9579467773438
 20
234.3048858642578
 30
0.0
 11
-384.2455749511719
 21
234.3048858642578
 31
0.0
 12
-382.8363037109375
 22
234.4230651855469
 32
0.0
 13
-384.3603515625
 23
234.4230651855469
 33
0.0
  0
SOLID
  5
311
330
22
100
AcDbEntity
  8
0
  6
Continuous
 62
     7
100
AcDbTrace
 10
-382.9768981933593
 20
234.2864685058594
 30
0.0
 11
-384.2188415527344
 21
234.2864685058594
 31
0.0
 12
-382.9579467773438
 22
234.3048858642578
 32
0.0
 13
-384.2455749511719
 23
234.3048858642578
 33
0.0
  0
SOLID
  5
312
330
22
100
AcDbEntity
  8
0
  6
Continuous
 62
     7
100
AcDbTrace
 10
-383.1203308105468
 20
234.1936187744141
 30
0.0
 11
-384.0841674804688
 21
234.1936187744141
 31
0.0
 12
-382.9768981933593
 22
234.2864685058594
 32
0.0
 13
-384.2188415527344
 23
234.2864685058594
 33
0.0
  0
SOLID
  5
313
330
22
100
AcDbEntity
  8
0
  6
Continuous
 62
     7
100
AcDbTrace
 10
-383.1414794921875
 20
234.179931640625
 30
0.0
 11
-384.0524291992188
 21
234.179931640625
 31
0.0
 12
-383.1203308105468
 22
234.1936187744141
 32
0.0
 13
-384.0841674804688
 23
234.1936187744141
 33
0.0
  0
SOLID
  5
314
330
22
100
AcDbEntity
  8
0
  6
Continuous
 62
     7
100
AcDbTrace
 10
-383.3024291992188
 20
234.1159820556641
 30
0.0
 11
-383.9041748046875
 21
234.1159820556641
 31
0.0
 12
-383.1414794921875
 22
234.179931640625
 32
0.0
 13
-384.0524291992188
 23
234.179931640625
 33
0.0
  0
SOLID
  5
315
330
22
100
AcDbEntity
  8
0
  6
Continuous
 62
     7
100
AcDbTrace
 10
-383.3236694335938
 20
234.1075592041016
 30
0.0
 11
-383.8647766113281
 21
234.1075592041016
 31
0.0
 12
-383.3024291992188
 22
234.1159820556641
 32
0.0
 13
-383.9041748046875
 23
234.1159820556641
 33
0.0
  0
SOLID
  5
316
330
22
100
AcDbEntity
  8
0
  6
Continuous
 62
     7
100
AcDbTrace
 10
-383.5009765625
 20
234.074951171875
 30
0.0
 11
-383.7124633789063
 21
234.074951171875
 31
0.0
 12
-383.3236694335938
 22
234.1075592041016
 32
0.0
 13
-383.8647766113281
 23
234.1075592041016
 33
0.0
  0
INSERT
  5
317
330
22
100
AcDbEntity
  8
0
  6
Continuous
 62
     7
100
AcDbBlockReference
  2
KOZU0001
 10
-383.54150390625
 20
88.33798217773438
 30
0.0
  0
DIMENSION
  5
318
330
22
100
AcDbEntity
  8
0
  6
Continuous
 62
     7
100
AcDbDimension
  2
*D1
 10
-484.3985127491508
 20
407.1561432419026
 30
0.0
 11
-320.6718444824219
 21
476.1944885253906
 31
0.0
 70
     3
 71
     5
 42
-1.0
  3
DIMSTYLE1
100
AcDbDiametricDimension
 15
-369.2194682078803
 25
455.7234954299723
 35
0.0
 40
0.0
  0
DIMENSION
  5
319
330
22
100
AcDbEntity
  8
0
  6
Continuous
 62
     7
100
AcDbDimension
  2
*D2
 10
-307.6138916015625
 20
102.3186111450195
 30
0.0
 11
-307.6138916015625
 21
93.11286163330079
 31
0.0
 71
     5
 42
-1.0
  3
DIMSTYLE2
100
AcDbAlignedDimension
 13
-305.327880859375
 23
105.8186111450195
 33
0.0
 14
-329.8089904785156
 24
102.3186111450195
 34
0.0
 50
90.0
100
AcDbRotatedDimension
  0
DIMENSION
  5
31A
330
22
100
AcDbEntity
  8
0
  6
Continuous
 62
     7
100
AcDbDimension
  2
*D3
 10
-474.3927517787947
 20
425.1322318004325
 30
0.0
 11
-308.0391235351563
 21
447.1836547851562
 31
0.0
 70
     3
 71
     5
 42
-1.0
  3
DIMSTYLE3
100
AcDbDiametricDimension
 15
-379.2252291782365
 25
437.7474068714424
 35
0.0
 40
0.0
  0
DIMENSION
  5
31B
330
22
100
AcDbEntity
  8
0
  6
Continuous
 62
     7
100
AcDbDimension
  2
*D4
 10
-445.8251076456583
 20
439.1679569404439
 30
0.0
 11
-315.3983764648438
 21
391.6261596679688
 31
0.0
 70
     3
 71
     5
 42
-1.0
  3
DIMSTYLE4
100
AcDbDiametricDimension
 15
-408.2439231160605
 25
425.469250090806
 35
0.0
 40
0.0
  0
DIMENSION
  5
31C
330
22
100
AcDbEntity
  8
0
  6
Continuous
 62
     7
100
AcDbDimension
  2
*D5
 10
-504.1206533997876
 20
372.9118970226068
 30
0.0
 11
-330.7110595703125
 21
506.1607666015625
 31
0.0
 70
     3
 71
     5
 42
-1.0
  3
DIMSTYLE5
100
AcDbDiametricDimension
 15
-349.4973275572436
 25
491.7253100086431
 35
0.0
 40
0.0
  0
DIMENSION
  5
31D
330
22
100
AcDbEntity
  8
0
  6
Continuous
 62
     7
100
AcDbDimension
  2
*D6
 10
-378.3089904785156
 20
35.44455718994141
 30
0.0
 11
-426.8089904785155
 21
35.44455718994141
 31
0.0
 71
     5
 42
-1.0
  3
DIMSTYLE6
100
AcDbAlignedDimension
 13
-475.3089904785156
 23
67.81861114501953
 33
0.0
 14
-378.3089904785156
 24
67.81861114501953
 34
0.0
100
AcDbRotatedDimension
  0
DIMENSION
  5
31E
330
22
100
AcDbEntity
  8
0
  6
Continuous
 62
     7
100
AcDbDimension
  2
*D7
 10
-317.8771362304688
 20
140.818603515625
 30
0.0
 11
-317.8771362304688
 21
123.3186111450195
 31
0.0
 71
     5
 42
-1.0
  3
DIMSTYLE7
100
AcDbAlignedDimension
 13
-305.327880859375
 23
105.8186111450195
 33
0.0
 14
-380.3089904785156
 24
140.818603515625
 34
0.0
 50
90.0
100
AcDbRotatedDimension
  0
DIMENSION
  5
31F
330
22
100
AcDbEntity
  8
0
  6
Continuous
 62
     7
100
AcDbDimension
  2
*D8
 10
-307.6138916015625
 20
258.818603515625
 30
0.0
 11
-307.6138916015625
 21
182.318603515625
 31
0.0
 71
     5
 42
-1.0
  3
DIMSTYLE8
100
AcDbAlignedDimension
 13
-331.3089904785156
 23
105.8186111450195
 33
0.0
 14
-365.5589904785156
 24
258.818603515625
 34
0.0
 50
90.0
100
AcDbRotatedDimension
  0
DIMENSION
  5
320
330
22
100
AcDbEntity
  8
0
  6
Continuous
 62
     7
100
AcDbDimension
  2
*D9
 10
-317.8771362304688
 20
203.818603515625
 30
0.0
 11
-317.8771362304688
 21
231.318603515625
 31
0.0
 71
     5
 42
-1.0
  3
DIMSTYLE9
100
AcDbAlignedDimension
 13
-305.327880859375
 23
258.818603515625
 33
0.0
 14
-379.3089904785156
 24
203.818603515625
 34
0.0
 50
90.0
100
AcDbRotatedDimension
  0
DIMENSION
  5
321
330
22
100
AcDbEntity
  8
0
  6
Continuous
 62
     7
100
AcDbDimension
  2
*D10
 10
-412.8457031249999
 20
220.818603515625
 30
0.0
 11
-412.8457031249999
 21
170.818603515625
 31
0.0
 71
     5
 42
-1.0
  3
DIMSTYLE10
100
AcDbAlignedDimension
 13
-426.8089904785155
 23
120.8186111450195
 33
0.0
 14
-426.8089904785155
 24
220.818603515625
 34
0.0
 50
90.0
100
AcDbRotatedDimension
  0
DIMENSION
  5
322
330
22
100
AcDbEntity
  8
0
  6
Continuous
 62
     7
100
AcDbDimension
  2
*D11
 10
-397.2456359863281
 20
170.818603515625
 30
0.0
 11
-397.2456359863281
 21
145.818603515625
 31
0.0
 71
     5
 42
-1.0
  3
DIMSTYLE11
100
AcDbAlignedDimension
 13
-384.3589782714844
 23
120.8186111450195
 33
0.0
 14
-384.3589782714844
 24
170.818603515625
 34
0.0
 50
90.0
100
AcDbRotatedDimension
  0
DIMENSION
  5
323
330
22
100
AcDbEntity
  8
0
  6
Continuous
 62
     7
100
AcDbDimension
  2
*D12
 10
-532.3168334960938
 20
140.818603515625
 30
0.0
 11
-532.3168334960938
 21
103.8186111450195
 31
0.0
 71
     5
 42
-1.0
  3
DIMSTYLE12
100
AcDbAlignedDimension
 13
-474.3089904785156
 23
66.81861114501953
 33
0.0
 14
-473.3089904785156
 24
140.818603515625
 34
0.0
 50
90.0
100
AcDbRotatedDimension
  0
DIMENSION
  5
324
330
22
100
AcDbEntity
  8
0
  6
Continuous
 62
     7
100
AcDbDimension
  2
*D13
 10
-492.3089904785156
 20
72.20449066162109
 30
0.0
 11
-483.8089904785156
 21
72.20449066162109
 31
0.0
 71
     5
 42
-1.0
  3
DIMSTYLE13
100
AcDbAlignedDimension
 13
-475.3089904785156
 23
67.81861114501953
 33
0.0
 14
-492.3089904785156
 24
100.8420181274414
 34
0.0
100
AcDbRotatedDimension
  0
DIMENSION
  5
325
330
22
100
AcDbEntity
  8
0
  6
Continuous
 62
     7
100
AcDbDimension
  2
*D14
 10
-504.8963317871093
 20
82.31861114501953
 30
0.0
 11
-504.8963317871093
 21
92.31861114501951
 31
0.0
 71
     5
 42
-1.0
  3
DIMSTYLE14
100
AcDbAlignedDimension
 13
-480.3089904785156
 23
102.3186111450195
 33
0.0
 14
-477.3089904785156
 24
82.31861114501953
 34
0.0
 50
90.0
100
AcDbRotatedDimension
  0
INSERT
  5
326
330
22
100
AcDbEntity
  8
0
  6
Continuous
 62
     7
100
AcDbBlockReference
  2
KOZU0002
 10
-481.384033203125
 20
98.20832061767578
 30
0.0
  0
ENDSEC
  0
SECTION
  2
OBJECTS
  0
DICTIONARY
  5
C
330
0
100
AcDbDictionary
281
     1
  3
ACAD_COLOR
350
1B
  3
ACAD_GROUP
350
D
  3
ACAD_LAYOUT
350
19
  3
ACAD_MATERIAL
350
1A
  3
ACAD_MLINESTYLE
350
16
  3
ACAD_PLOTSETTINGS
350
18
  3
ACAD_PLOTSTYLENAME
350
E
  3
ACAD_TABLESTYLE
350
1C
  3
AcDbVariableDictionary
350
332
  0
DICTIONARY
  5
1B
102
{ACAD_REACTORS
330
C
102
}
330
C
100
AcDbDictionary
281
     1
  0
DICTIONARY
  5
D
102
{ACAD_REACTORS
330
C
102
}
330
C
100
AcDbDictionary
281
     1
  0
DICTIONARY
  5
19
102
{ACAD_REACTORS
330
C
102
}
330
C
100
AcDbDictionary
281
     1
  3
Model
350
25
  3
レイアウト1
350
21
  0
DICTIONARY
  5
1A
102
{ACAD_REACTORS
330
C
102
}
330
C
100
AcDbDictionary
281
     1
  0
DICTIONARY
  5
16
102
{ACAD_REACTORS
330
C
102
}
330
C
100
AcDbDictionary
281
     1
  3
Standard
350
17
  0
DICTIONARY
  5
18
102
{ACAD_REACTORS
330
C
102
}
330
C
100
AcDbDictionary
281
     1
  0
ACDBDICTIONARYWDFLT
  5
E
102
{ACAD_REACTORS
330
C
102
}
330
C
100
AcDbDictionary
281
     1
  3
Normal
350
F
100
AcDbDictionaryWithDefault
340
F
  0
DICTIONARY
  5
1C
102
{ACAD_REACTORS
330
C
102
}
330
C
100
AcDbDictionary
281
     1
  3
Standard
350
1D
  0
DICTIONARY
  5
332
102
{ACAD_REACTORS
330
C
102
}
330
C
100
AcDbDictionary
281
     1
  3
CTABLESTYLE
350
333
  0
LAYOUT
  5
25
102
{ACAD_REACTORS
330
19
102
}
330
19
100
AcDbPlotSettings
  1

  2
PDF reDirect v2
  4
User120
  6

 40
3.174999952316284
 41
3.174999952316284
 42
3.17498779296875
 43
3.17498779296875
 44
594.0
 45
841.0
 46
0.0
 47
0.0
 48
0.0
 49
0.0
140
0.0
141
0.0
142
1.0
143
1.0
 70
 11952
 72
     1
 73
     1
 74
     2
  7
C:\Users\ck\AppData\Roaming\Autodesk\AutoCAD 2005\R16.1\jpn\Plot Styles\black.ctb
 75
    16
147
1.0
 76
     0
 77
     2
 78
   300
148
839.0
149
0.0
100
AcDbLayout
  1
Model
 70
     1
 71
     0
 10
0.0
 20
0.0
 11
12.0
 21
9.0
 12
0.0
 22
0.0
 32
0.0
 14
0.0
 24
0.0
 34
0.0
 15
0.0
 25
0.0
 35
0.0
146
0.0
 13
0.0
 23
0.0
 33
0.0
 16
1.0
 26
0.0
 36
0.0
 17
0.0
 27
1.0
 37
0.0
 76
     0
330
22
1001
ACAD_PSEXT
1000
PDF reDirect v2
1000
PDF reDirect Pro
1000
PDF_REDIRECT_PORT:
1000
PDF reDirect provided by EXP Systems
1070
     0
  0
LAYOUT
  5
21
102
{ACAD_REACTORS
330
19
102
}
330
19
100
AcDbPlotSettings
  1

  2
PDF reDirect v2
  4

  6

 40
0.0
 41
0.0
 42
0.0
 43
0.0
 44
0.0
 45
0.0
 46
0.0
 47
0.0
 48
0.0
 49
0.0
140
0.0
141
0.0
142
1.0
143
1.0
 70
   688
 72
     0
 73
     0
 74
     5
  7
C:\Users\ck\AppData\Roaming\Autodesk\AutoCAD 2005\R16.1\jpn\Plot Styles\black.ctb
 75
    16
147
1.0
 76
     0
 77
     2
 78
   300
148
0.0
149
0.0
100
AcDbLayout
  1
レイアウト1
 70
     1
 71
     1
 10
-839.0
 20
0.0
 11
0.0
 21
591.0
 12
0.0
 22
0.0
 32
0.0
 14
1.000000000000000E+20
 24
1.000000000000000E+20
 34
1.000000000000000E+20
 15
-1.000000000000000E+20
 25
-1.000000000000000E+20
 35
-1.000000000000000E+20
146
0.0
 13
0.0
 23
0.0
 33
0.0
 16
1.0
 26
0.0
 36
0.0
 17
0.0
 27
1.0
 37
0.0
 76
     0
330
1E
  0
MLINESTYLE
  5
17
102
{ACAD_REACTORS
330
16
102
}
330
16
100
AcDbMlineStyle
  2
STANDARD
 70
     0
  3

 62
   256
 51
90.0
 52
90.0
 71
     2
 49
0.5
 62
   256
  6
BYLAYER
 49
-0.5
 62
   256
  6
BYLAYER
  0
ACDBPLACEHOLDER
  5
F
102
{ACAD_REACTORS
330
E
102
}
330
E
  0
TABLESTYLE
  5
1D
102
{ACAD_REACTORS
330
1C
102
}
330
1C
100
AcDbTableStyle
  3
Standard
 70
     0
 71
     0
 40
0.06
 41
0.06
280
     0
281
     0
  7
STANDARD
140
0.18
170
     2
 62
     0
 63
     7
283
     0
274
    -2
284
     1
 64
     0
275
    -2
285
     1
 65
     0
276
    -2
286
     1
 66
     0
277
    -2
287
     1
 67
     0
278
    -2
288
     1
 68
     0
279
    -2
289
     1
 69
     0
  7
STANDARD
140
0.25
170
     5
 62
     0
 63
     7
283
     0
274
    -2
284
     1
 64
     0
275
    -2
285
     1
 65
     0
276
    -2
286
     1
 66
     0
277
    -2
287
     1
 67
     0
278
    -2
288
     1
 68
     0
279
    -2
289
     1
 69
     0
  7
STANDARD
140
0.18
170
     5
 62
     0
 63
     7
283
     0
274
    -2
284
     1
 64
     0
275
    -2
285
     1
 65
     0
276
    -2
286
     1
 66
     0
277
    -2
287
     1
 67
     0
278
    -2
288
     1
 68
     0
279
    -2
289
     1
 69
     0
  0
DICTIONARYVAR
  5
333
102
{ACAD_REACTORS
330
332
102
}
330
332
100
DictionaryVariables
280
     0
  1
STANDARD
  0
ENDSEC
  0
EOF
