  0
SECTION
  2
HEADER
  9
$ACADVER
  1
AC1018
  9
$ACADMAINTVER
 70
    39
  9
$DWGCODEPAGE
  3
ANSI_932
  9
$INSBASE
 10
0.0
 20
0.0
 30
0.0
  9
$EXTMIN
 10
-443.1508773546092
 20
10.92581275352961
 30
-0.0015258207003583
  9
$EXTMAX
 10
-213.1203601978723
 20
407.1060800621124
 30
0.0000000349246037
  9
$LIMMIN
 10
-592.0
 20
0.0
  9
$LIMMAX
 10
0.0
 20
418.0
  9
$ORTHOMODE
 70
     0
  9
$REGENMODE
 70
     1
  9
$FILLMODE
 70
     1
  9
$QTEXTMODE
 70
     0
  9
$MIRRTEXT
 70
     0
  9
$LTSCALE
 40
1.0
  9
$ATTMODE
 70
     1
  9
$TEXTSIZE
 40
0.2
  9
$TRACEWID
 40
0.05
  9
$TEXTSTYLE
  7
STANDARD
  9
$CLAYER
  8
0
  9
$CELTYPE
  6
CONTINUOUS
  9
$CECOLOR
 62
   256
  9
$CELTSCALE
 40
1.0
  9
$DISPSILH
 70
     0
  9
$DIMSCALE
 40
1.0
  9
$DIMASZ
 40
1.0
  9
$DIMEXO
 40
2.54
  9
$DIMDLI
 40
0.38
  9
$DIMRND
 40
0.0
  9
$DIMDLE
 40
0.0
  9
$DIMEXE
 40
2.54
  9
$DIMTP
 40
0.0
  9
$DIMTM
 40
0.0
  9
$DIMTXT
 40
3.0
  9
$DIMCEN
 40
0.09
  9
$DIMTSZ
 40
0.0
  9
$DIMTOL
 70
     0
  9
$DIMLIM
 70
     0
  9
$DIMTIH
 70
     0
  9
$DIMTOH
 70
     0
  9
$DIMSE1
 70
     0
  9
$DIMSE2
 70
     0
  9
$DIMTAD
 70
     1
  9
$DIMZIN
 70
     0
  9
$DIMBLK
  1

  9
$DIMASO
 70
     1
  9
$DIMSHO
 70
     0
  9
$DIMPOST
  1

  9
$DIMAPOST
  1

  9
$DIMALT
 70
     0
  9
$DIMALTD
 70
     2
  9
$DIMALTF
 40
25.4
  9
$DIMLFAC
 40
1.0
  9
$DIMTOFL
 70
     0
  9
$DIMTVP
 40
1.0
  9
$DIMTIX
 70
     0
  9
$DIMSOXD
 70
     0
  9
$DIMSAH
 70
     1
  9
$DIMBLK1
  1

  9
$DIMBLK2
  1

  9
$DIMSTYLE
  2
DIMSTYLE1
  9
$DIMCLRD
 70
     0
  9
$DIMCLRE
 70
     0
  9
$DIMCLRT
 70
     0
  9
$DIMTFAC
 40
1.0
  9
$DIMGAP
 40
1.5
  9
$DIMJUST
 70
     0
  9
$DIMSD1
 70
     0
  9
$DIMSD2
 70
     0
  9
$DIMTOLJ
 70
     1
  9
$DIMTZIN
 70
     0
  9
$DIMALTZ
 70
     0
  9
$DIMALTTZ
 70
     0
  9
$DIMUPT
 70
     0
  9
$DIMDEC
 70
     4
  9
$DIMTDEC
 70
     4
  9
$DIMALTU
 70
     2
  9
$DIMALTTD
 70
     2
  9
$DIMTXSTY
  7
STANDARD
  9
$DIMAUNIT
 70
     0
  9
$DIMADEC
 70
     0
  9
$DIMALTRND
 40
0.0
  9
$DIMAZIN
 70
     0
  9
$DIMDSEP
 70
    46
  9
$DIMATFIT
 70
     3
  9
$DIMFRAC
 70
     0
  9
$DIMLDRBLK
  1

  9
$DIMLUNIT
 70
     2
  9
$DIMLWD
 70
    -2
  9
$DIMLWE
 70
    -2
  9
$DIMTMOVE
 70
     0
  9
$LUNITS
 70
     2
  9
$LUPREC
 70
     4
  9
$SKETCHINC
 40
0.1
  9
$FILLETRAD
 40
0.0
  9
$AUNITS
 70
     0
  9
$AUPREC
 70
     0
  9
$MENU
  1
.
  9
$ELEVATION
 40
0.0
  9
$PELEVATION
 40
0.0
  9
$THICKNESS
 40
0.0
  9
$LIMCHECK
 70
     0
  9
$CHAMFERA
 40
0.0
  9
$CHAMFERB
 40
0.0
  9
$CHAMFERC
 40
0.0
  9
$CHAMFERD
 40
0.0
  9
$SKPOLY
 70
     0
  9
$TDCREATE
 40
2457840.679155891
  9
$TDUCREATE
 40
2457840.304155892
  9
$TDUPDATE
 40
2457840.679688183
  9
$TDUUPDATE
 40
2457840.304688183
  9
$TDINDWG
 40
0.0005331019
  9
$TDUSRTIMER
 40
0.0005331019
  9
$USRTIMER
 70
     1
  9
$ANGBASE
 50
0.0
  9
$ANGDIR
 70
     0
  9
$PDMODE
 70
     0
  9
$PDSIZE
 40
0.0
  9
$PLINEWID
 40
0.0
  9
$SPLFRAME
 70
     0
  9
$SPLINETYPE
 70
     6
  9
$SPLINESEGS
 70
     8
  9
$HANDSEED
  5
348
  9
$SURFTAB1
 70
     6
  9
$SURFTAB2
 70
     6
  9
$SURFTYPE
 70
     6
  9
$SURFU
 70
     6
  9
$SURFV
 70
     6
  9
$UCSBASE
  2

  9
$UCSNAME
  2

  9
$UCSORG
 10
0.0
 20
0.0
 30
0.0
  9
$UCSXDIR
 10
1.0
 20
0.0
 30
0.0
  9
$UCSYDIR
 10
0.0
 20
1.0
 30
0.0
  9
$UCSORTHOREF
  2

  9
$UCSORTHOVIEW
 70
     0
  9
$UCSORGTOP
 10
0.0
 20
0.0
 30
0.0
  9
$UCSORGBOTTOM
 10
0.0
 20
0.0
 30
0.0
  9
$UCSORGLEFT
 10
0.0
 20
0.0
 30
0.0
  9
$UCSORGRIGHT
 10
0.0
 20
0.0
 30
0.0
  9
$UCSORGFRONT
 10
0.0
 20
0.0
 30
0.0
  9
$UCSORGBACK
 10
0.0
 20
0.0
 30
0.0
  9
$PUCSBASE
  2

  9
$PUCSNAME
  2

  9
$PUCSORG
 10
0.0
 20
0.0
 30
0.0
  9
$PUCSXDIR
 10
1.0
 20
0.0
 30
0.0
  9
$PUCSYDIR
 10
0.0
 20
1.0
 30
0.0
  9
$PUCSORTHOREF
  2

  9
$PUCSORTHOVIEW
 70
     0
  9
$PUCSORGTOP
 10
0.0
 20
0.0
 30
0.0
  9
$PUCSORGBOTTOM
 10
0.0
 20
0.0
 30
0.0
  9
$PUCSORGLEFT
 10
0.0
 20
0.0
 30
0.0
  9
$PUCSORGRIGHT
 10
0.0
 20
0.0
 30
0.0
  9
$PUCSORGFRONT
 10
0.0
 20
0.0
 30
0.0
  9
$PUCSORGBACK
 10
0.0
 20
0.0
 30
0.0
  9
$USERI1
 70
     0
  9
$USERI2
 70
     0
  9
$USERI3
 70
     0
  9
$USERI4
 70
     0
  9
$USERI5
 70
     0
  9
$USERR1
 40
0.0
  9
$USERR2
 40
0.0
  9
$USERR3
 40
0.0
  9
$USERR4
 40
0.0
  9
$USERR5
 40
0.0
  9
$WORLDVIEW
 70
     1
  9
$SHADEDGE
 70
     3
  9
$SHADEDIF
 70
    70
  9
$TILEMODE
 70
     1
  9
$MAXACTVP
 70
    64
  9
$PINSBASE
 10
0.0
 20
0.0
 30
0.0
  9
$PLIMCHECK
 70
     0
  9
$PEXTMIN
 10
1.000000000000000E+20
 20
1.000000000000000E+20
 30
1.000000000000000E+20
  9
$PEXTMAX
 10
-1.000000000000000E+20
 20
-1.000000000000000E+20
 30
-1.000000000000000E+20
  9
$PLIMMIN
 10
-592.0
 20
0.0
  9
$PLIMMAX
 10
0.0
 20
418.0
  9
$UNITMODE
 70
     0
  9
$VISRETAIN
 70
     1
  9
$PLINEGEN
 70
     0
  9
$PSLTSCALE
 70
     1
  9
$TREEDEPTH
 70
  3020
  9
$CMLSTYLE
  2
Standard
  9
$CMLJUST
 70
     0
  9
$CMLSCALE
 40
1.0
  9
$PROXYGRAPHICS
 70
     1
  9
$MEASUREMENT
 70
     0
  9
$CELWEIGHT
370
    -1
  9
$ENDCAPS
280
     0
  9
$JOINSTYLE
280
     0
  9
$LWDISPLAY
290
     0
  9
$INSUNITS
 70
     0
  9
$HYPERLINKBASE
  1

  9
$STYLESHEET
  1

  9
$XEDIT
290
     1
  9
$CEPSNTYPE
380
     0
  9
$PSTYLEMODE
290
     1
  9
$FINGERPRINTGUID
  2
{01135CC3-1750-4B2C-AA54-A9F5225649AA}
  9
$VERSIONGUID
  2
{1F3DD681-0E32-47F1-9551-8D97A9C056FD}
  9
$EXTNAMES
290
     1
  9
$PSVPSCALE
 40
0.0
  9
$OLESTARTUP
290
     0
  9
$SORTENTS
280
   127
  9
$INDEXCTL
280
     0
  9
$HIDETEXT
280
     0
  9
$XCLIPFRAME
290
     0
  9
$HALOGAP
280
     0
  9
$OBSCOLOR
 70
   257
  9
$OBSLTYPE
280
     0
  9
$INTERSECTIONDISPLAY
280
     0
  9
$INTERSECTIONCOLOR
 70
   257
  9
$DIMASSOC
280
     1
  9
$PROJECTNAME
  1

  0
ENDSEC
  0
SECTION
  2
CLASSES
  0
CLASS
  1
ACDBDICTIONARYWDFLT
  2
AcDbDictionaryWithDefault
  3
ObjectDBX Classes
 90
        0
 91
        1
280
     0
281
     0
  0
CLASS
  1
TABLESTYLE
  2
AcDbTableStyle
  3
ObjectDBX Classes
 90
     2047
 91
        1
280
     0
281
     0
  0
CLASS
  1
DICTIONARYVAR
  2
AcDbDictionaryVar
  3
ObjectDBX Classes
 90
        0
 91
        1
280
     0
281
     0
  0
ENDSEC
  0
SECTION
  2
TABLES
  0
TABLE
  2
VPORT
  5
8
330
0
100
AcDbSymbolTable
 70
     2
  0
VPORT
  5
347
330
8
100
AcDbSymbolTableRecord
100
AcDbViewportTableRecord
  2
*Active
 70
     0
 10
0.0
 20
0.0
 11
1.0
 21
1.0
 12
-296.0
 22
209.0
 13
0.0
 23
0.0
 14
1.0
 24
1.0
 15
0.0
 25
0.0
 16
0.0
 26
0.0
 36
1.0
 17
0.0
 27
0.0
 37
0.0
 40
421.3043478260869
 41
1.707124010554089
 42
50.0
 43
0.0
 44
0.0
 50
0.0
 51
0.0
 71
     0
 72
   100
 73
     1
 74
     1
 75
     0
 76
     0
 77
     0
 78
     0
281
     0
 65
     1
110
0.0
120
0.0
130
0.0
111
1.0
121
0.0
131
0.0
112
0.0
122
1.0
132
0.0
 79
     0
146
0.0
  0
ENDTAB
  0
TABLE
  2
LTYPE
  5
5
330
0
100
AcDbSymbolTable
 70
     6
  0
LTYPE
  5
13
330
5
100
AcDbSymbolTableRecord
100
AcDbLinetypeTableRecord
  2
ByBlock
 70
     0
  3

 72
    65
 73
     0
 40
0.0
  0
LTYPE
  5
14
330
5
100
AcDbSymbolTableRecord
100
AcDbLinetypeTableRecord
  2
ByLayer
 70
     0
  3

 72
    65
 73
     0
 40
0.0
  0
LTYPE
  5
15
330
5
100
AcDbSymbolTableRecord
100
AcDbLinetypeTableRecord
  2
CONTINUOUS
 70
     0
  3
Solid line
 72
    65
 73
     0
 40
0.0
  0
LTYPE
  5
26
330
5
100
AcDbSymbolTableRecord
100
AcDbLinetypeTableRecord
  2
DASHED
 70
     0
  3
__ __ __ __ __ __ __ __ __ __ __ __ __ __ __
 72
    65
 73
     2
 40
3.5
 49
2.0
 74
     0
 49
-1.5
 74
     0
  0
LTYPE
  5
27
330
5
100
AcDbSymbolTableRecord
100
AcDbLinetypeTableRecord
  2
CENTER
 70
     0
  3
____ _ ____ _ ____ _ ____ _ ____ _ ____ _ ____
 72
    65
 73
     4
 40
17.5
 49
13.0
 74
     0
 49
-1.5
 74
     0
 49
1.5
 74
     0
 49
-1.5
 74
     0
  0
LTYPE
  5
28
330
5
100
AcDbSymbolTableRecord
100
AcDbLinetypeTableRecord
  2
PHANTOM
 70
     0
  3
_____ _ _ _____ _ _ _____ _ _ _____ _ _ ____  
 72
    65
 73
     6
 40
15.5
 49
8.0
 74
     0
 49
-1.5
 74
     0
 49
1.5
 74
     0
 49
-1.5
 74
     0
 49
1.5
 74
     0
 49
-1.5
 74
     0
  0
LTYPE
  5
29
330
5
100
AcDbSymbolTableRecord
100
AcDbLinetypeTableRecord
  2
DOT
 70
     0
  3
. . . . . . . . . . . . . . . . . . . . . . . .
 72
    65
 73
     2
 40
0.25
 49
0.0
 74
     0
 49
-0.25
 74
     0
  0
LTYPE
  5
2A
330
5
100
AcDbSymbolTableRecord
100
AcDbLinetypeTableRecord
  2
HIDDEN
 70
     0
  3
__ __ __ __ __ __ __ __ __ __ __ __ __ __ __
 72
    65
 73
     2
 40
3.5
 49
2.0
 74
     0
 49
-1.5
 74
     0
  0
ENDTAB
  0
TABLE
  2
LAYER
  5
2
330
0
100
AcDbSymbolTable
 70
     2
  0
LAYER
  5
10
330
2
100
AcDbSymbolTableRecord
100
AcDbLayerTableRecord
  2
0
 70
     0
 62
     7
  6
CONTINUOUS
370
    -3
390
F
  0
LAYER
  5
2B
330
2
100
AcDbSymbolTableRecord
100
AcDbLayerTableRecord
  2
DEFPOINTS
 70
     0
 62
     7
  6
CONTINUOUS
290
     0
370
    -3
390
F
  0
ENDTAB
  0
TABLE
  2
STYLE
  5
3
330
0
100
AcDbSymbolTable
 70
     2
  0
STYLE
  5
11
330
3
100
AcDbSymbolTableRecord
100
AcDbTextStyleTableRecord
  2
STANDARD
 70
     0
 40
0.0
 41
1.0
 50
0.0
 71
     0
 42
0.2
  3

  4

1001
ACAD
1000
MS Gothic
1071
    32817
  0
ENDTAB
  0
TABLE
  2
VIEW
  5
6
330
0
100
AcDbSymbolTable
 70
     0
  0
ENDTAB
  0
TABLE
  2
UCS
  5
7
330
0
100
AcDbSymbolTable
 70
     0
  0
ENDTAB
  0
TABLE
  2
APPID
  5
9
330
0
100
AcDbSymbolTable
 70
     2
  0
APPID
  5
12
330
9
100
AcDbSymbolTableRecord
100
AcDbRegAppTableRecord
  2
ACAD
 70
     0
  0
APPID
  5
33C
330
9
100
AcDbSymbolTableRecord
100
AcDbRegAppTableRecord
  2
ACAD_PSEXT
 70
     0
  0
ENDTAB
  0
TABLE
  2
DIMSTYLE
  5
A
330
0
100
AcDbSymbolTable
 70
    15
100
AcDbDimStyleTable
 71
     1
340
2C
  0
DIMSTYLE
105
2C
102
{ACAD_REACTORS
330
32A
102
}
330
A
100
AcDbSymbolTableRecord
100
AcDbDimStyleTableRecord
  2
DIMSTYLE1
 70
     0
 41
1.0
 42
2.54
 44
2.54
 73
     0
 74
     0
 77
     1
140
3.0
145
1.0
147
1.5
172
     1
173
     1
279
     2
340
11
  0
DIMSTYLE
105
2D
102
{ACAD_REACTORS
330
32C
102
}
330
A
100
AcDbSymbolTableRecord
100
AcDbDimStyleTableRecord
  2
DIMSTYLE2
 70
     0
 41
1.0
 42
2.54
 44
2.54
 73
     0
 74
     0
 75
     1
 76
     1
 77
     1
140
3.0
145
1.0
147
1.5
172
     1
173
     1
279
     2
340
11
  0
DIMSTYLE
105
2E
102
{ACAD_REACTORS
330
32D
102
}
330
A
100
AcDbSymbolTableRecord
100
AcDbDimStyleTableRecord
  2
DIMSTYLE3
 70
     0
 41
1.0
 42
2.54
 44
2.54
 73
     0
 74
     0
 75
     1
 76
     1
 77
     1
140
3.0
145
1.0
147
1.5
172
     1
173
     1
279
     2
340
11
  0
DIMSTYLE
105
2F
102
{ACAD_REACTORS
330
32E
102
}
330
A
100
AcDbSymbolTableRecord
100
AcDbDimStyleTableRecord
  2
DIMSTYLE4
 70
     0
 41
1.0
 42
2.54
 44
2.54
 73
     0
 74
     0
 75
     1
 76
     1
 77
     1
140
3.0
145
1.0
147
1.5
172
     1
173
     1
279
     2
340
11
  0
DIMSTYLE
105
30
102
{ACAD_REACTORS
330
32F
102
}
330
A
100
AcDbSymbolTableRecord
100
AcDbDimStyleTableRecord
  2
DIMSTYLE5
 70
     0
 41
1.0
 42
2.54
 44
2.54
 73
     0
 74
     0
 75
     1
 76
     1
 77
     1
140
3.0
145
1.0
147
1.5
172
     1
173
     1
279
     2
340
11
  0
DIMSTYLE
105
31
102
{ACAD_REACTORS
330
330
102
}
330
A
100
AcDbSymbolTableRecord
100
AcDbDimStyleTableRecord
  2
DIMSTYLE6
 70
     0
 41
1.0
 42
2.54
 44
2.54
 73
     0
 74
     0
 77
     1
140
3.0
145
1.0
147
1.5
172
     1
173
     1
279
     2
340
11
  0
DIMSTYLE
105
32
102
{ACAD_REACTORS
330
331
102
}
330
A
100
AcDbSymbolTableRecord
100
AcDbDimStyleTableRecord
  2
DIMSTYLE7
 70
     0
 41
1.0
 42
2.54
 44
2.54
 73
     0
 74
     0
 77
     1
140
3.0
145
1.0
147
1.5
172
     1
173
     1
279
     2
340
11
  0
DIMSTYLE
105
33
102
{ACAD_REACTORS
330
332
102
}
330
A
100
AcDbSymbolTableRecord
100
AcDbDimStyleTableRecord
  2
DIMSTYLE8
 70
     0
 41
1.0
 42
2.54
 44
2.54
 73
     0
 74
     0
 77
     1
140
3.0
145
1.0
147
1.5
172
     1
173
     1
279
     2
340
11
  0
DIMSTYLE
105
34
102
{ACAD_REACTORS
330
333
102
}
330
A
100
AcDbSymbolTableRecord
100
AcDbDimStyleTableRecord
  2
DIMSTYLE9
 70
     0
 41
1.0
 42
2.54
 44
2.54
 73
     0
 74
     0
 77
     1
140
3.0
145
1.0
147
1.5
172
     1
173
     1
279
     2
340
11
  0
DIMSTYLE
105
35
102
{ACAD_REACTORS
330
334
102
}
330
A
100
AcDbSymbolTableRecord
100
AcDbDimStyleTableRecord
  2
DIMSTYLE10
 70
     0
 41
1.0
 42
2.54
 44
2.54
 73
     0
 74
     0
 77
     1
140
3.0
145
1.0
147
1.5
172
     1
173
     1
279
     2
340
11
  0
DIMSTYLE
105
36
102
{ACAD_REACTORS
330
335
102
}
330
A
100
AcDbSymbolTableRecord
100
AcDbDimStyleTableRecord
  2
DIMSTYLE11
 70
     0
 41
1.0
 42
2.54
 44
2.54
 73
     0
 74
     0
 77
     1
140
3.0
145
1.0
147
1.5
172
     1
173
     1
279
     2
340
11
  0
DIMSTYLE
105
37
102
{ACAD_REACTORS
330
336
102
}
330
A
100
AcDbSymbolTableRecord
100
AcDbDimStyleTableRecord
  2
DIMSTYLE12
 70
     0
 41
1.0
 42
2.54
 44
2.54
 73
     0
 74
     0
 77
     1
140
3.0
145
1.0
147
1.5
172
     1
173
     1
279
     2
340
11
  0
DIMSTYLE
105
38
102
{ACAD_REACTORS
330
337
102
}
330
A
100
AcDbSymbolTableRecord
100
AcDbDimStyleTableRecord
  2
DIMSTYLE13
 70
     0
 41
1.0
 42
2.54
 44
2.54
 73
     0
 74
     0
 77
     1
140
3.0
145
1.0
147
1.5
172
     1
173
     1
279
     2
340
11
  0
DIMSTYLE
105
39
102
{ACAD_REACTORS
330
338
102
}
330
A
100
AcDbSymbolTableRecord
100
AcDbDimStyleTableRecord
  2
DIMSTYLE14
 70
     0
 41
1.0
 42
2.54
 44
2.54
 73
     0
 74
     0
 77
     1
140
3.0
145
1.0
147
1.5
172
     1
173
     1
279
     2
340
11
  0
ENDTAB
  0
TABLE
  2
BLOCK_RECORD
  5
1
330
0
100
AcDbSymbolTable
 70
    18
  0
BLOCK_RECORD
  5
22
330
1
100
AcDbSymbolTableRecord
100
AcDbBlockTableRecord
  2
*Model_Space
340
25
  0
BLOCK_RECORD
  5
1E
330
1
100
AcDbSymbolTableRecord
100
AcDbBlockTableRecord
  2
*Paper_Space
340
21
  0
BLOCK_RECORD
  5
3D
330
1
100
AcDbSymbolTableRecord
100
AcDbBlockTableRecord
  2
_OPEN30
340
0
102
{BLKREFS
331
47
331
49
331
55
331
56
331
5F
331
60
331
69
331
6A
331
73
331
74
331
7C
331
7D
331
88
331
89
331
93
331
94
331
9F
331
A0
331
AA
331
AB
331
B4
331
B5
331
BF
331
C0
331
CB
331
CC
331
D6
331
D7
102
}
  0
BLOCK_RECORD
  5
43
330
1
100
AcDbSymbolTableRecord
100
AcDbBlockTableRecord
  2
*D1
340
0
  0
BLOCK_RECORD
  5
51
330
1
100
AcDbSymbolTableRecord
100
AcDbBlockTableRecord
  2
*D2
340
0
  0
BLOCK_RECORD
  5
5B
330
1
100
AcDbSymbolTableRecord
100
AcDbBlockTableRecord
  2
*D3
340
0
  0
BLOCK_RECORD
  5
65
330
1
100
AcDbSymbolTableRecord
100
AcDbBlockTableRecord
  2
*D4
340
0
  0
BLOCK_RECORD
  5
6F
330
1
100
AcDbSymbolTableRecord
100
AcDbBlockTableRecord
  2
*D5
340
0
  0
BLOCK_RECORD
  5
79
330
1
100
AcDbSymbolTableRecord
100
AcDbBlockTableRecord
  2
*D6
340
0
  0
BLOCK_RECORD
  5
85
330
1
100
AcDbSymbolTableRecord
100
AcDbBlockTableRecord
  2
*D7
340
0
  0
BLOCK_RECORD
  5
90
330
1
100
AcDbSymbolTableRecord
100
AcDbBlockTableRecord
  2
*D8
340
0
  0
BLOCK_RECORD
  5
9C
330
1
100
AcDbSymbolTableRecord
100
AcDbBlockTableRecord
  2
*D9
340
0
  0
BLOCK_RECORD
  5
A7
330
1
100
AcDbSymbolTableRecord
100
AcDbBlockTableRecord
  2
*D10
340
0
  0
BLOCK_RECORD
  5
B1
330
1
100
AcDbSymbolTableRecord
100
AcDbBlockTableRecord
  2
*D11
340
0
  0
BLOCK_RECORD
  5
BC
330
1
100
AcDbSymbolTableRecord
100
AcDbBlockTableRecord
  2
*D12
340
0
  0
BLOCK_RECORD
  5
C8
330
1
100
AcDbSymbolTableRecord
100
AcDbBlockTableRecord
  2
*D13
340
0
  0
BLOCK_RECORD
  5
D3
330
1
100
AcDbSymbolTableRecord
100
AcDbBlockTableRecord
  2
*D14
340
0
  0
BLOCK_RECORD
  5
DE
330
1
100
AcDbSymbolTableRecord
100
AcDbBlockTableRecord
  2
KOZU0001
340
0
102
{BLKREFS
331
32B
102
}
  0
BLOCK_RECORD
  5
E7
330
1
100
AcDbSymbolTableRecord
100
AcDbBlockTableRecord
  2
KOZU0002
340
0
102
{BLKREFS
331
339
102
}
  0
ENDTAB
  0
ENDSEC
  0
SECTION
  2
BLOCKS
  0
BLOCK
  5
23
330
22
100
AcDbEntity
  8
0
100
AcDbBlockBegin
  2
*Model_Space
 70
     0
 10
0.0
 20
0.0
 30
0.0
  3
*Model_Space
  1

  0
ENDBLK
  5
24
330
22
100
AcDbEntity
  8
0
100
AcDbBlockEnd
  0
BLOCK
  5
1F
330
1E
100
AcDbEntity
 67
     1
  8
0
100
AcDbBlockBegin
  2
*Paper_Space
 70
     0
 10
0.0
 20
0.0
 30
0.0
  3
*Paper_Space
  1

  0
ENDBLK
  5
20
330
1E
100
AcDbEntity
 67
     1
  8
0
100
AcDbBlockEnd
  0
BLOCK
  5
3E
330
3D
100
AcDbEntity
  8
0
100
AcDbBlockBegin
  2
_OPEN30
 70
     0
 10
0.0
 20
0.0
 30
0.0
  3
_OPEN30
  1

  0
LINE
  5
3F
330
3D
100
AcDbEntity
  8
0
  6
ByBlock
 62
     0
100
AcDbLine
 10
0.0
 20
0.0
 30
0.0
 11
-2.999999999999993
 21
-1.000000000000017
 31
0.0
  0
LINE
  5
40
330
3D
100
AcDbEntity
  8
0
  6
ByBlock
 62
     0
100
AcDbLine
 10
0.0
 20
0.0
 30
0.0
 11
-3.000000000000006
 21
0.9999999999999815
 31
0.0
  0
LINE
  5
41
330
3D
100
AcDbEntity
  8
0
  6
ByBlock
 62
     0
100
AcDbLine
 10
0.0
 20
0.0
 30
0.0
 11
-3.0
 21
0.0
 31
0.0
  0
ENDBLK
  5
42
330
3D
100
AcDbEntity
  8
0
100
AcDbBlockEnd
  0
BLOCK
  5
44
330
43
100
AcDbEntity
  8
0
100
AcDbBlockBegin
  2
*D1
 70
     1
 10
0.0
 20
0.0
 30
0.0
  3
*D1
  1

  0
LINE
  5
45
330
43
100
AcDbEntity
  8
0
  6
Continuous
 62
     7
100
AcDbLine
 10
-218.5705718994141
 20
59.02799224853516
 30
0.0
 11
-218.5705718994141
 21
45.75223922729492
 31
0.0
  0
LINE
  5
46
330
43
100
AcDbEntity
  8
0
  6
Continuous
 62
     7
100
AcDbLine
 10
-218.5705718994141
 20
62.52799224853515
 30
0.0
 11
-218.5705718994141
 21
59.02799224853516
 31
0.0
  0
INSERT
  5
47
330
43
100
AcDbEntity
  8
0
  6
Continuous
 62
     7
100
AcDbBlockReference
  2
_OPEN30
 10
-218.5705718994141
 20
62.52799224853515
 30
0.0
 50
270.0000000000002
  0
LINE
  5
48
330
43
100
AcDbEntity
  8
0
  6
Continuous
 62
     7
100
AcDbLine
 10
-218.5705718994141
 20
65.52799224853515
 30
0.0
 11
-218.5705718994141
 21
68.87799224853515
 31
0.0
  0
INSERT
  5
49
330
43
100
AcDbEntity
  8
0
  6
Continuous
 62
     7
100
AcDbBlockReference
  2
_OPEN30
 10
-218.5705718994141
 20
59.02799224853516
 30
0.0
 50
90.00000000000049
  0
LINE
  5
4A
330
43
100
AcDbEntity
  8
0
  6
Continuous
 62
     7
100
AcDbLine
 10
-218.570571899414
 20
56.02799224853516
 30
0.0
 11
-218.570571899414
 21
52.67799224853515
 31
0.0
  0
LINE
  5
4B
330
43
100
AcDbEntity
  8
0
  6
Continuous
 62
     7
100
AcDbLine
 10
-244.7256860351563
 20
59.02799224853516
 30
0.0
 11
-216.2845764160156
 21
59.02799224853516
 31
0.0
  0
TEXT
  5
4C
330
43
100
AcDbEntity
  8
0
  6
Continuous
 62
     7
100
AcDbText
 10
-219.3205717215087
 20
45.75223871767422
 30
0.0
 40
3.0
  1
3.5
 50
90.00000250447815
 41
1.356666684150696
100
AcDbText
  0
POINT
  5
4D
330
43
100
AcDbEntity
  8
DEFPOINTS
  6
Continuous
 62
     7
100
AcDbPoint
 10
-216.2845764160156
 20
62.52799224853515
 30
0.0
  0
POINT
  5
4E
330
43
100
AcDbEntity
  8
DEFPOINTS
  6
Continuous
 62
     7
100
AcDbPoint
 10
-247.2656860351563
 20
59.02799224853516
 30
0.0
  0
POINT
  5
4F
330
43
100
AcDbEntity
  8
DEFPOINTS
  6
Continuous
 62
     7
100
AcDbPoint
 10
-218.5705718994141
 20
59.02799224853516
 30
0.0
  0
ENDBLK
  5
50
330
43
100
AcDbEntity
  8
0
100
AcDbBlockEnd
  0
BLOCK
  5
52
330
51
100
AcDbEntity
  8
0
100
AcDbBlockBegin
  2
*D2
 70
     1
 10
0.0
 20
0.0
 30
0.0
  3
*D2
  1

  0
LINE
  5
53
330
51
100
AcDbEntity
  8
0
  6
Continuous
 62
     7
100
AcDbLine
 10
-319.2006225585938
 20
307.1786499023438
 30
0.0
 11
-224.347412109375
 21
272.6037292480469
 31
0.0
  0
LINE
  5
54
330
51
100
AcDbEntity
  8
0
  6
Continuous
 62
     7
100
AcDbLine
 10
-353.9632103785764
 20
319.8499471089489
 30
0.0
 11
-322.0192114964236
 21
308.2060526469105
 31
0.0
  0
INSERT
  5
55
330
51
100
AcDbEntity
  8
0
  6
Continuous
 62
     7
100
AcDbBlockReference
  2
_OPEN30
 10
-356.7817993164063
 20
320.8773498535156
 30
0.0
 50
159.972716032344
  0
INSERT
  5
56
330
51
100
AcDbEntity
  8
0
  6
Continuous
 62
     7
100
AcDbBlockReference
  2
_OPEN30
 10
-319.2006225585938
 20
307.1786499023438
 30
0.0
 50
339.9727160323448
  0
TEXT
  5
57
330
51
100
AcDbEntity
  8
0
  6
Continuous
 62
     7
100
AcDbText
 10
-248.6523279326198
 20
282.2547457469908
 30
0.0
 40
3.0
  1
%%C４０（子栓外径）
 50
340.0000005818142
 41
0.8448610247221777
100
AcDbText
  0
POINT
  5
58
330
51
100
AcDbEntity
  8
DEFPOINTS
  6
Continuous
 62
     7
100
AcDbPoint
 10
-356.7817993164063
 20
320.8773498535156
 30
0.0
  0
POINT
  5
59
330
51
100
AcDbEntity
  8
DEFPOINTS
  6
Continuous
 62
     7
100
AcDbPoint
 10
-319.2006225585938
 20
307.1786499023438
 30
0.0
  0
ENDBLK
  5
5A
330
51
100
AcDbEntity
  8
0
100
AcDbBlockEnd
  0
BLOCK
  5
5C
330
5B
100
AcDbEntity
  8
0
100
AcDbBlockBegin
  2
*D3
 70
     1
 10
0.0
 20
0.0
 30
0.0
  3
*D3
  1

  0
LINE
  5
5D
330
5B
100
AcDbEntity
  8
0
  6
Continuous
 62
     7
100
AcDbLine
 10
-265.6081237792969
 20
369.4742431640625
 30
0.0
 11
-238.7966461181641
 21
390.0763244628906
 31
0.0
  0
LINE
  5
5E
330
5B
100
AcDbEntity
  8
0
  6
Continuous
 62
     7
100
AcDbLine
 10
-407.5443974243071
 20
260.4096247985914
 30
0.0
 11
-267.9869441284272
 21
367.6463444396898
 31
0.0
  0
INSERT
  5
5F
330
5B
100
AcDbEntity
  8
0
  6
Continuous
 62
     7
100
AcDbBlockReference
  2
_OPEN30
 10
-409.9232177734375
 20
258.5817260742188
 30
0.0
 50
217.5388748762329
  0
INSERT
  5
60
330
5B
100
AcDbEntity
  8
0
  6
Continuous
 62
     7
100
AcDbBlockReference
  2
_OPEN30
 10
-265.6081237792969
 20
369.4742431640625
 30
0.0
 50
37.53887487623217
  0
TEXT
  5
61
330
5B
100
AcDbEntity
  8
0
  6
Continuous
 62
     7
100
AcDbText
 10
-264.7449444415171
 20
371.097100191109
 30
0.0
 40
3.0
  1
%%C１８２（防水皿外径）
 50
37.49999933598528
 41
0.8440126077968535
100
AcDbText
  0
POINT
  5
62
330
5B
100
AcDbEntity
  8
DEFPOINTS
  6
Continuous
 62
     7
100
AcDbPoint
 10
-409.9232177734375
 20
258.5817260742188
 30
0.0
  0
POINT
  5
63
330
5B
100
AcDbEntity
  8
DEFPOINTS
  6
Continuous
 62
     7
100
AcDbPoint
 10
-265.6081237792969
 20
369.4742431640625
 30
0.0
  0
ENDBLK
  5
64
330
5B
100
AcDbEntity
  8
0
100
AcDbBlockEnd
  0
BLOCK
  5
66
330
65
100
AcDbEntity
  8
0
100
AcDbBlockBegin
  2
*D4
 70
     1
 10
0.0
 20
0.0
 30
0.0
  3
*D4
  1

  0
LINE
  5
67
330
65
100
AcDbEntity
  8
0
  6
Continuous
 62
     7
100
AcDbLine
 10
-280.1761474609375
 20
337.4328918457031
 30
0.0
 11
-220.5865325927734
 21
362.5599365234375
 31
0.0
  0
LINE
  5
68
330
65
100
AcDbEntity
  8
0
  6
Continuous
 62
     7
100
AcDbLine
 10
-392.5908970161537
 20
290.0311559875179
 30
0.0
 11
-282.9404445365807
 21
336.2672754089664
 31
0.0
  0
INSERT
  5
69
330
65
100
AcDbEntity
  8
0
  6
Continuous
 62
     7
100
AcDbBlockReference
  2
_OPEN30
 10
-395.3551940917969
 20
288.8655395507813
 30
0.0
 50
202.8636105422158
  0
INSERT
  5
6A
330
65
100
AcDbEntity
  8
0
  6
Continuous
 62
     7
100
AcDbBlockReference
  2
_OPEN30
 10
-280.1761474609375
 20
337.4328918457031
 30
0.0
 50
22.86361054221514
  0
TEXT
  5
6B
330
65
100
AcDbEntity
  8
0
  6
Continuous
 62
     7
100
AcDbText
 10
-247.7253251313228
 20
351.920278554698
 30
0.0
 40
3.0
  1
%%C１２５（本体外径）
 50
22.90000040957758
 41
0.8443929326254473
100
AcDbText
  0
POINT
  5
6C
330
65
100
AcDbEntity
  8
DEFPOINTS
  6
Continuous
 62
     7
100
AcDbPoint
 10
-395.3551940917969
 20
288.8655395507813
 30
0.0
  0
POINT
  5
6D
330
65
100
AcDbEntity
  8
DEFPOINTS
  6
Continuous
 62
     7
100
AcDbPoint
 10
-280.1761474609375
 20
337.4328918457031
 30
0.0
  0
ENDBLK
  5
6E
330
65
100
AcDbEntity
  8
0
100
AcDbBlockEnd
  0
BLOCK
  5
70
330
6F
100
AcDbEntity
  8
0
100
AcDbBlockBegin
  2
*D5
 70
     1
 10
0.0
 20
0.0
 30
0.0
  3
*D5
  1

  0
LINE
  5
71
330
6F
100
AcDbEntity
  8
0
  6
Continuous
 62
     7
100
AcDbLine
 10
-290.1819152832031
 20
319.456787109375
 30
0.0
 11
-215.2418060302734
 21
329.3906860351563
 31
0.0
  0
LINE
  5
72
330
6F
100
AcDbEntity
  8
0
  6
Continuous
 62
     7
100
AcDbLine
 10
-382.3754411874838
 20
307.2358379846158
 30
0.0
 11
-293.1559003652506
 21
319.0625628942904
 31
0.0
  0
INSERT
  5
73
330
6F
100
AcDbEntity
  8
0
  6
Continuous
 62
     7
100
AcDbBlockReference
  2
_OPEN30
 10
-385.3494262695313
 20
306.8416137695313
 30
0.0
 50
187.5509669669255
  0
INSERT
  5
74
330
6F
100
AcDbEntity
  8
0
  6
Continuous
 62
     7
100
AcDbBlockReference
  2
_OPEN30
 10
-290.1819152832031
 20
319.456787109375
 30
0.0
 50
7.550966966924749
  0
TEXT
  5
75
330
6F
100
AcDbEntity
  8
0
  6
Continuous
 62
     7
100
AcDbText
 10
-244.2266586169512
 20
326.2924796332004
 30
0.0
 40
3.0
  1
%%C９６（排水栓外径）
 50
7.600000154571024
 41
0.8443929326254473
100
AcDbText
  0
POINT
  5
76
330
6F
100
AcDbEntity
  8
DEFPOINTS
  6
Continuous
 62
     7
100
AcDbPoint
 10
-385.3494262695313
 20
306.8416137695313
 30
0.0
  0
POINT
  5
77
330
6F
100
AcDbEntity
  8
DEFPOINTS
  6
Continuous
 62
     7
100
AcDbPoint
 10
-290.1819152832031
 20
319.456787109375
 30
0.0
  0
ENDBLK
  5
78
330
6F
100
AcDbEntity
  8
0
100
AcDbBlockEnd
  0
BLOCK
  5
7A
330
79
100
AcDbEntity
  8
0
100
AcDbBlockBegin
  2
*D6
 70
     1
 10
0.0
 20
0.0
 30
0.0
  3
*D6
  1

  0
LINE
  5
7B
330
79
100
AcDbEntity
  8
0
  6
Continuous
 62
     7
100
AcDbLine
 10
-376.2656860351563
 20
13.75823974609375
 30
0.0
 11
-299.2656860351563
 21
13.75823974609373
 31
0.0
  0
INSERT
  5
7C
330
79
100
AcDbEntity
  8
0
  6
Continuous
 62
     7
100
AcDbBlockReference
  2
_OPEN30
 10
-379.2656860351563
 20
13.75823974609375
 30
0.0
 50
180.0000000000004
  0
INSERT
  5
7D
330
79
100
AcDbEntity
  8
0
  6
Continuous
 62
     7
100
AcDbBlockReference
  2
_OPEN30
 10
-296.2656860351563
 20
13.75823974609375
 30
0.0
  0
LINE
  5
7E
330
79
100
AcDbEntity
  8
0
  6
Continuous
 62
     7
100
AcDbLine
 10
-379.2656860351563
 20
24.98799034118652
 30
0.0
 11
-379.2656860351563
 21
11.47224044799805
 31
0.0
  0
LINE
  5
7F
330
79
100
AcDbEntity
  8
0
  6
Continuous
 62
     7
100
AcDbLine
 10
-296.2656860351563
 20
24.98799034118652
 30
0.0
 11
-296.2656860351563
 21
11.47224044799805
 31
0.0
  0
TEXT
  5
80
330
79
100
AcDbEntity
  8
0
  6
Continuous
 62
     7
100
AcDbText
 10
-341.8356862068176
 20
14.50823974609375
 30
0.0
 40
3.0
  1
%%C83
 41
0.9498249830693319
100
AcDbText
  0
POINT
  5
81
330
79
100
AcDbEntity
  8
DEFPOINTS
  6
Continuous
 62
     7
100
AcDbPoint
 10
-379.2656860351563
 20
27.52799034118652
 30
0.0
  0
POINT
  5
82
330
79
100
AcDbEntity
  8
DEFPOINTS
  6
Continuous
 62
     7
100
AcDbPoint
 10
-296.2656860351563
 20
27.52799034118652
 30
0.0
  0
POINT
  5
83
330
79
100
AcDbEntity
  8
DEFPOINTS
  6
Continuous
 62
     7
100
AcDbPoint
 10
-296.2656860351563
 20
13.75823974609375
 30
0.0
  0
ENDBLK
  5
84
330
79
100
AcDbEntity
  8
0
100
AcDbBlockEnd
  0
BLOCK
  5
86
330
85
100
AcDbEntity
  8
0
100
AcDbBlockBegin
  2
*D7
 70
     1
 10
0.0
 20
0.0
 30
0.0
  3
*D7
  1

  0
LINE
  5
87
330
85
100
AcDbEntity
  8
0
  6
Continuous
 62
     7
100
AcDbLine
 10
-232.2666625976563
 20
65.52799224853515
 30
0.0
 11
-232.2666625976562
 21
91.52799224853515
 31
0.0
  0
INSERT
  5
88
330
85
100
AcDbEntity
  8
0
  6
Continuous
 62
     7
100
AcDbBlockReference
  2
_OPEN30
 10
-232.2666625976563
 20
62.52799224853515
 30
0.0
 50
270.0000000000005
  0
INSERT
  5
89
330
85
100
AcDbEntity
  8
0
  6
Continuous
 62
     7
100
AcDbBlockReference
  2
_OPEN30
 10
-232.2666625976563
 20
94.52799224853515
 30
0.0
 50
90.00000000000019
  0
LINE
  5
8A
330
85
100
AcDbEntity
  8
0
  6
Continuous
 62
     7
100
AcDbLine
 10
-295.2256860351562
 20
94.52799224853515
 30
0.0
 11
-229.9806518554688
 21
94.52799224853515
 31
0.0
  0
TEXT
  5
8B
330
85
100
AcDbEntity
  8
0
  6
Continuous
 62
     7
100
AcDbText
 10
-233.016662485318
 20
75.95799210369488
 30
0.0
 40
3.0
  1
32
 50
90.00000250447815
 41
1.028000020980834
100
AcDbText
  0
POINT
  5
8C
330
85
100
AcDbEntity
  8
DEFPOINTS
  6
Continuous
 62
     7
100
AcDbPoint
 10
-216.2845764160156
 20
62.52799224853515
 30
0.0
  0
POINT
  5
8D
330
85
100
AcDbEntity
  8
DEFPOINTS
  6
Continuous
 62
     7
100
AcDbPoint
 10
-297.7656860351563
 20
94.52799224853515
 30
0.0
  0
POINT
  5
8E
330
85
100
AcDbEntity
  8
DEFPOINTS
  6
Continuous
 62
     7
100
AcDbPoint
 10
-232.2666625976563
 20
94.52799224853515
 30
0.0
  0
ENDBLK
  5
8F
330
85
100
AcDbEntity
  8
0
100
AcDbBlockEnd
  0
BLOCK
  5
91
330
90
100
AcDbEntity
  8
0
100
AcDbBlockBegin
  2
*D8
 70
     1
 10
0.0
 20
0.0
 30
0.0
  3
*D8
  1

  0
LINE
  5
92
330
90
100
AcDbEntity
  8
0
  6
Continuous
 62
     7
100
AcDbLine
 10
-218.5705718994141
 20
65.52799224853515
 30
0.0
 11
-218.570571899414
 21
208.5279846191406
 31
0.0
  0
INSERT
  5
93
330
90
100
AcDbEntity
  8
0
  6
Continuous
 62
     7
100
AcDbBlockReference
  2
_OPEN30
 10
-218.5705718994141
 20
62.52799224853515
 30
0.0
 50
270.0000000000005
  0
INSERT
  5
94
330
90
100
AcDbEntity
  8
0
  6
Continuous
 62
     7
100
AcDbBlockReference
  2
_OPEN30
 10
-218.5705718994141
 20
211.5279846191406
 30
0.0
 50
90.00000000000019
  0
LINE
  5
95
330
90
100
AcDbEntity
  8
0
  6
Continuous
 62
     7
100
AcDbLine
 10
-246.2256860351563
 20
62.52799224853515
 30
0.0
 11
-216.2845764160156
 21
62.52799224853515
 31
0.0
  0
LINE
  5
96
330
90
100
AcDbEntity
  8
0
  6
Continuous
 62
     7
100
AcDbLine
 10
-273.9756860351562
 20
211.5279846191406
 30
0.0
 11
-216.2845764160156
 21
211.5279846191406
 31
0.0
  0
TEXT
  5
97
330
90
100
AcDbEntity
  8
0
  6
Continuous
 62
     7
100
AcDbText
 10
-219.3205710658378
 20
117.9579838186493
 30
0.0
 40
3.0
  1
１４９　（１４２～１６１）
 50
90.00000250447815
 41
0.8434321120058422
100
AcDbText
  0
POINT
  5
98
330
90
100
AcDbEntity
  8
DEFPOINTS
  6
Continuous
 62
     7
100
AcDbPoint
 10
-248.7656860351563
 20
62.52799224853515
 30
0.0
  0
POINT
  5
99
330
90
100
AcDbEntity
  8
DEFPOINTS
  6
Continuous
 62
     7
100
AcDbPoint
 10
-276.5156860351563
 20
211.5279846191406
 30
0.0
  0
POINT
  5
9A
330
90
100
AcDbEntity
  8
DEFPOINTS
  6
Continuous
 62
     7
100
AcDbPoint
 10
-218.5705718994141
 20
211.5279846191406
 30
0.0
  0
ENDBLK
  5
9B
330
90
100
AcDbEntity
  8
0
100
AcDbBlockEnd
  0
BLOCK
  5
9D
330
9C
100
AcDbEntity
  8
0
100
AcDbBlockBegin
  2
*D9
 70
     1
 10
0.0
 20
0.0
 30
0.0
  3
*D9
  1

  0
LINE
  5
9E
330
9C
100
AcDbEntity
  8
0
  6
Continuous
 62
     7
100
AcDbLine
 10
-232.2666625976562
 20
208.5279846191406
 30
0.0
 11
-232.2666625976563
 21
159.5279846191406
 31
0.0
  0
INSERT
  5
9F
330
9C
100
AcDbEntity
  8
0
  6
Continuous
 62
     7
100
AcDbBlockReference
  2
_OPEN30
 10
-232.2666625976563
 20
211.5279846191406
 30
0.0
 50
90.00000000000019
  0
INSERT
  5
A0
330
9C
100
AcDbEntity
  8
0
  6
Continuous
 62
     7
100
AcDbBlockReference
  2
_OPEN30
 10
-232.2666625976563
 20
156.5279846191406
 30
0.0
 50
270.0000000000005
  0
LINE
  5
A1
330
9C
100
AcDbEntity
  8
0
  6
Continuous
 62
     7
100
AcDbLine
 10
-287.7256860351561
 20
156.5279846191406
 30
0.0
 11
-229.9806518554688
 21
156.5279846191406
 31
0.0
  0
TEXT
  5
A2
330
9C
100
AcDbEntity
  8
0
  6
Continuous
 62
     7
100
AcDbText
 10
-233.016662485318
 20
181.4579844743004
 30
0.0
 40
3.0
  1
55
 50
90.00000250447815
 41
1.028000020980834
100
AcDbText
  0
POINT
  5
A3
330
9C
100
AcDbEntity
  8
DEFPOINTS
  6
Continuous
 62
     7
100
AcDbPoint
 10
-216.2845764160156
 20
211.5279846191406
 30
0.0
  0
POINT
  5
A4
330
9C
100
AcDbEntity
  8
DEFPOINTS
  6
Continuous
 62
     7
100
AcDbPoint
 10
-290.2656860351563
 20
156.5279846191406
 30
0.0
  0
POINT
  5
A5
330
9C
100
AcDbEntity
  8
DEFPOINTS
  6
Continuous
 62
     7
100
AcDbPoint
 10
-232.2666625976563
 20
156.5279846191406
 30
0.0
  0
ENDBLK
  5
A6
330
9C
100
AcDbEntity
  8
0
100
AcDbBlockEnd
  0
BLOCK
  5
A8
330
A7
100
AcDbEntity
  8
0
100
AcDbBlockBegin
  2
*D10
 70
     1
 10
0.0
 20
0.0
 30
0.0
  3
*D10
  1

  0
LINE
  5
A9
330
A7
100
AcDbEntity
  8
0
  6
Continuous
 62
     7
100
AcDbLine
 10
-326.6380920410156
 20
77.52799224853515
 30
0.0
 11
-326.6380920410156
 21
171.5279846191406
 31
0.0
  0
INSERT
  5
AA
330
A7
100
AcDbEntity
  8
0
  6
Continuous
 62
     7
100
AcDbBlockReference
  2
_OPEN30
 10
-326.6380920410156
 20
74.52799224853515
 30
0.0
 50
270.0000000000005
  0
INSERT
  5
AB
330
A7
100
AcDbEntity
  8
0
  6
Continuous
 62
     7
100
AcDbBlockReference
  2
_OPEN30
 10
-326.6380920410156
 20
174.5279846191406
 30
0.0
 50
90.00000000000019
  0
TEXT
  5
AC
330
A7
100
AcDbEntity
  8
0
  6
Continuous
 62
     7
100
AcDbText
 10
-327.3880918631103
 20
120.4579920440902
 30
0.0
 40
3.0
  1
100
 50
90.00000250447815
 41
1.320000017011488
100
AcDbText
  0
POINT
  5
AD
330
A7
100
AcDbEntity
  8
DEFPOINTS
  6
Continuous
 62
     7
100
AcDbPoint
 10
-337.7656860351563
 20
74.52799224853515
 30
0.0
  0
POINT
  5
AE
330
A7
100
AcDbEntity
  8
DEFPOINTS
  6
Continuous
 62
     7
100
AcDbPoint
 10
-337.7656860351563
 20
174.5279846191406
 30
0.0
  0
POINT
  5
AF
330
A7
100
AcDbEntity
  8
DEFPOINTS
  6
Continuous
 62
     7
100
AcDbPoint
 10
-326.6380920410156
 20
174.5279846191406
 30
0.0
  0
ENDBLK
  5
B0
330
A7
100
AcDbEntity
  8
0
100
AcDbBlockEnd
  0
BLOCK
  5
B2
330
B1
100
AcDbEntity
  8
0
100
AcDbBlockBegin
  2
*D11
 70
     1
 10
0.0
 20
0.0
 30
0.0
  3
*D11
  1

  0
LINE
  5
B3
330
B1
100
AcDbEntity
  8
0
  6
Continuous
 62
     7
100
AcDbLine
 10
-318.3340759277344
 20
77.52799224853515
 30
0.0
 11
-318.3340759277344
 21
121.5279922485352
 31
0.0
  0
INSERT
  5
B4
330
B1
100
AcDbEntity
  8
0
  6
Continuous
 62
     7
100
AcDbBlockReference
  2
_OPEN30
 10
-318.3340759277344
 20
74.52799224853515
 30
0.0
 50
270.0000000000005
  0
INSERT
  5
B5
330
B1
100
AcDbEntity
  8
0
  6
Continuous
 62
     7
100
AcDbBlockReference
  2
_OPEN30
 10
-318.3340759277344
 20
124.5279922485352
 30
0.0
 50
90.00000000000019
  0
LINE
  5
B6
330
B1
100
AcDbEntity
  8
0
  6
Continuous
 62
     7
100
AcDbLine
 10
-304.1906652832032
 20
124.5279922485351
 30
0.0
 11
-320.6200561523438
 21
124.5279922485352
 31
0.0
  0
TEXT
  5
B7
330
B1
100
AcDbEntity
  8
0
  6
Continuous
 62
     7
100
AcDbText
 10
-319.0840758153961
 20
96.95799210369488
 30
0.0
 40
3.0
  1
50
 50
90.00000250447815
 41
1.101428593908038
100
AcDbText
  0
POINT
  5
B8
330
B1
100
AcDbEntity
  8
DEFPOINTS
  6
Continuous
 62
     7
100
AcDbPoint
 10
-301.6506652832031
 20
74.52799224853515
 30
0.0
  0
POINT
  5
B9
330
B1
100
AcDbEntity
  8
DEFPOINTS
  6
Continuous
 62
     7
100
AcDbPoint
 10
-301.6506652832031
 20
124.5279922485352
 30
0.0
  0
POINT
  5
BA
330
B1
100
AcDbEntity
  8
DEFPOINTS
  6
Continuous
 62
     7
100
AcDbPoint
 10
-318.3340759277344
 20
124.5279922485352
 30
0.0
  0
ENDBLK
  5
BB
330
B1
100
AcDbEntity
  8
0
100
AcDbBlockEnd
  0
BLOCK
  5
BD
330
BC
100
AcDbEntity
  8
0
100
AcDbBlockBegin
  2
*D12
 70
     1
 10
0.0
 20
0.0
 30
0.0
  3
*D12
  1

  0
LINE
  5
BE
330
BC
100
AcDbEntity
  8
0
  6
Continuous
 62
     7
100
AcDbLine
 10
-439.0144042968749
 20
29.52799034118652
 30
0.0
 11
-439.0144042968749
 21
91.52799224853515
 31
0.0
  0
INSERT
  5
BF
330
BC
100
AcDbEntity
  8
0
  6
Continuous
 62
     7
100
AcDbBlockReference
  2
_OPEN30
 10
-439.0144042968749
 20
26.52799034118652
 30
0.0
 50
270.0000000000005
  0
INSERT
  5
C0
330
BC
100
AcDbEntity
  8
0
  6
Continuous
 62
     7
100
AcDbBlockReference
  2
_OPEN30
 10
-439.0144042968749
 20
94.52799224853515
 30
0.0
 50
90.00000000000019
  0
LINE
  5
C1
330
BC
100
AcDbEntity
  8
0
  6
Continuous
 62
     7
100
AcDbLine
 10
-380.8056860351563
 20
26.52799034118651
 30
0.0
 11
-441.3003845214843
 21
26.52799034118652
 31
0.0
  0
LINE
  5
C2
330
BC
100
AcDbEntity
  8
0
  6
Continuous
 62
     7
100
AcDbLine
 10
-380.3056860351563
 20
94.52799224853514
 30
0.0
 11
-441.3003845214843
 21
94.52799224853515
 31
0.0
  0
TEXT
  5
C3
330
BC
100
AcDbEntity
  8
0
  6
Continuous
 62
     7
100
AcDbText
 10
-439.7644041845366
 20
57.95799210369488
 30
0.0
 40
3.0
  1
68
 50
90.00000250447815
 41
1.028000020980834
100
AcDbText
  0
POINT
  5
C4
330
BC
100
AcDbEntity
  8
DEFPOINTS
  6
Continuous
 62
     7
100
AcDbPoint
 10
-378.2656860351563
 20
26.52799034118652
 30
0.0
  0
POINT
  5
C5
330
BC
100
AcDbEntity
  8
DEFPOINTS
  6
Continuous
 62
     7
100
AcDbPoint
 10
-377.7656860351563
 20
94.52799224853515
 30
0.0
  0
POINT
  5
C6
330
BC
100
AcDbEntity
  8
DEFPOINTS
  6
Continuous
 62
     7
100
AcDbPoint
 10
-439.0144042968749
 20
94.52799224853515
 30
0.0
  0
ENDBLK
  5
C7
330
BC
100
AcDbEntity
  8
0
100
AcDbBlockEnd
  0
BLOCK
  5
C9
330
C8
100
AcDbEntity
  8
0
100
AcDbBlockBegin
  2
*D13
 70
     1
 10
0.0
 20
0.0
 30
0.0
  3
*D13
  1

  0
LINE
  5
CA
330
C8
100
AcDbEntity
  8
0
  6
Continuous
 62
     7
100
AcDbLine
 10
-382.2656860351563
 20
30.48922538757322
 30
0.0
 11
-392.2656860351563
 21
30.48922538757324
 31
0.0
  0
INSERT
  5
CB
330
C8
100
AcDbEntity
  8
0
  6
Continuous
 62
     7
100
AcDbBlockReference
  2
_OPEN30
 10
-379.2656860351563
 20
30.48922538757324
 30
0.0
  0
INSERT
  5
CC
330
C8
100
AcDbEntity
  8
0
  6
Continuous
 62
     7
100
AcDbBlockReference
  2
_OPEN30
 10
-395.2656860351563
 20
30.48922538757324
 30
0.0
 50
180.0000000000004
  0
LINE
  5
CD
330
C8
100
AcDbEntity
  8
0
  6
Continuous
 62
     7
100
AcDbLine
 10
-395.2656860351563
 20
54.98702713012695
 30
0.0
 11
-395.2656860351563
 21
28.20322418212891
 31
0.0
  0
TEXT
  5
CE
330
C8
100
AcDbEntity
  8
0
  6
Continuous
 62
     7
100
AcDbText
 10
-389.835686147213
 20
31.23922538757324
 30
0.0
 40
3.0
  1
16
 41
1.285000026226043
100
AcDbText
  0
POINT
  5
CF
330
C8
100
AcDbEntity
  8
DEFPOINTS
  6
Continuous
 62
     7
100
AcDbPoint
 10
-379.2656860351563
 20
34.04983139038086
 30
0.0
  0
POINT
  5
D0
330
C8
100
AcDbEntity
  8
DEFPOINTS
  6
Continuous
 62
     7
100
AcDbPoint
 10
-395.2656860351563
 20
57.52702713012695
 30
0.0
  0
POINT
  5
D1
330
C8
100
AcDbEntity
  8
DEFPOINTS
  6
Continuous
 62
     7
100
AcDbPoint
 10
-395.2656860351563
 20
30.48922538757324
 30
0.0
  0
ENDBLK
  5
D2
330
C8
100
AcDbEntity
  8
0
100
AcDbBlockEnd
  0
BLOCK
  5
D4
330
D3
100
AcDbEntity
  8
0
100
AcDbBlockBegin
  2
*D14
 70
     1
 10
0.0
 20
0.0
 30
0.0
  3
*D14
  1

  0
LINE
  5
D5
330
D3
100
AcDbEntity
  8
0
  6
Continuous
 62
     7
100
AcDbLine
 10
-404.4854736328124
 20
56.02799224853516
 30
0.0
 11
-404.4854736328124
 21
44.02799224853516
 31
0.0
  0
INSERT
  5
D6
330
D3
100
AcDbEntity
  8
0
  6
Continuous
 62
     7
100
AcDbBlockReference
  2
_OPEN30
 10
-404.4854736328124
 20
59.02799224853516
 30
0.0
 50
90.00000000000019
  0
INSERT
  5
D7
330
D3
100
AcDbEntity
  8
0
  6
Continuous
 62
     7
100
AcDbBlockReference
  2
_OPEN30
 10
-404.4854736328124
 20
41.02799224853515
 30
0.0
 50
270.0000000000005
  0
LINE
  5
D8
330
D3
100
AcDbEntity
  8
0
  6
Continuous
 62
     7
100
AcDbLine
 10
-383.8056860351563
 20
41.02799224853514
 30
0.0
 11
-406.7714538574218
 21
41.02799224853515
 31
0.0
  0
TEXT
  5
D9
330
D3
100
AcDbEntity
  8
0
  6
Continuous
 62
     7
100
AcDbText
 10
-405.2354735204741
 20
47.45799210369488
 30
0.0
 40
3.0
  1
18
 50
90.00000250447815
 41
1.285000026226043
100
AcDbText
  0
POINT
  5
DA
330
D3
100
AcDbEntity
  8
DEFPOINTS
  6
Continuous
 62
     7
100
AcDbPoint
 10
-384.2656860351563
 20
59.02799224853516
 30
0.0
  0
POINT
  5
DB
330
D3
100
AcDbEntity
  8
DEFPOINTS
  6
Continuous
 62
     7
100
AcDbPoint
 10
-381.2656860351563
 20
41.02799224853515
 30
0.0
  0
POINT
  5
DC
330
D3
100
AcDbEntity
  8
DEFPOINTS
  6
Continuous
 62
     7
100
AcDbPoint
 10
-404.4854736328124
 20
41.02799224853515
 30
0.0
  0
ENDBLK
  5
DD
330
D3
100
AcDbEntity
  8
0
100
AcDbBlockEnd
  0
BLOCK
  5
DF
330
DE
100
AcDbEntity
  8
0
100
AcDbBlockBegin
  2
KOZU0001
 70
     0
 10
0.0
 20
0.0
 30
0.0
  3
KOZU0001
  1

  0
LINE
  5
E0
330
DE
100
AcDbEntity
  8
0
  6
Continuous
 62
     7
100
AcDbLine
 10
0.0
 20
0.0
 30
0.0
 11
10.79525756835938
 21
-8.688579559326173
 31
0.0
  0
LINE
  5
E1
330
DE
100
AcDbEntity
  8
0
  6
Continuous
 62
     7
100
AcDbLine
 10
10.79525756835938
 20
-8.688579559326173
 30
0.0
 11
52.12617492675781
 21
-8.688579559326173
 31
0.0
  0
LINE
  5
E2
330
DE
100
AcDbEntity
  8
0
  6
Continuous
 62
     7
100
AcDbLine
 10
0.0
 20
0.0
 30
0.0
 11
2.964062196482067
 21
-1.101968826866669
 31
0.0
  0
LINE
  5
E3
330
DE
100
AcDbEntity
  8
0
  6
Continuous
 62
     7
100
AcDbLine
 10
0.0
 20
0.0
 30
0.0
 11
1.710068461065651
 21
-2.660012379382576
 31
0.0
  0
TEXT
  5
E4
330
DE
100
AcDbEntity
  8
0
  6
Continuous
 62
     7
100
AcDbText
 10
15.26615834236145
 20
-7.938579559326172
 30
0.0
 40
3.0
  1
配管接続口
 41
0.8487395020950888
100
AcDbText
  0
TEXT
  5
E5
330
DE
100
AcDbEntity
  8
0
  6
Continuous
 62
     7
100
AcDbText
 10
15.26615834236145
 20
-13.20357955932617
 30
0.0
 40
3.0
  1
Ｒｃ２　１／２（６５Ａ）
 41
0.8436974815103043
100
AcDbText
  0
ENDBLK
  5
E6
330
DE
100
AcDbEntity
  8
0
100
AcDbBlockEnd
  0
BLOCK
  5
E8
330
E7
100
AcDbEntity
  8
0
100
AcDbBlockBegin
  2
KOZU0002
 70
     0
 10
0.0
 20
0.0
 30
0.0
  3
KOZU0002
  1

  0
LINE
  5
E9
330
E7
100
AcDbEntity
  8
0
  6
Continuous
 62
     7
100
AcDbLine
 10
0.0
 20
0.0
 30
0.0
 11
-18.19927978515625
 21
-38.0784502029419
 31
0.0
  0
LINE
  5
EA
330
E7
100
AcDbEntity
  8
0
  6
Continuous
 62
     7
100
AcDbLine
 10
-18.19927978515625
 20
-38.0784502029419
 30
0.0
 11
-46.29916381835938
 21
-38.0784502029419
 31
0.0
  0
LINE
  5
EB
330
E7
100
AcDbEntity
  8
0
  6
Continuous
 62
     7
100
AcDbLine
 10
0.0
 20
0.0
 30
0.0
 11
-0.3914171193803177
 21
-3.137959948542366
 31
0.0
  0
LINE
  5
EC
330
E7
100
AcDbEntity
  8
0
  6
Continuous
 62
     7
100
AcDbLine
 10
0.0
 20
0.0
 30
0.0
 11
-2.195909664629673
 21
-2.275517687205703
 31
0.0
  0
TEXT
  5
ED
330
E7
100
AcDbEntity
  8
0
  6
Continuous
 62
     7
100
AcDbText
 10
-44.57916343212128
 20
-37.3284502029419
 30
0.0
 40
3.0
  1
共廻り防止用羽根
 41
0.8454512278006642
100
AcDbText
  0
TEXT
  5
EE
330
E7
100
AcDbEntity
  8
0
  6
Continuous
 62
     7
100
AcDbText
 10
-44.57916343212128
 20
-42.5934502029419
 30
0.0
 40
3.0
  1
３ヶ所
 41
0.8550420278260688
100
AcDbText
  0
ENDBLK
  5
EF
330
E7
100
AcDbEntity
  8
0
100
AcDbBlockEnd
  0
ENDSEC
  0
SECTION
  2
ENTITIES
  0
LINE
  5
F0
330
22
100
AcDbEntity
  8
0
  6
CENTER
 62
     7
100
AcDbLine
 10
-239.4407653808594
 20
314.0279846191406
 30
0.0
 11
-435.7793273925781
 21
314.0279846191406
 31
0.0
  0
LINE
  5
F1
330
22
100
AcDbEntity
  8
0
  6
CENTER
 62
     7
100
AcDbLine
 10
-337.7656860351563
 20
28.15609550476074
 30
0.0
 11
-337.7656860351563
 21
217.1137390136719
 31
0.0
  0
LINE
  5
F2
330
22
100
AcDbEntity
  8
0
  6
CENTER
 62
     7
100
AcDbLine
 10
-337.7656860351563
 20
221.0324401855469
 30
0.0
 11
-337.7656860351563
 21
407.0957946777343
 31
0.0
  0
LINE
  5
F3
330
22
100
AcDbEntity
  8
0
  6
Continuous
 62
     7
100
AcDbLine
 10
-334.0508422851563
 20
315.5992126464844
 30
0.0
 11
-330.315673828125
 21
315.5992126464844
 31
0.0
  0
LINE
  5
F4
330
22
100
AcDbEntity
  8
0
  6
Continuous
 62
     7
100
AcDbLine
 10
-334.0508422851563
 20
310.69921875
 30
0.0
 11
-330.315673828125
 21
310.69921875
 31
0.0
  0
LINE
  5
F5
330
22
100
AcDbEntity
  8
0
  6
Continuous
 62
     7
100
AcDbLine
 10
-330.315673828125
 20
315.5992126464844
 30
0.0
 11
-330.315673828125
 21
310.69921875
 31
0.0
  0
LINE
  5
F6
330
22
100
AcDbEntity
  8
0
  6
Continuous
 62
     7
100
AcDbLine
 10
-341.4805297851563
 20
310.69921875
 30
0.0
 11
-345.2156677246094
 21
310.69921875
 31
0.0
  0
LINE
  5
F7
330
22
100
AcDbEntity
  8
0
  6
Continuous
 62
     7
100
AcDbLine
 10
-341.4805297851563
 20
315.5992126464844
 30
0.0
 11
-345.2156677246094
 21
315.5992126464844
 31
0.0
  0
LINE
  5
F8
330
22
100
AcDbEntity
  8
0
  6
Continuous
 62
     7
100
AcDbLine
 10
-345.2156677246094
 20
315.5992126464844
 30
0.0
 11
-345.2156677246094
 21
310.69921875
 31
0.0
  0
LINE
  5
F9
330
22
100
AcDbEntity
  8
0
  6
Continuous
 62
     7
100
AcDbLine
 10
-285.228271484375
 20
207.5279846191406
 30
0.0
 11
-275.2656860351563
 21
207.5279846191406
 31
0.0
  0
LINE
  5
FA
330
22
100
AcDbEntity
  8
0
  6
Continuous
 62
     7
100
AcDbLine
 10
-289.7656860351563
 20
210.5279846191406
 30
0.0
 11
-293.5567016601563
 21
189.0279846191406
 31
0.0
  0
LINE
  5
FB
330
22
100
AcDbEntity
  8
0
  6
Continuous
 62
     7
100
AcDbLine
 10
-330.4912414550781
 20
195.5279846191406
 30
0.0
 11
-330.4912414550781
 21
192.5279846191406
 31
0.0
  0
LINE
  5
FC
330
22
100
AcDbEntity
  8
0
  6
Continuous
 62
     7
100
AcDbLine
 10
-293.5567016601563
 20
189.0279846191406
 30
0.0
 11
-295.5567016601563
 21
189.0279846191406
 31
0.0
  0
LINE
  5
FD
330
22
100
AcDbEntity
  8
0
  6
Continuous
 62
     7
100
AcDbLine
 10
-320.370849609375
 20
196.5279846191406
 30
0.0
 11
-322.2708435058594
 21
196.5279846191406
 31
0.0
  0
LINE
  5
FE
330
22
100
AcDbEntity
  8
0
  6
Continuous
 62
     7
100
AcDbLine
 10
-321.6912536621094
 20
192.5845642089844
 30
0.0
 11
-321.6346740722656
 21
192.5279846191406
 31
0.0
  0
LINE
  5
FF
330
22
100
AcDbEntity
  8
0
  6
Continuous
 62
     7
100
AcDbLine
 10
-317.9126586914063
 20
209.9155120849609
 30
0.0
 11
-319.7726440429688
 21
201.8589477539063
 31
0.0
  0
LINE
  5
100
330
22
100
AcDbEntity
  8
0
  6
Continuous
 62
     7
100
AcDbLine
 10
-275.2656860351563
 20
210.2779846191406
 30
0.0
 11
-275.2656860351563
 21
207.5279846191406
 31
0.0
  0
LINE
  5
101
330
22
100
AcDbEntity
  8
0
  6
Continuous
 62
     7
100
AcDbLine
 10
-329.771240234375
 20
207.5279846191406
 30
0.0
 11
-329.771240234375
 21
201.5279846191406
 31
0.0
  0
LINE
  5
102
330
22
100
AcDbEntity
  8
0
  6
Continuous
 62
     7
100
AcDbLine
 10
-319.7726440429688
 20
201.5274505615234
 30
0.0
 11
-321.7708435058594
 21
201.5274505615234
 31
0.0
  0
LINE
  5
103
330
22
100
AcDbEntity
  8
0
  6
Continuous
 62
     7
100
AcDbLine
 10
-289.2656860351563
 20
191.5279846191406
 30
0.0
 11
-286.4568481445313
 21
206.5083465576172
 31
0.0
  0
LINE
  5
104
330
22
100
AcDbEntity
  8
0
  6
Continuous
 62
     7
100
AcDbLine
 10
-315.8664855957031
 20
204.7690277099609
 30
0.0
 11
-316.7442321777344
 21
194.3599395751953
 31
0.0
  0
LINE
  5
105
330
22
100
AcDbEntity
  8
0
  6
Continuous
 62
     7
100
AcDbLine
 10
-321.7708435058594
 20
201.5274505615234
 30
0.0
 11
-321.7708435058594
 21
199.0279846191406
 31
0.0
  0
LINE
  5
106
330
22
100
AcDbEntity
  8
0
  6
Continuous
 62
     7
100
AcDbLine
 10
-321.7708435058594
 20
199.0279846191406
 30
0.0
 11
-319.870849609375
 21
199.0279846191406
 31
0.0
  0
LINE
  5
107
330
22
100
AcDbEntity
  8
0
  6
Continuous
 62
     7
100
AcDbLine
 10
-323.7708435058594
 20
198.0279846191406
 30
0.0
 11
-323.7708435058594
 21
198.1774597167969
 31
0.0
  0
LINE
  5
108
330
22
100
AcDbEntity
  8
0
  6
Continuous
 62
     7
100
AcDbLine
 10
-319.870849609375
 20
199.0279846191406
 30
0.0
 11
-319.870849609375
 21
197.0279846191406
 31
0.0
  0
LINE
  5
109
330
22
100
AcDbEntity
  8
0
  6
Continuous
 62
     7
100
AcDbLine
 10
-321.6912536621094
 20
192.5279846191406
 30
0.0
 11
-321.6912536621094
 21
195.5279846191406
 31
0.0
  0
LINE
  5
10A
330
22
100
AcDbEntity
  8
0
  6
Continuous
 62
     7
100
AcDbLine
 10
-314.3717651367188
 20
206.1429901123047
 30
0.0
 11
-300.2445068359375
 21
206.1429901123047
 31
0.0
  0
LINE
  5
10B
330
22
100
AcDbEntity
  8
0
  6
Continuous
 62
     7
100
AcDbLine
 10
-319.7726440429688
 20
201.8589477539063
 30
0.0
 11
-319.7726440429688
 21
195.5279846191406
 31
0.0
  0
LINE
  5
10C
330
22
100
AcDbEntity
  8
0
  6
Continuous
 62
     7
100
AcDbLine
 10
-319.7726440429688
 20
201.5274505615234
 30
0.0
 11
-319.7726440429688
 21
201.8589477539063
 31
0.0
  0
LINE
  5
10D
330
22
100
AcDbEntity
  8
0
  6
Continuous
 62
     7
100
AcDbLine
 10
-318.7371826171875
 20
192.5279846191406
 30
0.0
 11
-330.4912414550781
 21
192.5279846191406
 31
0.0
  0
LINE
  5
10E
330
22
100
AcDbEntity
  8
0
  6
Continuous
 62
     7
100
AcDbLine
 10
-324.7708435058594
 20
199.1774597167969
 30
0.0
 11
-330.771240234375
 21
199.1774597167969
 31
0.0
  0
LINE
  5
10F
330
22
100
AcDbEntity
  8
0
  6
Continuous
 62
     7
100
AcDbLine
 10
-329.7740478515625
 20
208.6662902832031
 30
0.0
 11
-329.7740478515625
 21
207.5170593261719
 31
0.0
  0
LINE
  5
110
330
22
100
AcDbEntity
  8
0
  6
Continuous
 62
     7
100
AcDbLine
 10
-300.6131896972656
 20
170.5279846191406
 30
0.0
 11
-294.09423828125
 21
170.5279846191406
 31
0.0
  0
LINE
  5
111
330
22
100
AcDbEntity
  8
0
  6
Continuous
 62
     7
100
AcDbLine
 10
-300.1756896972656
 20
156.5279846191406
 30
0.0
 11
-300.1756896972656
 21
170.5348205566406
 31
0.0
  0
LINE
  5
112
330
22
100
AcDbEntity
  8
0
  6
Continuous
 62
     7
100
AcDbLine
 10
-300.5956115722656
 20
170.5279846191406
 30
0.0
 11
-300.6131896972656
 21
170.5279846191406
 31
0.0
  0
LINE
  5
113
330
22
100
AcDbEntity
  8
0
  6
Continuous
 62
     7
100
AcDbLine
 10
-301.8346557617188
 20
158.2939910888672
 30
0.0
 11
-301.8346557617188
 21
168.9764099121094
 31
0.0
  0
LINE
  5
114
330
22
100
AcDbEntity
  8
0
  6
Continuous
 62
     7
100
AcDbLine
 10
-301.8346557617188
 20
168.9185028076172
 30
0.0
 11
-300.1756896972656
 21
170.5279846191406
 31
0.0
  0
LINE
  5
115
330
22
100
AcDbEntity
  8
0
  6
Continuous
 62
     7
100
AcDbLine
 10
-313.90673828125
 20
74.52799224853515
 30
0.0
 11
-320.81005859375
 21
74.52799224853515
 31
0.0
  0
LINE
  5
116
330
22
100
AcDbEntity
  8
0
  6
Continuous
 62
     7
100
AcDbLine
 10
-317.4345397949219
 20
174.5279846191406
 30
0.0
 11
-312.81005859375
 21
174.5279846191406
 31
0.0
  0
LINE
  5
117
330
22
100
AcDbEntity
  8
0
  6
Continuous
 62
     7
100
AcDbLine
 10
-300.6730041503906
 20
173.0046691894531
 30
0.0
 11
-299.8385925292969
 21
146.3046569824219
 31
0.0
  0
LINE
  5
118
330
22
100
AcDbEntity
  8
0
  6
Continuous
 62
     7
100
AcDbLine
 10
-302.1963195800781
 20
174.5279846191406
 30
0.0
 11
-301.3619079589844
 21
147.8279876708984
 31
0.0
  0
LINE
  5
119
330
22
100
AcDbEntity
  8
0
  6
Continuous
 62
     7
100
AcDbLine
 10
-303.7656860351563
 20
171.4037780761719
 30
0.0
 11
-302.1492004394531
 21
173.0202484130859
 31
0.0
  0
LINE
  5
11A
330
22
100
AcDbEntity
  8
0
  6
Continuous
 62
     7
100
AcDbLine
 10
-303.7656860351563
 20
167.8682403564453
 30
0.0
 11
-302.0420837402344
 21
169.5918579101563
 31
0.0
  0
LINE
  5
11B
330
22
100
AcDbEntity
  8
0
  6
Continuous
 62
     7
100
AcDbLine
 10
-303.7656860351563
 20
164.3327026367188
 30
0.0
 11
-301.9349365234375
 21
166.1634674072266
 31
0.0
  0
LINE
  5
11C
330
22
100
AcDbEntity
  8
0
  6
Continuous
 62
     7
100
AcDbLine
 10
-303.7656860351563
 20
160.7971801757813
 30
0.0
 11
-301.8277893066406
 21
162.7350616455078
 31
0.0
  0
LINE
  5
11D
330
22
100
AcDbEntity
  8
0
  6
Continuous
 62
     7
100
AcDbLine
 10
-303.7656860351563
 20
157.2616424560547
 30
0.0
 11
-301.7206420898438
 21
159.3066711425781
 31
0.0
  0
LINE
  5
11E
330
22
100
AcDbEntity
  8
0
  6
Continuous
 62
     7
100
AcDbLine
 10
-303.7656860351563
 20
153.7261047363281
 30
0.0
 11
-301.6134948730469
 21
155.8782806396484
 31
0.0
  0
LINE
  5
11F
330
22
100
AcDbEntity
  8
0
  6
Continuous
 62
     7
100
AcDbLine
 10
-303.7656860351563
 20
150.1905670166016
 30
0.0
 11
-301.50634765625
 21
152.4498901367188
 31
0.0
  0
LINE
  5
120
330
22
100
AcDbEntity
  8
0
  6
Continuous
 62
     7
100
AcDbLine
 10
-303.7656860351563
 20
146.6550445556641
 30
0.0
 11
-301.3992004394531
 21
149.0214996337891
 31
0.0
  0
LINE
  5
121
330
22
100
AcDbEntity
  8
0
  6
Continuous
 62
     7
100
AcDbLine
 10
-303.7656860351563
 20
143.1195068359375
 30
0.0
 11
-300.2095642089844
 21
146.6756286621094
 31
0.0
  0
LINE
  5
122
330
22
100
AcDbEntity
  8
0
  6
Continuous
 62
     7
100
AcDbLine
 10
-303.7656860351563
 20
139.5839691162109
 30
0.0
 11
-299.6156921386719
 21
143.7339782714844
 31
0.0
  0
LINE
  5
123
330
22
100
AcDbEntity
  8
0
  6
Continuous
 62
     7
100
AcDbLine
 10
-303.7656860351563
 20
136.0484313964844
 30
0.0
 11
-299.6156921386719
 21
140.1984405517578
 31
0.0
  0
LINE
  5
124
330
22
100
AcDbEntity
  8
0
  6
Continuous
 62
     7
100
AcDbLine
 10
-303.7656860351563
 20
132.5129089355469
 30
0.0
 11
-299.6156921386719
 21
136.6629028320313
 31
0.0
  0
LINE
  5
125
330
22
100
AcDbEntity
  8
0
  6
Continuous
 62
     7
100
AcDbLine
 10
-303.7656860351563
 20
128.9773712158203
 30
0.0
 11
-299.6156921386719
 21
133.1273651123047
 31
0.0
  0
LINE
  5
126
330
22
100
AcDbEntity
  8
0
  6
Continuous
 62
     7
100
AcDbLine
 10
-303.7656860351563
 20
125.4418334960938
 30
0.0
 11
-299.6156921386719
 21
129.5918273925781
 31
0.0
  0
LINE
  5
127
330
22
100
AcDbEntity
  8
0
  6
Continuous
 62
     7
100
AcDbLine
 10
-303.7656860351563
 20
121.9063034057617
 30
0.0
 11
-301.6506652832031
 21
124.0213012695313
 31
0.0
  0
LINE
  5
128
330
22
100
AcDbEntity
  8
0
  6
Continuous
 62
     7
100
AcDbLine
 10
-303.7656860351563
 20
118.3707656860352
 30
0.0
 11
-301.6506652832031
 21
120.4857635498047
 31
0.0
  0
LINE
  5
129
330
22
100
AcDbEntity
  8
0
  6
Continuous
 62
     7
100
AcDbLine
 10
-303.7656860351563
 20
114.8352355957031
 30
0.0
 11
-301.6506652832031
 21
116.9502334594727
 31
0.0
  0
LINE
  5
12A
330
22
100
AcDbEntity
  8
0
  6
Continuous
 62
     7
100
AcDbLine
 10
-303.7656860351563
 20
111.2996978759766
 30
0.0
 11
-301.6506652832031
 21
113.4146957397461
 31
0.0
  0
LINE
  5
12B
330
22
100
AcDbEntity
  8
0
  6
Continuous
 62
     7
100
AcDbLine
 10
-303.7656860351563
 20
107.7641677856445
 30
0.0
 11
-301.6506652832031
 21
109.8791656494141
 31
0.0
  0
LINE
  5
12C
330
22
100
AcDbEntity
  8
0
  6
Continuous
 62
     7
100
AcDbLine
 10
-303.7656860351563
 20
104.228630065918
 30
0.0
 11
-301.6506652832031
 21
106.3436279296875
 31
0.0
  0
LINE
  5
12D
330
22
100
AcDbEntity
  8
0
  6
Continuous
 62
     7
100
AcDbLine
 10
-303.7656860351563
 20
100.6930999755859
 30
0.0
 11
-301.6506652832031
 21
102.8080978393555
 31
0.0
  0
LINE
  5
12E
330
22
100
AcDbEntity
  8
0
  6
Continuous
 62
     7
100
AcDbLine
 10
-303.7656860351563
 20
97.15756225585938
 30
0.0
 11
-301.6506652832031
 21
99.27256011962892
 31
0.0
  0
LINE
  5
12F
330
22
100
AcDbEntity
  8
0
  6
Continuous
 62
     7
100
AcDbLine
 10
-303.7656860351563
 20
93.62203216552734
 30
0.0
 11
-301.6506652832031
 21
95.73703002929688
 31
0.0
  0
LINE
  5
130
330
22
100
AcDbEntity
  8
0
  6
Continuous
 62
     7
100
AcDbLine
 10
-303.7656860351563
 20
90.08649444580077
 30
0.0
 11
-301.6506652832031
 21
92.20149230957032
 31
0.0
  0
LINE
  5
131
330
22
100
AcDbEntity
  8
0
  6
Continuous
 62
     7
100
AcDbLine
 10
-303.7656860351563
 20
86.55096435546875
 30
0.0
 11
-301.6506652832031
 21
88.66596221923828
 31
0.0
  0
LINE
  5
132
330
22
100
AcDbEntity
  8
0
  6
Continuous
 62
     7
100
AcDbLine
 10
-303.7656860351563
 20
83.01542663574219
 30
0.0
 11
-301.6506652832031
 21
85.13042449951171
 31
0.0
  0
LINE
  5
133
330
22
100
AcDbEntity
  8
0
  6
Continuous
 62
     7
100
AcDbLine
 10
-303.7656860351563
 20
79.47989654541015
 30
0.0
 11
-301.6506652832031
 21
81.59489440917969
 31
0.0
  0
LINE
  5
134
330
22
100
AcDbEntity
  8
0
  6
Continuous
 62
     7
100
AcDbLine
 10
-303.7656860351563
 20
75.94435882568359
 30
0.0
 11
-301.6506652832031
 21
78.05935668945313
 31
0.0
  0
LINE
  5
135
330
22
100
AcDbEntity
  8
0
  6
Continuous
 62
     7
100
AcDbLine
 10
-303.7656860351563
 20
74.52799224853515
 30
0.0
 11
-303.7656860351563
 21
174.5279846191406
 31
0.0
  0
LINE
  5
136
330
22
100
AcDbEntity
  8
0
  6
Continuous
 62
     7
100
AcDbLine
 10
-331.9912414550781
 20
191.0279846191406
 30
0.0
 11
-332.9912414550781
 21
191.0279846191406
 31
0.0
  0
LINE
  5
137
330
22
100
AcDbEntity
  8
0
  6
Continuous
 62
     7
100
AcDbLine
 10
-332.9912414550781
 20
191.0279846191406
 30
0.0
 11
-332.9912414550781
 21
195.5279846191406
 31
0.0
  0
LINE
  5
138
330
22
100
AcDbEntity
  8
0
  6
Continuous
 62
     7
100
AcDbLine
 10
-332.9912414550781
 20
195.5279846191406
 30
0.0
 11
-319.7726440429688
 21
195.5279846191406
 31
0.0
  0
LINE
  5
139
330
22
100
AcDbEntity
  8
0
  6
Continuous
 62
     7
100
AcDbLine
 10
-332.9912414550781
 20
195.5279846191406
 30
0.0
 11
-333.771240234375
 21
195.5279846191406
 31
0.0
  0
LINE
  5
13A
330
22
100
AcDbEntity
  8
0
  6
Continuous
 62
     7
100
AcDbLine
 10
-332.9912414550781
 20
191.0279846191406
 30
0.0
 11
-333.771240234375
 21
191.0279846191406
 31
0.0
  0
LINE
  5
13B
330
22
100
AcDbEntity
  8
0
  6
Continuous
 62
     7
100
AcDbLine
 10
-332.9912414550781
 20
191.1566467285156
 30
0.0
 11
-332.8626098632813
 21
191.0279846191406
 31
0.0
  0
LINE
  5
13C
330
22
100
AcDbEntity
  8
0
  6
Continuous
 62
     7
100
AcDbLine
 10
-295.5567016601563
 20
186.5279846191406
 30
0.0
 11
-293.6567077636719
 21
186.5279846191406
 31
0.0
  0
LINE
  5
13D
330
22
100
AcDbEntity
  8
0
  6
Continuous
 62
     7
100
AcDbLine
 10
-295.5567016601563
 20
189.0279846191406
 30
0.0
 11
-295.5567016601563
 21
186.5279846191406
 31
0.0
  0
LINE
  5
13E
330
22
100
AcDbEntity
  8
0
  6
Continuous
 62
     7
100
AcDbLine
 10
-293.6567077636719
 20
186.5279846191406
 30
0.0
 11
-293.5567016601563
 21
189.0279846191406
 31
0.0
  0
LINE
  5
13F
330
22
100
AcDbEntity
  8
0
  6
Continuous
 62
     7
100
AcDbLine
 10
-263.5132751464844
 20
61.52799224853516
 30
0.0
 11
-264.5132751464844
 21
62.52799224853515
 31
0.0
  0
LINE
  5
140
330
22
100
AcDbEntity
  8
0
  6
Continuous
 62
     7
100
AcDbLine
 10
-263.5132751464844
 20
61.52799224853516
 30
0.0
 11
-262.5132751464844
 21
62.52799224853515
 31
0.0
  0
LINE
  5
141
330
22
100
AcDbEntity
  8
0
  6
Continuous
 62
     7
100
AcDbLine
 10
-300.1756896972656
 20
76.00299072265625
 30
0.0
 11
-300.1756896972656
 21
126.1461639404297
 31
0.0
  0
LINE
  5
142
330
22
100
AcDbEntity
  8
0
  6
Continuous
 62
     7
100
AcDbLine
 10
-300.1756896972656
 20
94.52799224853515
 30
0.0
 11
-301.6506652832031
 21
93.05299377441405
 31
0.0
  0
LINE
  5
143
330
22
100
AcDbEntity
  8
0
  6
Continuous
 62
     7
100
AcDbLine
 10
-300.1756896972656
 20
94.52799224853515
 30
0.0
 11
-297.7656860351563
 21
94.52799224853515
 31
0.0
  0
LINE
  5
144
330
22
100
AcDbEntity
  8
0
  6
Continuous
 62
     7
100
AcDbLine
 10
-301.6506652832031
 20
124.5279922485352
 30
0.0
 11
-299.6156921386719
 21
126.7605209350586
 31
0.0
  0
LINE
  5
145
330
22
100
AcDbEntity
  8
0
  6
Continuous
 62
     7
100
AcDbLine
 10
-279.5156860351563
 20
61.52799224853516
 30
0.0
 11
-278.5156860351563
 21
62.52799224853515
 31
0.0
  0
LINE
  5
146
330
22
100
AcDbEntity
  8
0
  6
Continuous
 62
     7
100
AcDbLine
 10
-279.5156860351563
 20
61.52799224853516
 30
0.0
 11
-280.5156860351563
 21
62.52799224853515
 31
0.0
  0
LINE
  5
147
330
22
100
AcDbEntity
  8
0
  6
Continuous
 62
     7
100
AcDbLine
 10
-300.1756896972656
 20
26.52799034118652
 30
0.0
 11
-301.6990051269531
 21
28.05131721496582
 31
0.0
  0
LINE
  5
148
330
22
100
AcDbEntity
  8
0
  6
Continuous
 62
     7
100
AcDbLine
 10
-301.6506652832031
 20
74.52799224853515
 30
0.0
 11
-301.6506652832031
 21
124.5279922485352
 31
0.0
  0
LINE
  5
149
330
22
100
AcDbEntity
  8
0
  6
Continuous
 62
     7
100
AcDbLine
 10
-300.1756896972656
 20
94.52799224853515
 30
0.0
 11
-300.1756896972656
 21
62.52799224853515
 31
0.0
  0
LINE
  5
14A
330
22
100
AcDbEntity
  8
0
  6
Continuous
 62
     7
100
AcDbLine
 10
-301.6506652832031
 20
74.52799224853515
 30
0.0
 11
-300.1756896972656
 21
76.00299072265625
 31
0.0
  0
LINE
  5
14B
330
22
100
AcDbEntity
  8
0
  6
Continuous
 62
     7
100
AcDbLine
 10
-296.2656860351563
 20
58.02799224853515
 30
0.0
 11
-296.2656860351563
 21
27.52799034118652
 31
0.0
  0
LINE
  5
14C
330
22
100
AcDbEntity
  8
0
  6
Continuous
 62
     7
100
AcDbLine
 10
-300.1756896972656
 20
26.52799034118652
 30
0.0
 11
-301.157958984375
 21
57.95898818969727
 31
0.0
  0
LINE
  5
14D
330
22
100
AcDbEntity
  8
0
  6
Continuous
 62
     7
100
AcDbLine
 10
-302.5889587402344
 20
56.52799224853516
 30
0.0
 11
-301.6990051269531
 21
28.05131721496582
 31
0.0
  0
LINE
  5
14E
330
22
100
AcDbEntity
  8
0
  6
Continuous
 62
     7
100
AcDbLine
 10
-300.1756896972656
 20
93.5842742919922
 30
0.0
 11
-299.2319641113281
 21
94.52799224853515
 31
0.0
  0
LINE
  5
14F
330
22
100
AcDbEntity
  8
0
  6
Continuous
 62
     7
100
AcDbLine
 10
-300.1756896972656
 20
90.75585174560549
 30
0.0
 11
-296.9135131835938
 21
94.01801300048829
 31
0.0
  0
LINE
  5
150
330
22
100
AcDbEntity
  8
0
  6
Continuous
 62
     7
100
AcDbLine
 10
-300.1756896972656
 20
87.92742156982422
 30
0.0
 11
-296.7656860351563
 21
91.3374252319336
 31
0.0
  0
LINE
  5
151
330
22
100
AcDbEntity
  8
0
  6
Continuous
 62
     7
100
AcDbLine
 10
-300.1756896972656
 20
85.09899139404296
 30
0.0
 11
-296.7656860351563
 21
88.50899505615235
 31
0.0
  0
LINE
  5
152
330
22
100
AcDbEntity
  8
0
  6
Continuous
 62
     7
100
AcDbLine
 10
-300.1756896972656
 20
82.27056884765625
 30
0.0
 11
-296.7656860351563
 21
85.68056488037109
 31
0.0
  0
LINE
  5
153
330
22
100
AcDbEntity
  8
0
  6
Continuous
 62
     7
100
AcDbLine
 10
-300.1756896972656
 20
79.442138671875
 30
0.0
 11
-296.7656860351563
 21
82.85214233398438
 31
0.0
  0
LINE
  5
154
330
22
100
AcDbEntity
  8
0
  6
Continuous
 62
     7
100
AcDbLine
 10
-300.1756896972656
 20
76.61371612548828
 30
0.0
 11
-296.7656860351563
 21
80.02371215820312
 31
0.0
  0
LINE
  5
155
330
22
100
AcDbEntity
  8
0
  6
Continuous
 62
     7
100
AcDbLine
 10
-300.1756896972656
 20
73.78528594970703
 30
0.0
 11
-296.7656860351563
 21
77.19528961181641
 31
0.0
  0
LINE
  5
156
330
22
100
AcDbEntity
  8
0
  6
Continuous
 62
     7
100
AcDbLine
 10
-300.1756896972656
 20
70.95685577392578
 30
0.0
 11
-296.7656860351563
 21
74.36685943603515
 31
0.0
  0
LINE
  5
157
330
22
100
AcDbEntity
  8
0
  6
Continuous
 62
     7
100
AcDbLine
 10
-300.1756896972656
 20
68.12843322753906
 30
0.0
 11
-296.7656860351563
 21
71.5384292602539
 31
0.0
  0
LINE
  5
158
330
22
100
AcDbEntity
  8
0
  6
Continuous
 62
     7
100
AcDbLine
 10
-300.1756896972656
 20
65.30000305175781
 30
0.0
 11
-296.7656860351563
 21
68.71000671386719
 31
0.0
  0
LINE
  5
159
330
22
100
AcDbEntity
  8
0
  6
Continuous
 62
     7
100
AcDbLine
 10
-300.1756896972656
 20
62.47157669067383
 30
0.0
 11
-296.5357971191406
 21
66.1114501953125
 31
0.0
  0
LINE
  5
15A
330
22
100
AcDbEntity
  8
0
  6
Continuous
 62
     7
100
AcDbLine
 10
-300.1756896972656
 20
59.64315032958984
 30
0.0
 11
-295.5379333496093
 21
64.28089904785156
 31
0.0
  0
LINE
  5
15B
330
22
100
AcDbEntity
  8
0
  6
Continuous
 62
     7
100
AcDbLine
 10
-301.093505859375
 20
55.89690017700196
 30
0.0
 11
-293.9415283203125
 21
63.04887008666992
 31
0.0
  0
LINE
  5
15C
330
22
100
AcDbEntity
  8
0
  6
Continuous
 62
     7
100
AcDbLine
 10
-295.1339721679688
 20
59.02799224853516
 30
0.0
 11
-291.6339721679688
 21
62.52799224853515
 31
0.0
  0
LINE
  5
15D
330
22
100
AcDbEntity
  8
0
  6
Continuous
 62
     7
100
AcDbLine
 10
-301.0077819824219
 20
53.1541862487793
 30
0.0
 11
-296.2656860351563
 21
57.89629745483398
 31
0.0
  0
LINE
  5
15E
330
22
100
AcDbEntity
  8
0
  6
Continuous
 62
     7
100
AcDbLine
 10
-292.3055725097656
 20
59.02799224853516
 30
0.0
 11
-288.8055725097656
 21
62.52799224853515
 31
0.0
  0
LINE
  5
15F
330
22
100
AcDbEntity
  8
0
  6
Continuous
 62
     7
100
AcDbLine
 10
-300.9220886230469
 20
50.41147232055664
 30
0.0
 11
-296.2656860351563
 21
55.06787109375
 31
0.0
  0
LINE
  5
160
330
22
100
AcDbEntity
  8
0
  6
Continuous
 62
     7
100
AcDbLine
 10
-289.4771423339843
 20
59.02799224853516
 30
0.0
 11
-285.9771423339844
 21
62.52799224853515
 31
0.0
  0
LINE
  5
161
330
22
100
AcDbEntity
  8
0
  6
Continuous
 62
     7
100
AcDbLine
 10
-300.8363647460938
 20
47.66875839233398
 30
0.0
 11
-296.2656860351563
 21
52.23944091796875
 31
0.0
  0
LINE
  5
162
330
22
100
AcDbEntity
  8
0
  6
Continuous
 62
     7
100
AcDbLine
 10
-286.6487121582031
 20
59.02799224853516
 30
0.0
 11
-283.1487121582031
 21
62.52799224853515
 31
0.0
  0
LINE
  5
163
330
22
100
AcDbEntity
  8
0
  6
Continuous
 62
     7
100
AcDbLine
 10
-300.7506408691406
 20
44.92604827880859
 30
0.0
 11
-296.2656860351563
 21
49.41101455688477
 31
0.0
  0
LINE
  5
164
330
22
100
AcDbEntity
  8
0
  6
Continuous
 62
     7
100
AcDbLine
 10
-283.8202819824219
 20
59.02799224853516
 30
0.0
 11
-280.41796875
 21
62.43029022216797
 31
0.0
  0
LINE
  5
165
330
22
100
AcDbEntity
  8
0
  6
Continuous
 62
     7
100
AcDbLine
 10
-300.6649475097656
 20
42.18333435058593
 30
0.0
 11
-296.2656860351563
 21
46.58258819580078
 31
0.0
  0
LINE
  5
166
330
22
100
AcDbEntity
  8
0
  6
Continuous
 62
     7
100
AcDbLine
 10
-280.9918518066406
 20
59.02799224853516
 30
0.0
 11
-277.4918518066406
 21
62.52799224853515
 31
0.0
  0
LINE
  5
167
330
22
100
AcDbEntity
  8
0
  6
Continuous
 62
     7
100
AcDbLine
 10
-300.5792236328125
 20
39.44062042236328
 30
0.0
 11
-296.2656860351563
 21
43.7541618347168
 31
0.0
  0
LINE
  5
168
330
22
100
AcDbEntity
  8
0
  6
Continuous
 62
     7
100
AcDbLine
 10
-278.1634216308594
 20
59.02799224853516
 30
0.0
 11
-274.6634216308594
 21
62.52799224853515
 31
0.0
  0
LINE
  5
169
330
22
100
AcDbEntity
  8
0
  6
Continuous
 62
     7
100
AcDbLine
 10
-300.4934997558594
 20
36.69790649414063
 30
0.0
 11
-296.2656860351563
 21
40.92573547363281
 31
0.0
  0
LINE
  5
16A
330
22
100
AcDbEntity
  8
0
  6
Continuous
 62
     7
100
AcDbLine
 10
-275.3349914550781
 20
59.02799224853516
 30
0.0
 11
-271.8349914550781
 21
62.52799224853515
 31
0.0
  0
LINE
  5
16B
330
22
100
AcDbEntity
  8
0
  6
Continuous
 62
     7
100
AcDbLine
 10
-300.4078063964844
 20
33.95519638061523
 30
0.0
 11
-296.2656860351563
 21
38.09730529785156
 31
0.0
  0
LINE
  5
16C
330
22
100
AcDbEntity
  8
0
  6
Continuous
 62
     7
100
AcDbLine
 10
-272.5065612792969
 20
59.02799224853516
 30
0.0
 11
-269.0065612792969
 21
62.52799224853515
 31
0.0
  0
LINE
  5
16D
330
22
100
AcDbEntity
  8
0
  6
Continuous
 62
     7
100
AcDbLine
 10
-300.3220825195313
 20
31.21248245239258
 30
0.0
 11
-296.2656860351563
 21
35.26887893676758
 31
0.0
  0
LINE
  5
16E
330
22
100
AcDbEntity
  8
0
  6
Continuous
 62
     7
100
AcDbLine
 10
-269.6781311035156
 20
59.02799224853516
 30
0.0
 11
-266.1781311035156
 21
62.52799224853515
 31
0.0
  0
LINE
  5
16F
330
22
100
AcDbEntity
  8
0
  6
Continuous
 62
     7
100
AcDbLine
 10
-300.2363586425781
 20
28.46976852416992
 30
0.0
 11
-296.2656860351563
 21
32.44045257568359
 31
0.0
  0
LINE
  5
170
330
22
100
AcDbEntity
  8
0
  6
Continuous
 62
     7
100
AcDbLine
 10
-266.8497009277345
 20
59.02799224853516
 30
0.0
 11
-263.9314880371094
 21
61.94620895385742
 31
0.0
  0
LINE
  5
171
330
22
100
AcDbEntity
  8
0
  6
Continuous
 62
     7
100
AcDbLine
 10
-299.3497009277344
 20
26.52799034118652
 30
0.0
 11
-296.2656860351563
 21
29.61202621459961
 31
0.0
  0
LINE
  5
172
330
22
100
AcDbEntity
  8
0
  6
Continuous
 62
     7
100
AcDbLine
 10
-264.0213012695313
 20
59.02799224853516
 30
0.0
 11
-260.5213012695313
 21
62.52799224853515
 31
0.0
  0
LINE
  5
173
330
22
100
AcDbEntity
  8
0
  6
Continuous
 62
     7
100
AcDbLine
 10
-261.19287109375
 20
59.02799224853516
 30
0.0
 11
-257.69287109375
 21
62.52799224853515
 31
0.0
  0
LINE
  5
174
330
22
100
AcDbEntity
  8
0
  6
Continuous
 62
     7
100
AcDbLine
 10
-258.3644409179688
 20
59.02799224853516
 30
0.0
 11
-254.8644256591797
 21
62.52799224853515
 31
0.0
  0
LINE
  5
175
330
22
100
AcDbEntity
  8
0
  6
Continuous
 62
     7
100
AcDbLine
 10
-255.5360107421875
 20
59.02799224853516
 30
0.0
 11
-252.0360107421875
 21
62.52799224853515
 31
0.0
  0
LINE
  5
176
330
22
100
AcDbEntity
  8
0
  6
Continuous
 62
     7
100
AcDbLine
 10
-252.7075805664063
 20
59.02799224853516
 30
0.0
 11
-249.2075805664063
 21
62.52799224853515
 31
0.0
  0
LINE
  5
177
330
22
100
AcDbEntity
  8
0
  6
Continuous
 62
     7
100
AcDbLine
 10
-249.879150390625
 20
59.02799224853516
 30
0.0
 11
-247.1966400146484
 21
61.71049880981446
 31
0.0
  0
LINE
  5
178
330
22
100
AcDbEntity
  8
0
  6
Continuous
 62
     7
100
AcDbLine
 10
-299.6156921386719
 20
126.7605209350586
 30
0.0
 11
-299.6156921386719
 21
146.0817565917969
 31
0.0
  0
LINE
  5
179
330
22
100
AcDbEntity
  8
0
  6
Continuous
 62
     7
100
AcDbLine
 10
-301.3619079589844
 20
147.8279876708984
 30
0.0
 11
-299.6156921386719
 21
146.0817565917969
 31
0.0
  0
LINE
  5
17A
330
22
100
AcDbEntity
  8
0
  6
Continuous
 62
     7
100
AcDbLine
 10
-294.09423828125
 20
175.5279846191406
 30
0.0
 11
-294.09423828125
 21
170.5279846191406
 31
0.0
  0
LINE
  5
17B
330
22
100
AcDbEntity
  8
0
  6
Continuous
 62
     7
100
AcDbLine
 10
-386.2656860351563
 20
191.5279846191406
 30
0.0
 11
-389.2656860351563
 21
207.5279846191406
 31
0.0
  0
LINE
  5
17C
330
22
100
AcDbEntity
  8
0
  6
Continuous
 62
     7
100
AcDbLine
 10
-400.2656860351563
 20
210.2779846191406
 30
0.0
 11
-400.2656860351563
 21
207.5279846191406
 31
0.0
  0
LINE
  5
17D
330
22
100
AcDbEntity
  8
0
  6
Continuous
 62
     7
100
AcDbLine
 10
-386.2656860351563
 20
191.5279846191406
 30
0.0
 11
-343.7656860351563
 21
191.5279846191406
 31
0.0
  0
LINE
  5
17E
330
22
100
AcDbEntity
  8
0
  6
Continuous
 62
     7
100
AcDbLine
 10
-294.09423828125
 20
175.5279846191406
 30
0.0
 11
-327.7656860351563
 21
175.5279846191406
 31
0.0
  0
LINE
  5
17F
330
22
100
AcDbEntity
  8
0
  6
Continuous
 62
     7
100
AcDbLine
 10
-302.1963195800781
 20
174.5279846191406
 30
0.0
 11
-300.6730041503906
 21
173.0046691894531
 31
0.0
  0
LINE
  5
180
330
22
100
AcDbEntity
  8
0
  6
Continuous
 62
     7
100
AcDbLine
 10
-301.8890075683594
 20
158.2413177490234
 30
0.0
 11
-300.1756896972656
 21
156.5279846191406
 31
0.0
  0
LINE
  5
181
330
22
100
AcDbEntity
  8
0
  6
Continuous
 62
     7
100
AcDbLine
 10
-290.2656860351563
 20
156.5279846191406
 30
0.0
 11
-289.2656860351563
 21
157.5279846191406
 31
0.0
  0
LINE
  5
182
330
22
100
AcDbEntity
  8
0
  6
Continuous
 62
     7
100
AcDbLine
 10
-300.1580810546875
 20
156.5279846191406
 30
0.0
 11
-290.2656860351563
 21
156.5279846191406
 31
0.0
  0
LINE
  5
183
330
22
100
AcDbEntity
  8
0
  6
Continuous
 62
     7
100
AcDbLine
 10
-301.6506652832031
 20
64.00299072265625
 30
0.0
 11
-300.1756896972656
 21
62.52799224853515
 31
0.0
  0
LINE
  5
184
330
22
100
AcDbEntity
  8
0
  6
Continuous
 62
     7
100
AcDbLine
 10
-302.5889587402344
 20
56.52799224853516
 30
0.0
 11
-301.157958984375
 21
57.95898818969727
 31
0.0
  0
LINE
  5
185
330
22
100
AcDbEntity
  8
0
  6
Continuous
 62
     7
100
AcDbLine
 10
-301.157958984375
 20
57.95898818969727
 30
0.0
 11
-301.157958984375
 21
62.52799224853515
 31
0.0
  0
LINE
  5
186
330
22
100
AcDbEntity
  8
0
  6
Continuous
 62
     7
100
AcDbLine
 10
-270.2656860351563
 20
62.52799224853515
 30
0.0
 11
-255.2535858154297
 21
62.52799224853515
 31
0.0
  0
LINE
  5
187
330
22
100
AcDbEntity
  8
0
  6
Continuous
 62
     7
100
AcDbLine
 10
-296.7656860351563
 20
67.52799224853515
 30
0.0
 11
-296.7656860351563
 21
93.52799224853516
 31
0.0
  0
LINE
  5
188
330
22
100
AcDbEntity
  8
0
  6
Continuous
 62
     7
100
AcDbLine
 10
-301.6506652832031
 20
93.05299377441405
 30
0.0
 11
-301.6506652832031
 21
64.00299072265625
 31
0.0
  0
LINE
  5
189
330
22
100
AcDbEntity
  8
0
  6
Continuous
 62
     7
100
AcDbLine
 10
-295.2656860351563
 20
59.02799224853516
 30
0.0
 11
-247.2656860351563
 21
59.02799224853516
 31
0.0
  0
LINE
  5
18A
330
22
100
AcDbEntity
  8
0
  6
Continuous
 62
     7
100
AcDbLine
 10
-291.7656860351563
 20
62.52799224853515
 30
0.0
 11
-248.7656860351563
 21
62.52799224853515
 31
0.0
  0
LINE
  5
18B
330
22
100
AcDbEntity
  8
0
  6
Continuous
 62
     7
100
AcDbLine
 10
-246.7656860351564
 20
59.52799224853515
 30
0.0
 11
-246.7656860351564
 21
60.52799224853515
 31
0.0
  0
LINE
  5
18C
330
22
100
AcDbEntity
  8
0
  6
Continuous
 62
     7
100
AcDbLine
 10
-395.2656860351563
 20
59.02799224853516
 30
0.0
 11
-395.2656860351563
 21
57.52702713012695
 31
0.0
  0
LINE
  5
18D
330
22
100
AcDbEntity
  8
0
  6
Continuous
 62
     7
100
AcDbLine
 10
-378.7656860351563
 20
67.52799224853515
 30
0.0
 11
-378.7656860351563
 21
93.52799224853516
 31
0.0
  0
LINE
  5
18E
330
22
100
AcDbEntity
  8
0
  6
Continuous
 62
     7
100
AcDbLine
 10
-379.2656860351563
 20
41.02799224853515
 30
0.0
 11
-381.2656860351563
 21
41.02799224853515
 31
0.0
  0
LINE
  5
18F
330
22
100
AcDbEntity
  8
0
  6
Continuous
 62
     7
100
AcDbLine
 10
-379.2656860351563
 20
58.02799224853515
 30
0.0
 11
-379.2656860351563
 21
27.52799034118652
 31
0.0
  0
LINE
  5
190
330
22
100
AcDbEntity
  8
0
  6
Continuous
 62
     7
100
AcDbLine
 10
-428.7656860351563
 20
59.52799224853515
 30
0.0
 11
-428.7656860351563
 21
60.52799224853515
 31
0.0
  0
LINE
  5
191
330
22
100
AcDbEntity
  8
0
  6
Continuous
 62
     7
100
AcDbLine
 10
-384.2656860351563
 20
59.02799224853516
 30
0.0
 11
-380.2656860351563
 21
59.02799224853516
 31
0.0
  0
LINE
  5
192
330
22
100
AcDbEntity
  8
0
  6
Continuous
 62
     7
100
AcDbLine
 10
-395.2656860351563
 20
59.02799224853516
 30
0.0
 11
-416.0798034667968
 21
59.02799224853516
 31
0.0
  0
LINE
  5
193
330
22
100
AcDbEntity
  8
0
  6
Continuous
 62
     7
100
AcDbLine
 10
-379.2656860351563
 20
34.04983139038086
 30
0.0
 11
-379.2656860351563
 21
25.98941612243652
 31
0.0
  0
LINE
  5
194
330
22
100
AcDbEntity
  8
0
  6
Continuous
 62
     7
100
AcDbLine
 10
-426.7656860351562
 20
62.52799224853515
 30
0.0
 11
-383.7656860351563
 21
62.52799224853515
 31
0.0
  0
LINE
  5
195
330
22
100
AcDbEntity
  8
0
  6
Continuous
 62
     7
100
AcDbLine
 10
-428.2656860351563
 20
59.02799224853516
 30
0.0
 11
-384.2656860351563
 21
59.02799224853516
 31
0.0
  0
LINE
  5
196
330
22
100
AcDbEntity
  8
0
  6
Continuous
 62
     7
100
AcDbLine
 10
-375.9156799316406
 20
124.643180847168
 30
0.0
 11
-375.9156799316406
 21
146.0817565917969
 31
0.0
  0
LINE
  5
197
330
22
100
AcDbEntity
  8
0
  6
Continuous
 62
     7
100
AcDbLine
 10
-373.8975524902344
 20
156.5279846191406
 30
0.0
 11
-374.16943359375
 21
147.8279876708984
 31
0.0
  0
LINE
  5
198
330
22
100
AcDbEntity
  8
0
  6
Continuous
 62
     7
100
AcDbLine
 10
-375.3732604980469
 20
156.5279846191406
 30
0.0
 11
-375.6927795410156
 21
146.3046569824219
 31
0.0
  0
LINE
  5
199
330
22
100
AcDbEntity
  8
0
  6
Continuous
 62
     7
100
AcDbLine
 10
-374.16943359375
 20
147.8279876708984
 30
0.0
 11
-375.9156799316406
 21
146.0817565917969
 31
0.0
  0
LINE
  5
19A
330
22
100
AcDbEntity
  8
0
  6
Continuous
 62
     7
100
AcDbLine
 10
-386.2656860351563
 20
159.5279846191406
 30
0.0
 11
-388.2656860351563
 21
161.5279846191406
 31
0.0
  0
LINE
  5
19B
330
22
100
AcDbEntity
  8
0
  6
Continuous
 62
     7
100
AcDbLine
 10
-388.2656860351563
 20
191.3421173095703
 30
0.0
 11
-391.2314147949219
 21
207.1594085693359
 31
0.0
  0
LINE
  5
19C
330
22
100
AcDbEntity
  8
0
  6
Continuous
 62
     7
100
AcDbLine
 10
-343.7656860351563
 20
207.5279846191406
 30
0.0
 11
-343.7656860351563
 21
159.5279846191406
 31
0.0
  0
LINE
  5
19D
330
22
100
AcDbEntity
  8
0
  6
Continuous
 62
     7
100
AcDbLine
 10
-291.1875610351563
 20
210.5279846191406
 30
0.0
 11
-289.9788208007813
 21
209.3192443847656
 31
0.0
  0
LINE
  5
19E
330
22
100
AcDbEntity
  8
0
  6
Continuous
 62
     7
100
AcDbLine
 10
-291.5411071777344
 20
210.5279846191406
 30
0.0
 11
-290.0317993164063
 21
209.0186920166016
 31
0.0
  0
LINE
  5
19F
330
22
100
AcDbEntity
  8
0
  6
Continuous
 62
     7
100
AcDbLine
 10
-292.6017761230469
 20
210.5279846191406
 30
0.0
 11
-290.1907958984375
 21
208.1170196533203
 31
0.0
  0
LINE
  5
1A0
330
22
100
AcDbEntity
  8
0
  6
Continuous
 62
     7
100
AcDbLine
 10
-292.955322265625
 20
210.5279846191406
 30
0.0
 11
-290.2438049316406
 21
207.8164520263672
 31
0.0
  0
LINE
  5
1A1
330
22
100
AcDbEntity
  8
0
  6
Continuous
 62
     7
100
AcDbLine
 10
-294.0159912109375
 20
210.5279846191406
 30
0.0
 11
-290.4027709960938
 21
206.914794921875
 31
0.0
  0
LINE
  5
1A2
330
22
100
AcDbEntity
  8
0
  6
Continuous
 62
     7
100
AcDbLine
 10
-294.3695373535156
 20
210.5279846191406
 30
0.0
 11
-290.4557800292969
 21
206.6142272949219
 31
0.0
  0
LINE
  5
1A3
330
22
100
AcDbEntity
  8
0
  6
Continuous
 62
     7
100
AcDbLine
 10
-295.4302062988281
 20
210.5279846191406
 30
0.0
 11
-290.6147766113281
 21
205.7125549316406
 31
0.0
  0
LINE
  5
1A4
330
22
100
AcDbEntity
  8
0
  6
Continuous
 62
     7
100
AcDbLine
 10
-295.7837524414063
 20
210.5279846191406
 30
0.0
 11
-290.6677551269531
 21
205.4120025634766
 31
0.0
  0
LINE
  5
1A5
330
22
100
AcDbEntity
  8
0
  6
Continuous
 62
     7
100
AcDbLine
 10
-296.8444213867188
 20
210.5279846191406
 30
0.0
 11
-290.8267517089844
 21
204.5103302001953
 31
0.0
  0
LINE
  5
1A6
330
22
100
AcDbEntity
  8
0
  6
Continuous
 62
     7
100
AcDbLine
 10
-297.1979675292969
 20
210.5279846191406
 30
0.0
 11
-290.8797607421875
 21
204.2097778320314
 31
0.0
  0
LINE
  5
1A7
330
22
100
AcDbEntity
  8
0
  6
Continuous
 62
     7
100
AcDbLine
 10
-298.2586364746094
 20
210.5279846191406
 30
0.0
 11
-291.0387268066406
 21
203.30810546875
 31
0.0
  0
LINE
  5
1A8
330
22
100
AcDbEntity
  8
0
  6
Continuous
 62
     7
100
AcDbLine
 10
-298.6121826171875
 20
210.5279846191406
 30
0.0
 11
-291.0917358398438
 21
203.0075378417969
 31
0.0
  0
LINE
  5
1A9
330
22
100
AcDbEntity
  8
0
  6
Continuous
 62
     7
100
AcDbLine
 10
-299.6728515625
 20
210.5279846191406
 30
0.0
 11
-291.250732421875
 21
202.1058807373047
 31
0.0
  0
LINE
  5
1AA
330
22
100
AcDbEntity
  8
0
  6
Continuous
 62
     7
100
AcDbLine
 10
-300.0263977050781
 20
210.5279846191406
 30
0.0
 11
-291.3037109375
 21
201.8053131103516
 31
0.0
  0
LINE
  5
1AB
330
22
100
AcDbEntity
  8
0
  6
Continuous
 62
     7
100
AcDbLine
 10
-301.0870666503906
 20
210.5279846191406
 30
0.0
 11
-291.4627075195313
 21
200.9036407470703
 31
0.0
  0
LINE
  5
1AC
330
22
100
AcDbEntity
  8
0
  6
Continuous
 62
     7
100
AcDbLine
 10
-301.4406127929688
 20
210.5279846191406
 30
0.0
 11
-291.5157165527343
 21
200.6030883789063
 31
0.0
  0
LINE
  5
1AD
330
22
100
AcDbEntity
  8
0
  6
Continuous
 62
     7
100
AcDbLine
 10
-302.5012817382813
 20
210.5279846191406
 30
0.0
 11
-291.6746826171875
 21
199.701416015625
 31
0.0
  0
LINE
  5
1AE
330
22
100
AcDbEntity
  8
0
  6
Continuous
 62
     7
100
AcDbLine
 10
-302.8548278808594
 20
210.5279846191406
 30
0.0
 11
-291.7276916503906
 21
199.4008636474609
 31
0.0
  0
LINE
  5
1AF
330
22
100
AcDbEntity
  8
0
  6
Continuous
 62
     7
100
AcDbLine
 10
-303.9154968261719
 20
210.5279846191406
 30
0.0
 11
-291.8866882324219
 21
198.4991912841797
 31
0.0
  0
LINE
  5
1B0
330
22
100
AcDbEntity
  8
0
  6
Continuous
 62
     7
100
AcDbLine
 10
-298.8270568847656
 20
205.0860137939453
 30
0.0
 11
-291.9396667480469
 21
198.1986389160156
 31
0.0
  0
LINE
  5
1B1
330
22
100
AcDbEntity
  8
0
  6
Continuous
 62
     7
100
AcDbLine
 10
-304.26904296875
 20
210.5279846191406
 30
0.0
 11
-299.7945251464844
 21
206.0534820556641
 31
0.0
  0
LINE
  5
1B2
330
22
100
AcDbEntity
  8
0
  6
Continuous
 62
     7
100
AcDbLine
 10
-298.6770629882813
 20
203.8753662109375
 30
0.0
 11
-292.0986633300781
 21
197.2969665527344
 31
0.0
  0
LINE
  5
1B3
330
22
100
AcDbEntity
  8
0
  6
Continuous
 62
     7
100
AcDbLine
 10
-305.3296813964844
 20
210.5279846191406
 30
0.0
 11
-300.9447021484375
 21
206.1429901123047
 31
0.0
  0
LINE
  5
1B4
330
22
100
AcDbEntity
  8
0
  6
Continuous
 62
     7
100
AcDbLine
 10
-298.645751953125
 20
203.4904937744141
 30
0.0
 11
-292.1516723632813
 21
196.9963989257813
 31
0.0
  0
LINE
  5
1B5
330
22
100
AcDbEntity
  8
0
  6
Continuous
 62
     7
100
AcDbLine
 10
-305.6832580566406
 20
210.5279846191406
 30
0.0
 11
-301.2982482910156
 21
206.1429901123047
 31
0.0
  0
LINE
  5
1B6
330
22
100
AcDbEntity
  8
0
  6
Continuous
 62
     7
100
AcDbLine
 10
-298.5517578125
 20
202.3358459472656
 30
0.0
 11
-292.3106384277344
 21
196.0947265625
 31
0.0
  0
LINE
  5
1B7
330
22
100
AcDbEntity
  8
0
  6
Continuous
 62
     7
100
AcDbLine
 10
-306.743896484375
 20
210.5279846191406
 30
0.0
 11
-302.3589172363281
 21
206.1429901123047
 31
0.0
  0
LINE
  5
1B8
330
22
100
AcDbEntity
  8
0
  6
Continuous
 62
     7
100
AcDbLine
 10
-298.5204467773438
 20
201.9509735107422
 30
0.0
 11
-292.3636474609375
 21
195.7941741943359
 31
0.0
  0
LINE
  5
1B9
330
22
100
AcDbEntity
  8
0
  6
Continuous
 62
     7
100
AcDbLine
 10
-307.0974731445313
 20
210.5279846191406
 30
0.0
 11
-302.7124633789063
 21
206.1429901123047
 31
0.0
  0
LINE
  5
1BA
330
22
100
AcDbEntity
  8
0
  6
Continuous
 62
     7
100
AcDbLine
 10
-298.4264526367188
 20
200.7963256835938
 30
0.0
 11
-292.5226440429688
 21
194.8925018310547
 31
0.0
  0
LINE
  5
1BB
330
22
100
AcDbEntity
  8
0
  6
Continuous
 62
     7
100
AcDbLine
 10
-308.1581115722656
 20
210.5279846191406
 30
0.0
 11
-303.7731323242188
 21
206.1429901123047
 31
0.0
  0
LINE
  5
1BC
330
22
100
AcDbEntity
  8
0
  6
Continuous
 62
     7
100
AcDbLine
 10
-298.3951416015625
 20
200.4114379882814
 30
0.0
 11
-292.5756225585938
 21
194.5919494628906
 31
0.0
  0
LINE
  5
1BD
330
22
100
AcDbEntity
  8
0
  6
Continuous
 62
     7
100
AcDbLine
 10
-308.5116882324219
 20
210.5279846191406
 30
0.0
 11
-304.1266784667969
 21
206.1429901123047
 31
0.0
  0
LINE
  5
1BE
330
22
100
AcDbEntity
  8
0
  6
Continuous
 62
     7
100
AcDbLine
 10
-298.3011474609375
 20
199.2568054199219
 30
0.0
 11
-292.734619140625
 21
193.6902770996094
 31
0.0
  0
LINE
  5
1BF
330
22
100
AcDbEntity
  8
0
  6
Continuous
 62
     7
100
AcDbLine
 10
-309.5723266601563
 20
210.5279846191406
 30
0.0
 11
-305.1873474121094
 21
206.1429901123047
 31
0.0
  0
LINE
  5
1C0
330
22
100
AcDbEntity
  8
0
  6
Continuous
 62
     7
100
AcDbLine
 10
-298.2698059082031
 20
198.8719177246094
 30
0.0
 11
-292.7876281738281
 21
193.3897247314453
 31
0.0
  0
LINE
  5
1C1
330
22
100
AcDbEntity
  8
0
  6
Continuous
 62
     7
100
AcDbLine
 10
-309.9259033203125
 20
210.5279846191406
 30
0.0
 11
-305.5408935546875
 21
206.1429901123047
 31
0.0
  0
LINE
  5
1C2
330
22
100
AcDbEntity
  8
0
  6
Continuous
 62
     7
100
AcDbLine
 10
-298.1758422851563
 20
197.7172698974609
 30
0.0
 11
-292.9465942382813
 21
192.4880523681641
 31
0.0
  0
LINE
  5
1C3
330
22
100
AcDbEntity
  8
0
  6
Continuous
 62
     7
100
AcDbLine
 10
-310.9865417480469
 20
210.5279846191406
 30
0.0
 11
-306.6015625
 21
206.1429901123047
 31
0.0
  0
LINE
  5
1C4
330
22
100
AcDbEntity
  8
0
  6
Continuous
 62
     7
100
AcDbLine
 10
-298.1445007324219
 20
197.3323974609375
 30
0.0
 11
-292.9996032714844
 21
192.1874847412109
 31
0.0
  0
LINE
  5
1C5
330
22
100
AcDbEntity
  8
0
  6
Continuous
 62
     7
100
AcDbLine
 10
-311.3401184082031
 20
210.5279846191406
 30
0.0
 11
-306.9551086425781
 21
206.1429901123047
 31
0.0
  0
LINE
  5
1C6
330
22
100
AcDbEntity
  8
0
  6
Continuous
 62
     7
100
AcDbLine
 10
-298.050537109375
 20
196.1777496337891
 30
0.0
 11
-293.1585998535156
 21
191.2858123779297
 31
0.0
  0
LINE
  5
1C7
330
22
100
AcDbEntity
  8
0
  6
Continuous
 62
     7
100
AcDbLine
 10
-312.4007568359375
 20
210.5279846191406
 30
0.0
 11
-308.0157775878906
 21
206.1429901123047
 31
0.0
  0
LINE
  5
1C8
330
22
100
AcDbEntity
  8
0
  6
Continuous
 62
     7
100
AcDbLine
 10
-298.0191955566406
 20
195.7928771972656
 30
0.0
 11
-293.2115783691406
 21
190.9852600097656
 31
0.0
  0
LINE
  5
1C9
330
22
100
AcDbEntity
  8
0
  6
Continuous
 62
     7
100
AcDbLine
 10
-312.7543029785156
 20
210.5279846191406
 30
0.0
 11
-308.3693237304688
 21
206.1429901123047
 31
0.0
  0
LINE
  5
1CA
330
22
100
AcDbEntity
  8
0
  6
Continuous
 62
     7
100
AcDbLine
 10
-297.9252319335938
 20
194.6382293701172
 30
0.0
 11
-293.3705749511719
 21
190.0835876464844
 31
0.0
  0
LINE
  5
1CB
330
22
100
AcDbEntity
  8
0
  6
Continuous
 62
     7
100
AcDbLine
 10
-313.8149719238281
 20
210.5279846191406
 30
0.0
 11
-309.4299621582031
 21
206.1429901123047
 31
0.0
  0
LINE
  5
1CC
330
22
100
AcDbEntity
  8
0
  6
Continuous
 62
     7
100
AcDbLine
 10
-297.8938903808593
 20
194.2533416748047
 30
0.0
 11
-293.423583984375
 21
189.7830352783203
 31
0.0
  0
LINE
  5
1CD
330
22
100
AcDbEntity
  8
0
  6
Continuous
 62
     7
100
AcDbLine
 10
-314.1685180664063
 20
210.5279846191406
 30
0.0
 11
-309.7835388183594
 21
206.1429901123047
 31
0.0
  0
LINE
  5
1CE
330
22
100
AcDbEntity
  8
0
  6
Continuous
 62
     7
100
AcDbLine
 10
-297.7998962402344
 20
193.0987091064453
 30
0.0
 11
-293.7291870117188
 21
189.0279846191406
 31
0.0
  0
LINE
  5
1CF
330
22
100
AcDbEntity
  8
0
  6
Continuous
 62
     7
100
AcDbLine
 10
-315.2291870117188
 20
210.5279846191406
 30
0.0
 11
-310.8441772460938
 21
206.1429901123047
 31
0.0
  0
LINE
  5
1D0
330
22
100
AcDbEntity
  8
0
  6
Continuous
 62
     7
100
AcDbLine
 10
-297.7685852050781
 20
192.7138214111328
 30
0.0
 11
-294.0827331542969
 21
189.0279846191406
 31
0.0
  0
LINE
  5
1D1
330
22
100
AcDbEntity
  8
0
  6
Continuous
 62
     7
100
AcDbLine
 10
-315.5827331542969
 20
210.5279846191406
 30
0.0
 11
-311.19775390625
 21
206.1429901123047
 31
0.0
  0
LINE
  5
1D2
330
22
100
AcDbEntity
  8
0
  6
Continuous
 62
     7
100
AcDbLine
 10
-297.6745910644531
 20
191.5591888427734
 30
0.0
 11
-295.1434020996094
 21
189.0279846191406
 31
0.0
  0
LINE
  5
1D3
330
22
100
AcDbEntity
  8
0
  6
Continuous
 62
     7
100
AcDbLine
 10
-316.6434020996094
 20
210.5279846191406
 30
0.0
 11
-312.2583923339844
 21
206.1429901123047
 31
0.0
  0
LINE
  5
1D4
330
22
100
AcDbEntity
  8
0
  6
Continuous
 62
     7
100
AcDbLine
 10
-297.6432800292969
 20
191.1743011474609
 30
0.0
 11
-295.4969482421875
 21
189.0279846191406
 31
0.0
  0
LINE
  5
1D5
330
22
100
AcDbEntity
  8
0
  6
Continuous
 62
     7
100
AcDbLine
 10
-316.9969482421875
 20
210.5279846191406
 30
0.0
 11
-312.6119689941406
 21
206.1429901123047
 31
0.0
  0
LINE
  5
1D6
330
22
100
AcDbEntity
  8
0
  6
Continuous
 62
     7
100
AcDbLine
 10
-294.0576171875
 20
186.5279846191406
 30
0.0
 11
-293.6567077636719
 21
186.1270751953125
 31
0.0
  0
LINE
  5
1D7
330
22
100
AcDbEntity
  8
0
  6
Continuous
 62
     7
100
AcDbLine
 10
-297.5492858886719
 20
190.0196533203125
 30
0.0
 11
-295.5567016601563
 21
188.0270843505859
 31
0.0
  0
LINE
  5
1D8
330
22
100
AcDbEntity
  8
0
  6
Continuous
 62
     7
100
AcDbLine
 10
-317.8008117675781
 20
210.2711944580078
 30
0.0
 11
-313.672607421875
 21
206.1429901123047
 31
0.0
  0
LINE
  5
1D9
330
22
100
AcDbEntity
  8
0
  6
Continuous
 62
     7
100
AcDbLine
 10
-294.4111633300781
 20
186.5279846191406
 30
0.0
 11
-293.6567077636719
 21
185.7735290527344
 31
0.0
  0
LINE
  5
1DA
330
22
100
AcDbEntity
  8
0
  6
Continuous
 62
     7
100
AcDbLine
 10
-297.5179748535156
 20
189.6347808837891
 30
0.0
 11
-295.5567016601563
 21
187.6735229492188
 31
0.0
  0
LINE
  5
1DB
330
22
100
AcDbEntity
  8
0
  6
Continuous
 62
     7
100
AcDbLine
 10
-317.9012756347656
 20
210.0180969238281
 30
0.0
 11
-314.0261840820313
 21
206.1429901123047
 31
0.0
  0
LINE
  5
1DC
330
22
100
AcDbEntity
  8
0
  6
Continuous
 62
     7
100
AcDbLine
 10
-295.4718322753906
 20
186.5279846191406
 30
0.0
 11
-293.6567077636719
 21
184.7128753662109
 31
0.0
  0
LINE
  5
1DD
330
22
100
AcDbEntity
  8
0
  6
Continuous
 62
     7
100
AcDbLine
 10
-297.4239807128906
 20
188.4801330566406
 30
0.0
 11
-295.5567016601563
 21
186.6128692626953
 31
0.0
  0
LINE
  5
1DE
330
22
100
AcDbEntity
  8
0
  6
Continuous
 62
     7
100
AcDbLine
 10
-318.0902099609375
 20
209.1463775634766
 30
0.0
 11
-314.9466247558594
 21
206.0027770996094
 31
0.0
  0
LINE
  5
1DF
330
22
100
AcDbEntity
  8
0
  6
Continuous
 62
     7
100
AcDbLine
 10
-297.3926391601563
 20
188.0952606201172
 30
0.0
 11
-293.6567077636719
 21
184.3593139648438
 31
0.0
  0
LINE
  5
1E0
330
22
100
AcDbEntity
  8
0
  6
Continuous
 62
     7
100
AcDbLine
 10
-318.1565246582031
 20
208.8591461181641
 30
0.0
 11
-315.178466796875
 21
205.8810882568359
 31
0.0
  0
LINE
  5
1E1
330
22
100
AcDbEntity
  8
0
  6
Continuous
 62
     7
100
AcDbLine
 10
-297.2986755371094
 20
186.9406127929688
 30
0.0
 11
-293.6567077636719
 21
183.2986602783203
 31
0.0
  0
LINE
  5
1E2
330
22
100
AcDbEntity
  8
0
  6
Continuous
 62
     7
100
AcDbLine
 10
-318.35546875
 20
207.9974212646484
 30
0.0
 11
-315.6961364746094
 21
205.3380889892578
 31
0.0
  0
LINE
  5
1E3
330
22
100
AcDbEntity
  8
0
  6
Continuous
 62
     7
100
AcDbLine
 10
-297.267333984375
 20
186.5557250976563
 30
0.0
 11
-293.6567077636719
 21
182.9450988769531
 31
0.0
  0
LINE
  5
1E4
330
22
100
AcDbEntity
  8
0
  6
Continuous
 62
     7
100
AcDbLine
 10
-318.4217834472656
 20
207.7101898193359
 30
0.0
 11
-315.7801208496094
 21
205.0685272216797
 31
0.0
  0
LINE
  5
1E5
330
22
100
AcDbEntity
  8
0
  6
Continuous
 62
     7
100
AcDbLine
 10
-297.1733703613281
 20
185.4010925292969
 30
0.0
 11
-293.6567077636719
 21
181.8844451904297
 31
0.0
  0
LINE
  5
1E6
330
22
100
AcDbEntity
  8
0
  6
Continuous
 62
     7
100
AcDbLine
 10
-318.6207275390625
 20
206.8484649658203
 30
0.0
 11
-315.9189453125
 21
204.1466827392578
 31
0.0
  0
LINE
  5
1E7
330
22
100
AcDbEntity
  8
0
  6
Continuous
 62
     7
100
AcDbLine
 10
-297.1420288085938
 20
185.0162048339844
 30
0.0
 11
-293.6567077636719
 21
181.5308837890625
 31
0.0
  0
LINE
  5
1E8
330
22
100
AcDbEntity
  8
0
  6
Continuous
 62
     7
100
AcDbLine
 10
-318.6870422363281
 20
206.5612335205078
 30
0.0
 11
-315.9464416503906
 21
203.8206329345703
 31
0.0
  0
LINE
  5
1E9
330
22
100
AcDbEntity
  8
0
  6
Continuous
 62
     7
100
AcDbLine
 10
-297.0480346679688
 20
183.861572265625
 30
0.0
 11
-293.8377685546875
 21
180.6513061523438
 31
0.0
  0
LINE
  5
1EA
330
22
100
AcDbEntity
  8
0
  6
Continuous
 62
     7
100
AcDbLine
 10
-318.885986328125
 20
205.6995086669922
 30
0.0
 11
-316.0289306640625
 21
202.8424530029297
 31
0.0
  0
LINE
  5
1EB
330
22
100
AcDbEntity
  8
0
  6
Continuous
 62
     7
100
AcDbLine
 10
-297.0167236328125
 20
183.4766845703125
 30
0.0
 11
-294.0827331542969
 21
180.5427093505859
 31
0.0
  0
LINE
  5
1EC
330
22
100
AcDbEntity
  8
0
  6
Continuous
 62
     7
100
AcDbLine
 10
-318.9523010253906
 20
205.4122772216797
 30
0.0
 11
-316.0564270019531
 21
202.5164031982422
 31
0.0
  0
LINE
  5
1ED
330
22
100
AcDbEntity
  8
0
  6
Continuous
 62
     7
100
AcDbLine
 10
-296.9227294921875
 20
182.3220367431641
 30
0.0
 11
-295.1286926269531
 21
180.5279846191406
 31
0.0
  0
LINE
  5
1EE
330
22
100
AcDbEntity
  8
0
  6
Continuous
 62
     7
100
AcDbLine
 10
-319.1512451171875
 20
204.5505523681641
 30
0.0
 11
-316.138916015625
 21
201.5382232666016
 31
0.0
  0
LINE
  5
1EF
330
22
100
AcDbEntity
  8
0
  6
Continuous
 62
     7
100
AcDbLine
 10
-296.8914184570313
 20
181.9371643066406
 30
0.0
 11
-295.4822387695313
 21
180.5279846191406
 31
0.0
  0
LINE
  5
1F0
330
22
100
AcDbEntity
  8
0
  6
Continuous
 62
     7
100
AcDbLine
 10
-319.2175598144531
 20
204.2633209228516
 30
0.0
 11
-316.1664123535156
 21
201.212158203125
 31
0.0
  0
LINE
  5
1F1
330
22
100
AcDbEntity
  8
0
  6
Continuous
 62
     7
100
AcDbLine
 10
-296.7974243164063
 20
180.7825164794922
 30
0.0
 11
-296.5429077148438
 21
180.5279846191406
 31
0.0
  0
LINE
  5
1F2
330
22
100
AcDbEntity
  8
0
  6
Continuous
 62
     7
100
AcDbLine
 10
-319.41650390625
 20
203.4015960693359
 30
0.0
 11
-316.2489013671875
 21
200.2339935302734
 31
0.0
  0
LINE
  5
1F3
330
22
100
AcDbEntity
  8
0
  6
Continuous
 62
     7
100
AcDbLine
 10
-319.4828186035156
 20
203.1143646240234
 30
0.0
 11
-316.2763977050781
 21
199.9079284667969
 31
0.0
  0
LINE
  5
1F4
330
22
100
AcDbEntity
  8
0
  6
Continuous
 62
     7
100
AcDbLine
 10
-319.6817626953125
 20
202.2526397705078
 30
0.0
 11
-316.35888671875
 21
198.9297637939453
 31
0.0
  0
LINE
  5
1F5
330
22
100
AcDbEntity
  8
0
  6
Continuous
 62
     7
100
AcDbLine
 10
-319.7480773925781
 20
201.9654083251953
 30
0.0
 11
-316.3863830566406
 21
198.6036987304688
 31
0.0
  0
LINE
  5
1F6
330
22
100
AcDbEntity
  8
0
  6
Continuous
 62
     7
100
AcDbLine
 10
-319.7726440429688
 20
200.9293212890625
 30
0.0
 11
-316.4688720703125
 21
197.6255340576172
 31
0.0
  0
LINE
  5
1F7
330
22
100
AcDbEntity
  8
0
  6
Continuous
 62
     7
100
AcDbLine
 10
-319.7726440429688
 20
200.5757751464844
 30
0.0
 11
-316.4963684082031
 21
197.2994689941406
 31
0.0
  0
LINE
  5
1F8
330
22
100
AcDbEntity
  8
0
  6
Continuous
 62
     7
100
AcDbLine
 10
-319.7726440429688
 20
199.5151062011719
 30
0.0
 11
-316.578857421875
 21
196.3212890625
 31
0.0
  0
LINE
  5
1F9
330
22
100
AcDbEntity
  8
0
  6
Continuous
 62
     7
100
AcDbLine
 10
-319.7726440429688
 20
199.1615600585938
 30
0.0
 11
-316.6063537597656
 21
195.9952392578125
 31
0.0
  0
LINE
  5
1FA
330
22
100
AcDbEntity
  8
0
  6
Continuous
 62
     7
100
AcDbLine
 10
-319.7726440429688
 20
198.1008911132813
 30
0.0
 11
-316.6888427734375
 21
195.0170593261719
 31
0.0
  0
LINE
  5
1FB
330
22
100
AcDbEntity
  8
0
  6
Continuous
 62
     7
100
AcDbLine
 10
-319.7726440429688
 20
197.7473449707031
 30
0.0
 11
-316.71630859375
 21
194.6910095214844
 31
0.0
  0
LINE
  5
1FC
330
22
100
AcDbEntity
  8
0
  6
Continuous
 62
     7
100
AcDbLine
 10
-319.7726440429688
 20
196.6866760253906
 30
0.0
 11
-316.87890625
 21
193.7929229736328
 31
0.0
  0
LINE
  5
1FD
330
22
100
AcDbEntity
  8
0
  6
Continuous
 62
     7
100
AcDbLine
 10
-319.7726440429688
 20
196.3331298828125
 30
0.0
 11
-316.9972534179688
 21
193.5577239990234
 31
0.0
  0
LINE
  5
1FE
330
22
100
AcDbEntity
  8
0
  6
Continuous
 62
     7
100
AcDbLine
 10
-320.0281677246094
 20
195.5279846191406
 30
0.0
 11
-317.482177734375
 21
192.9819793701172
 31
0.0
  0
LINE
  5
1FF
330
22
100
AcDbEntity
  8
0
  6
Continuous
 62
     7
100
AcDbLine
 10
-320.3817443847656
 20
195.5279846191406
 30
0.0
 11
-317.6883544921875
 21
192.8346099853516
 31
0.0
  0
LINE
  5
200
330
22
100
AcDbEntity
  8
0
  6
Continuous
 62
     7
100
AcDbLine
 10
-321.4423828125
 20
195.5279846191406
 30
0.0
 11
-318.4699096679688
 21
192.5555114746094
 31
0.0
  0
LINE
  5
201
330
22
100
AcDbEntity
  8
0
  6
Continuous
 62
     7
100
AcDbLine
 10
-321.6912536621094
 20
195.4232940673828
 30
0.0
 11
-318.7959594726563
 21
192.5279846191406
 31
0.0
  0
LINE
  5
202
330
22
100
AcDbEntity
  8
0
  6
Continuous
 62
     7
100
AcDbLine
 10
-321.6912536621094
 20
194.3626403808594
 30
0.0
 11
-319.8565979003906
 21
192.5279846191406
 31
0.0
  0
LINE
  5
203
330
22
100
AcDbEntity
  8
0
  6
Continuous
 62
     7
100
AcDbLine
 10
-321.6912536621094
 20
194.0090789794922
 30
0.0
 11
-320.2101745605469
 21
192.5279846191406
 31
0.0
  0
LINE
  5
204
330
22
100
AcDbEntity
  8
0
  6
Continuous
 62
     7
100
AcDbLine
 10
-321.6912536621094
 20
192.9484252929688
 30
0.0
 11
-321.2708129882813
 21
192.5279846191406
 31
0.0
  0
LINE
  5
205
330
22
100
AcDbEntity
  8
0
  6
Continuous
 62
     7
100
AcDbLine
 10
-321.6912536621094
 20
192.5948638916016
 30
0.0
 11
-321.6243896484375
 21
192.5279846191406
 31
0.0
  0
LINE
  5
206
330
22
100
AcDbEntity
  8
0
  6
Continuous
 62
     7
100
AcDbLine
 10
-331.3418884277344
 20
195.5279846191406
 30
0.0
 11
-330.4912414550781
 21
194.6773529052734
 31
0.0
  0
LINE
  5
207
330
22
100
AcDbEntity
  8
0
  6
Continuous
 62
     7
100
AcDbLine
 10
-331.6954345703125
 20
195.5279846191406
 30
0.0
 11
-330.4912414550781
 21
194.3238067626953
 31
0.0
  0
LINE
  5
208
330
22
100
AcDbEntity
  8
0
  6
Continuous
 62
     7
100
AcDbLine
 10
-332.756103515625
 20
195.5279846191406
 30
0.0
 11
-330.4912414550781
 21
193.2631378173828
 31
0.0
  0
LINE
  5
209
330
22
100
AcDbEntity
  8
0
  6
Continuous
 62
     7
100
AcDbLine
 10
-332.9912414550781
 20
195.4095916748047
 30
0.0
 11
-330.4912414550781
 21
192.9095916748046
 31
0.0
  0
LINE
  5
20A
330
22
100
AcDbEntity
  8
0
  6
Continuous
 62
     7
100
AcDbLine
 10
-332.9912414550781
 20
194.3489227294922
 30
0.0
 11
-331.0059814453125
 21
192.3636474609375
 31
0.0
  0
LINE
  5
20B
330
22
100
AcDbEntity
  8
0
  6
Continuous
 62
     7
100
AcDbLine
 10
-332.9912414550781
 20
193.9953765869141
 30
0.0
 11
-331.21142578125
 21
192.2155456542969
 31
0.0
  0
LINE
  5
20C
330
22
100
AcDbEntity
  8
0
  6
Continuous
 62
     7
100
AcDbLine
 10
-332.9912414550781
 20
192.9347076416016
 30
0.0
 11
-331.5025329589844
 21
191.4459838867188
 31
0.0
  0
LINE
  5
20D
330
22
100
AcDbEntity
  8
0
  6
Continuous
 62
     7
100
AcDbLine
 10
-332.9912414550781
 20
192.5811614990234
 30
0.0
 11
-331.6148376464844
 21
191.2047271728516
 31
0.0
  0
LINE
  5
20E
330
22
100
AcDbEntity
  8
0
  6
Continuous
 62
     7
100
AcDbLine
 10
-332.9912414550781
 20
191.5204925537109
 30
0.0
 11
-332.4987487792969
 21
191.0279846191406
 31
0.0
  0
LINE
  5
20F
330
22
100
AcDbEntity
  8
0
  6
Continuous
 62
     7
100
AcDbLine
 10
-332.9577331542969
 20
191.1334381103516
 30
0.0
 11
-332.8960266113281
 21
191.0717163085938
 31
0.0
  0
LINE
  5
210
330
22
100
AcDbEntity
  8
0
  6
Continuous
 62
     7
100
AcDbLine
 10
-333.771240234375
 20
180.0279846191406
 30
0.0
 11
-333.771240234375
 21
196.1774597167969
 31
0.0
  0
LINE
  5
211
330
22
100
AcDbEntity
  8
0
  6
Continuous
 62
     7
100
AcDbLine
 10
-333.771240234375
 20
180.5279846191406
 30
0.0
 11
-294.1567077636719
 21
180.5279846191406
 31
0.0
  0
LINE
  5
212
330
22
100
AcDbEntity
  8
0
  6
Continuous
 62
     7
100
AcDbLine
 10
-298.7494506835938
 20
204.7646789550781
 30
0.0
 11
-296.7929382324219
 21
180.7273254394531
 31
0.0
  0
LINE
  5
213
330
22
100
AcDbEntity
  8
0
  6
Continuous
 62
     7
100
AcDbLine
 10
-293.6567077636719
 20
180.5279846191406
 30
0.0
 11
-293.6567077636719
 21
186.5279846191406
 31
0.0
  0
LINE
  5
214
330
22
100
AcDbEntity
  8
0
  6
Continuous
 62
     7
100
AcDbLine
 10
-294.1567077636719
 20
180.5279846191406
 30
0.0
 11
-296.5767211914063
 21
180.5279846191406
 31
0.0
  0
LINE
  5
215
330
22
100
AcDbEntity
  8
0
  6
Continuous
 62
     7
100
AcDbLine
 10
-296.5767211914063
 20
180.5279846191406
 30
0.0
 11
-296.7929382324219
 21
180.7273254394531
 31
0.0
  0
LINE
  5
216
330
22
100
AcDbEntity
  8
0
  6
Continuous
 62
     7
100
AcDbLine
 10
-331.771240234375
 20
180.0279846191406
 30
0.0
 11
-331.771240234375
 21
176.5279846191406
 31
0.0
  0
LINE
  5
217
330
22
100
AcDbEntity
  8
0
  6
Continuous
 62
     7
100
AcDbLine
 10
-327.7656860351563
 20
179.5279846191406
 30
0.0
 11
-293.6567077636719
 21
179.5279846191406
 31
0.0
  0
LINE
  5
218
330
22
100
AcDbEntity
  8
0
  6
Continuous
 62
     7
100
AcDbLine
 10
-293.6567077636719
 20
180.5279846191406
 30
0.0
 11
-293.6567077636719
 21
179.5279846191406
 31
0.0
  0
LINE
  5
219
330
22
100
AcDbEntity
  8
0
  6
Continuous
 62
     7
100
AcDbLine
 10
-327.7656860351563
 20
179.5279846191406
 30
0.0
 11
-331.771240234375
 21
179.5279846191406
 31
0.0
  0
LINE
  5
21A
330
22
100
AcDbEntity
  8
0
  6
Continuous
 62
     7
100
AcDbLine
 10
-327.7656860351563
 20
175.5279846191406
 30
0.0
 11
-327.7656860351563
 21
179.5279846191406
 31
0.0
  0
LINE
  5
21B
330
22
100
AcDbEntity
  8
0
  6
Continuous
 62
     7
100
AcDbLine
 10
-327.7656860351563
 20
178.4241180419922
 30
0.0
 11
-326.6618041992188
 21
179.5279846191406
 31
0.0
  0
LINE
  5
21C
330
22
100
AcDbEntity
  8
0
  6
Continuous
 62
     7
100
AcDbLine
 10
-327.7656860351563
 20
177.0099029541016
 30
0.0
 11
-325.2475891113281
 21
179.5279846191406
 31
0.0
  0
LINE
  5
21D
330
22
100
AcDbEntity
  8
0
  6
Continuous
 62
     7
100
AcDbLine
 10
-327.7656860351563
 20
175.5956878662109
 30
0.0
 11
-323.8333740234375
 21
179.5279846191406
 31
0.0
  0
LINE
  5
21E
330
22
100
AcDbEntity
  8
0
  6
Continuous
 62
     7
100
AcDbLine
 10
-326.4191589355469
 20
175.5279846191406
 30
0.0
 11
-322.4191589355469
 21
179.5279846191406
 31
0.0
  0
LINE
  5
21F
330
22
100
AcDbEntity
  8
0
  6
Continuous
 62
     7
100
AcDbLine
 10
-325.0049438476563
 20
175.5279846191406
 30
0.0
 11
-321.0049438476563
 21
179.5279846191406
 31
0.0
  0
LINE
  5
220
330
22
100
AcDbEntity
  8
0
  6
Continuous
 62
     7
100
AcDbLine
 10
-290.0172119140625
 20
209.1015167236328
 30
0.0
 11
-288.5907287597656
 21
210.5279846191406
 31
0.0
  0
LINE
  5
221
330
22
100
AcDbEntity
  8
0
  6
Continuous
 62
     7
100
AcDbLine
 10
-323.5907287597656
 20
175.5279846191406
 30
0.0
 11
-319.5907287597656
 21
179.5279846191406
 31
0.0
  0
LINE
  5
222
330
22
100
AcDbEntity
  8
0
  6
Continuous
 62
     7
100
AcDbLine
 10
-290.3199462890625
 20
207.3845672607422
 30
0.0
 11
-287.176513671875
 21
210.5279846191406
 31
0.0
  0
LINE
  5
223
330
22
100
AcDbEntity
  8
0
  6
Continuous
 62
     7
100
AcDbLine
 10
-322.176513671875
 20
175.5279846191406
 30
0.0
 11
-318.176513671875
 21
179.5279846191406
 31
0.0
  0
LINE
  5
224
330
22
100
AcDbEntity
  8
0
  6
Continuous
 62
     7
100
AcDbLine
 10
-290.6227111816406
 20
205.6676025390625
 30
0.0
 11
-285.7622985839844
 21
210.5279846191406
 31
0.0
  0
LINE
  5
225
330
22
100
AcDbEntity
  8
0
  6
Continuous
 62
     7
100
AcDbLine
 10
-320.7622985839844
 20
175.5279846191406
 30
0.0
 11
-316.7622985839844
 21
179.5279846191406
 31
0.0
  0
LINE
  5
226
330
22
100
AcDbEntity
  8
0
  6
Continuous
 62
     7
100
AcDbLine
 10
-290.9254455566406
 20
203.9506378173828
 30
0.0
 11
-284.3480834960938
 21
210.5279846191406
 31
0.0
  0
LINE
  5
227
330
22
100
AcDbEntity
  8
0
  6
Continuous
 62
     7
100
AcDbLine
 10
-319.3480834960938
 20
175.5279846191406
 30
0.0
 11
-315.3480834960938
 21
179.5279846191406
 31
0.0
  0
LINE
  5
228
330
22
100
AcDbEntity
  8
0
  6
Continuous
 62
     7
100
AcDbLine
 10
-291.2281799316406
 20
202.2336883544922
 30
0.0
 11
-282.9338684082031
 21
210.5279846191406
 31
0.0
  0
LINE
  5
229
330
22
100
AcDbEntity
  8
0
  6
Continuous
 62
     7
100
AcDbLine
 10
-317.9338684082031
 20
175.5279846191406
 30
0.0
 11
-313.9338684082031
 21
179.5279846191406
 31
0.0
  0
LINE
  5
22A
330
22
100
AcDbEntity
  8
0
  6
Continuous
 62
     7
100
AcDbLine
 10
-284.5196533203125
 20
207.5279846191406
 30
0.0
 11
-281.5196533203125
 21
210.5279846191406
 31
0.0
  0
LINE
  5
22B
330
22
100
AcDbEntity
  8
0
  6
Continuous
 62
     7
100
AcDbLine
 10
-291.5309448242188
 20
200.5167236328125
 30
0.0
 11
-286.6686096191406
 21
205.3790588378906
 31
0.0
  0
LINE
  5
22C
330
22
100
AcDbEntity
  8
0
  6
Continuous
 62
     7
100
AcDbLine
 10
-316.5196533203125
 20
175.5279846191406
 30
0.0
 11
-312.5196533203125
 21
179.5279846191406
 31
0.0
  0
LINE
  5
22D
330
22
100
AcDbEntity
  8
0
  6
Continuous
 62
     7
100
AcDbLine
 10
-283.10546875
 20
207.5279846191406
 30
0.0
 11
-280.10546875
 21
210.5279846191406
 31
0.0
  0
LINE
  5
22E
330
22
100
AcDbEntity
  8
0
  6
Continuous
 62
     7
100
AcDbLine
 10
-291.8336791992188
 20
198.7997589111328
 30
0.0
 11
-286.9949645996094
 21
203.6384887695313
 31
0.0
  0
LINE
  5
22F
330
22
100
AcDbEntity
  8
0
  6
Continuous
 62
     7
100
AcDbLine
 10
-315.10546875
 20
175.5279846191406
 30
0.0
 11
-311.10546875
 21
179.5279846191406
 31
0.0
  0
LINE
  5
230
330
22
100
AcDbEntity
  8
0
  6
Continuous
 62
     7
100
AcDbLine
 10
-281.6912536621094
 20
207.5279846191406
 30
0.0
 11
-278.6912536621094
 21
210.5279846191406
 31
0.0
  0
LINE
  5
231
330
22
100
AcDbEntity
  8
0
  6
Continuous
 62
     7
100
AcDbLine
 10
-292.1364440917969
 20
197.0828094482422
 30
0.0
 11
-287.3213195800781
 21
201.8979187011719
 31
0.0
  0
LINE
  5
232
330
22
100
AcDbEntity
  8
0
  6
Continuous
 62
     7
100
AcDbLine
 10
-313.6912536621094
 20
175.5279846191406
 30
0.0
 11
-309.6912536621094
 21
179.5279846191406
 31
0.0
  0
LINE
  5
233
330
22
100
AcDbEntity
  8
0
  6
Continuous
 62
     7
100
AcDbLine
 10
-280.2770385742188
 20
207.5279846191406
 30
0.0
 11
-276.3166198730469
 21
211.4884033203125
 31
0.0
  0
LINE
  5
234
330
22
100
AcDbEntity
  8
0
  6
Continuous
 62
     7
100
AcDbLine
 10
-292.4391784667969
 20
195.3658447265625
 30
0.0
 11
-287.6476745605469
 21
200.1573486328125
 31
0.0
  0
LINE
  5
235
330
22
100
AcDbEntity
  8
0
  6
Continuous
 62
     7
100
AcDbLine
 10
-312.2770385742188
 20
175.5279846191406
 30
0.0
 11
-308.2770385742188
 21
179.5279846191406
 31
0.0
  0
LINE
  5
236
330
22
100
AcDbEntity
  8
0
  6
Continuous
 62
     7
100
AcDbLine
 10
-278.8628234863281
 20
207.5279846191406
 30
0.0
 11
-275.4704284667969
 21
210.9203796386719
 31
0.0
  0
LINE
  5
237
330
22
100
AcDbEntity
  8
0
  6
Continuous
 62
     7
100
AcDbLine
 10
-292.7419128417969
 20
193.6488800048828
 30
0.0
 11
-287.9740295410156
 21
198.4167633056641
 31
0.0
  0
LINE
  5
238
330
22
100
AcDbEntity
  8
0
  6
Continuous
 62
     7
100
AcDbLine
 10
-310.8628234863281
 20
175.5279846191406
 30
0.0
 11
-306.8628234863281
 21
179.5279846191406
 31
0.0
  0
LINE
  5
239
330
22
100
AcDbEntity
  8
0
  6
Continuous
 62
     7
100
AcDbLine
 10
-277.4486083984375
 20
207.5279846191406
 30
0.0
 11
-275.2656860351563
 21
209.7109069824219
 31
0.0
  0
LINE
  5
23A
330
22
100
AcDbEntity
  8
0
  6
Continuous
 62
     7
100
AcDbLine
 10
-293.044677734375
 20
191.9319152832031
 30
0.0
 11
-288.3003845214844
 21
196.6761932373047
 31
0.0
  0
LINE
  5
23B
330
22
100
AcDbEntity
  8
0
  6
Continuous
 62
     7
100
AcDbLine
 10
-309.4486083984375
 20
175.5279846191406
 30
0.0
 11
-305.4486083984375
 21
179.5279846191406
 31
0.0
  0
LINE
  5
23C
330
22
100
AcDbEntity
  8
0
  6
Continuous
 62
     7
100
AcDbLine
 10
-276.0343933105469
 20
207.5279846191406
 30
0.0
 11
-275.2656860351563
 21
208.2966918945313
 31
0.0
  0
LINE
  5
23D
330
22
100
AcDbEntity
  8
0
  6
Continuous
 62
     7
100
AcDbLine
 10
-293.347412109375
 20
190.2149658203125
 30
0.0
 11
-288.6267395019531
 21
194.9356231689453
 31
0.0
  0
LINE
  5
23E
330
22
100
AcDbEntity
  8
0
  6
Continuous
 62
     7
100
AcDbLine
 10
-308.0343933105469
 20
175.5279846191406
 30
0.0
 11
-304.0343933105469
 21
179.5279846191406
 31
0.0
  0
LINE
  5
23F
330
22
100
AcDbEntity
  8
0
  6
Continuous
 62
     7
100
AcDbLine
 10
-293.5748901367188
 20
188.5732574462891
 30
0.0
 11
-288.9530944824219
 21
193.1950531005859
 31
0.0
  0
LINE
  5
240
330
22
100
AcDbEntity
  8
0
  6
Continuous
 62
     7
100
AcDbLine
 10
-306.6201782226563
 20
175.5279846191406
 30
0.0
 11
-302.6201782226563
 21
179.5279846191406
 31
0.0
  0
LINE
  5
241
330
22
100
AcDbEntity
  8
0
  6
Continuous
 62
     7
100
AcDbLine
 10
-293.6338195800781
 20
187.1001281738281
 30
0.0
 11
-289.2656860351563
 21
191.4682769775391
 31
0.0
  0
LINE
  5
242
330
22
100
AcDbEntity
  8
0
  6
Continuous
 62
     7
100
AcDbLine
 10
-305.2059631347656
 20
175.5279846191406
 30
0.0
 11
-301.2059631347656
 21
179.5279846191406
 31
0.0
  0
LINE
  5
243
330
22
100
AcDbEntity
  8
0
  6
Continuous
 62
     7
100
AcDbLine
 10
-293.6567077636719
 20
185.6630249023438
 30
0.0
 11
-289.2656860351563
 21
190.0540618896484
 31
0.0
  0
LINE
  5
244
330
22
100
AcDbEntity
  8
0
  6
Continuous
 62
     7
100
AcDbLine
 10
-303.791748046875
 20
175.5279846191406
 30
0.0
 11
-299.791748046875
 21
179.5279846191406
 31
0.0
  0
LINE
  5
245
330
22
100
AcDbEntity
  8
0
  6
Continuous
 62
     7
100
AcDbLine
 10
-293.6567077636719
 20
184.2488098144531
 30
0.0
 11
-289.2656860351563
 21
188.6398468017578
 31
0.0
  0
LINE
  5
246
330
22
100
AcDbEntity
  8
0
  6
Continuous
 62
     7
100
AcDbLine
 10
-302.3775329589844
 20
175.5279846191406
 30
0.0
 11
-298.3775329589844
 21
179.5279846191406
 31
0.0
  0
LINE
  5
247
330
22
100
AcDbEntity
  8
0
  6
Continuous
 62
     7
100
AcDbLine
 10
-293.6567077636719
 20
182.8345947265625
 30
0.0
 11
-289.2656860351563
 21
187.2256317138672
 31
0.0
  0
LINE
  5
248
330
22
100
AcDbEntity
  8
0
  6
Continuous
 62
     7
100
AcDbLine
 10
-300.9633178710938
 20
175.5279846191406
 30
0.0
 11
-296.9633178710938
 21
179.5279846191406
 31
0.0
  0
LINE
  5
249
330
22
100
AcDbEntity
  8
0
  6
Continuous
 62
     7
100
AcDbLine
 10
-293.6567077636719
 20
181.4203796386719
 30
0.0
 11
-289.2656860351563
 21
185.8114166259766
 31
0.0
  0
LINE
  5
24A
330
22
100
AcDbEntity
  8
0
  6
Continuous
 62
     7
100
AcDbLine
 10
-299.5491027832031
 20
175.5279846191406
 30
0.0
 11
-295.5491027832031
 21
179.5279846191406
 31
0.0
  0
LINE
  5
24B
330
22
100
AcDbEntity
  8
0
  6
Continuous
 62
     7
100
AcDbLine
 10
-293.6567077636719
 20
180.0061798095703
 30
0.0
 11
-289.2656860351563
 21
184.3972015380859
 31
0.0
  0
LINE
  5
24C
330
22
100
AcDbEntity
  8
0
  6
Continuous
 62
     7
100
AcDbLine
 10
-298.1348876953125
 20
175.5279846191406
 30
0.0
 11
-294.1348876953125
 21
179.5279846191406
 31
0.0
  0
LINE
  5
24D
330
22
100
AcDbEntity
  8
0
  6
Continuous
 62
     7
100
AcDbLine
 10
-296.7206726074219
 20
175.5279846191406
 30
0.0
 11
-289.2656860351563
 21
182.9829864501953
 31
0.0
  0
LINE
  5
24E
330
22
100
AcDbEntity
  8
0
  6
Continuous
 62
     7
100
AcDbLine
 10
-295.3064575195313
 20
175.5279846191406
 30
0.0
 11
-289.2656860351563
 21
181.5687713623047
 31
0.0
  0
LINE
  5
24F
330
22
100
AcDbEntity
  8
0
  6
Continuous
 62
     7
100
AcDbLine
 10
-294.09423828125
 20
175.3260040283203
 30
0.0
 11
-289.2656860351563
 21
180.1545562744141
 31
0.0
  0
LINE
  5
250
330
22
100
AcDbEntity
  8
0
  6
Continuous
 62
     7
100
AcDbLine
 10
-300.1756896972656
 20
169.2445678710938
 30
0.0
 11
-298.8922424316406
 21
170.5279846191406
 31
0.0
  0
LINE
  5
251
330
22
100
AcDbEntity
  8
0
  6
Continuous
 62
     7
100
AcDbLine
 10
-294.09423828125
 20
173.9117889404297
 30
0.0
 11
-289.2656860351563
 21
178.7403411865234
 31
0.0
  0
LINE
  5
252
330
22
100
AcDbEntity
  8
0
  6
Continuous
 62
     7
100
AcDbLine
 10
-300.1756896972656
 20
167.8303527832031
 30
0.0
 11
-297.47802734375
 21
170.5279846191406
 31
0.0
  0
LINE
  5
253
330
22
100
AcDbEntity
  8
0
  6
Continuous
 62
     7
100
AcDbLine
 10
-294.09423828125
 20
172.4975891113281
 30
0.0
 11
-289.2656860351563
 21
177.3261413574219
 31
0.0
  0
LINE
  5
254
330
22
100
AcDbEntity
  8
0
  6
Continuous
 62
     7
100
AcDbLine
 10
-300.1756896972656
 20
166.4161376953125
 30
0.0
 11
-296.0638122558594
 21
170.5279846191406
 31
0.0
  0
LINE
  5
255
330
22
100
AcDbEntity
  8
0
  6
Continuous
 62
     7
100
AcDbLine
 10
-294.09423828125
 20
171.0833740234375
 30
0.0
 11
-289.2656860351563
 21
175.9119262695313
 31
0.0
  0
LINE
  5
256
330
22
100
AcDbEntity
  8
0
  6
Continuous
 62
     7
100
AcDbLine
 10
-300.1756896972656
 20
165.0019226074219
 30
0.0
 11
-294.6495971679688
 21
170.5279846191406
 31
0.0
  0
LINE
  5
257
330
22
100
AcDbEntity
  8
0
  6
Continuous
 62
     7
100
AcDbLine
 10
-300.1756896972656
 20
163.5877075195313
 30
0.0
 11
-289.2656860351563
 21
174.4977111816406
 31
0.0
  0
LINE
  5
258
330
22
100
AcDbEntity
  8
0
  6
Continuous
 62
     7
100
AcDbLine
 10
-300.1756896972656
 20
162.1734924316406
 30
0.0
 11
-289.2656860351563
 21
173.08349609375
 31
0.0
  0
LINE
  5
259
330
22
100
AcDbEntity
  8
0
  6
Continuous
 62
     7
100
AcDbLine
 10
-300.1756896972656
 20
160.75927734375
 30
0.0
 11
-289.2656860351563
 21
171.6692810058594
 31
0.0
  0
LINE
  5
25A
330
22
100
AcDbEntity
  8
0
  6
Continuous
 62
     7
100
AcDbLine
 10
-300.1756896972656
 20
159.3450622558594
 30
0.0
 11
-289.2656860351563
 21
170.2550659179688
 31
0.0
  0
LINE
  5
25B
330
22
100
AcDbEntity
  8
0
  6
Continuous
 62
     7
100
AcDbLine
 10
-300.1756896972656
 20
157.9308471679688
 30
0.0
 11
-289.2656860351563
 21
168.8408508300781
 31
0.0
  0
LINE
  5
25C
330
22
100
AcDbEntity
  8
0
  6
Continuous
 62
     7
100
AcDbLine
 10
-300.1643371582031
 20
156.5279846191406
 30
0.0
 11
-289.2656860351563
 21
167.4266357421875
 31
0.0
  0
LINE
  5
25D
330
22
100
AcDbEntity
  8
0
  6
Continuous
 62
     7
100
AcDbLine
 10
-298.7501220703125
 20
156.5279846191406
 30
0.0
 11
-289.2656860351563
 21
166.0124206542969
 31
0.0
  0
LINE
  5
25E
330
22
100
AcDbEntity
  8
0
  6
Continuous
 62
     7
100
AcDbLine
 10
-297.3359069824219
 20
156.5279846191406
 30
0.0
 11
-289.2656860351563
 21
164.5982055664063
 31
0.0
  0
LINE
  5
25F
330
22
100
AcDbEntity
  8
0
  6
Continuous
 62
     7
100
AcDbLine
 10
-295.9216918945313
 20
156.5279846191406
 30
0.0
 11
-289.2656860351563
 21
163.1840057373047
 31
0.0
  0
LINE
  5
260
330
22
100
AcDbEntity
  8
0
  6
Continuous
 62
     7
100
AcDbLine
 10
-294.5074768066406
 20
156.5279846191406
 30
0.0
 11
-289.2656860351563
 21
161.7697906494141
 31
0.0
  0
LINE
  5
261
330
22
100
AcDbEntity
  8
0
  6
Continuous
 62
     7
100
AcDbLine
 10
-293.09326171875
 20
156.5279846191406
 30
0.0
 11
-289.2656860351563
 21
160.3555755615234
 31
0.0
  0
LINE
  5
262
330
22
100
AcDbEntity
  8
0
  6
Continuous
 62
     7
100
AcDbLine
 10
-291.6790466308594
 20
156.5279846191406
 30
0.0
 11
-289.2656860351563
 21
158.9413604736328
 31
0.0
  0
LINE
  5
263
330
22
100
AcDbEntity
  8
0
  6
Continuous
 62
     7
100
AcDbLine
 10
-289.2656860351563
 20
157.5279846191406
 30
0.0
 11
-289.2656860351563
 21
191.5279846191406
 31
0.0
  0
LINE
  5
264
330
22
100
AcDbEntity
  8
0
  6
Continuous
 62
     7
100
AcDbLine
 10
-386.2656860351563
 20
157.5279846191406
 30
0.0
 11
-385.2656860351563
 21
156.5279846191406
 31
0.0
  0
LINE
  5
265
330
22
100
AcDbEntity
  8
0
  6
Continuous
 62
     7
100
AcDbLine
 10
-375.3556823730469
 20
94.52799224853515
 30
0.0
 11
-375.3556823730469
 21
124.0288238525391
 31
0.0
  0
LINE
  5
266
330
22
100
AcDbEntity
  8
0
  6
Continuous
 62
     7
100
AcDbLine
 10
-373.8806762695313
 20
94.52799224853515
 30
0.0
 11
-373.8806762695313
 21
122.4106521606445
 31
0.0
  0
LINE
  5
267
330
22
100
AcDbEntity
  8
0
  6
Continuous
 62
     7
100
AcDbLine
 10
-373.8806762695313
 20
122.4106521606445
 30
0.0
 11
-375.9156799316406
 21
124.643180847168
 31
0.0
  0
LINE
  5
268
330
22
100
AcDbEntity
  8
0
  6
Continuous
 62
     7
100
AcDbLine
 10
-343.7656860351563
 20
161.5279846191406
 30
0.0
 11
-337.7656860351563
 21
161.5279846191406
 31
0.0
  0
LINE
  5
269
330
22
100
AcDbEntity
  8
0
  6
Continuous
 62
     7
100
AcDbLine
 10
-385.2656860351563
 20
156.5279846191406
 30
0.0
 11
-337.7656860351563
 21
156.5279846191406
 31
0.0
  0
LINE
  5
26A
330
22
100
AcDbEntity
  8
0
  6
Continuous
 62
     7
100
AcDbLine
 10
-386.2656860351563
 20
157.5279846191406
 30
0.0
 11
-337.7656860351563
 21
157.5279846191406
 31
0.0
  0
LINE
  5
26B
330
22
100
AcDbEntity
  8
0
  6
Continuous
 62
     7
100
AcDbLine
 10
-383.7656860351563
 20
62.52799224853515
 30
0.0
 11
-337.7656860351563
 21
62.52799224853515
 31
0.0
  0
LINE
  5
26C
330
22
100
AcDbEntity
  8
0
  6
Continuous
 62
     7
100
AcDbLine
 10
-378.2656860351563
 20
26.52799034118652
 30
0.0
 11
-297.2656860351563
 21
26.52799034118652
 31
0.0
  0
LINE
  5
26D
330
22
100
AcDbEntity
  8
0
  6
Continuous
 62
     7
100
AcDbLine
 10
-377.7656860351563
 20
94.52799224853515
 30
0.0
 11
-337.7656860351563
 21
94.52799224853515
 31
0.0
  0
LINE
  5
26E
330
22
100
AcDbEntity
  8
0
  6
Continuous
 62
     7
100
AcDbLine
 10
-373.8806762695313
 20
122.4106521606445
 30
0.0
 11
-337.7656860351563
 21
122.4106521606445
 31
0.0
  0
LINE
  5
26F
330
22
100
AcDbEntity
  8
0
  6
Continuous
 62
     7
100
AcDbLine
 10
-374.16943359375
 20
147.8279876708984
 30
0.0
 11
-337.7656860351563
 21
147.8279876708984
 31
0.0
  0
LINE
  5
270
330
22
100
AcDbEntity
  8
0
  6
Continuous
 62
     7
100
AcDbLine
 10
-380.2656860351563
 20
59.02799224853516
 30
0.0
 11
-337.7656860351563
 21
59.02799224853516
 31
0.0
  0
LINE
  5
271
330
22
100
AcDbEntity
  8
0
  6
Continuous
 62
     7
100
AcDbLine
 10
-399.0156860351563
 20
211.5279846191406
 30
0.0
 11
-276.5156860351563
 21
211.5279846191406
 31
0.0
  0
LINE
  5
272
330
22
100
AcDbEntity
  8
0
  6
Continuous
 62
     7
100
AcDbLine
 10
-400.2656860351563
 20
207.5279846191406
 30
0.0
 11
-337.7656860351563
 21
207.5279846191406
 31
0.0
  0
LINE
  5
273
330
22
100
AcDbEntity
  8
0
  6
Continuous
 62
     7
100
AcDbLine
 10
-388.2656860351563
 20
161.5279846191406
 30
0.0
 11
-388.2656860351563
 21
191.3421173095703
 31
0.0
  0
LINE
  5
274
330
22
100
AcDbEntity
  8
0
  6
Continuous
 62
     7
100
AcDbLine
 10
-386.2656860351563
 20
157.5279846191406
 30
0.0
 11
-386.2656860351563
 21
191.5279846191406
 31
0.0
  0
LINE
  5
275
330
22
100
AcDbEntity
  8
0
  6
Continuous
 62
     7
100
AcDbLine
 10
-335.521240234375
 20
207.5279846191406
 30
0.0
 11
-329.771240234375
 21
207.5279846191406
 31
0.0
  0
LINE
  5
276
330
22
100
AcDbEntity
  8
0
  6
Continuous
 62
     7
100
AcDbLine
 10
-337.7656860351563
 20
210.5279846191406
 30
0.0
 11
-277.7656860351563
 21
210.5279846191406
 31
0.0
  0
LINE
  5
277
330
22
100
AcDbEntity
  8
0
  6
Continuous
 62
     7
100
AcDbLine
 10
-335.521240234375
 20
209.5279846191406
 30
0.0
 11
-335.521240234375
 21
207.5279846191406
 31
0.0
  0
LINE
  5
278
330
22
100
AcDbEntity
  8
0
  6
Continuous
 62
     7
100
AcDbLine
 10
-335.4829406738281
 20
208.6662902832031
 30
0.0
 11
-329.7740478515625
 21
208.6662902832031
 31
0.0
  0
LINE
  5
279
330
22
100
AcDbEntity
  8
0
  6
Continuous
 62
     7
100
AcDbLine
 10
-329.771240234375
 20
201.5279846191406
 30
0.0
 11
-337.771240234375
 21
201.5279846191406
 31
0.0
  0
LINE
  5
27A
330
22
100
AcDbEntity
  8
0
  6
Continuous
 62
     7
100
AcDbLine
 10
-337.771240234375
 20
180.0279846191406
 30
0.0
 11
-331.771240234375
 21
180.0279846191406
 31
0.0
  0
LINE
  5
27B
330
22
100
AcDbEntity
  8
0
  6
Continuous
 62
     7
100
AcDbLine
 10
-335.521240234375
 20
209.2782592773438
 30
0.0
 11
-334.2715148925781
 21
210.5279846191406
 31
0.0
  0
LINE
  5
27C
330
22
100
AcDbEntity
  8
0
  6
Continuous
 62
     7
100
AcDbLine
 10
-334.0119018554688
 20
208.6662902832031
 30
0.0
 11
-332.1502075195313
 21
210.5279846191406
 31
0.0
  0
LINE
  5
27D
330
22
100
AcDbEntity
  8
0
  6
Continuous
 62
     7
100
AcDbLine
 10
-331.8905639648438
 20
208.6662902832031
 30
0.0
 11
-330.0288696289063
 21
210.5279846191406
 31
0.0
  0
LINE
  5
27E
330
22
100
AcDbEntity
  8
0
  6
Continuous
 62
     7
100
AcDbLine
 10
-329.7740478515625
 20
208.6614990234375
 30
0.0
 11
-327.9075622558594
 21
210.5279846191406
 31
0.0
  0
LINE
  5
27F
330
22
100
AcDbEntity
  8
0
  6
Continuous
 62
     7
100
AcDbLine
 10
-337.7656860351563
 20
200.6698760986328
 30
0.0
 11
-336.9075622558594
 21
201.5279846191406
 31
0.0
  0
LINE
  5
280
330
22
100
AcDbEntity
  8
0
  6
Continuous
 62
     7
100
AcDbLine
 10
-329.771240234375
 20
206.5429840087891
 30
0.0
 11
-325.7862548828125
 21
210.5279846191406
 31
0.0
  0
LINE
  5
281
330
22
100
AcDbEntity
  8
0
  6
Continuous
 62
     7
100
AcDbLine
 10
-337.7656860351563
 20
198.5485534667969
 30
0.0
 11
-334.7862548828125
 21
201.5279846191406
 31
0.0
  0
LINE
  5
282
330
22
100
AcDbEntity
  8
0
  6
Continuous
 62
     7
100
AcDbLine
 10
-329.771240234375
 20
204.4216613769531
 30
0.0
 11
-323.6649169921875
 21
210.5279846191406
 31
0.0
  0
LINE
  5
283
330
22
100
AcDbEntity
  8
0
  6
Continuous
 62
     7
100
AcDbLine
 10
-337.7656860351563
 20
196.4272308349609
 30
0.0
 11
-332.6649169921875
 21
201.5279846191406
 31
0.0
  0
LINE
  5
284
330
22
100
AcDbEntity
  8
0
  6
Continuous
 62
     7
100
AcDbLine
 10
-329.771240234375
 20
202.3003387451172
 30
0.0
 11
-321.5436096191406
 21
210.5279846191406
 31
0.0
  0
LINE
  5
285
330
22
100
AcDbEntity
  8
0
  6
Continuous
 62
     7
100
AcDbLine
 10
-337.7656860351563
 20
194.305908203125
 30
0.0
 11
-330.5436096191406
 21
201.5279846191406
 31
0.0
  0
LINE
  5
286
330
22
100
AcDbEntity
  8
0
  6
Continuous
 62
     7
100
AcDbLine
 10
-330.7729797363281
 20
199.1772766113281
 30
0.0
 11
-319.4222717285156
 21
210.5279846191406
 31
0.0
  0
LINE
  5
287
330
22
100
AcDbEntity
  8
0
  6
Continuous
 62
     7
100
AcDbLine
 10
-337.7656860351563
 20
192.1845855712891
 30
0.0
 11
-333.7710876464844
 21
196.1791839599609
 31
0.0
  0
LINE
  5
288
330
22
100
AcDbEntity
  8
0
  6
Continuous
 62
     7
100
AcDbLine
 10
-328.6514892578125
 20
199.1774597167969
 30
0.0
 11
-317.9124145507813
 21
209.9165191650391
 31
0.0
  0
LINE
  5
289
330
22
100
AcDbEntity
  8
0
  6
Continuous
 62
     7
100
AcDbLine
 10
-337.7656860351563
 20
190.0632781982421
 30
0.0
 11
-333.771240234375
 21
194.0576934814453
 31
0.0
  0
LINE
  5
28A
330
22
100
AcDbEntity
  8
0
  6
Continuous
 62
     7
100
AcDbLine
 10
-326.5301818847656
 20
199.1774597167969
 30
0.0
 11
-318.5491638183594
 21
207.1584625244141
 31
0.0
  0
LINE
  5
28B
330
22
100
AcDbEntity
  8
0
  6
Continuous
 62
     7
100
AcDbLine
 10
-337.7656860351563
 20
187.9419555664063
 30
0.0
 11
-333.771240234375
 21
191.9363861083984
 31
0.0
  0
LINE
  5
28C
330
22
100
AcDbEntity
  8
0
  6
Continuous
 62
     7
100
AcDbLine
 10
-324.4689025878906
 20
199.1174011230469
 30
0.0
 11
-319.1859130859375
 21
204.400390625
 31
0.0
  0
LINE
  5
28D
330
22
100
AcDbEntity
  8
0
  6
Continuous
 62
     7
100
AcDbLine
 10
-337.7656860351563
 20
185.8206329345703
 30
0.0
 11
-333.771240234375
 21
189.8150634765625
 31
0.0
  0
LINE
  5
28E
330
22
100
AcDbEntity
  8
0
  6
Continuous
 62
     7
100
AcDbLine
 10
-319.9375305175781
 20
201.5274505615234
 30
0.0
 11
-319.7726440429688
 21
201.6923370361328
 31
0.0
  0
LINE
  5
28F
330
22
100
AcDbEntity
  8
0
  6
Continuous
 62
     7
100
AcDbLine
 10
-323.7394714355469
 20
197.7255249023438
 30
0.0
 11
-321.7708435058594
 21
199.6941375732422
 31
0.0
  0
LINE
  5
290
330
22
100
AcDbEntity
  8
0
  6
Continuous
 62
     7
100
AcDbLine
 10
-337.7656860351563
 20
183.6993103027344
 30
0.0
 11
-333.771240234375
 21
187.6937408447266
 31
0.0
  0
LINE
  5
291
330
22
100
AcDbEntity
  8
0
  6
Continuous
 62
     7
100
AcDbLine
 10
-322.7351989746094
 20
196.6084594726563
 30
0.0
 11
-320.315673828125
 21
199.0279846191406
 31
0.0
  0
LINE
  5
292
330
22
100
AcDbEntity
  8
0
  6
Continuous
 62
     7
100
AcDbLine
 10
-337.7656860351563
 20
181.5779876708984
 30
0.0
 11
-333.771240234375
 21
185.5724182128906
 31
0.0
  0
LINE
  5
293
330
22
100
AcDbEntity
  8
0
  6
Continuous
 62
     7
100
AcDbLine
 10
-320.6943664550781
 20
196.5279846191406
 30
0.0
 11
-319.870849609375
 21
197.3515014648438
 31
0.0
  0
LINE
  5
294
330
22
100
AcDbEntity
  8
0
  6
Continuous
 62
     7
100
AcDbLine
 10
-337.1943664550781
 20
180.0279846191406
 30
0.0
 11
-333.771240234375
 21
183.4510955810547
 31
0.0
  0
LINE
  5
295
330
22
100
AcDbEntity
  8
0
  6
Continuous
 62
     7
100
AcDbLine
 10
-337.7656860351563
 20
179.4566650390625
 30
0.0
 11
-337.1943664550781
 21
180.0279846191406
 31
0.0
  0
LINE
  5
296
330
22
100
AcDbEntity
  8
0
  6
Continuous
 62
     7
100
AcDbLine
 10
-335.0730285644531
 20
180.0279846191406
 30
0.0
 11
-333.771240234375
 21
181.3297729492188
 31
0.0
  0
LINE
  5
297
330
22
100
AcDbEntity
  8
0
  6
Continuous
 62
     7
100
AcDbLine
 10
-337.7656860351563
 20
177.3353424072266
 30
0.0
 11
-335.0730285644531
 21
180.0279846191406
 31
0.0
  0
LINE
  5
298
330
22
100
AcDbEntity
  8
0
  6
Continuous
 62
     7
100
AcDbLine
 10
-336.4517211914063
 20
176.5279846191406
 30
0.0
 11
-332.9517211914063
 21
180.0279846191406
 31
0.0
  0
LINE
  5
299
330
22
100
AcDbEntity
  8
0
  6
Continuous
 62
     7
100
AcDbLine
 10
-334.3303833007813
 20
176.5279846191406
 30
0.0
 11
-331.771240234375
 21
179.0871429443359
 31
0.0
  0
LINE
  5
29A
330
22
100
AcDbEntity
  8
0
  6
Continuous
 62
     7
100
AcDbLine
 10
-332.2090759277344
 20
176.5279846191406
 30
0.0
 11
-331.771240234375
 21
176.9658203125
 31
0.0
  0
LINE
  5
29B
330
22
100
AcDbEntity
  8
0
  6
Continuous
 62
     7
100
AcDbLine
 10
-335.0725708007813
 20
208.6662902832031
 30
0.0
 11
-333.2108764648438
 21
210.5279846191406
 31
0.0
  0
LINE
  5
29C
330
22
100
AcDbEntity
  8
0
  6
Continuous
 62
     7
100
AcDbLine
 10
-332.9512329101563
 20
208.6662902832031
 30
0.0
 11
-331.0895385742188
 21
210.5279846191406
 31
0.0
  0
LINE
  5
29D
330
22
100
AcDbEntity
  8
0
  6
Continuous
 62
     7
100
AcDbLine
 10
-330.8299255371094
 20
208.6662902832031
 30
0.0
 11
-328.9682312011719
 21
210.5279846191406
 31
0.0
  0
LINE
  5
29E
330
22
100
AcDbEntity
  8
0
  6
Continuous
 62
     7
100
AcDbLine
 10
-329.7740173339844
 20
207.6008911132813
 30
0.0
 11
-326.8468933105469
 21
210.5279846191406
 31
0.0
  0
LINE
  5
29F
330
22
100
AcDbEntity
  8
0
  6
Continuous
 62
     7
100
AcDbLine
 10
-337.7656860351563
 20
199.6092071533203
 30
0.0
 11
-335.8468933105469
 21
201.5279846191406
 31
0.0
  0
LINE
  5
2A0
330
22
100
AcDbEntity
  8
0
  6
Continuous
 62
     7
100
AcDbLine
 10
-329.771240234375
 20
205.4823150634766
 30
0.0
 11
-324.7255859375
 21
210.5279846191406
 31
0.0
  0
LINE
  5
2A1
330
22
100
AcDbEntity
  8
0
  6
Continuous
 62
     7
100
AcDbLine
 10
-337.7656860351563
 20
197.4878997802734
 30
0.0
 11
-333.7255859375
 21
201.5279846191406
 31
0.0
  0
LINE
  5
2A2
330
22
100
AcDbEntity
  8
0
  6
Continuous
 62
     7
100
AcDbLine
 10
-329.771240234375
 20
203.3610076904297
 30
0.0
 11
-322.604248046875
 21
210.5279846191406
 31
0.0
  0
LINE
  5
2A3
330
22
100
AcDbEntity
  8
0
  6
Continuous
 62
     7
100
AcDbLine
 10
-337.7656860351563
 20
195.3665771484375
 30
0.0
 11
-331.604248046875
 21
201.5279846191406
 31
0.0
  0
LINE
  5
2A4
330
22
100
AcDbEntity
  8
0
  6
Continuous
 62
     7
100
AcDbLine
 10
-332.2255249023438
 20
198.7854156494141
 30
0.0
 11
-320.4829406738281
 21
210.5279846191406
 31
0.0
  0
LINE
  5
2A5
330
22
100
AcDbEntity
  8
0
  6
Continuous
 62
     7
100
AcDbLine
 10
-337.7656860351563
 20
193.2452545166016
 30
0.0
 11
-333.3792114257813
 21
197.6317138671875
 31
0.0
  0
LINE
  5
2A6
330
22
100
AcDbEntity
  8
0
  6
Continuous
 62
     7
100
AcDbLine
 10
-329.712158203125
 20
199.1774597167969
 30
0.0
 11
-318.3654479980469
 21
210.524169921875
 31
0.0
  0
LINE
  5
2A7
330
22
100
AcDbEntity
  8
0
  6
Continuous
 62
     7
100
AcDbLine
 10
-337.7656860351563
 20
191.1239318847656
 30
0.0
 11
-333.771240234375
 21
195.1183624267578
 31
0.0
  0
LINE
  5
2A8
330
22
100
AcDbEntity
  8
0
  6
Continuous
 62
     7
100
AcDbLine
 10
-327.5908508300781
 20
199.1774597167969
 30
0.0
 11
-318.2308044433594
 21
208.5374908447266
 31
0.0
  0
LINE
  5
2A9
330
22
100
AcDbEntity
  8
0
  6
Continuous
 62
     7
100
AcDbLine
 10
-337.7656860351563
 20
189.0026092529297
 30
0.0
 11
-333.771240234375
 21
192.9970397949219
 31
0.0
  0
LINE
  5
2AA
330
22
100
AcDbEntity
  8
0
  6
Continuous
 62
     7
100
AcDbLine
 10
-325.4695129394531
 20
199.1774597167969
 30
0.0
 11
-318.8675537109375
 21
205.7794342041016
 31
0.0
  0
LINE
  5
2AB
330
22
100
AcDbEntity
  8
0
  6
Continuous
 62
     7
100
AcDbLine
 10
-337.7656860351563
 20
186.8812866210938
 30
0.0
 11
-333.771240234375
 21
190.8757171630859
 31
0.0
  0
LINE
  5
2AC
330
22
100
AcDbEntity
  8
0
  6
Continuous
 62
     7
100
AcDbLine
 10
-320.9981994628906
 20
201.5274505615234
 30
0.0
 11
-319.5043029785156
 21
203.0213623046875
 31
0.0
  0
LINE
  5
2AD
330
22
100
AcDbEntity
  8
0
  6
Continuous
 62
     7
100
AcDbLine
 10
-323.8944396972656
 20
198.6311950683594
 30
0.0
 11
-321.7708435058594
 21
200.7548065185547
 31
0.0
  0
LINE
  5
2AE
330
22
100
AcDbEntity
  8
0
  6
Continuous
 62
     7
100
AcDbLine
 10
-337.7656860351563
 20
184.7599639892578
 30
0.0
 11
-333.771240234375
 21
188.75439453125
 31
0.0
  0
LINE
  5
2AF
330
22
100
AcDbEntity
  8
0
  6
Continuous
 62
     7
100
AcDbLine
 10
-323.3785705566406
 20
197.0257568359375
 30
0.0
 11
-321.3763427734375
 21
199.0279846191406
 31
0.0
  0
LINE
  5
2B0
330
22
100
AcDbEntity
  8
0
  6
Continuous
 62
     7
100
AcDbLine
 10
-337.7656860351563
 20
182.6386566162109
 30
0.0
 11
-333.771240234375
 21
186.6330718994141
 31
0.0
  0
LINE
  5
2B1
330
22
100
AcDbEntity
  8
0
  6
Continuous
 62
     7
100
AcDbLine
 10
-321.7550048828125
 20
196.5279846191406
 30
0.0
 11
-319.870849609375
 21
198.4121551513672
 31
0.0
  0
LINE
  5
2B2
330
22
100
AcDbEntity
  8
0
  6
Continuous
 62
     7
100
AcDbLine
 10
-337.7656860351563
 20
180.517333984375
 30
0.0
 11
-333.771240234375
 21
184.5117645263672
 31
0.0
  0
LINE
  5
2B3
330
22
100
AcDbEntity
  8
0
  6
Continuous
 62
     7
100
AcDbLine
 10
-336.1336975097656
 20
180.0279846191406
 30
0.0
 11
-333.771240234375
 21
182.3904418945313
 31
0.0
  0
LINE
  5
2B4
330
22
100
AcDbEntity
  8
0
  6
Continuous
 62
     7
100
AcDbLine
 10
-337.7656860351563
 20
178.3960113525391
 30
0.0
 11
-336.1336975097656
 21
180.0279846191406
 31
0.0
  0
LINE
  5
2B5
330
22
100
AcDbEntity
  8
0
  6
Continuous
 62
     7
100
AcDbLine
 10
-334.0123901367188
 20
180.0279846191406
 30
0.0
 11
-333.771240234375
 21
180.2691192626953
 31
0.0
  0
LINE
  5
2B6
330
22
100
AcDbEntity
  8
0
  6
Continuous
 62
     7
100
AcDbLine
 10
-337.5123901367188
 20
176.5279846191406
 30
0.0
 11
-334.0123901367188
 21
180.0279846191406
 31
0.0
  0
LINE
  5
2B7
330
22
100
AcDbEntity
  8
0
  6
Continuous
 62
     7
100
AcDbLine
 10
-335.3910522460938
 20
176.5279846191406
 30
0.0
 11
-331.8910522460938
 21
180.0279846191406
 31
0.0
  0
LINE
  5
2B8
330
22
100
AcDbEntity
  8
0
  6
Continuous
 62
     7
100
AcDbLine
 10
-333.2697448730469
 20
176.5279846191406
 30
0.0
 11
-331.771240234375
 21
178.0264739990234
 31
0.0
  0
LINE
  5
2B9
330
22
100
AcDbEntity
  8
0
  6
Continuous
 62
     7
100
AcDbLine
 10
-327.7656860351563
 20
175.5279846191406
 30
0.0
 11
-337.7656860351563
 21
175.5279846191406
 31
0.0
  0
LINE
  5
2BA
330
22
100
AcDbEntity
  8
0
  6
Continuous
 62
     7
100
AcDbLine
 10
-331.771240234375
 20
176.5279846191406
 30
0.0
 11
-337.771240234375
 21
176.5279846191406
 31
0.0
  0
LINE
  5
2BB
330
22
100
AcDbEntity
  8
0
  6
Continuous
 62
     7
100
AcDbLine
 10
-337.7656860351563
 20
174.5279846191406
 30
0.0
 11
-302.1963195800781
 21
174.5279846191406
 31
0.0
  0
LINE
  5
2BC
330
22
100
AcDbEntity
  8
0
  6
Continuous
 62
     7
100
AcDbLine
 10
-301.6990051269531
 20
28.05131721496582
 30
0.0
 11
-337.7656860351563
 21
28.05131721496582
 31
0.0
  0
LINE
  5
2BD
330
22
100
AcDbEntity
  8
0
  6
Continuous
 62
     7
100
AcDbLine
 10
-337.7656860351563
 20
64.00299072265625
 30
0.0
 11
-301.6506652832031
 21
64.00299072265625
 31
0.0
  0
LINE
  5
2BE
330
22
100
AcDbEntity
  8
0
  6
Continuous
 62
     7
100
AcDbLine
 10
-301.157958984375
 20
57.95898818969727
 30
0.0
 11
-337.7656860351563
 21
57.95898818969727
 31
0.0
  0
LINE
  5
2BF
330
22
100
AcDbEntity
  8
0
  6
Continuous
 62
     7
100
AcDbLine
 10
-302.5889587402344
 20
56.52799224853516
 30
0.0
 11
-337.7656860351563
 21
56.52799224853516
 31
0.0
  0
LINE
  5
2C0
330
22
100
AcDbEntity
  8
0
  6
Continuous
 62
     7
100
AcDbLine
 10
-337.7656860351563
 20
74.52799224853515
 30
0.0
 11
-301.6506652832031
 21
74.52799224853515
 31
0.0
  0
LINE
  5
2C1
330
22
100
AcDbEntity
  8
0
  6
Continuous
 62
     7
100
AcDbLine
 10
-300.1756896972656
 20
62.52799224853515
 30
0.0
 11
-337.7656860351563
 21
62.52799224853515
 31
0.0
  0
LINE
  5
2C2
330
22
100
AcDbEntity
  8
0
  6
Continuous
 62
     7
100
AcDbLine
 10
-343.7656860351563
 20
159.5279846191406
 30
0.0
 11
-337.7656860351563
 21
159.5279846191406
 31
0.0
  0
CIRCLE
  5
2C3
330
22
100
AcDbEntity
  8
0
  6
Continuous
 62
     7
100
AcDbCircle
 10
-337.7656860351563
 20
313.1492004394531
 30
0.0
 40
20.0
  0
CIRCLE
  5
2C4
330
22
100
AcDbEntity
  8
0
  6
Continuous
 62
     7
100
AcDbCircle
 10
-337.7656860351563
 20
313.1492004394531
 30
0.0
 40
62.5
  0
CIRCLE
  5
2C5
330
22
100
AcDbEntity
  8
0
  6
Continuous
 62
     7
100
AcDbCircle
 10
-337.7656860351563
 20
313.1492004394531
 30
0.0
 40
48.0
  0
CIRCLE
  5
2C6
330
22
100
AcDbEntity
  8
0
  6
Continuous
 62
     7
100
AcDbCircle
 10
-337.7656860351563
 20
313.1492004394531
 30
0.0
 40
60.0
  0
CIRCLE
  5
2C7
330
22
100
AcDbEntity
  8
0
  6
Continuous
 62
     7
100
AcDbCircle
 10
-337.7656860351563
 20
314.0279846191406
 30
0.0
 40
91.0
  0
CIRCLE
  5
2C8
330
22
100
AcDbEntity
  8
0
  6
Continuous
 62
     7
100
AcDbCircle
 10
-337.7656860351563
 20
313.1492004394531
 30
0.0
 40
74.25240325927735
  0
ARC
  5
2C9
330
22
100
AcDbEntity
  8
0
  6
Continuous
 62
     7
100
AcDbCircle
 10
-337.7656860351563
 20
313.1492004394531
 30
0.0
 40
4.449999809265136
100
AcDbArc
 50
33.40563324174365
 51
146.5943667582564
  0
ARC
  5
2CA
330
22
100
AcDbEntity
  8
0
  6
Continuous
 62
     7
100
AcDbCircle
 10
-337.7656860351563
 20
313.1492004394531
 30
0.0
 40
4.449999809265136
100
AcDbArc
 50
213.4053052279186
 51
326.5946947720828
  0
ARC
  5
2CB
330
22
100
AcDbEntity
  8
0
  6
Continuous
 62
     7
100
AcDbCircle
 10
-318.3998413085938
 20
210.0279846191406
 30
0.0
 40
0.5
100
AcDbArc
 50
347.0002719250225
 51
90.00000000000019
  0
ARC
  5
2CC
330
22
100
AcDbEntity
  8
0
  6
Continuous
 62
     7
100
AcDbCircle
 10
-317.37353515625
 20
210.0279846191406
 30
0.0
 40
0.5
100
AcDbArc
 50
90.00000000000019
 51
166.9985682107812
  0
ARC
  5
2CD
330
22
100
AcDbEntity
  8
0
  6
Continuous
 62
     7
100
AcDbCircle
 10
-285.228271484375
 20
206.2779846191406
 30
0.0
 40
1.25
100
AcDbArc
 50
90.00000000000019
 51
169.3801728640468
  0
ARC
  5
2CE
330
22
100
AcDbEntity
  8
0
  6
Continuous
 62
     7
100
AcDbCircle
 10
-330.4912414550781
 20
191.5279846191406
 30
0.0
 40
1.0
100
AcDbArc
 50
90.00000000000019
 51
180.0000000000004
  0
ARC
  5
2CF
330
22
100
AcDbEntity
  8
0
  6
Continuous
 62
     7
100
AcDbCircle
 10
-300.2445068359375
 20
204.6429901123047
 30
0.0
 40
1.5
100
AcDbArc
 50
4.653284038258425
 51
90.00000000000019
  0
CIRCLE
  5
2D0
330
22
100
AcDbEntity
  8
0
  6
Continuous
 62
     7
100
AcDbCircle
 10
-320.7708435058594
 20
200.2279968261719
 30
0.0
 40
1.0
  0
ARC
  5
2D1
330
22
100
AcDbEntity
  8
0
  6
Continuous
 62
     7
100
AcDbCircle
 10
-276.5156860351563
 20
210.2779846191406
 30
0.0
 40
1.25
100
AcDbArc
 50
0.0
 51
168.4629178846625
  0
ARC
  5
2D2
330
22
100
AcDbEntity
  8
0
  6
Continuous
 62
     7
100
AcDbCircle
 10
-290.3615417480469
 20
210.0279846191406
 30
0.0
 40
0.5
100
AcDbArc
 50
350.0001234095527
 51
90.00000000000019
  0
ARC
  5
2D3
330
22
100
AcDbEntity
  8
0
  6
Continuous
 62
     7
100
AcDbCircle
 10
-324.7708435058594
 20
198.1774597167969
 30
0.0
 40
1.0
100
AcDbArc
 50
0.0
 51
90.00000000000019
  0
ARC
  5
2D4
330
22
100
AcDbEntity
  8
0
  6
Continuous
 62
     7
100
AcDbCircle
 10
-314.3717651367188
 20
204.6429901123047
 30
0.0
 40
1.5
100
AcDbArc
 50
90.00000000000019
 51
175.1801155747829
  0
ARC
  5
2D5
330
22
100
AcDbEntity
  8
0
  6
Continuous
 62
     7
100
AcDbCircle
 10
-320.370849609375
 20
197.0279846191406
 30
0.0
 40
0.5
100
AcDbArc
 50
270.0000000000005
 51
0.0
  0
ARC
  5
2D6
330
22
100
AcDbEntity
  8
0
  6
Continuous
 62
     7
100
AcDbCircle
 10
-322.2708435058594
 20
198.0279846191406
 30
0.0
 40
1.5
100
AcDbArc
 50
180.0000000000004
 51
270.0000000000005
  0
ARC
  5
2D7
330
22
100
AcDbEntity
  8
0
  6
Continuous
 62
     7
100
AcDbCircle
 10
-318.7371826171875
 20
194.5279846191406
 30
0.0
 40
2.0
100
AcDbArc
 50
270.0000000000005
 51
355.1802362825551
  0
ARC
  5
2D8
330
22
100
AcDbEntity
  8
0
  6
Continuous
 62
     7
100
AcDbCircle
 10
-331.9912414550781
 20
191.5279846191406
 30
0.0
 40
0.5
100
AcDbArc
 50
270.0000000000005
 51
0.0
  0
ARC
  5
2D9
330
22
100
AcDbEntity
  8
0
  6
Continuous
 62
     7
100
AcDbCircle
 10
-330.771240234375
 20
196.1774597167969
 30
0.0
 40
3.0
100
AcDbArc
 50
90.00000000000019
 51
180.0000000000004
  0
CIRCLE
  5
2DA
330
22
100
AcDbEntity
  8
0
  6
Continuous
 62
     7
100
AcDbCircle
 10
-294.5567016601563
 20
187.7779846191406
 30
0.0
 40
1.0
  0
ARC
  5
2DB
330
22
100
AcDbEntity
  8
0
  6
Continuous
 62
     7
100
AcDbCircle
 10
-297.7656860351563
 20
93.52799224853516
 30
0.0
 40
1.0
100
AcDbArc
 50
0.0
 51
90.00000000000019
  0
ARC
  5
2DC
330
22
100
AcDbEntity
  8
0
  6
Continuous
 62
     7
100
AcDbCircle
 10
-297.2656860351563
 20
27.52799034118652
 30
0.0
 40
1.0
100
AcDbArc
 50
270.0000000000005
 51
0.0
  0
ARC
  5
2DD
330
22
100
AcDbEntity
  8
0
  6
Continuous
 62
     7
100
AcDbCircle
 10
-291.7656860351563
 20
67.52799224853515
 30
0.0
 40
5.0
100
AcDbArc
 50
180.0000000000004
 51
270.0000000000005
  0
ARC
  5
2DE
330
22
100
AcDbEntity
  8
0
  6
Continuous
 62
     7
100
AcDbCircle
 10
-399.0156860351563
 20
210.2779846191406
 30
0.0
 40
1.25
100
AcDbArc
 50
90.00000000000019
 51
180.0000000000004
  0
ARC
  5
2DF
330
22
100
AcDbEntity
  8
0
  6
Continuous
 62
     7
100
AcDbCircle
 10
-295.2656860351563
 20
58.02799224853515
 30
0.0
 40
1.0
100
AcDbArc
 50
90.00000000000019
 51
180.0000000000004
  0
ARC
  5
2E0
330
22
100
AcDbEntity
  8
0
  6
Continuous
 62
     7
100
AcDbCircle
 10
-247.2656860351563
 20
59.52799224853515
 30
0.0
 40
0.5
100
AcDbArc
 50
270.0000000000005
 51
0.0
  0
ARC
  5
2E1
330
22
100
AcDbEntity
  8
0
  6
Continuous
 62
     7
100
AcDbCircle
 10
-248.7656860351563
 20
60.52799224853515
 30
0.0
 40
2.0
100
AcDbArc
 50
0.0
 51
90.00000000000019
  0
ARC
  5
2E2
330
22
100
AcDbEntity
  8
0
  6
Continuous
 62
     7
100
AcDbCircle
 10
-393.2656860351563
 20
57.52702713012695
 30
0.0
 40
2.0
100
AcDbArc
 50
180.0000000000004
 51
251.2479761698664
  0
ARC
  5
2E3
330
22
100
AcDbEntity
  8
0
  6
Continuous
 62
     7
100
AcDbCircle
 10
-383.7656860351563
 20
67.52799224853515
 30
0.0
 40
5.0
100
AcDbArc
 50
270.0000000000005
 51
0.0
  0
ARC
  5
2E4
330
22
100
AcDbEntity
  8
0
  6
Continuous
 62
     7
100
AcDbCircle
 10
-381.2656860351563
 20
43.02799224853515
 30
0.0
 40
2.0
100
AcDbArc
 50
180.0000000000004
 51
270.0000000000005
  0
ARC
  5
2E5
330
22
100
AcDbEntity
  8
0
  6
Continuous
 62
     7
100
AcDbCircle
 10
-428.2656860351563
 20
59.52799224853515
 30
0.0
 40
0.5
100
AcDbArc
 50
180.0000000000004
 51
270.0000000000005
  0
ARC
  5
2E6
330
22
100
AcDbEntity
  8
0
  6
Continuous
 62
     7
100
AcDbCircle
 10
-426.7656860351562
 20
60.52799224853515
 30
0.0
 40
2.0
100
AcDbArc
 50
90.00000000000019
 51
180.0000000000004
  0
ARC
  5
2E7
330
22
100
AcDbEntity
  8
0
  6
Continuous
 62
     7
100
AcDbCircle
 10
-380.2656860351563
 20
58.02799224853515
 30
0.0
 40
1.0
100
AcDbArc
 50
0.0
 51
90.00000000000019
  0
ARC
  5
2E8
330
22
100
AcDbEntity
  8
0
  6
Continuous
 62
     7
100
AcDbCircle
 10
-294.1567077636719
 20
181.0279846191406
 30
0.0
 40
0.5
100
AcDbArc
 50
270.0000000000005
 51
0.0
  0
ARC
  5
2E9
330
22
100
AcDbEntity
  8
0
  6
Continuous
 62
     7
100
AcDbCircle
 10
-377.7656860351563
 20
93.52799224853516
 30
0.0
 40
1.0
100
AcDbArc
 50
90.00000000000019
 51
180.0000000000004
  0
ARC
  5
2EA
330
22
100
AcDbEntity
  8
0
  6
Continuous
 62
     7
100
AcDbCircle
 10
-378.2656860351563
 20
27.52799034118652
 30
0.0
 40
1.0
100
AcDbArc
 50
180.0000000000004
 51
270.0000000000005
  0
ARC
  5
2EB
330
22
100
AcDbEntity
  8
0
  6
Continuous
 62
     7
100
AcDbCircle
 10
-399.0523071289063
 20
40.48252487182617
 30
0.0
 40
16.0
100
AcDbArc
 50
9.154172308318292
 51
71.24756663285591
  0
ARC
  5
2EC
330
22
100
AcDbEntity
  8
0
  6
Continuous
 62
     7
100
AcDbCircle
 10
-334.521240234375
 20
209.5279846191406
 30
0.0
 40
1.0
100
AcDbArc
 50
90.00000000000019
 51
180.0000000000004
  0
TEXT
  5
2ED
330
22
100
AcDbEntity
  8
0
  6
Continuous
 62
     7
100
AcDbText
 10
-278.6423273086549
 20
17.39823913574219
 30
0.0
 40
7.0
  1
ＤＬ－ＣＨ－６５
 41
0.8454512837995997
100
AcDbText
  0
SOLID
  5
2EE
330
22
100
AcDbEntity
  8
0
  6
Continuous
 62
     7
100
AcDbTrace
 10
-320.7107238769531
 20
199.2297973632813
 30
0.0
 11
-320.9066162109375
 21
199.2372436523438
 31
0.0
 12
-320.6640625
 22
199.2372436523438
 32
0.0
 13
-320.6640625
 23
199.2372436523438
 33
0.0
  0
SOLID
  5
2EF
330
22
100
AcDbEntity
  8
0
  6
Continuous
 62
     7
100
AcDbTrace
 10
-320.6350708007813
 20
201.2187347412109
 30
0.0
 11
-320.8776245117188
 21
201.2187347412109
 31
0.0
 12
-320.8309631347656
 22
201.2261810302734
 32
0.0
 13
-320.8309631347656
 23
201.2261810302734
 33
0.0
  0
SOLID
  5
2F0
330
22
100
AcDbEntity
  8
0
  6
Continuous
 62
     7
100
AcDbTrace
 10
-320.5368347167969
 20
201.1952667236328
 30
0.0
 11
-321.0245666503906
 21
201.1952667236328
 31
0.0
 12
-320.6350708007813
 22
201.2187347412109
 32
0.0
 13
-320.8776245117188
 23
201.2187347412109
 33
0.0
  0
SOLID
  5
2F1
330
22
100
AcDbEntity
  8
0
  6
Continuous
 62
     7
100
AcDbTrace
 10
-320.4443969726563
 20
201.1732025146484
 30
0.0
 11
-321.0841369628906
 21
201.1732025146484
 31
0.0
 12
-320.5368347167969
 22
201.1952667236328
 32
0.0
 13
-321.0245666503906
 23
201.1952667236328
 33
0.0
  0
SOLID
  5
2F2
330
22
100
AcDbEntity
  8
0
  6
Continuous
 62
     7
100
AcDbTrace
 10
-320.3442687988281
 20
201.1271820068359
 30
0.0
 11
-321.2083740234375
 21
201.1271820068359
 31
0.0
 12
-320.4443969726563
 22
201.1732025146484
 32
0.0
 13
-321.0841369628906
 23
201.1732025146484
 33
0.0
  0
SOLID
  5
2F3
330
22
100
AcDbEntity
  8
0
  6
Continuous
 62
     7
100
AcDbTrace
 10
-320.2662658691406
 20
201.0913543701172
 30
0.0
 11
-321.2666931152344
 21
201.0913543701172
 31
0.0
 12
-320.3442687988281
 22
201.1271820068359
 32
0.0
 13
-321.2083740234375
 23
201.1271820068359
 33
0.0
  0
SOLID
  5
2F4
330
22
100
AcDbEntity
  8
0
  6
Continuous
 62
     7
100
AcDbTrace
 10
-320.174072265625
 20
201.0245513916016
 30
0.0
 11
-321.3753967285156
 21
201.0245513916016
 31
0.0
 12
-320.2662658691406
 22
201.0913543701172
 32
0.0
 13
-321.2666931152344
 23
201.0913543701172
 33
0.0
  0
SOLID
  5
2F5
330
22
100
AcDbEntity
  8
0
  6
Continuous
 62
     7
100
AcDbTrace
 10
-320.1075439453125
 20
200.9763336181641
 30
0.0
 11
-321.4274291992188
 21
200.9763336181641
 31
0.0
 12
-320.174072265625
 22
201.0245513916016
 32
0.0
 13
-321.3753967285156
 23
201.0245513916016
 33
0.0
  0
SOLID
  5
2F6
330
22
100
AcDbEntity
  8
0
  6
Continuous
 62
     7
100
AcDbTrace
 10
-320.0287475585938
 20
200.8912963867188
 30
0.0
 11
-321.5191955566406
 21
200.8912963867188
 31
0.0
 12
-320.1075439453125
 22
200.9763336181641
 32
0.0
 13
-321.4274291992188
 23
200.9763336181641
 33
0.0
  0
SOLID
  5
2F7
330
22
100
AcDbEntity
  8
0
  6
Continuous
 62
     7
100
AcDbTrace
 10
-319.9742736816406
 20
200.8325500488281
 30
0.0
 11
-321.561767578125
 21
200.8325500488281
 31
0.0
 12
-320.0287475585938
 22
200.8912963867188
 32
0.0
 13
-321.5191955566406
 23
200.8912963867188
 33
0.0
  0
SOLID
  5
2F8
330
22
100
AcDbEntity
  8
0
  6
Continuous
 62
     7
100
AcDbTrace
 10
-319.912841796875
 20
200.7325592041016
 30
0.0
 11
-321.6342163085938
 21
200.7325592041016
 31
0.0
 12
-319.9742736816406
 22
200.8325500488281
 32
0.0
 13
-321.561767578125
 23
200.8325500488281
 33
0.0
  0
SOLID
  5
2F9
330
22
100
AcDbEntity
  8
0
  6
Continuous
 62
     7
100
AcDbTrace
 10
-319.8716430664063
 20
200.66552734375
 30
0.0
 11
-321.6650085449219
 21
200.66552734375
 31
0.0
 12
-319.912841796875
 22
200.7325592041016
 32
0.0
 13
-321.6342163085938
 23
200.7325592041016
 33
0.0
  0
SOLID
  5
2FA
330
22
100
AcDbEntity
  8
0
  6
Continuous
 62
     7
100
AcDbTrace
 10
-319.8305053710938
 20
200.5544281005859
 30
0.0
 11
-321.716064453125
 21
200.5544281005859
 31
0.0
 12
-319.8716430664063
 22
200.66552734375
 32
0.0
 13
-321.6650085449219
 23
200.66552734375
 33
0.0
  0
SOLID
  5
2FB
330
22
100
AcDbEntity
  8
0
  6
Continuous
 62
     7
100
AcDbTrace
 10
-319.8035583496094
 20
200.4817047119141
 30
0.0
 11
-321.7334289550781
 21
200.4817047119141
 31
0.0
 12
-319.8305053710938
 22
200.5544281005859
 32
0.0
 13
-321.716064453125
 23
200.5544281005859
 33
0.0
  0
SOLID
  5
2FC
330
22
100
AcDbEntity
  8
0
  6
Continuous
 62
     7
100
AcDbTrace
 10
-319.7847290039063
 20
200.3637542724609
 30
0.0
 11
-321.7615966796875
 21
200.3637542724609
 31
0.0
 12
-319.8035583496094
 22
200.4817047119141
 32
0.0
 13
-321.7334289550781
 23
200.4817047119141
 33
0.0
  0
SOLID
  5
2FD
330
22
100
AcDbEntity
  8
0
  6
Continuous
 62
     7
100
AcDbTrace
 10
-319.7726440429688
 20
200.2881164550781
 30
0.0
 11
-321.7644653320313
 21
200.2881164550781
 31
0.0
 12
-319.7847290039063
 22
200.3637542724609
 32
0.0
 13
-321.7615966796875
 23
200.3637542724609
 33
0.0
  0
SOLID
  5
2FE
330
22
100
AcDbEntity
  8
0
  6
Continuous
 62
     7
100
AcDbTrace
 10
-319.7726440429688
 20
200.1678619384766
 30
0.0
 11
-321.76904296875
 21
200.1678619384766
 31
0.0
 12
-319.7726440429688
 22
200.2881164550781
 32
0.0
 13
-321.7644653320313
 23
200.2881164550781
 33
0.0
  0
SOLID
  5
2FF
330
22
100
AcDbEntity
  8
0
  6
Continuous
 62
     7
100
AcDbTrace
 10
-319.7801208496094
 20
200.0922241210938
 30
0.0
 11
-321.7569580078125
 21
200.0922241210938
 31
0.0
 12
-319.7726440429688
 22
200.1678619384766
 32
0.0
 13
-321.76904296875
 23
200.1678619384766
 33
0.0
  0
SOLID
  5
300
330
22
100
AcDbEntity
  8
0
  6
Continuous
 62
     7
100
AcDbTrace
 10
-319.8082580566406
 20
199.9742889404297
 30
0.0
 11
-321.7381286621094
 21
199.9742889404297
 31
0.0
 12
-319.7801208496094
 22
200.0922241210938
 32
0.0
 13
-321.7569580078125
 23
200.0922241210938
 33
0.0
  0
SOLID
  5
301
330
22
100
AcDbEntity
  8
0
  6
Continuous
 62
     7
100
AcDbTrace
 10
-319.8256225585938
 20
199.9015502929688
 30
0.0
 11
-321.711181640625
 21
199.9015502929688
 31
0.0
 12
-319.8082580566406
 22
199.9742889404297
 32
0.0
 13
-321.7381286621094
 23
199.9742889404297
 33
0.0
  0
SOLID
  5
302
330
22
100
AcDbEntity
  8
0
  6
Continuous
 62
     7
100
AcDbTrace
 10
-319.8766784667969
 20
199.7904510498047
 30
0.0
 11
-321.6700439453125
 21
199.7904510498047
 31
0.0
 12
-319.8256225585938
 22
199.9015502929688
 32
0.0
 13
-321.711181640625
 23
199.9015502929688
 33
0.0
  0
SOLID
  5
303
330
22
100
AcDbEntity
  8
0
  6
Continuous
 62
     7
100
AcDbTrace
 10
-319.907470703125
 20
199.7234191894531
 30
0.0
 11
-321.6288452148438
 21
199.7234191894531
 31
0.0
 12
-319.8766784667969
 22
199.7904510498047
 32
0.0
 13
-321.6700439453125
 23
199.7904510498047
 33
0.0
  0
SOLID
  5
304
330
22
100
AcDbEntity
  8
0
  6
Continuous
 62
     7
100
AcDbTrace
 10
-319.9799194335938
 20
199.6234283447266
 30
0.0
 11
-321.5674133300781
 21
199.6234283447266
 31
0.0
 12
-319.907470703125
 22
199.7234191894531
 32
0.0
 13
-321.6288452148438
 23
199.7234191894531
 33
0.0
  0
SOLID
  5
305
330
22
100
AcDbEntity
  8
0
  6
Continuous
 62
     7
100
AcDbTrace
 10
-320.0224914550781
 20
199.5646820068359
 30
0.0
 11
-321.5129699707031
 21
199.5646820068359
 31
0.0
 12
-319.9799194335938
 22
199.6234283447266
 32
0.0
 13
-321.5674133300781
 23
199.6234283447266
 33
0.0
  0
SOLID
  5
306
330
22
100
AcDbEntity
  8
0
  6
Continuous
 62
     7
100
AcDbTrace
 10
-320.1142578125
 20
199.4796447753906
 30
0.0
 11
-321.4341735839844
 21
199.4796447753906
 31
0.0
 12
-320.0224914550781
 22
199.5646820068359
 32
0.0
 13
-321.5129699707031
 23
199.5646820068359
 33
0.0
  0
SOLID
  5
307
330
22
100
AcDbEntity
  8
0
  6
Continuous
 62
     7
100
AcDbTrace
 10
-320.1662902832031
 20
199.4314270019531
 30
0.0
 11
-321.3676147460938
 21
199.4314270019531
 31
0.0
 12
-320.1142578125
 22
199.4796447753906
 32
0.0
 13
-321.4341735839844
 23
199.4796447753906
 33
0.0
  0
SOLID
  5
308
330
22
100
AcDbEntity
  8
0
  6
Continuous
 62
     7
100
AcDbTrace
 10
-320.2749938964844
 20
199.3646240234375
 30
0.0
 11
-321.2754211425781
 21
199.3646240234375
 31
0.0
 12
-320.1662902832031
 22
199.4314270019531
 32
0.0
 13
-321.3676147460938
 23
199.4314270019531
 33
0.0
  0
SOLID
  5
309
330
22
100
AcDbEntity
  8
0
  6
Continuous
 62
     7
100
AcDbTrace
 10
-320.3333129882813
 20
199.3287963867188
 30
0.0
 11
-321.1974487304688
 21
199.3287963867188
 31
0.0
 12
-320.2749938964844
 22
199.3646240234375
 32
0.0
 13
-321.2754211425781
 23
199.3646240234375
 33
0.0
  0
SOLID
  5
30A
330
22
100
AcDbEntity
  8
0
  6
Continuous
 62
     7
100
AcDbTrace
 10
-320.4575805664063
 20
199.2827758789063
 30
0.0
 11
-321.0972900390625
 21
199.2827758789063
 31
0.0
 12
-320.3333129882813
 22
199.3287963867188
 32
0.0
 13
-321.1974487304688
 23
199.3287963867188
 33
0.0
  0
SOLID
  5
30B
330
22
100
AcDbEntity
  8
0
  6
Continuous
 62
     7
100
AcDbTrace
 10
-320.5171508789063
 20
199.2607116699219
 30
0.0
 11
-321.0048828125
 21
199.2607116699219
 31
0.0
 12
-320.4575805664063
 22
199.2827758789063
 32
0.0
 13
-321.0972900390625
 23
199.2827758789063
 33
0.0
  0
SOLID
  5
30C
330
22
100
AcDbEntity
  8
0
  6
Continuous
 62
     7
100
AcDbTrace
 10
-320.6640625
 20
199.2372436523438
 30
0.0
 11
-320.9066162109375
 21
199.2372436523438
 31
0.0
 12
-320.5171508789063
 22
199.2607116699219
 32
0.0
 13
-321.0048828125
 23
199.2607116699219
 33
0.0
  0
SOLID
  5
30D
330
22
100
AcDbEntity
  8
0
  6
Continuous
 62
     7
100
AcDbTrace
 10
-294.47314453125
 20
186.781494140625
 30
0.0
 11
-294.6691589355469
 21
186.7843322753906
 31
0.0
 12
-294.4576721191406
 22
186.7843322753906
 32
0.0
 13
-294.4576721191406
 23
186.7843322753906
 33
0.0
  0
SOLID
  5
30E
330
22
100
AcDbEntity
  8
0
  6
Continuous
 62
     7
100
AcDbTrace
 10
-294.4442443847656
 20
188.7716522216797
 30
0.0
 11
-294.65576171875
 21
188.7716522216797
 31
0.0
 12
-294.6402587890625
 22
188.7744903564453
 32
0.0
 13
-294.6402587890625
 23
188.7744903564453
 33
0.0
  0
SOLID
  5
30F
330
22
100
AcDbEntity
  8
0
  6
Continuous
 62
     7
100
AcDbTrace
 10
-294.2919311523438
 20
188.7390441894531
 30
0.0
 11
-294.8330688476563
 21
188.7390441894531
 31
0.0
 12
-294.4442443847656
 22
188.7716522216797
 32
0.0
 13
-294.65576171875
 23
188.7716522216797
 33
0.0
  0
SOLID
  5
310
330
22
100
AcDbEntity
  8
0
  6
Continuous
 62
     7
100
AcDbTrace
 10
-294.2525634765625
 20
188.7306213378906
 30
0.0
 11
-294.8542785644531
 21
188.7306213378906
 31
0.0
 12
-294.2919311523438
 22
188.7390441894531
 32
0.0
 13
-294.8330688476563
 23
188.7390441894531
 33
0.0
  0
SOLID
  5
311
330
22
100
AcDbEntity
  8
0
  6
Continuous
 62
     7
100
AcDbTrace
 10
-294.1043090820313
 20
188.6666564941406
 30
0.0
 11
-295.0152587890625
 21
188.6666564941406
 31
0.0
 12
-294.2525634765625
 22
188.7306213378906
 32
0.0
 13
-294.8542785644531
 23
188.7306213378906
 33
0.0
  0
SOLID
  5
312
330
22
100
AcDbEntity
  8
0
  6
Continuous
 62
     7
100
AcDbTrace
 10
-294.0725708007813
 20
188.6529693603516
 30
0.0
 11
-295.0364074707031
 21
188.6529693603516
 31
0.0
 12
-294.1043090820313
 22
188.6666564941406
 32
0.0
 13
-295.0152587890625
 23
188.6666564941406
 33
0.0
  0
SOLID
  5
313
330
22
100
AcDbEntity
  8
0
  6
Continuous
 62
     7
100
AcDbTrace
 10
-293.9378967285156
 20
188.5601348876953
 30
0.0
 11
-295.1798095703125
 21
188.5601348876953
 31
0.0
 12
-294.0725708007813
 22
188.6529693603516
 32
0.0
 13
-295.0364074707031
 23
188.6529693603516
 33
0.0
  0
SOLID
  5
314
330
22
100
AcDbEntity
  8
0
  6
Continuous
 62
     7
100
AcDbTrace
 10
-293.9111633300781
 20
188.5417022705078
 30
0.0
 11
-295.1987915039063
 21
188.5417022705078
 31
0.0
 12
-293.9378967285156
 22
188.5601348876953
 32
0.0
 13
-295.1798095703125
 23
188.5601348876953
 33
0.0
  0
SOLID
  5
315
330
22
100
AcDbEntity
  8
0
  6
Continuous
 62
     7
100
AcDbTrace
 10
-293.79638671875
 20
188.4235382080078
 30
0.0
 11
-295.3204345703125
 21
188.4235382080078
 31
0.0
 12
-293.9111633300781
 22
188.5417022705078
 32
0.0
 13
-295.1987915039063
 23
188.5417022705078
 33
0.0
  0
SOLID
  5
316
330
22
100
AcDbEntity
  8
0
  6
Continuous
 62
     7
100
AcDbTrace
 10
-293.7745666503906
 20
188.4010925292969
 30
0.0
 11
-295.3359069824219
 21
188.4010925292969
 31
0.0
 12
-293.79638671875
 22
188.4235382080078
 32
0.0
 13
-295.3204345703125
 23
188.4235382080078
 33
0.0
  0
SOLID
  5
317
330
22
100
AcDbEntity
  8
0
  6
Continuous
 62
     7
100
AcDbTrace
 10
-293.6846313476563
 20
188.2621459960938
 30
0.0
 11
-295.4317016601563
 21
188.2621459960938
 31
0.0
 12
-293.7745666503906
 22
188.4010925292969
 32
0.0
 13
-295.3359069824219
 23
188.4010925292969
 33
0.0
  0
SOLID
  5
318
330
22
100
AcDbEntity
  8
0
  6
Continuous
 62
     7
100
AcDbTrace
 10
-293.6680297851563
 20
188.2365264892578
 30
0.0
 11
-295.4427490234375
 21
188.2365264892578
 31
0.0
 12
-293.6846313476563
 22
188.2621459960938
 32
0.0
 13
-295.4317016601563
 23
188.2621459960938
 33
0.0
  0
SOLID
  5
319
330
22
100
AcDbEntity
  8
0
  6
Continuous
 62
     7
100
AcDbTrace
 10
-293.606689453125
 20
188.0821380615234
 30
0.0
 11
-295.5093383789063
 21
188.0821380615234
 31
0.0
 12
-293.6680297851563
 22
188.2365264892578
 32
0.0
 13
-295.4427490234375
 23
188.2365264892578
 33
0.0
  0
SOLID
  5
31A
330
22
100
AcDbEntity
  8
0
  6
Continuous
 62
     7
100
AcDbTrace
 10
-293.5956420898438
 20
188.0543518066406
 30
0.0
 11
-295.5152893066406
 21
188.0543518066406
 31
0.0
 12
-293.606689453125
 22
188.0821380615234
 32
0.0
 13
-295.5093383789063
 23
188.0821380615234
 33
0.0
  0
SOLID
  5
31B
330
22
100
AcDbEntity
  8
0
  6
Continuous
 62
     7
100
AcDbTrace
 10
-293.6022033691406
 20
187.8904418945313
 30
0.0
 11
-295.5503540039063
 21
187.8904418945313
 31
0.0
 12
-293.5956420898438
 22
188.0543518066406
 32
0.0
 13
-295.5152893066406
 23
188.0543518066406
 33
0.0
  0
SOLID
  5
31C
330
22
100
AcDbEntity
  8
0
  6
Continuous
 62
     7
100
AcDbTrace
 10
-293.6100463867188
 20
187.6944274902344
 30
0.0
 11
-295.55322265625
 21
187.6944274902344
 31
0.0
 12
-293.6022033691406
 22
187.8904418945313
 32
0.0
 13
-295.5503540039063
 23
187.8904418945313
 33
0.0
  0
SOLID
  5
31D
330
22
100
AcDbEntity
  8
0
  6
Continuous
 62
     7
100
AcDbTrace
 10
-293.6177673339844
 20
187.5016326904297
 30
0.0
 11
-295.5177612304688
 21
187.5016326904297
 31
0.0
 12
-293.6100463867188
 22
187.6944274902344
 32
0.0
 13
-295.55322265625
 23
187.6944274902344
 33
0.0
  0
SOLID
  5
31E
330
22
100
AcDbEntity
  8
0
  6
Continuous
 62
     7
100
AcDbTrace
 10
-293.6207885742188
 20
187.4257507324219
 30
0.0
 11
-295.4876098632813
 21
187.4257507324219
 31
0.0
 12
-293.6177673339844
 22
187.5016326904297
 32
0.0
 13
-295.5177612304688
 23
187.5016326904297
 33
0.0
  0
SOLID
  5
31F
330
22
100
AcDbEntity
  8
0
  6
Continuous
 62
     7
100
AcDbTrace
 10
-293.6698913574219
 20
187.3194427490234
 30
0.0
 11
-295.4453735351563
 21
187.3194427490234
 31
0.0
 12
-293.6207885742188
 22
187.4257507324219
 32
0.0
 13
-295.4876098632813
 23
187.4257507324219
 33
0.0
  0
SOLID
  5
320
330
22
100
AcDbEntity
  8
0
  6
Continuous
 62
     7
100
AcDbTrace
 10
-293.6817321777344
 20
187.2938385009766
 30
0.0
 11
-295.4288024902344
 21
187.2938385009766
 31
0.0
 12
-293.6698913574219
 22
187.3194427490234
 32
0.0
 13
-295.4453735351563
 23
187.3194427490234
 33
0.0
  0
SOLID
  5
321
330
22
100
AcDbEntity
  8
0
  6
Continuous
 62
     7
100
AcDbTrace
 10
-293.7775268554688
 20
187.1548919677734
 30
0.0
 11
-295.3388366699219
 21
187.1548919677734
 31
0.0
 12
-293.6817321777344
 22
187.2938385009766
 32
0.0
 13
-295.4288024902344
 23
187.2938385009766
 33
0.0
  0
SOLID
  5
322
330
22
100
AcDbEntity
  8
0
  6
Continuous
 62
     7
100
AcDbTrace
 10
-293.7929992675781
 20
187.1324462890625
 30
0.0
 11
-295.3170471191406
 21
187.1324462890625
 31
0.0
 12
-293.7775268554688
 22
187.1548919677734
 32
0.0
 13
-295.3388366699219
 23
187.1548919677734
 33
0.0
  0
SOLID
  5
323
330
22
100
AcDbEntity
  8
0
  6
Continuous
 62
     7
100
AcDbTrace
 10
-293.9146423339844
 20
187.0142669677734
 30
0.0
 11
-295.2022705078125
 21
187.0142669677734
 31
0.0
 12
-293.7929992675781
 22
187.1324462890625
 32
0.0
 13
-295.3170471191406
 23
187.1324462890625
 33
0.0
  0
SOLID
  5
324
330
22
100
AcDbEntity
  8
0
  6
Continuous
 62
     7
100
AcDbTrace
 10
-293.93359375
 20
186.995849609375
 30
0.0
 11
-295.175537109375
 21
186.995849609375
 31
0.0
 12
-293.9146423339844
 22
187.0142669677734
 32
0.0
 13
-295.2022705078125
 23
187.0142669677734
 33
0.0
  0
SOLID
  5
325
330
22
100
AcDbEntity
  8
0
  6
Continuous
 62
     7
100
AcDbTrace
 10
-294.0770263671875
 20
186.9029998779297
 30
0.0
 11
-295.0408630371094
 21
186.9029998779297
 31
0.0
 12
-293.93359375
 22
186.995849609375
 32
0.0
 13
-295.175537109375
 23
186.995849609375
 33
0.0
  0
SOLID
  5
326
330
22
100
AcDbEntity
  8
0
  6
Continuous
 62
     7
100
AcDbTrace
 10
-294.0981750488281
 20
186.8893127441406
 30
0.0
 11
-295.0091247558594
 21
186.8893127441406
 31
0.0
 12
-294.0770263671875
 22
186.9029998779297
 32
0.0
 13
-295.0408630371094
 23
186.9029998779297
 33
0.0
  0
SOLID
  5
327
330
22
100
AcDbEntity
  8
0
  6
Continuous
 62
     7
100
AcDbTrace
 10
-294.2591247558594
 20
186.8253631591796
 30
0.0
 11
-294.8608703613281
 21
186.8253631591796
 31
0.0
 12
-294.0981750488281
 22
186.8893127441406
 32
0.0
 13
-295.0091247558594
 23
186.8893127441406
 33
0.0
  0
SOLID
  5
328
330
22
100
AcDbEntity
  8
0
  6
Continuous
 62
     7
100
AcDbTrace
 10
-294.2803649902344
 20
186.8169403076172
 30
0.0
 11
-294.8214721679688
 21
186.8169403076172
 31
0.0
 12
-294.2591247558594
 22
186.8253631591796
 32
0.0
 13
-294.8608703613281
 23
186.8253631591796
 33
0.0
  0
SOLID
  5
329
330
22
100
AcDbEntity
  8
0
  6
Continuous
 62
     7
100
AcDbTrace
 10
-294.4576721191406
 20
186.7843322753906
 30
0.0
 11
-294.6691589355469
 21
186.7843322753906
 31
0.0
 12
-294.2803649902344
 22
186.8169403076172
 32
0.0
 13
-294.8214721679688
 23
186.8169403076172
 33
0.0
  0
DIMENSION
  5
32A
330
22
100
AcDbEntity
  8
0
  6
Continuous
 62
     7
100
AcDbDimension
  2
*D1
 10
-218.5705718994141
 20
59.02799224853516
 30
0.0
 11
-218.5705718994141
 21
49.82223892211914
 31
0.0
 71
     5
 42
-1.0
  3
DIMSTYLE1
100
AcDbAlignedDimension
 13
-216.2845764160156
 23
62.52799224853515
 33
0.0
 14
-247.2656860351563
 24
59.02799224853516
 34
0.0
 50
90.0
100
AcDbRotatedDimension
  0
INSERT
  5
32B
330
22
100
AcDbEntity
  8
0
  6
Continuous
 62
     7
100
AcDbBlockReference
  2
KOZU0001
 10
-300.9737854003906
 20
52.06567764282227
 30
0.0
  0
DIMENSION
  5
32C
330
22
100
AcDbEntity
  8
0
  6
Continuous
 62
     7
100
AcDbDimension
  2
*D2
 10
-356.7818032022989
 20
320.8773380439597
 30
0.0
 11
-236.6270599365234
 21
277.0797729492188
 31
0.0
 70
     3
 71
     5
 42
-1.0
  3
DIMSTYLE2
100
AcDbDiametricDimension
 15
-319.2006186727011
 25
307.1786311943216
 35
0.0
 40
0.0
  0
DIMENSION
  5
32D
330
22
100
AcDbEntity
  8
0
  6
Continuous
 62
     7
100
AcDbDimension
  2
*D3
 10
-409.9232380950102
 20
258.581725225657
 30
0.0
 11
-251.5391845703125
 21
380.2848815917969
 31
0.0
 70
     3
 71
     5
 42
-1.0
  3
DIMSTYLE3
100
AcDbDiametricDimension
 15
-265.6081339753023
 25
369.4742440126242
 35
0.0
 40
0.0
  0
DIMENSION
  5
32E
330
22
100
AcDbEntity
  8
0
  6
Continuous
 62
     7
100
AcDbDimension
  2
*D4
 10
-395.3552083057916
 20
288.8655243454183
 30
0.0
 11
-234.0118103027344
 21
356.89892578125
 31
0.0
 70
     3
 71
     5
 42
-1.0
  3
DIMSTYLE4
100
AcDbDiametricDimension
 15
-280.176163764521
 25
337.432876533488
 35
0.0
 40
0.0
  0
DIMENSION
  5
32F
330
22
100
AcDbEntity
  8
0
  6
Continuous
 62
     7
100
AcDbDimension
  2
*D5
 10
-385.3494473354354
 20
306.8416129039481
 30
0.0
 11
-229.6854553222656
 21
327.4760437011719
 31
0.0
 70
     3
 71
     5
 42
-1.0
  3
DIMSTYLE5
100
AcDbDiametricDimension
 15
-290.1819247348772
 25
319.4567879749581
 35
0.0
 40
0.0
  0
DIMENSION
  5
330
330
22
100
AcDbEntity
  8
0
  6
Continuous
 62
     7
100
AcDbDimension
  2
*D6
 10
-296.2656860351563
 20
13.75823974609375
 30
0.0
 11
-337.7656860351563
 21
13.75823974609375
 31
0.0
 71
     5
 42
-1.0
  3
DIMSTYLE6
100
AcDbAlignedDimension
 13
-379.2656860351563
 23
27.52799034118652
 33
0.0
 14
-296.2656860351563
 24
27.52799034118652
 34
0.0
100
AcDbRotatedDimension
  0
DIMENSION
  5
331
330
22
100
AcDbEntity
  8
0
  6
Continuous
 62
     7
100
AcDbDimension
  2
*D7
 10
-232.2666625976563
 20
94.52799224853515
 30
0.0
 11
-232.2666625976563
 21
78.52799224853516
 31
0.0
 71
     5
 42
-1.0
  3
DIMSTYLE7
100
AcDbAlignedDimension
 13
-216.2845764160156
 23
62.52799224853515
 33
0.0
 14
-297.7656860351563
 24
94.52799224853515
 34
0.0
 50
90.0
100
AcDbRotatedDimension
  0
DIMENSION
  5
332
330
22
100
AcDbEntity
  8
0
  6
Continuous
 62
     7
100
AcDbDimension
  2
*D8
 10
-218.5705718994141
 20
211.5279846191406
 30
0.0
 11
-218.5705718994141
 21
137.0279846191406
 31
0.0
 71
     5
 42
-1.0
  3
DIMSTYLE8
100
AcDbAlignedDimension
 13
-248.7656860351563
 23
62.52799224853515
 33
0.0
 14
-276.5156860351563
 24
211.5279846191406
 34
0.0
 50
90.0
100
AcDbRotatedDimension
  0
DIMENSION
  5
333
330
22
100
AcDbEntity
  8
0
  6
Continuous
 62
     7
100
AcDbDimension
  2
*D9
 10
-232.2666625976563
 20
156.5279846191406
 30
0.0
 11
-232.2666625976563
 21
184.0279846191406
 31
0.0
 71
     5
 42
-1.0
  3
DIMSTYLE9
100
AcDbAlignedDimension
 13
-216.2845764160156
 23
211.5279846191406
 33
0.0
 14
-290.2656860351563
 24
156.5279846191406
 34
0.0
 50
90.0
100
AcDbRotatedDimension
  0
DIMENSION
  5
334
330
22
100
AcDbEntity
  8
0
  6
Continuous
 62
     7
100
AcDbDimension
  2
*D10
 10
-326.6380920410156
 20
174.5279846191406
 30
0.0
 11
-326.6380920410156
 21
124.5279922485352
 31
0.0
 71
     5
 42
-1.0
  3
DIMSTYLE10
100
AcDbAlignedDimension
 13
-337.7656860351563
 23
74.52799224853515
 33
0.0
 14
-337.7656860351563
 24
174.5279846191406
 34
0.0
 50
90.0
100
AcDbRotatedDimension
  0
DIMENSION
  5
335
330
22
100
AcDbEntity
  8
0
  6
Continuous
 62
     7
100
AcDbDimension
  2
*D11
 10
-318.3340759277344
 20
124.5279922485352
 30
0.0
 11
-318.3340759277344
 21
99.52799224853515
 31
0.0
 71
     5
 42
-1.0
  3
DIMSTYLE11
100
AcDbAlignedDimension
 13
-301.6506652832031
 23
74.52799224853515
 33
0.0
 14
-301.6506652832031
 24
124.5279922485352
 34
0.0
 50
90.0
100
AcDbRotatedDimension
  0
DIMENSION
  5
336
330
22
100
AcDbEntity
  8
0
  6
Continuous
 62
     7
100
AcDbDimension
  2
*D12
 10
-439.0144042968749
 20
94.52799224853515
 30
0.0
 11
-439.0144042968749
 21
60.52799224853515
 31
0.0
 71
     5
 42
-1.0
  3
DIMSTYLE12
100
AcDbAlignedDimension
 13
-378.2656860351563
 23
26.52799034118652
 33
0.0
 14
-377.7656860351563
 24
94.52799224853515
 34
0.0
 50
90.0
100
AcDbRotatedDimension
  0
DIMENSION
  5
337
330
22
100
AcDbEntity
  8
0
  6
Continuous
 62
     7
100
AcDbDimension
  2
*D13
 10
-395.2656860351563
 20
30.48922538757324
 30
0.0
 11
-387.2656860351563
 21
30.48922538757324
 31
0.0
 71
     5
 42
-1.0
  3
DIMSTYLE13
100
AcDbAlignedDimension
 13
-379.2656860351563
 23
34.04983139038086
 33
0.0
 14
-395.2656860351563
 24
57.52702713012695
 34
0.0
100
AcDbRotatedDimension
  0
DIMENSION
  5
338
330
22
100
AcDbEntity
  8
0
  6
Continuous
 62
     7
100
AcDbDimension
  2
*D14
 10
-404.4854736328124
 20
41.02799224853515
 30
0.0
 11
-404.4854736328124
 21
50.02799224853515
 31
0.0
 71
     5
 42
-1.0
  3
DIMSTYLE14
100
AcDbAlignedDimension
 13
-384.2656860351563
 23
59.02799224853516
 33
0.0
 14
-381.2656860351563
 24
41.02799224853515
 34
0.0
 50
90.0
100
AcDbRotatedDimension
  0
INSERT
  5
339
330
22
100
AcDbEntity
  8
0
  6
Continuous
 62
     7
100
AcDbBlockReference
  2
KOZU0002
 10
-386.253173828125
 20
54.07422637939453
 30
0.0
  0
ENDSEC
  0
SECTION
  2
OBJECTS
  0
DICTIONARY
  5
C
330
0
100
AcDbDictionary
281
     1
  3
ACAD_COLOR
350
1B
  3
ACAD_GROUP
350
D
  3
ACAD_LAYOUT
350
19
  3
ACAD_MATERIAL
350
1A
  3
ACAD_MLINESTYLE
350
16
  3
ACAD_PLOTSETTINGS
350
18
  3
ACAD_PLOTSTYLENAME
350
E
  3
ACAD_TABLESTYLE
350
1C
  3
AcDbVariableDictionary
350
345
  0
DICTIONARY
  5
1B
102
{ACAD_REACTORS
330
C
102
}
330
C
100
AcDbDictionary
281
     1
  0
DICTIONARY
  5
D
102
{ACAD_REACTORS
330
C
102
}
330
C
100
AcDbDictionary
281
     1
  0
DICTIONARY
  5
19
102
{ACAD_REACTORS
330
C
102
}
330
C
100
AcDbDictionary
281
     1
  3
Model
350
25
  3
レイアウト1
350
21
  0
DICTIONARY
  5
1A
102
{ACAD_REACTORS
330
C
102
}
330
C
100
AcDbDictionary
281
     1
  0
DICTIONARY
  5
16
102
{ACAD_REACTORS
330
C
102
}
330
C
100
AcDbDictionary
281
     1
  3
Standard
350
17
  0
DICTIONARY
  5
18
102
{ACAD_REACTORS
330
C
102
}
330
C
100
AcDbDictionary
281
     1
  0
ACDBDICTIONARYWDFLT
  5
E
102
{ACAD_REACTORS
330
C
102
}
330
C
100
AcDbDictionary
281
     1
  3
Normal
350
F
100
AcDbDictionaryWithDefault
340
F
  0
DICTIONARY
  5
1C
102
{ACAD_REACTORS
330
C
102
}
330
C
100
AcDbDictionary
281
     1
  3
Standard
350
1D
  0
DICTIONARY
  5
345
102
{ACAD_REACTORS
330
C
102
}
330
C
100
AcDbDictionary
281
     1
  3
CTABLESTYLE
350
346
  0
LAYOUT
  5
25
102
{ACAD_REACTORS
330
19
102
}
330
19
100
AcDbPlotSettings
  1

  2
PDF reDirect v2
  4
User66
  6

 40
3.174999952316284
 41
3.174999952316284
 42
3.17498779296875
 43
3.17498779296875
 44
420.0
 45
594.0
 46
0.0
 47
0.0
 48
0.0
 49
0.0
140
0.0
141
0.0
142
1.0
143
1.0
 70
 11952
 72
     1
 73
     1
 74
     2
  7
C:\Users\ck\AppData\Roaming\Autodesk\AutoCAD 2005\R16.1\jpn\Plot Styles\black.ctb
 75
    16
147
1.0
 76
     0
 77
     2
 78
   300
148
592.0
149
0.0
100
AcDbLayout
  1
Model
 70
     1
 71
     0
 10
0.0
 20
0.0
 11
12.0
 21
9.0
 12
0.0
 22
0.0
 32
0.0
 14
0.0
 24
0.0
 34
0.0
 15
0.0
 25
0.0
 35
0.0
146
0.0
 13
0.0
 23
0.0
 33
0.0
 16
1.0
 26
0.0
 36
0.0
 17
0.0
 27
1.0
 37
0.0
 76
     0
330
22
1001
ACAD_PSEXT
1000
PDF reDirect v2
1000
PDF reDirect Pro
1000
PDF_REDIRECT_PORT:
1000
PDF reDirect provided by EXP Systems
1070
     0
  0
LAYOUT
  5
21
102
{ACAD_REACTORS
330
19
102
}
330
19
100
AcDbPlotSettings
  1

  2
PDF reDirect v2
  4

  6

 40
0.0
 41
0.0
 42
0.0
 43
0.0
 44
0.0
 45
0.0
 46
0.0
 47
0.0
 48
0.0
 49
0.0
140
0.0
141
0.0
142
1.0
143
1.0
 70
   688
 72
     0
 73
     0
 74
     5
  7
C:\Users\ck\AppData\Roaming\Autodesk\AutoCAD 2005\R16.1\jpn\Plot Styles\black.ctb
 75
    16
147
1.0
 76
     0
 77
     2
 78
   300
148
0.0
149
0.0
100
AcDbLayout
  1
レイアウト1
 70
     1
 71
     1
 10
-592.0
 20
0.0
 11
0.0
 21
418.0
 12
0.0
 22
0.0
 32
0.0
 14
1.000000000000000E+20
 24
1.000000000000000E+20
 34
1.000000000000000E+20
 15
-1.000000000000000E+20
 25
-1.000000000000000E+20
 35
-1.000000000000000E+20
146
0.0
 13
0.0
 23
0.0
 33
0.0
 16
1.0
 26
0.0
 36
0.0
 17
0.0
 27
1.0
 37
0.0
 76
     0
330
1E
  0
MLINESTYLE
  5
17
102
{ACAD_REACTORS
330
16
102
}
330
16
100
AcDbMlineStyle
  2
STANDARD
 70
     0
  3

 62
   256
 51
90.0
 52
90.0
 71
     2
 49
0.5
 62
   256
  6
BYLAYER
 49
-0.5
 62
   256
  6
BYLAYER
  0
ACDBPLACEHOLDER
  5
F
102
{ACAD_REACTORS
330
E
102
}
330
E
  0
TABLESTYLE
  5
1D
102
{ACAD_REACTORS
330
1C
102
}
330
1C
100
AcDbTableStyle
  3
Standard
 70
     0
 71
     0
 40
0.06
 41
0.06
280
     0
281
     0
  7
STANDARD
140
0.18
170
     2
 62
     0
 63
     7
283
     0
274
    -2
284
     1
 64
     0
275
    -2
285
     1
 65
     0
276
    -2
286
     1
 66
     0
277
    -2
287
     1
 67
     0
278
    -2
288
     1
 68
     0
279
    -2
289
     1
 69
     0
  7
STANDARD
140
0.25
170
     5
 62
     0
 63
     7
283
     0
274
    -2
284
     1
 64
     0
275
    -2
285
     1
 65
     0
276
    -2
286
     1
 66
     0
277
    -2
287
     1
 67
     0
278
    -2
288
     1
 68
     0
279
    -2
289
     1
 69
     0
  7
STANDARD
140
0.18
170
     5
 62
     0
 63
     7
283
     0
274
    -2
284
     1
 64
     0
275
    -2
285
     1
 65
     0
276
    -2
286
     1
 66
     0
277
    -2
287
     1
 67
     0
278
    -2
288
     1
 68
     0
279
    -2
289
     1
 69
     0
  0
DICTIONARYVAR
  5
346
102
{ACAD_REACTORS
330
345
102
}
330
345
100
DictionaryVariables
280
     0
  1
STANDARD
  0
ENDSEC
  0
EOF
