  0
SECTION
  2
HEADER
  9
$ACADVER
  1
AC1018
  9
$ACADMAINTVER
 70
    39
  9
$DWGCODEPAGE
  3
ANSI_932
  9
$INSBASE
 10
0.0
 20
0.0
 30
0.0
  9
$EXTMIN
 10
-435.4726546894207
 20
15.16729835417038
 30
-0.0015258207003583
  9
$EXTMAX
 10
-214.7463367622652
 20
399.7711801512298
 30
0.0000000349246037
  9
$LIMMIN
 10
-592.0
 20
0.0
  9
$LIMMAX
 10
0.0
 20
418.0
  9
$ORTHOMODE
 70
     0
  9
$REGENMODE
 70
     1
  9
$FILLMODE
 70
     1
  9
$QTEXTMODE
 70
     0
  9
$MIRRTEXT
 70
     0
  9
$LTSCALE
 40
1.0
  9
$ATTMODE
 70
     1
  9
$TEXTSIZE
 40
0.2
  9
$TRACEWID
 40
0.05
  9
$TEXTSTYLE
  7
STANDARD
  9
$CLAYER
  8
0
  9
$CELTYPE
  6
CONTINUOUS
  9
$CECOLOR
 62
   256
  9
$CELTSCALE
 40
1.0
  9
$DISPSILH
 70
     0
  9
$DIMSCALE
 40
1.0
  9
$DIMASZ
 40
1.0
  9
$DIMEXO
 40
2.54
  9
$DIMDLI
 40
0.38
  9
$DIMRND
 40
0.0
  9
$DIMDLE
 40
0.0
  9
$DIMEXE
 40
2.54
  9
$DIMTP
 40
0.0
  9
$DIMTM
 40
0.0
  9
$DIMTXT
 40
3.0
  9
$DIMCEN
 40
0.09
  9
$DIMTSZ
 40
0.0
  9
$DIMTOL
 70
     0
  9
$DIMLIM
 70
     0
  9
$DIMTIH
 70
     0
  9
$DIMTOH
 70
     0
  9
$DIMSE1
 70
     0
  9
$DIMSE2
 70
     0
  9
$DIMTAD
 70
     1
  9
$DIMZIN
 70
     0
  9
$DIMBLK
  1

  9
$DIMASO
 70
     1
  9
$DIMSHO
 70
     0
  9
$DIMPOST
  1

  9
$DIMAPOST
  1

  9
$DIMALT
 70
     0
  9
$DIMALTD
 70
     2
  9
$DIMALTF
 40
25.4
  9
$DIMLFAC
 40
1.0
  9
$DIMTOFL
 70
     0
  9
$DIMTVP
 40
1.0
  9
$DIMTIX
 70
     0
  9
$DIMSOXD
 70
     0
  9
$DIMSAH
 70
     1
  9
$DIMBLK1
  1

  9
$DIMBLK2
  1

  9
$DIMSTYLE
  2
DIMSTYLE1
  9
$DIMCLRD
 70
     0
  9
$DIMCLRE
 70
     0
  9
$DIMCLRT
 70
     0
  9
$DIMTFAC
 40
1.0
  9
$DIMGAP
 40
1.5
  9
$DIMJUST
 70
     0
  9
$DIMSD1
 70
     0
  9
$DIMSD2
 70
     0
  9
$DIMTOLJ
 70
     1
  9
$DIMTZIN
 70
     0
  9
$DIMALTZ
 70
     0
  9
$DIMALTTZ
 70
     0
  9
$DIMUPT
 70
     0
  9
$DIMDEC
 70
     4
  9
$DIMTDEC
 70
     4
  9
$DIMALTU
 70
     2
  9
$DIMALTTD
 70
     2
  9
$DIMTXSTY
  7
STANDARD
  9
$DIMAUNIT
 70
     0
  9
$DIMADEC
 70
     0
  9
$DIMALTRND
 40
0.0
  9
$DIMAZIN
 70
     0
  9
$DIMDSEP
 70
    46
  9
$DIMATFIT
 70
     3
  9
$DIMFRAC
 70
     0
  9
$DIMLDRBLK
  1

  9
$DIMLUNIT
 70
     2
  9
$DIMLWD
 70
    -2
  9
$DIMLWE
 70
    -2
  9
$DIMTMOVE
 70
     0
  9
$LUNITS
 70
     2
  9
$LUPREC
 70
     4
  9
$SKETCHINC
 40
0.1
  9
$FILLETRAD
 40
0.0
  9
$AUNITS
 70
     0
  9
$AUPREC
 70
     0
  9
$MENU
  1
.
  9
$ELEVATION
 40
0.0
  9
$PELEVATION
 40
0.0
  9
$THICKNESS
 40
0.0
  9
$LIMCHECK
 70
     0
  9
$CHAMFERA
 40
0.0
  9
$CHAMFERB
 40
0.0
  9
$CHAMFERC
 40
0.0
  9
$CHAMFERD
 40
0.0
  9
$SKPOLY
 70
     0
  9
$TDCREATE
 40
2457840.658275521
  9
$TDUCREATE
 40
2457840.283275521
  9
$TDUPDATE
 40
2457840.658854005
  9
$TDUUPDATE
 40
2457840.283854005
  9
$TDINDWG
 40
0.0005791782
  9
$TDUSRTIMER
 40
0.0005791782
  9
$USRTIMER
 70
     1
  9
$ANGBASE
 50
0.0
  9
$ANGDIR
 70
     0
  9
$PDMODE
 70
     0
  9
$PDSIZE
 40
0.0
  9
$PLINEWID
 40
0.0
  9
$SPLFRAME
 70
     0
  9
$SPLINETYPE
 70
     6
  9
$SPLINESEGS
 70
     8
  9
$HANDSEED
  5
309
  9
$SURFTAB1
 70
     6
  9
$SURFTAB2
 70
     6
  9
$SURFTYPE
 70
     6
  9
$SURFU
 70
     6
  9
$SURFV
 70
     6
  9
$UCSBASE
  2

  9
$UCSNAME
  2

  9
$UCSORG
 10
0.0
 20
0.0
 30
0.0
  9
$UCSXDIR
 10
1.0
 20
0.0
 30
0.0
  9
$UCSYDIR
 10
0.0
 20
1.0
 30
0.0
  9
$UCSORTHOREF
  2

  9
$UCSORTHOVIEW
 70
     0
  9
$UCSORGTOP
 10
0.0
 20
0.0
 30
0.0
  9
$UCSORGBOTTOM
 10
0.0
 20
0.0
 30
0.0
  9
$UCSORGLEFT
 10
0.0
 20
0.0
 30
0.0
  9
$UCSORGRIGHT
 10
0.0
 20
0.0
 30
0.0
  9
$UCSORGFRONT
 10
0.0
 20
0.0
 30
0.0
  9
$UCSORGBACK
 10
0.0
 20
0.0
 30
0.0
  9
$PUCSBASE
  2

  9
$PUCSNAME
  2

  9
$PUCSORG
 10
0.0
 20
0.0
 30
0.0
  9
$PUCSXDIR
 10
1.0
 20
0.0
 30
0.0
  9
$PUCSYDIR
 10
0.0
 20
1.0
 30
0.0
  9
$PUCSORTHOREF
  2

  9
$PUCSORTHOVIEW
 70
     0
  9
$PUCSORGTOP
 10
0.0
 20
0.0
 30
0.0
  9
$PUCSORGBOTTOM
 10
0.0
 20
0.0
 30
0.0
  9
$PUCSORGLEFT
 10
0.0
 20
0.0
 30
0.0
  9
$PUCSORGRIGHT
 10
0.0
 20
0.0
 30
0.0
  9
$PUCSORGFRONT
 10
0.0
 20
0.0
 30
0.0
  9
$PUCSORGBACK
 10
0.0
 20
0.0
 30
0.0
  9
$USERI1
 70
     0
  9
$USERI2
 70
     0
  9
$USERI3
 70
     0
  9
$USERI4
 70
     0
  9
$USERI5
 70
     0
  9
$USERR1
 40
0.0
  9
$USERR2
 40
0.0
  9
$USERR3
 40
0.0
  9
$USERR4
 40
0.0
  9
$USERR5
 40
0.0
  9
$WORLDVIEW
 70
     1
  9
$SHADEDGE
 70
     3
  9
$SHADEDIF
 70
    70
  9
$TILEMODE
 70
     1
  9
$MAXACTVP
 70
    64
  9
$PINSBASE
 10
0.0
 20
0.0
 30
0.0
  9
$PLIMCHECK
 70
     0
  9
$PEXTMIN
 10
1.000000000000000E+20
 20
1.000000000000000E+20
 30
1.000000000000000E+20
  9
$PEXTMAX
 10
-1.000000000000000E+20
 20
-1.000000000000000E+20
 30
-1.000000000000000E+20
  9
$PLIMMIN
 10
-592.0
 20
0.0
  9
$PLIMMAX
 10
0.0
 20
418.0
  9
$UNITMODE
 70
     0
  9
$VISRETAIN
 70
     1
  9
$PLINEGEN
 70
     0
  9
$PSLTSCALE
 70
     1
  9
$TREEDEPTH
 70
  3020
  9
$CMLSTYLE
  2
Standard
  9
$CMLJUST
 70
     0
  9
$CMLSCALE
 40
1.0
  9
$PROXYGRAPHICS
 70
     1
  9
$MEASUREMENT
 70
     0
  9
$CELWEIGHT
370
    -1
  9
$ENDCAPS
280
     0
  9
$JOINSTYLE
280
     0
  9
$LWDISPLAY
290
     0
  9
$INSUNITS
 70
     0
  9
$HYPERLINKBASE
  1

  9
$STYLESHEET
  1

  9
$XEDIT
290
     1
  9
$CEPSNTYPE
380
     0
  9
$PSTYLEMODE
290
     1
  9
$FINGERPRINTGUID
  2
{D7E94770-4CDF-4719-BE4B-D262F9E45A47}
  9
$VERSIONGUID
  2
{64B51029-31C2-4EF7-86B6-1FA6667711A1}
  9
$EXTNAMES
290
     1
  9
$PSVPSCALE
 40
0.0
  9
$OLESTARTUP
290
     0
  9
$SORTENTS
280
   127
  9
$INDEXCTL
280
     0
  9
$HIDETEXT
280
     0
  9
$XCLIPFRAME
290
     0
  9
$HALOGAP
280
     0
  9
$OBSCOLOR
 70
   257
  9
$OBSLTYPE
280
     0
  9
$INTERSECTIONDISPLAY
280
     0
  9
$INTERSECTIONCOLOR
 70
   257
  9
$DIMASSOC
280
     1
  9
$PROJECTNAME
  1

  0
ENDSEC
  0
SECTION
  2
CLASSES
  0
CLASS
  1
ACDBDICTIONARYWDFLT
  2
AcDbDictionaryWithDefault
  3
ObjectDBX Classes
 90
        0
 91
        1
280
     0
281
     0
  0
CLASS
  1
TABLESTYLE
  2
AcDbTableStyle
  3
ObjectDBX Classes
 90
     2047
 91
        1
280
     0
281
     0
  0
CLASS
  1
DICTIONARYVAR
  2
AcDbDictionaryVar
  3
ObjectDBX Classes
 90
        0
 91
        1
280
     0
281
     0
  0
ENDSEC
  0
SECTION
  2
TABLES
  0
TABLE
  2
VPORT
  5
8
330
0
100
AcDbSymbolTable
 70
     2
  0
VPORT
  5
308
330
8
100
AcDbSymbolTableRecord
100
AcDbViewportTableRecord
  2
*Active
 70
     0
 10
0.0
 20
0.0
 11
1.0
 21
1.0
 12
-296.0
 22
209.0
 13
0.0
 23
0.0
 14
1.0
 24
1.0
 15
0.0
 25
0.0
 16
0.0
 26
0.0
 36
1.0
 17
0.0
 27
0.0
 37
0.0
 40
421.3043478260869
 41
1.707124010554089
 42
50.0
 43
0.0
 44
0.0
 50
0.0
 51
0.0
 71
     0
 72
   100
 73
     1
 74
     1
 75
     0
 76
     0
 77
     0
 78
     0
281
     0
 65
     1
110
0.0
120
0.0
130
0.0
111
1.0
121
0.0
131
0.0
112
0.0
122
1.0
132
0.0
 79
     0
146
0.0
  0
ENDTAB
  0
TABLE
  2
LTYPE
  5
5
330
0
100
AcDbSymbolTable
 70
     6
  0
LTYPE
  5
13
330
5
100
AcDbSymbolTableRecord
100
AcDbLinetypeTableRecord
  2
ByBlock
 70
     0
  3

 72
    65
 73
     0
 40
0.0
  0
LTYPE
  5
14
330
5
100
AcDbSymbolTableRecord
100
AcDbLinetypeTableRecord
  2
ByLayer
 70
     0
  3

 72
    65
 73
     0
 40
0.0
  0
LTYPE
  5
15
330
5
100
AcDbSymbolTableRecord
100
AcDbLinetypeTableRecord
  2
CONTINUOUS
 70
     0
  3
Solid line
 72
    65
 73
     0
 40
0.0
  0
LTYPE
  5
26
330
5
100
AcDbSymbolTableRecord
100
AcDbLinetypeTableRecord
  2
DASHED
 70
     0
  3
__ __ __ __ __ __ __ __ __ __ __ __ __ __ __
 72
    65
 73
     2
 40
3.5
 49
2.0
 74
     0
 49
-1.5
 74
     0
  0
LTYPE
  5
27
330
5
100
AcDbSymbolTableRecord
100
AcDbLinetypeTableRecord
  2
CENTER
 70
     0
  3
____ _ ____ _ ____ _ ____ _ ____ _ ____ _ ____
 72
    65
 73
     4
 40
17.5
 49
13.0
 74
     0
 49
-1.5
 74
     0
 49
1.5
 74
     0
 49
-1.5
 74
     0
  0
LTYPE
  5
28
330
5
100
AcDbSymbolTableRecord
100
AcDbLinetypeTableRecord
  2
PHANTOM
 70
     0
  3
_____ _ _ _____ _ _ _____ _ _ _____ _ _ ____  
 72
    65
 73
     6
 40
15.5
 49
8.0
 74
     0
 49
-1.5
 74
     0
 49
1.5
 74
     0
 49
-1.5
 74
     0
 49
1.5
 74
     0
 49
-1.5
 74
     0
  0
LTYPE
  5
29
330
5
100
AcDbSymbolTableRecord
100
AcDbLinetypeTableRecord
  2
DOT
 70
     0
  3
. . . . . . . . . . . . . . . . . . . . . . . .
 72
    65
 73
     2
 40
0.25
 49
0.0
 74
     0
 49
-0.25
 74
     0
  0
LTYPE
  5
2A
330
5
100
AcDbSymbolTableRecord
100
AcDbLinetypeTableRecord
  2
HIDDEN
 70
     0
  3
__ __ __ __ __ __ __ __ __ __ __ __ __ __ __
 72
    65
 73
     2
 40
3.5
 49
2.0
 74
     0
 49
-1.5
 74
     0
  0
ENDTAB
  0
TABLE
  2
LAYER
  5
2
330
0
100
AcDbSymbolTable
 70
     2
  0
LAYER
  5
10
330
2
100
AcDbSymbolTableRecord
100
AcDbLayerTableRecord
  2
0
 70
     0
 62
     7
  6
CONTINUOUS
370
    -3
390
F
  0
LAYER
  5
2B
330
2
100
AcDbSymbolTableRecord
100
AcDbLayerTableRecord
  2
DEFPOINTS
 70
     0
 62
     7
  6
CONTINUOUS
290
     0
370
    -3
390
F
  0
ENDTAB
  0
TABLE
  2
STYLE
  5
3
330
0
100
AcDbSymbolTable
 70
     2
  0
STYLE
  5
11
330
3
100
AcDbSymbolTableRecord
100
AcDbTextStyleTableRecord
  2
STANDARD
 70
     0
 40
0.0
 41
1.0
 50
0.0
 71
     0
 42
0.2
  3

  4

1001
ACAD
1000
MS Gothic
1071
    32817
  0
ENDTAB
  0
TABLE
  2
VIEW
  5
6
330
0
100
AcDbSymbolTable
 70
     0
  0
ENDTAB
  0
TABLE
  2
UCS
  5
7
330
0
100
AcDbSymbolTable
 70
     0
  0
ENDTAB
  0
TABLE
  2
APPID
  5
9
330
0
100
AcDbSymbolTable
 70
     2
  0
APPID
  5
12
330
9
100
AcDbSymbolTableRecord
100
AcDbRegAppTableRecord
  2
ACAD
 70
     0
  0
APPID
  5
2FD
330
9
100
AcDbSymbolTableRecord
100
AcDbRegAppTableRecord
  2
ACAD_PSEXT
 70
     0
  0
ENDTAB
  0
TABLE
  2
DIMSTYLE
  5
A
330
0
100
AcDbSymbolTable
 70
    15
100
AcDbDimStyleTable
 71
     1
340
2C
  0
DIMSTYLE
105
2C
102
{ACAD_REACTORS
330
2EB
102
}
330
A
100
AcDbSymbolTableRecord
100
AcDbDimStyleTableRecord
  2
DIMSTYLE1
 70
     0
 41
1.0
 42
2.54
 44
2.54
 73
     0
 74
     0
 77
     1
140
3.0
145
1.0
147
1.5
172
     1
173
     1
279
     2
340
11
  0
DIMSTYLE
105
2D
102
{ACAD_REACTORS
330
2EC
102
}
330
A
100
AcDbSymbolTableRecord
100
AcDbDimStyleTableRecord
  2
DIMSTYLE2
 70
     0
 41
1.0
 42
2.54
 44
2.54
 73
     0
 74
     0
 77
     1
140
3.0
145
1.0
147
1.5
172
     1
173
     1
279
     2
340
11
  0
DIMSTYLE
105
2E
102
{ACAD_REACTORS
330
2ED
102
}
330
A
100
AcDbSymbolTableRecord
100
AcDbDimStyleTableRecord
  2
DIMSTYLE3
 70
     0
 41
1.0
 42
2.54
 44
2.54
 73
     0
 74
     0
 77
     1
140
3.0
145
1.0
147
1.5
172
     1
173
     1
279
     2
340
11
  0
DIMSTYLE
105
2F
102
{ACAD_REACTORS
330
2EE
102
}
330
A
100
AcDbSymbolTableRecord
100
AcDbDimStyleTableRecord
  2
DIMSTYLE4
 70
     0
 41
1.0
 42
2.54
 44
2.54
 73
     0
 74
     0
 77
     1
140
3.0
145
1.0
147
1.5
172
     1
173
     1
279
     2
340
11
  0
DIMSTYLE
105
30
102
{ACAD_REACTORS
330
2EF
102
}
330
A
100
AcDbSymbolTableRecord
100
AcDbDimStyleTableRecord
  2
DIMSTYLE5
 70
     0
 41
1.0
 42
2.54
 44
2.54
 73
     0
 74
     0
 77
     1
140
3.0
145
1.0
147
1.5
172
     1
173
     1
279
     2
340
11
  0
DIMSTYLE
105
31
102
{ACAD_REACTORS
330
2F0
102
}
330
A
100
AcDbSymbolTableRecord
100
AcDbDimStyleTableRecord
  2
DIMSTYLE6
 70
     0
 41
1.0
 42
2.54
 44
2.54
 73
     0
 74
     0
 77
     1
140
3.0
145
1.0
147
1.5
172
     1
173
     1
279
     2
340
11
  0
DIMSTYLE
105
32
102
{ACAD_REACTORS
330
2F2
102
}
330
A
100
AcDbSymbolTableRecord
100
AcDbDimStyleTableRecord
  2
DIMSTYLE7
 70
     0
 41
1.0
 42
2.54
 44
2.54
 73
     0
 74
     0
 75
     1
 76
     1
 77
     1
140
3.0
145
1.0
147
1.5
172
     1
173
     1
279
     2
340
11
  0
DIMSTYLE
105
33
102
{ACAD_REACTORS
330
2F3
102
}
330
A
100
AcDbSymbolTableRecord
100
AcDbDimStyleTableRecord
  2
DIMSTYLE8
 70
     0
 41
1.0
 42
2.54
 44
2.54
 73
     0
 74
     0
 75
     1
 76
     1
 77
     1
140
3.0
145
1.0
147
1.5
172
     1
173
     1
279
     2
340
11
  0
DIMSTYLE
105
34
102
{ACAD_REACTORS
330
2F4
102
}
330
A
100
AcDbSymbolTableRecord
100
AcDbDimStyleTableRecord
  2
DIMSTYLE9
 70
     0
 41
1.0
 42
2.54
 44
2.54
 73
     0
 74
     0
 75
     1
 76
     1
 77
     1
140
3.0
145
1.0
147
1.5
172
     1
173
     1
279
     2
340
11
  0
DIMSTYLE
105
35
102
{ACAD_REACTORS
330
2F5
102
}
330
A
100
AcDbSymbolTableRecord
100
AcDbDimStyleTableRecord
  2
DIMSTYLE10
 70
     0
 41
1.0
 42
2.54
 44
2.54
 73
     0
 74
     0
 75
     1
 76
     1
 77
     1
140
3.0
145
1.0
147
1.5
172
     1
173
     1
279
     2
340
11
  0
DIMSTYLE
105
36
102
{ACAD_REACTORS
330
2F6
102
}
330
A
100
AcDbSymbolTableRecord
100
AcDbDimStyleTableRecord
  2
DIMSTYLE11
 70
     0
 41
1.0
 42
2.54
 44
2.54
 73
     0
 74
     0
 77
     1
140
3.0
145
1.0
147
1.5
172
     1
173
     1
279
     2
340
11
  0
DIMSTYLE
105
37
102
{ACAD_REACTORS
330
2F7
102
}
330
A
100
AcDbSymbolTableRecord
100
AcDbDimStyleTableRecord
  2
DIMSTYLE12
 70
     0
 41
1.0
 42
2.54
 44
2.54
 73
     0
 74
     0
 77
     1
140
3.0
145
1.0
147
1.5
172
     1
173
     1
279
     2
340
11
  0
DIMSTYLE
105
38
102
{ACAD_REACTORS
330
2F8
102
}
330
A
100
AcDbSymbolTableRecord
100
AcDbDimStyleTableRecord
  2
DIMSTYLE13
 70
     0
 41
1.0
 42
2.54
 44
2.54
 73
     0
 74
     0
 77
     1
140
3.0
145
1.0
147
1.5
172
     1
173
     1
279
     2
340
11
  0
DIMSTYLE
105
39
102
{ACAD_REACTORS
330
2F9
102
}
330
A
100
AcDbSymbolTableRecord
100
AcDbDimStyleTableRecord
  2
DIMSTYLE14
 70
     0
 41
1.0
 42
2.54
 44
2.54
 73
     0
 74
     0
 77
     1
140
3.0
145
1.0
147
1.5
172
     1
173
     1
279
     2
340
11
  0
ENDTAB
  0
TABLE
  2
BLOCK_RECORD
  5
1
330
0
100
AcDbSymbolTable
 70
    18
  0
BLOCK_RECORD
  5
22
330
1
100
AcDbSymbolTableRecord
100
AcDbBlockTableRecord
  2
*Model_Space
340
25
  0
BLOCK_RECORD
  5
1E
330
1
100
AcDbSymbolTableRecord
100
AcDbBlockTableRecord
  2
*Paper_Space
340
21
  0
BLOCK_RECORD
  5
3D
330
1
100
AcDbSymbolTableRecord
100
AcDbBlockTableRecord
  2
_OPEN30
340
0
102
{BLKREFS
331
46
331
47
331
50
331
51
331
5B
331
5C
331
68
331
6A
331
75
331
76
331
80
331
81
331
8C
331
8D
331
96
331
97
331
A0
331
A1
331
AA
331
AB
331
B3
331
B4
331
BF
331
C0
331
CB
331
CC
331
D6
331
D7
102
}
  0
BLOCK_RECORD
  5
43
330
1
100
AcDbSymbolTableRecord
100
AcDbBlockTableRecord
  2
*D1
340
0
  0
BLOCK_RECORD
  5
4D
330
1
100
AcDbSymbolTableRecord
100
AcDbBlockTableRecord
  2
*D2
340
0
  0
BLOCK_RECORD
  5
58
330
1
100
AcDbSymbolTableRecord
100
AcDbBlockTableRecord
  2
*D3
340
0
  0
BLOCK_RECORD
  5
64
330
1
100
AcDbSymbolTableRecord
100
AcDbBlockTableRecord
  2
*D4
340
0
  0
BLOCK_RECORD
  5
72
330
1
100
AcDbSymbolTableRecord
100
AcDbBlockTableRecord
  2
*D5
340
0
  0
BLOCK_RECORD
  5
7D
330
1
100
AcDbSymbolTableRecord
100
AcDbBlockTableRecord
  2
*D6
340
0
  0
BLOCK_RECORD
  5
88
330
1
100
AcDbSymbolTableRecord
100
AcDbBlockTableRecord
  2
*D7
340
0
  0
BLOCK_RECORD
  5
92
330
1
100
AcDbSymbolTableRecord
100
AcDbBlockTableRecord
  2
*D8
340
0
  0
BLOCK_RECORD
  5
9C
330
1
100
AcDbSymbolTableRecord
100
AcDbBlockTableRecord
  2
*D9
340
0
  0
BLOCK_RECORD
  5
A6
330
1
100
AcDbSymbolTableRecord
100
AcDbBlockTableRecord
  2
*D10
340
0
  0
BLOCK_RECORD
  5
B0
330
1
100
AcDbSymbolTableRecord
100
AcDbBlockTableRecord
  2
*D11
340
0
  0
BLOCK_RECORD
  5
BC
330
1
100
AcDbSymbolTableRecord
100
AcDbBlockTableRecord
  2
*D12
340
0
  0
BLOCK_RECORD
  5
C8
330
1
100
AcDbSymbolTableRecord
100
AcDbBlockTableRecord
  2
*D13
340
0
  0
BLOCK_RECORD
  5
D3
330
1
100
AcDbSymbolTableRecord
100
AcDbBlockTableRecord
  2
*D14
340
0
  0
BLOCK_RECORD
  5
DE
330
1
100
AcDbSymbolTableRecord
100
AcDbBlockTableRecord
  2
KOZU0001
340
0
102
{BLKREFS
331
2F1
102
}
  0
BLOCK_RECORD
  5
E7
330
1
100
AcDbSymbolTableRecord
100
AcDbBlockTableRecord
  2
KOZU0002
340
0
102
{BLKREFS
331
2FA
102
}
  0
ENDTAB
  0
ENDSEC
  0
SECTION
  2
BLOCKS
  0
BLOCK
  5
23
330
22
100
AcDbEntity
  8
0
100
AcDbBlockBegin
  2
*Model_Space
 70
     0
 10
0.0
 20
0.0
 30
0.0
  3
*Model_Space
  1

  0
ENDBLK
  5
24
330
22
100
AcDbEntity
  8
0
100
AcDbBlockEnd
  0
BLOCK
  5
1F
330
1E
100
AcDbEntity
 67
     1
  8
0
100
AcDbBlockBegin
  2
*Paper_Space
 70
     0
 10
0.0
 20
0.0
 30
0.0
  3
*Paper_Space
  1

  0
ENDBLK
  5
20
330
1E
100
AcDbEntity
 67
     1
  8
0
100
AcDbBlockEnd
  0
BLOCK
  5
3E
330
3D
100
AcDbEntity
  8
0
100
AcDbBlockBegin
  2
_OPEN30
 70
     0
 10
0.0
 20
0.0
 30
0.0
  3
_OPEN30
  1

  0
LINE
  5
3F
330
3D
100
AcDbEntity
  8
0
  6
ByBlock
 62
     0
100
AcDbLine
 10
0.0
 20
0.0
 30
0.0
 11
-2.999999999999993
 21
-1.000000000000017
 31
0.0
  0
LINE
  5
40
330
3D
100
AcDbEntity
  8
0
  6
ByBlock
 62
     0
100
AcDbLine
 10
0.0
 20
0.0
 30
0.0
 11
-3.000000000000006
 21
0.9999999999999815
 31
0.0
  0
LINE
  5
41
330
3D
100
AcDbEntity
  8
0
  6
ByBlock
 62
     0
100
AcDbLine
 10
0.0
 20
0.0
 30
0.0
 11
-3.0
 21
0.0
 31
0.0
  0
ENDBLK
  5
42
330
3D
100
AcDbEntity
  8
0
100
AcDbBlockEnd
  0
BLOCK
  5
44
330
43
100
AcDbEntity
  8
0
100
AcDbBlockBegin
  2
*D1
 70
     1
 10
0.0
 20
0.0
 30
0.0
  3
*D1
  1

  0
LINE
  5
45
330
43
100
AcDbEntity
  8
0
  6
Continuous
 62
     7
100
AcDbLine
 10
-330.4672546386719
 20
75.52799224853515
 30
0.0
 11
-330.4672546386719
 21
169.5279846191406
 31
0.0
  0
INSERT
  5
46
330
43
100
AcDbEntity
  8
0
  6
Continuous
 62
     7
100
AcDbBlockReference
  2
_OPEN30
 10
-330.4672546386719
 20
72.52799224853515
 30
0.0
 50
270.0000000000005
  0
INSERT
  5
47
330
43
100
AcDbEntity
  8
0
  6
Continuous
 62
     7
100
AcDbBlockReference
  2
_OPEN30
 10
-330.4672546386719
 20
172.5279846191406
 30
0.0
 50
90.00000000000019
  0
TEXT
  5
48
330
43
100
AcDbEntity
  8
0
  6
Continuous
 62
     7
100
AcDbText
 10
-331.2172544607665
 20
118.4579920440902
 30
0.0
 40
3.0
  1
100
 50
90.00000250447815
 41
1.320000017011488
100
AcDbText
  0
POINT
  5
49
330
43
100
AcDbEntity
  8
DEFPOINTS
  6
Continuous
 62
     7
100
AcDbPoint
 10
-337.7656860351563
 20
72.52799224853515
 30
0.0
  0
POINT
  5
4A
330
43
100
AcDbEntity
  8
DEFPOINTS
  6
Continuous
 62
     7
100
AcDbPoint
 10
-337.7656860351563
 20
172.5279846191406
 30
0.0
  0
POINT
  5
4B
330
43
100
AcDbEntity
  8
DEFPOINTS
  6
Continuous
 62
     7
100
AcDbPoint
 10
-330.4672546386719
 20
172.5279846191406
 30
0.0
  0
ENDBLK
  5
4C
330
43
100
AcDbEntity
  8
0
100
AcDbBlockEnd
  0
BLOCK
  5
4E
330
4D
100
AcDbEntity
  8
0
100
AcDbBlockBegin
  2
*D2
 70
     1
 10
0.0
 20
0.0
 30
0.0
  3
*D2
  1

  0
LINE
  5
4F
330
4D
100
AcDbEntity
  8
0
  6
Continuous
 62
     7
100
AcDbLine
 10
-321.4219360351563
 20
75.52799224853515
 30
0.0
 11
-321.4219360351563
 21
119.5279922485352
 31
0.0
  0
INSERT
  5
50
330
4D
100
AcDbEntity
  8
0
  6
Continuous
 62
     7
100
AcDbBlockReference
  2
_OPEN30
 10
-321.4219360351563
 20
72.52799224853515
 30
0.0
 50
270.0000000000005
  0
INSERT
  5
51
330
4D
100
AcDbEntity
  8
0
  6
Continuous
 62
     7
100
AcDbBlockReference
  2
_OPEN30
 10
-321.4219360351563
 20
122.5279922485352
 30
0.0
 50
90.00000000000019
  0
LINE
  5
52
330
4D
100
AcDbEntity
  8
0
  6
Continuous
 62
     7
100
AcDbLine
 10
-312.0712805175782
 20
122.5279922485351
 30
0.0
 11
-323.7079162597656
 21
122.5279922485352
 31
0.0
  0
TEXT
  5
53
330
4D
100
AcDbEntity
  8
0
  6
Continuous
 62
     7
100
AcDbText
 10
-322.171935922818
 20
94.95799210369488
 30
0.0
 40
3.0
  1
50
 50
90.00000250447815
 41
1.101428593908038
100
AcDbText
  0
POINT
  5
54
330
4D
100
AcDbEntity
  8
DEFPOINTS
  6
Continuous
 62
     7
100
AcDbPoint
 10
-321.3697204589844
 20
72.52799224853515
 30
0.0
  0
POINT
  5
55
330
4D
100
AcDbEntity
  8
DEFPOINTS
  6
Continuous
 62
     7
100
AcDbPoint
 10
-309.5312805175781
 20
122.5279922485352
 30
0.0
  0
POINT
  5
56
330
4D
100
AcDbEntity
  8
DEFPOINTS
  6
Continuous
 62
     7
100
AcDbPoint
 10
-321.4219360351563
 20
122.5279922485352
 30
0.0
  0
ENDBLK
  5
57
330
4D
100
AcDbEntity
  8
0
100
AcDbBlockEnd
  0
BLOCK
  5
59
330
58
100
AcDbEntity
  8
0
100
AcDbBlockBegin
  2
*D3
 70
     1
 10
0.0
 20
0.0
 30
0.0
  3
*D3
  1

  0
LINE
  5
5A
330
58
100
AcDbEntity
  8
0
  6
Continuous
 62
     7
100
AcDbLine
 10
-218.5705718994141
 20
65.52799224853515
 30
0.0
 11
-218.570571899414
 21
205.5279846191406
 31
0.0
  0
INSERT
  5
5B
330
58
100
AcDbEntity
  8
0
  6
Continuous
 62
     7
100
AcDbBlockReference
  2
_OPEN30
 10
-218.5705718994141
 20
62.52799224853515
 30
0.0
 50
270.0000000000005
  0
INSERT
  5
5C
330
58
100
AcDbEntity
  8
0
  6
Continuous
 62
     7
100
AcDbBlockReference
  2
_OPEN30
 10
-218.5705718994141
 20
208.5279846191406
 30
0.0
 50
90.00000000000019
  0
LINE
  5
5D
330
58
100
AcDbEntity
  8
0
  6
Continuous
 62
     7
100
AcDbLine
 10
-254.2256860351563
 20
62.52799224853515
 30
0.0
 11
-216.2845764160156
 21
62.52799224853515
 31
0.0
  0
LINE
  5
5E
330
58
100
AcDbEntity
  8
0
  6
Continuous
 62
     7
100
AcDbLine
 10
-293.7256860351562
 20
208.5279846191406
 30
0.0
 11
-216.2845764160156
 21
208.5279846191406
 31
0.0
  0
TEXT
  5
5F
330
58
100
AcDbEntity
  8
0
  6
Continuous
 62
     7
100
AcDbText
 10
-219.3205710658378
 20
116.4579838186493
 30
0.0
 40
3.0
  1
１４６　（１３８～１５５）
 50
90.00000250447815
 41
0.8434321120058422
100
AcDbText
  0
POINT
  5
60
330
58
100
AcDbEntity
  8
DEFPOINTS
  6
Continuous
 62
     7
100
AcDbPoint
 10
-256.7656860351563
 20
62.52799224853515
 30
0.0
  0
POINT
  5
61
330
58
100
AcDbEntity
  8
DEFPOINTS
  6
Continuous
 62
     7
100
AcDbPoint
 10
-296.2656860351563
 20
208.5279846191406
 30
0.0
  0
POINT
  5
62
330
58
100
AcDbEntity
  8
DEFPOINTS
  6
Continuous
 62
     7
100
AcDbPoint
 10
-218.5705718994141
 20
208.5279846191406
 30
0.0
  0
ENDBLK
  5
63
330
58
100
AcDbEntity
  8
0
100
AcDbBlockEnd
  0
BLOCK
  5
65
330
64
100
AcDbEntity
  8
0
100
AcDbBlockBegin
  2
*D4
 70
     1
 10
0.0
 20
0.0
 30
0.0
  3
*D4
  1

  0
LINE
  5
66
330
64
100
AcDbEntity
  8
0
  6
Continuous
 62
     7
100
AcDbLine
 10
-218.5705718994141
 20
59.02799224853516
 30
0.0
 11
-218.5705718994141
 21
45.75223922729492
 31
0.0
  0
LINE
  5
67
330
64
100
AcDbEntity
  8
0
  6
Continuous
 62
     7
100
AcDbLine
 10
-218.5705718994141
 20
62.52799224853515
 30
0.0
 11
-218.5705718994141
 21
59.02799224853516
 31
0.0
  0
INSERT
  5
68
330
64
100
AcDbEntity
  8
0
  6
Continuous
 62
     7
100
AcDbBlockReference
  2
_OPEN30
 10
-218.5705718994141
 20
62.52799224853515
 30
0.0
 50
270.0000000000002
  0
LINE
  5
69
330
64
100
AcDbEntity
  8
0
  6
Continuous
 62
     7
100
AcDbLine
 10
-218.5705718994141
 20
65.52799224853515
 30
0.0
 11
-218.5705718994141
 21
68.87799224853515
 31
0.0
  0
INSERT
  5
6A
330
64
100
AcDbEntity
  8
0
  6
Continuous
 62
     7
100
AcDbBlockReference
  2
_OPEN30
 10
-218.5705718994141
 20
59.02799224853516
 30
0.0
 50
90.00000000000049
  0
LINE
  5
6B
330
64
100
AcDbEntity
  8
0
  6
Continuous
 62
     7
100
AcDbLine
 10
-218.570571899414
 20
56.02799224853516
 30
0.0
 11
-218.570571899414
 21
52.67799224853515
 31
0.0
  0
LINE
  5
6C
330
64
100
AcDbEntity
  8
0
  6
Continuous
 62
     7
100
AcDbLine
 10
-252.7256860351563
 20
59.02799224853516
 30
0.0
 11
-216.2845764160156
 21
59.02799224853516
 31
0.0
  0
TEXT
  5
6D
330
64
100
AcDbEntity
  8
0
  6
Continuous
 62
     7
100
AcDbText
 10
-219.3205717215087
 20
45.75223871767422
 30
0.0
 40
3.0
  1
3.5
 50
90.00000250447815
 41
1.356666684150696
100
AcDbText
  0
POINT
  5
6E
330
64
100
AcDbEntity
  8
DEFPOINTS
  6
Continuous
 62
     7
100
AcDbPoint
 10
-216.2845764160156
 20
62.52799224853515
 30
0.0
  0
POINT
  5
6F
330
64
100
AcDbEntity
  8
DEFPOINTS
  6
Continuous
 62
     7
100
AcDbPoint
 10
-255.2656860351564
 20
59.02799224853516
 30
0.0
  0
POINT
  5
70
330
64
100
AcDbEntity
  8
DEFPOINTS
  6
Continuous
 62
     7
100
AcDbPoint
 10
-218.5705718994141
 20
59.02799224853516
 30
0.0
  0
ENDBLK
  5
71
330
64
100
AcDbEntity
  8
0
100
AcDbBlockEnd
  0
BLOCK
  5
73
330
72
100
AcDbEntity
  8
0
100
AcDbBlockBegin
  2
*D5
 70
     1
 10
0.0
 20
0.0
 30
0.0
  3
*D5
  1

  0
LINE
  5
74
330
72
100
AcDbEntity
  8
0
  6
Continuous
 62
     7
100
AcDbLine
 10
-232.2666625976563
 20
65.52799224853515
 30
0.0
 11
-232.2666625976562
 21
89.52799224853515
 31
0.0
  0
INSERT
  5
75
330
72
100
AcDbEntity
  8
0
  6
Continuous
 62
     7
100
AcDbBlockReference
  2
_OPEN30
 10
-232.2666625976563
 20
62.52799224853515
 30
0.0
 50
270.0000000000005
  0
INSERT
  5
76
330
72
100
AcDbEntity
  8
0
  6
Continuous
 62
     7
100
AcDbBlockReference
  2
_OPEN30
 10
-232.2666625976563
 20
92.52799224853516
 30
0.0
 50
90.00000000000019
  0
LINE
  5
77
330
72
100
AcDbEntity
  8
0
  6
Continuous
 62
     7
100
AcDbLine
 10
-303.2256860351562
 20
92.52799224853516
 30
0.0
 11
-229.9806518554688
 21
92.52799224853516
 31
0.0
  0
TEXT
  5
78
330
72
100
AcDbEntity
  8
0
  6
Continuous
 62
     7
100
AcDbText
 10
-233.016662485318
 20
74.95799210369487
 30
0.0
 40
3.0
  1
30
 50
90.00000250447815
 41
1.101428593908038
100
AcDbText
  0
POINT
  5
79
330
72
100
AcDbEntity
  8
DEFPOINTS
  6
Continuous
 62
     7
100
AcDbPoint
 10
-216.2845764160156
 20
62.52799224853515
 30
0.0
  0
POINT
  5
7A
330
72
100
AcDbEntity
  8
DEFPOINTS
  6
Continuous
 62
     7
100
AcDbPoint
 10
-305.7656860351563
 20
92.52799224853516
 30
0.0
  0
POINT
  5
7B
330
72
100
AcDbEntity
  8
DEFPOINTS
  6
Continuous
 62
     7
100
AcDbPoint
 10
-232.2666625976563
 20
92.52799224853516
 30
0.0
  0
ENDBLK
  5
7C
330
72
100
AcDbEntity
  8
0
100
AcDbBlockEnd
  0
BLOCK
  5
7E
330
7D
100
AcDbEntity
  8
0
100
AcDbBlockBegin
  2
*D6
 70
     1
 10
0.0
 20
0.0
 30
0.0
  3
*D6
  1

  0
LINE
  5
7F
330
7D
100
AcDbEntity
  8
0
  6
Continuous
 62
     7
100
AcDbLine
 10
-232.2666625976562
 20
205.5279846191406
 30
0.0
 11
-232.2666625976563
 21
162.5279846191406
 31
0.0
  0
INSERT
  5
80
330
7D
100
AcDbEntity
  8
0
  6
Continuous
 62
     7
100
AcDbBlockReference
  2
_OPEN30
 10
-232.2666625976563
 20
208.5279846191406
 30
0.0
 50
90.00000000000019
  0
INSERT
  5
81
330
7D
100
AcDbEntity
  8
0
  6
Continuous
 62
     7
100
AcDbBlockReference
  2
_OPEN30
 10
-232.2666625976563
 20
159.5279846191406
 30
0.0
 50
270.0000000000005
  0
LINE
  5
82
330
7D
100
AcDbEntity
  8
0
  6
Continuous
 62
     7
100
AcDbLine
 10
-301.7256860351562
 20
159.5279846191406
 30
0.0
 11
-229.9806518554688
 21
159.5279846191406
 31
0.0
  0
TEXT
  5
83
330
7D
100
AcDbEntity
  8
0
  6
Continuous
 62
     7
100
AcDbText
 10
-233.016662485318
 20
181.4579844743004
 30
0.0
 40
3.0
  1
49
 50
90.00000250447815
 41
1.028000020980834
100
AcDbText
  0
POINT
  5
84
330
7D
100
AcDbEntity
  8
DEFPOINTS
  6
Continuous
 62
     7
100
AcDbPoint
 10
-216.2845764160156
 20
208.5279846191406
 30
0.0
  0
POINT
  5
85
330
7D
100
AcDbEntity
  8
DEFPOINTS
  6
Continuous
 62
     7
100
AcDbPoint
 10
-304.2656860351563
 20
159.5279846191406
 30
0.0
  0
POINT
  5
86
330
7D
100
AcDbEntity
  8
DEFPOINTS
  6
Continuous
 62
     7
100
AcDbPoint
 10
-232.2666625976563
 20
159.5279846191406
 30
0.0
  0
ENDBLK
  5
87
330
7D
100
AcDbEntity
  8
0
100
AcDbBlockEnd
  0
BLOCK
  5
89
330
88
100
AcDbEntity
  8
0
100
AcDbBlockBegin
  2
*D7
 70
     1
 10
0.0
 20
0.0
 30
0.0
  3
*D7
  1

  0
LINE
  5
8A
330
88
100
AcDbEntity
  8
0
  6
Continuous
 62
     7
100
AcDbLine
 10
-298.8303527832031
 20
330.5408935546875
 30
0.0
 11
-230.4398345947266
 21
359.3789978027344
 31
0.0
  0
LINE
  5
8B
330
88
100
AcDbEntity
  8
0
  6
Continuous
 62
     7
100
AcDbLine
 10
-374.3878027911151
 20
298.6806927307226
 30
0.0
 11
-301.5946496014631
 21
329.3752765075586
 31
0.0
  0
INSERT
  5
8C
330
88
100
AcDbEntity
  8
0
  6
Continuous
 62
     7
100
AcDbBlockReference
  2
_OPEN30
 10
-377.152099609375
 20
297.5150756835938
 30
0.0
 50
202.8636231938598
  0
INSERT
  5
8D
330
88
100
AcDbEntity
  8
0
  6
Continuous
 62
     7
100
AcDbBlockReference
  2
_OPEN30
 10
-298.8303527832031
 20
330.5408935546875
 30
0.0
 50
22.86362319385913
  0
TEXT
  5
8E
330
88
100
AcDbEntity
  8
0
  6
Continuous
 62
     7
100
AcDbText
 10
-254.8146926021226
 20
349.9058504993076
 30
0.0
 40
3.0
  1
%%C８５（本体外径）
 50
22.90000040957758
 41
0.8448610247221777
100
AcDbText
  0
POINT
  5
8F
330
88
100
AcDbEntity
  8
DEFPOINTS
  6
Continuous
 62
     7
100
AcDbPoint
 10
-377.152099609375
 20
297.5150756835938
 30
0.0
  0
POINT
  5
90
330
88
100
AcDbEntity
  8
DEFPOINTS
  6
Continuous
 62
     7
100
AcDbPoint
 10
-298.8303527832031
 20
330.5408935546875
 30
0.0
  0
ENDBLK
  5
91
330
88
100
AcDbEntity
  8
0
100
AcDbBlockEnd
  0
BLOCK
  5
93
330
92
100
AcDbEntity
  8
0
100
AcDbBlockBegin
  2
*D8
 70
     1
 10
0.0
 20
0.0
 30
0.0
  3
*D8
  1

  0
LINE
  5
94
330
92
100
AcDbEntity
  8
0
  6
Continuous
 62
     7
100
AcDbLine
 10
-305.7730407714844
 20
318.2987670898438
 30
0.0
 11
-217.1139678955078
 21
330.0511779785156
 31
0.0
  0
LINE
  5
95
330
92
100
AcDbEntity
  8
0
  6
Continuous
 62
     7
100
AcDbLine
 10
-367.2353960826517
 20
310.1514573426618
 30
0.0
 11
-308.7470257923483
 21
317.9045424131975
 31
0.0
  0
INSERT
  5
96
330
92
100
AcDbEntity
  8
0
  6
Continuous
 62
     7
100
AcDbBlockReference
  2
_OPEN30
 10
-370.2093811035156
 20
309.7572326660156
 30
0.0
 50
187.5509758592135
  0
INSERT
  5
97
330
92
100
AcDbEntity
  8
0
  6
Continuous
 62
     7
100
AcDbBlockReference
  2
_OPEN30
 10
-305.7730407714844
 20
318.2987670898438
 30
0.0
 50
7.550975859212919
  0
TEXT
  5
98
330
92
100
AcDbEntity
  8
0
  6
Continuous
 62
     7
100
AcDbText
 10
-249.0726433628275
 20
326.5575044597486
 30
0.0
 40
3.0
  1
%%C６５（排水共栓外径）
 50
7.600000154571024
 41
0.8440126077968535
100
AcDbText
  0
POINT
  5
99
330
92
100
AcDbEntity
  8
DEFPOINTS
  6
Continuous
 62
     7
100
AcDbPoint
 10
-370.2093811035156
 20
309.7572326660156
 30
0.0
  0
POINT
  5
9A
330
92
100
AcDbEntity
  8
DEFPOINTS
  6
Continuous
 62
     7
100
AcDbPoint
 10
-305.7730407714844
 20
318.2987670898438
 30
0.0
  0
ENDBLK
  5
9B
330
92
100
AcDbEntity
  8
0
100
AcDbBlockEnd
  0
BLOCK
  5
9D
330
9C
100
AcDbEntity
  8
0
100
AcDbBlockBegin
  2
*D9
 70
     1
 10
0.0
 20
0.0
 30
0.0
  3
*D9
  1

  0
LINE
  5
9E
330
9C
100
AcDbEntity
  8
0
  6
Continuous
 62
     7
100
AcDbLine
 10
-319.2006225585938
 20
307.1786499023438
 30
0.0
 11
-227.6083068847656
 21
273.7923583984375
 31
0.0
  0
LINE
  5
9F
330
9C
100
AcDbEntity
  8
0
  6
Continuous
 62
     7
100
AcDbLine
 10
-353.9632103785764
 20
319.8499471089489
 30
0.0
 11
-322.0192114964236
 21
308.2060526469105
 31
0.0
  0
INSERT
  5
A0
330
9C
100
AcDbEntity
  8
0
  6
Continuous
 62
     7
100
AcDbBlockReference
  2
_OPEN30
 10
-356.7817993164063
 20
320.8773498535156
 30
0.0
 50
159.972716032344
  0
INSERT
  5
A1
330
9C
100
AcDbEntity
  8
0
  6
Continuous
 62
     7
100
AcDbBlockReference
  2
_OPEN30
 10
-319.2006225585938
 20
307.1786499023438
 30
0.0
 50
339.9727160323448
  0
TEXT
  5
A2
330
9C
100
AcDbEntity
  8
0
  6
Continuous
 62
     7
100
AcDbText
 10
-251.9132227080105
 20
283.4433748973814
 30
0.0
 40
3.0
  1
%%C４０（子栓外径）
 50
340.0000005818142
 41
0.8448610247221777
100
AcDbText
  0
POINT
  5
A3
330
9C
100
AcDbEntity
  8
DEFPOINTS
  6
Continuous
 62
     7
100
AcDbPoint
 10
-356.7817993164063
 20
320.8773498535156
 30
0.0
  0
POINT
  5
A4
330
9C
100
AcDbEntity
  8
DEFPOINTS
  6
Continuous
 62
     7
100
AcDbPoint
 10
-319.2006225585938
 20
307.1786499023438
 30
0.0
  0
ENDBLK
  5
A5
330
9C
100
AcDbEntity
  8
0
100
AcDbBlockEnd
  0
BLOCK
  5
A7
330
A6
100
AcDbEntity
  8
0
100
AcDbBlockBegin
  2
*D10
 70
     1
 10
0.0
 20
0.0
 30
0.0
  3
*D10
  1

  0
LINE
  5
A8
330
A6
100
AcDbEntity
  8
0
  6
Continuous
 62
     7
100
AcDbLine
 10
-271.95166015625
 20
364.599853515625
 30
0.0
 11
-243.3444519042969
 21
386.581787109375
 31
0.0
  0
LINE
  5
A9
330
A6
100
AcDbEntity
  8
0
  6
Continuous
 62
     7
100
AcDbLine
 10
-401.2008916888081
 20
265.2840146082406
 30
0.0
 11
-274.3304803815044
 21
362.7719546300406
 31
0.0
  0
INSERT
  5
AA
330
A6
100
AcDbEntity
  8
0
  6
Continuous
 62
     7
100
AcDbBlockReference
  2
_OPEN30
 10
-403.5797119140625
 20
263.4561157226563
 30
0.0
 50
217.5388787591447
  0
INSERT
  5
AB
330
A6
100
AcDbEntity
  8
0
  6
Continuous
 62
     7
100
AcDbBlockReference
  2
_OPEN30
 10
-271.95166015625
 20
364.599853515625
 30
0.0
 50
37.53887875914404
  0
TEXT
  5
AC
330
A6
100
AcDbEntity
  8
0
  6
Continuous
 62
     7
100
AcDbText
 10
-269.292765486439
 20
367.6025628375934
 30
0.0
 40
3.0
  1
%%C１６６（防水皿外径）
 50
37.49999933598528
 41
0.8440126077968535
100
AcDbText
  0
POINT
  5
AD
330
A6
100
AcDbEntity
  8
DEFPOINTS
  6
Continuous
 62
     7
100
AcDbPoint
 10
-403.5797119140625
 20
263.4561157226563
 30
0.0
  0
POINT
  5
AE
330
A6
100
AcDbEntity
  8
DEFPOINTS
  6
Continuous
 62
     7
100
AcDbPoint
 10
-271.95166015625
 20
364.599853515625
 30
0.0
  0
ENDBLK
  5
AF
330
A6
100
AcDbEntity
  8
0
100
AcDbBlockEnd
  0
BLOCK
  5
B1
330
B0
100
AcDbEntity
  8
0
100
AcDbBlockBegin
  2
*D11
 70
     1
 10
0.0
 20
0.0
 30
0.0
  3
*D11
  1

  0
LINE
  5
B2
330
B0
100
AcDbEntity
  8
0
  6
Continuous
 62
     7
100
AcDbLine
 10
-431.3561096191405
 20
89.52799224853515
 30
0.0
 11
-431.3561096191405
 21
33.52799034118652
 31
0.0
  0
INSERT
  5
B3
330
B0
100
AcDbEntity
  8
0
  6
Continuous
 62
     7
100
AcDbBlockReference
  2
_OPEN30
 10
-431.3561096191405
 20
92.52799224853516
 30
0.0
 50
90.00000000000019
  0
INSERT
  5
B4
330
B0
100
AcDbEntity
  8
0
  6
Continuous
 62
     7
100
AcDbBlockReference
  2
_OPEN30
 10
-431.3561096191405
 20
30.52799034118652
 30
0.0
 50
270.0000000000005
  0
LINE
  5
B5
330
B0
100
AcDbEntity
  8
0
  6
Continuous
 62
     7
100
AcDbLine
 10
-372.3056860351563
 20
92.52799224853514
 30
0.0
 11
-433.6420898437499
 21
92.52799224853516
 31
0.0
  0
LINE
  5
B6
330
B0
100
AcDbEntity
  8
0
  6
Continuous
 62
     7
100
AcDbLine
 10
-373.3056860351563
 20
30.52799034118651
 30
0.0
 11
-433.6420898437499
 21
30.52799034118652
 31
0.0
  0
TEXT
  5
B7
330
B0
100
AcDbEntity
  8
0
  6
Continuous
 62
     7
100
AcDbText
 10
-432.1061095068023
 20
58.95799210369489
 30
0.0
 40
3.0
  1
62
 50
90.00000250447815
 41
1.028000020980834
100
AcDbText
  0
POINT
  5
B8
330
B0
100
AcDbEntity
  8
DEFPOINTS
  6
Continuous
 62
     7
100
AcDbPoint
 10
-369.7656860351563
 20
92.52799224853516
 30
0.0
  0
POINT
  5
B9
330
B0
100
AcDbEntity
  8
DEFPOINTS
  6
Continuous
 62
     7
100
AcDbPoint
 10
-370.7656860351563
 20
30.52799034118652
 30
0.0
  0
POINT
  5
BA
330
B0
100
AcDbEntity
  8
DEFPOINTS
  6
Continuous
 62
     7
100
AcDbPoint
 10
-431.3561096191405
 20
30.52799034118652
 30
0.0
  0
ENDBLK
  5
BB
330
B0
100
AcDbEntity
  8
0
100
AcDbBlockEnd
  0
BLOCK
  5
BD
330
BC
100
AcDbEntity
  8
0
100
AcDbBlockBegin
  2
*D12
 70
     1
 10
0.0
 20
0.0
 30
0.0
  3
*D12
  1

  0
LINE
  5
BE
330
BC
100
AcDbEntity
  8
0
  6
Continuous
 62
     7
100
AcDbLine
 10
-368.7656860351563
 20
17.46335792541504
 30
0.0
 11
-306.7656860351563
 21
17.46335792541502
 31
0.0
  0
INSERT
  5
BF
330
BC
100
AcDbEntity
  8
0
  6
Continuous
 62
     7
100
AcDbBlockReference
  2
_OPEN30
 10
-371.7656860351563
 20
17.46335792541504
 30
0.0
 50
180.0000000000004
  0
INSERT
  5
C0
330
BC
100
AcDbEntity
  8
0
  6
Continuous
 62
     7
100
AcDbBlockReference
  2
_OPEN30
 10
-303.7656860351563
 20
17.46335792541504
 30
0.0
  0
LINE
  5
C1
330
BC
100
AcDbEntity
  8
0
  6
Continuous
 62
     7
100
AcDbLine
 10
-371.7656860351563
 20
28.98799034118652
 30
0.0
 11
-371.7656860351563
 21
15.17735767364502
 31
0.0
  0
LINE
  5
C2
330
BC
100
AcDbEntity
  8
0
  6
Continuous
 62
     7
100
AcDbLine
 10
-303.7656860351563
 20
28.98799034118652
 30
0.0
 11
-303.7656860351563
 21
15.17735767364502
 31
0.0
  0
TEXT
  5
C3
330
BC
100
AcDbEntity
  8
0
  6
Continuous
 62
     7
100
AcDbText
 10
-341.8356862068176
 20
18.21335792541504
 30
0.0
 40
3.0
  1
%%C68
 41
0.9498249830693319
100
AcDbText
  0
POINT
  5
C4
330
BC
100
AcDbEntity
  8
DEFPOINTS
  6
Continuous
 62
     7
100
AcDbPoint
 10
-371.7656860351563
 20
31.52799034118652
 30
0.0
  0
POINT
  5
C5
330
BC
100
AcDbEntity
  8
DEFPOINTS
  6
Continuous
 62
     7
100
AcDbPoint
 10
-303.7656860351563
 20
31.52799034118652
 30
0.0
  0
POINT
  5
C6
330
BC
100
AcDbEntity
  8
DEFPOINTS
  6
Continuous
 62
     7
100
AcDbPoint
 10
-303.7656860351563
 20
17.46335792541504
 30
0.0
  0
ENDBLK
  5
C7
330
BC
100
AcDbEntity
  8
0
100
AcDbBlockEnd
  0
BLOCK
  5
C9
330
C8
100
AcDbEntity
  8
0
100
AcDbBlockBegin
  2
*D13
 70
     1
 10
0.0
 20
0.0
 30
0.0
  3
*D13
  1

  0
LINE
  5
CA
330
C8
100
AcDbEntity
  8
0
  6
Continuous
 62
     7
100
AcDbLine
 10
-374.7656860351563
 20
34.25677108764646
 30
0.0
 11
-383.7656860351563
 21
34.25677108764648
 31
0.0
  0
INSERT
  5
CB
330
C8
100
AcDbEntity
  8
0
  6
Continuous
 62
     7
100
AcDbBlockReference
  2
_OPEN30
 10
-371.7656860351563
 20
34.25677108764648
 30
0.0
  0
INSERT
  5
CC
330
C8
100
AcDbEntity
  8
0
  6
Continuous
 62
     7
100
AcDbBlockReference
  2
_OPEN30
 10
-386.7656860351563
 20
34.25677108764648
 30
0.0
 50
180.0000000000004
  0
LINE
  5
CD
330
C8
100
AcDbEntity
  8
0
  6
Continuous
 62
     7
100
AcDbLine
 10
-386.7656860351563
 20
54.96067520141602
 30
0.0
 11
-386.7656860351563
 21
31.97076988220215
 31
0.0
  0
TEXT
  5
CE
330
C8
100
AcDbEntity
  8
0
  6
Continuous
 62
     7
100
AcDbText
 10
-381.835686147213
 20
35.00677108764648
 30
0.0
 40
3.0
  1
15
 41
1.285000026226043
100
AcDbText
  0
POINT
  5
CF
330
C8
100
AcDbEntity
  8
DEFPOINTS
  6
Continuous
 62
     7
100
AcDbPoint
 10
-371.7656860351563
 20
31.52799034118652
 30
0.0
  0
POINT
  5
D0
330
C8
100
AcDbEntity
  8
DEFPOINTS
  6
Continuous
 62
     7
100
AcDbPoint
 10
-386.7656860351563
 20
57.50067520141602
 30
0.0
  0
POINT
  5
D1
330
C8
100
AcDbEntity
  8
DEFPOINTS
  6
Continuous
 62
     7
100
AcDbPoint
 10
-386.7656860351563
 20
34.25677108764648
 30
0.0
  0
ENDBLK
  5
D2
330
C8
100
AcDbEntity
  8
0
100
AcDbBlockEnd
  0
BLOCK
  5
D4
330
D3
100
AcDbEntity
  8
0
100
AcDbBlockBegin
  2
*D14
 70
     1
 10
0.0
 20
0.0
 30
0.0
  3
*D14
  1

  0
LINE
  5
D5
330
D3
100
AcDbEntity
  8
0
  6
Continuous
 62
     7
100
AcDbLine
 10
-395.1519470214844
 20
56.02799224853516
 30
0.0
 11
-395.1519470214844
 21
46.02799224853515
 31
0.0
  0
INSERT
  5
D6
330
D3
100
AcDbEntity
  8
0
  6
Continuous
 62
     7
100
AcDbBlockReference
  2
_OPEN30
 10
-395.1519470214844
 20
59.02799224853516
 30
0.0
 50
90.00000000000019
  0
INSERT
  5
D7
330
D3
100
AcDbEntity
  8
0
  6
Continuous
 62
     7
100
AcDbBlockReference
  2
_OPEN30
 10
-395.1519470214844
 20
43.02799224853515
 30
0.0
 50
270.0000000000005
  0
LINE
  5
D8
330
D3
100
AcDbEntity
  8
0
  6
Continuous
 62
     7
100
AcDbLine
 10
-376.4405432128907
 20
43.02799224853513
 30
0.0
 11
-397.4379577636719
 21
43.02799224853515
 31
0.0
  0
TEXT
  5
D9
330
D3
100
AcDbEntity
  8
0
  6
Continuous
 62
     7
100
AcDbText
 10
-395.9019469091461
 20
48.45799210369488
 30
0.0
 40
3.0
  1
16
 50
90.00000250447815
 41
1.285000026226043
100
AcDbText
  0
POINT
  5
DA
330
D3
100
AcDbEntity
  8
DEFPOINTS
  6
Continuous
 62
     7
100
AcDbPoint
 10
-376.7656860351563
 20
59.02799224853516
 30
0.0
  0
POINT
  5
DB
330
D3
100
AcDbEntity
  8
DEFPOINTS
  6
Continuous
 62
     7
100
AcDbPoint
 10
-373.9005432128906
 20
43.02799224853515
 30
0.0
  0
POINT
  5
DC
330
D3
100
AcDbEntity
  8
DEFPOINTS
  6
Continuous
 62
     7
100
AcDbPoint
 10
-395.1519470214844
 20
43.02799224853515
 30
0.0
  0
ENDBLK
  5
DD
330
D3
100
AcDbEntity
  8
0
100
AcDbBlockEnd
  0
BLOCK
  5
DF
330
DE
100
AcDbEntity
  8
0
100
AcDbBlockBegin
  2
KOZU0001
 70
     0
 10
0.0
 20
0.0
 30
0.0
  3
KOZU0001
  1

  0
LINE
  5
E0
330
DE
100
AcDbEntity
  8
0
  6
Continuous
 62
     7
100
AcDbLine
 10
0.0
 20
0.0
 30
0.0
 11
10.79522705078125
 21
-8.688579559326173
 31
0.0
  0
LINE
  5
E1
330
DE
100
AcDbEntity
  8
0
  6
Continuous
 62
     7
100
AcDbLine
 10
10.79522705078125
 20
-8.688579559326173
 30
0.0
 11
40.12615966796874
 21
-8.688579559326173
 31
0.0
  0
LINE
  5
E2
330
DE
100
AcDbEntity
  8
0
  6
Continuous
 62
     7
100
AcDbLine
 10
0.0
 20
0.0
 30
0.0
 11
2.964060674873706
 21
-1.101972919661472
 31
0.0
  0
LINE
  5
E3
330
DE
100
AcDbEntity
  8
0
  6
Continuous
 62
     7
100
AcDbLine
 10
0.0
 20
0.0
 30
0.0
 11
1.710064788102081
 21
-2.660014740653402
 31
0.0
  0
TEXT
  5
E4
330
DE
100
AcDbEntity
  8
0
  6
Continuous
 62
     7
100
AcDbText
 10
15.26615834236145
 20
-7.938579559326172
 30
0.0
 40
3.0
  1
配管接続口
 41
0.8487395020950888
100
AcDbText
  0
TEXT
  5
E5
330
DE
100
AcDbEntity
  8
0
  6
Continuous
 62
     7
100
AcDbText
 10
15.26615834236145
 20
-13.20357955932617
 30
0.0
 40
3.0
  1
Ｒｃ２（５０Ａ）
 41
0.8454512278006642
100
AcDbText
  0
ENDBLK
  5
E6
330
DE
100
AcDbEntity
  8
0
100
AcDbBlockEnd
  0
BLOCK
  5
E8
330
E7
100
AcDbEntity
  8
0
100
AcDbBlockBegin
  2
KOZU0002
 70
     0
 10
0.0
 20
0.0
 30
0.0
  3
KOZU0002
  1

  0
LINE
  5
E9
330
E7
100
AcDbEntity
  8
0
  6
Continuous
 62
     7
100
AcDbLine
 10
0.0
 20
0.0
 30
0.0
 11
-14.85049438476563
 21
-33.55978965759277
 31
0.0
  0
LINE
  5
EA
330
E7
100
AcDbEntity
  8
0
  6
Continuous
 62
     7
100
AcDbLine
 10
-14.85049438476563
 20
-33.55978965759277
 30
0.0
 11
-43.25994873046875
 21
-33.55978965759277
 31
0.0
  0
LINE
  5
EB
330
E7
100
AcDbEntity
  8
0
  6
Continuous
 62
     7
100
AcDbLine
 10
0.0
 20
0.0
 30
0.0
 11
-0.2995115629168033
 21
-3.1480617566495
 31
0.0
  0
LINE
  5
EC
330
E7
100
AcDbEntity
  8
0
  6
Continuous
 62
     7
100
AcDbLine
 10
0.0
 20
0.0
 30
0.0
 11
-2.128446304323142
 21
-2.338742467569518
 31
0.0
  0
TEXT
  5
ED
330
E7
100
AcDbEntity
  8
0
  6
Continuous
 62
     7
100
AcDbText
 10
-41.53994834423064
 20
-32.80978965759277
 30
0.0
 40
3.0
  1
共廻り防止用羽根
 41
0.8454512278006642
100
AcDbText
  0
TEXT
  5
EE
330
E7
100
AcDbEntity
  8
0
  6
Continuous
 62
     7
100
AcDbText
 10
-41.53994834423064
 20
-38.07478965759278
 30
0.0
 40
3.0
  1
３ヶ所
 41
0.8550420278260688
100
AcDbText
  0
ENDBLK
  5
EF
330
E7
100
AcDbEntity
  8
0
100
AcDbBlockEnd
  0
ENDSEC
  0
SECTION
  2
ENTITIES
  0
LINE
  5
F0
330
22
100
AcDbEntity
  8
0
  6
CENTER
 62
     7
100
AcDbLine
 10
-250.5111236572266
 20
314.0279846191406
 30
0.0
 11
-425.2767028808594
 21
314.0279846191406
 31
0.0
  0
LINE
  5
F1
330
22
100
AcDbEntity
  8
0
  6
CENTER
 62
     7
100
AcDbLine
 10
-337.7656860351563
 20
31.84702301025391
 30
0.0
 11
-337.7656860351563
 21
215.2015533447266
 31
0.0
  0
LINE
  5
F2
330
22
100
AcDbEntity
  8
0
  6
CENTER
 62
     7
100
AcDbLine
 10
-337.7656860351563
 20
228.4898986816406
 30
0.0
 11
-337.7656860351563
 21
399.7426147460938
 31
0.0
  0
LINE
  5
F3
330
22
100
AcDbEntity
  8
0
  6
Continuous
 62
     7
100
AcDbLine
 10
-330.315673828125
 20
311.5780029296875
 30
0.0
 11
-330.315673828125
 21
316.4779968261719
 31
0.0
  0
LINE
  5
F4
330
22
100
AcDbEntity
  8
0
  6
Continuous
 62
     7
100
AcDbLine
 10
-341.4805297851563
 20
316.4779968261719
 30
0.0
 11
-345.2156677246094
 21
316.4779968261719
 31
0.0
  0
LINE
  5
F5
330
22
100
AcDbEntity
  8
0
  6
Continuous
 62
     7
100
AcDbLine
 10
-341.4805297851563
 20
311.5780029296875
 30
0.0
 11
-345.2156677246094
 21
311.5780029296875
 31
0.0
  0
LINE
  5
F6
330
22
100
AcDbEntity
  8
0
  6
Continuous
 62
     7
100
AcDbLine
 10
-345.2156677246094
 20
311.5780029296875
 30
0.0
 11
-345.2156677246094
 21
316.4779968261719
 31
0.0
  0
LINE
  5
F7
330
22
100
AcDbEntity
  8
0
  6
Continuous
 62
     7
100
AcDbLine
 10
-334.0508422851563
 20
311.5780029296875
 30
0.0
 11
-330.315673828125
 21
311.5780029296875
 31
0.0
  0
LINE
  5
F8
330
22
100
AcDbEntity
  8
0
  6
Continuous
 62
     7
100
AcDbLine
 10
-334.0508422851563
 20
316.4779968261719
 30
0.0
 11
-330.315673828125
 21
316.4779968261719
 31
0.0
  0
LINE
  5
F9
330
22
100
AcDbEntity
  8
0
  6
Continuous
 62
     7
100
AcDbLine
 10
-321.6856689453125
 20
189.5279846191406
 30
0.0
 11
-321.6856689453125
 21
192.5279846191406
 31
0.0
  0
LINE
  5
FA
330
22
100
AcDbEntity
  8
0
  6
Continuous
 62
     7
100
AcDbLine
 10
-323.7652893066406
 20
195.0279846191406
 30
0.0
 11
-323.7652893066406
 21
195.1774597167969
 31
0.0
  0
LINE
  5
FB
330
22
100
AcDbEntity
  8
0
  6
Continuous
 62
     7
100
AcDbLine
 10
-329.7656860351563
 20
204.5279846191406
 30
0.0
 11
-329.7656860351563
 21
198.5279846191406
 31
0.0
  0
LINE
  5
FC
330
22
100
AcDbEntity
  8
0
  6
Continuous
 62
     7
100
AcDbLine
 10
-329.7684936523438
 20
205.6662902832031
 30
0.0
 11
-329.7684936523438
 21
204.5170593261719
 31
0.0
  0
LINE
  5
FD
330
22
100
AcDbEntity
  8
0
  6
Continuous
 62
     7
100
AcDbLine
 10
-319.76708984375
 20
198.5274505615234
 30
0.0
 11
-321.7652893066406
 21
198.5274505615234
 31
0.0
  0
LINE
  5
FE
330
22
100
AcDbEntity
  8
0
  6
Continuous
 62
     7
100
AcDbLine
 10
-314.1278991699219
 20
203.1429901123047
 30
0.0
 11
-314.3662109375
 21
203.1429901123047
 31
0.0
  0
LINE
  5
FF
330
22
100
AcDbEntity
  8
0
  6
Continuous
 62
     7
100
AcDbLine
 10
-317.8551330566406
 20
207.1404724121094
 30
0.0
 11
-319.76708984375
 21
198.8589477539063
 31
0.0
  0
LINE
  5
100
330
22
100
AcDbEntity
  8
0
  6
Continuous
 62
     7
100
AcDbLine
 10
-317.9070739746094
 20
206.9155120849609
 30
0.0
 11
-319.76708984375
 21
198.8589477539063
 31
0.0
  0
LINE
  5
101
330
22
100
AcDbEntity
  8
0
  6
Continuous
 62
     7
100
AcDbLine
 10
-319.76708984375
 20
198.5274505615234
 30
0.0
 11
-319.76708984375
 21
198.8589477539063
 31
0.0
  0
LINE
  5
102
330
22
100
AcDbEntity
  8
0
  6
Continuous
 62
     7
100
AcDbLine
 10
-318.4200744628906
 20
207.5245513916016
 30
0.0
 11
-318.4166564941406
 21
207.5279846191406
 31
0.0
  0
LINE
  5
103
330
22
100
AcDbEntity
  8
0
  6
Continuous
 62
     7
100
AcDbLine
 10
-295.7656860351563
 20
204.5279846191406
 30
0.0
 11
-298.5870971679688
 21
204.5279846191406
 31
0.0
  0
LINE
  5
104
330
22
100
AcDbEntity
  8
0
  6
Continuous
 62
     7
100
AcDbLine
 10
-295.2656860351563
 20
207.5279846191406
 30
0.0
 11
-295.2656860351563
 21
205.0279846191406
 31
0.0
  0
LINE
  5
105
330
22
100
AcDbEntity
  8
0
  6
Continuous
 62
     7
100
AcDbLine
 10
-307.7656860351563
 20
192.52978515625
 30
0.0
 11
-307.7656860351563
 21
193.3497924804688
 31
0.0
  0
LINE
  5
106
330
22
100
AcDbEntity
  8
0
  6
Continuous
 62
     7
100
AcDbLine
 10
-321.6856689453125
 20
189.5845642089844
 30
0.0
 11
-321.6291198730469
 21
189.5279846191406
 31
0.0
  0
LINE
  5
107
330
22
100
AcDbEntity
  8
0
  6
Continuous
 62
     7
100
AcDbLine
 10
-320.3652648925781
 20
193.5279846191406
 30
0.0
 11
-322.2652893066406
 21
193.5279846191406
 31
0.0
  0
LINE
  5
108
330
22
100
AcDbEntity
  8
0
  6
Continuous
 62
     7
100
AcDbLine
 10
-315.8609008789063
 20
201.7690277099609
 30
0.0
 11
-316.7386779785156
 21
191.3599395751953
 31
0.0
  0
LINE
  5
109
330
22
100
AcDbEntity
  8
0
  6
Continuous
 62
     7
100
AcDbLine
 10
-321.7652893066406
 20
196.0279846191406
 30
0.0
 11
-319.8652648925781
 21
196.0279846191406
 31
0.0
  0
LINE
  5
10A
330
22
100
AcDbEntity
  8
0
  6
Continuous
 62
     7
100
AcDbLine
 10
-307.5156860351563
 20
124.543586730957
 30
0.0
 11
-307.4949951171875
 21
152.2874908447266
 31
0.0
  0
LINE
  5
10B
330
22
100
AcDbEntity
  8
0
  6
Continuous
 62
     7
100
AcDbLine
 10
-311.0156860351563
 20
170.0254364013671
 30
0.0
 11
-309.8704223632813
 21
171.1707000732422
 31
0.0
  0
LINE
  5
10C
330
22
100
AcDbEntity
  8
0
  6
Continuous
 62
     7
100
AcDbLine
 10
-311.0156860351563
 20
166.4898986816406
 30
0.0
 11
-309.7632751464844
 21
167.7423095703125
 31
0.0
  0
LINE
  5
10D
330
22
100
AcDbEntity
  8
0
  6
Continuous
 62
     7
100
AcDbLine
 10
-311.0156860351563
 20
162.9543609619141
 30
0.0
 11
-309.6561279296875
 21
164.3139190673828
 31
0.0
  0
LINE
  5
10E
330
22
100
AcDbEntity
  8
0
  6
Continuous
 62
     7
100
AcDbLine
 10
-311.0156860351563
 20
159.4188385009766
 30
0.0
 11
-309.5489807128906
 21
160.8855285644531
 31
0.0
  0
LINE
  5
10F
330
22
100
AcDbEntity
  8
0
  6
Continuous
 62
     7
100
AcDbLine
 10
-311.0156860351563
 20
155.88330078125
 30
0.0
 11
-309.4418334960938
 21
157.4571380615234
 31
0.0
  0
LINE
  5
110
330
22
100
AcDbEntity
  8
0
  6
Continuous
 62
     7
100
AcDbLine
 10
-311.0156860351563
 20
152.3477630615234
 30
0.0
 11
-309.2854919433594
 21
154.0779724121094
 31
0.0
  0
LINE
  5
111
330
22
100
AcDbEntity
  8
0
  6
Continuous
 62
     7
100
AcDbLine
 10
-311.0156860351563
 20
148.8122253417969
 30
0.0
 11
-307.5177001953125
 21
152.3101959228516
 31
0.0
  0
LINE
  5
112
330
22
100
AcDbEntity
  8
0
  6
Continuous
 62
     7
100
AcDbLine
 10
-311.0156860351563
 20
145.2767028808594
 30
0.0
 11
-307.4975891113281
 21
148.7947692871094
 31
0.0
  0
LINE
  5
113
330
22
100
AcDbEntity
  8
0
  6
Continuous
 62
     7
100
AcDbLine
 10
-311.0156860351563
 20
141.7411651611328
 30
0.0
 11
-307.500244140625
 21
145.2566070556641
 31
0.0
  0
LINE
  5
114
330
22
100
AcDbEntity
  8
0
  6
Continuous
 62
     7
100
AcDbLine
 10
-311.0156860351563
 20
138.2056274414062
 30
0.0
 11
-307.5028686523438
 21
141.7184295654297
 31
0.0
  0
LINE
  5
115
330
22
100
AcDbEntity
  8
0
  6
Continuous
 62
     7
100
AcDbLine
 10
-311.0156860351563
 20
134.6700897216797
 30
0.0
 11
-307.5055236816406
 21
138.1802673339844
 31
0.0
  0
LINE
  5
116
330
22
100
AcDbEntity
  8
0
  6
Continuous
 62
     7
100
AcDbLine
 10
-311.0156860351563
 20
131.1345672607422
 30
0.0
 11
-307.5081481933594
 21
134.64208984375
 31
0.0
  0
LINE
  5
117
330
22
100
AcDbEntity
  8
0
  6
Continuous
 62
     7
100
AcDbLine
 10
-311.0156860351563
 20
127.5990295410156
 30
0.0
 11
-307.5108032226563
 21
131.1039123535156
 31
0.0
  0
LINE
  5
118
330
22
100
AcDbEntity
  8
0
  6
Continuous
 62
     7
100
AcDbLine
 10
-311.0156860351563
 20
124.0634918212891
 30
0.0
 11
-307.513427734375
 21
127.5657501220703
 31
0.0
  0
LINE
  5
119
330
22
100
AcDbEntity
  8
0
  6
Continuous
 62
     7
100
AcDbLine
 10
-311.0156860351563
 20
120.527961730957
 30
0.0
 11
-309.5312805175781
 21
122.0123672485352
 31
0.0
  0
LINE
  5
11A
330
22
100
AcDbEntity
  8
0
  6
Continuous
 62
     7
100
AcDbLine
 10
-311.0156860351563
 20
116.9924240112305
 30
0.0
 11
-309.5312805175781
 21
118.476837158203
 31
0.0
  0
LINE
  5
11B
330
22
100
AcDbEntity
  8
0
  6
Continuous
 62
     7
100
AcDbLine
 10
-311.0156860351563
 20
113.4568939208984
 30
0.0
 11
-309.5312805175781
 21
114.9412994384766
 31
0.0
  0
LINE
  5
11C
330
22
100
AcDbEntity
  8
0
  6
Continuous
 62
     7
100
AcDbLine
 10
-311.0156860351563
 20
109.9213562011719
 30
0.0
 11
-309.5312805175781
 21
111.4057693481445
 31
0.0
  0
LINE
  5
11D
330
22
100
AcDbEntity
  8
0
  6
Continuous
 62
     7
100
AcDbLine
 10
-311.0156860351563
 20
106.3858261108398
 30
0.0
 11
-309.5312805175781
 21
107.870231628418
 31
0.0
  0
LINE
  5
11E
330
22
100
AcDbEntity
  8
0
  6
Continuous
 62
     7
100
AcDbLine
 10
-311.0156860351563
 20
102.8502883911133
 30
0.0
 11
-309.5312805175781
 21
104.3347015380859
 31
0.0
  0
LINE
  5
11F
330
22
100
AcDbEntity
  8
0
  6
Continuous
 62
     7
100
AcDbLine
 10
-311.0156860351563
 20
99.31475830078124
 30
0.0
 11
-309.5312805175781
 21
100.7991638183594
 31
0.0
  0
LINE
  5
120
330
22
100
AcDbEntity
  8
0
  6
Continuous
 62
     7
100
AcDbLine
 10
-311.0156860351563
 20
95.77922058105469
 30
0.0
 11
-309.5312805175781
 21
97.26363372802735
 31
0.0
  0
LINE
  5
121
330
22
100
AcDbEntity
  8
0
  6
Continuous
 62
     7
100
AcDbLine
 10
-311.0156860351563
 20
92.24369049072265
 30
0.0
 11
-309.5312805175781
 21
93.72809600830079
 31
0.0
  0
LINE
  5
122
330
22
100
AcDbEntity
  8
0
  6
Continuous
 62
     7
100
AcDbLine
 10
-311.0156860351563
 20
88.70815277099609
 30
0.0
 11
-309.5312805175781
 21
90.19256591796876
 31
0.0
  0
LINE
  5
123
330
22
100
AcDbEntity
  8
0
  6
Continuous
 62
     7
100
AcDbLine
 10
-311.0156860351563
 20
85.17262268066406
 30
0.0
 11
-309.5312805175781
 21
86.65702819824218
 31
0.0
  0
LINE
  5
124
330
22
100
AcDbEntity
  8
0
  6
Continuous
 62
     7
100
AcDbLine
 10
-311.0156860351563
 20
81.6370849609375
 30
0.0
 11
-309.5312805175781
 21
83.12149810791016
 31
0.0
  0
LINE
  5
125
330
22
100
AcDbEntity
  8
0
  6
Continuous
 62
     7
100
AcDbLine
 10
-311.0156860351563
 20
78.10155487060547
 30
0.0
 11
-309.5312805175781
 21
79.5859603881836
 31
0.0
  0
LINE
  5
126
330
22
100
AcDbEntity
  8
0
  6
Continuous
 62
     7
100
AcDbLine
 10
-311.0156860351563
 20
74.56601715087891
 30
0.0
 11
-309.5312805175781
 21
76.05043029785156
 31
0.0
  0
LINE
  5
127
330
22
100
AcDbEntity
  8
0
  6
Continuous
 62
     7
100
AcDbLine
 10
-311.0156860351563
 20
172.5279846191406
 30
0.0
 11
-311.0156860351563
 21
72.52799224853515
 31
0.0
  0
LINE
  5
128
330
22
100
AcDbEntity
  8
0
  6
Continuous
 62
     7
100
AcDbLine
 10
-327.7238159179688
 20
72.52799224853515
 30
0.0
 11
-320.4319458007813
 21
72.52799224853515
 31
0.0
  0
LINE
  5
129
330
22
100
AcDbEntity
  8
0
  6
Continuous
 62
     7
100
AcDbLine
 10
-327.7238159179688
 20
172.5279846191406
 30
0.0
 11
-320.4319458007813
 21
172.5279846191406
 31
0.0
  0
LINE
  5
12A
330
22
100
AcDbEntity
  8
0
  6
Continuous
 62
     7
100
AcDbLine
 10
-318.7315979003906
 20
189.5279846191406
 30
0.0
 11
-330.4856872558594
 21
189.5279846191406
 31
0.0
  0
LINE
  5
12B
330
22
100
AcDbEntity
  8
0
  6
Continuous
 62
     7
100
AcDbLine
 10
-330.4856872558594
 20
192.5279846191406
 30
0.0
 11
-330.4856872558594
 21
189.5279846191406
 31
0.0
  0
LINE
  5
12C
330
22
100
AcDbEntity
  8
0
  6
Continuous
 62
     7
100
AcDbLine
 10
-324.7652893066406
 20
196.1774597167969
 30
0.0
 11
-330.7656860351563
 21
196.1774597167969
 31
0.0
  0
LINE
  5
12D
330
22
100
AcDbEntity
  8
0
  6
Continuous
 62
     7
100
AcDbLine
 10
-300.7656860351563
 20
188.5279846191406
 30
0.0
 11
-298.5870971679688
 21
204.5279846191406
 31
0.0
  0
LINE
  5
12E
330
22
100
AcDbEntity
  8
0
  6
Continuous
 62
     7
100
AcDbLine
 10
-309.7656860351563
 20
192.52978515625
 30
0.0
 11
-309.7656860351563
 21
190.02978515625
 31
0.0
  0
LINE
  5
12F
330
22
100
AcDbEntity
  8
0
  6
Continuous
 62
     7
100
AcDbLine
 10
-307.98876953125
 20
190.02978515625
 30
0.0
 11
-307.8656921386719
 21
189.9066925048828
 31
0.0
  0
LINE
  5
130
330
22
100
AcDbEntity
  8
0
  6
Continuous
 62
     7
100
AcDbLine
 10
-307.7656860351563
 20
192.52978515625
 30
0.0
 11
-309.7656860351563
 21
192.52978515625
 31
0.0
  0
LINE
  5
131
330
22
100
AcDbEntity
  8
0
  6
Continuous
 62
     7
100
AcDbLine
 10
-317.3679504394531
 20
207.5279846191406
 30
0.0
 11
-305.8615417480469
 21
207.5279846191406
 31
0.0
  0
LINE
  5
132
330
22
100
AcDbEntity
  8
0
  6
Continuous
 62
     7
100
AcDbLine
 10
-305.6323547363281
 20
207.4723663330078
 30
0.0
 11
-305.4171752929688
 21
207.2571868896484
 31
0.0
  0
LINE
  5
133
330
22
100
AcDbEntity
  8
0
  6
Continuous
 62
     7
100
AcDbLine
 10
-297.6073303222656
 20
207.5279846191406
 30
0.0
 11
-304.8461303710938
 21
207.5279846191406
 31
0.0
  0
LINE
  5
134
330
22
100
AcDbEntity
  8
0
  6
Continuous
 62
     7
100
AcDbLine
 10
-305.369140625
 20
206.941162109375
 30
0.0
 11
-307.7656860351563
 21
193.3497924804688
 31
0.0
  0
LINE
  5
135
330
22
100
AcDbEntity
  8
0
  6
Continuous
 62
     7
100
AcDbLine
 10
-319.8652648925781
 20
196.0279846191406
 30
0.0
 11
-319.8652648925781
 21
194.0279846191406
 31
0.0
  0
LINE
  5
136
330
22
100
AcDbEntity
  8
0
  6
Continuous
 62
     7
100
AcDbLine
 10
-321.7652893066406
 20
198.5274505615234
 30
0.0
 11
-321.7652893066406
 21
196.0279846191406
 31
0.0
  0
LINE
  5
137
330
22
100
AcDbEntity
  8
0
  6
Continuous
 62
     7
100
AcDbLine
 10
-319.76708984375
 20
198.8589477539063
 30
0.0
 11
-319.76708984375
 21
192.5279846191406
 31
0.0
  0
LINE
  5
138
330
22
100
AcDbEntity
  8
0
  6
Continuous
 62
     7
100
AcDbLine
 10
-309.7656860351563
 20
190.02978515625
 30
0.0
 11
-307.8656921386719
 21
190.02978515625
 31
0.0
  0
LINE
  5
139
330
22
100
AcDbEntity
  8
0
  6
Continuous
 62
     7
100
AcDbLine
 10
-309.4838562011719
 20
32.0461540222168
 30
0.0
 11
-310.2489318847656
 21
56.52799224853516
 31
0.0
  0
LINE
  5
13A
330
22
100
AcDbEntity
  8
0
  6
Continuous
 62
     7
100
AcDbLine
 10
-308.8227844238281
 20
57.95413970947265
 30
0.0
 11
-308.8227844238281
 21
62.52799224853515
 31
0.0
  0
LINE
  5
13B
330
22
100
AcDbEntity
  8
0
  6
Continuous
 62
     7
100
AcDbLine
 10
-307.9656677246094
 20
30.52799034118652
 30
0.0
 11
-308.8227844238281
 21
57.95413970947265
 31
0.0
  0
LINE
  5
13C
330
22
100
AcDbEntity
  8
0
  6
Continuous
 62
     7
100
AcDbLine
 10
-307.9656677246094
 20
30.52799034118652
 30
0.0
 11
-309.4838562011719
 21
32.0461540222168
 31
0.0
  0
LINE
  5
13D
330
22
100
AcDbEntity
  8
0
  6
Continuous
 62
     7
100
AcDbLine
 10
-304.7656860351563
 20
67.52799224853515
 30
0.0
 11
-304.7656860351563
 21
91.52799224853515
 31
0.0
  0
LINE
  5
13E
330
22
100
AcDbEntity
  8
0
  6
Continuous
 62
     7
100
AcDbLine
 10
-303.7656860351563
 20
58.02799224853515
 30
0.0
 11
-303.7656860351563
 21
31.52799034118652
 31
0.0
  0
LINE
  5
13F
330
22
100
AcDbEntity
  8
0
  6
Continuous
 62
     7
100
AcDbLine
 10
-310.2489318847656
 20
56.52799224853516
 30
0.0
 11
-308.8227844238281
 21
57.95413970947265
 31
0.0
  0
LINE
  5
140
330
22
100
AcDbEntity
  8
0
  6
Continuous
 62
     7
100
AcDbLine
 10
-309.5312805175781
 20
72.52799224853515
 30
0.0
 11
-309.5312805175781
 21
122.5279922485352
 31
0.0
  0
LINE
  5
141
330
22
100
AcDbEntity
  8
0
  6
Continuous
 62
     7
100
AcDbLine
 10
-302.7656860351563
 20
59.02799224853516
 30
0.0
 11
-255.2656860351564
 21
59.02799224853516
 31
0.0
  0
LINE
  5
142
330
22
100
AcDbEntity
  8
0
  6
Continuous
 62
     7
100
AcDbLine
 10
-307.9656677246094
 20
90.96914672851564
 30
0.0
 11
-306.4068298339844
 21
92.52799224853516
 31
0.0
  0
LINE
  5
143
330
22
100
AcDbEntity
  8
0
  6
Continuous
 62
     7
100
AcDbLine
 10
-307.9656677246094
 20
88.14071655273437
 30
0.0
 11
-304.7656860351563
 21
91.34072113037108
 31
0.0
  0
LINE
  5
144
330
22
100
AcDbEntity
  8
0
  6
Continuous
 62
     7
100
AcDbLine
 10
-307.9656677246094
 20
85.31229400634765
 30
0.0
 11
-304.7656860351563
 21
88.51229095458984
 31
0.0
  0
LINE
  5
145
330
22
100
AcDbEntity
  8
0
  6
Continuous
 62
     7
100
AcDbLine
 10
-307.9656677246094
 20
82.4838638305664
 30
0.0
 11
-304.7656860351563
 21
85.68386840820313
 31
0.0
  0
LINE
  5
146
330
22
100
AcDbEntity
  8
0
  6
Continuous
 62
     7
100
AcDbLine
 10
-307.9656677246094
 20
79.65544128417969
 30
0.0
 11
-304.7656860351563
 21
82.85543823242187
 31
0.0
  0
LINE
  5
147
330
22
100
AcDbEntity
  8
0
  6
Continuous
 62
     7
100
AcDbLine
 10
-307.9656677246094
 20
76.82701110839843
 30
0.0
 11
-304.7656860351563
 21
80.02700805664062
 31
0.0
  0
LINE
  5
148
330
22
100
AcDbEntity
  8
0
  6
Continuous
 62
     7
100
AcDbLine
 10
-307.9656677246094
 20
73.99858093261719
 30
0.0
 11
-304.7656860351563
 21
77.1985855102539
 31
0.0
  0
LINE
  5
149
330
22
100
AcDbEntity
  8
0
  6
Continuous
 62
     7
100
AcDbLine
 10
-307.9656677246094
 20
71.17015838623046
 30
0.0
 11
-304.7656860351563
 21
74.37015533447265
 31
0.0
  0
LINE
  5
14A
330
22
100
AcDbEntity
  8
0
  6
Continuous
 62
     7
100
AcDbLine
 10
-307.9656677246094
 20
68.34172821044922
 30
0.0
 11
-304.7656860351563
 21
71.54173278808594
 31
0.0
  0
LINE
  5
14B
330
22
100
AcDbEntity
  8
0
  6
Continuous
 62
     7
100
AcDbLine
 10
-307.9656677246094
 20
65.5133056640625
 30
0.0
 11
-304.7656860351563
 21
68.71330261230468
 31
0.0
  0
LINE
  5
14C
330
22
100
AcDbEntity
  8
0
  6
Continuous
 62
     7
100
AcDbLine
 10
-307.9656677246094
 20
62.68487548828125
 30
0.0
 11
-304.5365600585938
 21
66.11398315429688
 31
0.0
  0
LINE
  5
14D
330
22
100
AcDbEntity
  8
0
  6
Continuous
 62
     7
100
AcDbLine
 10
-307.9656677246094
 20
59.85644912719727
 30
0.0
 11
-303.5394287109375
 21
64.28270721435547
 31
0.0
  0
LINE
  5
14E
330
22
100
AcDbEntity
  8
0
  6
Continuous
 62
     7
100
AcDbLine
 10
-308.7687377929688
 20
56.22495269775391
 30
0.0
 11
-301.9436950683594
 21
63.05001831054688
 31
0.0
  0
LINE
  5
14F
330
22
100
AcDbEntity
  8
0
  6
Continuous
 62
     7
100
AcDbLine
 10
-303.3443603515625
 20
58.8208999633789
 30
0.0
 11
-299.6372680664063
 21
62.52799224853515
 31
0.0
  0
LINE
  5
150
330
22
100
AcDbEntity
  8
0
  6
Continuous
 62
     7
100
AcDbLine
 10
-308.6830444335938
 20
53.48223876953125
 30
0.0
 11
-303.55859375
 21
58.60668563842772
 31
0.0
  0
LINE
  5
151
330
22
100
AcDbEntity
  8
0
  6
Continuous
 62
     7
100
AcDbLine
 10
-300.3088684082031
 20
59.02799224853516
 30
0.0
 11
-296.8088684082031
 21
62.52799224853515
 31
0.0
  0
LINE
  5
152
330
22
100
AcDbEntity
  8
0
  6
Continuous
 62
     7
100
AcDbLine
 10
-308.5973205566406
 20
50.7395248413086
 30
0.0
 11
-303.7656860351563
 21
55.5711669921875
 31
0.0
  0
LINE
  5
153
330
22
100
AcDbEntity
  8
0
  6
Continuous
 62
     7
100
AcDbLine
 10
-297.4804382324219
 20
59.02799224853516
 30
0.0
 11
-293.9804382324219
 21
62.52799224853515
 31
0.0
  0
LINE
  5
154
330
22
100
AcDbEntity
  8
0
  6
Continuous
 62
     7
100
AcDbLine
 10
-308.5115966796875
 20
47.99681091308594
 30
0.0
 11
-303.7656860351563
 21
52.74274063110352
 31
0.0
  0
LINE
  5
155
330
22
100
AcDbEntity
  8
0
  6
Continuous
 62
     7
100
AcDbLine
 10
-294.6520080566406
 20
59.02799224853516
 30
0.0
 11
-291.1520080566406
 21
62.52799224853515
 31
0.0
  0
LINE
  5
156
330
22
100
AcDbEntity
  8
0
  6
Continuous
 62
     7
100
AcDbLine
 10
-308.4259033203125
 20
45.25409698486328
 30
0.0
 11
-303.7656860351563
 21
49.91431427001953
 31
0.0
  0
LINE
  5
157
330
22
100
AcDbEntity
  8
0
  6
Continuous
 62
     7
100
AcDbLine
 10
-291.8235778808594
 20
59.02799224853516
 30
0.0
 11
-288.4196166992188
 21
62.43193817138672
 31
0.0
  0
LINE
  5
158
330
22
100
AcDbEntity
  8
0
  6
Continuous
 62
     7
100
AcDbLine
 10
-308.3401794433594
 20
42.51138687133789
 30
0.0
 11
-303.7656860351563
 21
47.08588409423827
 31
0.0
  0
LINE
  5
159
330
22
100
AcDbEntity
  8
0
  6
Continuous
 62
     7
100
AcDbLine
 10
-288.9951477050781
 20
59.02799224853516
 30
0.0
 11
-285.4951477050781
 21
62.52799224853515
 31
0.0
  0
LINE
  5
15A
330
22
100
AcDbEntity
  8
0
  6
Continuous
 62
     7
100
AcDbLine
 10
-308.2544555664063
 20
39.76867294311523
 30
0.0
 11
-303.7656860351563
 21
44.25745773315429
 31
0.0
  0
LINE
  5
15B
330
22
100
AcDbEntity
  8
0
  6
Continuous
 62
     7
100
AcDbLine
 10
-286.1667175292969
 20
59.02799224853516
 30
0.0
 11
-282.6667175292969
 21
62.52799224853515
 31
0.0
  0
LINE
  5
15C
330
22
100
AcDbEntity
  8
0
  6
Continuous
 62
     7
100
AcDbLine
 10
-308.1687622070313
 20
37.02595901489258
 30
0.0
 11
-303.7656860351563
 21
41.42903137207031
 31
0.0
  0
LINE
  5
15D
330
22
100
AcDbEntity
  8
0
  6
Continuous
 62
     7
100
AcDbLine
 10
-283.3382873535157
 20
59.02799224853516
 30
0.0
 11
-279.8382873535156
 21
62.52799224853515
 31
0.0
  0
LINE
  5
15E
330
22
100
AcDbEntity
  8
0
  6
Continuous
 62
     7
100
AcDbLine
 10
-308.0830383300781
 20
34.28324508666992
 30
0.0
 11
-303.7656860351563
 21
38.60060501098633
 31
0.0
  0
LINE
  5
15F
330
22
100
AcDbEntity
  8
0
  6
Continuous
 62
     7
100
AcDbLine
 10
-280.5098571777344
 20
59.02799224853516
 30
0.0
 11
-277.0098571777344
 21
62.52799224853515
 31
0.0
  0
LINE
  5
160
330
22
100
AcDbEntity
  8
0
  6
Continuous
 62
     7
100
AcDbLine
 10
-307.997314453125
 20
31.5405330657959
 30
0.0
 11
-303.7656860351563
 21
35.77217864990235
 31
0.0
  0
LINE
  5
161
330
22
100
AcDbEntity
  8
0
  6
Continuous
 62
     7
100
AcDbLine
 10
-277.6814270019531
 20
59.02799224853516
 30
0.0
 11
-274.1814270019531
 21
62.52799224853515
 31
0.0
  0
LINE
  5
162
330
22
100
AcDbEntity
  8
0
  6
Continuous
 62
     7
100
AcDbLine
 10
-306.1814270019531
 20
30.52799034118652
 30
0.0
 11
-303.7656860351563
 21
32.94374847412109
 31
0.0
  0
LINE
  5
163
330
22
100
AcDbEntity
  8
0
  6
Continuous
 62
     7
100
AcDbLine
 10
-274.8529968261719
 20
59.02799224853516
 30
0.0
 11
-271.9331359863281
 21
61.94785690307617
 31
0.0
  0
LINE
  5
164
330
22
100
AcDbEntity
  8
0
  6
Continuous
 62
     7
100
AcDbLine
 10
-272.0245971679688
 20
59.02799224853516
 30
0.0
 11
-268.5245971679688
 21
62.52799224853515
 31
0.0
  0
LINE
  5
165
330
22
100
AcDbEntity
  8
0
  6
Continuous
 62
     7
100
AcDbLine
 10
-269.1961669921875
 20
59.02799224853516
 30
0.0
 11
-265.6961669921875
 21
62.52799224853515
 31
0.0
  0
LINE
  5
166
330
22
100
AcDbEntity
  8
0
  6
Continuous
 62
     7
100
AcDbLine
 10
-266.3677368164063
 20
59.02799224853516
 30
0.0
 11
-262.8677368164063
 21
62.52799224853515
 31
0.0
  0
LINE
  5
167
330
22
100
AcDbEntity
  8
0
  6
Continuous
 62
     7
100
AcDbLine
 10
-263.539306640625
 20
59.02799224853516
 30
0.0
 11
-260.039306640625
 21
62.52799224853515
 31
0.0
  0
LINE
  5
168
330
22
100
AcDbEntity
  8
0
  6
Continuous
 62
     7
100
AcDbLine
 10
-260.7108764648438
 20
59.02799224853516
 30
0.0
 11
-257.2108764648438
 21
62.52799224853515
 31
0.0
  0
LINE
  5
169
330
22
100
AcDbEntity
  8
0
  6
Continuous
 62
     7
100
AcDbLine
 10
-257.8824462890625
 20
59.02799224853516
 30
0.0
 11
-255.1979675292969
 21
61.71247482299804
 31
0.0
  0
LINE
  5
16A
330
22
100
AcDbEntity
  8
0
  6
Continuous
 62
     7
100
AcDbLine
 10
-307.9656677246094
 20
74.09358215332031
 30
0.0
 11
-307.9656677246094
 21
124.0935821533203
 31
0.0
  0
LINE
  5
16B
330
22
100
AcDbEntity
  8
0
  6
Continuous
 62
     7
100
AcDbLine
 10
-309.5312805175781
 20
72.52799224853515
 30
0.0
 11
-307.6312866210938
 21
74.42799377441406
 31
0.0
  0
LINE
  5
16C
330
22
100
AcDbEntity
  8
0
  6
Continuous
 62
     7
100
AcDbLine
 10
-287.5156860351563
 20
61.52799224853516
 30
0.0
 11
-286.5156860351563
 21
62.52799224853515
 31
0.0
  0
LINE
  5
16D
330
22
100
AcDbEntity
  8
0
  6
Continuous
 62
     7
100
AcDbLine
 10
-299.7656860351563
 20
62.52799224853515
 30
0.0
 11
-256.7656860351563
 21
62.52799224853515
 31
0.0
  0
LINE
  5
16E
330
22
100
AcDbEntity
  8
0
  6
Continuous
 62
     7
100
AcDbLine
 10
-307.4949951171875
 20
152.2874908447266
 30
0.0
 11
-308.0699462890625
 21
170.6851196289063
 31
0.0
  0
LINE
  5
16F
330
22
100
AcDbEntity
  8
0
  6
Continuous
 62
     7
100
AcDbLine
 10
-307.4949951171875
 20
152.2874908447266
 30
0.0
 11
-309.3378601074219
 21
154.1303558349609
 31
0.0
  0
LINE
  5
170
330
22
100
AcDbEntity
  8
0
  6
Continuous
 62
     7
100
AcDbLine
 10
-309.9128112792969
 20
172.5279846191406
 30
0.0
 11
-309.3378601074219
 21
154.1303558349609
 31
0.0
  0
LINE
  5
171
330
22
100
AcDbEntity
  8
0
  6
Continuous
 62
     7
100
AcDbLine
 10
-327.7656860351563
 20
173.5279846191406
 30
0.0
 11
-327.7656860351563
 21
177.5279846191406
 31
0.0
  0
LINE
  5
172
330
22
100
AcDbEntity
  8
0
  6
Continuous
 62
     7
100
AcDbLine
 10
-304.2656860351563
 20
159.5279846191406
 30
0.0
 11
-307.7212829589844
 21
159.5279846191406
 31
0.0
  0
LINE
  5
173
330
22
100
AcDbEntity
  8
0
  6
Continuous
 62
     7
100
AcDbLine
 10
-303.2120971679688
 20
162.5306854248047
 30
0.0
 11
-303.2490234375
 21
160.5278472900391
 31
0.0
  0
LINE
  5
174
330
22
100
AcDbEntity
  8
0
  6
Continuous
 62
     7
100
AcDbLine
 10
-303.2490234375
 20
160.5278472900391
 30
0.0
 11
-304.2656860351563
 21
159.5279846191406
 31
0.0
  0
LINE
  5
175
330
22
100
AcDbEntity
  8
0
  6
Continuous
 62
     7
100
AcDbLine
 10
-301.182373046875
 20
164.5268859863281
 30
0.0
 11
-303.2156982421875
 21
162.5271606445313
 31
0.0
  0
LINE
  5
176
330
22
100
AcDbEntity
  8
0
  6
Continuous
 62
     7
100
AcDbLine
 10
-309.2656860351563
 20
160.7279968261719
 30
0.0
 11
-309.2656860351563
 21
170.3279876708984
 31
0.0
  0
LINE
  5
177
330
22
100
AcDbEntity
  8
0
  6
Continuous
 62
     7
100
AcDbLine
 10
-308.065673828125
 20
159.5279846191406
 30
0.0
 11
-309.2656860351563
 21
160.7279968261719
 31
0.0
  0
LINE
  5
178
330
22
100
AcDbEntity
  8
0
  6
Continuous
 62
     7
100
AcDbLine
 10
-309.2656860351563
 20
170.3279876708984
 30
0.0
 11
-308.065673828125
 21
171.5279846191406
 31
0.0
  0
LINE
  5
179
330
22
100
AcDbEntity
  8
0
  6
Continuous
 62
     7
100
AcDbLine
 10
-308.065673828125
 20
173.5279846191406
 30
0.0
 11
-308.065673828125
 21
159.5279846191406
 31
0.0
  0
LINE
  5
17A
330
22
100
AcDbEntity
  8
0
  6
Continuous
 62
     7
100
AcDbLine
 10
-309.9128112792969
 20
172.5279846191406
 30
0.0
 11
-308.0699462890625
 21
170.6851196289063
 31
0.0
  0
LINE
  5
17B
330
22
100
AcDbEntity
  8
0
  6
Continuous
 62
     7
100
AcDbLine
 10
-307.9656677246094
 20
156.5279846191406
 30
0.0
 11
-309.4639892578125
 21
158.0262908935547
 31
0.0
  0
LINE
  5
17C
330
22
100
AcDbEntity
  8
0
  6
Continuous
 62
     7
100
AcDbLine
 10
-308.065673828125
 20
173.5279846191406
 30
0.0
 11
-327.7656860351563
 21
173.5279846191406
 31
0.0
  0
LINE
  5
17D
330
22
100
AcDbEntity
  8
0
  6
Continuous
 62
     7
100
AcDbLine
 10
-307.9656677246094
 20
92.52799224853516
 30
0.0
 11
-307.9656677246094
 21
62.52799224853515
 31
0.0
  0
LINE
  5
17E
330
22
100
AcDbEntity
  8
0
  6
Continuous
 62
     7
100
AcDbLine
 10
-307.9656677246094
 20
92.52799224853516
 30
0.0
 11
-305.7656860351563
 21
92.52799224853516
 31
0.0
  0
LINE
  5
17F
330
22
100
AcDbEntity
  8
0
  6
Continuous
 62
     7
100
AcDbLine
 10
-307.9656677246094
 20
92.52799224853516
 30
0.0
 11
-309.4356689453125
 21
91.05799102783205
 31
0.0
  0
LINE
  5
180
330
22
100
AcDbEntity
  8
0
  6
Continuous
 62
     7
100
AcDbLine
 10
-309.5312805175781
 20
122.5279922485352
 30
0.0
 11
-307.5156860351563
 21
124.543586730957
 31
0.0
  0
LINE
  5
181
330
22
100
AcDbEntity
  8
0
  6
Continuous
 62
     7
100
AcDbLine
 10
-309.4356689453125
 20
63.77799224853515
 30
0.0
 11
-307.9656677246094
 21
62.52799224853515
 31
0.0
  0
LINE
  5
182
330
22
100
AcDbEntity
  8
0
  6
Continuous
 62
     7
100
AcDbLine
 10
-254.7656860351563
 20
59.52799224853515
 30
0.0
 11
-254.7656860351563
 21
60.52799224853515
 31
0.0
  0
LINE
  5
183
330
22
100
AcDbEntity
  8
0
  6
Continuous
 62
     7
100
AcDbLine
 10
-275.7656860351563
 20
62.52799224853515
 30
0.0
 11
-265.7438354492188
 21
62.52799224853515
 31
0.0
  0
LINE
  5
184
330
22
100
AcDbEntity
  8
0
  6
Continuous
 62
     7
100
AcDbLine
 10
-287.5156860351563
 20
61.52799224853516
 30
0.0
 11
-288.5156860351563
 21
62.52799224853515
 31
0.0
  0
LINE
  5
185
330
22
100
AcDbEntity
  8
0
  6
Continuous
 62
     7
100
AcDbLine
 10
-271.5132751464844
 20
61.52799224853516
 30
0.0
 11
-272.5132751464844
 21
62.52799224853515
 31
0.0
  0
LINE
  5
186
330
22
100
AcDbEntity
  8
0
  6
Continuous
 62
     7
100
AcDbLine
 10
-271.5132751464844
 20
61.52799224853516
 30
0.0
 11
-270.5132751464844
 21
62.52799224853515
 31
0.0
  0
LINE
  5
187
330
22
100
AcDbEntity
  8
0
  6
Continuous
 62
     7
100
AcDbLine
 10
-309.4356689453125
 20
91.05799102783205
 30
0.0
 11
-309.4356689453125
 21
63.77799224853515
 31
0.0
  0
LINE
  5
188
330
22
100
AcDbEntity
  8
0
  6
Continuous
 62
     7
100
AcDbLine
 10
-386.7656860351563
 20
59.02799224853516
 30
0.0
 11
-403.2759704589843
 21
59.02799224853516
 31
0.0
  0
LINE
  5
189
330
22
100
AcDbEntity
  8
0
  6
Continuous
 62
     7
100
AcDbLine
 10
-370.7656860351563
 20
67.52799224853515
 30
0.0
 11
-370.7656860351563
 21
91.52799224853515
 31
0.0
  0
LINE
  5
18A
330
22
100
AcDbEntity
  8
0
  6
Continuous
 62
     7
100
AcDbLine
 10
-368.0363464355469
 20
152.2874908447266
 30
0.0
 11
-366.1934814453125
 21
154.1303558349609
 31
0.0
  0
LINE
  5
18B
330
22
100
AcDbEntity
  8
0
  6
Continuous
 62
     7
100
AcDbLine
 10
-366.0248107910156
 20
159.5279846191406
 30
0.0
 11
-366.1934814453125
 21
154.1303558349609
 31
0.0
  0
LINE
  5
18C
330
22
100
AcDbEntity
  8
0
  6
Continuous
 62
     7
100
AcDbLine
 10
-368.0363464355469
 20
152.2874908447266
 30
0.0
 11
-367.8100891113281
 21
159.5279846191406
 31
0.0
  0
LINE
  5
18D
330
22
100
AcDbEntity
  8
0
  6
Continuous
 62
     7
100
AcDbLine
 10
-368.0156860351563
 20
124.543586730957
 30
0.0
 11
-368.0156860351563
 21
152.94921875
 31
0.0
  0
LINE
  5
18E
330
22
100
AcDbEntity
  8
0
  6
Continuous
 62
     7
100
AcDbLine
 10
-374.7656860351563
 20
188.5279846191406
 30
0.0
 11
-376.9442443847656
 21
204.5279846191406
 31
0.0
  0
LINE
  5
18F
330
22
100
AcDbEntity
  8
0
  6
Continuous
 62
     7
100
AcDbLine
 10
-372.8051452636719
 20
188.8964080810547
 30
0.0
 11
-374.8485107421875
 21
203.634521484375
 31
0.0
  0
LINE
  5
190
330
22
100
AcDbEntity
  8
0
  6
Continuous
 62
     7
100
AcDbLine
 10
-379.7656860351563
 20
204.5279846191406
 30
0.0
 11
-375.8428344726563
 21
204.5279846191406
 31
0.0
  0
LINE
  5
191
330
22
100
AcDbEntity
  8
0
  6
Continuous
 62
     7
100
AcDbLine
 10
-380.2656860351563
 20
207.5279846191406
 30
0.0
 11
-380.2656860351563
 21
205.0279846191406
 31
0.0
  0
LINE
  5
192
330
22
100
AcDbEntity
  8
0
  6
Continuous
 62
     7
100
AcDbLine
 10
-372.8051452636719
 20
188.8964080810547
 30
0.0
 11
-342.3276672363281
 21
188.8964080810547
 31
0.0
  0
LINE
  5
193
330
22
100
AcDbEntity
  8
0
  6
Continuous
 62
     7
100
AcDbLine
 10
-331.7656860351563
 20
177.0279846191406
 30
0.0
 11
-331.7656860351563
 21
173.5279846191406
 31
0.0
  0
LINE
  5
194
330
22
100
AcDbEntity
  8
0
  6
Continuous
 62
     7
100
AcDbLine
 10
-327.7656860351563
 20
173.5279846191406
 30
0.0
 11
-331.7656860351563
 21
173.5279846191406
 31
0.0
  0
LINE
  5
195
330
22
100
AcDbEntity
  8
0
  6
Continuous
 62
     7
100
AcDbLine
 10
-308.565673828125
 20
178.5279846191406
 30
0.0
 11
-310.2666931152344
 21
178.5279846191406
 31
0.0
  0
LINE
  5
196
330
22
100
AcDbEntity
  8
0
  6
Continuous
 62
     7
100
AcDbLine
 10
-310.2666931152344
 20
178.5279846191406
 30
0.0
 11
-311.2656860351563
 21
177.5289916992188
 31
0.0
  0
LINE
  5
197
330
22
100
AcDbEntity
  8
0
  6
Continuous
 62
     7
100
AcDbLine
 10
-327.7656860351563
 20
177.5279846191406
 30
0.0
 11
-311.2656860351563
 21
177.5279846191406
 31
0.0
  0
LINE
  5
198
330
22
100
AcDbEntity
  8
0
  6
Continuous
 62
     7
100
AcDbLine
 10
-305.4674072265625
 20
206.3839721679688
 30
0.0
 11
-304.3233947753906
 21
207.5279846191406
 31
0.0
  0
LINE
  5
199
330
22
100
AcDbEntity
  8
0
  6
Continuous
 62
     7
100
AcDbLine
 10
-305.7701416015625
 20
204.6670227050781
 30
0.0
 11
-302.9091796875
 21
207.5279846191406
 31
0.0
  0
LINE
  5
19A
330
22
100
AcDbEntity
  8
0
  6
Continuous
 62
     7
100
AcDbLine
 10
-306.0729064941406
 20
202.9500579833984
 30
0.0
 11
-301.4949645996094
 21
207.5279846191406
 31
0.0
  0
LINE
  5
19B
330
22
100
AcDbEntity
  8
0
  6
Continuous
 62
     7
100
AcDbLine
 10
-306.3756408691406
 20
201.2330932617188
 30
0.0
 11
-300.0807495117188
 21
207.5279846191406
 31
0.0
  0
LINE
  5
19C
330
22
100
AcDbEntity
  8
0
  6
Continuous
 62
     7
100
AcDbLine
 10
-306.6783752441406
 20
199.5161437988281
 30
0.0
 11
-298.6665344238281
 21
207.5279846191406
 31
0.0
  0
LINE
  5
19D
330
22
100
AcDbEntity
  8
0
  6
Continuous
 62
     7
100
AcDbLine
 10
-306.9811401367188
 20
197.7991790771484
 30
0.0
 11
-296.2548522949219
 21
208.5254669189453
 31
0.0
  0
LINE
  5
19E
330
22
100
AcDbEntity
  8
0
  6
Continuous
 62
     7
100
AcDbLine
 10
-327.7656860351563
 20
177.0146331787109
 30
0.0
 11
-327.2523193359375
 21
177.5279846191406
 31
0.0
  0
LINE
  5
19F
330
22
100
AcDbEntity
  8
0
  6
Continuous
 62
     7
100
AcDbLine
 10
-307.2838745117188
 20
196.0822143554688
 30
0.0
 11
-295.3872985839844
 21
207.9787902832031
 31
0.0
  0
LINE
  5
1A0
330
22
100
AcDbEntity
  8
0
  6
Continuous
 62
     7
100
AcDbLine
 10
-327.7656860351563
 20
175.6004180908203
 30
0.0
 11
-325.8381042480469
 21
177.5279846191406
 31
0.0
  0
LINE
  5
1A1
330
22
100
AcDbEntity
  8
0
  6
Continuous
 62
     7
100
AcDbLine
 10
-297.4238891601563
 20
204.5279846191406
 30
0.0
 11
-295.2656860351563
 21
206.6862030029297
 31
0.0
  0
LINE
  5
1A2
330
22
100
AcDbEntity
  8
0
  6
Continuous
 62
     7
100
AcDbLine
 10
-307.5866088867188
 20
194.3652648925781
 30
0.0
 11
-298.7704467773438
 21
203.1814270019531
 31
0.0
  0
LINE
  5
1A3
330
22
100
AcDbEntity
  8
0
  6
Continuous
 62
     7
100
AcDbLine
 10
-327.7656860351563
 20
174.1862030029297
 30
0.0
 11
-324.4238891601563
 21
177.5279846191406
 31
0.0
  0
LINE
  5
1A4
330
22
100
AcDbEntity
  8
0
  6
Continuous
 62
     7
100
AcDbLine
 10
-296.0096740722656
 20
204.5279846191406
 30
0.0
 11
-295.2656860351563
 21
205.2719879150391
 31
0.0
  0
LINE
  5
1A5
330
22
100
AcDbEntity
  8
0
  6
Continuous
 62
     7
100
AcDbLine
 10
-307.7656860351563
 20
192.7719879150391
 30
0.0
 11
-298.9933776855469
 21
201.5442962646484
 31
0.0
  0
LINE
  5
1A6
330
22
100
AcDbEntity
  8
0
  6
Continuous
 62
     7
100
AcDbLine
 10
-327.0096740722656
 20
173.5279846191406
 30
0.0
 11
-323.0096740722656
 21
177.5279846191406
 31
0.0
  0
LINE
  5
1A7
330
22
100
AcDbEntity
  8
0
  6
Continuous
 62
     7
100
AcDbLine
 10
-307.7656860351563
 20
191.3577728271484
 30
0.0
 11
-299.2162780761719
 21
199.9071807861328
 31
0.0
  0
LINE
  5
1A8
330
22
100
AcDbEntity
  8
0
  6
Continuous
 62
     7
100
AcDbLine
 10
-325.595458984375
 20
173.5279846191406
 30
0.0
 11
-321.595458984375
 21
177.5279846191406
 31
0.0
  0
LINE
  5
1A9
330
22
100
AcDbEntity
  8
0
  6
Continuous
 62
     7
100
AcDbLine
 10
-307.7656860351563
 20
189.9435577392578
 30
0.0
 11
-299.439208984375
 21
198.2700500488281
 31
0.0
  0
LINE
  5
1AA
330
22
100
AcDbEntity
  8
0
  6
Continuous
 62
     7
100
AcDbLine
 10
-324.1812438964844
 20
173.5279846191406
 30
0.0
 11
-320.1812438964844
 21
177.5279846191406
 31
0.0
  0
LINE
  5
1AB
330
22
100
AcDbEntity
  8
0
  6
Continuous
 62
     7
100
AcDbLine
 10
-307.7656860351563
 20
188.5293426513672
 30
0.0
 11
-299.662109375
 21
196.6329193115234
 31
0.0
  0
LINE
  5
1AC
330
22
100
AcDbEntity
  8
0
  6
Continuous
 62
     7
100
AcDbLine
 10
-322.7670288085938
 20
173.5279846191406
 30
0.0
 11
-318.7670288085938
 21
177.5279846191406
 31
0.0
  0
LINE
  5
1AD
330
22
100
AcDbEntity
  8
0
  6
Continuous
 62
     7
100
AcDbLine
 10
-307.7656860351563
 20
187.1151428222656
 30
0.0
 11
-299.885009765625
 21
194.9958038330078
 31
0.0
  0
LINE
  5
1AE
330
22
100
AcDbEntity
  8
0
  6
Continuous
 62
     7
100
AcDbLine
 10
-321.3528137207031
 20
173.5279846191406
 30
0.0
 11
-317.3528137207031
 21
177.5279846191406
 31
0.0
  0
LINE
  5
1AF
330
22
100
AcDbEntity
  8
0
  6
Continuous
 62
     7
100
AcDbLine
 10
-307.7656860351563
 20
185.700927734375
 30
0.0
 11
-300.1079406738281
 21
193.3586730957031
 31
0.0
  0
LINE
  5
1B0
330
22
100
AcDbEntity
  8
0
  6
Continuous
 62
     7
100
AcDbLine
 10
-319.9385986328125
 20
173.5279846191406
 30
0.0
 11
-315.9385986328125
 21
177.5279846191406
 31
0.0
  0
LINE
  5
1B1
330
22
100
AcDbEntity
  8
0
  6
Continuous
 62
     7
100
AcDbLine
 10
-307.7656860351563
 20
184.2867126464844
 30
0.0
 11
-300.3308410644531
 21
191.7215423583984
 31
0.0
  0
LINE
  5
1B2
330
22
100
AcDbEntity
  8
0
  6
Continuous
 62
     7
100
AcDbLine
 10
-318.5243835449219
 20
173.5279846191406
 30
0.0
 11
-314.5243835449219
 21
177.5279846191406
 31
0.0
  0
LINE
  5
1B3
330
22
100
AcDbEntity
  8
0
  6
Continuous
 62
     7
100
AcDbLine
 10
-307.7656860351563
 20
182.8724975585938
 30
0.0
 11
-300.5537414550781
 21
190.0844268798828
 31
0.0
  0
LINE
  5
1B4
330
22
100
AcDbEntity
  8
0
  6
Continuous
 62
     7
100
AcDbLine
 10
-317.1101989746094
 20
173.5279846191406
 30
0.0
 11
-313.1101989746094
 21
177.5279846191406
 31
0.0
  0
LINE
  5
1B5
330
22
100
AcDbEntity
  8
0
  6
Continuous
 62
     7
100
AcDbLine
 10
-307.7656860351563
 20
181.4582824707031
 30
0.0
 11
-300.7566223144531
 21
188.4673309326172
 31
0.0
  0
LINE
  5
1B6
330
22
100
AcDbEntity
  8
0
  6
Continuous
 62
     7
100
AcDbLine
 10
-315.6959838867188
 20
173.5279846191406
 30
0.0
 11
-311.6959838867188
 21
177.5279846191406
 31
0.0
  0
LINE
  5
1B7
330
22
100
AcDbEntity
  8
0
  6
Continuous
 62
     7
100
AcDbLine
 10
-307.7656860351563
 20
180.0440673828125
 30
0.0
 11
-300.7600708007813
 21
187.0496826171875
 31
0.0
  0
LINE
  5
1B8
330
22
100
AcDbEntity
  8
0
  6
Continuous
 62
     7
100
AcDbLine
 10
-314.2817687988281
 20
173.5279846191406
 30
0.0
 11
-309.2817687988281
 21
178.5279846191406
 31
0.0
  0
LINE
  5
1B9
330
22
100
AcDbEntity
  8
0
  6
Continuous
 62
     7
100
AcDbLine
 10
-312.8675537109375
 20
173.5279846191406
 30
0.0
 11
-300.7870788574219
 21
185.6084442138672
 31
0.0
  0
LINE
  5
1BA
330
22
100
AcDbEntity
  8
0
  6
Continuous
 62
     7
100
AcDbLine
 10
-311.4533386230469
 20
173.5279846191406
 30
0.0
 11
-300.8141174316406
 21
184.1672058105469
 31
0.0
  0
LINE
  5
1BB
330
22
100
AcDbEntity
  8
0
  6
Continuous
 62
     7
100
AcDbLine
 10
-310.0391235351563
 20
173.5279846191406
 30
0.0
 11
-300.8411254882813
 21
182.7259674072266
 31
0.0
  0
LINE
  5
1BC
330
22
100
AcDbEntity
  8
0
  6
Continuous
 62
     7
100
AcDbLine
 10
-308.6249084472656
 20
173.5279846191406
 30
0.0
 11
-300.8681640625
 21
181.2847442626953
 31
0.0
  0
LINE
  5
1BD
330
22
100
AcDbEntity
  8
0
  6
Continuous
 62
     7
100
AcDbLine
 10
-308.065673828125
 20
172.6730041503906
 30
0.0
 11
-300.8951721191406
 21
179.843505859375
 31
0.0
  0
LINE
  5
1BE
330
22
100
AcDbEntity
  8
0
  6
Continuous
 62
     7
100
AcDbLine
 10
-308.065673828125
 20
171.2587890625
 30
0.0
 11
-300.9222106933594
 21
178.4022674560547
 31
0.0
  0
LINE
  5
1BF
330
22
100
AcDbEntity
  8
0
  6
Continuous
 62
     7
100
AcDbLine
 10
-308.065673828125
 20
169.8445739746094
 30
0.0
 11
-300.94921875
 21
176.9610290527344
 31
0.0
  0
LINE
  5
1C0
330
22
100
AcDbEntity
  8
0
  6
Continuous
 62
     7
100
AcDbLine
 10
-308.065673828125
 20
168.4303588867188
 30
0.0
 11
-300.9762573242188
 21
175.5197906494141
 31
0.0
  0
LINE
  5
1C1
330
22
100
AcDbEntity
  8
0
  6
Continuous
 62
     7
100
AcDbLine
 10
-308.065673828125
 20
167.0161437988281
 30
0.0
 11
-301.0032653808594
 21
174.0785522460938
 31
0.0
  0
LINE
  5
1C2
330
22
100
AcDbEntity
  8
0
  6
Continuous
 62
     7
100
AcDbLine
 10
-308.065673828125
 20
165.6019287109375
 30
0.0
 11
-301.0303039550781
 21
172.6373138427734
 31
0.0
  0
LINE
  5
1C3
330
22
100
AcDbEntity
  8
0
  6
Continuous
 62
     7
100
AcDbLine
 10
-308.065673828125
 20
164.1877136230469
 30
0.0
 11
-301.0573120117188
 21
171.1960754394531
 31
0.0
  0
LINE
  5
1C4
330
22
100
AcDbEntity
  8
0
  6
Continuous
 62
     7
100
AcDbLine
 10
-308.065673828125
 20
162.7734985351563
 30
0.0
 11
-301.0843505859375
 21
169.7548370361328
 31
0.0
  0
LINE
  5
1C5
330
22
100
AcDbEntity
  8
0
  6
Continuous
 62
     7
100
AcDbLine
 10
-308.065673828125
 20
161.3592987060547
 30
0.0
 11
-301.1113586425781
 21
168.3136138916016
 31
0.0
  0
LINE
  5
1C6
330
22
100
AcDbEntity
  8
0
  6
Continuous
 62
     7
100
AcDbLine
 10
-308.065673828125
 20
159.9450836181641
 30
0.0
 11
-301.1383972167969
 21
166.8723754882813
 31
0.0
  0
LINE
  5
1C7
330
22
100
AcDbEntity
  8
0
  6
Continuous
 62
     7
100
AcDbLine
 10
-307.0685424804688
 20
159.5279846191406
 30
0.0
 11
-301.1654052734375
 21
165.4311370849609
 31
0.0
  0
LINE
  5
1C8
330
22
100
AcDbEntity
  8
0
  6
Continuous
 62
     7
100
AcDbLine
 10
-305.6543273925781
 20
159.5279846191406
 30
0.0
 11
-303.2226257324219
 21
161.9597015380859
 31
0.0
  0
LINE
  5
1C9
330
22
100
AcDbEntity
  8
0
  6
Continuous
 62
     7
100
AcDbLine
 10
-372.2823486328125
 20
160.5278472900391
 30
0.0
 11
-371.2656860351563
 21
159.5279846191406
 31
0.0
  0
LINE
  5
1CA
330
22
100
AcDbEntity
  8
0
  6
Continuous
 62
     7
100
AcDbLine
 10
-374.3489990234375
 20
164.5268859863281
 30
0.0
 11
-372.315673828125
 21
162.5271606445313
 31
0.0
  0
LINE
  5
1CB
330
22
100
AcDbEntity
  8
0
  6
Continuous
 62
     7
100
AcDbLine
 10
-367.9000854492188
 20
92.52799224853516
 30
0.0
 11
-367.9000854492188
 21
124.4279937744141
 31
0.0
  0
LINE
  5
1CC
330
22
100
AcDbEntity
  8
0
  6
Continuous
 62
     7
100
AcDbLine
 10
-366.0000915527344
 20
122.5279922485352
 30
0.0
 11
-366.0000915527344
 21
92.52799224853516
 31
0.0
  0
LINE
  5
1CD
330
22
100
AcDbEntity
  8
0
  6
Continuous
 62
     7
100
AcDbLine
 10
-366.0000915527344
 20
122.5279922485352
 30
0.0
 11
-368.0156860351563
 21
124.543586730957
 31
0.0
  0
LINE
  5
1CE
330
22
100
AcDbEntity
  8
0
  6
Continuous
 62
     7
100
AcDbLine
 10
-373.9005432128906
 20
43.02799224853515
 30
0.0
 11
-371.7656860351563
 21
43.02799224853515
 31
0.0
  0
LINE
  5
1CF
330
22
100
AcDbEntity
  8
0
  6
Continuous
 62
     7
100
AcDbLine
 10
-371.7656860351563
 20
58.02799224853515
 30
0.0
 11
-371.7656860351563
 21
31.52799034118652
 31
0.0
  0
LINE
  5
1D0
330
22
100
AcDbEntity
  8
0
  6
Continuous
 62
     7
100
AcDbLine
 10
-376.7656860351563
 20
59.02799224853516
 30
0.0
 11
-372.7656860351563
 21
59.02799224853516
 31
0.0
  0
LINE
  5
1D1
330
22
100
AcDbEntity
  8
0
  6
Continuous
 62
     7
100
AcDbLine
 10
-420.7656860351563
 20
59.52799224853515
 30
0.0
 11
-420.7656860351563
 21
60.52799224853515
 31
0.0
  0
LINE
  5
1D2
330
22
100
AcDbEntity
  8
0
  6
Continuous
 62
     7
100
AcDbLine
 10
-386.7656860351563
 20
59.02799224853516
 30
0.0
 11
-386.7656860351563
 21
57.50067520141602
 31
0.0
  0
LINE
  5
1D3
330
22
100
AcDbEntity
  8
0
  6
Continuous
 62
     7
100
AcDbLine
 10
-420.2656860351563
 20
59.02799224853516
 30
0.0
 11
-376.7656860351563
 21
59.02799224853516
 31
0.0
  0
LINE
  5
1D4
330
22
100
AcDbEntity
  8
0
  6
Continuous
 62
     7
100
AcDbLine
 10
-418.7656860351562
 20
62.52799224853515
 30
0.0
 11
-375.7656860351563
 21
62.52799224853515
 31
0.0
  0
LINE
  5
1D5
330
22
100
AcDbEntity
  8
0
  6
Continuous
 62
     7
100
AcDbLine
 10
-366.1934814453125
 20
154.1303558349609
 30
0.0
 11
-337.7656860351563
 21
154.1303558349609
 31
0.0
  0
LINE
  5
1D6
330
22
100
AcDbEntity
  8
0
  6
Continuous
 62
     7
100
AcDbLine
 10
-370.7656860351563
 20
30.52799034118652
 30
0.0
 11
-304.7656860351563
 21
30.52799034118652
 31
0.0
  0
LINE
  5
1D7
330
22
100
AcDbEntity
  8
0
  6
Continuous
 62
     7
100
AcDbLine
 10
-374.7990112304688
 20
188.5274353027344
 30
0.0
 11
-374.3489990234375
 21
164.5268859863281
 31
0.0
  0
LINE
  5
1D8
330
22
100
AcDbEntity
  8
0
  6
Continuous
 62
     7
100
AcDbLine
 10
-372.8051452636719
 20
188.8964080810547
 30
0.0
 11
-372.2823486328125
 21
160.5278472900391
 31
0.0
  0
LINE
  5
1D9
330
22
100
AcDbEntity
  8
0
  6
Continuous
 62
     7
100
AcDbLine
 10
-341.9844360351563
 20
162.5278472900391
 30
0.0
 11
-342.4844360351563
 21
203.5278472900391
 31
0.0
  0
LINE
  5
1DA
330
22
100
AcDbEntity
  8
0
  6
Continuous
 62
     7
100
AcDbLine
 10
-311.0020751953125
 20
181.7293853759766
 30
0.0
 11
-310.9778137207031
 21
181.7051086425781
 31
0.0
  0
LINE
  5
1DB
330
22
100
AcDbEntity
  8
0
  6
Continuous
 62
     7
100
AcDbLine
 10
-312.6328430175781
 20
201.7646789550781
 30
0.0
 11
-311.0018920898438
 21
181.7273254394531
 31
0.0
  0
LINE
  5
1DC
330
22
100
AcDbEntity
  8
0
  6
Continuous
 62
     7
100
AcDbLine
 10
-300.7323608398438
 20
188.5274353027344
 30
0.0
 11
-301.182373046875
 21
164.5268859863281
 31
0.0
  0
LINE
  5
1DD
330
22
100
AcDbEntity
  8
0
  6
Continuous
 62
     7
100
AcDbLine
 10
-307.7656860351563
 20
179.3279876708984
 30
0.0
 11
-307.7656860351563
 21
193.3497924804688
 31
0.0
  0
LINE
  5
1DE
330
22
100
AcDbEntity
  8
0
  6
Continuous
 62
     7
100
AcDbLine
 10
-308.3656921386719
 20
181.5279846191406
 30
0.0
 11
-310.7856750488281
 21
181.5279846191406
 31
0.0
  0
LINE
  5
1DF
330
22
100
AcDbEntity
  8
0
  6
Continuous
 62
     7
100
AcDbLine
 10
-307.8656921386719
 20
190.02978515625
 30
0.0
 11
-307.8656921386719
 21
182.0279846191406
 31
0.0
  0
LINE
  5
1E0
330
22
100
AcDbEntity
  8
0
  6
Continuous
 62
     7
100
AcDbLine
 10
-310.7856750488281
 20
181.5279846191406
 30
0.0
 11
-311.0018920898438
 21
181.7273254394531
 31
0.0
  0
LINE
  5
1E1
330
22
100
AcDbEntity
  8
0
  6
Continuous
 62
     7
100
AcDbLine
 10
-337.7656860351563
 20
172.5279846191406
 30
0.0
 11
-309.9128112792969
 21
172.5279846191406
 31
0.0
  0
LINE
  5
1E2
330
22
100
AcDbEntity
  8
0
  6
Continuous
 62
     7
100
AcDbLine
 10
-296.2656860351563
 20
208.5279846191406
 30
0.0
 11
-337.7601013183594
 21
208.5279846191406
 31
0.0
  0
LINE
  5
1E3
330
22
100
AcDbEntity
  8
0
  6
Continuous
 62
     7
100
AcDbLine
 10
-335.5150146484375
 20
206.5331726074219
 30
0.0
 11
-334.5208435058594
 21
207.5273590087891
 31
0.0
  0
LINE
  5
1E4
330
22
100
AcDbEntity
  8
0
  6
Continuous
 62
     7
100
AcDbLine
 10
-334.2605895996094
 20
205.6662902832031
 30
0.0
 11
-332.3988952636719
 21
207.5279846191406
 31
0.0
  0
LINE
  5
1E5
330
22
100
AcDbEntity
  8
0
  6
Continuous
 62
     7
100
AcDbLine
 10
-332.1392517089844
 20
205.6662902832031
 30
0.0
 11
-330.2775573730469
 21
207.5279846191406
 31
0.0
  0
LINE
  5
1E6
330
22
100
AcDbEntity
  8
0
  6
Continuous
 62
     7
100
AcDbLine
 10
-330.0179443359375
 20
205.6662902832031
 30
0.0
 11
-328.15625
 21
207.5279846191406
 31
0.0
  0
LINE
  5
1E7
330
22
100
AcDbEntity
  8
0
  6
Continuous
 62
     7
100
AcDbLine
 10
-337.7656860351563
 20
197.9185485839844
 30
0.0
 11
-337.15625
 21
198.5279846191406
 31
0.0
  0
LINE
  5
1E8
330
22
100
AcDbEntity
  8
0
  6
Continuous
 62
     7
100
AcDbLine
 10
-329.7656860351563
 20
203.7972259521484
 30
0.0
 11
-326.034912109375
 21
207.5279846191406
 31
0.0
  0
LINE
  5
1E9
330
22
100
AcDbEntity
  8
0
  6
Continuous
 62
     7
100
AcDbLine
 10
-337.7656860351563
 20
195.7972259521484
 30
0.0
 11
-335.034912109375
 21
198.5279846191406
 31
0.0
  0
LINE
  5
1EA
330
22
100
AcDbEntity
  8
0
  6
Continuous
 62
     7
100
AcDbLine
 10
-329.7656860351563
 20
201.6759185791016
 30
0.0
 11
-323.9136047363281
 21
207.5279846191406
 31
0.0
  0
LINE
  5
1EB
330
22
100
AcDbEntity
  8
0
  6
Continuous
 62
     7
100
AcDbLine
 10
-337.7656860351563
 20
193.6759185791016
 30
0.0
 11
-332.9136047363281
 21
198.5279846191406
 31
0.0
  0
LINE
  5
1EC
330
22
100
AcDbEntity
  8
0
  6
Continuous
 62
     7
100
AcDbLine
 10
-329.7656860351563
 20
199.5545959472656
 30
0.0
 11
-321.7922668457031
 21
207.5279846191406
 31
0.0
  0
LINE
  5
1ED
330
22
100
AcDbEntity
  8
0
  6
Continuous
 62
     7
100
AcDbLine
 10
-337.7656860351563
 20
191.5545959472656
 30
0.0
 11
-330.7922668457031
 21
198.5279846191406
 31
0.0
  0
LINE
  5
1EE
330
22
100
AcDbEntity
  8
0
  6
Continuous
 62
     7
100
AcDbLine
 10
-331.0494384765625
 20
196.1495056152344
 30
0.0
 11
-319.6709594726563
 21
207.5279846191406
 31
0.0
  0
LINE
  5
1EF
330
22
100
AcDbEntity
  8
0
  6
Continuous
 62
     7
100
AcDbLine
 10
-337.7656860351563
 20
189.4332733154297
 30
0.0
 11
-333.7377319335938
 21
193.4612274169922
 31
0.0
  0
LINE
  5
1F0
330
22
100
AcDbEntity
  8
0
  6
Continuous
 62
     7
100
AcDbLine
 10
-328.9001770019531
 20
196.1774597167969
 30
0.0
 11
-317.9158325195313
 21
207.1618041992188
 31
0.0
  0
LINE
  5
1F1
330
22
100
AcDbEntity
  8
0
  6
Continuous
 62
     7
100
AcDbLine
 10
-337.7656860351563
 20
187.3119506835938
 30
0.0
 11
-333.7656860351563
 21
191.3119506835938
 31
0.0
  0
LINE
  5
1F2
330
22
100
AcDbEntity
  8
0
  6
Continuous
 62
     7
100
AcDbLine
 10
-326.7788696289063
 20
196.1774597167969
 30
0.0
 11
-318.46728515625
 21
204.4890289306641
 31
0.0
  0
LINE
  5
1F3
330
22
100
AcDbEntity
  8
0
  6
Continuous
 62
     7
100
AcDbLine
 10
-337.7656860351563
 20
185.1906280517578
 30
0.0
 11
-333.7656860351563
 21
189.1906280517578
 31
0.0
  0
LINE
  5
1F4
330
22
100
AcDbEntity
  8
0
  6
Continuous
 62
     7
100
AcDbLine
 10
-324.6754150390625
 20
196.1595764160156
 30
0.0
 11
-319.1040344238281
 21
201.73095703125
 31
0.0
  0
LINE
  5
1F5
330
22
100
AcDbEntity
  8
0
  6
Continuous
 62
     7
100
AcDbLine
 10
-337.7656860351563
 20
183.0693054199219
 30
0.0
 11
-333.7656860351563
 21
187.0693054199219
 31
0.0
  0
LINE
  5
1F6
330
22
100
AcDbEntity
  8
0
  6
Continuous
 62
     7
100
AcDbLine
 10
-320.1862182617188
 20
198.5274505615234
 30
0.0
 11
-319.7407836914063
 21
198.9728851318359
 31
0.0
  0
LINE
  5
1F7
330
22
100
AcDbEntity
  8
0
  6
Continuous
 62
     7
100
AcDbLine
 10
-323.75927734375
 20
194.9544067382813
 30
0.0
 11
-321.7652893066406
 21
196.9483947753906
 31
0.0
  0
LINE
  5
1F8
330
22
100
AcDbEntity
  8
0
  6
Continuous
 62
     7
100
AcDbLine
 10
-337.7656860351563
 20
180.947998046875
 30
0.0
 11
-333.7656860351563
 21
184.947998046875
 31
0.0
  0
LINE
  5
1F9
330
22
100
AcDbEntity
  8
0
  6
Continuous
 62
     7
100
AcDbLine
 10
-322.9109802246094
 20
193.6813812255859
 30
0.0
 11
-320.5643615722656
 21
196.0279846191406
 31
0.0
  0
LINE
  5
1FA
330
22
100
AcDbEntity
  8
0
  6
Continuous
 62
     7
100
AcDbLine
 10
-337.7656860351563
 20
178.8266754150391
 30
0.0
 11
-333.7656860351563
 21
182.8266754150391
 31
0.0
  0
LINE
  5
1FB
330
22
100
AcDbEntity
  8
0
  6
Continuous
 62
     7
100
AcDbLine
 10
-320.9430236816406
 20
193.5279846191406
 30
0.0
 11
-319.8652648925781
 21
194.6057586669922
 31
0.0
  0
LINE
  5
1FC
330
22
100
AcDbEntity
  8
0
  6
Continuous
 62
     7
100
AcDbLine
 10
-337.4430236816406
 20
177.0279846191406
 30
0.0
 11
-333.7656860351563
 21
180.7053527832031
 31
0.0
  0
LINE
  5
1FD
330
22
100
AcDbEntity
  8
0
  6
Continuous
 62
     7
100
AcDbLine
 10
-337.7656860351563
 20
176.7053527832031
 30
0.0
 11
-337.4430236816406
 21
177.0279846191406
 31
0.0
  0
LINE
  5
1FE
330
22
100
AcDbEntity
  8
0
  6
Continuous
 62
     7
100
AcDbLine
 10
-335.3217163085938
 20
177.0279846191406
 30
0.0
 11
-333.7656860351563
 21
178.5840301513672
 31
0.0
  0
LINE
  5
1FF
330
22
100
AcDbEntity
  8
0
  6
Continuous
 62
     7
100
AcDbLine
 10
-337.7656860351563
 20
174.5840301513672
 30
0.0
 11
-335.3217163085938
 21
177.0279846191406
 31
0.0
  0
LINE
  5
200
330
22
100
AcDbEntity
  8
0
  6
Continuous
 62
     7
100
AcDbLine
 10
-336.7004089355469
 20
173.5279846191406
 30
0.0
 11
-333.2004089355469
 21
177.0279846191406
 31
0.0
  0
LINE
  5
201
330
22
100
AcDbEntity
  8
0
  6
Continuous
 62
     7
100
AcDbLine
 10
-334.5790710449219
 20
173.5279846191406
 30
0.0
 11
-331.7656860351563
 21
176.3413848876953
 31
0.0
  0
LINE
  5
202
330
22
100
AcDbEntity
  8
0
  6
Continuous
 62
     7
100
AcDbLine
 10
-332.457763671875
 20
173.5279846191406
 30
0.0
 11
-331.7656860351563
 21
174.2200622558594
 31
0.0
  0
LINE
  5
203
330
22
100
AcDbEntity
  8
0
  6
Continuous
 62
     7
100
AcDbLine
 10
-335.3037719726563
 20
205.6837615966797
 30
0.0
 11
-333.4595336914063
 21
207.5279846191406
 31
0.0
  0
LINE
  5
204
330
22
100
AcDbEntity
  8
0
  6
Continuous
 62
     7
100
AcDbLine
 10
-333.1999206542969
 20
205.6662902832031
 30
0.0
 11
-331.3382263183594
 21
207.5279846191406
 31
0.0
  0
LINE
  5
205
330
22
100
AcDbEntity
  8
0
  6
Continuous
 62
     7
100
AcDbLine
 10
-331.0785827636719
 20
205.6662902832031
 30
0.0
 11
-329.2168884277344
 21
207.5279846191406
 31
0.0
  0
LINE
  5
206
330
22
100
AcDbEntity
  8
0
  6
Continuous
 62
     7
100
AcDbLine
 10
-329.7684936523438
 20
204.8550872802734
 30
0.0
 11
-327.0955810546875
 21
207.5279846191406
 31
0.0
  0
LINE
  5
207
330
22
100
AcDbEntity
  8
0
  6
Continuous
 62
     7
100
AcDbLine
 10
-337.7656860351563
 20
196.8578948974609
 30
0.0
 11
-336.0955810546875
 21
198.5279846191406
 31
0.0
  0
LINE
  5
208
330
22
100
AcDbEntity
  8
0
  6
Continuous
 62
     7
100
AcDbLine
 10
-329.7656860351563
 20
202.736572265625
 30
0.0
 11
-324.9742736816406
 21
207.5279846191406
 31
0.0
  0
LINE
  5
209
330
22
100
AcDbEntity
  8
0
  6
Continuous
 62
     7
100
AcDbLine
 10
-337.7656860351563
 20
194.736572265625
 30
0.0
 11
-333.9742736816406
 21
198.5279846191406
 31
0.0
  0
LINE
  5
20A
330
22
100
AcDbEntity
  8
0
  6
Continuous
 62
     7
100
AcDbLine
 10
-329.7656860351563
 20
200.6152496337891
 30
0.0
 11
-322.8529357910156
 21
207.5279846191406
 31
0.0
  0
LINE
  5
20B
330
22
100
AcDbEntity
  8
0
  6
Continuous
 62
     7
100
AcDbLine
 10
-337.7656860351563
 20
192.6152496337891
 30
0.0
 11
-331.8529357910156
 21
198.5279846191406
 31
0.0
  0
LINE
  5
20C
330
22
100
AcDbEntity
  8
0
  6
Continuous
 62
     7
100
AcDbLine
 10
-337.7656860351563
 20
190.4939270019531
 30
0.0
 11
-320.7316284179688
 21
207.5279846191406
 31
0.0
  0
LINE
  5
20D
330
22
100
AcDbEntity
  8
0
  6
Continuous
 62
     7
100
AcDbLine
 10
-329.9608459472656
 20
196.1774597167969
 30
0.0
 11
-318.6102905273438
 21
207.5279846191406
 31
0.0
  0
LINE
  5
20E
330
22
100
AcDbEntity
  8
0
  6
Continuous
 62
     7
100
AcDbLine
 10
-337.7656860351563
 20
188.3726043701171
 30
0.0
 11
-333.7656860351563
 21
192.3726043701172
 31
0.0
  0
LINE
  5
20F
330
22
100
AcDbEntity
  8
0
  6
Continuous
 62
     7
100
AcDbLine
 10
-327.8395080566406
 20
196.1774597167969
 30
0.0
 11
-318.1488952636719
 21
205.8680725097656
 31
0.0
  0
LINE
  5
210
330
22
100
AcDbEntity
  8
0
  6
Continuous
 62
     7
100
AcDbLine
 10
-337.7656860351563
 20
186.2512969970703
 30
0.0
 11
-333.7656860351563
 21
190.2512969970703
 31
0.0
  0
LINE
  5
211
330
22
100
AcDbEntity
  8
0
  6
Continuous
 62
     7
100
AcDbLine
 10
-325.7182006835938
 20
196.1774597167969
 30
0.0
 11
-318.78564453125
 21
203.1100006103516
 31
0.0
  0
LINE
  5
212
330
22
100
AcDbEntity
  8
0
  6
Continuous
 62
     7
100
AcDbLine
 10
-337.7656860351563
 20
184.1299743652344
 30
0.0
 11
-333.7656860351563
 21
188.1299743652344
 31
0.0
  0
LINE
  5
213
330
22
100
AcDbEntity
  8
0
  6
Continuous
 62
     7
100
AcDbLine
 10
-321.2468872070313
 20
198.5274505615234
 30
0.0
 11
-319.4223937988281
 21
200.3519287109375
 31
0.0
  0
LINE
  5
214
330
22
100
AcDbEntity
  8
0
  6
Continuous
 62
     7
100
AcDbLine
 10
-323.99072265625
 20
195.7836151123047
 30
0.0
 11
-321.7652893066406
 21
198.0090484619141
 31
0.0
  0
LINE
  5
215
330
22
100
AcDbEntity
  8
0
  6
Continuous
 62
     7
100
AcDbLine
 10
-337.7656860351563
 20
182.0086517333984
 30
0.0
 11
-333.7656860351563
 21
186.0086517333984
 31
0.0
  0
LINE
  5
216
330
22
100
AcDbEntity
  8
0
  6
Continuous
 62
     7
100
AcDbLine
 10
-323.4893493652344
 20
194.1636810302734
 30
0.0
 11
-321.6250305175781
 21
196.0279846191406
 31
0.0
  0
LINE
  5
217
330
22
100
AcDbEntity
  8
0
  6
Continuous
 62
     7
100
AcDbLine
 10
-337.7656860351563
 20
179.8873291015625
 30
0.0
 11
-333.7656860351563
 21
183.8873291015625
 31
0.0
  0
LINE
  5
218
330
22
100
AcDbEntity
  8
0
  6
Continuous
 62
     7
100
AcDbLine
 10
-322.0036926269531
 20
193.5279846191406
 30
0.0
 11
-319.8652648925781
 21
195.6664123535156
 31
0.0
  0
LINE
  5
219
330
22
100
AcDbEntity
  8
0
  6
Continuous
 62
     7
100
AcDbLine
 10
-337.7656860351563
 20
177.7660064697266
 30
0.0
 11
-333.7656860351563
 21
181.7660064697266
 31
0.0
  0
LINE
  5
21A
330
22
100
AcDbEntity
  8
0
  6
Continuous
 62
     7
100
AcDbLine
 10
-336.3823852539063
 20
177.0279846191406
 30
0.0
 11
-333.7656860351563
 21
179.6446838378906
 31
0.0
  0
LINE
  5
21B
330
22
100
AcDbEntity
  8
0
  6
Continuous
 62
     7
100
AcDbLine
 10
-337.7656860351563
 20
175.6446838378906
 30
0.0
 11
-336.3823852539063
 21
177.0279846191406
 31
0.0
  0
LINE
  5
21C
330
22
100
AcDbEntity
  8
0
  6
Continuous
 62
     7
100
AcDbLine
 10
-334.2610473632813
 20
177.0279846191406
 30
0.0
 11
-333.7656860351563
 21
177.5233764648438
 31
0.0
  0
LINE
  5
21D
330
22
100
AcDbEntity
  8
0
  6
Continuous
 62
     7
100
AcDbLine
 10
-337.7610473632813
 20
173.5279846191406
 30
0.0
 11
-334.2610473632813
 21
177.0279846191406
 31
0.0
  0
LINE
  5
21E
330
22
100
AcDbEntity
  8
0
  6
Continuous
 62
     7
100
AcDbLine
 10
-335.6397399902344
 20
173.5279846191406
 30
0.0
 11
-332.1397399902344
 21
177.0279846191406
 31
0.0
  0
LINE
  5
21F
330
22
100
AcDbEntity
  8
0
  6
Continuous
 62
     7
100
AcDbLine
 10
-333.5184326171875
 20
173.5279846191406
 30
0.0
 11
-331.7656860351563
 21
175.2807312011719
 31
0.0
  0
LINE
  5
220
330
22
100
AcDbEntity
  8
0
  6
Continuous
 62
     7
100
AcDbLine
 10
-337.7656860351563
 20
177.0279846191406
 30
0.0
 11
-331.7656860351563
 21
177.0279846191406
 31
0.0
  0
LINE
  5
221
330
22
100
AcDbEntity
  8
0
  6
Continuous
 62
     7
100
AcDbLine
 10
-331.7656860351563
 20
173.5279846191406
 30
0.0
 11
-337.7656860351563
 21
173.5279846191406
 31
0.0
  0
LINE
  5
222
330
22
100
AcDbEntity
  8
0
  6
Continuous
 62
     7
100
AcDbLine
 10
-329.7656860351563
 20
198.5279846191406
 30
0.0
 11
-337.7656860351563
 21
198.5279846191406
 31
0.0
  0
LINE
  5
223
330
22
100
AcDbEntity
  8
0
  6
Continuous
 62
     7
100
AcDbLine
 10
-334.5156860351563
 20
207.5279846191406
 30
0.0
 11
-337.7656860351563
 21
207.5279846191406
 31
0.0
  0
LINE
  5
224
330
22
100
AcDbEntity
  8
0
  6
Continuous
 62
     7
100
AcDbLine
 10
-337.7656860351563
 20
72.52799224853515
 30
0.0
 11
-309.5312805175781
 21
72.52799224853515
 31
0.0
  0
LINE
  5
225
330
22
100
AcDbEntity
  8
0
  6
Continuous
 62
     7
100
AcDbLine
 10
-310.2489318847656
 20
56.52799224853516
 30
0.0
 11
-337.7656860351563
 21
56.52799224853516
 31
0.0
  0
LINE
  5
226
330
22
100
AcDbEntity
  8
0
  6
Continuous
 62
     7
100
AcDbLine
 10
-309.4838562011719
 20
32.0461540222168
 30
0.0
 11
-337.7656860351563
 21
32.0461540222168
 31
0.0
  0
LINE
  5
227
330
22
100
AcDbEntity
  8
0
  6
Continuous
 62
     7
100
AcDbLine
 10
-307.9656677246094
 20
62.52799224853515
 30
0.0
 11
-337.7656860351563
 21
62.52799224853515
 31
0.0
  0
LINE
  5
228
330
22
100
AcDbEntity
  8
0
  6
Continuous
 62
     7
100
AcDbLine
 10
-337.7656860351563
 20
63.77799224853515
 30
0.0
 11
-309.4356689453125
 21
63.77799224853515
 31
0.0
  0
LINE
  5
229
330
22
100
AcDbEntity
  8
0
  6
Continuous
 62
     7
100
AcDbLine
 10
-308.8227844238281
 20
57.95413970947265
 30
0.0
 11
-337.7656860351563
 21
57.95413970947265
 31
0.0
  0
LINE
  5
22A
330
22
100
AcDbEntity
  8
0
  6
Continuous
 62
     7
100
AcDbLine
 10
-337.7656860351563
 20
159.5279846191406
 30
0.0
 11
-371.2656860351563
 21
159.5279846191406
 31
0.0
  0
LINE
  5
22B
330
22
100
AcDbEntity
  8
0
  6
Continuous
 62
     7
100
AcDbLine
 10
-372.2823486328125
 20
160.5278472900391
 30
0.0
 11
-337.7656860351563
 21
160.5278472900391
 31
0.0
  0
LINE
  5
22C
330
22
100
AcDbEntity
  8
0
  6
Continuous
 62
     7
100
AcDbLine
 10
-374.8485107421875
 20
203.634521484375
 30
0.0
 11
-337.7656860351563
 21
203.634521484375
 31
0.0
  0
LINE
  5
22D
330
22
100
AcDbEntity
  8
0
  6
Continuous
 62
     7
100
AcDbLine
 10
-369.7656860351563
 20
92.52799224853516
 30
0.0
 11
-337.7656860351563
 21
92.52799224853516
 31
0.0
  0
LINE
  5
22E
330
22
100
AcDbEntity
  8
0
  6
Continuous
 62
     7
100
AcDbLine
 10
-337.7656860351563
 20
122.5279922485352
 30
0.0
 11
-366.0000915527344
 21
122.5279922485352
 31
0.0
  0
LINE
  5
22F
330
22
100
AcDbEntity
  8
0
  6
Continuous
 62
     7
100
AcDbLine
 10
-375.7656860351563
 20
62.52799224853515
 30
0.0
 11
-337.7656860351563
 21
62.52799224853515
 31
0.0
  0
LINE
  5
230
330
22
100
AcDbEntity
  8
0
  6
Continuous
 62
     7
100
AcDbLine
 10
-372.7656860351563
 20
59.02799224853516
 30
0.0
 11
-337.7656860351563
 21
59.02799224853516
 31
0.0
  0
LINE
  5
231
330
22
100
AcDbEntity
  8
0
  6
Continuous
 62
     7
100
AcDbLine
 10
-379.2656860351563
 20
204.5279846191406
 30
0.0
 11
-337.7656860351563
 21
204.5279846191406
 31
0.0
  0
LINE
  5
232
330
22
100
AcDbEntity
  8
0
  6
Continuous
 62
     7
100
AcDbLine
 10
-379.2656860351563
 20
208.5279846191406
 30
0.0
 11
-337.7601013183594
 21
208.5279846191406
 31
0.0
  0
LINE
  5
233
330
22
100
AcDbEntity
  8
0
  6
Continuous
 62
     7
100
AcDbLine
 10
-335.5156860351563
 20
206.5279846191406
 30
0.0
 11
-335.5156860351563
 21
204.5279846191406
 31
0.0
  0
LINE
  5
234
330
22
100
AcDbEntity
  8
0
  6
Continuous
 62
     7
100
AcDbLine
 10
-310.7856750488281
 20
181.5279846191406
 30
0.0
 11
-333.7656860351563
 21
181.5279846191406
 31
0.0
  0
LINE
  5
235
330
22
100
AcDbEntity
  8
0
  6
Continuous
 62
     7
100
AcDbLine
 10
-305.804443359375
 20
207.5239410400391
 30
0.0
 11
-305.3745422363281
 21
207.0940246582031
 31
0.0
  0
LINE
  5
236
330
22
100
AcDbEntity
  8
0
  6
Continuous
 62
     7
100
AcDbLine
 10
-306.8691711425781
 20
207.5279846191406
 30
0.0
 11
-305.5060424804688
 21
206.1648559570314
 31
0.0
  0
LINE
  5
237
330
22
100
AcDbEntity
  8
0
  6
Continuous
 62
     7
100
AcDbLine
 10
-307.2227172851563
 20
207.5279846191406
 30
0.0
 11
-305.5590209960938
 21
205.8643035888672
 31
0.0
  0
LINE
  5
238
330
22
100
AcDbEntity
  8
0
  6
Continuous
 62
     7
100
AcDbLine
 10
-308.2833862304688
 20
207.5279846191406
 30
0.0
 11
-305.718017578125
 21
204.9626312255859
 31
0.0
  0
LINE
  5
239
330
22
100
AcDbEntity
  8
0
  6
Continuous
 62
     7
100
AcDbLine
 10
-308.6369323730469
 20
207.5279846191406
 30
0.0
 11
-305.7710266113281
 21
204.6620788574219
 31
0.0
  0
LINE
  5
23A
330
22
100
AcDbEntity
  8
0
  6
Continuous
 62
     7
100
AcDbLine
 10
-309.6976013183594
 20
207.5279846191406
 30
0.0
 11
-305.9299926757813
 21
203.7604064941406
 31
0.0
  0
LINE
  5
23B
330
22
100
AcDbEntity
  8
0
  6
Continuous
 62
     7
100
AcDbLine
 10
-310.0511474609375
 20
207.5279846191406
 30
0.0
 11
-305.9830017089844
 21
203.4598388671875
 31
0.0
  0
LINE
  5
23C
330
22
100
AcDbEntity
  8
0
  6
Continuous
 62
     7
100
AcDbLine
 10
-311.11181640625
 20
207.5279846191406
 30
0.0
 11
-306.1419982910156
 21
202.5581817626953
 31
0.0
  0
LINE
  5
23D
330
22
100
AcDbEntity
  8
0
  6
Continuous
 62
     7
100
AcDbLine
 10
-311.4653625488281
 20
207.5279846191406
 30
0.0
 11
-306.1949768066406
 21
202.2576141357422
 31
0.0
  0
LINE
  5
23E
330
22
100
AcDbEntity
  8
0
  6
Continuous
 62
     7
100
AcDbLine
 10
-312.5260314941406
 20
207.5279846191406
 30
0.0
 11
-306.3539733886719
 21
201.3559417724609
 31
0.0
  0
LINE
  5
23F
330
22
100
AcDbEntity
  8
0
  6
Continuous
 62
     7
100
AcDbLine
 10
-312.8795776367188
 20
207.5279846191406
 30
0.0
 11
-306.406982421875
 21
201.0553894042969
 31
0.0
  0
LINE
  5
240
330
22
100
AcDbEntity
  8
0
  6
Continuous
 62
     7
100
AcDbLine
 10
-313.9402465820313
 20
207.5279846191406
 30
0.0
 11
-306.5659484863281
 21
200.1537170410156
 31
0.0
  0
LINE
  5
241
330
22
100
AcDbEntity
  8
0
  6
Continuous
 62
     7
100
AcDbLine
 10
-314.2937927246094
 20
207.5279846191406
 30
0.0
 11
-306.6189575195313
 21
199.8531646728516
 31
0.0
  0
LINE
  5
242
330
22
100
AcDbEntity
  8
0
  6
Continuous
 62
     7
100
AcDbLine
 10
-315.3544616699219
 20
207.5279846191406
 30
0.0
 11
-306.7779541015625
 21
198.9514923095703
 31
0.0
  0
LINE
  5
243
330
22
100
AcDbEntity
  8
0
  6
Continuous
 62
     7
100
AcDbLine
 10
-315.7080078125
 20
207.5279846191406
 30
0.0
 11
-306.8309326171875
 21
198.6509399414063
 31
0.0
  0
LINE
  5
244
330
22
100
AcDbEntity
  8
0
  6
Continuous
 62
     7
100
AcDbLine
 10
-316.7686767578125
 20
207.5279846191406
 30
0.0
 11
-306.9899291992188
 21
197.749267578125
 31
0.0
  0
LINE
  5
245
330
22
100
AcDbEntity
  8
0
  6
Continuous
 62
     7
100
AcDbLine
 10
-317.1222229003906
 20
207.5279846191406
 30
0.0
 11
-307.0429382324219
 21
197.4486999511719
 31
0.0
  0
LINE
  5
246
330
22
100
AcDbEntity
  8
0
  6
Continuous
 62
     7
100
AcDbLine
 10
-312.6864013671875
 20
202.0315246582031
 30
0.0
 11
-307.201904296875
 21
196.5470275878906
 31
0.0
  0
LINE
  5
247
330
22
100
AcDbEntity
  8
0
  6
Continuous
 62
     7
100
AcDbLine
 10
-317.8406372070313
 20
207.1857604980469
 30
0.0
 11
-313.7417297363281
 21
203.0868377685547
 31
0.0
  0
LINE
  5
248
330
22
100
AcDbEntity
  8
0
  6
Continuous
 62
     7
100
AcDbLine
 10
-312.6204223632813
 20
201.6119842529297
 30
0.0
 11
-307.2549133300781
 21
196.2464752197266
 31
0.0
  0
LINE
  5
249
330
22
100
AcDbEntity
  8
0
  6
Continuous
 62
     7
100
AcDbLine
 10
-317.9102478027344
 20
206.9018096923828
 30
0.0
 11
-314.1513061523438
 21
203.1428833007813
 31
0.0
  0
LINE
  5
24A
330
22
100
AcDbEntity
  8
0
  6
Continuous
 62
     7
100
AcDbLine
 10
-312.5264282226563
 20
200.4573364257813
 30
0.0
 11
-307.4139099121094
 21
195.3448028564453
 31
0.0
  0
LINE
  5
24B
330
22
100
AcDbEntity
  8
0
  6
Continuous
 62
     7
100
AcDbLine
 10
-318.1091918945313
 20
206.0400848388672
 30
0.0
 11
-315.0459594726563
 21
202.9768676757814
 31
0.0
  0
LINE
  5
24C
330
22
100
AcDbEntity
  8
0
  6
Continuous
 62
     7
100
AcDbLine
 10
-312.4951171875
 20
200.0724639892578
 30
0.0
 11
-307.4668884277344
 21
195.0442504882813
 31
0.0
  0
LINE
  5
24D
330
22
100
AcDbEntity
  8
0
  6
Continuous
 62
     7
100
AcDbLine
 10
-318.1755065917969
 20
205.7528533935547
 30
0.0
 11
-315.265625
 21
202.8429870605469
 31
0.0
  0
LINE
  5
24E
330
22
100
AcDbEntity
  8
0
  6
Continuous
 62
     7
100
AcDbLine
 10
-312.401123046875
 20
198.9178161621094
 30
0.0
 11
-307.6258850097656
 21
194.142578125
 31
0.0
  0
LINE
  5
24F
330
22
100
AcDbEntity
  8
0
  6
Continuous
 62
     7
100
AcDbLine
 10
-318.3744506835938
 20
204.8911285400391
 30
0.0
 11
-315.7311706542969
 21
202.2478790283203
 31
0.0
  0
LINE
  5
250
330
22
100
AcDbEntity
  8
0
  6
Continuous
 62
     7
100
AcDbLine
 10
-312.3698120117188
 20
198.5329437255859
 30
0.0
 11
-307.6788940429688
 21
193.8420257568359
 31
0.0
  0
LINE
  5
251
330
22
100
AcDbEntity
  8
0
  6
Continuous
 62
     7
100
AcDbLine
 10
-318.4407653808594
 20
204.6038970947266
 30
0.0
 11
-315.81982421875
 21
201.9829406738281
 31
0.0
  0
LINE
  5
252
330
22
100
AcDbEntity
  8
0
  6
Continuous
 62
     7
100
AcDbLine
 10
-312.2758178710938
 20
197.3782958984375
 30
0.0
 11
-307.7656860351563
 21
192.8681488037109
 31
0.0
  0
LINE
  5
253
330
22
100
AcDbEntity
  8
0
  6
Continuous
 62
     7
100
AcDbLine
 10
-318.6397094726563
 20
203.7421722412109
 30
0.0
 11
-315.9235534667969
 21
201.0260314941406
 31
0.0
  0
LINE
  5
254
330
22
100
AcDbEntity
  8
0
  6
Continuous
 62
     7
100
AcDbLine
 10
-312.2445068359375
 20
196.993408203125
 30
0.0
 11
-307.9032592773438
 21
192.6521759033203
 31
0.0
  0
LINE
  5
255
330
22
100
AcDbEntity
  8
0
  6
Continuous
 62
     7
100
AcDbLine
 10
-318.7060241699219
 20
203.4549407958984
 30
0.0
 11
-315.9510498046875
 21
200.6999664306641
 31
0.0
  0
LINE
  5
256
330
22
100
AcDbEntity
  8
0
  6
Continuous
 62
     7
100
AcDbLine
 10
-312.1505126953125
 20
195.8387756347656
 30
0.0
 11
-308.8415222167969
 21
192.52978515625
 31
0.0
  0
LINE
  5
257
330
22
100
AcDbEntity
  8
0
  6
Continuous
 62
     7
100
AcDbLine
 10
-318.9049682617188
 20
202.5932159423828
 30
0.0
 11
-316.0335388183594
 21
199.7218017578125
 31
0.0
  0
LINE
  5
258
330
22
100
AcDbEntity
  8
0
  6
Continuous
 62
     7
100
AcDbLine
 10
-312.1191711425781
 20
195.4538879394531
 30
0.0
 11
-309.195068359375
 21
192.52978515625
 31
0.0
  0
LINE
  5
259
330
22
100
AcDbEntity
  8
0
  6
Continuous
 62
     7
100
AcDbLine
 10
-318.9712829589844
 20
202.3059844970703
 30
0.0
 11
-316.06103515625
 21
199.3957366943359
 31
0.0
  0
LINE
  5
25A
330
22
100
AcDbEntity
  8
0
  6
Continuous
 62
     7
100
AcDbLine
 10
-312.0252075195313
 20
194.2992401123047
 30
0.0
 11
-309.7656860351563
 21
192.0397338867188
 31
0.0
  0
LINE
  5
25B
330
22
100
AcDbEntity
  8
0
  6
Continuous
 62
     7
100
AcDbLine
 10
-319.1702270507813
 20
201.4442596435547
 30
0.0
 11
-316.1435241699219
 21
198.4175720214844
 31
0.0
  0
LINE
  5
25C
330
22
100
AcDbEntity
  8
0
  6
Continuous
 62
     7
100
AcDbLine
 10
-308.1092834472656
 20
190.02978515625
 30
0.0
 11
-307.8656921386719
 21
189.7861785888672
 31
0.0
  0
LINE
  5
25D
330
22
100
AcDbEntity
  8
0
  6
Continuous
 62
     7
100
AcDbLine
 10
-311.9938659667969
 20
193.9143676757813
 30
0.0
 11
-309.7656860351563
 21
191.6861724853516
 31
0.0
  0
LINE
  5
25E
330
22
100
AcDbEntity
  8
0
  6
Continuous
 62
     7
100
AcDbLine
 10
-319.2365417480469
 20
201.1570281982422
 30
0.0
 11
-316.1710205078125
 21
198.0915069580078
 31
0.0
  0
LINE
  5
25F
330
22
100
AcDbEntity
  8
0
  6
Continuous
 62
     7
100
AcDbLine
 10
-309.1699523925781
 20
190.02978515625
 30
0.0
 11
-307.8656921386719
 21
188.7255096435547
 31
0.0
  0
LINE
  5
260
330
22
100
AcDbEntity
  8
0
  6
Continuous
 62
     7
100
AcDbLine
 10
-311.89990234375
 20
192.7597198486328
 30
0.0
 11
-309.7656860351563
 21
190.6255187988281
 31
0.0
  0
LINE
  5
261
330
22
100
AcDbEntity
  8
0
  6
Continuous
 62
     7
100
AcDbLine
 10
-319.4354858398438
 20
200.2953033447266
 30
0.0
 11
-316.2535095214844
 21
197.1133422851563
 31
0.0
  0
LINE
  5
262
330
22
100
AcDbEntity
  8
0
  6
Continuous
 62
     7
100
AcDbLine
 10
-309.5234985351563
 20
190.02978515625
 30
0.0
 11
-307.8656921386719
 21
188.3719635009766
 31
0.0
  0
LINE
  5
263
330
22
100
AcDbEntity
  8
0
  6
Continuous
 62
     7
100
AcDbLine
 10
-311.8685607910156
 20
192.3748474121094
 30
0.0
 11
-309.7656860351563
 21
190.2719573974609
 31
0.0
  0
LINE
  5
264
330
22
100
AcDbEntity
  8
0
  6
Continuous
 62
     7
100
AcDbLine
 10
-319.5018005371094
 20
200.0080718994141
 30
0.0
 11
-316.281005859375
 21
196.7872772216797
 31
0.0
  0
LINE
  5
265
330
22
100
AcDbEntity
  8
0
  6
Continuous
 62
     7
100
AcDbLine
 10
-311.7745666503906
 20
191.2201995849609
 30
0.0
 11
-307.8656921386719
 21
187.3112945556641
 31
0.0
  0
LINE
  5
266
330
22
100
AcDbEntity
  8
0
  6
Continuous
 62
     7
100
AcDbLine
 10
-319.7007446289063
 20
199.1463470458984
 30
0.0
 11
-316.3634948730469
 21
195.8090972900391
 31
0.0
  0
LINE
  5
267
330
22
100
AcDbEntity
  8
0
  6
Continuous
 62
     7
100
AcDbLine
 10
-311.7432556152344
 20
190.8353271484375
 30
0.0
 11
-307.8656921386719
 21
186.9577484130859
 31
0.0
  0
LINE
  5
268
330
22
100
AcDbEntity
  8
0
  6
Continuous
 62
     7
100
AcDbLine
 10
-319.7670593261719
 20
198.8591156005859
 30
0.0
 11
-316.3909912109375
 21
195.4830474853516
 31
0.0
  0
LINE
  5
269
330
22
100
AcDbEntity
  8
0
  6
Continuous
 62
     7
100
AcDbLine
 10
-311.6492614746094
 20
189.6806793212891
 30
0.0
 11
-307.8656921386719
 21
185.8970794677734
 31
0.0
  0
LINE
  5
26A
330
22
100
AcDbEntity
  8
0
  6
Continuous
 62
     7
100
AcDbLine
 10
-319.76708984375
 20
197.7984924316406
 30
0.0
 11
-316.4734802246094
 21
194.5048675537109
 31
0.0
  0
LINE
  5
26B
330
22
100
AcDbEntity
  8
0
  6
Continuous
 62
     7
100
AcDbLine
 10
-311.6179504394531
 20
189.2957916259766
 30
0.0
 11
-307.8656921386719
 21
185.5435333251953
 31
0.0
  0
LINE
  5
26C
330
22
100
AcDbEntity
  8
0
  6
Continuous
 62
     7
100
AcDbLine
 10
-319.76708984375
 20
197.4449462890625
 30
0.0
 11
-316.5009765625
 21
194.1788177490234
 31
0.0
  0
LINE
  5
26D
330
22
100
AcDbEntity
  8
0
  6
Continuous
 62
     7
100
AcDbLine
 10
-311.5239562988281
 20
188.1411590576172
 30
0.0
 11
-307.8656921386719
 21
184.4828796386719
 31
0.0
  0
LINE
  5
26E
330
22
100
AcDbEntity
  8
0
  6
Continuous
 62
     7
100
AcDbLine
 10
-319.76708984375
 20
196.38427734375
 30
0.0
 11
-316.5834350585938
 21
193.2006378173828
 31
0.0
  0
LINE
  5
26F
330
22
100
AcDbEntity
  8
0
  6
Continuous
 62
     7
100
AcDbLine
 10
-311.4926452636719
 20
187.7562713623047
 30
0.0
 11
-307.8656921386719
 21
184.1293182373047
 31
0.0
  0
LINE
  5
270
330
22
100
AcDbEntity
  8
0
  6
Continuous
 62
     7
100
AcDbLine
 10
-319.76708984375
 20
196.0307312011719
 30
0.0
 11
-316.6109313964844
 21
192.8745880126953
 31
0.0
  0
LINE
  5
271
330
22
100
AcDbEntity
  8
0
  6
Continuous
 62
     7
100
AcDbLine
 10
-311.3986511230469
 20
186.6016235351563
 30
0.0
 11
-307.8656921386719
 21
183.0686645507813
 31
0.0
  0
LINE
  5
272
330
22
100
AcDbEntity
  8
0
  6
Continuous
 62
     7
100
AcDbLine
 10
-319.76708984375
 20
194.9700622558594
 30
0.0
 11
-316.6934204101563
 21
191.8964080810546
 31
0.0
  0
LINE
  5
273
330
22
100
AcDbEntity
  8
0
  6
Continuous
 62
     7
100
AcDbLine
 10
-311.3673095703125
 20
186.2167510986328
 30
0.0
 11
-307.8656921386719
 21
182.7151031494141
 31
0.0
  0
LINE
  5
274
330
22
100
AcDbEntity
  8
0
  6
Continuous
 62
     7
100
AcDbLine
 10
-319.76708984375
 20
194.6165161132813
 30
0.0
 11
-316.7209167480469
 21
191.5703582763672
 31
0.0
  0
LINE
  5
275
330
22
100
AcDbEntity
  8
0
  6
Continuous
 62
     7
100
AcDbLine
 10
-311.2733459472656
 20
185.0621032714844
 30
0.0
 11
-307.9614868164063
 21
181.750244140625
 31
0.0
  0
LINE
  5
276
330
22
100
AcDbEntity
  8
0
  6
Continuous
 62
     7
100
AcDbLine
 10
-319.76708984375
 20
193.5558471679688
 30
0.0
 11
-316.9182434082031
 21
190.7070159912109
 31
0.0
  0
LINE
  5
277
330
22
100
AcDbEntity
  8
0
  6
Continuous
 62
     7
100
AcDbLine
 10
-311.2420043945313
 20
184.6772308349609
 30
0.0
 11
-308.1482543945313
 21
181.5834808349609
 31
0.0
  0
LINE
  5
278
330
22
100
AcDbEntity
  8
0
  6
Continuous
 62
     7
100
AcDbLine
 10
-319.76708984375
 20
193.2023010253906
 30
0.0
 11
-317.0372009277344
 21
190.4723968505859
 31
0.0
  0
LINE
  5
279
330
22
100
AcDbEntity
  8
0
  6
Continuous
 62
     7
100
AcDbLine
 10
-311.1480407714844
 20
183.5225830078125
 30
0.0
 11
-309.1534423828125
 21
181.5279846191406
 31
0.0
  0
LINE
  5
27A
330
22
100
AcDbEntity
  8
0
  6
Continuous
 62
     7
100
AcDbLine
 10
-320.1534423828125
 20
192.5279846191406
 30
0.0
 11
-317.5449829101563
 21
189.9195404052734
 31
0.0
  0
LINE
  5
27B
330
22
100
AcDbEntity
  8
0
  6
Continuous
 62
     7
100
AcDbLine
 10
-311.11669921875
 20
183.1376953125
 30
0.0
 11
-309.5069885253906
 21
181.5279846191406
 31
0.0
  0
LINE
  5
27C
330
22
100
AcDbEntity
  8
0
  6
Continuous
 62
     7
100
AcDbLine
 10
-320.5069885253906
 20
192.5279846191406
 30
0.0
 11
-317.7653198242188
 21
189.7863311767578
 31
0.0
  0
LINE
  5
27D
330
22
100
AcDbEntity
  8
0
  6
Continuous
 62
     7
100
AcDbLine
 10
-311.022705078125
 20
181.9830627441406
 30
0.0
 11
-310.5676574707031
 21
181.5279846191406
 31
0.0
  0
LINE
  5
27E
330
22
100
AcDbEntity
  8
0
  6
Continuous
 62
     7
100
AcDbLine
 10
-321.5676574707031
 20
192.5279846191406
 30
0.0
 11
-318.5777587890625
 21
189.5381164550781
 31
0.0
  0
LINE
  5
27F
330
22
100
AcDbEntity
  8
0
  6
Continuous
 62
     7
100
AcDbLine
 10
-321.6856689453125
 20
192.2924652099609
 30
0.0
 11
-318.9212036132813
 21
189.5279846191406
 31
0.0
  0
LINE
  5
280
330
22
100
AcDbEntity
  8
0
  6
Continuous
 62
     7
100
AcDbLine
 10
-321.6856689453125
 20
191.2318115234375
 30
0.0
 11
-319.9818725585938
 21
189.5279846191406
 31
0.0
  0
LINE
  5
281
330
22
100
AcDbEntity
  8
0
  6
Continuous
 62
     7
100
AcDbLine
 10
-321.6856689453125
 20
190.8782501220703
 30
0.0
 11
-320.3354187011719
 21
189.5279846191406
 31
0.0
  0
LINE
  5
282
330
22
100
AcDbEntity
  8
0
  6
Continuous
 62
     7
100
AcDbLine
 10
-321.6856689453125
 20
189.8175964355469
 30
0.0
 11
-321.3960876464844
 21
189.5279846191406
 31
0.0
  0
LINE
  5
283
330
22
100
AcDbEntity
  8
0
  6
Continuous
 62
     7
100
AcDbLine
 10
-331.4671325683594
 20
192.5279846191406
 30
0.0
 11
-330.4856872558594
 21
191.5465240478516
 31
0.0
  0
LINE
  5
284
330
22
100
AcDbEntity
  8
0
  6
Continuous
 62
     7
100
AcDbLine
 10
-331.8207092285156
 20
192.5279846191406
 30
0.0
 11
-330.4856872558594
 21
191.1929626464844
 31
0.0
  0
LINE
  5
285
330
22
100
AcDbEntity
  8
0
  6
Continuous
 62
     7
100
AcDbLine
 10
-332.88134765625
 20
192.5279846191406
 30
0.0
 11
-330.4856872558594
 21
190.1323089599609
 31
0.0
  0
LINE
  5
286
330
22
100
AcDbEntity
  8
0
  6
Continuous
 62
     7
100
AcDbLine
 10
-332.9856872558594
 20
192.2787628173828
 30
0.0
 11
-330.4856872558594
 21
189.7787628173828
 31
0.0
  0
LINE
  5
287
330
22
100
AcDbEntity
  8
0
  6
Continuous
 62
     7
100
AcDbLine
 10
-332.9856872558594
 20
191.2180938720703
 30
0.0
 11
-331.0788269042969
 21
189.3112487792969
 31
0.0
  0
LINE
  5
288
330
22
100
AcDbEntity
  8
0
  6
Continuous
 62
     7
100
AcDbLine
 10
-332.9856872558594
 20
190.8645477294922
 30
0.0
 11
-331.2582397460938
 21
189.1371154785156
 31
0.0
  0
LINE
  5
289
330
22
100
AcDbEntity
  8
0
  6
Continuous
 62
     7
100
AcDbLine
 10
-332.9856872558594
 20
189.8038787841796
 30
0.0
 11
-331.5253295898438
 21
188.3435211181641
 31
0.0
  0
LINE
  5
28A
330
22
100
AcDbEntity
  8
0
  6
Continuous
 62
     7
100
AcDbLine
 10
-332.9856872558594
 20
189.4503326416016
 30
0.0
 11
-331.6798095703125
 21
188.1444702148438
 31
0.0
  0
LINE
  5
28B
330
22
100
AcDbEntity
  8
0
  6
Continuous
 62
     7
100
AcDbLine
 10
-332.9856872558594
 20
188.3896636962891
 30
0.0
 11
-332.6239929199219
 21
188.0279846191406
 31
0.0
  0
LINE
  5
28C
330
22
100
AcDbEntity
  8
0
  6
Continuous
 62
     7
100
AcDbLine
 10
-332.9856872558594
 20
188.0361175537109
 30
0.0
 11
-332.9775695800781
 21
188.0279846191406
 31
0.0
  0
LINE
  5
28D
330
22
100
AcDbEntity
  8
0
  6
Continuous
 62
     7
100
AcDbLine
 10
-332.9856872558594
 20
188.1566467285156
 30
0.0
 11
-333.7656860351563
 21
188.1566467285156
 31
0.0
  0
LINE
  5
28E
330
22
100
AcDbEntity
  8
0
  6
Continuous
 62
     7
100
AcDbLine
 10
-332.9856872558594
 20
192.5279846191406
 30
0.0
 11
-333.7656860351563
 21
192.5279846191406
 31
0.0
  0
LINE
  5
28F
330
22
100
AcDbEntity
  8
0
  6
Continuous
 62
     7
100
AcDbLine
 10
-332.9856872558594
 20
192.5279846191406
 30
0.0
 11
-319.76708984375
 21
192.5279846191406
 31
0.0
  0
LINE
  5
290
330
22
100
AcDbEntity
  8
0
  6
Continuous
 62
     7
100
AcDbLine
 10
-332.9856872558594
 20
188.1566467285156
 30
0.0
 11
-332.8570251464844
 21
188.0279846191406
 31
0.0
  0
LINE
  5
291
330
22
100
AcDbEntity
  8
0
  6
Continuous
 62
     7
100
AcDbLine
 10
-332.9856872558594
 20
188.0279846191406
 30
0.0
 11
-332.9856872558594
 21
192.5279846191406
 31
0.0
  0
LINE
  5
292
330
22
100
AcDbEntity
  8
0
  6
Continuous
 62
     7
100
AcDbLine
 10
-331.9856872558594
 20
188.0279846191406
 30
0.0
 11
-332.9856872558594
 21
188.0279846191406
 31
0.0
  0
LINE
  5
293
330
22
100
AcDbEntity
  8
0
  6
Continuous
 62
     7
100
AcDbLine
 10
-333.7656860351563
 20
177.0279846191406
 30
0.0
 11
-333.7656860351563
 21
193.1774597167969
 31
0.0
  0
LINE
  5
294
330
22
100
AcDbEntity
  8
0
  6
Continuous
 62
     7
100
AcDbLine
 10
-327.7656860351563
 20
177.5279846191406
 30
0.0
 11
-333.7656860351563
 21
177.5279846191406
 31
0.0
  0
LINE
  5
295
330
22
100
AcDbEntity
  8
0
  6
Continuous
 62
     7
100
AcDbLine
 10
-334.5156860351563
 20
207.5279846191406
 30
0.0
 11
-318.3942565917969
 21
207.5279846191406
 31
0.0
  0
LINE
  5
296
330
22
100
AcDbEntity
  8
0
  6
Continuous
 62
     7
100
AcDbLine
 10
-335.4773864746094
 20
205.6662902832031
 30
0.0
 11
-329.7684936523438
 21
205.6662902832031
 31
0.0
  0
LINE
  5
297
330
22
100
AcDbEntity
  8
0
  6
Continuous
 62
     7
100
AcDbLine
 10
-335.5156860351563
 20
204.5279846191406
 30
0.0
 11
-329.7656860351563
 21
204.5279846191406
 31
0.0
  0
LINE
  5
298
330
22
100
AcDbEntity
  8
0
  6
Continuous
 62
     7
100
AcDbLine
 10
-337.7656860351563
 20
162.5278472900391
 30
0.0
 11
-341.9844360351563
 21
162.5278472900391
 31
0.0
  0
LINE
  5
299
330
22
100
AcDbEntity
  8
0
  6
Continuous
 62
     7
100
AcDbLine
 10
-342.0100402832031
 20
164.5268859863281
 30
0.0
 11
-337.7773132324219
 21
164.5268859863281
 31
0.0
  0
CIRCLE
  5
29A
330
22
100
AcDbEntity
  8
0
  6
Continuous
 62
     7
100
AcDbCircle
 10
-337.7656860351563
 20
314.0279846191406
 30
0.0
 40
32.5
  0
CIRCLE
  5
29B
330
22
100
AcDbEntity
  8
0
  6
Continuous
 62
     7
100
AcDbCircle
 10
-337.7656860351563
 20
314.0279846191406
 30
0.0
 40
42.5
  0
CIRCLE
  5
29C
330
22
100
AcDbEntity
  8
0
  6
Continuous
 62
     7
100
AcDbCircle
 10
-337.7656860351563
 20
314.0279846191406
 30
0.0
 40
40.49999999999999
  0
CIRCLE
  5
29D
330
22
100
AcDbEntity
  8
0
  6
Continuous
 62
     7
100
AcDbCircle
 10
-337.7656860351563
 20
314.0279846191406
 30
0.0
 40
83.0
  0
CIRCLE
  5
29E
330
22
100
AcDbEntity
  8
0
  6
Continuous
 62
     7
100
AcDbCircle
 10
-337.7656860351563
 20
314.0279846191406
 30
0.0
 40
66.25240325927734
  0
CIRCLE
  5
29F
330
22
100
AcDbEntity
  8
0
  6
Continuous
 62
     7
100
AcDbCircle
 10
-337.7656860351563
 20
314.0279846191406
 30
0.0
 40
20.0
  0
ARC
  5
2A0
330
22
100
AcDbEntity
  8
0
  6
Continuous
 62
     7
100
AcDbCircle
 10
-337.7656860351563
 20
314.0279846191406
 30
0.0
 40
4.449999809265136
100
AcDbArc
 50
213.4053052279186
 51
326.5946947720828
  0
ARC
  5
2A1
330
22
100
AcDbEntity
  8
0
  6
Continuous
 62
     7
100
AcDbCircle
 10
-337.7656860351563
 20
314.0279846191406
 30
0.0
 40
4.449999809265136
100
AcDbArc
 50
33.40563324174365
 51
146.5943667582564
  0
ARC
  5
2A2
330
22
100
AcDbEntity
  8
0
  6
Continuous
 62
     7
100
AcDbCircle
 10
-324.7652893066406
 20
195.1774597167969
 30
0.0
 40
1.0
100
AcDbArc
 50
0.0
 51
90.00000000000019
  0
ARC
  5
2A3
330
22
100
AcDbEntity
  8
0
  6
Continuous
 62
     7
100
AcDbCircle
 10
-322.2652893066406
 20
195.0279846191406
 30
0.0
 40
1.5
100
AcDbArc
 50
180.0000000000004
 51
270.0000000000005
  0
ARC
  5
2A4
330
22
100
AcDbEntity
  8
0
  6
Continuous
 62
     7
100
AcDbCircle
 10
-317.3679504394531
 20
207.0279846191406
 30
0.0
 40
0.5
100
AcDbArc
 50
90.00000000000019
 51
166.9985682107812
  0
ARC
  5
2A5
330
22
100
AcDbEntity
  8
0
  6
Continuous
 62
     7
100
AcDbCircle
 10
-314.1278991699219
 20
201.6429901123047
 30
0.0
 40
1.5
100
AcDbArc
 50
4.653284038258425
 51
90.00000000000019
  0
ARC
  5
2A6
330
22
100
AcDbEntity
  8
0
  6
Continuous
 62
     7
100
AcDbCircle
 10
-314.3662109375
 20
201.6429901123047
 30
0.0
 40
1.5
100
AcDbArc
 50
90.00000000000019
 51
175.1800176292403
  0
ARC
  5
2A7
330
22
100
AcDbEntity
  8
0
  6
Continuous
 62
     7
100
AcDbCircle
 10
-318.3942565917969
 20
207.0279846191406
 30
0.0
 40
0.5
100
AcDbArc
 50
347.0002719250225
 51
90.00000000000019
  0
ARC
  5
2A8
330
22
100
AcDbEntity
  8
0
  6
Continuous
 62
     7
100
AcDbCircle
 10
-297.6073303222656
 20
207.9279937744141
 30
0.0
 40
0.4000000059604645
100
AcDbArc
 50
270.0000000000005
 51
343.3983106911117
  0
ARC
  5
2A9
330
22
100
AcDbEntity
  8
0
  6
Continuous
 62
     7
100
AcDbCircle
 10
-296.2656860351563
 20
207.5279846191406
 30
0.0
 40
1.0
100
AcDbArc
 50
0.0
 51
90.00000000000019
  0
ARC
  5
2AA
330
22
100
AcDbEntity
  8
0
  6
Continuous
 62
     7
100
AcDbCircle
 10
-296.2656860351563
 20
207.5279846191406
 30
0.0
 40
1.0
100
AcDbArc
 50
90.00000000000019
 51
163.3980608993143
  0
ARC
  5
2AB
330
22
100
AcDbEntity
  8
0
  6
Continuous
 62
     7
100
AcDbCircle
 10
-295.7656860351563
 20
205.0279846191406
 30
0.0
 40
0.5
100
AcDbArc
 50
270.0000000000005
 51
0.0
  0
ARC
  5
2AC
330
22
100
AcDbEntity
  8
0
  6
Continuous
 62
     7
100
AcDbCircle
 10
-305.8615417480469
 20
207.0279846191406
 30
0.0
 40
0.5
100
AcDbArc
 50
350.0001234095527
 51
90.00000000000019
  0
CIRCLE
  5
2AD
330
22
100
AcDbEntity
  8
0
  6
Continuous
 62
     7
100
AcDbCircle
 10
-308.7656860351563
 20
191.27978515625
 30
0.0
 40
1.0
  0
CIRCLE
  5
2AE
330
22
100
AcDbEntity
  8
0
  6
Continuous
 62
     7
100
AcDbCircle
 10
-320.7652893066406
 20
197.2279968261719
 30
0.0
 40
1.0
  0
ARC
  5
2AF
330
22
100
AcDbEntity
  8
0
  6
Continuous
 62
     7
100
AcDbCircle
 10
-331.9856872558594
 20
188.5279846191406
 30
0.0
 40
0.5
100
AcDbArc
 50
270.0000000000005
 51
0.0
  0
ARC
  5
2B0
330
22
100
AcDbEntity
  8
0
  6
Continuous
 62
     7
100
AcDbCircle
 10
-330.4856872558594
 20
188.5279846191406
 30
0.0
 40
1.0
100
AcDbArc
 50
90.00000000000019
 51
180.0000000000004
  0
ARC
  5
2B1
330
22
100
AcDbEntity
  8
0
  6
Continuous
 62
     7
100
AcDbCircle
 10
-304.8461303710938
 20
207.0279846191406
 30
0.0
 40
0.5
100
AcDbArc
 50
90.00000000000019
 51
169.9984014433889
  0
ARC
  5
2B2
330
22
100
AcDbEntity
  8
0
  6
Continuous
 62
     7
100
AcDbCircle
 10
-318.7315979003906
 20
191.5279846191406
 30
0.0
 40
2.0
100
AcDbArc
 50
270.0000000000005
 51
355.1801628252177
  0
ARC
  5
2B3
330
22
100
AcDbEntity
  8
0
  6
Continuous
 62
     7
100
AcDbCircle
 10
-320.3652648925781
 20
194.0279846191406
 30
0.0
 40
0.5
100
AcDbArc
 50
270.0000000000005
 51
0.0
  0
ARC
  5
2B4
330
22
100
AcDbEntity
  8
0
  6
Continuous
 62
     7
100
AcDbCircle
 10
-304.7656860351563
 20
31.52799034118652
 30
0.0
 40
1.0
100
AcDbArc
 50
270.0000000000005
 51
0.0
  0
ARC
  5
2B5
330
22
100
AcDbEntity
  8
0
  6
Continuous
 62
     7
100
AcDbCircle
 10
-302.7656860351563
 20
58.02799224853515
 30
0.0
 40
1.0
100
AcDbArc
 50
90.00000000000019
 51
180.0000000000004
  0
ARC
  5
2B6
330
22
100
AcDbEntity
  8
0
  6
Continuous
 62
     7
100
AcDbCircle
 10
-299.7656860351563
 20
67.52799224853515
 30
0.0
 40
5.0
100
AcDbArc
 50
180.0000000000004
 51
270.0000000000005
  0
ARC
  5
2B7
330
22
100
AcDbEntity
  8
0
  6
Continuous
 62
     7
100
AcDbCircle
 10
-305.7656860351563
 20
91.52799224853515
 30
0.0
 40
1.0
100
AcDbArc
 50
0.0
 51
90.00000000000019
  0
ARC
  5
2B8
330
22
100
AcDbEntity
  8
0
  6
Continuous
 62
     7
100
AcDbCircle
 10
-255.2656860351564
 20
59.52799224853515
 30
0.0
 40
0.5
100
AcDbArc
 50
270.0000000000005
 51
0.0
  0
ARC
  5
2B9
330
22
100
AcDbEntity
  8
0
  6
Continuous
 62
     7
100
AcDbCircle
 10
-256.7656860351563
 20
60.52799224853515
 30
0.0
 40
2.0
100
AcDbArc
 50
0.0
 51
90.00000000000019
  0
ARC
  5
2BA
330
22
100
AcDbEntity
  8
0
  6
Continuous
 62
     7
100
AcDbCircle
 10
-375.7656860351563
 20
67.52799224853515
 30
0.0
 40
5.0
100
AcDbArc
 50
270.0000000000005
 51
0.0
  0
ARC
  5
2BB
330
22
100
AcDbEntity
  8
0
  6
Continuous
 62
     7
100
AcDbCircle
 10
-375.8428344726563
 20
203.5279846191406
 30
0.0
 40
1.0
100
AcDbArc
 50
6.115627748566157
 51
90.00000000000019
  0
ARC
  5
2BC
330
22
100
AcDbEntity
  8
0
  6
Continuous
 62
     7
100
AcDbCircle
 10
-379.7656860351563
 20
205.0279846191406
 30
0.0
 40
0.5
100
AcDbArc
 50
180.0000000000004
 51
270.0000000000005
  0
ARC
  5
2BD
330
22
100
AcDbEntity
  8
0
  6
Continuous
 62
     7
100
AcDbCircle
 10
-379.2656860351563
 20
207.5279846191406
 30
0.0
 40
1.0
100
AcDbArc
 50
90.00000000000019
 51
180.0000000000004
  0
ARC
  5
2BE
330
22
100
AcDbEntity
  8
0
  6
Continuous
 62
     7
100
AcDbCircle
 10
-308.565673828125
 20
179.3279876708984
 30
0.0
 40
0.8000000119209291
100
AcDbArc
 50
270.0000000000005
 51
0.0
  0
ARC
  5
2BF
330
22
100
AcDbEntity
  8
0
  6
Continuous
 62
     7
100
AcDbCircle
 10
-369.7656860351563
 20
91.52799224853515
 30
0.0
 40
1.0
100
AcDbArc
 50
90.00000000000019
 51
180.0000000000004
  0
ARC
  5
2C0
330
22
100
AcDbEntity
  8
0
  6
Continuous
 62
     7
100
AcDbCircle
 10
-373.9005432128906
 20
45.02799224853515
 30
0.0
 40
2.0
100
AcDbArc
 50
191.9480262139504
 51
270.0000000000005
  0
ARC
  5
2C1
330
22
100
AcDbEntity
  8
0
  6
Continuous
 62
     7
100
AcDbCircle
 10
-372.7656860351563
 20
58.02799224853515
 30
0.0
 40
1.0
100
AcDbArc
 50
0.0
 51
90.00000000000019
  0
ARC
  5
2C2
330
22
100
AcDbEntity
  8
0
  6
Continuous
 62
     7
100
AcDbCircle
 10
-370.7656860351563
 20
31.52799034118652
 30
0.0
 40
1.0
100
AcDbArc
 50
180.0000000000004
 51
270.0000000000005
  0
ARC
  5
2C3
330
22
100
AcDbEntity
  8
0
  6
Continuous
 62
     7
100
AcDbCircle
 10
-420.2656860351563
 20
59.52799224853515
 30
0.0
 40
0.5
100
AcDbArc
 50
180.0000000000004
 51
270.0000000000005
  0
ARC
  5
2C4
330
22
100
AcDbEntity
  8
0
  6
Continuous
 62
     7
100
AcDbCircle
 10
-418.7656860351562
 20
60.52799224853515
 30
0.0
 40
2.0
100
AcDbArc
 50
90.00000000000019
 51
180.0000000000004
  0
ARC
  5
2C5
330
22
100
AcDbEntity
  8
0
  6
Continuous
 62
     7
100
AcDbCircle
 10
-384.7656860351563
 20
57.50067520141602
 30
0.0
 40
2.0
100
AcDbArc
 50
180.0000000000004
 51
250.1716586432256
  0
ARC
  5
2C6
330
22
100
AcDbEntity
  8
0
  6
Continuous
 62
     7
100
AcDbCircle
 10
-390.5322570800781
 20
41.50859069824218
 30
0.0
 40
15.0
100
AcDbArc
 50
11.94797794892698
 51
70.1711953003312
  0
ARC
  5
2C7
330
22
100
AcDbEntity
  8
0
  6
Continuous
 62
     7
100
AcDbCircle
 10
-308.3656921386719
 20
182.0279846191406
 30
0.0
 40
0.5
100
AcDbArc
 50
270.0000000000005
 51
0.0
  0
ARC
  5
2C8
330
22
100
AcDbEntity
  8
0
  6
Continuous
 62
     7
100
AcDbCircle
 10
-330.7656860351563
 20
193.1774597167969
 30
0.0
 40
3.0
100
AcDbArc
 50
90.00000000000019
 51
180.0000000000004
  0
ARC
  5
2C9
330
22
100
AcDbEntity
  8
0
  6
Continuous
 62
     7
100
AcDbCircle
 10
-334.5156860351563
 20
206.5279846191406
 30
0.0
 40
1.0
100
AcDbArc
 50
90.00000000000019
 51
180.0000000000004
  0
TEXT
  5
2CA
330
22
100
AcDbEntity
  8
0
  6
Continuous
 62
     7
100
AcDbText
 10
-298.6423273086548
 20
17.39823913574219
 30
0.0
 40
7.0
  1
ＤＬ－ＣＨ－５０
 41
0.8454512837995997
100
AcDbText
  0
SOLID
  5
2CB
330
22
100
AcDbEntity
  8
0
  6
Continuous
 62
     7
100
AcDbTrace
 10
-320.5701904296875
 20
198.2087707519531
 30
0.0
 11
-320.9603576660156
 21
198.2087707519531
 31
0.0
 12
-320.7652893066406
 22
198.2279968261719
 32
0.0
 13
-320.7652893066406
 23
198.2279968261719
 33
0.0
  0
SOLID
  5
2CC
330
22
100
AcDbEntity
  8
0
  6
Continuous
 62
     7
100
AcDbTrace
 10
-320.7652893066406
 20
196.2279968261719
 30
0.0
 11
-320.9603576660156
 21
196.2472076416016
 31
0.0
 12
-320.5701904296875
 22
196.2472076416016
 32
0.0
 13
-320.5701904296875
 23
196.2472076416016
 33
0.0
  0
SOLID
  5
2CD
330
22
100
AcDbEntity
  8
0
  6
Continuous
 62
     7
100
AcDbTrace
 10
-320.3825988769531
 20
198.1518707275391
 30
0.0
 11
-321.14794921875
 21
198.1518707275391
 31
0.0
 12
-320.5701904296875
 22
198.2087707519531
 32
0.0
 13
-320.9603576660156
 23
198.2087707519531
 33
0.0
  0
SOLID
  5
2CE
330
22
100
AcDbEntity
  8
0
  6
Continuous
 62
     7
100
AcDbTrace
 10
-320.209716796875
 20
198.0594635009765
 30
0.0
 11
-321.3208312988281
 21
198.0594635009765
 31
0.0
 12
-320.3825988769531
 22
198.1518707275391
 32
0.0
 13
-321.14794921875
 23
198.1518707275391
 33
0.0
  0
SOLID
  5
2CF
330
22
100
AcDbEntity
  8
0
  6
Continuous
 62
     7
100
AcDbTrace
 10
-320.0581665039063
 20
197.9351043701172
 30
0.0
 11
-321.4723815917969
 21
197.9351043701172
 31
0.0
 12
-320.209716796875
 22
198.0594635009765
 32
0.0
 13
-321.3208312988281
 23
198.0594635009765
 33
0.0
  0
SOLID
  5
2D0
330
22
100
AcDbEntity
  8
0
  6
Continuous
 62
     7
100
AcDbTrace
 10
-319.9338073730469
 20
197.7835540771484
 30
0.0
 11
-321.5967407226563
 21
197.7835540771484
 31
0.0
 12
-320.0581665039063
 22
197.9351043701172
 32
0.0
 13
-321.4723815917969
 23
197.9351043701172
 33
0.0
  0
SOLID
  5
2D1
330
22
100
AcDbEntity
  8
0
  6
Continuous
 62
     7
100
AcDbTrace
 10
-319.8414001464844
 20
197.6106719970703
 30
0.0
 11
-321.6891479492188
 21
197.6106719970703
 31
0.0
 12
-319.9338073730469
 22
197.7835540771484
 32
0.0
 13
-321.5967407226563
 23
197.7835540771484
 33
0.0
  0
SOLID
  5
2D2
330
22
100
AcDbEntity
  8
0
  6
Continuous
 62
     7
100
AcDbTrace
 10
-319.7844848632813
 20
197.4230804443359
 30
0.0
 11
-321.7460632324219
 21
197.4230804443359
 31
0.0
 12
-319.8414001464844
 22
197.6106719970703
 32
0.0
 13
-321.6891479492188
 23
197.6106719970703
 33
0.0
  0
SOLID
  5
2D3
330
22
100
AcDbEntity
  8
0
  6
Continuous
 62
     7
100
AcDbTrace
 10
-319.7652893066406
 20
197.2279968261719
 30
0.0
 11
-321.7652893066406
 21
197.2279968261719
 31
0.0
 12
-319.7844848632813
 22
197.4230804443359
 32
0.0
 13
-321.7460632324219
 23
197.4230804443359
 33
0.0
  0
SOLID
  5
2D4
330
22
100
AcDbEntity
  8
0
  6
Continuous
 62
     7
100
AcDbTrace
 10
-319.7844848632813
 20
197.0328979492188
 30
0.0
 11
-321.7460632324219
 21
197.0328979492188
 31
0.0
 12
-319.7652893066406
 22
197.2279968261719
 32
0.0
 13
-321.7652893066406
 23
197.2279968261719
 33
0.0
  0
SOLID
  5
2D5
330
22
100
AcDbEntity
  8
0
  6
Continuous
 62
     7
100
AcDbTrace
 10
-319.8414001464844
 20
196.8453063964844
 30
0.0
 11
-321.6891479492188
 21
196.8453063964844
 31
0.0
 12
-319.7844848632813
 22
197.0328979492188
 32
0.0
 13
-321.7460632324219
 23
197.0328979492188
 33
0.0
  0
SOLID
  5
2D6
330
22
100
AcDbEntity
  8
0
  6
Continuous
 62
     7
100
AcDbTrace
 10
-319.9338073730469
 20
196.6724243164063
 30
0.0
 11
-321.5967407226563
 21
196.6724243164063
 31
0.0
 12
-319.8414001464844
 22
196.8453063964844
 32
0.0
 13
-321.6891479492188
 23
196.8453063964844
 33
0.0
  0
SOLID
  5
2D7
330
22
100
AcDbEntity
  8
0
  6
Continuous
 62
     7
100
AcDbTrace
 10
-320.0581665039063
 20
196.5208892822266
 30
0.0
 11
-321.4723815917969
 21
196.5208892822266
 31
0.0
 12
-319.9338073730469
 22
196.6724243164063
 32
0.0
 13
-321.5967407226563
 23
196.6724243164063
 33
0.0
  0
SOLID
  5
2D8
330
22
100
AcDbEntity
  8
0
  6
Continuous
 62
     7
100
AcDbTrace
 10
-320.209716796875
 20
196.3965148925781
 30
0.0
 11
-321.3208312988281
 21
196.3965148925781
 31
0.0
 12
-320.0581665039063
 22
196.5208892822266
 32
0.0
 13
-321.4723815917969
 23
196.5208892822266
 33
0.0
  0
SOLID
  5
2D9
330
22
100
AcDbEntity
  8
0
  6
Continuous
 62
     7
100
AcDbTrace
 10
-320.3825988769531
 20
196.3041076660156
 30
0.0
 11
-321.14794921875
 21
196.3041076660156
 31
0.0
 12
-320.209716796875
 22
196.3965148925781
 32
0.0
 13
-321.3208312988281
 23
196.3965148925781
 33
0.0
  0
SOLID
  5
2DA
330
22
100
AcDbEntity
  8
0
  6
Continuous
 62
     7
100
AcDbTrace
 10
-320.5701904296875
 20
196.2472076416016
 30
0.0
 11
-320.9603576660156
 21
196.2472076416016
 31
0.0
 12
-320.3825988769531
 22
196.3041076660156
 32
0.0
 13
-321.14794921875
 23
196.3041076660156
 33
0.0
  0
SOLID
  5
2DB
330
22
100
AcDbEntity
  8
0
  6
Continuous
 62
     7
100
AcDbTrace
 10
-308.5705871582031
 20
192.2605743408203
 30
0.0
 11
-308.9607849121094
 21
192.2605743408203
 31
0.0
 12
-308.7656860351563
 22
192.27978515625
 32
0.0
 13
-308.7656860351563
 23
192.27978515625
 33
0.0
  0
SOLID
  5
2DC
330
22
100
AcDbEntity
  8
0
  6
Continuous
 62
     7
100
AcDbTrace
 10
-308.7656860351563
 20
190.27978515625
 30
0.0
 11
-308.9607849121094
 21
190.2989959716797
 31
0.0
 12
-308.5705871582031
 22
190.2989959716797
 32
0.0
 13
-308.5705871582031
 23
190.2989959716797
 33
0.0
  0
SOLID
  5
2DD
330
22
100
AcDbEntity
  8
0
  6
Continuous
 62
     7
100
AcDbTrace
 10
-308.3829956054688
 20
192.2036590576172
 30
0.0
 11
-309.1483764648438
 21
192.2036590576172
 31
0.0
 12
-308.5705871582031
 22
192.2605743408203
 32
0.0
 13
-308.9607849121094
 23
192.2605743408203
 33
0.0
  0
SOLID
  5
2DE
330
22
100
AcDbEntity
  8
0
  6
Continuous
 62
     7
100
AcDbTrace
 10
-308.2101135253906
 20
192.1112518310547
 30
0.0
 11
-309.3212585449219
 21
192.1112518310547
 31
0.0
 12
-308.3829956054688
 22
192.2036590576172
 32
0.0
 13
-309.1483764648438
 23
192.2036590576172
 33
0.0
  0
SOLID
  5
2DF
330
22
100
AcDbEntity
  8
0
  6
Continuous
 62
     7
100
AcDbTrace
 10
-308.0585632324219
 20
191.9868927001953
 30
0.0
 11
-309.4727783203125
 21
191.9868927001953
 31
0.0
 12
-308.2101135253906
 22
192.1112518310547
 32
0.0
 13
-309.3212585449219
 23
192.1112518310547
 33
0.0
  0
SOLID
  5
2E0
330
22
100
AcDbEntity
  8
0
  6
Continuous
 62
     7
100
AcDbTrace
 10
-307.9342041015625
 20
191.8353576660156
 30
0.0
 11
-309.5971374511719
 21
191.8353576660156
 31
0.0
 12
-308.0585632324219
 22
191.9868927001953
 32
0.0
 13
-309.4727783203125
 23
191.9868927001953
 33
0.0
  0
SOLID
  5
2E1
330
22
100
AcDbEntity
  8
0
  6
Continuous
 62
     7
100
AcDbTrace
 10
-307.841796875
 20
191.6624755859375
 30
0.0
 11
-309.6895446777344
 21
191.6624755859375
 31
0.0
 12
-307.9342041015625
 22
191.8353576660156
 32
0.0
 13
-309.5971374511719
 23
191.8353576660156
 33
0.0
  0
SOLID
  5
2E2
330
22
100
AcDbEntity
  8
0
  6
Continuous
 62
     7
100
AcDbTrace
 10
-307.7848815917969
 20
191.4748840332031
 30
0.0
 11
-309.7464599609375
 21
191.4748840332031
 31
0.0
 12
-307.841796875
 22
191.6624755859375
 32
0.0
 13
-309.6895446777344
 23
191.6624755859375
 33
0.0
  0
SOLID
  5
2E3
330
22
100
AcDbEntity
  8
0
  6
Continuous
 62
     7
100
AcDbTrace
 10
-307.7656860351563
 20
191.27978515625
 30
0.0
 11
-309.7656860351563
 21
191.27978515625
 31
0.0
 12
-307.7848815917969
 22
191.4748840332031
 32
0.0
 13
-309.7464599609375
 23
191.4748840332031
 33
0.0
  0
SOLID
  5
2E4
330
22
100
AcDbEntity
  8
0
  6
Continuous
 62
     7
100
AcDbTrace
 10
-307.7848815917969
 20
191.0847015380859
 30
0.0
 11
-309.7464599609375
 21
191.0847015380859
 31
0.0
 12
-307.7656860351563
 22
191.27978515625
 32
0.0
 13
-309.7656860351563
 23
191.27978515625
 33
0.0
  0
SOLID
  5
2E5
330
22
100
AcDbEntity
  8
0
  6
Continuous
 62
     7
100
AcDbTrace
 10
-307.841796875
 20
190.8971099853516
 30
0.0
 11
-309.6895446777344
 21
190.8971099853516
 31
0.0
 12
-307.7848815917969
 22
191.0847015380859
 32
0.0
 13
-309.7464599609375
 23
191.0847015380859
 33
0.0
  0
SOLID
  5
2E6
330
22
100
AcDbEntity
  8
0
  6
Continuous
 62
     7
100
AcDbTrace
 10
-307.9342041015625
 20
190.7242126464844
 30
0.0
 11
-309.5971374511719
 21
190.7242126464844
 31
0.0
 12
-307.841796875
 22
190.8971099853516
 32
0.0
 13
-309.6895446777344
 23
190.8971099853516
 33
0.0
  0
SOLID
  5
2E7
330
22
100
AcDbEntity
  8
0
  6
Continuous
 62
     7
100
AcDbTrace
 10
-308.0585632324219
 20
190.5726776123047
 30
0.0
 11
-309.4727783203125
 21
190.5726776123047
 31
0.0
 12
-307.9342041015625
 22
190.7242126464844
 32
0.0
 13
-309.5971374511719
 23
190.7242126464844
 33
0.0
  0
SOLID
  5
2E8
330
22
100
AcDbEntity
  8
0
  6
Continuous
 62
     7
100
AcDbTrace
 10
-308.2101135253906
 20
190.4483184814453
 30
0.0
 11
-309.3212585449219
 21
190.4483184814453
 31
0.0
 12
-308.0585632324219
 22
190.5726776123047
 32
0.0
 13
-309.4727783203125
 23
190.5726776123047
 33
0.0
  0
SOLID
  5
2E9
330
22
100
AcDbEntity
  8
0
  6
Continuous
 62
     7
100
AcDbTrace
 10
-308.3829956054688
 20
190.3559112548828
 30
0.0
 11
-309.1483764648438
 21
190.3559112548828
 31
0.0
 12
-308.2101135253906
 22
190.4483184814453
 32
0.0
 13
-309.3212585449219
 23
190.4483184814453
 33
0.0
  0
SOLID
  5
2EA
330
22
100
AcDbEntity
  8
0
  6
Continuous
 62
     7
100
AcDbTrace
 10
-308.5705871582031
 20
190.2989959716797
 30
0.0
 11
-308.9607849121094
 21
190.2989959716797
 31
0.0
 12
-308.3829956054688
 22
190.3559112548828
 32
0.0
 13
-309.1483764648438
 23
190.3559112548828
 33
0.0
  0
DIMENSION
  5
2EB
330
22
100
AcDbEntity
  8
0
  6
Continuous
 62
     7
100
AcDbDimension
  2
*D1
 10
-330.4672546386719
 20
172.5279846191406
 30
0.0
 11
-330.4672546386719
 21
122.5279922485352
 31
0.0
 71
     5
 42
-1.0
  3
DIMSTYLE1
100
AcDbAlignedDimension
 13
-337.7656860351563
 23
72.52799224853515
 33
0.0
 14
-337.7656860351563
 24
172.5279846191406
 34
0.0
 50
90.0
100
AcDbRotatedDimension
  0
DIMENSION
  5
2EC
330
22
100
AcDbEntity
  8
0
  6
Continuous
 62
     7
100
AcDbDimension
  2
*D2
 10
-321.4219360351563
 20
122.5279922485352
 30
0.0
 11
-321.4219360351563
 21
97.52799224853516
 31
0.0
 71
     5
 42
-1.0
  3
DIMSTYLE2
100
AcDbAlignedDimension
 13
-321.3697204589844
 23
72.52799224853515
 33
0.0
 14
-309.5312805175781
 24
122.5279922485352
 34
0.0
 50
90.0
100
AcDbRotatedDimension
  0
DIMENSION
  5
2ED
330
22
100
AcDbEntity
  8
0
  6
Continuous
 62
     7
100
AcDbDimension
  2
*D3
 10
-218.5705718994141
 20
208.5279846191406
 30
0.0
 11
-218.5705718994141
 21
135.5279846191406
 31
0.0
 71
     5
 42
-1.0
  3
DIMSTYLE3
100
AcDbAlignedDimension
 13
-256.7656860351563
 23
62.52799224853515
 33
0.0
 14
-296.2656860351563
 24
208.5279846191406
 34
0.0
 50
90.0
100
AcDbRotatedDimension
  0
DIMENSION
  5
2EE
330
22
100
AcDbEntity
  8
0
  6
Continuous
 62
     7
100
AcDbDimension
  2
*D4
 10
-218.5705718994141
 20
59.02799224853516
 30
0.0
 11
-218.5705718994141
 21
49.82223892211914
 31
0.0
 71
     5
 42
-1.0
  3
DIMSTYLE4
100
AcDbAlignedDimension
 13
-216.2845764160156
 23
62.52799224853515
 33
0.0
 14
-255.2656860351564
 24
59.02799224853516
 34
0.0
 50
90.0
100
AcDbRotatedDimension
  0
DIMENSION
  5
2EF
330
22
100
AcDbEntity
  8
0
  6
Continuous
 62
     7
100
AcDbDimension
  2
*D5
 10
-232.2666625976563
 20
92.52799224853516
 30
0.0
 11
-232.2666625976563
 21
77.52799224853515
 31
0.0
 71
     5
 42
-1.0
  3
DIMSTYLE5
100
AcDbAlignedDimension
 13
-216.2845764160156
 23
62.52799224853515
 33
0.0
 14
-305.7656860351563
 24
92.52799224853516
 34
0.0
 50
90.0
100
AcDbRotatedDimension
  0
DIMENSION
  5
2F0
330
22
100
AcDbEntity
  8
0
  6
Continuous
 62
     7
100
AcDbDimension
  2
*D6
 10
-232.2666625976563
 20
159.5279846191406
 30
0.0
 11
-232.2666625976563
 21
184.0279846191406
 31
0.0
 71
     5
 42
-1.0
  3
DIMSTYLE6
100
AcDbAlignedDimension
 13
-216.2845764160156
 23
208.5279846191406
 33
0.0
 14
-304.2656860351563
 24
159.5279846191406
 34
0.0
 50
90.0
100
AcDbRotatedDimension
  0
INSERT
  5
2F1
330
22
100
AcDbEntity
  8
0
  6
Continuous
 62
     7
100
AcDbBlockReference
  2
KOZU0001
 10
-308.554931640625
 20
49.38346862792968
 30
0.0
  0
DIMENSION
  5
2F2
330
22
100
AcDbEntity
  8
0
  6
Continuous
 62
     7
100
AcDbDimension
  2
*D7
 10
-377.152086081532
 20
297.5150848751969
 30
0.0
 11
-242.4829559326172
 21
354.3008117675781
 31
0.0
 70
     3
 71
     5
 42
-1.0
  3
DIMSTYLE7
100
AcDbDiametricDimension
 15
-298.830335793468
 25
330.5408843630843
 35
0.0
 40
0.0
  0
DIMENSION
  5
2F3
330
22
100
AcDbEntity
  8
0
  6
Continuous
 62
     7
100
AcDbDimension
  2
*D8
 10
-370.2093826512307
 20
309.7572222253091
 30
0.0
 11
-233.0446166992188
 21
327.939453125
 31
0.0
 70
     3
 71
     5
 42
-1.0
  3
DIMSTYLE8
100
AcDbDiametricDimension
 15
-305.7730392237693
 25
318.2987470129721
 35
0.0
 40
0.0
  0
DIMENSION
  5
2F4
330
22
100
AcDbEntity
  8
0
  6
Continuous
 62
     7
100
AcDbDimension
  2
*D9
 10
-356.7818032022989
 20
320.8773380439597
 30
0.0
 11
-239.8879547119141
 21
278.2684020996094
 31
0.0
 70
     3
 71
     5
 42
-1.0
  3
DIMSTYLE9
100
AcDbDiametricDimension
 15
-319.2006186727011
 25
307.1786311943216
 35
0.0
 40
0.0
  0
DIMENSION
  5
2F5
330
22
100
AcDbEntity
  8
0
  6
Continuous
 62
     7
100
AcDbDimension
  2
*D10
 10
-403.5797170348033
 20
263.4561216558534
 30
0.0
 11
-256.0870056152344
 21
376.7903442382813
 31
0.0
 70
     3
 71
     5
 42
-1.0
  3
DIMSTYLE10
100
AcDbDiametricDimension
 15
-271.9516550355093
 25
364.5998475824279
 35
0.0
 40
0.0
  0
DIMENSION
  5
2F6
330
22
100
AcDbEntity
  8
0
  6
Continuous
 62
     7
100
AcDbDimension
  2
*D11
 10
-431.3561096191405
 20
30.52799034118652
 30
0.0
 11
-431.3561096191405
 21
61.52799224853516
 31
0.0
 71
     5
 42
-1.0
  3
DIMSTYLE11
100
AcDbAlignedDimension
 13
-369.7656860351563
 23
92.52799224853516
 33
0.0
 14
-370.7656860351563
 24
30.52799034118652
 34
0.0
 50
90.0
100
AcDbRotatedDimension
  0
DIMENSION
  5
2F7
330
22
100
AcDbEntity
  8
0
  6
Continuous
 62
     7
100
AcDbDimension
  2
*D12
 10
-303.7656860351563
 20
17.46335792541504
 30
0.0
 11
-337.7656860351563
 21
17.46335792541504
 31
0.0
 71
     5
 42
-1.0
  3
DIMSTYLE12
100
AcDbAlignedDimension
 13
-371.7656860351563
 23
31.52799034118652
 33
0.0
 14
-303.7656860351563
 24
31.52799034118652
 34
0.0
100
AcDbRotatedDimension
  0
DIMENSION
  5
2F8
330
22
100
AcDbEntity
  8
0
  6
Continuous
 62
     7
100
AcDbDimension
  2
*D13
 10
-386.7656860351563
 20
34.25677108764648
 30
0.0
 11
-379.2656860351563
 21
34.25677108764648
 31
0.0
 71
     5
 42
-1.0
  3
DIMSTYLE13
100
AcDbAlignedDimension
 13
-371.7656860351563
 23
31.52799034118652
 33
0.0
 14
-386.7656860351563
 24
57.50067520141602
 34
0.0
100
AcDbRotatedDimension
  0
DIMENSION
  5
2F9
330
22
100
AcDbEntity
  8
0
  6
Continuous
 62
     7
100
AcDbDimension
  2
*D14
 10
-395.1519470214844
 20
43.02799224853515
 30
0.0
 11
-395.1519470214844
 21
51.02799224853516
 31
0.0
 71
     5
 42
-1.0
  3
DIMSTYLE14
100
AcDbAlignedDimension
 13
-376.7656860351563
 23
59.02799224853516
 33
0.0
 14
-373.9005432128906
 24
43.02799224853515
 34
0.0
 50
90.0
100
AcDbRotatedDimension
  0
INSERT
  5
2FA
330
22
100
AcDbEntity
  8
0
  6
Continuous
 62
     7
100
AcDbBlockReference
  2
KOZU0002
 10
-380.3014526367188
 20
55.30472183227539
 30
0.0
  0
ENDSEC
  0
SECTION
  2
OBJECTS
  0
DICTIONARY
  5
C
330
0
100
AcDbDictionary
281
     1
  3
ACAD_COLOR
350
1B
  3
ACAD_GROUP
350
D
  3
ACAD_LAYOUT
350
19
  3
ACAD_MATERIAL
350
1A
  3
ACAD_MLINESTYLE
350
16
  3
ACAD_PLOTSETTINGS
350
18
  3
ACAD_PLOTSTYLENAME
350
E
  3
ACAD_TABLESTYLE
350
1C
  3
AcDbVariableDictionary
350
306
  0
DICTIONARY
  5
1B
102
{ACAD_REACTORS
330
C
102
}
330
C
100
AcDbDictionary
281
     1
  0
DICTIONARY
  5
D
102
{ACAD_REACTORS
330
C
102
}
330
C
100
AcDbDictionary
281
     1
  0
DICTIONARY
  5
19
102
{ACAD_REACTORS
330
C
102
}
330
C
100
AcDbDictionary
281
     1
  3
Model
350
25
  3
レイアウト1
350
21
  0
DICTIONARY
  5
1A
102
{ACAD_REACTORS
330
C
102
}
330
C
100
AcDbDictionary
281
     1
  0
DICTIONARY
  5
16
102
{ACAD_REACTORS
330
C
102
}
330
C
100
AcDbDictionary
281
     1
  3
Standard
350
17
  0
DICTIONARY
  5
18
102
{ACAD_REACTORS
330
C
102
}
330
C
100
AcDbDictionary
281
     1
  0
ACDBDICTIONARYWDFLT
  5
E
102
{ACAD_REACTORS
330
C
102
}
330
C
100
AcDbDictionary
281
     1
  3
Normal
350
F
100
AcDbDictionaryWithDefault
340
F
  0
DICTIONARY
  5
1C
102
{ACAD_REACTORS
330
C
102
}
330
C
100
AcDbDictionary
281
     1
  3
Standard
350
1D
  0
DICTIONARY
  5
306
102
{ACAD_REACTORS
330
C
102
}
330
C
100
AcDbDictionary
281
     1
  3
CTABLESTYLE
350
307
  0
LAYOUT
  5
25
102
{ACAD_REACTORS
330
19
102
}
330
19
100
AcDbPlotSettings
  1

  2
PDF reDirect v2
  4
User66
  6

 40
3.174999952316284
 41
3.174999952316284
 42
3.17498779296875
 43
3.17498779296875
 44
420.0
 45
594.0
 46
0.0
 47
0.0
 48
0.0
 49
0.0
140
0.0
141
0.0
142
1.0
143
1.0
 70
 11952
 72
     1
 73
     1
 74
     2
  7
C:\Users\ck\AppData\Roaming\Autodesk\AutoCAD 2005\R16.1\jpn\Plot Styles\black.ctb
 75
    16
147
1.0
 76
     0
 77
     2
 78
   300
148
592.0
149
0.0
100
AcDbLayout
  1
Model
 70
     1
 71
     0
 10
0.0
 20
0.0
 11
12.0
 21
9.0
 12
0.0
 22
0.0
 32
0.0
 14
0.0
 24
0.0
 34
0.0
 15
0.0
 25
0.0
 35
0.0
146
0.0
 13
0.0
 23
0.0
 33
0.0
 16
1.0
 26
0.0
 36
0.0
 17
0.0
 27
1.0
 37
0.0
 76
     0
330
22
1001
ACAD_PSEXT
1000
PDF reDirect v2
1000
PDF reDirect Pro
1000
PDF_REDIRECT_PORT:
1000
PDF reDirect provided by EXP Systems
1070
     0
  0
LAYOUT
  5
21
102
{ACAD_REACTORS
330
19
102
}
330
19
100
AcDbPlotSettings
  1

  2
PDF reDirect v2
  4

  6

 40
0.0
 41
0.0
 42
0.0
 43
0.0
 44
0.0
 45
0.0
 46
0.0
 47
0.0
 48
0.0
 49
0.0
140
0.0
141
0.0
142
1.0
143
1.0
 70
   688
 72
     0
 73
     0
 74
     5
  7
C:\Users\ck\AppData\Roaming\Autodesk\AutoCAD 2005\R16.1\jpn\Plot Styles\black.ctb
 75
    16
147
1.0
 76
     0
 77
     2
 78
   300
148
0.0
149
0.0
100
AcDbLayout
  1
レイアウト1
 70
     1
 71
     1
 10
-592.0
 20
0.0
 11
0.0
 21
418.0
 12
0.0
 22
0.0
 32
0.0
 14
1.000000000000000E+20
 24
1.000000000000000E+20
 34
1.000000000000000E+20
 15
-1.000000000000000E+20
 25
-1.000000000000000E+20
 35
-1.000000000000000E+20
146
0.0
 13
0.0
 23
0.0
 33
0.0
 16
1.0
 26
0.0
 36
0.0
 17
0.0
 27
1.0
 37
0.0
 76
     0
330
1E
  0
MLINESTYLE
  5
17
102
{ACAD_REACTORS
330
16
102
}
330
16
100
AcDbMlineStyle
  2
STANDARD
 70
     0
  3

 62
   256
 51
90.0
 52
90.0
 71
     2
 49
0.5
 62
   256
  6
BYLAYER
 49
-0.5
 62
   256
  6
BYLAYER
  0
ACDBPLACEHOLDER
  5
F
102
{ACAD_REACTORS
330
E
102
}
330
E
  0
TABLESTYLE
  5
1D
102
{ACAD_REACTORS
330
1C
102
}
330
1C
100
AcDbTableStyle
  3
Standard
 70
     0
 71
     0
 40
0.06
 41
0.06
280
     0
281
     0
  7
STANDARD
140
0.18
170
     2
 62
     0
 63
     7
283
     0
274
    -2
284
     1
 64
     0
275
    -2
285
     1
 65
     0
276
    -2
286
     1
 66
     0
277
    -2
287
     1
 67
     0
278
    -2
288
     1
 68
     0
279
    -2
289
     1
 69
     0
  7
STANDARD
140
0.25
170
     5
 62
     0
 63
     7
283
     0
274
    -2
284
     1
 64
     0
275
    -2
285
     1
 65
     0
276
    -2
286
     1
 66
     0
277
    -2
287
     1
 67
     0
278
    -2
288
     1
 68
     0
279
    -2
289
     1
 69
     0
  7
STANDARD
140
0.18
170
     5
 62
     0
 63
     7
283
     0
274
    -2
284
     1
 64
     0
275
    -2
285
     1
 65
     0
276
    -2
286
     1
 66
     0
277
    -2
287
     1
 67
     0
278
    -2
288
     1
 68
     0
279
    -2
289
     1
 69
     0
  0
DICTIONARYVAR
  5
307
102
{ACAD_REACTORS
330
306
102
}
330
306
100
DictionaryVariables
280
     0
  1
STANDARD
  0
ENDSEC
  0
EOF
