  0
SECTION
  2
HEADER
  9
$ACADVER
  1
AC1018
  9
$ACADMAINTVER
 70
    39
  9
$DWGCODEPAGE
  3
ANSI_932
  9
$INSBASE
 10
0.0
 20
0.0
 30
0.0
  9
$EXTMIN
 10
-435.4726546894207
 20
10.67068580010755
 30
-0.0015258207003583
  9
$EXTMAX
 10
-216.2819812953028
 20
392.81897067048
 30
0.0000000349246037
  9
$LIMMIN
 10
-592.0
 20
0.0
  9
$LIMMAX
 10
0.0
 20
418.0
  9
$ORTHOMODE
 70
     0
  9
$REGENMODE
 70
     1
  9
$FILLMODE
 70
     1
  9
$QTEXTMODE
 70
     0
  9
$MIRRTEXT
 70
     0
  9
$LTSCALE
 40
1.0
  9
$ATTMODE
 70
     1
  9
$TEXTSIZE
 40
0.2
  9
$TRACEWID
 40
0.05
  9
$TEXTSTYLE
  7
STANDARD
  9
$CLAYER
  8
0
  9
$CELTYPE
  6
CONTINUOUS
  9
$CECOLOR
 62
   256
  9
$CELTSCALE
 40
1.0
  9
$DISPSILH
 70
     0
  9
$DIMSCALE
 40
1.0
  9
$DIMASZ
 40
1.0
  9
$DIMEXO
 40
2.54
  9
$DIMDLI
 40
0.38
  9
$DIMRND
 40
0.0
  9
$DIMDLE
 40
0.0
  9
$DIMEXE
 40
2.54
  9
$DIMTP
 40
0.0
  9
$DIMTM
 40
0.0
  9
$DIMTXT
 40
3.0
  9
$DIMCEN
 40
0.09
  9
$DIMTSZ
 40
0.0
  9
$DIMTOL
 70
     0
  9
$DIMLIM
 70
     0
  9
$DIMTIH
 70
     0
  9
$DIMTOH
 70
     0
  9
$DIMSE1
 70
     0
  9
$DIMSE2
 70
     0
  9
$DIMTAD
 70
     1
  9
$DIMZIN
 70
     0
  9
$DIMBLK
  1

  9
$DIMASO
 70
     1
  9
$DIMSHO
 70
     0
  9
$DIMPOST
  1

  9
$DIMAPOST
  1

  9
$DIMALT
 70
     0
  9
$DIMALTD
 70
     2
  9
$DIMALTF
 40
25.4
  9
$DIMLFAC
 40
1.0
  9
$DIMTOFL
 70
     0
  9
$DIMTVP
 40
1.0
  9
$DIMTIX
 70
     0
  9
$DIMSOXD
 70
     0
  9
$DIMSAH
 70
     1
  9
$DIMBLK1
  1

  9
$DIMBLK2
  1

  9
$DIMSTYLE
  2
DIMSTYLE1
  9
$DIMCLRD
 70
     0
  9
$DIMCLRE
 70
     0
  9
$DIMCLRT
 70
     0
  9
$DIMTFAC
 40
1.0
  9
$DIMGAP
 40
1.5
  9
$DIMJUST
 70
     0
  9
$DIMSD1
 70
     0
  9
$DIMSD2
 70
     0
  9
$DIMTOLJ
 70
     1
  9
$DIMTZIN
 70
     0
  9
$DIMALTZ
 70
     0
  9
$DIMALTTZ
 70
     0
  9
$DIMUPT
 70
     0
  9
$DIMDEC
 70
     4
  9
$DIMTDEC
 70
     4
  9
$DIMALTU
 70
     2
  9
$DIMALTTD
 70
     2
  9
$DIMTXSTY
  7
STANDARD
  9
$DIMAUNIT
 70
     0
  9
$DIMADEC
 70
     0
  9
$DIMALTRND
 40
0.0
  9
$DIMAZIN
 70
     0
  9
$DIMDSEP
 70
    46
  9
$DIMATFIT
 70
     3
  9
$DIMFRAC
 70
     0
  9
$DIMLDRBLK
  1

  9
$DIMLUNIT
 70
     2
  9
$DIMLWD
 70
    -2
  9
$DIMLWE
 70
    -2
  9
$DIMTMOVE
 70
     0
  9
$LUNITS
 70
     2
  9
$LUPREC
 70
     4
  9
$SKETCHINC
 40
0.1
  9
$FILLETRAD
 40
0.0
  9
$AUNITS
 70
     0
  9
$AUPREC
 70
     0
  9
$MENU
  1
.
  9
$ELEVATION
 40
0.0
  9
$PELEVATION
 40
0.0
  9
$THICKNESS
 40
0.0
  9
$LIMCHECK
 70
     0
  9
$CHAMFERA
 40
0.0
  9
$CHAMFERB
 40
0.0
  9
$CHAMFERC
 40
0.0
  9
$CHAMFERD
 40
0.0
  9
$SKPOLY
 70
     0
  9
$TDCREATE
 40
2457840.637967303
  9
$TDUCREATE
 40
2457840.262967303
  9
$TDUPDATE
 40
2457840.638609005
  9
$TDUUPDATE
 40
2457840.263609005
  9
$TDINDWG
 40
0.0006423958
  9
$TDUSRTIMER
 40
0.0006423958
  9
$USRTIMER
 70
     1
  9
$ANGBASE
 50
0.0
  9
$ANGDIR
 70
     0
  9
$PDMODE
 70
     0
  9
$PDSIZE
 40
0.0
  9
$PLINEWID
 40
0.0
  9
$SPLFRAME
 70
     0
  9
$SPLINETYPE
 70
     6
  9
$SPLINESEGS
 70
     8
  9
$HANDSEED
  5
2FE
  9
$SURFTAB1
 70
     6
  9
$SURFTAB2
 70
     6
  9
$SURFTYPE
 70
     6
  9
$SURFU
 70
     6
  9
$SURFV
 70
     6
  9
$UCSBASE
  2

  9
$UCSNAME
  2

  9
$UCSORG
 10
0.0
 20
0.0
 30
0.0
  9
$UCSXDIR
 10
1.0
 20
0.0
 30
0.0
  9
$UCSYDIR
 10
0.0
 20
1.0
 30
0.0
  9
$UCSORTHOREF
  2

  9
$UCSORTHOVIEW
 70
     0
  9
$UCSORGTOP
 10
0.0
 20
0.0
 30
0.0
  9
$UCSORGBOTTOM
 10
0.0
 20
0.0
 30
0.0
  9
$UCSORGLEFT
 10
0.0
 20
0.0
 30
0.0
  9
$UCSORGRIGHT
 10
0.0
 20
0.0
 30
0.0
  9
$UCSORGFRONT
 10
0.0
 20
0.0
 30
0.0
  9
$UCSORGBACK
 10
0.0
 20
0.0
 30
0.0
  9
$PUCSBASE
  2

  9
$PUCSNAME
  2

  9
$PUCSORG
 10
0.0
 20
0.0
 30
0.0
  9
$PUCSXDIR
 10
1.0
 20
0.0
 30
0.0
  9
$PUCSYDIR
 10
0.0
 20
1.0
 30
0.0
  9
$PUCSORTHOREF
  2

  9
$PUCSORTHOVIEW
 70
     0
  9
$PUCSORGTOP
 10
0.0
 20
0.0
 30
0.0
  9
$PUCSORGBOTTOM
 10
0.0
 20
0.0
 30
0.0
  9
$PUCSORGLEFT
 10
0.0
 20
0.0
 30
0.0
  9
$PUCSORGRIGHT
 10
0.0
 20
0.0
 30
0.0
  9
$PUCSORGFRONT
 10
0.0
 20
0.0
 30
0.0
  9
$PUCSORGBACK
 10
0.0
 20
0.0
 30
0.0
  9
$USERI1
 70
     0
  9
$USERI2
 70
     0
  9
$USERI3
 70
     0
  9
$USERI4
 70
     0
  9
$USERI5
 70
     0
  9
$USERR1
 40
0.0
  9
$USERR2
 40
0.0
  9
$USERR3
 40
0.0
  9
$USERR4
 40
0.0
  9
$USERR5
 40
0.0
  9
$WORLDVIEW
 70
     1
  9
$SHADEDGE
 70
     3
  9
$SHADEDIF
 70
    70
  9
$TILEMODE
 70
     1
  9
$MAXACTVP
 70
    64
  9
$PINSBASE
 10
0.0
 20
0.0
 30
0.0
  9
$PLIMCHECK
 70
     0
  9
$PEXTMIN
 10
1.000000000000000E+20
 20
1.000000000000000E+20
 30
1.000000000000000E+20
  9
$PEXTMAX
 10
-1.000000000000000E+20
 20
-1.000000000000000E+20
 30
-1.000000000000000E+20
  9
$PLIMMIN
 10
-592.0
 20
0.0
  9
$PLIMMAX
 10
0.0
 20
418.0
  9
$UNITMODE
 70
     0
  9
$VISRETAIN
 70
     1
  9
$PLINEGEN
 70
     0
  9
$PSLTSCALE
 70
     1
  9
$TREEDEPTH
 70
  3020
  9
$CMLSTYLE
  2
Standard
  9
$CMLJUST
 70
     0
  9
$CMLSCALE
 40
1.0
  9
$PROXYGRAPHICS
 70
     1
  9
$MEASUREMENT
 70
     0
  9
$CELWEIGHT
370
    -1
  9
$ENDCAPS
280
     0
  9
$JOINSTYLE
280
     0
  9
$LWDISPLAY
290
     0
  9
$INSUNITS
 70
     0
  9
$HYPERLINKBASE
  1

  9
$STYLESHEET
  1

  9
$XEDIT
290
     1
  9
$CEPSNTYPE
380
     0
  9
$PSTYLEMODE
290
     1
  9
$FINGERPRINTGUID
  2
{5184D6D7-A71E-4322-87BE-40E6C243B169}
  9
$VERSIONGUID
  2
{32841F88-9F3E-477F-8A1C-A43750BF3EE8}
  9
$EXTNAMES
290
     1
  9
$PSVPSCALE
 40
0.0
  9
$OLESTARTUP
290
     0
  9
$SORTENTS
280
   127
  9
$INDEXCTL
280
     0
  9
$HIDETEXT
280
     0
  9
$XCLIPFRAME
290
     0
  9
$HALOGAP
280
     0
  9
$OBSCOLOR
 70
   257
  9
$OBSLTYPE
280
     0
  9
$INTERSECTIONDISPLAY
280
     0
  9
$INTERSECTIONCOLOR
 70
   257
  9
$DIMASSOC
280
     1
  9
$PROJECTNAME
  1

  0
ENDSEC
  0
SECTION
  2
CLASSES
  0
CLASS
  1
ACDBDICTIONARYWDFLT
  2
AcDbDictionaryWithDefault
  3
ObjectDBX Classes
 90
        0
 91
        1
280
     0
281
     0
  0
CLASS
  1
TABLESTYLE
  2
AcDbTableStyle
  3
ObjectDBX Classes
 90
     2047
 91
        1
280
     0
281
     0
  0
CLASS
  1
DICTIONARYVAR
  2
AcDbDictionaryVar
  3
ObjectDBX Classes
 90
        0
 91
        1
280
     0
281
     0
  0
ENDSEC
  0
SECTION
  2
TABLES
  0
TABLE
  2
VPORT
  5
8
330
0
100
AcDbSymbolTable
 70
     2
  0
VPORT
  5
2FD
330
8
100
AcDbSymbolTableRecord
100
AcDbViewportTableRecord
  2
*Active
 70
     0
 10
0.0
 20
0.0
 11
1.0
 21
1.0
 12
-296.0
 22
209.0
 13
0.0
 23
0.0
 14
1.0
 24
1.0
 15
0.0
 25
0.0
 16
0.0
 26
0.0
 36
1.0
 17
0.0
 27
0.0
 37
0.0
 40
421.3043478260869
 41
1.707124010554089
 42
50.0
 43
0.0
 44
0.0
 50
0.0
 51
0.0
 71
     0
 72
   100
 73
     1
 74
     1
 75
     0
 76
     0
 77
     0
 78
     0
281
     0
 65
     1
110
0.0
120
0.0
130
0.0
111
1.0
121
0.0
131
0.0
112
0.0
122
1.0
132
0.0
 79
     0
146
0.0
  0
ENDTAB
  0
TABLE
  2
LTYPE
  5
5
330
0
100
AcDbSymbolTable
 70
     6
  0
LTYPE
  5
13
330
5
100
AcDbSymbolTableRecord
100
AcDbLinetypeTableRecord
  2
ByBlock
 70
     0
  3

 72
    65
 73
     0
 40
0.0
  0
LTYPE
  5
14
330
5
100
AcDbSymbolTableRecord
100
AcDbLinetypeTableRecord
  2
ByLayer
 70
     0
  3

 72
    65
 73
     0
 40
0.0
  0
LTYPE
  5
15
330
5
100
AcDbSymbolTableRecord
100
AcDbLinetypeTableRecord
  2
CONTINUOUS
 70
     0
  3
Solid line
 72
    65
 73
     0
 40
0.0
  0
LTYPE
  5
26
330
5
100
AcDbSymbolTableRecord
100
AcDbLinetypeTableRecord
  2
DASHED
 70
     0
  3
__ __ __ __ __ __ __ __ __ __ __ __ __ __ __
 72
    65
 73
     2
 40
3.5
 49
2.0
 74
     0
 49
-1.5
 74
     0
  0
LTYPE
  5
27
330
5
100
AcDbSymbolTableRecord
100
AcDbLinetypeTableRecord
  2
CENTER
 70
     0
  3
____ _ ____ _ ____ _ ____ _ ____ _ ____ _ ____
 72
    65
 73
     4
 40
17.5
 49
13.0
 74
     0
 49
-1.5
 74
     0
 49
1.5
 74
     0
 49
-1.5
 74
     0
  0
LTYPE
  5
28
330
5
100
AcDbSymbolTableRecord
100
AcDbLinetypeTableRecord
  2
PHANTOM
 70
     0
  3
_____ _ _ _____ _ _ _____ _ _ _____ _ _ ____  
 72
    65
 73
     6
 40
15.5
 49
8.0
 74
     0
 49
-1.5
 74
     0
 49
1.5
 74
     0
 49
-1.5
 74
     0
 49
1.5
 74
     0
 49
-1.5
 74
     0
  0
LTYPE
  5
29
330
5
100
AcDbSymbolTableRecord
100
AcDbLinetypeTableRecord
  2
DOT
 70
     0
  3
. . . . . . . . . . . . . . . . . . . . . . . .
 72
    65
 73
     2
 40
0.25
 49
0.0
 74
     0
 49
-0.25
 74
     0
  0
LTYPE
  5
2A
330
5
100
AcDbSymbolTableRecord
100
AcDbLinetypeTableRecord
  2
HIDDEN
 70
     0
  3
__ __ __ __ __ __ __ __ __ __ __ __ __ __ __
 72
    65
 73
     2
 40
3.5
 49
2.0
 74
     0
 49
-1.5
 74
     0
  0
ENDTAB
  0
TABLE
  2
LAYER
  5
2
330
0
100
AcDbSymbolTable
 70
     2
  0
LAYER
  5
10
330
2
100
AcDbSymbolTableRecord
100
AcDbLayerTableRecord
  2
0
 70
     0
 62
     7
  6
CONTINUOUS
370
    -3
390
F
  0
LAYER
  5
2B
330
2
100
AcDbSymbolTableRecord
100
AcDbLayerTableRecord
  2
DEFPOINTS
 70
     0
 62
     7
  6
CONTINUOUS
290
     0
370
    -3
390
F
  0
ENDTAB
  0
TABLE
  2
STYLE
  5
3
330
0
100
AcDbSymbolTable
 70
     2
  0
STYLE
  5
11
330
3
100
AcDbSymbolTableRecord
100
AcDbTextStyleTableRecord
  2
STANDARD
 70
     0
 40
0.0
 41
1.0
 50
0.0
 71
     0
 42
0.2
  3

  4

1001
ACAD
1000
MS Gothic
1071
    32817
  0
ENDTAB
  0
TABLE
  2
VIEW
  5
6
330
0
100
AcDbSymbolTable
 70
     0
  0
ENDTAB
  0
TABLE
  2
UCS
  5
7
330
0
100
AcDbSymbolTable
 70
     0
  0
ENDTAB
  0
TABLE
  2
APPID
  5
9
330
0
100
AcDbSymbolTable
 70
     2
  0
APPID
  5
12
330
9
100
AcDbSymbolTableRecord
100
AcDbRegAppTableRecord
  2
ACAD
 70
     0
  0
APPID
  5
2F2
330
9
100
AcDbSymbolTableRecord
100
AcDbRegAppTableRecord
  2
ACAD_PSEXT
 70
     0
  0
ENDTAB
  0
TABLE
  2
DIMSTYLE
  5
A
330
0
100
AcDbSymbolTable
 70
    15
100
AcDbDimStyleTable
 71
     1
340
2C
  0
DIMSTYLE
105
2C
102
{ACAD_REACTORS
330
2E0
102
}
330
A
100
AcDbSymbolTableRecord
100
AcDbDimStyleTableRecord
  2
DIMSTYLE1
 70
     0
 41
1.0
 42
2.54
 44
2.54
 73
     0
 74
     0
 77
     1
140
3.0
145
1.0
147
1.5
172
     1
173
     1
279
     2
340
11
  0
DIMSTYLE
105
2D
102
{ACAD_REACTORS
330
2E1
102
}
330
A
100
AcDbSymbolTableRecord
100
AcDbDimStyleTableRecord
  2
DIMSTYLE2
 70
     0
 41
1.0
 42
2.54
 44
2.54
 73
     0
 74
     0
 77
     1
140
3.0
145
1.0
147
1.5
172
     1
173
     1
279
     2
340
11
  0
DIMSTYLE
105
2E
102
{ACAD_REACTORS
330
2E2
102
}
330
A
100
AcDbSymbolTableRecord
100
AcDbDimStyleTableRecord
  2
DIMSTYLE3
 70
     0
 41
1.0
 42
2.54
 44
2.54
 73
     0
 74
     0
 77
     1
140
3.0
145
1.0
147
1.5
172
     1
173
     1
279
     2
340
11
  0
DIMSTYLE
105
2F
102
{ACAD_REACTORS
330
2E3
102
}
330
A
100
AcDbSymbolTableRecord
100
AcDbDimStyleTableRecord
  2
DIMSTYLE4
 70
     0
 41
1.0
 42
2.54
 44
2.54
 73
     0
 74
     0
 77
     1
140
3.0
145
1.0
147
1.5
172
     1
173
     1
279
     2
340
11
  0
DIMSTYLE
105
30
102
{ACAD_REACTORS
330
2E4
102
}
330
A
100
AcDbSymbolTableRecord
100
AcDbDimStyleTableRecord
  2
DIMSTYLE5
 70
     0
 41
1.0
 42
2.54
 44
2.54
 73
     0
 74
     0
 77
     1
140
3.0
145
1.0
147
1.5
172
     1
173
     1
279
     2
340
11
  0
DIMSTYLE
105
31
102
{ACAD_REACTORS
330
2E5
102
}
330
A
100
AcDbSymbolTableRecord
100
AcDbDimStyleTableRecord
  2
DIMSTYLE6
 70
     0
 41
1.0
 42
2.54
 44
2.54
 73
     0
 74
     0
 77
     1
140
3.0
145
1.0
147
1.5
172
     1
173
     1
279
     2
340
11
  0
DIMSTYLE
105
32
102
{ACAD_REACTORS
330
2E7
102
}
330
A
100
AcDbSymbolTableRecord
100
AcDbDimStyleTableRecord
  2
DIMSTYLE7
 70
     0
 41
1.0
 42
2.54
 44
2.54
 73
     0
 74
     0
 77
     1
140
3.0
145
1.0
147
1.5
172
     1
173
     1
279
     2
340
11
  0
DIMSTYLE
105
33
102
{ACAD_REACTORS
330
2E8
102
}
330
A
100
AcDbSymbolTableRecord
100
AcDbDimStyleTableRecord
  2
DIMSTYLE8
 70
     0
 41
1.0
 42
2.54
 44
2.54
 73
     0
 74
     0
 77
     1
140
3.0
145
1.0
147
1.5
172
     1
173
     1
279
     2
340
11
  0
DIMSTYLE
105
34
102
{ACAD_REACTORS
330
2E9
102
}
330
A
100
AcDbSymbolTableRecord
100
AcDbDimStyleTableRecord
  2
DIMSTYLE9
 70
     0
 41
1.0
 42
2.54
 44
2.54
 73
     0
 74
     0
 77
     1
140
3.0
145
1.0
147
1.5
172
     1
173
     1
279
     2
340
11
  0
DIMSTYLE
105
35
102
{ACAD_REACTORS
330
2EB
102
}
330
A
100
AcDbSymbolTableRecord
100
AcDbDimStyleTableRecord
  2
DIMSTYLE10
 70
     0
 41
1.0
 42
2.54
 44
2.54
 73
     0
 74
     0
 75
     1
 76
     1
 77
     1
140
3.0
145
1.0
147
1.5
172
     1
173
     1
279
     2
340
11
  0
DIMSTYLE
105
36
102
{ACAD_REACTORS
330
2EC
102
}
330
A
100
AcDbSymbolTableRecord
100
AcDbDimStyleTableRecord
  2
DIMSTYLE11
 70
     0
 41
1.0
 42
2.54
 44
2.54
 73
     0
 74
     0
 75
     1
 76
     1
 77
     1
140
3.0
145
1.0
147
1.5
172
     1
173
     1
279
     2
340
11
  0
DIMSTYLE
105
37
102
{ACAD_REACTORS
330
2ED
102
}
330
A
100
AcDbSymbolTableRecord
100
AcDbDimStyleTableRecord
  2
DIMSTYLE12
 70
     0
 41
1.0
 42
2.54
 44
2.54
 73
     0
 74
     0
 75
     1
 76
     1
 77
     1
140
3.0
145
1.0
147
1.5
172
     1
173
     1
279
     2
340
11
  0
DIMSTYLE
105
38
102
{ACAD_REACTORS
330
2EE
102
}
330
A
100
AcDbSymbolTableRecord
100
AcDbDimStyleTableRecord
  2
DIMSTYLE13
 70
     0
 41
1.0
 42
2.54
 44
2.54
 73
     0
 74
     0
 75
     1
 76
     1
 77
     1
140
3.0
145
1.0
147
1.5
172
     1
173
     1
279
     2
340
11
  0
DIMSTYLE
105
39
102
{ACAD_REACTORS
330
2EF
102
}
330
A
100
AcDbSymbolTableRecord
100
AcDbDimStyleTableRecord
  2
DIMSTYLE14
 70
     0
 41
1.0
 42
2.54
 44
2.54
 73
     0
 74
     0
 77
     1
140
3.0
145
1.0
147
1.5
172
     1
173
     1
279
     2
340
11
  0
ENDTAB
  0
TABLE
  2
BLOCK_RECORD
  5
1
330
0
100
AcDbSymbolTable
 70
    18
  0
BLOCK_RECORD
  5
22
330
1
100
AcDbSymbolTableRecord
100
AcDbBlockTableRecord
  2
*Model_Space
340
25
  0
BLOCK_RECORD
  5
1E
330
1
100
AcDbSymbolTableRecord
100
AcDbBlockTableRecord
  2
*Paper_Space
340
21
  0
BLOCK_RECORD
  5
3D
330
1
100
AcDbSymbolTableRecord
100
AcDbBlockTableRecord
  2
_OPEN30
340
0
102
{BLKREFS
331
46
331
47
331
50
331
51
331
5B
331
5C
331
68
331
6A
331
75
331
76
331
80
331
81
331
8B
331
8C
331
97
331
98
331
A2
331
A3
331
AE
331
AF
331
B8
331
B9
331
C2
331
C3
331
CC
331
CD
331
D5
331
D6
102
}
  0
BLOCK_RECORD
  5
43
330
1
100
AcDbSymbolTableRecord
100
AcDbBlockTableRecord
  2
*D1
340
0
  0
BLOCK_RECORD
  5
4D
330
1
100
AcDbSymbolTableRecord
100
AcDbBlockTableRecord
  2
*D2
340
0
  0
BLOCK_RECORD
  5
58
330
1
100
AcDbSymbolTableRecord
100
AcDbBlockTableRecord
  2
*D3
340
0
  0
BLOCK_RECORD
  5
64
330
1
100
AcDbSymbolTableRecord
100
AcDbBlockTableRecord
  2
*D4
340
0
  0
BLOCK_RECORD
  5
72
330
1
100
AcDbSymbolTableRecord
100
AcDbBlockTableRecord
  2
*D5
340
0
  0
BLOCK_RECORD
  5
7D
330
1
100
AcDbSymbolTableRecord
100
AcDbBlockTableRecord
  2
*D6
340
0
  0
BLOCK_RECORD
  5
88
330
1
100
AcDbSymbolTableRecord
100
AcDbBlockTableRecord
  2
*D7
340
0
  0
BLOCK_RECORD
  5
94
330
1
100
AcDbSymbolTableRecord
100
AcDbBlockTableRecord
  2
*D8
340
0
  0
BLOCK_RECORD
  5
9F
330
1
100
AcDbSymbolTableRecord
100
AcDbBlockTableRecord
  2
*D9
340
0
  0
BLOCK_RECORD
  5
AA
330
1
100
AcDbSymbolTableRecord
100
AcDbBlockTableRecord
  2
*D10
340
0
  0
BLOCK_RECORD
  5
B4
330
1
100
AcDbSymbolTableRecord
100
AcDbBlockTableRecord
  2
*D11
340
0
  0
BLOCK_RECORD
  5
BE
330
1
100
AcDbSymbolTableRecord
100
AcDbBlockTableRecord
  2
*D12
340
0
  0
BLOCK_RECORD
  5
C8
330
1
100
AcDbSymbolTableRecord
100
AcDbBlockTableRecord
  2
*D13
340
0
  0
BLOCK_RECORD
  5
D2
330
1
100
AcDbSymbolTableRecord
100
AcDbBlockTableRecord
  2
*D14
340
0
  0
BLOCK_RECORD
  5
DE
330
1
100
AcDbSymbolTableRecord
100
AcDbBlockTableRecord
  2
KOZU0001
340
0
102
{BLKREFS
331
2E6
102
}
  0
BLOCK_RECORD
  5
E7
330
1
100
AcDbSymbolTableRecord
100
AcDbBlockTableRecord
  2
KOZU0002
340
0
102
{BLKREFS
331
2EA
102
}
  0
ENDTAB
  0
ENDSEC
  0
SECTION
  2
BLOCKS
  0
BLOCK
  5
23
330
22
100
AcDbEntity
  8
0
100
AcDbBlockBegin
  2
*Model_Space
 70
     0
 10
0.0
 20
0.0
 30
0.0
  3
*Model_Space
  1

  0
ENDBLK
  5
24
330
22
100
AcDbEntity
  8
0
100
AcDbBlockEnd
  0
BLOCK
  5
1F
330
1E
100
AcDbEntity
 67
     1
  8
0
100
AcDbBlockBegin
  2
*Paper_Space
 70
     0
 10
0.0
 20
0.0
 30
0.0
  3
*Paper_Space
  1

  0
ENDBLK
  5
20
330
1E
100
AcDbEntity
 67
     1
  8
0
100
AcDbBlockEnd
  0
BLOCK
  5
3E
330
3D
100
AcDbEntity
  8
0
100
AcDbBlockBegin
  2
_OPEN30
 70
     0
 10
0.0
 20
0.0
 30
0.0
  3
_OPEN30
  1

  0
LINE
  5
3F
330
3D
100
AcDbEntity
  8
0
  6
ByBlock
 62
     0
100
AcDbLine
 10
0.0
 20
0.0
 30
0.0
 11
-2.999999999999993
 21
-1.000000000000017
 31
0.0
  0
LINE
  5
40
330
3D
100
AcDbEntity
  8
0
  6
ByBlock
 62
     0
100
AcDbLine
 10
0.0
 20
0.0
 30
0.0
 11
-3.000000000000006
 21
0.9999999999999815
 31
0.0
  0
LINE
  5
41
330
3D
100
AcDbEntity
  8
0
  6
ByBlock
 62
     0
100
AcDbLine
 10
0.0
 20
0.0
 30
0.0
 11
-3.0
 21
0.0
 31
0.0
  0
ENDBLK
  5
42
330
3D
100
AcDbEntity
  8
0
100
AcDbBlockEnd
  0
BLOCK
  5
44
330
43
100
AcDbEntity
  8
0
100
AcDbBlockBegin
  2
*D1
 70
     1
 10
0.0
 20
0.0
 30
0.0
  3
*D1
  1

  0
LINE
  5
45
330
43
100
AcDbEntity
  8
0
  6
Continuous
 62
     7
100
AcDbLine
 10
-330.4672546386719
 20
75.52799224853515
 30
0.0
 11
-330.4672546386719
 21
169.5279846191406
 31
0.0
  0
INSERT
  5
46
330
43
100
AcDbEntity
  8
0
  6
Continuous
 62
     7
100
AcDbBlockReference
  2
_OPEN30
 10
-330.4672546386719
 20
72.52799224853515
 30
0.0
 50
270.0000000000005
  0
INSERT
  5
47
330
43
100
AcDbEntity
  8
0
  6
Continuous
 62
     7
100
AcDbBlockReference
  2
_OPEN30
 10
-330.4672546386719
 20
172.5279846191406
 30
0.0
 50
90.00000000000019
  0
TEXT
  5
48
330
43
100
AcDbEntity
  8
0
  6
Continuous
 62
     7
100
AcDbText
 10
-331.2172544607665
 20
118.4579920440902
 30
0.0
 40
3.0
  1
100
 50
90.00000250447815
 41
1.320000017011488
100
AcDbText
  0
POINT
  5
49
330
43
100
AcDbEntity
  8
DEFPOINTS
  6
Continuous
 62
     7
100
AcDbPoint
 10
-337.7656860351563
 20
72.52799224853515
 30
0.0
  0
POINT
  5
4A
330
43
100
AcDbEntity
  8
DEFPOINTS
  6
Continuous
 62
     7
100
AcDbPoint
 10
-337.7656860351563
 20
172.5279846191406
 30
0.0
  0
POINT
  5
4B
330
43
100
AcDbEntity
  8
DEFPOINTS
  6
Continuous
 62
     7
100
AcDbPoint
 10
-330.4672546386719
 20
172.5279846191406
 30
0.0
  0
ENDBLK
  5
4C
330
43
100
AcDbEntity
  8
0
100
AcDbBlockEnd
  0
BLOCK
  5
4E
330
4D
100
AcDbEntity
  8
0
100
AcDbBlockBegin
  2
*D2
 70
     1
 10
0.0
 20
0.0
 30
0.0
  3
*D2
  1

  0
LINE
  5
4F
330
4D
100
AcDbEntity
  8
0
  6
Continuous
 62
     7
100
AcDbLine
 10
-324.4164733886719
 20
75.52799224853515
 30
0.0
 11
-324.4164733886719
 21
119.5279922485352
 31
0.0
  0
INSERT
  5
50
330
4D
100
AcDbEntity
  8
0
  6
Continuous
 62
     7
100
AcDbBlockReference
  2
_OPEN30
 10
-324.4164733886719
 20
72.52799224853515
 30
0.0
 50
270.0000000000005
  0
INSERT
  5
51
330
4D
100
AcDbEntity
  8
0
  6
Continuous
 62
     7
100
AcDbBlockReference
  2
_OPEN30
 10
-324.4164733886719
 20
122.5279922485352
 30
0.0
 50
90.00000000000019
  0
LINE
  5
52
330
4D
100
AcDbEntity
  8
0
  6
Continuous
 62
     7
100
AcDbLine
 10
-317.8056860351563
 20
122.5279922485351
 30
0.0
 11
-326.7024536132813
 21
122.5279922485352
 31
0.0
  0
TEXT
  5
53
330
4D
100
AcDbEntity
  8
0
  6
Continuous
 62
     7
100
AcDbText
 10
-325.1664732763336
 20
94.95799210369488
 30
0.0
 40
3.0
  1
50
 50
90.00000250447815
 41
1.101428593908038
100
AcDbText
  0
POINT
  5
54
330
4D
100
AcDbEntity
  8
DEFPOINTS
  6
Continuous
 62
     7
100
AcDbPoint
 10
-321.3697204589844
 20
72.52799224853515
 30
0.0
  0
POINT
  5
55
330
4D
100
AcDbEntity
  8
DEFPOINTS
  6
Continuous
 62
     7
100
AcDbPoint
 10
-315.2656860351563
 20
122.5279922485352
 30
0.0
  0
POINT
  5
56
330
4D
100
AcDbEntity
  8
DEFPOINTS
  6
Continuous
 62
     7
100
AcDbPoint
 10
-324.4164733886719
 20
122.5279922485352
 30
0.0
  0
ENDBLK
  5
57
330
4D
100
AcDbEntity
  8
0
100
AcDbBlockEnd
  0
BLOCK
  5
59
330
58
100
AcDbEntity
  8
0
100
AcDbBlockBegin
  2
*D3
 70
     1
 10
0.0
 20
0.0
 30
0.0
  3
*D3
  1

  0
LINE
  5
5A
330
58
100
AcDbEntity
  8
0
  6
Continuous
 62
     7
100
AcDbLine
 10
-218.5705718994141
 20
65.52799224853515
 30
0.0
 11
-218.570571899414
 21
205.5279846191406
 31
0.0
  0
INSERT
  5
5B
330
58
100
AcDbEntity
  8
0
  6
Continuous
 62
     7
100
AcDbBlockReference
  2
_OPEN30
 10
-218.5705718994141
 20
62.52799224853515
 30
0.0
 50
270.0000000000005
  0
INSERT
  5
5C
330
58
100
AcDbEntity
  8
0
  6
Continuous
 62
     7
100
AcDbBlockReference
  2
_OPEN30
 10
-218.5705718994141
 20
208.5279846191406
 30
0.0
 50
90.00000000000019
  0
LINE
  5
5D
330
58
100
AcDbEntity
  8
0
  6
Continuous
 62
     7
100
AcDbLine
 10
-260.2256860351562
 20
62.52799224853515
 30
0.0
 11
-216.2845764160156
 21
62.52799224853515
 31
0.0
  0
LINE
  5
5E
330
58
100
AcDbEntity
  8
0
  6
Continuous
 62
     7
100
AcDbLine
 10
-293.7256860351562
 20
208.5279846191406
 30
0.0
 11
-216.2845764160156
 21
208.5279846191406
 31
0.0
  0
TEXT
  5
5F
330
58
100
AcDbEntity
  8
0
  6
Continuous
 62
     7
100
AcDbText
 10
-219.3205710658378
 20
116.4579838186493
 30
0.0
 40
3.0
  1
１４６　（１３８～１５５）
 50
90.00000250447815
 41
0.8434321120058422
100
AcDbText
  0
POINT
  5
60
330
58
100
AcDbEntity
  8
DEFPOINTS
  6
Continuous
 62
     7
100
AcDbPoint
 10
-262.7656860351563
 20
62.52799224853515
 30
0.0
  0
POINT
  5
61
330
58
100
AcDbEntity
  8
DEFPOINTS
  6
Continuous
 62
     7
100
AcDbPoint
 10
-296.2656860351563
 20
208.5279846191406
 30
0.0
  0
POINT
  5
62
330
58
100
AcDbEntity
  8
DEFPOINTS
  6
Continuous
 62
     7
100
AcDbPoint
 10
-218.5705718994141
 20
208.5279846191406
 30
0.0
  0
ENDBLK
  5
63
330
58
100
AcDbEntity
  8
0
100
AcDbBlockEnd
  0
BLOCK
  5
65
330
64
100
AcDbEntity
  8
0
100
AcDbBlockBegin
  2
*D4
 70
     1
 10
0.0
 20
0.0
 30
0.0
  3
*D4
  1

  0
LINE
  5
66
330
64
100
AcDbEntity
  8
0
  6
Continuous
 62
     7
100
AcDbLine
 10
-218.5705718994141
 20
59.02799224853516
 30
0.0
 11
-218.5705718994141
 21
45.75223922729492
 31
0.0
  0
LINE
  5
67
330
64
100
AcDbEntity
  8
0
  6
Continuous
 62
     7
100
AcDbLine
 10
-218.5705718994141
 20
62.52799224853515
 30
0.0
 11
-218.5705718994141
 21
59.02799224853516
 31
0.0
  0
INSERT
  5
68
330
64
100
AcDbEntity
  8
0
  6
Continuous
 62
     7
100
AcDbBlockReference
  2
_OPEN30
 10
-218.5705718994141
 20
62.52799224853515
 30
0.0
 50
270.0000000000002
  0
LINE
  5
69
330
64
100
AcDbEntity
  8
0
  6
Continuous
 62
     7
100
AcDbLine
 10
-218.5705718994141
 20
65.52799224853515
 30
0.0
 11
-218.5705718994141
 21
68.87799224853515
 31
0.0
  0
INSERT
  5
6A
330
64
100
AcDbEntity
  8
0
  6
Continuous
 62
     7
100
AcDbBlockReference
  2
_OPEN30
 10
-218.5705718994141
 20
59.02799224853516
 30
0.0
 50
90.00000000000049
  0
LINE
  5
6B
330
64
100
AcDbEntity
  8
0
  6
Continuous
 62
     7
100
AcDbLine
 10
-218.570571899414
 20
56.02799224853516
 30
0.0
 11
-218.570571899414
 21
52.67799224853515
 31
0.0
  0
LINE
  5
6C
330
64
100
AcDbEntity
  8
0
  6
Continuous
 62
     7
100
AcDbLine
 10
-258.7256860351562
 20
59.02799224853516
 30
0.0
 11
-216.2845764160156
 21
59.02799224853516
 31
0.0
  0
TEXT
  5
6D
330
64
100
AcDbEntity
  8
0
  6
Continuous
 62
     7
100
AcDbText
 10
-219.3205717215087
 20
45.75223871767422
 30
0.0
 40
3.0
  1
3.5
 50
90.00000250447815
 41
1.356666684150696
100
AcDbText
  0
POINT
  5
6E
330
64
100
AcDbEntity
  8
DEFPOINTS
  6
Continuous
 62
     7
100
AcDbPoint
 10
-216.2845764160156
 20
62.52799224853515
 30
0.0
  0
POINT
  5
6F
330
64
100
AcDbEntity
  8
DEFPOINTS
  6
Continuous
 62
     7
100
AcDbPoint
 10
-261.2656860351563
 20
59.02799224853516
 30
0.0
  0
POINT
  5
70
330
64
100
AcDbEntity
  8
DEFPOINTS
  6
Continuous
 62
     7
100
AcDbPoint
 10
-218.5705718994141
 20
59.02799224853516
 30
0.0
  0
ENDBLK
  5
71
330
64
100
AcDbEntity
  8
0
100
AcDbBlockEnd
  0
BLOCK
  5
73
330
72
100
AcDbEntity
  8
0
100
AcDbBlockBegin
  2
*D5
 70
     1
 10
0.0
 20
0.0
 30
0.0
  3
*D5
  1

  0
LINE
  5
74
330
72
100
AcDbEntity
  8
0
  6
Continuous
 62
     7
100
AcDbLine
 10
-232.2666625976563
 20
65.52799224853515
 30
0.0
 11
-232.2666625976562
 21
89.52799224853515
 31
0.0
  0
INSERT
  5
75
330
72
100
AcDbEntity
  8
0
  6
Continuous
 62
     7
100
AcDbBlockReference
  2
_OPEN30
 10
-232.2666625976563
 20
62.52799224853515
 30
0.0
 50
270.0000000000005
  0
INSERT
  5
76
330
72
100
AcDbEntity
  8
0
  6
Continuous
 62
     7
100
AcDbBlockReference
  2
_OPEN30
 10
-232.2666625976563
 20
92.52799224853516
 30
0.0
 50
90.00000000000019
  0
LINE
  5
77
330
72
100
AcDbEntity
  8
0
  6
Continuous
 62
     7
100
AcDbLine
 10
-309.2256860351562
 20
92.52799224853516
 30
0.0
 11
-229.9806518554688
 21
92.52799224853516
 31
0.0
  0
TEXT
  5
78
330
72
100
AcDbEntity
  8
0
  6
Continuous
 62
     7
100
AcDbText
 10
-233.016662485318
 20
74.95799210369487
 30
0.0
 40
3.0
  1
30
 50
90.00000250447815
 41
1.101428593908038
100
AcDbText
  0
POINT
  5
79
330
72
100
AcDbEntity
  8
DEFPOINTS
  6
Continuous
 62
     7
100
AcDbPoint
 10
-216.2845764160156
 20
62.52799224853515
 30
0.0
  0
POINT
  5
7A
330
72
100
AcDbEntity
  8
DEFPOINTS
  6
Continuous
 62
     7
100
AcDbPoint
 10
-311.7656860351563
 20
92.52799224853516
 30
0.0
  0
POINT
  5
7B
330
72
100
AcDbEntity
  8
DEFPOINTS
  6
Continuous
 62
     7
100
AcDbPoint
 10
-232.2666625976563
 20
92.52799224853516
 30
0.0
  0
ENDBLK
  5
7C
330
72
100
AcDbEntity
  8
0
100
AcDbBlockEnd
  0
BLOCK
  5
7E
330
7D
100
AcDbEntity
  8
0
100
AcDbBlockBegin
  2
*D6
 70
     1
 10
0.0
 20
0.0
 30
0.0
  3
*D6
  1

  0
LINE
  5
7F
330
7D
100
AcDbEntity
  8
0
  6
Continuous
 62
     7
100
AcDbLine
 10
-232.2666625976562
 20
205.5279846191406
 30
0.0
 11
-232.2666625976563
 21
162.5279846191406
 31
0.0
  0
INSERT
  5
80
330
7D
100
AcDbEntity
  8
0
  6
Continuous
 62
     7
100
AcDbBlockReference
  2
_OPEN30
 10
-232.2666625976563
 20
208.5279846191406
 30
0.0
 50
90.00000000000019
  0
INSERT
  5
81
330
7D
100
AcDbEntity
  8
0
  6
Continuous
 62
     7
100
AcDbBlockReference
  2
_OPEN30
 10
-232.2666625976563
 20
159.5279846191406
 30
0.0
 50
270.0000000000005
  0
LINE
  5
82
330
7D
100
AcDbEntity
  8
0
  6
Continuous
 62
     7
100
AcDbLine
 10
-301.7256860351562
 20
159.5279846191406
 30
0.0
 11
-229.9806518554688
 21
159.5279846191406
 31
0.0
  0
TEXT
  5
83
330
7D
100
AcDbEntity
  8
0
  6
Continuous
 62
     7
100
AcDbText
 10
-233.016662485318
 20
181.4579844743004
 30
0.0
 40
3.0
  1
49
 50
90.00000250447815
 41
1.028000020980834
100
AcDbText
  0
POINT
  5
84
330
7D
100
AcDbEntity
  8
DEFPOINTS
  6
Continuous
 62
     7
100
AcDbPoint
 10
-216.2845764160156
 20
208.5279846191406
 30
0.0
  0
POINT
  5
85
330
7D
100
AcDbEntity
  8
DEFPOINTS
  6
Continuous
 62
     7
100
AcDbPoint
 10
-304.2656860351563
 20
159.5279846191406
 30
0.0
  0
POINT
  5
86
330
7D
100
AcDbEntity
  8
DEFPOINTS
  6
Continuous
 62
     7
100
AcDbPoint
 10
-232.2666625976563
 20
159.5279846191406
 30
0.0
  0
ENDBLK
  5
87
330
7D
100
AcDbEntity
  8
0
100
AcDbBlockEnd
  0
BLOCK
  5
89
330
88
100
AcDbEntity
  8
0
100
AcDbBlockBegin
  2
*D7
 70
     1
 10
0.0
 20
0.0
 30
0.0
  3
*D7
  1

  0
LINE
  5
8A
330
88
100
AcDbEntity
  8
0
  6
Continuous
 62
     7
100
AcDbLine
 10
-362.7656860351563
 20
16.33207130432129
 30
0.0
 11
-312.7656860351563
 21
16.33207130432127
 31
0.0
  0
INSERT
  5
8B
330
88
100
AcDbEntity
  8
0
  6
Continuous
 62
     7
100
AcDbBlockReference
  2
_OPEN30
 10
-365.7656860351563
 20
16.33207130432129
 30
0.0
 50
180.0000000000004
  0
INSERT
  5
8C
330
88
100
AcDbEntity
  8
0
  6
Continuous
 62
     7
100
AcDbBlockReference
  2
_OPEN30
 10
-309.7656860351563
 20
16.33207130432129
 30
0.0
  0
LINE
  5
8D
330
88
100
AcDbEntity
  8
0
  6
Continuous
 62
     7
100
AcDbLine
 10
-365.7656860351563
 20
32.98799224853516
 30
0.0
 11
-365.7656860351563
 21
14.04607200622559
 31
0.0
  0
LINE
  5
8E
330
88
100
AcDbEntity
  8
0
  6
Continuous
 62
     7
100
AcDbLine
 10
-309.7656860351563
 20
32.98799224853516
 30
0.0
 11
-309.7656860351563
 21
14.04607200622559
 31
0.0
  0
TEXT
  5
8F
330
88
100
AcDbEntity
  8
0
  6
Continuous
 62
     7
100
AcDbText
 10
-341.8356862068176
 20
17.08207130432129
 30
0.0
 40
3.0
  1
%%C56
 41
0.9498249830693319
100
AcDbText
  0
POINT
  5
90
330
88
100
AcDbEntity
  8
DEFPOINTS
  6
Continuous
 62
     7
100
AcDbPoint
 10
-365.7656860351563
 20
35.52799224853516
 30
0.0
  0
POINT
  5
91
330
88
100
AcDbEntity
  8
DEFPOINTS
  6
Continuous
 62
     7
100
AcDbPoint
 10
-309.7656860351563
 20
35.52799224853516
 30
0.0
  0
POINT
  5
92
330
88
100
AcDbEntity
  8
DEFPOINTS
  6
Continuous
 62
     7
100
AcDbPoint
 10
-309.7656860351563
 20
16.33207130432129
 30
0.0
  0
ENDBLK
  5
93
330
88
100
AcDbEntity
  8
0
100
AcDbBlockEnd
  0
BLOCK
  5
95
330
94
100
AcDbEntity
  8
0
100
AcDbBlockBegin
  2
*D8
 70
     1
 10
0.0
 20
0.0
 30
0.0
  3
*D8
  1

  0
LINE
  5
96
330
94
100
AcDbEntity
  8
0
  6
Continuous
 62
     7
100
AcDbLine
 10
-368.7656860351563
 20
38.0383949279785
 30
0.0
 11
-376.7656860351563
 21
38.03839492797852
 31
0.0
  0
INSERT
  5
97
330
94
100
AcDbEntity
  8
0
  6
Continuous
 62
     7
100
AcDbBlockReference
  2
_OPEN30
 10
-365.7656860351563
 20
38.03839492797852
 30
0.0
  0
INSERT
  5
98
330
94
100
AcDbEntity
  8
0
  6
Continuous
 62
     7
100
AcDbBlockReference
  2
_OPEN30
 10
-379.7656860351563
 20
38.03839492797852
 30
0.0
 50
180.0000000000004
  0
LINE
  5
99
330
94
100
AcDbEntity
  8
0
  6
Continuous
 62
     7
100
AcDbLine
 10
-379.7656860351563
 20
54.92749496459961
 30
0.0
 11
-379.7656860351563
 21
35.75239562988282
 31
0.0
  0
TEXT
  5
9A
330
94
100
AcDbEntity
  8
0
  6
Continuous
 62
     7
100
AcDbText
 10
-375.335686147213
 20
38.78839492797852
 30
0.0
 40
3.0
  1
14
 41
1.285000026226043
100
AcDbText
  0
POINT
  5
9B
330
94
100
AcDbEntity
  8
DEFPOINTS
  6
Continuous
 62
     7
100
AcDbPoint
 10
-365.7656860351563
 20
35.02799224853517
 30
0.0
  0
POINT
  5
9C
330
94
100
AcDbEntity
  8
DEFPOINTS
  6
Continuous
 62
     7
100
AcDbPoint
 10
-379.7656860351563
 20
57.46749496459961
 30
0.0
  0
POINT
  5
9D
330
94
100
AcDbEntity
  8
DEFPOINTS
  6
Continuous
 62
     7
100
AcDbPoint
 10
-379.7656860351563
 20
38.03839492797852
 30
0.0
  0
ENDBLK
  5
9E
330
94
100
AcDbEntity
  8
0
100
AcDbBlockEnd
  0
BLOCK
  5
A0
330
9F
100
AcDbEntity
  8
0
100
AcDbBlockBegin
  2
*D9
 70
     1
 10
0.0
 20
0.0
 30
0.0
  3
*D9
  1

  0
LINE
  5
A1
330
9F
100
AcDbEntity
  8
0
  6
Continuous
 62
     7
100
AcDbLine
 10
-391.7273559570313
 20
56.02799224853516
 30
0.0
 11
-391.7273559570313
 21
48.02799224853515
 31
0.0
  0
INSERT
  5
A2
330
9F
100
AcDbEntity
  8
0
  6
Continuous
 62
     7
100
AcDbBlockReference
  2
_OPEN30
 10
-391.7273559570313
 20
59.02799224853516
 30
0.0
 50
90.00000000000019
  0
INSERT
  5
A3
330
9F
100
AcDbEntity
  8
0
  6
Continuous
 62
     7
100
AcDbBlockReference
  2
_OPEN30
 10
-391.7273559570313
 20
45.02799224853515
 30
0.0
 50
270.0000000000005
  0
LINE
  5
A4
330
9F
100
AcDbEntity
  8
0
  6
Continuous
 62
     7
100
AcDbLine
 10
-370.725302734375
 20
45.02799224853514
 30
0.0
 11
-394.0133666992188
 21
45.02799224853515
 31
0.0
  0
TEXT
  5
A5
330
9F
100
AcDbEntity
  8
0
  6
Continuous
 62
     7
100
AcDbText
 10
-392.477355844693
 20
49.45799210369488
 30
0.0
 40
3.0
  1
14
 50
90.00000250447815
 41
1.285000026226043
100
AcDbText
  0
POINT
  5
A6
330
9F
100
AcDbEntity
  8
DEFPOINTS
  6
Continuous
 62
     7
100
AcDbPoint
 10
-370.7656860351563
 20
59.02799224853516
 30
0.0
  0
POINT
  5
A7
330
9F
100
AcDbEntity
  8
DEFPOINTS
  6
Continuous
 62
     7
100
AcDbPoint
 10
-368.185302734375
 20
45.02799224853515
 30
0.0
  0
POINT
  5
A8
330
9F
100
AcDbEntity
  8
DEFPOINTS
  6
Continuous
 62
     7
100
AcDbPoint
 10
-391.7273559570313
 20
45.02799224853515
 30
0.0
  0
ENDBLK
  5
A9
330
9F
100
AcDbEntity
  8
0
100
AcDbBlockEnd
  0
BLOCK
  5
AB
330
AA
100
AcDbEntity
  8
0
100
AcDbBlockBegin
  2
*D10
 70
     1
 10
0.0
 20
0.0
 30
0.0
  3
*D10
  1

  0
LINE
  5
AC
330
AA
100
AcDbEntity
  8
0
  6
Continuous
 62
     7
100
AcDbLine
 10
-276.7092895507813
 20
360.9440612792969
 30
0.0
 11
-246.1031494140625
 21
384.4619750976563
 31
0.0
  0
LINE
  5
AD
330
AA
100
AcDbEntity
  8
0
  6
Continuous
 62
     7
100
AcDbLine
 10
-396.4432619513224
 20
268.9398369158273
 30
0.0
 11
-279.0881101189901
 21
359.1161628400322
 31
0.0
  0
INSERT
  5
AE
330
AA
100
AcDbEntity
  8
0
  6
Continuous
 62
     7
100
AcDbBlockReference
  2
_OPEN30
 10
-398.8220825195313
 20
267.1119384765625
 30
0.0
 50
217.5388680091833
  0
INSERT
  5
AF
330
AA
100
AcDbEntity
  8
0
  6
Continuous
 62
     7
100
AcDbBlockReference
  2
_OPEN30
 10
-276.7092895507813
 20
360.9440612792969
 30
0.0
 50
37.53886800918261
  0
TEXT
  5
B0
330
AA
100
AcDbEntity
  8
0
  6
Continuous
 62
     7
100
AcDbText
 10
-272.0514629962046
 20
365.4827508258746
 30
0.0
 40
3.0
  1
%%C１５４（防水皿外径）
 50
37.49999933598528
 41
0.8440126077968535
100
AcDbText
  0
POINT
  5
B1
330
AA
100
AcDbEntity
  8
DEFPOINTS
  6
Continuous
 62
     7
100
AcDbPoint
 10
-398.8220825195313
 20
267.1119384765625
 30
0.0
  0
POINT
  5
B2
330
AA
100
AcDbEntity
  8
DEFPOINTS
  6
Continuous
 62
     7
100
AcDbPoint
 10
-276.7092895507813
 20
360.9440612792969
 30
0.0
  0
ENDBLK
  5
B3
330
AA
100
AcDbEntity
  8
0
100
AcDbBlockEnd
  0
BLOCK
  5
B5
330
B4
100
AcDbEntity
  8
0
100
AcDbBlockBegin
  2
*D11
 70
     1
 10
0.0
 20
0.0
 30
0.0
  3
*D11
  1

  0
LINE
  5
B6
330
B4
100
AcDbEntity
  8
0
  6
Continuous
 62
     7
100
AcDbLine
 10
-298.8303527832031
 20
330.5408935546875
 30
0.0
 11
-238.1795043945313
 21
356.1154174804688
 31
0.0
  0
LINE
  5
B7
330
B4
100
AcDbEntity
  8
0
  6
Continuous
 62
     7
100
AcDbLine
 10
-374.3878027911151
 20
298.6806927307226
 30
0.0
 11
-301.5946496014631
 21
329.3752765075586
 31
0.0
  0
INSERT
  5
B8
330
B4
100
AcDbEntity
  8
0
  6
Continuous
 62
     7
100
AcDbBlockReference
  2
_OPEN30
 10
-377.152099609375
 20
297.5150756835938
 30
0.0
 50
202.8636231938598
  0
INSERT
  5
B9
330
B4
100
AcDbEntity
  8
0
  6
Continuous
 62
     7
100
AcDbBlockReference
  2
_OPEN30
 10
-298.8303527832031
 20
330.5408935546875
 30
0.0
 50
22.86362319385913
  0
TEXT
  5
BA
330
B4
100
AcDbEntity
  8
0
  6
Continuous
 62
     7
100
AcDbText
 10
-262.5543624019273
 20
346.642270177042
 30
0.0
 40
3.0
  1
%%C８５（本体外径）
 50
22.90000040957758
 41
0.8448610247221777
100
AcDbText
  0
POINT
  5
BB
330
B4
100
AcDbEntity
  8
DEFPOINTS
  6
Continuous
 62
     7
100
AcDbPoint
 10
-377.152099609375
 20
297.5150756835938
 30
0.0
  0
POINT
  5
BC
330
B4
100
AcDbEntity
  8
DEFPOINTS
  6
Continuous
 62
     7
100
AcDbPoint
 10
-298.8303527832031
 20
330.5408935546875
 30
0.0
  0
ENDBLK
  5
BD
330
B4
100
AcDbEntity
  8
0
100
AcDbBlockEnd
  0
BLOCK
  5
BF
330
BE
100
AcDbEntity
  8
0
100
AcDbBlockBegin
  2
*D12
 70
     1
 10
0.0
 20
0.0
 30
0.0
  3
*D12
  1

  0
LINE
  5
C0
330
BE
100
AcDbEntity
  8
0
  6
Continuous
 62
     7
100
AcDbLine
 10
-305.7730407714844
 20
318.2987670898438
 30
0.0
 11
-226.4584197998047
 21
328.8125
 31
0.0
  0
LINE
  5
C1
330
BE
100
AcDbEntity
  8
0
  6
Continuous
 62
     7
100
AcDbLine
 10
-367.2353960826517
 20
310.1514573426618
 30
0.0
 11
-308.7470257923483
 21
317.9045424131975
 31
0.0
  0
INSERT
  5
C2
330
BE
100
AcDbEntity
  8
0
  6
Continuous
 62
     7
100
AcDbBlockReference
  2
_OPEN30
 10
-370.2093811035156
 20
309.7572326660156
 30
0.0
 50
187.5509758592135
  0
INSERT
  5
C3
330
BE
100
AcDbEntity
  8
0
  6
Continuous
 62
     7
100
AcDbBlockReference
  2
_OPEN30
 10
-305.7730407714844
 20
318.2987670898438
 30
0.0
 50
7.550975859212919
  0
TEXT
  5
C4
330
BE
100
AcDbEntity
  8
0
  6
Continuous
 62
     7
100
AcDbText
 10
-258.4170952671244
 20
325.318826481233
 30
0.0
 40
3.0
  1
%%C６５（排水共栓外径）
 50
7.600000154571024
 41
0.8440126077968535
100
AcDbText
  0
POINT
  5
C5
330
BE
100
AcDbEntity
  8
DEFPOINTS
  6
Continuous
 62
     7
100
AcDbPoint
 10
-370.2093811035156
 20
309.7572326660156
 30
0.0
  0
POINT
  5
C6
330
BE
100
AcDbEntity
  8
DEFPOINTS
  6
Continuous
 62
     7
100
AcDbPoint
 10
-305.7730407714844
 20
318.2987670898438
 30
0.0
  0
ENDBLK
  5
C7
330
BE
100
AcDbEntity
  8
0
100
AcDbBlockEnd
  0
BLOCK
  5
C9
330
C8
100
AcDbEntity
  8
0
100
AcDbBlockBegin
  2
*D13
 70
     1
 10
0.0
 20
0.0
 30
0.0
  3
*D13
  1

  0
LINE
  5
CA
330
C8
100
AcDbEntity
  8
0
  6
Continuous
 62
     7
100
AcDbLine
 10
-319.2006225585938
 20
307.1786499023438
 30
0.0
 11
-235.0248870849609
 21
276.4957580566406
 31
0.0
  0
LINE
  5
CB
330
C8
100
AcDbEntity
  8
0
  6
Continuous
 62
     7
100
AcDbLine
 10
-353.9632103785764
 20
319.8499471089489
 30
0.0
 11
-322.0192114964236
 21
308.2060526469105
 31
0.0
  0
INSERT
  5
CC
330
C8
100
AcDbEntity
  8
0
  6
Continuous
 62
     7
100
AcDbBlockReference
  2
_OPEN30
 10
-356.7817993164063
 20
320.8773498535156
 30
0.0
 50
159.972716032344
  0
INSERT
  5
CD
330
C8
100
AcDbEntity
  8
0
  6
Continuous
 62
     7
100
AcDbBlockReference
  2
_OPEN30
 10
-319.2006225585938
 20
307.1786499023438
 30
0.0
 50
339.9727160323448
  0
TEXT
  5
CE
330
C8
100
AcDbEntity
  8
0
  6
Continuous
 62
     7
100
AcDbText
 10
-259.3298029082058
 20
286.1467745555846
 30
0.0
 40
3.0
  1
%%C４０（子栓外径）
 50
340.0000005818142
 41
0.8448610247221777
100
AcDbText
  0
POINT
  5
CF
330
C8
100
AcDbEntity
  8
DEFPOINTS
  6
Continuous
 62
     7
100
AcDbPoint
 10
-356.7817993164063
 20
320.8773498535156
 30
0.0
  0
POINT
  5
D0
330
C8
100
AcDbEntity
  8
DEFPOINTS
  6
Continuous
 62
     7
100
AcDbPoint
 10
-319.2006225585938
 20
307.1786499023438
 30
0.0
  0
ENDBLK
  5
D1
330
C8
100
AcDbEntity
  8
0
100
AcDbBlockEnd
  0
BLOCK
  5
D3
330
D2
100
AcDbEntity
  8
0
100
AcDbBlockBegin
  2
*D14
 70
     1
 10
0.0
 20
0.0
 30
0.0
  3
*D14
  1

  0
LINE
  5
D4
330
D2
100
AcDbEntity
  8
0
  6
Continuous
 62
     7
100
AcDbLine
 10
-431.3561096191405
 20
37.52799224853516
 30
0.0
 11
-431.3561096191405
 21
89.52799224853515
 31
0.0
  0
INSERT
  5
D5
330
D2
100
AcDbEntity
  8
0
  6
Continuous
 62
     7
100
AcDbBlockReference
  2
_OPEN30
 10
-431.3561096191405
 20
34.52799224853516
 30
0.0
 50
270.0000000000005
  0
INSERT
  5
D6
330
D2
100
AcDbEntity
  8
0
  6
Continuous
 62
     7
100
AcDbBlockReference
  2
_OPEN30
 10
-431.3561096191405
 20
92.52799224853516
 30
0.0
 50
90.00000000000019
  0
LINE
  5
D7
330
D2
100
AcDbEntity
  8
0
  6
Continuous
 62
     7
100
AcDbLine
 10
-367.3056860351563
 20
34.52799224853514
 30
0.0
 11
-433.6420898437499
 21
34.52799224853516
 31
0.0
  0
LINE
  5
D8
330
D2
100
AcDbEntity
  8
0
  6
Continuous
 62
     7
100
AcDbLine
 10
-366.3056860351563
 20
92.52799224853514
 30
0.0
 11
-433.6420898437499
 21
92.52799224853516
 31
0.0
  0
TEXT
  5
D9
330
D2
100
AcDbEntity
  8
0
  6
Continuous
 62
     7
100
AcDbText
 10
-432.1061095068023
 20
60.95799210369488
 30
0.0
 40
3.0
  1
58
 50
90.00000250447815
 41
1.028000020980834
100
AcDbText
  0
POINT
  5
DA
330
D2
100
AcDbEntity
  8
DEFPOINTS
  6
Continuous
 62
     7
100
AcDbPoint
 10
-364.7656860351563
 20
34.52799224853516
 30
0.0
  0
POINT
  5
DB
330
D2
100
AcDbEntity
  8
DEFPOINTS
  6
Continuous
 62
     7
100
AcDbPoint
 10
-363.7656860351563
 20
92.52799224853516
 30
0.0
  0
POINT
  5
DC
330
D2
100
AcDbEntity
  8
DEFPOINTS
  6
Continuous
 62
     7
100
AcDbPoint
 10
-431.3561096191405
 20
92.52799224853516
 30
0.0
  0
ENDBLK
  5
DD
330
D2
100
AcDbEntity
  8
0
100
AcDbBlockEnd
  0
BLOCK
  5
DF
330
DE
100
AcDbEntity
  8
0
100
AcDbBlockBegin
  2
KOZU0001
 70
     0
 10
0.0
 20
0.0
 30
0.0
  3
KOZU0001
  1

  0
LINE
  5
E0
330
DE
100
AcDbEntity
  8
0
  6
Continuous
 62
     7
100
AcDbLine
 10
0.0
 20
0.0
 30
0.0
 11
10.79522705078125
 21
-8.688579559326173
 31
0.0
  0
LINE
  5
E1
330
DE
100
AcDbEntity
  8
0
  6
Continuous
 62
     7
100
AcDbLine
 10
10.79522705078125
 20
-8.688579559326173
 30
0.0
 11
52.12615966796875
 21
-8.688579559326173
 31
0.0
  0
LINE
  5
E2
330
DE
100
AcDbEntity
  8
0
  6
Continuous
 62
     7
100
AcDbLine
 10
0.0
 20
0.0
 30
0.0
 11
2.964060674873706
 21
-1.101972919661472
 31
0.0
  0
LINE
  5
E3
330
DE
100
AcDbEntity
  8
0
  6
Continuous
 62
     7
100
AcDbLine
 10
0.0
 20
0.0
 30
0.0
 11
1.710064788102081
 21
-2.660014740653402
 31
0.0
  0
TEXT
  5
E4
330
DE
100
AcDbEntity
  8
0
  6
Continuous
 62
     7
100
AcDbText
 10
15.26615834236145
 20
-7.938579559326172
 30
0.0
 40
3.0
  1
配管接続口
 41
0.8487395020950888
100
AcDbText
  0
TEXT
  5
E5
330
DE
100
AcDbEntity
  8
0
  6
Continuous
 62
     7
100
AcDbText
 10
15.26615834236145
 20
-13.20357955932617
 30
0.0
 40
3.0
  1
Ｒｃ１　１／２（４０Ａ）
 41
0.8436974815103043
100
AcDbText
  0
ENDBLK
  5
E6
330
DE
100
AcDbEntity
  8
0
100
AcDbBlockEnd
  0
BLOCK
  5
E8
330
E7
100
AcDbEntity
  8
0
100
AcDbBlockBegin
  2
KOZU0002
 70
     0
 10
0.0
 20
0.0
 30
0.0
  3
KOZU0002
  1

  0
LINE
  5
E9
330
E7
100
AcDbEntity
  8
0
  6
Continuous
 62
     7
100
AcDbLine
 10
0.0
 20
0.0
 30
0.0
 11
-21.99639892578125
 21
-39.45159912109375
 31
0.0
  0
LINE
  5
EA
330
E7
100
AcDbEntity
  8
0
  6
Continuous
 62
     7
100
AcDbLine
 10
-21.99639892578125
 20
-39.45159912109375
 30
0.0
 11
-49.84506225585938
 21
-39.45159912109375
 31
0.0
  0
LINE
  5
EB
330
E7
100
AcDbEntity
  8
0
  6
Continuous
 62
     7
100
AcDbLine
 10
0.0
 20
0.0
 30
0.0
 11
-0.5875133750950779
 21
-3.107221915809103
 31
0.0
  0
LINE
  5
EC
330
E7
100
AcDbEntity
  8
0
  6
Continuous
 62
     7
100
AcDbLine
 10
0.0
 20
0.0
 30
0.0
 11
-2.334343849561523
 21
-2.133269507590235
 31
0.0
  0
TEXT
  5
ED
330
E7
100
AcDbEntity
  8
0
  6
Continuous
 62
     7
100
AcDbText
 10
-48.12506186962128
 20
-38.70159912109375
 30
0.0
 40
3.0
  1
共廻り防止用羽根
 41
0.8454512278006642
100
AcDbText
  0
TEXT
  5
EE
330
E7
100
AcDbEntity
  8
0
  6
Continuous
 62
     7
100
AcDbText
 10
-48.12506186962128
 20
-43.96659912109375
 30
0.0
 40
3.0
  1
３ヶ所
 41
0.8550420278260688
100
AcDbText
  0
ENDBLK
  5
EF
330
E7
100
AcDbEntity
  8
0
100
AcDbBlockEnd
  0
ENDSEC
  0
SECTION
  2
ENTITIES
  0
LINE
  5
F0
330
22
100
AcDbEntity
  8
0
  6
CENTER
 62
     7
100
AcDbLine
 10
-257.5973510742188
 20
314.0279846191406
 30
0.0
 11
-417.20556640625
 21
314.0279846191406
 31
0.0
  0
LINE
  5
F1
330
22
100
AcDbEntity
  8
0
  6
CENTER
 62
     7
100
AcDbLine
 10
-337.7656860351563
 20
31.84702301025391
 30
0.0
 11
-337.7656860351563
 21
215.2015533447266
 31
0.0
  0
LINE
  5
F2
330
22
100
AcDbEntity
  8
0
  6
CENTER
 62
     7
100
AcDbLine
 10
-337.7656860351563
 20
232.4654235839844
 30
0.0
 11
-337.7656860351563
 21
392.796630859375
 31
0.0
  0
LINE
  5
F3
330
22
100
AcDbEntity
  8
0
  6
Continuous
 62
     7
100
AcDbLine
 10
-317.3679504394531
 20
207.5279846191406
 30
0.0
 11
-305.8615417480469
 21
207.5279846191406
 31
0.0
  0
LINE
  5
F4
330
22
100
AcDbEntity
  8
0
  6
Continuous
 62
     7
100
AcDbLine
 10
-314.1278991699219
 20
203.1429901123047
 30
0.0
 11
-314.3662109375
 21
203.1429901123047
 31
0.0
  0
LINE
  5
F5
330
22
100
AcDbEntity
  8
0
  6
Continuous
 62
     7
100
AcDbLine
 10
-318.4200744628906
 20
207.5245513916016
 30
0.0
 11
-318.4166564941406
 21
207.5279846191406
 31
0.0
  0
LINE
  5
F6
330
22
100
AcDbEntity
  8
0
  6
Continuous
 62
     7
100
AcDbLine
 10
-305.6323547363281
 20
207.4723663330078
 30
0.0
 11
-305.4171752929688
 21
207.2571868896484
 31
0.0
  0
LINE
  5
F7
330
22
100
AcDbEntity
  8
0
  6
Continuous
 62
     7
100
AcDbLine
 10
-314.5965576171875
 20
62.55949020385742
 30
0.0
 11
-314.5965576171875
 21
57.96287155151367
 31
0.0
  0
LINE
  5
F8
330
22
100
AcDbEntity
  8
0
  6
Continuous
 62
     7
100
AcDbLine
 10
-293.5156860351563
 20
61.52799224853516
 30
0.0
 11
-294.5156860351563
 21
62.52799224853515
 31
0.0
  0
LINE
  5
F9
330
22
100
AcDbEntity
  8
0
  6
Continuous
 62
     7
100
AcDbLine
 10
-315.3431701660156
 20
91.04898834228515
 30
0.0
 11
-315.3431701660156
 21
64.03849029541015
 31
0.0
  0
LINE
  5
FA
330
22
100
AcDbEntity
  8
0
  6
Continuous
 62
     7
100
AcDbLine
 10
-315.2656860351563
 20
72.52799224853515
 30
0.0
 11
-313.7656860351563
 21
74.02799224853516
 31
0.0
  0
LINE
  5
FB
330
22
100
AcDbEntity
  8
0
  6
Continuous
 62
     7
100
AcDbLine
 10
-315.2656860351563
 20
122.5279922485352
 30
0.0
 11
-315.2656860351563
 21
72.52799224853515
 31
0.0
  0
LINE
  5
FC
330
22
100
AcDbEntity
  8
0
  6
Continuous
 62
     7
100
AcDbLine
 10
-313.7656860351563
 20
74.02799224853516
 30
0.0
 11
-313.7944030761719
 21
123.999267578125
 31
0.0
  0
LINE
  5
FD
330
22
100
AcDbEntity
  8
0
  6
Continuous
 62
     7
100
AcDbLine
 10
-305.7656860351563
 20
62.52799224853515
 30
0.0
 11
-262.7656860351563
 21
62.52799224853515
 31
0.0
  0
LINE
  5
FE
330
22
100
AcDbEntity
  8
0
  6
Continuous
 62
     7
100
AcDbLine
 10
-308.7656860351563
 20
59.02799224853516
 30
0.0
 11
-261.2656860351563
 21
59.02799224853516
 31
0.0
  0
LINE
  5
FF
330
22
100
AcDbEntity
  8
0
  6
Continuous
 62
     7
100
AcDbLine
 10
-313.8641662597656
 20
91.07136535644531
 30
0.0
 11
-312.4075622558594
 21
92.52799224853516
 31
0.0
  0
LINE
  5
100
330
22
100
AcDbEntity
  8
0
  6
Continuous
 62
     7
100
AcDbLine
 10
-313.8641662597656
 20
88.24293518066406
 30
0.0
 11
-310.7656860351563
 21
91.34143829345704
 31
0.0
  0
LINE
  5
101
330
22
100
AcDbEntity
  8
0
  6
Continuous
 62
     7
100
AcDbLine
 10
-313.8641662597656
 20
85.41451263427735
 30
0.0
 11
-310.7656860351563
 21
88.51300811767577
 31
0.0
  0
LINE
  5
102
330
22
100
AcDbEntity
  8
0
  6
Continuous
 62
     7
100
AcDbLine
 10
-313.8641662597656
 20
82.58608245849609
 30
0.0
 11
-310.7656860351563
 21
85.68458557128906
 31
0.0
  0
LINE
  5
103
330
22
100
AcDbEntity
  8
0
  6
Continuous
 62
     7
100
AcDbLine
 10
-313.8641662597656
 20
79.75765991210938
 30
0.0
 11
-310.7656860351563
 21
82.8561553955078
 31
0.0
  0
LINE
  5
104
330
22
100
AcDbEntity
  8
0
  6
Continuous
 62
     7
100
AcDbLine
 10
-313.8641662597656
 20
76.92922973632812
 30
0.0
 11
-310.7656860351563
 21
80.02773284912109
 31
0.0
  0
LINE
  5
105
330
22
100
AcDbEntity
  8
0
  6
Continuous
 62
     7
100
AcDbLine
 10
-313.8641662597656
 20
74.10079956054687
 30
0.0
 11
-310.7656860351563
 21
77.19930267333984
 31
0.0
  0
LINE
  5
106
330
22
100
AcDbEntity
  8
0
  6
Continuous
 62
     7
100
AcDbLine
 10
-313.8641662597656
 20
71.27237701416015
 30
0.0
 11
-310.7656860351563
 21
74.37087249755859
 31
0.0
  0
LINE
  5
107
330
22
100
AcDbEntity
  8
0
  6
Continuous
 62
     7
100
AcDbLine
 10
-313.8641662597656
 20
68.4439468383789
 30
0.0
 11
-310.7656860351563
 21
71.54244995117188
 31
0.0
  0
LINE
  5
108
330
22
100
AcDbEntity
  8
0
  6
Continuous
 62
     7
100
AcDbLine
 10
-313.8641662597656
 20
65.61552429199219
 30
0.0
 11
-310.7656860351563
 21
68.71401977539064
 31
0.0
  0
LINE
  5
109
330
22
100
AcDbEntity
  8
0
  6
Continuous
 62
     7
100
AcDbLine
 10
-313.8641662597656
 20
62.78709411621093
 30
0.0
 11
-310.5367431640625
 21
66.11453247070314
 31
0.0
  0
LINE
  5
10A
330
22
100
AcDbEntity
  8
0
  6
Continuous
 62
     7
100
AcDbLine
 10
-313.8641662597656
 20
59.95866775512695
 30
0.0
 11
-309.5397338867188
 21
64.28310394287109
 31
0.0
  0
LINE
  5
10B
330
22
100
AcDbEntity
  8
0
  6
Continuous
 62
     7
100
AcDbLine
 10
-314.5642700195313
 20
56.43013763427735
 30
0.0
 11
-307.9441528320313
 21
63.05026626586914
 31
0.0
  0
LINE
  5
10C
330
22
100
AcDbEntity
  8
0
  6
Continuous
 62
     7
100
AcDbLine
 10
-309.3465270996094
 20
58.81945419311523
 30
0.0
 11
-305.6380004882813
 21
62.52799224853515
 31
0.0
  0
LINE
  5
10D
330
22
100
AcDbEntity
  8
0
  6
Continuous
 62
     7
100
AcDbLine
 10
-314.4785766601563
 20
53.68742370605469
 30
0.0
 11
-309.55712890625
 21
58.60884857177734
 31
0.0
  0
LINE
  5
10E
330
22
100
AcDbEntity
  8
0
  6
Continuous
 62
     7
100
AcDbLine
 10
-306.3095703125
 20
59.02799224853516
 30
0.0
 11
-302.8095703125
 21
62.52799224853515
 31
0.0
  0
LINE
  5
10F
330
22
100
AcDbEntity
  8
0
  6
Continuous
 62
     7
100
AcDbLine
 10
-314.3928527832031
 20
50.9447135925293
 30
0.0
 11
-309.7656860351563
 21
55.57188415527344
 31
0.0
  0
LINE
  5
110
330
22
100
AcDbEntity
  8
0
  6
Continuous
 62
     7
100
AcDbLine
 10
-303.4811401367188
 20
59.02799224853516
 30
0.0
 11
-299.9811401367188
 21
62.52799224853515
 31
0.0
  0
LINE
  5
111
330
22
100
AcDbEntity
  8
0
  6
Continuous
 62
     7
100
AcDbLine
 10
-314.30712890625
 20
48.20199966430664
 30
0.0
 11
-309.7656860351563
 21
52.74345779418945
 31
0.0
  0
LINE
  5
112
330
22
100
AcDbEntity
  8
0
  6
Continuous
 62
     7
100
AcDbLine
 10
-300.6527099609375
 20
59.02799224853516
 30
0.0
 11
-297.1527099609375
 21
62.52799224853515
 31
0.0
  0
LINE
  5
113
330
22
100
AcDbEntity
  8
0
  6
Continuous
 62
     7
100
AcDbLine
 10
-314.221435546875
 20
45.45928573608398
 30
0.0
 11
-309.7656860351563
 21
49.91503143310547
 31
0.0
  0
LINE
  5
114
330
22
100
AcDbEntity
  8
0
  6
Continuous
 62
     7
100
AcDbLine
 10
-297.8242797851563
 20
59.02799224853516
 30
0.0
 11
-294.4199829101563
 21
62.43229675292969
 31
0.0
  0
LINE
  5
115
330
22
100
AcDbEntity
  8
0
  6
Continuous
 62
     7
100
AcDbLine
 10
-314.1357116699219
 20
42.71657180786132
 30
0.0
 11
-309.7656860351563
 21
47.08660507202147
 31
0.0
  0
LINE
  5
116
330
22
100
AcDbEntity
  8
0
  6
Continuous
 62
     7
100
AcDbLine
 10
-294.9958801269531
 20
59.02799224853516
 30
0.0
 11
-291.4958801269531
 21
62.52799224853515
 31
0.0
  0
LINE
  5
117
330
22
100
AcDbEntity
  8
0
  6
Continuous
 62
     7
100
AcDbLine
 10
-314.0499877929688
 20
39.97385787963867
 30
0.0
 11
-309.7656860351563
 21
44.2581787109375
 31
0.0
  0
LINE
  5
118
330
22
100
AcDbEntity
  8
0
  6
Continuous
 62
     7
100
AcDbLine
 10
-292.1674499511719
 20
59.02799224853516
 30
0.0
 11
-288.6674499511719
 21
62.52799224853515
 31
0.0
  0
LINE
  5
119
330
22
100
AcDbEntity
  8
0
  6
Continuous
 62
     7
100
AcDbLine
 10
-313.9642944335938
 20
37.23114776611328
 30
0.0
 11
-309.7656860351563
 21
41.42974853515625
 31
0.0
  0
LINE
  5
11A
330
22
100
AcDbEntity
  8
0
  6
Continuous
 62
     7
100
AcDbLine
 10
-289.3390197753906
 20
59.02799224853516
 30
0.0
 11
-285.8390197753906
 21
62.52799224853515
 31
0.0
  0
LINE
  5
11B
330
22
100
AcDbEntity
  8
0
  6
Continuous
 62
     7
100
AcDbLine
 10
-313.8390197753906
 20
34.52799224853516
 30
0.0
 11
-309.7656860351563
 21
38.60132217407227
 31
0.0
  0
LINE
  5
11C
330
22
100
AcDbEntity
  8
0
  6
Continuous
 62
     7
100
AcDbLine
 10
-286.5105895996094
 20
59.02799224853516
 30
0.0
 11
-283.0105895996094
 21
62.52799224853515
 31
0.0
  0
LINE
  5
11D
330
22
100
AcDbEntity
  8
0
  6
Continuous
 62
     7
100
AcDbLine
 10
-311.0105895996094
 20
34.52799224853516
 30
0.0
 11
-309.7656860351563
 21
35.77289581298828
 31
0.0
  0
LINE
  5
11E
330
22
100
AcDbEntity
  8
0
  6
Continuous
 62
     7
100
AcDbLine
 10
-283.6821594238281
 20
59.02799224853516
 30
0.0
 11
-280.1821594238281
 21
62.52799224853515
 31
0.0
  0
LINE
  5
11F
330
22
100
AcDbEntity
  8
0
  6
Continuous
 62
     7
100
AcDbLine
 10
-280.8537292480469
 20
59.02799224853516
 30
0.0
 11
-277.9335021972656
 21
61.94821929931641
 31
0.0
  0
LINE
  5
120
330
22
100
AcDbEntity
  8
0
  6
Continuous
 62
     7
100
AcDbLine
 10
-278.0252990722656
 20
59.02799224853516
 30
0.0
 11
-274.5252990722656
 21
62.52799224853515
 31
0.0
  0
LINE
  5
121
330
22
100
AcDbEntity
  8
0
  6
Continuous
 62
     7
100
AcDbLine
 10
-275.1968688964844
 20
59.02799224853516
 30
0.0
 11
-271.6968688964844
 21
62.52799224853515
 31
0.0
  0
LINE
  5
122
330
22
100
AcDbEntity
  8
0
  6
Continuous
 62
     7
100
AcDbLine
 10
-272.3684387207031
 20
59.02799224853516
 30
0.0
 11
-268.8684387207031
 21
62.52799224853515
 31
0.0
  0
LINE
  5
123
330
22
100
AcDbEntity
  8
0
  6
Continuous
 62
     7
100
AcDbLine
 10
-269.5400085449219
 20
59.02799224853516
 30
0.0
 11
-266.0400085449219
 21
62.52799224853515
 31
0.0
  0
LINE
  5
124
330
22
100
AcDbEntity
  8
0
  6
Continuous
 62
     7
100
AcDbLine
 10
-266.7116088867188
 20
59.02799224853516
 30
0.0
 11
-263.2116088867188
 21
62.52799224853515
 31
0.0
  0
LINE
  5
125
330
22
100
AcDbEntity
  8
0
  6
Continuous
 62
     7
100
AcDbLine
 10
-263.8831787109375
 20
59.02799224853516
 30
0.0
 11
-261.1982421875
 21
61.71290588378906
 31
0.0
  0
LINE
  5
126
330
22
100
AcDbEntity
  8
0
  6
Continuous
 62
     7
100
AcDbLine
 10
-277.5132751464844
 20
61.52799224853516
 30
0.0
 11
-276.5132751464844
 21
62.52799224853515
 31
0.0
  0
LINE
  5
127
330
22
100
AcDbEntity
  8
0
  6
Continuous
 62
     7
100
AcDbLine
 10
-310.7656860351563
 20
67.52799224853515
 30
0.0
 11
-310.7656860351563
 21
91.52799224853515
 31
0.0
  0
LINE
  5
128
330
22
100
AcDbEntity
  8
0
  6
Continuous
 62
     7
100
AcDbLine
 10
-313.8641662597656
 20
92.52799224853516
 30
0.0
 11
-313.8641662597656
 21
62.55949020385742
 31
0.0
  0
LINE
  5
129
330
22
100
AcDbEntity
  8
0
  6
Continuous
 62
     7
100
AcDbLine
 10
-317.2656860351563
 20
169.513671875
 30
0.0
 11
-315.64697265625
 21
171.1323852539063
 31
0.0
  0
LINE
  5
12A
330
22
100
AcDbEntity
  8
0
  6
Continuous
 62
     7
100
AcDbLine
 10
-317.2656860351563
 20
162.4425964355469
 30
0.0
 11
-315.3819885253906
 21
164.3263092041016
 31
0.0
  0
LINE
  5
12B
330
22
100
AcDbEntity
  8
0
  6
Continuous
 62
     7
100
AcDbLine
 10
-317.2656860351563
 20
155.3715362548828
 30
0.0
 11
-314.9925537109375
 21
157.6446685791016
 31
0.0
  0
LINE
  5
12C
330
22
100
AcDbEntity
  8
0
  6
Continuous
 62
     7
100
AcDbLine
 10
-317.2656860351563
 20
148.3004608154297
 30
0.0
 11
-313.7656860351563
 21
151.8004608154297
 31
0.0
  0
LINE
  5
12D
330
22
100
AcDbEntity
  8
0
  6
Continuous
 62
     7
100
AcDbLine
 10
-317.2656860351563
 20
141.2294006347656
 30
0.0
 11
-313.7656860351563
 21
144.7294006347656
 31
0.0
  0
LINE
  5
12E
330
22
100
AcDbEntity
  8
0
  6
Continuous
 62
     7
100
AcDbLine
 10
-317.2656860351563
 20
134.1583251953125
 30
0.0
 11
-313.7656860351563
 21
137.6583251953125
 31
0.0
  0
LINE
  5
12F
330
22
100
AcDbEntity
  8
0
  6
Continuous
 62
     7
100
AcDbLine
 10
-317.2656860351563
 20
127.0872650146484
 30
0.0
 11
-313.7656860351563
 21
130.5872650146484
 31
0.0
  0
LINE
  5
130
330
22
100
AcDbEntity
  8
0
  6
Continuous
 62
     7
100
AcDbLine
 10
-317.2656860351563
 20
120.0161972045898
 30
0.0
 11
-315.2656860351563
 21
122.0161972045898
 31
0.0
  0
LINE
  5
131
330
22
100
AcDbEntity
  8
0
  6
Continuous
 62
     7
100
AcDbLine
 10
-317.2656860351563
 20
112.9451293945313
 30
0.0
 11
-315.2656860351563
 21
114.9451293945313
 31
0.0
  0
LINE
  5
132
330
22
100
AcDbEntity
  8
0
  6
Continuous
 62
     7
100
AcDbLine
 10
-317.2656860351563
 20
105.8740615844727
 30
0.0
 11
-315.2656860351563
 21
107.8740615844727
 31
0.0
  0
LINE
  5
133
330
22
100
AcDbEntity
  8
0
  6
Continuous
 62
     7
100
AcDbLine
 10
-317.2656860351563
 20
98.80299377441406
 30
0.0
 11
-315.2656860351563
 21
100.8029937744141
 31
0.0
  0
LINE
  5
134
330
22
100
AcDbEntity
  8
0
  6
Continuous
 62
     7
100
AcDbLine
 10
-317.2656860351563
 20
91.73192596435548
 30
0.0
 11
-315.2656860351563
 21
93.73192596435549
 31
0.0
  0
LINE
  5
135
330
22
100
AcDbEntity
  8
0
  6
Continuous
 62
     7
100
AcDbLine
 10
-317.2656860351563
 20
84.66085815429687
 30
0.0
 11
-315.2656860351563
 21
86.66085815429687
 31
0.0
  0
LINE
  5
136
330
22
100
AcDbEntity
  8
0
  6
Continuous
 62
     7
100
AcDbLine
 10
-317.2656860351563
 20
77.58979034423828
 30
0.0
 11
-315.2656860351563
 21
79.58979034423828
 31
0.0
  0
LINE
  5
137
330
22
100
AcDbEntity
  8
0
  6
Continuous
 62
     7
100
AcDbLine
 10
-317.2656860351563
 20
172.5093231201172
 30
0.0
 11
-317.2656860351563
 21
72.52799224853515
 31
0.0
  0
LINE
  5
138
330
22
100
AcDbEntity
  8
0
  6
Continuous
 62
     7
100
AcDbLine
 10
-313.7656860351563
 20
156.6620635986328
 30
0.0
 11
-313.7656860351563
 21
124.0279922485352
 31
0.0
  0
LINE
  5
139
330
22
100
AcDbEntity
  8
0
  6
Continuous
 62
     7
100
AcDbLine
 10
-295.7656860351563
 20
204.5279846191406
 30
0.0
 11
-298.5870971679688
 21
204.5279846191406
 31
0.0
  0
LINE
  5
13A
330
22
100
AcDbEntity
  8
0
  6
Continuous
 62
     7
100
AcDbLine
 10
-295.2656860351563
 20
207.5279846191406
 30
0.0
 11
-295.2656860351563
 21
205.0279846191406
 31
0.0
  0
LINE
  5
13B
330
22
100
AcDbEntity
  8
0
  6
Continuous
 62
     7
100
AcDbLine
 10
-297.6073303222656
 20
207.5279846191406
 30
0.0
 11
-304.8461303710938
 21
207.5279846191406
 31
0.0
  0
LINE
  5
13C
330
22
100
AcDbEntity
  8
0
  6
Continuous
 62
     7
100
AcDbLine
 10
-313.8656921386719
 20
171.5279846191406
 30
0.0
 11
-313.8656921386719
 21
159.5279846191406
 31
0.0
  0
LINE
  5
13D
330
22
100
AcDbEntity
  8
0
  6
Continuous
 62
     7
100
AcDbLine
 10
-315.065673828125
 20
160.7279968261719
 30
0.0
 11
-315.065673828125
 21
170.3279876708984
 31
0.0
  0
LINE
  5
13E
330
22
100
AcDbEntity
  8
0
  6
Continuous
 62
     7
100
AcDbLine
 10
-303.2120971679688
 20
162.5306854248047
 30
0.0
 11
-303.2490234375
 21
160.5278472900391
 31
0.0
  0
LINE
  5
13F
330
22
100
AcDbEntity
  8
0
  6
Continuous
 62
     7
100
AcDbLine
 10
-303.2490234375
 20
160.5278472900391
 30
0.0
 11
-304.2656860351563
 21
159.5279846191406
 31
0.0
  0
LINE
  5
140
330
22
100
AcDbEntity
  8
0
  6
Continuous
 62
     7
100
AcDbLine
 10
-304.2656860351563
 20
159.5279846191406
 30
0.0
 11
-313.8476867675781
 21
159.5279846191406
 31
0.0
  0
LINE
  5
141
330
22
100
AcDbEntity
  8
0
  6
Continuous
 62
     7
100
AcDbLine
 10
-260.7656860351563
 20
59.52799224853515
 30
0.0
 11
-260.7656860351563
 21
60.52799224853515
 31
0.0
  0
LINE
  5
142
330
22
100
AcDbEntity
  8
0
  6
Continuous
 62
     7
100
AcDbLine
 10
-277.5132751464844
 20
61.52799224853516
 30
0.0
 11
-278.5132751464844
 21
62.52799224853515
 31
0.0
  0
LINE
  5
143
330
22
100
AcDbEntity
  8
0
  6
Continuous
 62
     7
100
AcDbLine
 10
-293.5156860351563
 20
61.52799224853516
 30
0.0
 11
-292.5156860351563
 21
62.52799224853515
 31
0.0
  0
LINE
  5
144
330
22
100
AcDbEntity
  8
0
  6
Continuous
 62
     7
100
AcDbLine
 10
-316.0314331054688
 20
56.52799224853516
 30
0.0
 11
-314.5965576171875
 21
57.96287155151367
 31
0.0
  0
LINE
  5
145
330
22
100
AcDbEntity
  8
0
  6
Continuous
 62
     7
100
AcDbLine
 10
-313.7763061523438
 20
92.52799224853516
 30
0.0
 11
-311.7656860351563
 21
92.52799224853516
 31
0.0
  0
LINE
  5
146
330
22
100
AcDbEntity
  8
0
  6
Continuous
 62
     7
100
AcDbLine
 10
-315.2656860351563
 20
122.5279922485352
 30
0.0
 11
-313.7656860351563
 21
124.0279922485352
 31
0.0
  0
LINE
  5
147
330
22
100
AcDbEntity
  8
0
  6
Continuous
 62
     7
100
AcDbLine
 10
-309.7656860351563
 20
58.02799224853515
 30
0.0
 11
-309.7656860351563
 21
35.52799224853516
 31
0.0
  0
LINE
  5
148
330
22
100
AcDbEntity
  8
0
  6
Continuous
 62
     7
100
AcDbLine
 10
-315.3431701660156
 20
64.03849029541015
 30
0.0
 11
-313.8641662597656
 21
62.55949020385742
 31
0.0
  0
LINE
  5
149
330
22
100
AcDbEntity
  8
0
  6
Continuous
 62
     7
100
AcDbLine
 10
-313.8641662597656
 20
34.52799224853516
 30
0.0
 11
-315.3916320800781
 21
36.05544662475586
 31
0.0
  0
LINE
  5
14A
330
22
100
AcDbEntity
  8
0
  6
Continuous
 62
     7
100
AcDbLine
 10
-314.5965576171875
 20
57.96287155151367
 30
0.0
 11
-313.8641662597656
 21
34.52799224853516
 31
0.0
  0
LINE
  5
14B
330
22
100
AcDbEntity
  8
0
  6
Continuous
 62
     7
100
AcDbLine
 10
-316.0314331054688
 20
56.52799224853516
 30
0.0
 11
-315.3916320800781
 21
36.05544662475586
 31
0.0
  0
LINE
  5
14C
330
22
100
AcDbEntity
  8
0
  6
Continuous
 62
     7
100
AcDbLine
 10
-313.8641662597656
 20
92.52799224853516
 30
0.0
 11
-315.3431701660156
 21
91.04898834228515
 31
0.0
  0
LINE
  5
14D
330
22
100
AcDbEntity
  8
0
  6
Continuous
 62
     7
100
AcDbLine
 10
-307.7656860351563
 20
192.52978515625
 30
0.0
 11
-309.7656860351563
 21
192.52978515625
 31
0.0
  0
LINE
  5
14E
330
22
100
AcDbEntity
  8
0
  6
Continuous
 62
     7
100
AcDbLine
 10
-307.7656860351563
 20
179.3279876708984
 30
0.0
 11
-307.7656860351563
 21
193.3497924804688
 31
0.0
  0
LINE
  5
14F
330
22
100
AcDbEntity
  8
0
  6
Continuous
 62
     7
100
AcDbLine
 10
-321.6856689453125
 20
189.5279846191406
 30
0.0
 11
-321.6856689453125
 21
192.5279846191406
 31
0.0
  0
LINE
  5
150
330
22
100
AcDbEntity
  8
0
  6
Continuous
 62
     7
100
AcDbLine
 10
-307.98876953125
 20
190.02978515625
 30
0.0
 11
-307.8656921386719
 21
189.9066925048828
 31
0.0
  0
LINE
  5
151
330
22
100
AcDbEntity
  8
0
  6
Continuous
 62
     7
100
AcDbLine
 10
-308.3656921386719
 20
181.5279846191406
 30
0.0
 11
-310.7856750488281
 21
181.5279846191406
 31
0.0
  0
LINE
  5
152
330
22
100
AcDbEntity
  8
0
  6
Continuous
 62
     7
100
AcDbLine
 10
-321.6856689453125
 20
189.5845642089844
 30
0.0
 11
-321.6291198730469
 21
189.5279846191406
 31
0.0
  0
LINE
  5
153
330
22
100
AcDbEntity
  8
0
  6
Continuous
 62
     7
100
AcDbLine
 10
-310.2666931152344
 20
178.5279846191406
 30
0.0
 11
-311.2656860351563
 21
177.5289916992188
 31
0.0
  0
LINE
  5
154
330
22
100
AcDbEntity
  8
0
  6
Continuous
 62
     7
100
AcDbLine
 10
-311.0020751953125
 20
181.7293853759766
 30
0.0
 11
-310.9778137207031
 21
181.7051086425781
 31
0.0
  0
LINE
  5
155
330
22
100
AcDbEntity
  8
0
  6
Continuous
 62
     7
100
AcDbLine
 10
-308.565673828125
 20
178.5279846191406
 30
0.0
 11
-310.2666931152344
 21
178.5279846191406
 31
0.0
  0
LINE
  5
156
330
22
100
AcDbEntity
  8
0
  6
Continuous
 62
     7
100
AcDbLine
 10
-307.8656921386719
 20
190.02978515625
 30
0.0
 11
-307.8656921386719
 21
182.0279846191406
 31
0.0
  0
LINE
  5
157
330
22
100
AcDbEntity
  8
0
  6
Continuous
 62
     7
100
AcDbLine
 10
-315.7012939453125
 20
172.5279846191406
 30
0.0
 11
-314.1760864257813
 21
171.0027770996094
 31
0.0
  0
LINE
  5
158
330
22
100
AcDbEntity
  8
0
  6
Continuous
 62
     7
100
AcDbLine
 10
-315.065673828125
 20
170.3279876708984
 30
0.0
 11
-313.8656921386719
 21
171.5279846191406
 31
0.0
  0
LINE
  5
159
330
22
100
AcDbEntity
  8
0
  6
Continuous
 62
     7
100
AcDbLine
 10
-308.065673828125
 20
173.5279846191406
 30
0.0
 11
-308.065673828125
 21
171.5279846191406
 31
0.0
  0
LINE
  5
15A
330
22
100
AcDbEntity
  8
0
  6
Continuous
 62
     7
100
AcDbLine
 10
-313.8656921386719
 20
171.5279846191406
 30
0.0
 11
-308.065673828125
 21
171.5279846191406
 31
0.0
  0
LINE
  5
15B
330
22
100
AcDbEntity
  8
0
  6
Continuous
 62
     7
100
AcDbLine
 10
-300.7323608398438
 20
188.5274353027344
 30
0.0
 11
-301.182373046875
 21
164.5268859863281
 31
0.0
  0
LINE
  5
15C
330
22
100
AcDbEntity
  8
0
  6
Continuous
 62
     7
100
AcDbLine
 10
-313.8656921386719
 20
171.5279846191406
 30
0.0
 11
-314.7012939453125
 21
171.5279846191406
 31
0.0
  0
LINE
  5
15D
330
22
100
AcDbEntity
  8
0
  6
Continuous
 62
     7
100
AcDbLine
 10
-310.7856750488281
 20
181.5279846191406
 30
0.0
 11
-311.0018920898438
 21
181.7273254394531
 31
0.0
  0
LINE
  5
15E
330
22
100
AcDbEntity
  8
0
  6
Continuous
 62
     7
100
AcDbLine
 10
-309.7656860351563
 20
190.02978515625
 30
0.0
 11
-307.8656921386719
 21
190.02978515625
 31
0.0
  0
LINE
  5
15F
330
22
100
AcDbEntity
  8
0
  6
Continuous
 62
     7
100
AcDbLine
 10
-301.182373046875
 20
164.5268859863281
 30
0.0
 11
-303.2156982421875
 21
162.5271606445313
 31
0.0
  0
LINE
  5
160
330
22
100
AcDbEntity
  8
0
  6
Continuous
 62
     7
100
AcDbLine
 10
-313.8656921386719
 20
159.5279846191406
 30
0.0
 11
-315.065673828125
 21
160.7279968261719
 31
0.0
  0
LINE
  5
161
330
22
100
AcDbEntity
  8
0
  6
Continuous
 62
     7
100
AcDbLine
 10
-314.1760864257813
 20
171.0027770996094
 30
0.0
 11
-313.7656860351563
 21
156.6620635986328
 31
0.0
  0
LINE
  5
162
330
22
100
AcDbEntity
  8
0
  6
Continuous
 62
     7
100
AcDbLine
 10
-315.1260070800781
 20
157.7515563964844
 30
0.0
 11
-313.7656860351563
 21
156.6620635986328
 31
0.0
  0
LINE
  5
163
330
22
100
AcDbEntity
  8
0
  6
Continuous
 62
     7
100
AcDbLine
 10
-315.7012939453125
 20
172.5279846191406
 30
0.0
 11
-315.1260070800781
 21
157.7515563964844
 31
0.0
  0
LINE
  5
164
330
22
100
AcDbEntity
  8
0
  6
Continuous
 62
     7
100
AcDbLine
 10
-372.2823486328125
 20
160.5278472900391
 30
0.0
 11
-337.7656860351563
 21
160.5278472900391
 31
0.0
  0
LINE
  5
165
330
22
100
AcDbEntity
  8
0
  6
Continuous
 62
     7
100
AcDbLine
 10
-360.4053649902344
 20
157.7515563964844
 30
0.0
 11
-337.7656860351563
 21
157.7515563964844
 31
0.0
  0
LINE
  5
166
330
22
100
AcDbEntity
  8
0
  6
Continuous
 62
     7
100
AcDbLine
 10
-379.7656860351563
 20
204.5279846191406
 30
0.0
 11
-375.8428344726563
 21
204.5279846191406
 31
0.0
  0
LINE
  5
167
330
22
100
AcDbEntity
  8
0
  6
Continuous
 62
     7
100
AcDbLine
 10
-380.2656860351563
 20
207.5279846191406
 30
0.0
 11
-380.2656860351563
 21
205.0279846191406
 31
0.0
  0
LINE
  5
168
330
22
100
AcDbEntity
  8
0
  6
Continuous
 62
     7
100
AcDbLine
 10
-334.5156860351563
 20
207.5279846191406
 30
0.0
 11
-337.7656860351563
 21
207.5279846191406
 31
0.0
  0
LINE
  5
169
330
22
100
AcDbEntity
  8
0
  6
Continuous
 62
     7
100
AcDbLine
 10
-335.5156860351563
 20
206.5279846191406
 30
0.0
 11
-335.5156860351563
 21
204.5279846191406
 31
0.0
  0
LINE
  5
16A
330
22
100
AcDbEntity
  8
0
  6
Continuous
 62
     7
100
AcDbLine
 10
-379.2656860351563
 20
204.5279846191406
 30
0.0
 11
-337.7656860351563
 21
204.5279846191406
 31
0.0
  0
LINE
  5
16B
330
22
100
AcDbEntity
  8
0
  6
Continuous
 62
     7
100
AcDbLine
 10
-374.8485107421875
 20
203.634521484375
 30
0.0
 11
-337.7656860351563
 21
203.634521484375
 31
0.0
  0
LINE
  5
16C
330
22
100
AcDbEntity
  8
0
  6
Continuous
 62
     7
100
AcDbLine
 10
-379.2656860351563
 20
208.5279846191406
 30
0.0
 11
-337.7601013183594
 21
208.5279846191406
 31
0.0
  0
LINE
  5
16D
330
22
100
AcDbEntity
  8
0
  6
Continuous
 62
     7
100
AcDbLine
 10
-307.7656860351563
 20
192.52978515625
 30
0.0
 11
-307.7656860351563
 21
193.3497924804688
 31
0.0
  0
LINE
  5
16E
330
22
100
AcDbEntity
  8
0
  6
Continuous
 62
     7
100
AcDbLine
 10
-320.3652648925781
 20
193.5279846191406
 30
0.0
 11
-322.2652893066406
 21
193.5279846191406
 31
0.0
  0
LINE
  5
16F
330
22
100
AcDbEntity
  8
0
  6
Continuous
 62
     7
100
AcDbLine
 10
-309.7656860351563
 20
192.52978515625
 30
0.0
 11
-309.7656860351563
 21
190.02978515625
 31
0.0
  0
LINE
  5
170
330
22
100
AcDbEntity
  8
0
  6
Continuous
 62
     7
100
AcDbLine
 10
-364.7656860351563
 20
67.52799224853515
 30
0.0
 11
-364.7656860351563
 21
91.52799224853515
 31
0.0
  0
LINE
  5
171
330
22
100
AcDbEntity
  8
0
  6
Continuous
 62
     7
100
AcDbLine
 10
-379.7656860351563
 20
59.02799224853516
 30
0.0
 11
-379.7656860351563
 21
57.46749496459961
 31
0.0
  0
LINE
  5
172
330
22
100
AcDbEntity
  8
0
  6
Continuous
 62
     7
100
AcDbLine
 10
-379.7656860351563
 20
59.02799224853516
 30
0.0
 11
-395.6152648925781
 21
59.02799224853516
 31
0.0
  0
LINE
  5
173
330
22
100
AcDbEntity
  8
0
  6
Continuous
 62
     7
100
AcDbLine
 10
-360.2656860351563
 20
92.52799224853516
 30
0.0
 11
-360.2656860351563
 21
122.5279922485352
 31
0.0
  0
LINE
  5
174
330
22
100
AcDbEntity
  8
0
  6
Continuous
 62
     7
100
AcDbLine
 10
-360.2656860351563
 20
122.5279922485352
 30
0.0
 11
-361.7656860351563
 21
124.0279922485352
 31
0.0
  0
LINE
  5
175
330
22
100
AcDbEntity
  8
0
  6
Continuous
 62
     7
100
AcDbLine
 10
-370.7656860351563
 20
59.02799224853516
 30
0.0
 11
-366.7656860351563
 21
59.02799224853516
 31
0.0
  0
LINE
  5
176
330
22
100
AcDbEntity
  8
0
  6
Continuous
 62
     7
100
AcDbLine
 10
-365.7656860351563
 20
45.02799224853515
 30
0.0
 11
-368.185302734375
 21
45.02799224853515
 31
0.0
  0
LINE
  5
177
330
22
100
AcDbEntity
  8
0
  6
Continuous
 62
     7
100
AcDbLine
 10
-361.7656860351563
 20
156.6620635986328
 30
0.0
 11
-361.7656860351563
 21
124.0279922485352
 31
0.0
  0
LINE
  5
178
330
22
100
AcDbEntity
  8
0
  6
Continuous
 62
     7
100
AcDbLine
 10
-333.7656860351563
 20
177.0279846191406
 30
0.0
 11
-333.7656860351563
 21
193.1774597167969
 31
0.0
  0
LINE
  5
179
330
22
100
AcDbEntity
  8
0
  6
Continuous
 62
     7
100
AcDbLine
 10
-342.0100402832031
 20
164.5268859863281
 30
0.0
 11
-337.7773132324219
 21
164.5268859863281
 31
0.0
  0
LINE
  5
17A
330
22
100
AcDbEntity
  8
0
  6
Continuous
 62
     7
100
AcDbLine
 10
-337.7656860351563
 20
162.5278472900391
 30
0.0
 11
-341.9844360351563
 21
162.5278472900391
 31
0.0
  0
LINE
  5
17B
330
22
100
AcDbEntity
  8
0
  6
Continuous
 62
     7
100
AcDbLine
 10
-363.7656860351563
 20
92.52799224853516
 30
0.0
 11
-337.7656860351563
 21
92.52799224853516
 31
0.0
  0
LINE
  5
17C
330
22
100
AcDbEntity
  8
0
  6
Continuous
 62
     7
100
AcDbLine
 10
-366.7656860351563
 20
59.02799224853516
 30
0.0
 11
-337.7656860351563
 21
59.02799224853516
 31
0.0
  0
LINE
  5
17D
330
22
100
AcDbEntity
  8
0
  6
Continuous
 62
     7
100
AcDbLine
 10
-369.7656860351563
 20
62.52799224853515
 30
0.0
 11
-337.7656860351563
 21
62.52799224853515
 31
0.0
  0
LINE
  5
17E
330
22
100
AcDbEntity
  8
0
  6
Continuous
 62
     7
100
AcDbLine
 10
-360.2656860351563
 20
122.5279922485352
 30
0.0
 11
-337.7656860351563
 21
122.5279922485352
 31
0.0
  0
LINE
  5
17F
330
22
100
AcDbEntity
  8
0
  6
Continuous
 62
     7
100
AcDbLine
 10
-337.7656860351563
 20
159.5279846191406
 30
0.0
 11
-371.2656860351563
 21
159.5279846191406
 31
0.0
  0
LINE
  5
180
330
22
100
AcDbEntity
  8
0
  6
Continuous
 62
     7
100
AcDbLine
 10
-323.7652893066406
 20
195.0279846191406
 30
0.0
 11
-323.7652893066406
 21
195.1774597167969
 31
0.0
  0
LINE
  5
181
330
22
100
AcDbEntity
  8
0
  6
Continuous
 62
     7
100
AcDbLine
 10
-300.7656860351563
 20
188.5279846191406
 30
0.0
 11
-298.5870971679688
 21
204.5279846191406
 31
0.0
  0
LINE
  5
182
330
22
100
AcDbEntity
  8
0
  6
Continuous
 62
     7
100
AcDbLine
 10
-319.76708984375
 20
198.5274505615234
 30
0.0
 11
-321.7652893066406
 21
198.5274505615234
 31
0.0
  0
LINE
  5
183
330
22
100
AcDbEntity
  8
0
  6
Continuous
 62
     7
100
AcDbLine
 10
-317.9070739746094
 20
206.9155120849609
 30
0.0
 11
-319.76708984375
 21
198.8589477539063
 31
0.0
  0
LINE
  5
184
330
22
100
AcDbEntity
  8
0
  6
Continuous
 62
     7
100
AcDbLine
 10
-374.7990112304688
 20
188.5274353027344
 30
0.0
 11
-374.3489990234375
 21
164.5268859863281
 31
0.0
  0
LINE
  5
185
330
22
100
AcDbEntity
  8
0
  6
Continuous
 62
     7
100
AcDbLine
 10
-374.3489990234375
 20
164.5268859863281
 30
0.0
 11
-372.315673828125
 21
162.5271606445313
 31
0.0
  0
LINE
  5
186
330
22
100
AcDbEntity
  8
0
  6
Continuous
 62
     7
100
AcDbLine
 10
-360.4053649902344
 20
157.7515563964844
 30
0.0
 11
-361.7656860351563
 21
156.6620635986328
 31
0.0
  0
LINE
  5
187
330
22
100
AcDbEntity
  8
0
  6
Continuous
 62
     7
100
AcDbLine
 10
-361.6836547851563
 20
159.5279846191406
 30
0.0
 11
-361.7656860351563
 21
156.6620635986328
 31
0.0
  0
LINE
  5
188
330
22
100
AcDbEntity
  8
0
  6
Continuous
 62
     7
100
AcDbLine
 10
-360.336181640625
 20
159.5279846191406
 30
0.0
 11
-360.4053649902344
 21
157.7515563964844
 31
0.0
  0
LINE
  5
189
330
22
100
AcDbEntity
  8
0
  6
Continuous
 62
     7
100
AcDbLine
 10
-372.2823486328125
 20
160.5278472900391
 30
0.0
 11
-371.2656860351563
 21
159.5279846191406
 31
0.0
  0
LINE
  5
18A
330
22
100
AcDbEntity
  8
0
  6
Continuous
 62
     7
100
AcDbLine
 10
-372.8051452636719
 20
188.8964080810547
 30
0.0
 11
-372.2823486328125
 21
160.5278472900391
 31
0.0
  0
LINE
  5
18B
330
22
100
AcDbEntity
  8
0
  6
Continuous
 62
     7
100
AcDbLine
 10
-372.8051452636719
 20
188.8964080810547
 30
0.0
 11
-342.3276672363281
 21
188.8964080810547
 31
0.0
  0
LINE
  5
18C
330
22
100
AcDbEntity
  8
0
  6
Continuous
 62
     7
100
AcDbLine
 10
-361.7656860351563
 20
92.52799224853516
 30
0.0
 11
-361.7656860351563
 21
124.0279922485352
 31
0.0
  0
LINE
  5
18D
330
22
100
AcDbEntity
  8
0
  6
Continuous
 62
     7
100
AcDbLine
 10
-365.7656860351563
 20
58.02799224853515
 30
0.0
 11
-365.7656860351563
 21
35.52799224853516
 31
0.0
  0
LINE
  5
18E
330
22
100
AcDbEntity
  8
0
  6
Continuous
 62
     7
100
AcDbLine
 10
-414.7656860351562
 20
59.52799224853515
 30
0.0
 11
-414.7656860351562
 21
60.52799224853515
 31
0.0
  0
LINE
  5
18F
330
22
100
AcDbEntity
  8
0
  6
Continuous
 62
     7
100
AcDbLine
 10
-414.2656860351562
 20
59.02799224853516
 30
0.0
 11
-370.7656860351563
 21
59.02799224853516
 31
0.0
  0
LINE
  5
190
330
22
100
AcDbEntity
  8
0
  6
Continuous
 62
     7
100
AcDbLine
 10
-412.7656860351563
 20
62.52799224853515
 30
0.0
 11
-369.7656860351563
 21
62.52799224853515
 31
0.0
  0
LINE
  5
191
330
22
100
AcDbEntity
  8
0
  6
Continuous
 62
     7
100
AcDbLine
 10
-374.7656860351563
 20
188.5279846191406
 30
0.0
 11
-376.9442443847656
 21
204.5279846191406
 31
0.0
  0
LINE
  5
192
330
22
100
AcDbEntity
  8
0
  6
Continuous
 62
     7
100
AcDbLine
 10
-372.8051452636719
 20
188.8964080810547
 30
0.0
 11
-374.8485107421875
 21
203.634521484375
 31
0.0
  0
LINE
  5
193
330
22
100
AcDbEntity
  8
0
  6
Continuous
 62
     7
100
AcDbLine
 10
-341.9844360351563
 20
162.5278472900391
 30
0.0
 11
-342.4844360351563
 21
203.5278472900391
 31
0.0
  0
LINE
  5
194
330
22
100
AcDbEntity
  8
0
  6
Continuous
 62
     7
100
AcDbLine
 10
-317.8551330566406
 20
207.1404724121094
 30
0.0
 11
-319.76708984375
 21
198.8589477539063
 31
0.0
  0
LINE
  5
195
330
22
100
AcDbEntity
  8
0
  6
Continuous
 62
     7
100
AcDbLine
 10
-321.7652893066406
 20
196.0279846191406
 30
0.0
 11
-319.8652648925781
 21
196.0279846191406
 31
0.0
  0
LINE
  5
196
330
22
100
AcDbEntity
  8
0
  6
Continuous
 62
     7
100
AcDbLine
 10
-321.7652893066406
 20
198.5274505615234
 30
0.0
 11
-321.7652893066406
 21
196.0279846191406
 31
0.0
  0
LINE
  5
197
330
22
100
AcDbEntity
  8
0
  6
Continuous
 62
     7
100
AcDbLine
 10
-319.8652648925781
 20
196.0279846191406
 30
0.0
 11
-319.8652648925781
 21
194.0279846191406
 31
0.0
  0
LINE
  5
198
330
22
100
AcDbEntity
  8
0
  6
Continuous
 62
     7
100
AcDbLine
 10
-305.369140625
 20
206.941162109375
 30
0.0
 11
-307.7656860351563
 21
193.3497924804688
 31
0.0
  0
LINE
  5
199
330
22
100
AcDbEntity
  8
0
  6
Continuous
 62
     7
100
AcDbLine
 10
-319.76708984375
 20
198.8589477539063
 30
0.0
 11
-319.76708984375
 21
192.5279846191406
 31
0.0
  0
LINE
  5
19A
330
22
100
AcDbEntity
  8
0
  6
Continuous
 62
     7
100
AcDbLine
 10
-312.6328430175781
 20
201.7646789550781
 30
0.0
 11
-311.0018920898438
 21
181.7273254394531
 31
0.0
  0
LINE
  5
19B
330
22
100
AcDbEntity
  8
0
  6
Continuous
 62
     7
100
AcDbLine
 10
-319.76708984375
 20
198.5274505615234
 30
0.0
 11
-319.76708984375
 21
198.8589477539063
 31
0.0
  0
LINE
  5
19C
330
22
100
AcDbEntity
  8
0
  6
Continuous
 62
     7
100
AcDbLine
 10
-315.8609008789063
 20
201.7690277099609
 30
0.0
 11
-316.7386779785156
 21
191.3599395751953
 31
0.0
  0
LINE
  5
19D
330
22
100
AcDbEntity
  8
0
  6
Continuous
 62
     7
100
AcDbLine
 10
-332.9856872558594
 20
188.1566467285156
 30
0.0
 11
-332.8570251464844
 21
188.0279846191406
 31
0.0
  0
LINE
  5
19E
330
22
100
AcDbEntity
  8
0
  6
Continuous
 62
     7
100
AcDbLine
 10
-331.9856872558594
 20
188.0279846191406
 30
0.0
 11
-332.9856872558594
 21
188.0279846191406
 31
0.0
  0
LINE
  5
19F
330
22
100
AcDbEntity
  8
0
  6
Continuous
 62
     7
100
AcDbLine
 10
-337.7656860351563
 20
177.0279846191406
 30
0.0
 11
-331.7656860351563
 21
177.0279846191406
 31
0.0
  0
LINE
  5
1A0
330
22
100
AcDbEntity
  8
0
  6
Continuous
 62
     7
100
AcDbLine
 10
-305.8228759765625
 20
207.5252532958984
 30
0.0
 11
-305.3732299804688
 21
207.0755920410156
 31
0.0
  0
LINE
  5
1A1
330
22
100
AcDbEntity
  8
0
  6
Continuous
 62
     7
100
AcDbLine
 10
-306.8862915039063
 20
207.5279846191406
 30
0.0
 11
-305.5086059570313
 21
206.1503143310547
 31
0.0
  0
LINE
  5
1A2
330
22
100
AcDbEntity
  8
0
  6
Continuous
 62
     7
100
AcDbLine
 10
-307.2398376464844
 20
207.5279846191406
 30
0.0
 11
-305.5615844726563
 21
205.8497619628906
 31
0.0
  0
LINE
  5
1A3
330
22
100
AcDbEntity
  8
0
  6
Continuous
 62
     7
100
AcDbLine
 10
-308.3005065917969
 20
207.5279846191406
 30
0.0
 11
-305.7205810546875
 21
204.9480895996094
 31
0.0
  0
LINE
  5
1A4
330
22
100
AcDbEntity
  8
0
  6
Continuous
 62
     7
100
AcDbLine
 10
-308.654052734375
 20
207.5279846191406
 30
0.0
 11
-305.7735900878906
 21
204.6475219726563
 31
0.0
  0
LINE
  5
1A5
330
22
100
AcDbEntity
  8
0
  6
Continuous
 62
     7
100
AcDbLine
 10
-309.7147216796875
 20
207.5279846191406
 30
0.0
 11
-305.9325866699219
 21
203.745849609375
 31
0.0
  0
LINE
  5
1A6
330
22
100
AcDbEntity
  8
0
  6
Continuous
 62
     7
100
AcDbLine
 10
-310.0682678222656
 20
207.5279846191406
 30
0.0
 11
-305.9855651855469
 21
203.4452972412109
 31
0.0
  0
LINE
  5
1A7
330
22
100
AcDbEntity
  8
0
  6
Continuous
 62
     7
100
AcDbLine
 10
-311.12890625
 20
207.5279846191406
 30
0.0
 11
-306.1445617675781
 21
202.5436248779297
 31
0.0
  0
LINE
  5
1A8
330
22
100
AcDbEntity
  8
0
  6
Continuous
 62
     7
100
AcDbLine
 10
-311.4824829101563
 20
207.5279846191406
 30
0.0
 11
-306.1975402832031
 21
202.2430725097656
 31
0.0
  0
LINE
  5
1A9
330
22
100
AcDbEntity
  8
0
  6
Continuous
 62
     7
100
AcDbLine
 10
-312.5431213378906
 20
207.5279846191406
 30
0.0
 11
-306.3565368652344
 21
201.3414001464844
 31
0.0
  0
LINE
  5
1AA
330
22
100
AcDbEntity
  8
0
  6
Continuous
 62
     7
100
AcDbLine
 10
-312.8966979980469
 20
207.5279846191406
 30
0.0
 11
-306.4095458984375
 21
201.0408477783203
 31
0.0
  0
LINE
  5
1AB
330
22
100
AcDbEntity
  8
0
  6
Continuous
 62
     7
100
AcDbLine
 10
-313.9573364257813
 20
207.5279846191406
 30
0.0
 11
-306.5685424804688
 21
200.1391754150391
 31
0.0
  0
LINE
  5
1AC
330
22
100
AcDbEntity
  8
0
  6
Continuous
 62
     7
100
AcDbLine
 10
-314.3109130859375
 20
207.5279846191406
 30
0.0
 11
-306.6215209960938
 21
199.8386077880859
 31
0.0
  0
LINE
  5
1AD
330
22
100
AcDbEntity
  8
0
  6
Continuous
 62
     7
100
AcDbLine
 10
-315.3715515136719
 20
207.5279846191406
 30
0.0
 11
-306.780517578125
 21
198.9369354248047
 31
0.0
  0
LINE
  5
1AE
330
22
100
AcDbEntity
  8
0
  6
Continuous
 62
     7
100
AcDbLine
 10
-315.7251281738281
 20
207.5279846191406
 30
0.0
 11
-306.83349609375
 21
198.6363830566406
 31
0.0
  0
LINE
  5
1AF
330
22
100
AcDbEntity
  8
0
  6
Continuous
 62
     7
100
AcDbLine
 10
-316.7857666015625
 20
207.5279846191406
 30
0.0
 11
-306.9924926757813
 21
197.7347106933594
 31
0.0
  0
LINE
  5
1B0
330
22
100
AcDbEntity
  8
0
  6
Continuous
 62
     7
100
AcDbLine
 10
-317.1393432617188
 20
207.5279846191406
 30
0.0
 11
-307.0455017089844
 21
197.4341583251953
 31
0.0
  0
LINE
  5
1B1
330
22
100
AcDbEntity
  8
0
  6
Continuous
 62
     7
100
AcDbLine
 10
-312.6795654296875
 20
202.007568359375
 30
0.0
 11
-307.2044982910156
 21
196.5324859619141
 31
0.0
  0
LINE
  5
1B2
330
22
100
AcDbEntity
  8
0
  6
Continuous
 62
     7
100
AcDbLine
 10
-317.8447875976563
 20
207.1728057861328
 30
0.0
 11
-313.7669372558594
 21
203.0949401855469
 31
0.0
  0
LINE
  5
1B3
330
22
100
AcDbEntity
  8
0
  6
Continuous
 62
     7
100
AcDbLine
 10
-312.618896484375
 20
201.5933532714844
 30
0.0
 11
-307.2574768066406
 21
196.23193359375
 31
0.0
  0
LINE
  5
1B4
330
22
100
AcDbEntity
  8
0
  6
Continuous
 62
     7
100
AcDbLine
 10
-317.9134521484375
 20
206.8879089355469
 30
0.0
 11
-314.16845703125
 21
203.1429138183594
 31
0.0
  0
LINE
  5
1B5
330
22
100
AcDbEntity
  8
0
  6
Continuous
 62
     7
100
AcDbLine
 10
-312.5249328613281
 20
200.4387054443359
 30
0.0
 11
-307.4164733886719
 21
195.3302612304688
 31
0.0
  0
LINE
  5
1B6
330
22
100
AcDbEntity
  8
0
  6
Continuous
 62
     7
100
AcDbLine
 10
-318.1123962402344
 20
206.0261840820313
 30
0.0
 11
-315.0566101074219
 21
202.9703979492188
 31
0.0
  0
LINE
  5
1B7
330
22
100
AcDbEntity
  8
0
  6
Continuous
 62
     7
100
AcDbLine
 10
-312.4935913085938
 20
200.0538330078125
 30
0.0
 11
-307.4694519042969
 21
195.0296936035156
 31
0.0
  0
LINE
  5
1B8
330
22
100
AcDbEntity
  8
0
  6
Continuous
 62
     7
100
AcDbLine
 10
-318.1787109375
 20
205.7389526367188
 30
0.0
 11
-315.2750549316406
 21
202.8352813720703
 31
0.0
  0
LINE
  5
1B9
330
22
100
AcDbEntity
  8
0
  6
Continuous
 62
     7
100
AcDbLine
 10
-312.3996276855469
 20
198.8991851806641
 30
0.0
 11
-307.6284484863281
 21
194.1280212402344
 31
0.0
  0
LINE
  5
1BA
330
22
100
AcDbEntity
  8
0
  6
Continuous
 62
     7
100
AcDbLine
 10
-318.3776550292969
 20
204.8772277832031
 30
0.0
 11
-315.7366027832031
 21
202.2361755371094
 31
0.0
  0
LINE
  5
1BB
330
22
100
AcDbEntity
  8
0
  6
Continuous
 62
     7
100
AcDbLine
 10
-312.3682861328125
 20
198.5143127441406
 30
0.0
 11
-307.6814575195313
 21
193.8274688720703
 31
0.0
  0
LINE
  5
1BC
330
22
100
AcDbEntity
  8
0
  6
Continuous
 62
     7
100
AcDbLine
 10
-318.4439697265625
 20
204.5899963378906
 30
0.0
 11
-315.8231506347656
 21
201.9691772460938
 31
0.0
  0
LINE
  5
1BD
330
22
100
AcDbEntity
  8
0
  6
Continuous
 62
     7
100
AcDbLine
 10
-312.2742919921875
 20
197.3596649169922
 30
0.0
 11
-307.7656860351563
 21
192.8510437011719
 31
0.0
  0
LINE
  5
1BE
330
22
100
AcDbEntity
  8
0
  6
Continuous
 62
     7
100
AcDbLine
 10
-318.6429138183594
 20
203.728271484375
 30
0.0
 11
-315.9248962402344
 21
201.01025390625
 31
0.0
  0
LINE
  5
1BF
330
22
100
AcDbEntity
  8
0
  6
Continuous
 62
     7
100
AcDbLine
 10
-312.2429809570313
 20
196.9747772216797
 30
0.0
 11
-307.9130249023438
 21
192.6448364257813
 31
0.0
  0
LINE
  5
1C0
330
22
100
AcDbEntity
  8
0
  6
Continuous
 62
     7
100
AcDbLine
 10
-318.709228515625
 20
203.4410400390625
 30
0.0
 11
-315.952392578125
 21
200.6841888427734
 31
0.0
  0
LINE
  5
1C1
330
22
100
AcDbEntity
  8
0
  6
Continuous
 62
     7
100
AcDbLine
 10
-312.1489868164063
 20
195.8201446533203
 30
0.0
 11
-308.858642578125
 21
192.52978515625
 31
0.0
  0
LINE
  5
1C2
330
22
100
AcDbEntity
  8
0
  6
Continuous
 62
     7
100
AcDbLine
 10
-318.9081726074219
 20
202.5793151855469
 30
0.0
 11
-316.0348815917969
 21
199.7060241699219
 31
0.0
  0
LINE
  5
1C3
330
22
100
AcDbEntity
  8
0
  6
Continuous
 62
     7
100
AcDbLine
 10
-312.11767578125
 20
195.4352569580078
 30
0.0
 11
-309.2121887207031
 21
192.52978515625
 31
0.0
  0
LINE
  5
1C4
330
22
100
AcDbEntity
  8
0
  6
Continuous
 62
     7
100
AcDbLine
 10
-318.9744873046875
 20
202.2920837402344
 30
0.0
 11
-316.0623779296875
 21
199.3799591064453
 31
0.0
  0
LINE
  5
1C5
330
22
100
AcDbEntity
  8
0
  6
Continuous
 62
     7
100
AcDbLine
 10
-312.023681640625
 20
194.2806243896484
 30
0.0
 11
-309.7656860351563
 21
192.0226135253906
 31
0.0
  0
LINE
  5
1C6
330
22
100
AcDbEntity
  8
0
  6
Continuous
 62
     7
100
AcDbLine
 10
-319.1734313964844
 20
201.4303588867188
 30
0.0
 11
-316.1448364257813
 21
198.4017791748047
 31
0.0
  0
LINE
  5
1C7
330
22
100
AcDbEntity
  8
0
  6
Continuous
 62
     7
100
AcDbLine
 10
-308.1264038085938
 20
190.02978515625
 30
0.0
 11
-307.8656921386719
 21
189.7690582275391
 31
0.0
  0
LINE
  5
1C8
330
22
100
AcDbEntity
  8
0
  6
Continuous
 62
     7
100
AcDbLine
 10
-311.9923706054688
 20
193.8957366943359
 30
0.0
 11
-309.7656860351563
 21
191.6690521240234
 31
0.0
  0
LINE
  5
1C9
330
22
100
AcDbEntity
  8
0
  6
Continuous
 62
     7
100
AcDbLine
 10
-319.23974609375
 20
201.1431274414063
 30
0.0
 11
-316.1723327636719
 21
198.0757293701172
 31
0.0
  0
LINE
  5
1CA
330
22
100
AcDbEntity
  8
0
  6
Continuous
 62
     7
100
AcDbLine
 10
-309.1870727539063
 20
190.02978515625
 30
0.0
 11
-307.8656921386719
 21
188.7084045410156
 31
0.0
  0
LINE
  5
1CB
330
22
100
AcDbEntity
  8
0
  6
Continuous
 62
     7
100
AcDbLine
 10
-311.8983764648438
 20
192.7410888671875
 30
0.0
 11
-309.7656860351563
 21
190.6083984375
 31
0.0
  0
LINE
  5
1CC
330
22
100
AcDbEntity
  8
0
  6
Continuous
 62
     7
100
AcDbLine
 10
-319.4386901855469
 20
200.2814025878906
 30
0.0
 11
-316.2548217773438
 21
197.0975494384766
 31
0.0
  0
LINE
  5
1CD
330
22
100
AcDbEntity
  8
0
  6
Continuous
 62
     7
100
AcDbLine
 10
-309.5406188964844
 20
190.02978515625
 30
0.0
 11
-307.8656921386719
 21
188.3548431396484
 31
0.0
  0
LINE
  5
1CE
330
22
100
AcDbEntity
  8
0
  6
Continuous
 62
     7
100
AcDbLine
 10
-311.8670349121094
 20
192.3562164306641
 30
0.0
 11
-309.7656860351563
 21
190.2548522949219
 31
0.0
  0
LINE
  5
1CF
330
22
100
AcDbEntity
  8
0
  6
Continuous
 62
     7
100
AcDbLine
 10
-319.5050048828125
 20
199.9941711425781
 30
0.0
 11
-316.2823181152344
 21
196.7714996337891
 31
0.0
  0
LINE
  5
1D0
330
22
100
AcDbEntity
  8
0
  6
Continuous
 62
     7
100
AcDbLine
 10
-311.7730712890625
 20
191.2015686035156
 30
0.0
 11
-307.8656921386719
 21
187.294189453125
 31
0.0
  0
LINE
  5
1D1
330
22
100
AcDbEntity
  8
0
  6
Continuous
 62
     7
100
AcDbLine
 10
-319.7039489746094
 20
199.1324462890625
 30
0.0
 11
-316.3648071289063
 21
195.7933197021484
 31
0.0
  0
LINE
  5
1D2
330
22
100
AcDbEntity
  8
0
  6
Continuous
 62
     7
100
AcDbLine
 10
-311.7417297363281
 20
190.8166961669922
 30
0.0
 11
-307.8656921386719
 21
186.9406280517578
 31
0.0
  0
LINE
  5
1D3
330
22
100
AcDbEntity
  8
0
  6
Continuous
 62
     7
100
AcDbLine
 10
-319.76708984375
 20
198.842041015625
 30
0.0
 11
-316.3923034667969
 21
195.4672698974609
 31
0.0
  0
LINE
  5
1D4
330
22
100
AcDbEntity
  8
0
  6
Continuous
 62
     7
100
AcDbLine
 10
-311.6477661132813
 20
189.6620483398438
 30
0.0
 11
-307.8656921386719
 21
185.8799743652344
 31
0.0
  0
LINE
  5
1D5
330
22
100
AcDbEntity
  8
0
  6
Continuous
 62
     7
100
AcDbLine
 10
-319.76708984375
 20
197.7813720703125
 30
0.0
 11
-316.4747924804688
 21
194.4890899658203
 31
0.0
  0
LINE
  5
1D6
330
22
100
AcDbEntity
  8
0
  6
Continuous
 62
     7
100
AcDbLine
 10
-311.6164245605469
 20
189.2771606445313
 30
0.0
 11
-307.8656921386719
 21
185.5264129638672
 31
0.0
  0
LINE
  5
1D7
330
22
100
AcDbEntity
  8
0
  6
Continuous
 62
     7
100
AcDbLine
 10
-319.76708984375
 20
197.4278259277344
 30
0.0
 11
-316.5022888183594
 21
194.1630249023438
 31
0.0
  0
LINE
  5
1D8
330
22
100
AcDbEntity
  8
0
  6
Continuous
 62
     7
100
AcDbLine
 10
-311.5224304199219
 20
188.1225280761719
 30
0.0
 11
-307.8656921386719
 21
184.4657592773438
 31
0.0
  0
LINE
  5
1D9
330
22
100
AcDbEntity
  8
0
  6
Continuous
 62
     7
100
AcDbLine
 10
-319.76708984375
 20
196.3671722412109
 30
0.0
 11
-316.5847778320313
 21
193.1848602294922
 31
0.0
  0
LINE
  5
1DA
330
22
100
AcDbEntity
  8
0
  6
Continuous
 62
     7
100
AcDbLine
 10
-311.4911193847656
 20
187.7376403808594
 30
0.0
 11
-307.8656921386719
 21
184.1121978759766
 31
0.0
  0
LINE
  5
1DB
330
22
100
AcDbEntity
  8
0
  6
Continuous
 62
     7
100
AcDbLine
 10
-319.76708984375
 20
196.0136108398438
 30
0.0
 11
-316.6122741699219
 21
192.8587951660156
 31
0.0
  0
LINE
  5
1DC
330
22
100
AcDbEntity
  8
0
  6
Continuous
 62
     7
100
AcDbLine
 10
-311.3971252441406
 20
186.5829925537109
 30
0.0
 11
-307.8656921386719
 21
183.0515441894531
 31
0.0
  0
LINE
  5
1DD
330
22
100
AcDbEntity
  8
0
  6
Continuous
 62
     7
100
AcDbLine
 10
-319.76708984375
 20
194.9529571533203
 30
0.0
 11
-316.6947631835938
 21
191.8806304931641
 31
0.0
  0
LINE
  5
1DE
330
22
100
AcDbEntity
  8
0
  6
Continuous
 62
     7
100
AcDbLine
 10
-311.3658142089844
 20
186.1981201171875
 30
0.0
 11
-307.8656921386719
 21
182.697998046875
 31
0.0
  0
LINE
  5
1DF
330
22
100
AcDbEntity
  8
0
  6
Continuous
 62
     7
100
AcDbLine
 10
-319.76708984375
 20
194.5993957519531
 30
0.0
 11
-316.7222595214844
 21
191.5545654296875
 31
0.0
  0
LINE
  5
1E0
330
22
100
AcDbEntity
  8
0
  6
Continuous
 62
     7
100
AcDbLine
 10
-311.2718200683594
 20
185.0434722900391
 30
0.0
 11
-307.9683227539063
 21
181.7399749755859
 31
0.0
  0
LINE
  5
1E1
330
22
100
AcDbEntity
  8
0
  6
Continuous
 62
     7
100
AcDbLine
 10
-319.76708984375
 20
193.5387420654297
 30
0.0
 11
-316.9237060546875
 21
190.6953582763672
 31
0.0
  0
LINE
  5
1E2
330
22
100
AcDbEntity
  8
0
  6
Continuous
 62
     7
100
AcDbLine
 10
-311.2405090332031
 20
184.6585998535156
 30
0.0
 11
-308.1585083007813
 21
181.5766143798828
 31
0.0
  0
LINE
  5
1E3
330
22
100
AcDbEntity
  8
0
  6
Continuous
 62
     7
100
AcDbLine
 10
-319.76708984375
 20
193.1851806640625
 30
0.0
 11
-317.04443359375
 21
190.4625396728516
 31
0.0
  0
LINE
  5
1E4
330
22
100
AcDbEntity
  8
0
  6
Continuous
 62
     7
100
AcDbLine
 10
-311.1465148925781
 20
183.5039520263672
 30
0.0
 11
-309.1705627441406
 21
181.5279846191406
 31
0.0
  0
LINE
  5
1E5
330
22
100
AcDbEntity
  8
0
  6
Continuous
 62
     7
100
AcDbLine
 10
-320.1705627441406
 20
192.5279846191406
 30
0.0
 11
-317.5556640625
 21
189.9130859375
 31
0.0
  0
LINE
  5
1E6
330
22
100
AcDbEntity
  8
0
  6
Continuous
 62
     7
100
AcDbLine
 10
-311.1151733398438
 20
183.1190643310547
 30
0.0
 11
-309.5241088867188
 21
181.5279846191406
 31
0.0
  0
LINE
  5
1E7
330
22
100
AcDbEntity
  8
0
  6
Continuous
 62
     7
100
AcDbLine
 10
-320.5241088867188
 20
192.5279846191406
 30
0.0
 11
-317.7760009765625
 21
189.7798767089844
 31
0.0
  0
LINE
  5
1E8
330
22
100
AcDbEntity
  8
0
  6
Continuous
 62
     7
100
AcDbLine
 10
-311.0212097167969
 20
181.9644317626953
 30
0.0
 11
-310.5847778320313
 21
181.5279846191406
 31
0.0
  0
LINE
  5
1E9
330
22
100
AcDbEntity
  8
0
  6
Continuous
 62
     7
100
AcDbLine
 10
-321.5847778320313
 20
192.5279846191406
 30
0.0
 11
-318.5926208496094
 21
189.5358428955078
 31
0.0
  0
LINE
  5
1EA
330
22
100
AcDbEntity
  8
0
  6
Continuous
 62
     7
100
AcDbLine
 10
-321.6856689453125
 20
192.2753448486328
 30
0.0
 11
-318.9383239746094
 21
189.5279846191406
 31
0.0
  0
LINE
  5
1EB
330
22
100
AcDbEntity
  8
0
  6
Continuous
 62
     7
100
AcDbLine
 10
-321.6856689453125
 20
191.2146911621094
 30
0.0
 11
-319.9989929199219
 21
189.5279846191406
 31
0.0
  0
LINE
  5
1EC
330
22
100
AcDbEntity
  8
0
  6
Continuous
 62
     7
100
AcDbLine
 10
-321.6856689453125
 20
190.8611450195313
 30
0.0
 11
-320.3525390625
 21
189.5279846191406
 31
0.0
  0
LINE
  5
1ED
330
22
100
AcDbEntity
  8
0
  6
Continuous
 62
     7
100
AcDbLine
 10
-321.6856689453125
 20
189.8004760742188
 30
0.0
 11
-321.4131774902344
 21
189.5279846191406
 31
0.0
  0
LINE
  5
1EE
330
22
100
AcDbEntity
  8
0
  6
Continuous
 62
     7
100
AcDbLine
 10
-331.4842529296875
 20
192.5279846191406
 30
0.0
 11
-330.4856872558594
 21
191.5294036865234
 31
0.0
  0
LINE
  5
1EF
330
22
100
AcDbEntity
  8
0
  6
Continuous
 62
     7
100
AcDbLine
 10
-331.8377990722656
 20
192.5279846191406
 30
0.0
 11
-330.4856872558594
 21
191.1758575439453
 31
0.0
  0
LINE
  5
1F0
330
22
100
AcDbEntity
  8
0
  6
Continuous
 62
     7
100
AcDbLine
 10
-332.8984680175781
 20
192.5279846191406
 30
0.0
 11
-330.4856872558594
 21
190.1151885986328
 31
0.0
  0
LINE
  5
1F1
330
22
100
AcDbEntity
  8
0
  6
Continuous
 62
     7
100
AcDbLine
 10
-332.9856872558594
 20
192.2616424560547
 30
0.0
 11
-330.4856872558594
 21
189.7616424560547
 31
0.0
  0
LINE
  5
1F2
330
22
100
AcDbEntity
  8
0
  6
Continuous
 62
     7
100
AcDbLine
 10
-332.9856872558594
 20
191.2009887695313
 30
0.0
 11
-331.0890808105469
 21
189.3043823242188
 31
0.0
  0
LINE
  5
1F3
330
22
100
AcDbEntity
  8
0
  6
Continuous
 62
     7
100
AcDbLine
 10
-332.9856872558594
 20
190.8474273681641
 30
0.0
 11
-331.2651062011719
 21
189.1268615722656
 31
0.0
  0
LINE
  5
1F4
330
22
100
AcDbEntity
  8
0
  6
Continuous
 62
     7
100
AcDbLine
 10
-332.9856872558594
 20
189.7867736816406
 30
0.0
 11
-331.5316467285156
 21
188.3327484130859
 31
0.0
  0
LINE
  5
1F5
330
22
100
AcDbEntity
  8
0
  6
Continuous
 62
     7
100
AcDbLine
 10
-332.9856872558594
 20
189.4332122802734
 30
0.0
 11
-331.6895751953125
 21
188.1371002197266
 31
0.0
  0
LINE
  5
1F6
330
22
100
AcDbEntity
  8
0
  6
Continuous
 62
     7
100
AcDbLine
 10
-332.9856872558594
 20
188.37255859375
 30
0.0
 11
-332.64111328125
 21
188.0279846191406
 31
0.0
  0
LINE
  5
1F7
330
22
100
AcDbEntity
  8
0
  6
Continuous
 62
     7
100
AcDbLine
 10
-335.4773864746094
 20
205.6662902832031
 30
0.0
 11
-329.7684936523438
 21
205.6662902832031
 31
0.0
  0
LINE
  5
1F8
330
22
100
AcDbEntity
  8
0
  6
Continuous
 62
     7
100
AcDbLine
 10
-335.5156860351563
 20
204.5279846191406
 30
0.0
 11
-329.7656860351563
 21
204.5279846191406
 31
0.0
  0
LINE
  5
1F9
330
22
100
AcDbEntity
  8
0
  6
Continuous
 62
     7
100
AcDbLine
 10
-315.7012939453125
 20
172.5279846191406
 30
0.0
 11
-337.7656860351563
 21
172.5279846191406
 31
0.0
  0
LINE
  5
1FA
330
22
100
AcDbEntity
  8
0
  6
Continuous
 62
     7
100
AcDbLine
 10
-318.7315979003906
 20
189.5279846191406
 30
0.0
 11
-330.4856872558594
 21
189.5279846191406
 31
0.0
  0
LINE
  5
1FB
330
22
100
AcDbEntity
  8
0
  6
Continuous
 62
     7
100
AcDbLine
 10
-331.7656860351563
 20
173.5279846191406
 30
0.0
 11
-337.7656860351563
 21
173.5279846191406
 31
0.0
  0
LINE
  5
1FC
330
22
100
AcDbEntity
  8
0
  6
Continuous
 62
     7
100
AcDbLine
 10
-331.7656860351563
 20
177.0279846191406
 30
0.0
 11
-331.7656860351563
 21
173.5279846191406
 31
0.0
  0
LINE
  5
1FD
330
22
100
AcDbEntity
  8
0
  6
Continuous
 62
     7
100
AcDbLine
 10
-296.2656860351563
 20
208.5279846191406
 30
0.0
 11
-337.7601013183594
 21
208.5279846191406
 31
0.0
  0
LINE
  5
1FE
330
22
100
AcDbEntity
  8
0
  6
Continuous
 62
     7
100
AcDbLine
 10
-334.5156860351563
 20
207.5279846191406
 30
0.0
 11
-318.3942565917969
 21
207.5279846191406
 31
0.0
  0
LINE
  5
1FF
330
22
100
AcDbEntity
  8
0
  6
Continuous
 62
     7
100
AcDbLine
 10
-314.5965576171875
 20
57.96287155151367
 30
0.0
 11
-337.7656860351563
 21
57.96287155151367
 31
0.0
  0
LINE
  5
200
330
22
100
AcDbEntity
  8
0
  6
Continuous
 62
     7
100
AcDbLine
 10
-315.2656860351563
 20
72.52799224853515
 30
0.0
 11
-337.7656860351563
 21
72.52799224853515
 31
0.0
  0
LINE
  5
201
330
22
100
AcDbEntity
  8
0
  6
Continuous
 62
     7
100
AcDbLine
 10
-337.7656860351563
 20
64.02799224853516
 30
0.0
 11
-315.3431701660156
 21
64.02799224853516
 31
0.0
  0
LINE
  5
202
330
22
100
AcDbEntity
  8
0
  6
Continuous
 62
     7
100
AcDbLine
 10
-337.7656860351563
 20
56.52799224853516
 30
0.0
 11
-316.0314331054688
 21
56.52799224853516
 31
0.0
  0
LINE
  5
203
330
22
100
AcDbEntity
  8
0
  6
Continuous
 62
     7
100
AcDbLine
 10
-315.3916320800781
 20
36.05544662475586
 30
0.0
 11
-337.7656860351563
 21
36.05544662475586
 31
0.0
  0
LINE
  5
204
330
22
100
AcDbEntity
  8
0
  6
Continuous
 62
     7
100
AcDbLine
 10
-313.8641662597656
 20
62.55949020385742
 30
0.0
 11
-337.7656860351563
 21
62.55949020385742
 31
0.0
  0
LINE
  5
205
330
22
100
AcDbEntity
  8
0
  6
Continuous
 62
     7
100
AcDbLine
 10
-364.7656860351563
 20
34.52799224853516
 30
0.0
 11
-310.7656860351563
 21
34.52799224853516
 31
0.0
  0
LINE
  5
206
330
22
100
AcDbEntity
  8
0
  6
Continuous
 62
     7
100
AcDbLine
 10
-329.7656860351563
 20
204.5279846191406
 30
0.0
 11
-329.7656860351563
 21
198.5279846191406
 31
0.0
  0
LINE
  5
207
330
22
100
AcDbEntity
  8
0
  6
Continuous
 62
     7
100
AcDbLine
 10
-329.7684936523438
 20
205.6662902832031
 30
0.0
 11
-329.7684936523438
 21
204.5170593261719
 31
0.0
  0
LINE
  5
208
330
22
100
AcDbEntity
  8
0
  6
Continuous
 62
     7
100
AcDbLine
 10
-308.065673828125
 20
173.5279846191406
 30
0.0
 11
-327.7656860351563
 21
173.5279846191406
 31
0.0
  0
LINE
  5
209
330
22
100
AcDbEntity
  8
0
  6
Continuous
 62
     7
100
AcDbLine
 10
-327.7656860351563
 20
177.5279846191406
 30
0.0
 11
-311.2656860351563
 21
177.5279846191406
 31
0.0
  0
LINE
  5
20A
330
22
100
AcDbEntity
  8
0
  6
Continuous
 62
     7
100
AcDbLine
 10
-327.7656860351563
 20
173.5279846191406
 30
0.0
 11
-327.7656860351563
 21
177.5279846191406
 31
0.0
  0
LINE
  5
20B
330
22
100
AcDbEntity
  8
0
  6
Continuous
 62
     7
100
AcDbLine
 10
-305.4680480957031
 20
206.3803100585938
 30
0.0
 11
-304.3203735351563
 21
207.5279846191406
 31
0.0
  0
LINE
  5
20C
330
22
100
AcDbEntity
  8
0
  6
Continuous
 62
     7
100
AcDbLine
 10
-305.7707824707031
 20
204.6633605957031
 30
0.0
 11
-302.9061584472656
 21
207.5279846191406
 31
0.0
  0
LINE
  5
20D
330
22
100
AcDbEntity
  8
0
  6
Continuous
 62
     7
100
AcDbLine
 10
-306.0735473632813
 20
202.9463958740234
 30
0.0
 11
-301.491943359375
 21
207.5279846191406
 31
0.0
  0
LINE
  5
20E
330
22
100
AcDbEntity
  8
0
  6
Continuous
 62
     7
100
AcDbLine
 10
-306.3762817382813
 20
201.2294311523438
 30
0.0
 11
-300.0777282714844
 21
207.5279846191406
 31
0.0
  0
LINE
  5
20F
330
22
100
AcDbEntity
  8
0
  6
Continuous
 62
     7
100
AcDbLine
 10
-306.6790161132813
 20
199.5124816894531
 30
0.0
 11
-298.6635131835938
 21
207.5279846191406
 31
0.0
  0
LINE
  5
210
330
22
100
AcDbEntity
  8
0
  6
Continuous
 62
     7
100
AcDbLine
 10
-306.9817810058594
 20
197.7955169677734
 30
0.0
 11
-296.2496643066406
 21
208.5276184082031
 31
0.0
  0
LINE
  5
211
330
22
100
AcDbEntity
  8
0
  6
Continuous
 62
     7
100
AcDbLine
 10
-327.7656860351563
 20
177.0116119384766
 30
0.0
 11
-327.2492980957031
 21
177.5279846191406
 31
0.0
  0
LINE
  5
212
330
22
100
AcDbEntity
  8
0
  6
Continuous
 62
     7
100
AcDbLine
 10
-307.2845153808594
 20
196.0785522460938
 30
0.0
 11
-295.3861083984375
 21
207.9769744873047
 31
0.0
  0
LINE
  5
213
330
22
100
AcDbEntity
  8
0
  6
Continuous
 62
     7
100
AcDbLine
 10
-327.7656860351563
 20
175.5973968505859
 30
0.0
 11
-325.8350830078125
 21
177.5279846191406
 31
0.0
  0
LINE
  5
214
330
22
100
AcDbEntity
  8
0
  6
Continuous
 62
     7
100
AcDbLine
 10
-297.4208679199218
 20
204.5279846191406
 30
0.0
 11
-295.2656860351563
 21
206.6831817626953
 31
0.0
  0
LINE
  5
215
330
22
100
AcDbEntity
  8
0
  6
Continuous
 62
     7
100
AcDbLine
 10
-307.5872802734375
 20
194.3616027832031
 30
0.0
 11
-298.7709350585938
 21
203.1779327392578
 31
0.0
  0
LINE
  5
216
330
22
100
AcDbEntity
  8
0
  6
Continuous
 62
     7
100
AcDbLine
 10
-327.7656860351563
 20
174.1831817626953
 30
0.0
 11
-324.4208679199219
 21
177.5279846191406
 31
0.0
  0
LINE
  5
217
330
22
100
AcDbEntity
  8
0
  6
Continuous
 62
     7
100
AcDbLine
 10
-296.0066528320313
 20
204.5279846191406
 30
0.0
 11
-295.2656860351563
 21
205.2689819335938
 31
0.0
  0
LINE
  5
218
330
22
100
AcDbEntity
  8
0
  6
Continuous
 62
     7
100
AcDbLine
 10
-307.7656860351563
 20
192.7689819335938
 30
0.0
 11
-298.9938354492188
 21
201.5408020019531
 31
0.0
  0
LINE
  5
219
330
22
100
AcDbEntity
  8
0
  6
Continuous
 62
     7
100
AcDbLine
 10
-327.0066528320313
 20
173.5279846191406
 30
0.0
 11
-323.0066528320313
 21
177.5279846191406
 31
0.0
  0
LINE
  5
21A
330
22
100
AcDbEntity
  8
0
  6
Continuous
 62
     7
100
AcDbLine
 10
-307.7656860351563
 20
191.3547668457031
 30
0.0
 11
-299.2167663574219
 21
199.9036865234375
 31
0.0
  0
LINE
  5
21B
330
22
100
AcDbEntity
  8
0
  6
Continuous
 62
     7
100
AcDbLine
 10
-325.5924377441406
 20
173.5279846191406
 30
0.0
 11
-321.5924377441406
 21
177.5279846191406
 31
0.0
  0
LINE
  5
21C
330
22
100
AcDbEntity
  8
0
  6
Continuous
 62
     7
100
AcDbLine
 10
-307.7656860351563
 20
189.9405517578125
 30
0.0
 11
-299.4396667480469
 21
198.2665557861328
 31
0.0
  0
LINE
  5
21D
330
22
100
AcDbEntity
  8
0
  6
Continuous
 62
     7
100
AcDbLine
 10
-324.17822265625
 20
173.5279846191406
 30
0.0
 11
-320.17822265625
 21
177.5279846191406
 31
0.0
  0
LINE
  5
21E
330
22
100
AcDbEntity
  8
0
  6
Continuous
 62
     7
100
AcDbLine
 10
-307.7656860351563
 20
188.5263366699219
 30
0.0
 11
-299.6625671386719
 21
196.6294250488281
 31
0.0
  0
LINE
  5
21F
330
22
100
AcDbEntity
  8
0
  6
Continuous
 62
     7
100
AcDbLine
 10
-322.7640075683594
 20
173.5279846191406
 30
0.0
 11
-318.7640075683594
 21
177.5279846191406
 31
0.0
  0
LINE
  5
220
330
22
100
AcDbEntity
  8
0
  6
Continuous
 62
     7
100
AcDbLine
 10
-307.7656860351563
 20
187.1121215820313
 30
0.0
 11
-299.885498046875
 21
194.9923095703125
 31
0.0
  0
LINE
  5
221
330
22
100
AcDbEntity
  8
0
  6
Continuous
 62
     7
100
AcDbLine
 10
-321.3498229980469
 20
173.5279846191406
 30
0.0
 11
-317.3498229980469
 21
177.5279846191406
 31
0.0
  0
LINE
  5
222
330
22
100
AcDbEntity
  8
0
  6
Continuous
 62
     7
100
AcDbLine
 10
-307.7656860351563
 20
185.6979064941406
 30
0.0
 11
-300.1083984375
 21
193.3551788330078
 31
0.0
  0
LINE
  5
223
330
22
100
AcDbEntity
  8
0
  6
Continuous
 62
     7
100
AcDbLine
 10
-319.9356079101563
 20
173.5279846191406
 30
0.0
 11
-315.9356079101563
 21
177.5279846191406
 31
0.0
  0
LINE
  5
224
330
22
100
AcDbEntity
  8
0
  6
Continuous
 62
     7
100
AcDbLine
 10
-307.7656860351563
 20
184.28369140625
 30
0.0
 11
-300.3313293457031
 21
191.7180480957031
 31
0.0
  0
LINE
  5
225
330
22
100
AcDbEntity
  8
0
  6
Continuous
 62
     7
100
AcDbLine
 10
-318.5213928222656
 20
173.5279846191406
 30
0.0
 11
-314.5213928222656
 21
177.5279846191406
 31
0.0
  0
LINE
  5
226
330
22
100
AcDbEntity
  8
0
  6
Continuous
 62
     7
100
AcDbLine
 10
-307.7656860351563
 20
182.8694763183594
 30
0.0
 11
-300.5542297363281
 21
190.0809326171875
 31
0.0
  0
LINE
  5
227
330
22
100
AcDbEntity
  8
0
  6
Continuous
 62
     7
100
AcDbLine
 10
-317.107177734375
 20
173.5279846191406
 30
0.0
 11
-313.107177734375
 21
177.5279846191406
 31
0.0
  0
LINE
  5
228
330
22
100
AcDbEntity
  8
0
  6
Continuous
 62
     7
100
AcDbLine
 10
-307.7656860351563
 20
181.4552612304688
 30
0.0
 11
-300.7433471679688
 21
188.4775848388672
 31
0.0
  0
LINE
  5
229
330
22
100
AcDbEntity
  8
0
  6
Continuous
 62
     7
100
AcDbLine
 10
-315.6929626464844
 20
173.5279846191406
 30
0.0
 11
-311.6929626464844
 21
177.5279846191406
 31
0.0
  0
LINE
  5
22A
330
22
100
AcDbEntity
  8
0
  6
Continuous
 62
     7
100
AcDbLine
 10
-307.7656860351563
 20
180.0410461425781
 30
0.0
 11
-300.7601318359375
 21
187.0466156005859
 31
0.0
  0
LINE
  5
22B
330
22
100
AcDbEntity
  8
0
  6
Continuous
 62
     7
100
AcDbLine
 10
-314.2787475585938
 20
173.5279846191406
 30
0.0
 11
-309.2787475585938
 21
178.5279846191406
 31
0.0
  0
LINE
  5
22C
330
22
100
AcDbEntity
  8
0
  6
Continuous
 62
     7
100
AcDbLine
 10
-312.8645324707031
 20
173.5279846191406
 30
0.0
 11
-300.7871398925781
 21
185.6053771972656
 31
0.0
  0
LINE
  5
22D
330
22
100
AcDbEntity
  8
0
  6
Continuous
 62
     7
100
AcDbLine
 10
-311.4503173828125
 20
173.5279846191406
 30
0.0
 11
-300.8141784667969
 21
184.1641387939453
 31
0.0
  0
LINE
  5
22E
330
22
100
AcDbEntity
  8
0
  6
Continuous
 62
     7
100
AcDbLine
 10
-313.8656921386719
 20
171.1126251220703
 30
0.0
 11
-313.4503173828125
 21
171.5279846191406
 31
0.0
  0
LINE
  5
22F
330
22
100
AcDbEntity
  8
0
  6
Continuous
 62
     7
100
AcDbLine
 10
-310.0361022949219
 20
173.5279846191406
 30
0.0
 11
-300.8411865234375
 21
182.722900390625
 31
0.0
  0
LINE
  5
230
330
22
100
AcDbEntity
  8
0
  6
Continuous
 62
     7
100
AcDbLine
 10
-313.8656921386719
 20
169.6984100341797
 30
0.0
 11
-312.0361022949219
 21
171.5279846191406
 31
0.0
  0
LINE
  5
231
330
22
100
AcDbEntity
  8
0
  6
Continuous
 62
     7
100
AcDbLine
 10
-308.6218872070313
 20
173.5279846191406
 30
0.0
 11
-300.8682250976563
 21
181.2816619873047
 31
0.0
  0
LINE
  5
232
330
22
100
AcDbEntity
  8
0
  6
Continuous
 62
     7
100
AcDbLine
 10
-313.8656921386719
 20
168.2841949462891
 30
0.0
 11
-310.6218872070313
 21
171.5279846191406
 31
0.0
  0
LINE
  5
233
330
22
100
AcDbEntity
  8
0
  6
Continuous
 62
     7
100
AcDbLine
 10
-308.065673828125
 20
172.6699829101563
 30
0.0
 11
-300.8952331542969
 21
179.8404235839844
 31
0.0
  0
LINE
  5
234
330
22
100
AcDbEntity
  8
0
  6
Continuous
 62
     7
100
AcDbLine
 10
-313.8656921386719
 20
166.8699798583984
 30
0.0
 11
-309.2076721191406
 21
171.5279846191406
 31
0.0
  0
LINE
  5
235
330
22
100
AcDbEntity
  8
0
  6
Continuous
 62
     7
100
AcDbLine
 10
-313.8656921386719
 20
165.4557647705078
 30
0.0
 11
-300.9222717285156
 21
178.3991851806641
 31
0.0
  0
LINE
  5
236
330
22
100
AcDbEntity
  8
0
  6
Continuous
 62
     7
100
AcDbLine
 10
-313.8656921386719
 20
164.0415649414063
 30
0.0
 11
-300.9492797851563
 21
176.9579620361328
 31
0.0
  0
LINE
  5
237
330
22
100
AcDbEntity
  8
0
  6
Continuous
 62
     7
100
AcDbLine
 10
-313.8656921386719
 20
162.6273498535156
 30
0.0
 11
-300.976318359375
 21
175.5167236328125
 31
0.0
  0
LINE
  5
238
330
22
100
AcDbEntity
  8
0
  6
Continuous
 62
     7
100
AcDbLine
 10
-313.8656921386719
 20
161.213134765625
 30
0.0
 11
-301.0033264160156
 21
174.0754852294922
 31
0.0
  0
LINE
  5
239
330
22
100
AcDbEntity
  8
0
  6
Continuous
 62
     7
100
AcDbLine
 10
-313.8656921386719
 20
159.7989196777344
 30
0.0
 11
-301.0303649902344
 21
172.6342468261719
 31
0.0
  0
LINE
  5
23A
330
22
100
AcDbEntity
  8
0
  6
Continuous
 62
     7
100
AcDbLine
 10
-312.7223815917969
 20
159.5279846191406
 30
0.0
 11
-301.057373046875
 21
171.1930084228516
 31
0.0
  0
LINE
  5
23B
330
22
100
AcDbEntity
  8
0
  6
Continuous
 62
     7
100
AcDbLine
 10
-311.3081665039063
 20
159.5279846191406
 30
0.0
 11
-301.0844116210938
 21
169.7517700195313
 31
0.0
  0
LINE
  5
23C
330
22
100
AcDbEntity
  8
0
  6
Continuous
 62
     7
100
AcDbLine
 10
-309.8939514160156
 20
159.5279846191406
 30
0.0
 11
-301.1114196777344
 21
168.3105316162109
 31
0.0
  0
LINE
  5
23D
330
22
100
AcDbEntity
  8
0
  6
Continuous
 62
     7
100
AcDbLine
 10
-308.479736328125
 20
159.5279846191406
 30
0.0
 11
-301.1384582519531
 21
166.8692932128906
 31
0.0
  0
LINE
  5
23E
330
22
100
AcDbEntity
  8
0
  6
Continuous
 62
     7
100
AcDbLine
 10
-307.0655517578125
 20
159.5279846191406
 30
0.0
 11
-301.1654663085938
 21
165.4280548095703
 31
0.0
  0
LINE
  5
23F
330
22
100
AcDbEntity
  8
0
  6
Continuous
 62
     7
100
AcDbLine
 10
-305.6513366699219
 20
159.5279846191406
 30
0.0
 11
-303.2226867675781
 21
161.9566345214844
 31
0.0
  0
LINE
  5
240
330
22
100
AcDbEntity
  8
0
  6
Continuous
 62
     7
100
AcDbLine
 10
-328.568603515625
 20
172.5279846191406
 30
0.0
 11
-322.5156860351563
 21
172.5279846191406
 31
0.0
  0
LINE
  5
241
330
22
100
AcDbEntity
  8
0
  6
Continuous
 62
     7
100
AcDbLine
 10
-324.7652893066406
 20
196.1774597167969
 30
0.0
 11
-330.7656860351563
 21
196.1774597167969
 31
0.0
  0
LINE
  5
242
330
22
100
AcDbEntity
  8
0
  6
Continuous
 62
     7
100
AcDbLine
 10
-335.5156860351563
 20
206.4223937988281
 30
0.0
 11
-334.4100952148438
 21
207.5279846191406
 31
0.0
  0
LINE
  5
243
330
22
100
AcDbEntity
  8
0
  6
Continuous
 62
     7
100
AcDbLine
 10
-334.1504516601563
 20
205.6662902832031
 30
0.0
 11
-332.2887573242188
 21
207.5279846191406
 31
0.0
  0
LINE
  5
244
330
22
100
AcDbEntity
  8
0
  6
Continuous
 62
     7
100
AcDbLine
 10
-332.0291442871094
 20
205.6662902832031
 30
0.0
 11
-330.1674499511719
 21
207.5279846191406
 31
0.0
  0
LINE
  5
245
330
22
100
AcDbEntity
  8
0
  6
Continuous
 62
     7
100
AcDbLine
 10
-329.9078063964844
 20
205.6662902832031
 30
0.0
 11
-328.0461120605469
 21
207.5279846191406
 31
0.0
  0
LINE
  5
246
330
22
100
AcDbEntity
  8
0
  6
Continuous
 62
     7
100
AcDbLine
 10
-337.7656860351563
 20
197.8084259033203
 30
0.0
 11
-337.0461120605469
 21
198.5279846191406
 31
0.0
  0
LINE
  5
247
330
22
100
AcDbEntity
  8
0
  6
Continuous
 62
     7
100
AcDbLine
 10
-329.7656860351563
 20
203.6871185302734
 30
0.0
 11
-325.9248046875
 21
207.5279846191406
 31
0.0
  0
LINE
  5
248
330
22
100
AcDbEntity
  8
0
  6
Continuous
 62
     7
100
AcDbLine
 10
-337.7656860351563
 20
195.6871185302734
 30
0.0
 11
-334.9248046875
 21
198.5279846191406
 31
0.0
  0
LINE
  5
249
330
22
100
AcDbEntity
  8
0
  6
Continuous
 62
     7
100
AcDbLine
 10
-329.7656860351563
 20
201.5657958984375
 30
0.0
 11
-323.803466796875
 21
207.5279846191406
 31
0.0
  0
LINE
  5
24A
330
22
100
AcDbEntity
  8
0
  6
Continuous
 62
     7
100
AcDbLine
 10
-337.7656860351563
 20
193.5657958984375
 30
0.0
 11
-332.803466796875
 21
198.5279846191406
 31
0.0
  0
LINE
  5
24B
330
22
100
AcDbEntity
  8
0
  6
Continuous
 62
     7
100
AcDbLine
 10
-329.7656860351563
 20
199.4444732666016
 30
0.0
 11
-321.6821594238281
 21
207.5279846191406
 31
0.0
  0
LINE
  5
24C
330
22
100
AcDbEntity
  8
0
  6
Continuous
 62
     7
100
AcDbLine
 10
-337.7656860351563
 20
191.4444732666016
 30
0.0
 11
-330.6821594238281
 21
198.5279846191406
 31
0.0
  0
LINE
  5
24D
330
22
100
AcDbEntity
  8
0
  6
Continuous
 62
     7
100
AcDbLine
 10
-330.9273071289063
 20
196.1615295410156
 30
0.0
 11
-319.5608520507813
 21
207.5279846191406
 31
0.0
  0
LINE
  5
24E
330
22
100
AcDbEntity
  8
0
  6
Continuous
 62
     7
100
AcDbLine
 10
-337.7656860351563
 20
189.3231506347656
 30
0.0
 11
-333.749755859375
 21
193.3390655517578
 31
0.0
  0
LINE
  5
24F
330
22
100
AcDbEntity
  8
0
  6
Continuous
 62
     7
100
AcDbLine
 10
-328.7900695800781
 20
196.1774597167969
 30
0.0
 11
-317.9046936035156
 21
207.0628204345703
 31
0.0
  0
LINE
  5
250
330
22
100
AcDbEntity
  8
0
  6
Continuous
 62
     7
100
AcDbLine
 10
-337.7656860351563
 20
187.2018280029297
 30
0.0
 11
-333.7656860351563
 21
191.2018280029297
 31
0.0
  0
LINE
  5
251
330
22
100
AcDbEntity
  8
0
  6
Continuous
 62
     7
100
AcDbLine
 10
-326.6687316894531
 20
196.1774597167969
 30
0.0
 11
-318.5003356933594
 21
204.3458557128906
 31
0.0
  0
LINE
  5
252
330
22
100
AcDbEntity
  8
0
  6
Continuous
 62
     7
100
AcDbLine
 10
-337.7656860351563
 20
185.0805053710938
 30
0.0
 11
-333.7656860351563
 21
189.0805053710938
 31
0.0
  0
LINE
  5
253
330
22
100
AcDbEntity
  8
0
  6
Continuous
 62
     7
100
AcDbLine
 10
-324.5835571289063
 20
196.1413116455078
 30
0.0
 11
-319.1370849609375
 21
201.5877838134766
 31
0.0
  0
LINE
  5
254
330
22
100
AcDbEntity
  8
0
  6
Continuous
 62
     7
100
AcDbLine
 10
-337.7656860351563
 20
182.9591827392578
 30
0.0
 11
-333.7656860351563
 21
186.9591827392578
 31
0.0
  0
LINE
  5
255
330
22
100
AcDbEntity
  8
0
  6
Continuous
 62
     7
100
AcDbLine
 10
-320.0760803222656
 20
198.5274505615234
 30
0.0
 11
-319.76708984375
 21
198.8364562988281
 31
0.0
  0
LINE
  5
256
330
22
100
AcDbEntity
  8
0
  6
Continuous
 62
     7
100
AcDbLine
 10
-323.748046875
 20
194.8554840087891
 30
0.0
 11
-321.7652893066406
 21
196.8382720947266
 31
0.0
  0
LINE
  5
257
330
22
100
AcDbEntity
  8
0
  6
Continuous
 62
     7
100
AcDbLine
 10
-337.7656860351563
 20
180.8378753662109
 30
0.0
 11
-333.7656860351563
 21
184.8378753662109
 31
0.0
  0
LINE
  5
258
330
22
100
AcDbEntity
  8
0
  6
Continuous
 62
     7
100
AcDbLine
 10
-322.8383178710938
 20
193.6439056396484
 30
0.0
 11
-320.4542236328125
 21
196.0279846191406
 31
0.0
  0
LINE
  5
259
330
22
100
AcDbEntity
  8
0
  6
Continuous
 62
     7
100
AcDbLine
 10
-337.7656860351563
 20
178.716552734375
 30
0.0
 11
-333.7656860351563
 21
182.716552734375
 31
0.0
  0
LINE
  5
25A
330
22
100
AcDbEntity
  8
0
  6
Continuous
 62
     7
100
AcDbLine
 10
-320.8329162597656
 20
193.5279846191406
 30
0.0
 11
-319.8652648925781
 21
194.4956359863281
 31
0.0
  0
LINE
  5
25B
330
22
100
AcDbEntity
  8
0
  6
Continuous
 62
     7
100
AcDbLine
 10
-337.3329162597656
 20
177.0279846191406
 30
0.0
 11
-333.7656860351563
 21
180.5952301025391
 31
0.0
  0
LINE
  5
25C
330
22
100
AcDbEntity
  8
0
  6
Continuous
 62
     7
100
AcDbLine
 10
-337.7656860351563
 20
176.5952301025391
 30
0.0
 11
-337.3329162597656
 21
177.0279846191406
 31
0.0
  0
LINE
  5
25D
330
22
100
AcDbEntity
  8
0
  6
Continuous
 62
     7
100
AcDbLine
 10
-335.2116088867188
 20
177.0279846191406
 30
0.0
 11
-333.7656860351563
 21
178.4739074707031
 31
0.0
  0
LINE
  5
25E
330
22
100
AcDbEntity
  8
0
  6
Continuous
 62
     7
100
AcDbLine
 10
-337.7656860351563
 20
174.4739074707031
 30
0.0
 11
-335.2116088867188
 21
177.0279846191406
 31
0.0
  0
LINE
  5
25F
330
22
100
AcDbEntity
  8
0
  6
Continuous
 62
     7
100
AcDbLine
 10
-336.5902709960938
 20
173.5279846191406
 30
0.0
 11
-333.0902709960938
 21
177.0279846191406
 31
0.0
  0
LINE
  5
260
330
22
100
AcDbEntity
  8
0
  6
Continuous
 62
     7
100
AcDbLine
 10
-334.4689636230469
 20
173.5279846191406
 30
0.0
 11
-331.7656860351563
 21
176.2312622070313
 31
0.0
  0
LINE
  5
261
330
22
100
AcDbEntity
  8
0
  6
Continuous
 62
     7
100
AcDbLine
 10
-332.3476257324219
 20
173.5279846191406
 30
0.0
 11
-331.7656860351563
 21
174.1099548339844
 31
0.0
  0
LINE
  5
262
330
22
100
AcDbEntity
  8
0
  6
Continuous
 62
     7
100
AcDbLine
 10
-335.2111206054688
 20
205.6662902832031
 30
0.0
 11
-333.3494262695313
 21
207.5279846191406
 31
0.0
  0
LINE
  5
263
330
22
100
AcDbEntity
  8
0
  6
Continuous
 62
     7
100
AcDbLine
 10
-333.0897827148438
 20
205.6662902832031
 30
0.0
 11
-331.2280883789063
 21
207.5279846191406
 31
0.0
  0
LINE
  5
264
330
22
100
AcDbEntity
  8
0
  6
Continuous
 62
     7
100
AcDbLine
 10
-330.9684753417969
 20
205.6662902832031
 30
0.0
 11
-329.1067810058594
 21
207.5279846191406
 31
0.0
  0
LINE
  5
265
330
22
100
AcDbEntity
  8
0
  6
Continuous
 62
     7
100
AcDbLine
 10
-329.7684936523438
 20
204.7449645996094
 30
0.0
 11
-326.9854736328125
 21
207.5279846191406
 31
0.0
  0
LINE
  5
266
330
22
100
AcDbEntity
  8
0
  6
Continuous
 62
     7
100
AcDbLine
 10
-337.7656860351563
 20
196.7477722167969
 30
0.0
 11
-335.9854736328125
 21
198.5279846191406
 31
0.0
  0
LINE
  5
267
330
22
100
AcDbEntity
  8
0
  6
Continuous
 62
     7
100
AcDbLine
 10
-329.7656860351563
 20
202.6264495849609
 30
0.0
 11
-324.8641357421875
 21
207.5279846191406
 31
0.0
  0
LINE
  5
268
330
22
100
AcDbEntity
  8
0
  6
Continuous
 62
     7
100
AcDbLine
 10
-337.7656860351563
 20
194.6264495849609
 30
0.0
 11
-333.8641357421875
 21
198.5279846191406
 31
0.0
  0
LINE
  5
269
330
22
100
AcDbEntity
  8
0
  6
Continuous
 62
     7
100
AcDbLine
 10
-329.7656860351563
 20
200.505126953125
 30
0.0
 11
-322.7428283691406
 21
207.5279846191406
 31
0.0
  0
LINE
  5
26A
330
22
100
AcDbEntity
  8
0
  6
Continuous
 62
     7
100
AcDbLine
 10
-337.7656860351563
 20
192.505126953125
 30
0.0
 11
-331.7428283691406
 21
198.5279846191406
 31
0.0
  0
LINE
  5
26B
330
22
100
AcDbEntity
  8
0
  6
Continuous
 62
     7
100
AcDbLine
 10
-332.6846618652344
 20
195.4648284912109
 30
0.0
 11
-320.6214904785156
 21
207.5279846191406
 31
0.0
  0
LINE
  5
26C
330
22
100
AcDbEntity
  8
0
  6
Continuous
 62
     7
100
AcDbLine
 10
-337.7656860351563
 20
190.3838043212891
 30
0.0
 11
-333.0530395507813
 21
195.096435546875
 31
0.0
  0
LINE
  5
26D
330
22
100
AcDbEntity
  8
0
  6
Continuous
 62
     7
100
AcDbLine
 10
-329.8507080078125
 20
196.1774597167969
 30
0.0
 11
-318.5001831054688
 21
207.5279846191406
 31
0.0
  0
LINE
  5
26E
330
22
100
AcDbEntity
  8
0
  6
Continuous
 62
     7
100
AcDbLine
 10
-337.7656860351563
 20
188.2624969482422
 30
0.0
 11
-333.7656860351563
 21
192.2624969482422
 31
0.0
  0
LINE
  5
26F
330
22
100
AcDbEntity
  8
0
  6
Continuous
 62
     7
100
AcDbLine
 10
-327.7294006347656
 20
196.1774597167969
 30
0.0
 11
-318.1819458007813
 21
205.7248992919922
 31
0.0
  0
LINE
  5
270
330
22
100
AcDbEntity
  8
0
  6
Continuous
 62
     7
100
AcDbLine
 10
-337.7656860351563
 20
186.1411743164063
 30
0.0
 11
-333.7656860351563
 21
190.1411743164063
 31
0.0
  0
LINE
  5
271
330
22
100
AcDbEntity
  8
0
  6
Continuous
 62
     7
100
AcDbLine
 10
-325.6080627441406
 20
196.1774597167969
 30
0.0
 11
-318.8186950683594
 21
202.9668273925781
 31
0.0
  0
LINE
  5
272
330
22
100
AcDbEntity
  8
0
  6
Continuous
 62
     7
100
AcDbLine
 10
-337.7656860351563
 20
184.0198516845703
 30
0.0
 11
-333.7656860351563
 21
188.0198516845703
 31
0.0
  0
LINE
  5
273
330
22
100
AcDbEntity
  8
0
  6
Continuous
 62
     7
100
AcDbLine
 10
-321.1367492675781
 20
198.5274505615234
 30
0.0
 11
-319.4554443359375
 21
200.2087554931641
 31
0.0
  0
LINE
  5
274
330
22
100
AcDbEntity
  8
0
  6
Continuous
 62
     7
100
AcDbLine
 10
-323.9466247558594
 20
195.7176055908203
 30
0.0
 11
-321.7652893066406
 21
197.89892578125
 31
0.0
  0
LINE
  5
275
330
22
100
AcDbEntity
  8
0
  6
Continuous
 62
     7
100
AcDbLine
 10
-337.7656860351563
 20
181.8985290527344
 30
0.0
 11
-333.7656860351563
 21
185.8985290527344
 31
0.0
  0
LINE
  5
276
330
22
100
AcDbEntity
  8
0
  6
Continuous
 62
     7
100
AcDbLine
 10
-323.4388732910156
 20
194.10400390625
 30
0.0
 11
-321.514892578125
 21
196.0279846191406
 31
0.0
  0
LINE
  5
277
330
22
100
AcDbEntity
  8
0
  6
Continuous
 62
     7
100
AcDbLine
 10
-337.7656860351563
 20
179.7772064208984
 30
0.0
 11
-333.7656860351563
 21
183.7772064208984
 31
0.0
  0
LINE
  5
278
330
22
100
AcDbEntity
  8
0
  6
Continuous
 62
     7
100
AcDbLine
 10
-321.8935852050781
 20
193.5279846191406
 30
0.0
 11
-319.8652648925781
 21
195.5562896728516
 31
0.0
  0
LINE
  5
279
330
22
100
AcDbEntity
  8
0
  6
Continuous
 62
     7
100
AcDbLine
 10
-337.7656860351563
 20
177.6558837890625
 30
0.0
 11
-333.7656860351563
 21
181.6558837890625
 31
0.0
  0
LINE
  5
27A
330
22
100
AcDbEntity
  8
0
  6
Continuous
 62
     7
100
AcDbLine
 10
-336.2722473144531
 20
177.0279846191406
 30
0.0
 11
-333.7656860351563
 21
179.5345611572266
 31
0.0
  0
LINE
  5
27B
330
22
100
AcDbEntity
  8
0
  6
Continuous
 62
     7
100
AcDbLine
 10
-337.7656860351563
 20
175.5345611572266
 30
0.0
 11
-336.2722473144531
 21
177.0279846191406
 31
0.0
  0
LINE
  5
27C
330
22
100
AcDbEntity
  8
0
  6
Continuous
 62
     7
100
AcDbLine
 10
-334.1509399414063
 20
177.0279846191406
 30
0.0
 11
-333.7656860351563
 21
177.4132537841797
 31
0.0
  0
LINE
  5
27D
330
22
100
AcDbEntity
  8
0
  6
Continuous
 62
     7
100
AcDbLine
 10
-337.6509399414063
 20
173.5279846191406
 30
0.0
 11
-334.1509399414063
 21
177.0279846191406
 31
0.0
  0
LINE
  5
27E
330
22
100
AcDbEntity
  8
0
  6
Continuous
 62
     7
100
AcDbLine
 10
-335.5296020507813
 20
173.5279846191406
 30
0.0
 11
-332.0296020507813
 21
177.0279846191406
 31
0.0
  0
LINE
  5
27F
330
22
100
AcDbEntity
  8
0
  6
Continuous
 62
     7
100
AcDbLine
 10
-333.4082946777344
 20
173.5279846191406
 30
0.0
 11
-331.7656860351563
 21
175.1706085205078
 31
0.0
  0
LINE
  5
280
330
22
100
AcDbEntity
  8
0
  6
Continuous
 62
     7
100
AcDbLine
 10
-332.9856872558594
 20
188.0279846191406
 30
0.0
 11
-332.9856872558594
 21
192.5279846191406
 31
0.0
  0
LINE
  5
281
330
22
100
AcDbEntity
  8
0
  6
Continuous
 62
     7
100
AcDbLine
 10
-332.9856872558594
 20
192.5279846191406
 30
0.0
 11
-319.76708984375
 21
192.5279846191406
 31
0.0
  0
LINE
  5
282
330
22
100
AcDbEntity
  8
0
  6
Continuous
 62
     7
100
AcDbLine
 10
-330.4856872558594
 20
192.5279846191406
 30
0.0
 11
-330.4856872558594
 21
189.5279846191406
 31
0.0
  0
LINE
  5
283
330
22
100
AcDbEntity
  8
0
  6
Continuous
 62
     7
100
AcDbLine
 10
-332.9856872558594
 20
192.5279846191406
 30
0.0
 11
-333.7656860351563
 21
192.5279846191406
 31
0.0
  0
LINE
  5
284
330
22
100
AcDbEntity
  8
0
  6
Continuous
 62
     7
100
AcDbLine
 10
-329.7656860351563
 20
198.5279846191406
 30
0.0
 11
-337.7656860351563
 21
198.5279846191406
 31
0.0
  0
LINE
  5
285
330
22
100
AcDbEntity
  8
0
  6
Continuous
 62
     7
100
AcDbLine
 10
-332.9856872558594
 20
188.1566467285156
 30
0.0
 11
-333.7656860351563
 21
188.1566467285156
 31
0.0
  0
LINE
  5
286
330
22
100
AcDbEntity
  8
0
  6
Continuous
 62
     7
100
AcDbLine
 10
-310.7856750488281
 20
181.5279846191406
 30
0.0
 11
-333.7656860351563
 21
181.5279846191406
 31
0.0
  0
LINE
  5
287
330
22
100
AcDbEntity
  8
0
  6
Continuous
 62
     7
100
AcDbLine
 10
-327.7656860351563
 20
177.5279846191406
 30
0.0
 11
-333.7656860351563
 21
177.5279846191406
 31
0.0
  0
LINE
  5
288
330
22
100
AcDbEntity
  8
0
  6
Continuous
 62
     7
100
AcDbLine
 10
-327.7656860351563
 20
173.5279846191406
 30
0.0
 11
-331.7656860351563
 21
173.5279846191406
 31
0.0
  0
LINE
  5
289
330
22
100
AcDbEntity
  8
0
  6
Continuous
 62
     7
100
AcDbLine
 10
-345.4412231445313
 20
311.5780029296875
 30
0.0
 11
-345.4412231445313
 21
316.4779968261719
 31
0.0
  0
LINE
  5
28A
330
22
100
AcDbEntity
  8
0
  6
Continuous
 62
     7
100
AcDbLine
 10
-341.7060546875
 20
311.5780029296875
 30
0.0
 11
-345.4412231445313
 21
311.5780029296875
 31
0.0
  0
LINE
  5
28B
330
22
100
AcDbEntity
  8
0
  6
Continuous
 62
     7
100
AcDbLine
 10
-341.7060546875
 20
316.4779968261719
 30
0.0
 11
-345.4412231445313
 21
316.4779968261719
 31
0.0
  0
LINE
  5
28C
330
22
100
AcDbEntity
  8
0
  6
Continuous
 62
     7
100
AcDbLine
 10
-330.5412292480469
 20
311.5780029296875
 30
0.0
 11
-330.5412292480469
 21
316.4779968261719
 31
0.0
  0
LINE
  5
28D
330
22
100
AcDbEntity
  8
0
  6
Continuous
 62
     7
100
AcDbLine
 10
-334.2763977050781
 20
311.5780029296875
 30
0.0
 11
-330.5412292480469
 21
311.5780029296875
 31
0.0
  0
LINE
  5
28E
330
22
100
AcDbEntity
  8
0
  6
Continuous
 62
     7
100
AcDbLine
 10
-334.2763977050781
 20
316.4779968261719
 30
0.0
 11
-330.5412292480469
 21
316.4779968261719
 31
0.0
  0
ARC
  5
28F
330
22
100
AcDbEntity
  8
0
  6
Continuous
 62
     7
100
AcDbCircle
 10
-296.2656860351563
 20
207.5279846191406
 30
0.0
 40
1.0
100
AcDbArc
 50
0.0
 51
90.00000000000019
  0
ARC
  5
290
330
22
100
AcDbEntity
  8
0
  6
Continuous
 62
     7
100
AcDbCircle
 10
-296.2656860351563
 20
207.5279846191406
 30
0.0
 40
1.0
100
AcDbArc
 50
90.00000000000019
 51
163.3980608993143
  0
ARC
  5
291
330
22
100
AcDbEntity
  8
0
  6
Continuous
 62
     7
100
AcDbCircle
 10
-304.8461303710938
 20
207.0279846191406
 30
0.0
 40
0.5
100
AcDbArc
 50
90.00000000000019
 51
169.9984014433889
  0
ARC
  5
292
330
22
100
AcDbEntity
  8
0
  6
Continuous
 62
     7
100
AcDbCircle
 10
-317.3679504394531
 20
207.0279846191406
 30
0.0
 40
0.5
100
AcDbArc
 50
90.00000000000019
 51
166.9985682107812
  0
ARC
  5
293
330
22
100
AcDbEntity
  8
0
  6
Continuous
 62
     7
100
AcDbCircle
 10
-318.3942565917969
 20
207.0279846191406
 30
0.0
 40
0.5
100
AcDbArc
 50
347.0002719250225
 51
90.00000000000019
  0
ARC
  5
294
330
22
100
AcDbEntity
  8
0
  6
Continuous
 62
     7
100
AcDbCircle
 10
-308.7656860351563
 20
58.02799224853515
 30
0.0
 40
1.0
100
AcDbArc
 50
90.00000000000019
 51
180.0000000000004
  0
ARC
  5
295
330
22
100
AcDbEntity
  8
0
  6
Continuous
 62
     7
100
AcDbCircle
 10
-314.1278991699219
 20
201.6429901123047
 30
0.0
 40
1.5
100
AcDbArc
 50
4.653284038258425
 51
90.00000000000019
  0
ARC
  5
296
330
22
100
AcDbEntity
  8
0
  6
Continuous
 62
     7
100
AcDbCircle
 10
-314.3662109375
 20
201.6429901123047
 30
0.0
 40
1.5
100
AcDbArc
 50
90.00000000000019
 51
175.1800176292403
  0
ARC
  5
297
330
22
100
AcDbEntity
  8
0
  6
Continuous
 62
     7
100
AcDbCircle
 10
-305.8615417480469
 20
207.0279846191406
 30
0.0
 40
0.5
100
AcDbArc
 50
350.0001234095527
 51
90.00000000000019
  0
ARC
  5
298
330
22
100
AcDbEntity
  8
0
  6
Continuous
 62
     7
100
AcDbCircle
 10
-297.6073303222656
 20
207.9279937744141
 30
0.0
 40
0.4000000059604645
100
AcDbArc
 50
270.0000000000005
 51
343.3983106911117
  0
ARC
  5
299
330
22
100
AcDbEntity
  8
0
  6
Continuous
 62
     7
100
AcDbCircle
 10
-295.7656860351563
 20
205.0279846191406
 30
0.0
 40
0.5
100
AcDbArc
 50
270.0000000000005
 51
0.0
  0
ARC
  5
29A
330
22
100
AcDbEntity
  8
0
  6
Continuous
 62
     7
100
AcDbCircle
 10
-262.7656860351563
 20
60.52799224853515
 30
0.0
 40
2.0
100
AcDbArc
 50
0.0
 51
90.00000000000019
  0
ARC
  5
29B
330
22
100
AcDbEntity
  8
0
  6
Continuous
 62
     7
100
AcDbCircle
 10
-261.2656860351563
 20
59.52799224853515
 30
0.0
 40
0.5
100
AcDbArc
 50
270.0000000000005
 51
0.0
  0
ARC
  5
29C
330
22
100
AcDbEntity
  8
0
  6
Continuous
 62
     7
100
AcDbCircle
 10
-305.7656860351563
 20
67.52799224853515
 30
0.0
 40
5.0
100
AcDbArc
 50
180.0000000000004
 51
270.0000000000005
  0
ARC
  5
29D
330
22
100
AcDbEntity
  8
0
  6
Continuous
 62
     7
100
AcDbCircle
 10
-310.7656860351563
 20
35.52799224853516
 30
0.0
 40
1.0
100
AcDbArc
 50
270.0000000000005
 51
0.0
  0
ARC
  5
29E
330
22
100
AcDbEntity
  8
0
  6
Continuous
 62
     7
100
AcDbCircle
 10
-311.7656860351563
 20
91.52799224853515
 30
0.0
 40
1.0
100
AcDbArc
 50
0.0
 51
90.00000000000019
  0
ARC
  5
29F
330
22
100
AcDbEntity
  8
0
  6
Continuous
 62
     7
100
AcDbCircle
 10
-308.565673828125
 20
179.3279876708984
 30
0.0
 40
0.8000000119209291
100
AcDbArc
 50
270.0000000000005
 51
0.0
  0
ARC
  5
2A0
330
22
100
AcDbEntity
  8
0
  6
Continuous
 62
     7
100
AcDbCircle
 10
-308.3656921386719
 20
182.0279846191406
 30
0.0
 40
0.5
100
AcDbArc
 50
270.0000000000005
 51
0.0
  0
ARC
  5
2A1
330
22
100
AcDbEntity
  8
0
  6
Continuous
 62
     7
100
AcDbCircle
 10
-379.7656860351563
 20
205.0279846191406
 30
0.0
 40
0.5
100
AcDbArc
 50
180.0000000000004
 51
270.0000000000005
  0
ARC
  5
2A2
330
22
100
AcDbEntity
  8
0
  6
Continuous
 62
     7
100
AcDbCircle
 10
-375.8428344726563
 20
203.5279846191406
 30
0.0
 40
1.0
100
AcDbArc
 50
6.115627748566157
 51
90.00000000000019
  0
ARC
  5
2A3
330
22
100
AcDbEntity
  8
0
  6
Continuous
 62
     7
100
AcDbCircle
 10
-379.2656860351563
 20
207.5279846191406
 30
0.0
 40
1.0
100
AcDbArc
 50
90.00000000000019
 51
180.0000000000004
  0
ARC
  5
2A4
330
22
100
AcDbEntity
  8
0
  6
Continuous
 62
     7
100
AcDbCircle
 10
-334.5156860351563
 20
206.5279846191406
 30
0.0
 40
1.0
100
AcDbArc
 50
90.00000000000019
 51
180.0000000000004
  0
CIRCLE
  5
2A5
330
22
100
AcDbEntity
  8
0
  6
Continuous
 62
     7
100
AcDbCircle
 10
-308.7656860351563
 20
191.27978515625
 30
0.0
 40
1.0
  0
ARC
  5
2A6
330
22
100
AcDbEntity
  8
0
  6
Continuous
 62
     7
100
AcDbCircle
 10
-318.7315979003906
 20
191.5279846191406
 30
0.0
 40
2.0
100
AcDbArc
 50
270.0000000000005
 51
355.1801628252177
  0
ARC
  5
2A7
330
22
100
AcDbEntity
  8
0
  6
Continuous
 62
     7
100
AcDbCircle
 10
-377.7656860351563
 20
57.46749496459961
 30
0.0
 40
2.0
100
AcDbArc
 50
180.0000000000004
 51
248.8247746927407
  0
ARC
  5
2A8
330
22
100
AcDbEntity
  8
0
  6
Continuous
 62
     7
100
AcDbCircle
 10
-364.7656860351563
 20
35.52799224853516
 30
0.0
 40
1.0
100
AcDbArc
 50
180.0000000000004
 51
270.0000000000005
  0
ARC
  5
2A9
330
22
100
AcDbEntity
  8
0
  6
Continuous
 62
     7
100
AcDbCircle
 10
-368.185302734375
 20
47.02799224853515
 30
0.0
 40
2.0
100
AcDbArc
 50
196.2606593214724
 51
270.0000000000005
  0
ARC
  5
2AA
330
22
100
AcDbEntity
  8
0
  6
Continuous
 62
     7
100
AcDbCircle
 10
-369.7656860351563
 20
67.52799224853515
 30
0.0
 40
5.0
100
AcDbArc
 50
270.0000000000005
 51
0.0
  0
ARC
  5
2AB
330
22
100
AcDbEntity
  8
0
  6
Continuous
 62
     7
100
AcDbCircle
 10
-383.5452575683594
 20
42.5478286743164
 30
0.0
 40
14.0
100
AcDbArc
 50
16.26083417927308
 51
68.82464131270182
  0
ARC
  5
2AC
330
22
100
AcDbEntity
  8
0
  6
Continuous
 62
     7
100
AcDbCircle
 10
-363.7656860351563
 20
91.52799224853515
 30
0.0
 40
1.0
100
AcDbArc
 50
90.00000000000019
 51
180.0000000000004
  0
CIRCLE
  5
2AD
330
22
100
AcDbEntity
  8
0
  6
Continuous
 62
     7
100
AcDbCircle
 10
-320.7652893066406
 20
197.2279968261719
 30
0.0
 40
1.0
  0
ARC
  5
2AE
330
22
100
AcDbEntity
  8
0
  6
Continuous
 62
     7
100
AcDbCircle
 10
-366.7656860351563
 20
58.02799224853515
 30
0.0
 40
1.0
100
AcDbArc
 50
0.0
 51
90.00000000000019
  0
ARC
  5
2AF
330
22
100
AcDbEntity
  8
0
  6
Continuous
 62
     7
100
AcDbCircle
 10
-414.2656860351562
 20
59.52799224853515
 30
0.0
 40
0.5
100
AcDbArc
 50
180.0000000000004
 51
270.0000000000005
  0
ARC
  5
2B0
330
22
100
AcDbEntity
  8
0
  6
Continuous
 62
     7
100
AcDbCircle
 10
-412.7656860351563
 20
60.52799224853515
 30
0.0
 40
2.0
100
AcDbArc
 50
90.00000000000019
 51
180.0000000000004
  0
ARC
  5
2B1
330
22
100
AcDbEntity
  8
0
  6
Continuous
 62
     7
100
AcDbCircle
 10
-324.7652893066406
 20
195.1774597167969
 30
0.0
 40
1.0
100
AcDbArc
 50
0.0
 51
90.00000000000019
  0
ARC
  5
2B2
330
22
100
AcDbEntity
  8
0
  6
Continuous
 62
     7
100
AcDbCircle
 10
-320.3652648925781
 20
194.0279846191406
 30
0.0
 40
0.5
100
AcDbArc
 50
270.0000000000005
 51
0.0
  0
ARC
  5
2B3
330
22
100
AcDbEntity
  8
0
  6
Continuous
 62
     7
100
AcDbCircle
 10
-322.2652893066406
 20
195.0279846191406
 30
0.0
 40
1.5
100
AcDbArc
 50
180.0000000000004
 51
270.0000000000005
  0
ARC
  5
2B4
330
22
100
AcDbEntity
  8
0
  6
Continuous
 62
     7
100
AcDbCircle
 10
-330.7656860351563
 20
193.1774597167969
 30
0.0
 40
3.0
100
AcDbArc
 50
90.00000000000019
 51
180.0000000000004
  0
ARC
  5
2B5
330
22
100
AcDbEntity
  8
0
  6
Continuous
 62
     7
100
AcDbCircle
 10
-331.9856872558594
 20
188.5279846191406
 30
0.0
 40
0.5
100
AcDbArc
 50
270.0000000000005
 51
0.0
  0
ARC
  5
2B6
330
22
100
AcDbEntity
  8
0
  6
Continuous
 62
     7
100
AcDbCircle
 10
-330.4856872558594
 20
188.5279846191406
 30
0.0
 40
1.0
100
AcDbArc
 50
90.00000000000019
 51
180.0000000000004
  0
ARC
  5
2B7
330
22
100
AcDbEntity
  8
0
  6
Continuous
 62
     7
100
AcDbCircle
 10
-337.9912109375
 20
314.0279846191406
 30
0.0
 40
4.449999809265136
100
AcDbArc
 50
213.4053052279186
 51
326.5944784411801
  0
ARC
  5
2B8
330
22
100
AcDbEntity
  8
0
  6
Continuous
 62
     7
100
AcDbCircle
 10
-337.9912109375
 20
314.0279846191406
 30
0.0
 40
4.449999809265136
100
AcDbArc
 50
33.40584957370744
 51
146.5943667582564
  0
CIRCLE
  5
2B9
330
22
100
AcDbEntity
  8
0
  6
Continuous
 62
     7
100
AcDbCircle
 10
-337.7656860351563
 20
314.0279846191406
 30
0.0
 40
77.0
  0
CIRCLE
  5
2BA
330
22
100
AcDbEntity
  8
0
  6
Continuous
 62
     7
100
AcDbCircle
 10
-337.7656860351563
 20
314.0279846191406
 30
0.0
 40
60.25240325927734
  0
CIRCLE
  5
2BB
330
22
100
AcDbEntity
  8
0
  6
Continuous
 62
     7
100
AcDbCircle
 10
-337.9912109375
 20
314.0279846191406
 30
0.0
 40
40.49999999999999
  0
CIRCLE
  5
2BC
330
22
100
AcDbEntity
  8
0
  6
Continuous
 62
     7
100
AcDbCircle
 10
-337.9912109375
 20
314.0279846191406
 30
0.0
 40
32.5
  0
CIRCLE
  5
2BD
330
22
100
AcDbEntity
  8
0
  6
Continuous
 62
     7
100
AcDbCircle
 10
-337.9912109375
 20
314.0279846191406
 30
0.0
 40
42.5
  0
CIRCLE
  5
2BE
330
22
100
AcDbEntity
  8
0
  6
Continuous
 62
     7
100
AcDbCircle
 10
-337.9912109375
 20
314.0279846191406
 30
0.0
 40
20.0
  0
TEXT
  5
2BF
330
22
100
AcDbEntity
  8
0
  6
Continuous
 62
     7
100
AcDbText
 10
-298.6423273086548
 20
17.39823913574219
 30
0.0
 40
7.0
  1
ＤＬ－ＣＨ－４０
 41
0.8454512837995997
100
AcDbText
  0
SOLID
  5
2C0
330
22
100
AcDbEntity
  8
0
  6
Continuous
 62
     7
100
AcDbTrace
 10
-308.5705871582031
 20
192.2605743408203
 30
0.0
 11
-308.9607849121094
 21
192.2605743408203
 31
0.0
 12
-308.7656860351563
 22
192.27978515625
 32
0.0
 13
-308.7656860351563
 23
192.27978515625
 33
0.0
  0
SOLID
  5
2C1
330
22
100
AcDbEntity
  8
0
  6
Continuous
 62
     7
100
AcDbTrace
 10
-308.7656860351563
 20
190.27978515625
 30
0.0
 11
-308.9607849121094
 21
190.2989959716797
 31
0.0
 12
-308.5705871582031
 22
190.2989959716797
 32
0.0
 13
-308.5705871582031
 23
190.2989959716797
 33
0.0
  0
SOLID
  5
2C2
330
22
100
AcDbEntity
  8
0
  6
Continuous
 62
     7
100
AcDbTrace
 10
-308.3829956054688
 20
192.2036590576172
 30
0.0
 11
-309.1483764648438
 21
192.2036590576172
 31
0.0
 12
-308.5705871582031
 22
192.2605743408203
 32
0.0
 13
-308.9607849121094
 23
192.2605743408203
 33
0.0
  0
SOLID
  5
2C3
330
22
100
AcDbEntity
  8
0
  6
Continuous
 62
     7
100
AcDbTrace
 10
-308.2101135253906
 20
192.1112518310547
 30
0.0
 11
-309.3212585449219
 21
192.1112518310547
 31
0.0
 12
-308.3829956054688
 22
192.2036590576172
 32
0.0
 13
-309.1483764648438
 23
192.2036590576172
 33
0.0
  0
SOLID
  5
2C4
330
22
100
AcDbEntity
  8
0
  6
Continuous
 62
     7
100
AcDbTrace
 10
-308.0585632324219
 20
191.9868927001953
 30
0.0
 11
-309.4727783203125
 21
191.9868927001953
 31
0.0
 12
-308.2101135253906
 22
192.1112518310547
 32
0.0
 13
-309.3212585449219
 23
192.1112518310547
 33
0.0
  0
SOLID
  5
2C5
330
22
100
AcDbEntity
  8
0
  6
Continuous
 62
     7
100
AcDbTrace
 10
-307.9342041015625
 20
191.8353576660156
 30
0.0
 11
-309.5971374511719
 21
191.8353576660156
 31
0.0
 12
-308.0585632324219
 22
191.9868927001953
 32
0.0
 13
-309.4727783203125
 23
191.9868927001953
 33
0.0
  0
SOLID
  5
2C6
330
22
100
AcDbEntity
  8
0
  6
Continuous
 62
     7
100
AcDbTrace
 10
-307.841796875
 20
191.6624755859375
 30
0.0
 11
-309.6895446777344
 21
191.6624755859375
 31
0.0
 12
-307.9342041015625
 22
191.8353576660156
 32
0.0
 13
-309.5971374511719
 23
191.8353576660156
 33
0.0
  0
SOLID
  5
2C7
330
22
100
AcDbEntity
  8
0
  6
Continuous
 62
     7
100
AcDbTrace
 10
-307.7848815917969
 20
191.4748840332031
 30
0.0
 11
-309.7464599609375
 21
191.4748840332031
 31
0.0
 12
-307.841796875
 22
191.6624755859375
 32
0.0
 13
-309.6895446777344
 23
191.6624755859375
 33
0.0
  0
SOLID
  5
2C8
330
22
100
AcDbEntity
  8
0
  6
Continuous
 62
     7
100
AcDbTrace
 10
-307.7656860351563
 20
191.27978515625
 30
0.0
 11
-309.7656860351563
 21
191.27978515625
 31
0.0
 12
-307.7848815917969
 22
191.4748840332031
 32
0.0
 13
-309.7464599609375
 23
191.4748840332031
 33
0.0
  0
SOLID
  5
2C9
330
22
100
AcDbEntity
  8
0
  6
Continuous
 62
     7
100
AcDbTrace
 10
-307.7848815917969
 20
191.0847015380859
 30
0.0
 11
-309.7464599609375
 21
191.0847015380859
 31
0.0
 12
-307.7656860351563
 22
191.27978515625
 32
0.0
 13
-309.7656860351563
 23
191.27978515625
 33
0.0
  0
SOLID
  5
2CA
330
22
100
AcDbEntity
  8
0
  6
Continuous
 62
     7
100
AcDbTrace
 10
-307.841796875
 20
190.8971099853516
 30
0.0
 11
-309.6895446777344
 21
190.8971099853516
 31
0.0
 12
-307.7848815917969
 22
191.0847015380859
 32
0.0
 13
-309.7464599609375
 23
191.0847015380859
 33
0.0
  0
SOLID
  5
2CB
330
22
100
AcDbEntity
  8
0
  6
Continuous
 62
     7
100
AcDbTrace
 10
-307.9342041015625
 20
190.7242126464844
 30
0.0
 11
-309.5971374511719
 21
190.7242126464844
 31
0.0
 12
-307.841796875
 22
190.8971099853516
 32
0.0
 13
-309.6895446777344
 23
190.8971099853516
 33
0.0
  0
SOLID
  5
2CC
330
22
100
AcDbEntity
  8
0
  6
Continuous
 62
     7
100
AcDbTrace
 10
-308.0585632324219
 20
190.5726776123047
 30
0.0
 11
-309.4727783203125
 21
190.5726776123047
 31
0.0
 12
-307.9342041015625
 22
190.7242126464844
 32
0.0
 13
-309.5971374511719
 23
190.7242126464844
 33
0.0
  0
SOLID
  5
2CD
330
22
100
AcDbEntity
  8
0
  6
Continuous
 62
     7
100
AcDbTrace
 10
-308.2101135253906
 20
190.4483184814453
 30
0.0
 11
-309.3212585449219
 21
190.4483184814453
 31
0.0
 12
-308.0585632324219
 22
190.5726776123047
 32
0.0
 13
-309.4727783203125
 23
190.5726776123047
 33
0.0
  0
SOLID
  5
2CE
330
22
100
AcDbEntity
  8
0
  6
Continuous
 62
     7
100
AcDbTrace
 10
-308.3829956054688
 20
190.3559112548828
 30
0.0
 11
-309.1483764648438
 21
190.3559112548828
 31
0.0
 12
-308.2101135253906
 22
190.4483184814453
 32
0.0
 13
-309.3212585449219
 23
190.4483184814453
 33
0.0
  0
SOLID
  5
2CF
330
22
100
AcDbEntity
  8
0
  6
Continuous
 62
     7
100
AcDbTrace
 10
-308.5705871582031
 20
190.2989959716797
 30
0.0
 11
-308.9607849121094
 21
190.2989959716797
 31
0.0
 12
-308.3829956054688
 22
190.3559112548828
 32
0.0
 13
-309.1483764648438
 23
190.3559112548828
 33
0.0
  0
SOLID
  5
2D0
330
22
100
AcDbEntity
  8
0
  6
Continuous
 62
     7
100
AcDbTrace
 10
-320.5701904296875
 20
198.2087707519531
 30
0.0
 11
-320.9603576660156
 21
198.2087707519531
 31
0.0
 12
-320.7652893066406
 22
198.2279968261719
 32
0.0
 13
-320.7652893066406
 23
198.2279968261719
 33
0.0
  0
SOLID
  5
2D1
330
22
100
AcDbEntity
  8
0
  6
Continuous
 62
     7
100
AcDbTrace
 10
-320.7652893066406
 20
196.2279968261719
 30
0.0
 11
-320.9603576660156
 21
196.2472076416016
 31
0.0
 12
-320.5701904296875
 22
196.2472076416016
 32
0.0
 13
-320.5701904296875
 23
196.2472076416016
 33
0.0
  0
SOLID
  5
2D2
330
22
100
AcDbEntity
  8
0
  6
Continuous
 62
     7
100
AcDbTrace
 10
-320.3825988769531
 20
198.1518707275391
 30
0.0
 11
-321.14794921875
 21
198.1518707275391
 31
0.0
 12
-320.5701904296875
 22
198.2087707519531
 32
0.0
 13
-320.9603576660156
 23
198.2087707519531
 33
0.0
  0
SOLID
  5
2D3
330
22
100
AcDbEntity
  8
0
  6
Continuous
 62
     7
100
AcDbTrace
 10
-320.209716796875
 20
198.0594635009765
 30
0.0
 11
-321.3208312988281
 21
198.0594635009765
 31
0.0
 12
-320.3825988769531
 22
198.1518707275391
 32
0.0
 13
-321.14794921875
 23
198.1518707275391
 33
0.0
  0
SOLID
  5
2D4
330
22
100
AcDbEntity
  8
0
  6
Continuous
 62
     7
100
AcDbTrace
 10
-320.0581665039063
 20
197.9351043701172
 30
0.0
 11
-321.4723815917969
 21
197.9351043701172
 31
0.0
 12
-320.209716796875
 22
198.0594635009765
 32
0.0
 13
-321.3208312988281
 23
198.0594635009765
 33
0.0
  0
SOLID
  5
2D5
330
22
100
AcDbEntity
  8
0
  6
Continuous
 62
     7
100
AcDbTrace
 10
-319.9338073730469
 20
197.7835540771484
 30
0.0
 11
-321.5967407226563
 21
197.7835540771484
 31
0.0
 12
-320.0581665039063
 22
197.9351043701172
 32
0.0
 13
-321.4723815917969
 23
197.9351043701172
 33
0.0
  0
SOLID
  5
2D6
330
22
100
AcDbEntity
  8
0
  6
Continuous
 62
     7
100
AcDbTrace
 10
-319.8414001464844
 20
197.6106719970703
 30
0.0
 11
-321.6891479492188
 21
197.6106719970703
 31
0.0
 12
-319.9338073730469
 22
197.7835540771484
 32
0.0
 13
-321.5967407226563
 23
197.7835540771484
 33
0.0
  0
SOLID
  5
2D7
330
22
100
AcDbEntity
  8
0
  6
Continuous
 62
     7
100
AcDbTrace
 10
-319.7844848632813
 20
197.4230804443359
 30
0.0
 11
-321.7460632324219
 21
197.4230804443359
 31
0.0
 12
-319.8414001464844
 22
197.6106719970703
 32
0.0
 13
-321.6891479492188
 23
197.6106719970703
 33
0.0
  0
SOLID
  5
2D8
330
22
100
AcDbEntity
  8
0
  6
Continuous
 62
     7
100
AcDbTrace
 10
-319.7652893066406
 20
197.2279968261719
 30
0.0
 11
-321.7652893066406
 21
197.2279968261719
 31
0.0
 12
-319.7844848632813
 22
197.4230804443359
 32
0.0
 13
-321.7460632324219
 23
197.4230804443359
 33
0.0
  0
SOLID
  5
2D9
330
22
100
AcDbEntity
  8
0
  6
Continuous
 62
     7
100
AcDbTrace
 10
-319.7844848632813
 20
197.0328979492188
 30
0.0
 11
-321.7460632324219
 21
197.0328979492188
 31
0.0
 12
-319.7652893066406
 22
197.2279968261719
 32
0.0
 13
-321.7652893066406
 23
197.2279968261719
 33
0.0
  0
SOLID
  5
2DA
330
22
100
AcDbEntity
  8
0
  6
Continuous
 62
     7
100
AcDbTrace
 10
-319.8414001464844
 20
196.8453063964844
 30
0.0
 11
-321.6891479492188
 21
196.8453063964844
 31
0.0
 12
-319.7844848632813
 22
197.0328979492188
 32
0.0
 13
-321.7460632324219
 23
197.0328979492188
 33
0.0
  0
SOLID
  5
2DB
330
22
100
AcDbEntity
  8
0
  6
Continuous
 62
     7
100
AcDbTrace
 10
-319.9338073730469
 20
196.6724243164063
 30
0.0
 11
-321.5967407226563
 21
196.6724243164063
 31
0.0
 12
-319.8414001464844
 22
196.8453063964844
 32
0.0
 13
-321.6891479492188
 23
196.8453063964844
 33
0.0
  0
SOLID
  5
2DC
330
22
100
AcDbEntity
  8
0
  6
Continuous
 62
     7
100
AcDbTrace
 10
-320.0581665039063
 20
196.5208892822266
 30
0.0
 11
-321.4723815917969
 21
196.5208892822266
 31
0.0
 12
-319.9338073730469
 22
196.6724243164063
 32
0.0
 13
-321.5967407226563
 23
196.6724243164063
 33
0.0
  0
SOLID
  5
2DD
330
22
100
AcDbEntity
  8
0
  6
Continuous
 62
     7
100
AcDbTrace
 10
-320.209716796875
 20
196.3965148925781
 30
0.0
 11
-321.3208312988281
 21
196.3965148925781
 31
0.0
 12
-320.0581665039063
 22
196.5208892822266
 32
0.0
 13
-321.4723815917969
 23
196.5208892822266
 33
0.0
  0
SOLID
  5
2DE
330
22
100
AcDbEntity
  8
0
  6
Continuous
 62
     7
100
AcDbTrace
 10
-320.3825988769531
 20
196.3041076660156
 30
0.0
 11
-321.14794921875
 21
196.3041076660156
 31
0.0
 12
-320.209716796875
 22
196.3965148925781
 32
0.0
 13
-321.3208312988281
 23
196.3965148925781
 33
0.0
  0
SOLID
  5
2DF
330
22
100
AcDbEntity
  8
0
  6
Continuous
 62
     7
100
AcDbTrace
 10
-320.5701904296875
 20
196.2472076416016
 30
0.0
 11
-320.9603576660156
 21
196.2472076416016
 31
0.0
 12
-320.3825988769531
 22
196.3041076660156
 32
0.0
 13
-321.14794921875
 23
196.3041076660156
 33
0.0
  0
DIMENSION
  5
2E0
330
22
100
AcDbEntity
  8
0
  6
Continuous
 62
     7
100
AcDbDimension
  2
*D1
 10
-330.4672546386719
 20
172.5279846191406
 30
0.0
 11
-330.4672546386719
 21
122.5279922485352
 31
0.0
 71
     5
 42
-1.0
  3
DIMSTYLE1
100
AcDbAlignedDimension
 13
-337.7656860351563
 23
72.52799224853515
 33
0.0
 14
-337.7656860351563
 24
172.5279846191406
 34
0.0
 50
90.0
100
AcDbRotatedDimension
  0
DIMENSION
  5
2E1
330
22
100
AcDbEntity
  8
0
  6
Continuous
 62
     7
100
AcDbDimension
  2
*D2
 10
-324.4164733886719
 20
122.5279922485352
 30
0.0
 11
-324.4164733886719
 21
97.52799224853516
 31
0.0
 71
     5
 42
-1.0
  3
DIMSTYLE2
100
AcDbAlignedDimension
 13
-321.3697204589844
 23
72.52799224853515
 33
0.0
 14
-315.2656860351563
 24
122.5279922485352
 34
0.0
 50
90.0
100
AcDbRotatedDimension
  0
DIMENSION
  5
2E2
330
22
100
AcDbEntity
  8
0
  6
Continuous
 62
     7
100
AcDbDimension
  2
*D3
 10
-218.5705718994141
 20
208.5279846191406
 30
0.0
 11
-218.5705718994141
 21
135.5279846191406
 31
0.0
 71
     5
 42
-1.0
  3
DIMSTYLE3
100
AcDbAlignedDimension
 13
-262.7656860351563
 23
62.52799224853515
 33
0.0
 14
-296.2656860351563
 24
208.5279846191406
 34
0.0
 50
90.0
100
AcDbRotatedDimension
  0
DIMENSION
  5
2E3
330
22
100
AcDbEntity
  8
0
  6
Continuous
 62
     7
100
AcDbDimension
  2
*D4
 10
-218.5705718994141
 20
59.02799224853516
 30
0.0
 11
-218.5705718994141
 21
49.82223892211914
 31
0.0
 71
     5
 42
-1.0
  3
DIMSTYLE4
100
AcDbAlignedDimension
 13
-216.2845764160156
 23
62.52799224853515
 33
0.0
 14
-261.2656860351563
 24
59.02799224853516
 34
0.0
 50
90.0
100
AcDbRotatedDimension
  0
DIMENSION
  5
2E4
330
22
100
AcDbEntity
  8
0
  6
Continuous
 62
     7
100
AcDbDimension
  2
*D5
 10
-232.2666625976563
 20
92.52799224853516
 30
0.0
 11
-232.2666625976563
 21
77.52799224853515
 31
0.0
 71
     5
 42
-1.0
  3
DIMSTYLE5
100
AcDbAlignedDimension
 13
-216.2845764160156
 23
62.52799224853515
 33
0.0
 14
-311.7656860351563
 24
92.52799224853516
 34
0.0
 50
90.0
100
AcDbRotatedDimension
  0
DIMENSION
  5
2E5
330
22
100
AcDbEntity
  8
0
  6
Continuous
 62
     7
100
AcDbDimension
  2
*D6
 10
-232.2666625976563
 20
159.5279846191406
 30
0.0
 11
-232.2666625976563
 21
184.0279846191406
 31
0.0
 71
     5
 42
-1.0
  3
DIMSTYLE6
100
AcDbAlignedDimension
 13
-216.2845764160156
 23
208.5279846191406
 33
0.0
 14
-304.2656860351563
 24
159.5279846191406
 34
0.0
 50
90.0
100
AcDbRotatedDimension
  0
INSERT
  5
2E6
330
22
100
AcDbEntity
  8
0
  6
Continuous
 62
     7
100
AcDbBlockReference
  2
KOZU0001
 10
-314.3768310546875
 20
50.93240737915039
 30
0.0
  0
DIMENSION
  5
2E7
330
22
100
AcDbEntity
  8
0
  6
Continuous
 62
     7
100
AcDbDimension
  2
*D7
 10
-309.7656860351563
 20
16.33207130432129
 30
0.0
 11
-337.7656860351563
 21
16.33207130432129
 31
0.0
 71
     5
 42
-1.0
  3
DIMSTYLE7
100
AcDbAlignedDimension
 13
-365.7656860351563
 23
35.52799224853516
 33
0.0
 14
-309.7656860351563
 24
35.52799224853516
 34
0.0
100
AcDbRotatedDimension
  0
DIMENSION
  5
2E8
330
22
100
AcDbEntity
  8
0
  6
Continuous
 62
     7
100
AcDbDimension
  2
*D8
 10
-379.7656860351563
 20
38.03839492797852
 30
0.0
 11
-372.7656860351563
 21
38.03839492797852
 31
0.0
 71
     5
 42
-1.0
  3
DIMSTYLE8
100
AcDbAlignedDimension
 13
-365.7656860351563
 23
35.02799224853517
 33
0.0
 14
-379.7656860351563
 24
57.46749496459961
 34
0.0
100
AcDbRotatedDimension
  0
DIMENSION
  5
2E9
330
22
100
AcDbEntity
  8
0
  6
Continuous
 62
     7
100
AcDbDimension
  2
*D9
 10
-391.7273559570313
 20
45.02799224853515
 30
0.0
 11
-391.7273559570313
 21
52.02799224853515
 31
0.0
 71
     5
 42
-1.0
  3
DIMSTYLE9
100
AcDbAlignedDimension
 13
-370.7656860351563
 23
59.02799224853516
 33
0.0
 14
-368.185302734375
 24
45.02799224853515
 34
0.0
 50
90.0
100
AcDbRotatedDimension
  0
INSERT
  5
2EA
330
22
100
AcDbEntity
  8
0
  6
Continuous
 62
     7
100
AcDbBlockReference
  2
KOZU0002
 10
-372.5692138671875
 20
55.20977401733397
 30
0.0
  0
DIMENSION
  5
2EB
330
22
100
AcDbEntity
  8
0
  6
Continuous
 62
     7
100
AcDbDimension
  2
*D10
 10
-398.822076239648
 20
267.1119189785006
 30
0.0
 11
-258.845703125
 21
374.6705322265625
 31
0.0
 70
     3
 71
     5
 42
-1.0
  3
DIMSTYLE10
100
AcDbDiametricDimension
 15
-276.7092958306645
 25
360.9440502597807
 35
0.0
 40
0.0
  0
DIMENSION
  5
2EC
330
22
100
AcDbEntity
  8
0
  6
Continuous
 62
     7
100
AcDbDimension
  2
*D11
 10
-377.152086081532
 20
297.5150848751969
 30
0.0
 11
-250.2226257324219
 21
351.0372314453125
 31
0.0
 70
     3
 71
     5
 42
-1.0
  3
DIMSTYLE11
100
AcDbDiametricDimension
 15
-298.830335793468
 25
330.5408843630843
 35
0.0
 40
0.0
  0
DIMENSION
  5
2ED
330
22
100
AcDbEntity
  8
0
  6
Continuous
 62
     7
100
AcDbDimension
  2
*D12
 10
-370.2093826512307
 20
309.7572222253091
 30
0.0
 11
-242.3890686035156
 21
326.7007751464844
 31
0.0
 70
     3
 71
     5
 42
-1.0
  3
DIMSTYLE12
100
AcDbDiametricDimension
 15
-305.7730392237693
 25
318.2987470129721
 35
0.0
 40
0.0
  0
DIMENSION
  5
2EE
330
22
100
AcDbEntity
  8
0
  6
Continuous
 62
     7
100
AcDbDimension
  2
*D13
 10
-356.7818032022989
 20
320.8773380439597
 30
0.0
 11
-247.3045349121094
 21
280.9718017578125
 31
0.0
 70
     3
 71
     5
 42
-1.0
  3
DIMSTYLE13
100
AcDbDiametricDimension
 15
-319.2006186727011
 25
307.1786311943216
 35
0.0
 40
0.0
  0
DIMENSION
  5
2EF
330
22
100
AcDbEntity
  8
0
  6
Continuous
 62
     7
100
AcDbDimension
  2
*D14
 10
-431.3561096191405
 20
92.52799224853516
 30
0.0
 11
-431.3561096191405
 21
63.52799224853516
 31
0.0
 71
     5
 42
-1.0
  3
DIMSTYLE14
100
AcDbAlignedDimension
 13
-364.7656860351563
 23
34.52799224853516
 33
0.0
 14
-363.7656860351563
 24
92.52799224853516
 34
0.0
 50
90.0
100
AcDbRotatedDimension
  0
ENDSEC
  0
SECTION
  2
OBJECTS
  0
DICTIONARY
  5
C
330
0
100
AcDbDictionary
281
     1
  3
ACAD_COLOR
350
1B
  3
ACAD_GROUP
350
D
  3
ACAD_LAYOUT
350
19
  3
ACAD_MATERIAL
350
1A
  3
ACAD_MLINESTYLE
350
16
  3
ACAD_PLOTSETTINGS
350
18
  3
ACAD_PLOTSTYLENAME
350
E
  3
ACAD_TABLESTYLE
350
1C
  3
AcDbVariableDictionary
350
2FB
  0
DICTIONARY
  5
1B
102
{ACAD_REACTORS
330
C
102
}
330
C
100
AcDbDictionary
281
     1
  0
DICTIONARY
  5
D
102
{ACAD_REACTORS
330
C
102
}
330
C
100
AcDbDictionary
281
     1
  0
DICTIONARY
  5
19
102
{ACAD_REACTORS
330
C
102
}
330
C
100
AcDbDictionary
281
     1
  3
Model
350
25
  3
レイアウト1
350
21
  0
DICTIONARY
  5
1A
102
{ACAD_REACTORS
330
C
102
}
330
C
100
AcDbDictionary
281
     1
  0
DICTIONARY
  5
16
102
{ACAD_REACTORS
330
C
102
}
330
C
100
AcDbDictionary
281
     1
  3
Standard
350
17
  0
DICTIONARY
  5
18
102
{ACAD_REACTORS
330
C
102
}
330
C
100
AcDbDictionary
281
     1
  0
ACDBDICTIONARYWDFLT
  5
E
102
{ACAD_REACTORS
330
C
102
}
330
C
100
AcDbDictionary
281
     1
  3
Normal
350
F
100
AcDbDictionaryWithDefault
340
F
  0
DICTIONARY
  5
1C
102
{ACAD_REACTORS
330
C
102
}
330
C
100
AcDbDictionary
281
     1
  3
Standard
350
1D
  0
DICTIONARY
  5
2FB
102
{ACAD_REACTORS
330
C
102
}
330
C
100
AcDbDictionary
281
     1
  3
CTABLESTYLE
350
2FC
  0
LAYOUT
  5
25
102
{ACAD_REACTORS
330
19
102
}
330
19
100
AcDbPlotSettings
  1

  2
PDF reDirect v2
  4
User66
  6

 40
3.174999952316284
 41
3.174999952316284
 42
3.17498779296875
 43
3.17498779296875
 44
420.0
 45
594.0
 46
0.0
 47
0.0
 48
0.0
 49
0.0
140
0.0
141
0.0
142
1.0
143
1.0
 70
 11952
 72
     1
 73
     1
 74
     2
  7
C:\Users\ck\AppData\Roaming\Autodesk\AutoCAD 2005\R16.1\jpn\Plot Styles\black.ctb
 75
    16
147
1.0
 76
     0
 77
     2
 78
   300
148
592.0
149
0.0
100
AcDbLayout
  1
Model
 70
     1
 71
     0
 10
0.0
 20
0.0
 11
12.0
 21
9.0
 12
0.0
 22
0.0
 32
0.0
 14
0.0
 24
0.0
 34
0.0
 15
0.0
 25
0.0
 35
0.0
146
0.0
 13
0.0
 23
0.0
 33
0.0
 16
1.0
 26
0.0
 36
0.0
 17
0.0
 27
1.0
 37
0.0
 76
     0
330
22
1001
ACAD_PSEXT
1000
PDF reDirect v2
1000
PDF reDirect Pro
1000
PDF_REDIRECT_PORT:
1000
PDF reDirect provided by EXP Systems
1070
     0
  0
LAYOUT
  5
21
102
{ACAD_REACTORS
330
19
102
}
330
19
100
AcDbPlotSettings
  1

  2
PDF reDirect v2
  4

  6

 40
0.0
 41
0.0
 42
0.0
 43
0.0
 44
0.0
 45
0.0
 46
0.0
 47
0.0
 48
0.0
 49
0.0
140
0.0
141
0.0
142
1.0
143
1.0
 70
   688
 72
     0
 73
     0
 74
     5
  7
C:\Users\ck\AppData\Roaming\Autodesk\AutoCAD 2005\R16.1\jpn\Plot Styles\black.ctb
 75
    16
147
1.0
 76
     0
 77
     2
 78
   300
148
0.0
149
0.0
100
AcDbLayout
  1
レイアウト1
 70
     1
 71
     1
 10
-592.0
 20
0.0
 11
0.0
 21
418.0
 12
0.0
 22
0.0
 32
0.0
 14
1.000000000000000E+20
 24
1.000000000000000E+20
 34
1.000000000000000E+20
 15
-1.000000000000000E+20
 25
-1.000000000000000E+20
 35
-1.000000000000000E+20
146
0.0
 13
0.0
 23
0.0
 33
0.0
 16
1.0
 26
0.0
 36
0.0
 17
0.0
 27
1.0
 37
0.0
 76
     0
330
1E
  0
MLINESTYLE
  5
17
102
{ACAD_REACTORS
330
16
102
}
330
16
100
AcDbMlineStyle
  2
STANDARD
 70
     0
  3

 62
   256
 51
90.0
 52
90.0
 71
     2
 49
0.5
 62
   256
  6
BYLAYER
 49
-0.5
 62
   256
  6
BYLAYER
  0
ACDBPLACEHOLDER
  5
F
102
{ACAD_REACTORS
330
E
102
}
330
E
  0
TABLESTYLE
  5
1D
102
{ACAD_REACTORS
330
1C
102
}
330
1C
100
AcDbTableStyle
  3
Standard
 70
     0
 71
     0
 40
0.06
 41
0.06
280
     0
281
     0
  7
STANDARD
140
0.18
170
     2
 62
     0
 63
     7
283
     0
274
    -2
284
     1
 64
     0
275
    -2
285
     1
 65
     0
276
    -2
286
     1
 66
     0
277
    -2
287
     1
 67
     0
278
    -2
288
     1
 68
     0
279
    -2
289
     1
 69
     0
  7
STANDARD
140
0.25
170
     5
 62
     0
 63
     7
283
     0
274
    -2
284
     1
 64
     0
275
    -2
285
     1
 65
     0
276
    -2
286
     1
 66
     0
277
    -2
287
     1
 67
     0
278
    -2
288
     1
 68
     0
279
    -2
289
     1
 69
     0
  7
STANDARD
140
0.18
170
     5
 62
     0
 63
     7
283
     0
274
    -2
284
     1
 64
     0
275
    -2
285
     1
 65
     0
276
    -2
286
     1
 66
     0
277
    -2
287
     1
 67
     0
278
    -2
288
     1
 68
     0
279
    -2
289
     1
 69
     0
  0
DICTIONARYVAR
  5
2FC
102
{ACAD_REACTORS
330
2FB
102
}
330
2FB
100
DictionaryVariables
280
     0
  1
STANDARD
  0
ENDSEC
  0
EOF
