  0
SECTION
  2
HEADER
  9
$ACADVER
  1
AC1018
  9
$ACADMAINTVER
 70
    39
  9
$DWGCODEPAGE
  3
ANSI_932
  9
$INSBASE
 10
0.0
 20
0.0
 30
0.0
  9
$EXTMIN
 10
-370.5841664462166
 20
74.73889237774869
 30
-0.0015258207003583
  9
$EXTMAX
 10
-67.30200105242193
 20
239.533051161716
 30
0.0000000349246037
  9
$LIMMIN
 10
-423.0
 20
-2.0
  9
$LIMMAX
 10
-5.0
 20
293.0
  9
$ORTHOMODE
 70
     0
  9
$REGENMODE
 70
     1
  9
$FILLMODE
 70
     1
  9
$QTEXTMODE
 70
     0
  9
$MIRRTEXT
 70
     0
  9
$LTSCALE
 40
1.0
  9
$ATTMODE
 70
     1
  9
$TEXTSIZE
 40
0.2
  9
$TRACEWID
 40
0.05
  9
$TEXTSTYLE
  7
STANDARD
  9
$CLAYER
  8
0
  9
$CELTYPE
  6
CONTINUOUS
  9
$CECOLOR
 62
   256
  9
$CELTSCALE
 40
1.0
  9
$DISPSILH
 70
     0
  9
$DIMSCALE
 40
1.0
  9
$DIMASZ
 40
1.0
  9
$DIMEXO
 40
2.54
  9
$DIMDLI
 40
0.38
  9
$DIMRND
 40
0.0
  9
$DIMDLE
 40
0.0
  9
$DIMEXE
 40
2.54
  9
$DIMTP
 40
0.0
  9
$DIMTM
 40
0.0
  9
$DIMTXT
 40
3.0
  9
$DIMCEN
 40
0.09
  9
$DIMTSZ
 40
0.0
  9
$DIMTOL
 70
     0
  9
$DIMLIM
 70
     0
  9
$DIMTIH
 70
     0
  9
$DIMTOH
 70
     0
  9
$DIMSE1
 70
     0
  9
$DIMSE2
 70
     0
  9
$DIMTAD
 70
     1
  9
$DIMZIN
 70
     0
  9
$DIMBLK
  1

  9
$DIMASO
 70
     1
  9
$DIMSHO
 70
     0
  9
$DIMPOST
  1

  9
$DIMAPOST
  1

  9
$DIMALT
 70
     0
  9
$DIMALTD
 70
     2
  9
$DIMALTF
 40
25.4
  9
$DIMLFAC
 40
1.0
  9
$DIMTOFL
 70
     0
  9
$DIMTVP
 40
1.0
  9
$DIMTIX
 70
     0
  9
$DIMSOXD
 70
     0
  9
$DIMSAH
 70
     1
  9
$DIMBLK1
  1

  9
$DIMBLK2
  1

  9
$DIMSTYLE
  2
DIMSTYLE1
  9
$DIMCLRD
 70
     0
  9
$DIMCLRE
 70
     0
  9
$DIMCLRT
 70
     0
  9
$DIMTFAC
 40
1.0
  9
$DIMGAP
 40
1.5
  9
$DIMJUST
 70
     0
  9
$DIMSD1
 70
     0
  9
$DIMSD2
 70
     0
  9
$DIMTOLJ
 70
     1
  9
$DIMTZIN
 70
     0
  9
$DIMALTZ
 70
     0
  9
$DIMALTTZ
 70
     0
  9
$DIMUPT
 70
     0
  9
$DIMDEC
 70
     4
  9
$DIMTDEC
 70
     4
  9
$DIMALTU
 70
     2
  9
$DIMALTTD
 70
     2
  9
$DIMTXSTY
  7
STANDARD
  9
$DIMAUNIT
 70
     0
  9
$DIMADEC
 70
     0
  9
$DIMALTRND
 40
0.0
  9
$DIMAZIN
 70
     0
  9
$DIMDSEP
 70
    46
  9
$DIMATFIT
 70
     3
  9
$DIMFRAC
 70
     0
  9
$DIMLDRBLK
  1

  9
$DIMLUNIT
 70
     2
  9
$DIMLWD
 70
    -2
  9
$DIMLWE
 70
    -2
  9
$DIMTMOVE
 70
     0
  9
$LUNITS
 70
     2
  9
$LUPREC
 70
     4
  9
$SKETCHINC
 40
0.1
  9
$FILLETRAD
 40
0.0
  9
$AUNITS
 70
     0
  9
$AUPREC
 70
     0
  9
$MENU
  1
.
  9
$ELEVATION
 40
0.0
  9
$PELEVATION
 40
0.0
  9
$THICKNESS
 40
0.0
  9
$LIMCHECK
 70
     0
  9
$CHAMFERA
 40
0.0
  9
$CHAMFERB
 40
0.0
  9
$CHAMFERC
 40
0.0
  9
$CHAMFERD
 40
0.0
  9
$SKPOLY
 70
     0
  9
$TDCREATE
 40
2457844.556185706
  9
$TDUCREATE
 40
2457844.181185706
  9
$TDUPDATE
 40
2457844.556896759
  9
$TDUUPDATE
 40
2457844.181896760
  9
$TDINDWG
 40
0.0007122106
  9
$TDUSRTIMER
 40
0.0007122106
  9
$USRTIMER
 70
     1
  9
$ANGBASE
 50
0.0
  9
$ANGDIR
 70
     0
  9
$PDMODE
 70
     0
  9
$PDSIZE
 40
0.0
  9
$PLINEWID
 40
0.0
  9
$SPLFRAME
 70
     0
  9
$SPLINETYPE
 70
     6
  9
$SPLINESEGS
 70
     8
  9
$HANDSEED
  5
144
  9
$SURFTAB1
 70
     6
  9
$SURFTAB2
 70
     6
  9
$SURFTYPE
 70
     6
  9
$SURFU
 70
     6
  9
$SURFV
 70
     6
  9
$UCSBASE
  2

  9
$UCSNAME
  2

  9
$UCSORG
 10
0.0
 20
0.0
 30
0.0
  9
$UCSXDIR
 10
1.0
 20
0.0
 30
0.0
  9
$UCSYDIR
 10
0.0
 20
1.0
 30
0.0
  9
$UCSORTHOREF
  2

  9
$UCSORTHOVIEW
 70
     0
  9
$UCSORGTOP
 10
0.0
 20
0.0
 30
0.0
  9
$UCSORGBOTTOM
 10
0.0
 20
0.0
 30
0.0
  9
$UCSORGLEFT
 10
0.0
 20
0.0
 30
0.0
  9
$UCSORGRIGHT
 10
0.0
 20
0.0
 30
0.0
  9
$UCSORGFRONT
 10
0.0
 20
0.0
 30
0.0
  9
$UCSORGBACK
 10
0.0
 20
0.0
 30
0.0
  9
$PUCSBASE
  2

  9
$PUCSNAME
  2

  9
$PUCSORG
 10
0.0
 20
0.0
 30
0.0
  9
$PUCSXDIR
 10
1.0
 20
0.0
 30
0.0
  9
$PUCSYDIR
 10
0.0
 20
1.0
 30
0.0
  9
$PUCSORTHOREF
  2

  9
$PUCSORTHOVIEW
 70
     0
  9
$PUCSORGTOP
 10
0.0
 20
0.0
 30
0.0
  9
$PUCSORGBOTTOM
 10
0.0
 20
0.0
 30
0.0
  9
$PUCSORGLEFT
 10
0.0
 20
0.0
 30
0.0
  9
$PUCSORGRIGHT
 10
0.0
 20
0.0
 30
0.0
  9
$PUCSORGFRONT
 10
0.0
 20
0.0
 30
0.0
  9
$PUCSORGBACK
 10
0.0
 20
0.0
 30
0.0
  9
$USERI1
 70
     0
  9
$USERI2
 70
     0
  9
$USERI3
 70
     0
  9
$USERI4
 70
     0
  9
$USERI5
 70
     0
  9
$USERR1
 40
0.0
  9
$USERR2
 40
0.0
  9
$USERR3
 40
0.0
  9
$USERR4
 40
0.0
  9
$USERR5
 40
0.0
  9
$WORLDVIEW
 70
     1
  9
$SHADEDGE
 70
     3
  9
$SHADEDIF
 70
    70
  9
$TILEMODE
 70
     1
  9
$MAXACTVP
 70
    64
  9
$PINSBASE
 10
0.0
 20
0.0
 30
0.0
  9
$PLIMCHECK
 70
     0
  9
$PEXTMIN
 10
1.000000000000000E+20
 20
1.000000000000000E+20
 30
1.000000000000000E+20
  9
$PEXTMAX
 10
-1.000000000000000E+20
 20
-1.000000000000000E+20
 30
-1.000000000000000E+20
  9
$PLIMMIN
 10
-423.0
 20
-2.0
  9
$PLIMMAX
 10
-5.0
 20
293.0
  9
$UNITMODE
 70
     0
  9
$VISRETAIN
 70
     1
  9
$PLINEGEN
 70
     0
  9
$PSLTSCALE
 70
     1
  9
$TREEDEPTH
 70
  3020
  9
$CMLSTYLE
  2
Standard
  9
$CMLJUST
 70
     0
  9
$CMLSCALE
 40
1.0
  9
$PROXYGRAPHICS
 70
     1
  9
$MEASUREMENT
 70
     0
  9
$CELWEIGHT
370
    -1
  9
$ENDCAPS
280
     0
  9
$JOINSTYLE
280
     0
  9
$LWDISPLAY
290
     0
  9
$INSUNITS
 70
     0
  9
$HYPERLINKBASE
  1

  9
$STYLESHEET
  1

  9
$XEDIT
290
     1
  9
$CEPSNTYPE
380
     0
  9
$PSTYLEMODE
290
     1
  9
$FINGERPRINTGUID
  2
{E25966D8-0F68-495F-888E-FD1839E41846}
  9
$VERSIONGUID
  2
{02517F81-DCF5-4B86-9572-24B56464A59B}
  9
$EXTNAMES
290
     1
  9
$PSVPSCALE
 40
0.0
  9
$OLESTARTUP
290
     0
  9
$SORTENTS
280
   127
  9
$INDEXCTL
280
     0
  9
$HIDETEXT
280
     0
  9
$XCLIPFRAME
290
     0
  9
$HALOGAP
280
     0
  9
$OBSCOLOR
 70
   257
  9
$OBSLTYPE
280
     0
  9
$INTERSECTIONDISPLAY
280
     0
  9
$INTERSECTIONCOLOR
 70
   257
  9
$DIMASSOC
280
     1
  9
$PROJECTNAME
  1

  0
ENDSEC
  0
SECTION
  2
CLASSES
  0
CLASS
  1
ACDBDICTIONARYWDFLT
  2
AcDbDictionaryWithDefault
  3
ObjectDBX Classes
 90
        0
 91
        1
280
     0
281
     0
  0
CLASS
  1
TABLESTYLE
  2
AcDbTableStyle
  3
ObjectDBX Classes
 90
     2047
 91
        1
280
     0
281
     0
  0
CLASS
  1
DICTIONARYVAR
  2
AcDbDictionaryVar
  3
ObjectDBX Classes
 90
        0
 91
        1
280
     0
281
     0
  0
ENDSEC
  0
SECTION
  2
TABLES
  0
TABLE
  2
VPORT
  5
8
330
0
100
AcDbSymbolTable
 70
     2
  0
VPORT
  5
143
330
8
100
AcDbSymbolTableRecord
100
AcDbViewportTableRecord
  2
*Active
 70
     0
 10
0.0
 20
0.0
 11
1.0
 21
1.0
 12
-214.0
 22
145.5
 13
0.0
 23
0.0
 14
1.0
 24
1.0
 15
0.0
 25
0.0
 16
0.0
 26
0.0
 36
1.0
 17
0.0
 27
0.0
 37
0.0
 40
297.3320158102766
 41
1.707124010554089
 42
50.0
 43
0.0
 44
0.0
 50
0.0
 51
0.0
 71
     0
 72
   100
 73
     1
 74
     1
 75
     0
 76
     0
 77
     0
 78
     0
281
     0
 65
     1
110
0.0
120
0.0
130
0.0
111
1.0
121
0.0
131
0.0
112
0.0
122
1.0
132
0.0
 79
     0
146
0.0
  0
ENDTAB
  0
TABLE
  2
LTYPE
  5
5
330
0
100
AcDbSymbolTable
 70
     6
  0
LTYPE
  5
13
330
5
100
AcDbSymbolTableRecord
100
AcDbLinetypeTableRecord
  2
ByBlock
 70
     0
  3

 72
    65
 73
     0
 40
0.0
  0
LTYPE
  5
14
330
5
100
AcDbSymbolTableRecord
100
AcDbLinetypeTableRecord
  2
ByLayer
 70
     0
  3

 72
    65
 73
     0
 40
0.0
  0
LTYPE
  5
15
330
5
100
AcDbSymbolTableRecord
100
AcDbLinetypeTableRecord
  2
CONTINUOUS
 70
     0
  3
Solid line
 72
    65
 73
     0
 40
0.0
  0
LTYPE
  5
26
330
5
100
AcDbSymbolTableRecord
100
AcDbLinetypeTableRecord
  2
DASHED
 70
     0
  3
__ __ __ __ __ __ __ __ __ __ __ __ __ __ __
 72
    65
 73
     2
 40
3.5
 49
2.0
 74
     0
 49
-1.5
 74
     0
  0
LTYPE
  5
27
330
5
100
AcDbSymbolTableRecord
100
AcDbLinetypeTableRecord
  2
CENTER
 70
     0
  3
____ _ ____ _ ____ _ ____ _ ____ _ ____ _ ____
 72
    65
 73
     4
 40
17.5
 49
13.0
 74
     0
 49
-1.5
 74
     0
 49
1.5
 74
     0
 49
-1.5
 74
     0
  0
LTYPE
  5
28
330
5
100
AcDbSymbolTableRecord
100
AcDbLinetypeTableRecord
  2
PHANTOM
 70
     0
  3
_____ _ _ _____ _ _ _____ _ _ _____ _ _ ____  
 72
    65
 73
     6
 40
15.5
 49
8.0
 74
     0
 49
-1.5
 74
     0
 49
1.5
 74
     0
 49
-1.5
 74
     0
 49
1.5
 74
     0
 49
-1.5
 74
     0
  0
LTYPE
  5
29
330
5
100
AcDbSymbolTableRecord
100
AcDbLinetypeTableRecord
  2
DOT
 70
     0
  3
. . . . . . . . . . . . . . . . . . . . . . . .
 72
    65
 73
     2
 40
0.25
 49
0.0
 74
     0
 49
-0.25
 74
     0
  0
LTYPE
  5
2A
330
5
100
AcDbSymbolTableRecord
100
AcDbLinetypeTableRecord
  2
HIDDEN
 70
     0
  3
__ __ __ __ __ __ __ __ __ __ __ __ __ __ __
 72
    65
 73
     2
 40
3.5
 49
2.0
 74
     0
 49
-1.5
 74
     0
  0
ENDTAB
  0
TABLE
  2
LAYER
  5
2
330
0
100
AcDbSymbolTable
 70
     3
  0
LAYER
  5
10
330
2
100
AcDbSymbolTableRecord
100
AcDbLayerTableRecord
  2
0
 70
     0
 62
     7
  6
CONTINUOUS
370
    -3
390
F
  0
LAYER
  5
2B
330
2
100
AcDbSymbolTableRecord
100
AcDbLayerTableRecord
  2
1
 70
     0
 62
     7
  6
CONTINUOUS
370
    -3
390
F
  0
LAYER
  5
2C
330
2
100
AcDbSymbolTableRecord
100
AcDbLayerTableRecord
  2
DEFPOINTS
 70
     0
 62
     7
  6
CONTINUOUS
290
     0
370
    -3
390
F
  0
ENDTAB
  0
TABLE
  2
STYLE
  5
3
330
0
100
AcDbSymbolTable
 70
     2
  0
STYLE
  5
11
330
3
100
AcDbSymbolTableRecord
100
AcDbTextStyleTableRecord
  2
STANDARD
 70
     0
 40
0.0
 41
1.0
 50
0.0
 71
     0
 42
0.2
  3

  4

1001
ACAD
1000
MS Gothic
1071
    32817
  0
ENDTAB
  0
TABLE
  2
VIEW
  5
6
330
0
100
AcDbSymbolTable
 70
     0
  0
ENDTAB
  0
TABLE
  2
UCS
  5
7
330
0
100
AcDbSymbolTable
 70
     0
  0
ENDTAB
  0
TABLE
  2
APPID
  5
9
330
0
100
AcDbSymbolTable
 70
     2
  0
APPID
  5
12
330
9
100
AcDbSymbolTableRecord
100
AcDbRegAppTableRecord
  2
ACAD
 70
     0
  0
APPID
  5
138
330
9
100
AcDbSymbolTableRecord
100
AcDbRegAppTableRecord
  2
ACAD_PSEXT
 70
     0
  0
ENDTAB
  0
TABLE
  2
DIMSTYLE
  5
A
330
0
100
AcDbSymbolTable
 70
     5
100
AcDbDimStyleTable
 71
     1
340
2D
  0
DIMSTYLE
105
2D
102
{ACAD_REACTORS
330
132
102
}
330
A
100
AcDbSymbolTableRecord
100
AcDbDimStyleTableRecord
  2
DIMSTYLE1
 70
     0
 41
1.0
 42
2.54
 44
2.54
 73
     0
 74
     0
 77
     1
140
3.0
145
1.0
147
1.5
172
     1
173
     1
279
     2
340
11
  0
DIMSTYLE
105
2E
102
{ACAD_REACTORS
330
133
102
}
330
A
100
AcDbSymbolTableRecord
100
AcDbDimStyleTableRecord
  2
DIMSTYLE2
 70
     0
 41
1.0
 42
2.54
 44
2.54
 73
     0
 74
     0
 77
     1
140
3.0
145
1.0
147
1.5
172
     1
173
     1
279
     2
340
11
  0
DIMSTYLE
105
2F
102
{ACAD_REACTORS
330
134
102
}
330
A
100
AcDbSymbolTableRecord
100
AcDbDimStyleTableRecord
  2
DIMSTYLE3
 70
     0
 41
1.0
 42
2.54
 44
2.54
 73
     0
 74
     0
 75
     1
 76
     1
 77
     1
140
3.0
145
1.0
147
1.5
172
     1
173
     1
279
     2
340
11
  0
DIMSTYLE
105
30
102
{ACAD_REACTORS
330
135
102
}
330
A
100
AcDbSymbolTableRecord
100
AcDbDimStyleTableRecord
  2
DIMSTYLE4
 70
     0
 41
1.0
 42
2.54
 44
2.54
 73
     0
 74
     0
 75
     1
 76
     1
 77
     1
140
3.0
145
1.0
147
1.5
172
     1
173
     1
279
     2
340
11
  0
ENDTAB
  0
TABLE
  2
BLOCK_RECORD
  5
1
330
0
100
AcDbSymbolTable
 70
     7
  0
BLOCK_RECORD
  5
22
330
1
100
AcDbSymbolTableRecord
100
AcDbBlockTableRecord
  2
*Model_Space
340
25
  0
BLOCK_RECORD
  5
1E
330
1
100
AcDbSymbolTableRecord
100
AcDbBlockTableRecord
  2
*Paper_Space
340
21
  0
BLOCK_RECORD
  5
34
330
1
100
AcDbSymbolTableRecord
100
AcDbBlockTableRecord
  2
_OPEN30
340
0
102
{BLKREFS
331
3D
331
3E
331
49
331
4A
331
55
331
56
331
5F
331
60
102
}
  0
BLOCK_RECORD
  5
3A
330
1
100
AcDbSymbolTableRecord
100
AcDbBlockTableRecord
  2
*D1
340
0
  0
BLOCK_RECORD
  5
46
330
1
100
AcDbSymbolTableRecord
100
AcDbBlockTableRecord
  2
*D2
340
0
  0
BLOCK_RECORD
  5
51
330
1
100
AcDbSymbolTableRecord
100
AcDbBlockTableRecord
  2
*D3
340
0
  0
BLOCK_RECORD
  5
5B
330
1
100
AcDbSymbolTableRecord
100
AcDbBlockTableRecord
  2
*D4
340
0
  0
BLOCK_RECORD
  5
65
330
1
100
AcDbSymbolTableRecord
100
AcDbBlockTableRecord
  2
KOZU0001
340
0
102
{BLKREFS
331
131
102
}
  0
ENDTAB
  0
ENDSEC
  0
SECTION
  2
BLOCKS
  0
BLOCK
  5
23
330
22
100
AcDbEntity
  8
0
100
AcDbBlockBegin
  2
*Model_Space
 70
     0
 10
0.0
 20
0.0
 30
0.0
  3
*Model_Space
  1

  0
ENDBLK
  5
24
330
22
100
AcDbEntity
  8
0
100
AcDbBlockEnd
  0
BLOCK
  5
1F
330
1E
100
AcDbEntity
 67
     1
  8
0
100
AcDbBlockBegin
  2
*Paper_Space
 70
     0
 10
0.0
 20
0.0
 30
0.0
  3
*Paper_Space
  1

  0
ENDBLK
  5
20
330
1E
100
AcDbEntity
 67
     1
  8
0
100
AcDbBlockEnd
  0
BLOCK
  5
35
330
34
100
AcDbEntity
  8
0
100
AcDbBlockBegin
  2
_OPEN30
 70
     0
 10
0.0
 20
0.0
 30
0.0
  3
_OPEN30
  1

  0
LINE
  5
36
330
34
100
AcDbEntity
  8
0
  6
ByBlock
 62
     0
100
AcDbLine
 10
0.0
 20
0.0
 30
0.0
 11
-2.999999999999993
 21
-1.000000000000017
 31
0.0
  0
LINE
  5
37
330
34
100
AcDbEntity
  8
0
  6
ByBlock
 62
     0
100
AcDbLine
 10
0.0
 20
0.0
 30
0.0
 11
-3.000000000000006
 21
0.9999999999999815
 31
0.0
  0
LINE
  5
38
330
34
100
AcDbEntity
  8
0
  6
ByBlock
 62
     0
100
AcDbLine
 10
0.0
 20
0.0
 30
0.0
 11
-3.0
 21
0.0
 31
0.0
  0
ENDBLK
  5
39
330
34
100
AcDbEntity
  8
0
100
AcDbBlockEnd
  0
BLOCK
  5
3B
330
3A
100
AcDbEntity
  8
0
100
AcDbBlockBegin
  2
*D1
 70
     1
 10
0.0
 20
0.0
 30
0.0
  3
*D1
  1

  0
LINE
  5
3C
330
3A
100
AcDbEntity
  8
0
  6
Continuous
 62
     7
100
AcDbLine
 10
-74.58956909179687
 20
235.4236297607422
 30
0.0
 11
-168.5895690917969
 21
235.4236297607422
 31
0.0
  0
INSERT
  5
3D
330
3A
100
AcDbEntity
  8
0
  6
Continuous
 62
     7
100
AcDbBlockReference
  2
_OPEN30
 10
-71.58956909179687
 20
235.4236297607422
 30
0.0
  0
INSERT
  5
3E
330
3A
100
AcDbEntity
  8
0
  6
Continuous
 62
     7
100
AcDbBlockReference
  2
_OPEN30
 10
-171.5895690917969
 20
235.4236297607422
 30
0.0
 50
180.0000000000004
  0
LINE
  5
3F
330
3A
100
AcDbEntity
  8
0
  6
Continuous
 62
     7
100
AcDbLine
 10
-71.58956909179689
 20
194.6586218261719
 30
0.0
 11
-71.58956909179687
 21
237.7096252441406
 31
0.0
  0
LINE
  5
40
330
3A
100
AcDbEntity
  8
0
  6
Continuous
 62
     7
100
AcDbLine
 10
-171.5895690917969
 20
216.3086309814453
 30
0.0
 11
-171.5895690917969
 21
237.7096252441406
 31
0.0
  0
TEXT
  5
41
330
3A
100
AcDbEntity
  8
0
  6
Continuous
 62
     7
100
AcDbText
 10
-125.6595692634583
 20
236.1736297607422
 30
0.0
 40
3.0
  1
100
 41
1.320000017011488
100
AcDbText
  0
POINT
  5
42
330
3A
100
AcDbEntity
  8
DEFPOINTS
  6
Continuous
 62
     7
100
AcDbPoint
 10
-71.58956909179687
 20
192.1186218261719
 30
0.0
  0
POINT
  5
43
330
3A
100
AcDbEntity
  8
DEFPOINTS
  6
Continuous
 62
     7
100
AcDbPoint
 10
-171.5895690917969
 20
213.7686309814453
 30
0.0
  0
POINT
  5
44
330
3A
100
AcDbEntity
  8
DEFPOINTS
  6
Continuous
 62
     7
100
AcDbPoint
 10
-171.5895690917969
 20
235.4236297607422
 30
0.0
  0
ENDBLK
  5
45
330
3A
100
AcDbEntity
  8
0
100
AcDbBlockEnd
  0
BLOCK
  5
47
330
46
100
AcDbEntity
  8
0
100
AcDbBlockBegin
  2
*D2
 70
     1
 10
0.0
 20
0.0
 30
0.0
  3
*D2
  1

  0
LINE
  5
48
330
46
100
AcDbEntity
  8
0
  6
Continuous
 62
     7
100
AcDbLine
 10
-174.5895690917969
 20
235.4236297607422
 30
0.0
 11
-178.5895690917969
 21
235.4236297607422
 31
0.0
  0
INSERT
  5
49
330
46
100
AcDbEntity
  8
0
  6
Continuous
 62
     7
100
AcDbBlockReference
  2
_OPEN30
 10
-171.5895690917969
 20
235.4236297607422
 30
0.0
  0
INSERT
  5
4A
330
46
100
AcDbEntity
  8
0
  6
Continuous
 62
     7
100
AcDbBlockReference
  2
_OPEN30
 10
-181.5895690917969
 20
235.4236297607422
 30
0.0
 50
180.0000000000004
  0
LINE
  5
4B
330
46
100
AcDbEntity
  8
0
  6
Continuous
 62
     7
100
AcDbLine
 10
-181.5895690917969
 20
204.6006384277344
 30
0.0
 11
-181.5895690917969
 21
237.7096252441406
 31
0.0
  0
TEXT
  5
4C
330
46
100
AcDbEntity
  8
0
  6
Continuous
 62
     7
100
AcDbText
 10
-179.1595692038536
 20
236.1736297607422
 30
0.0
 40
3.0
  1
10
 41
1.40181821042841
100
AcDbText
  0
POINT
  5
4D
330
46
100
AcDbEntity
  8
DEFPOINTS
  6
Continuous
 62
     7
100
AcDbPoint
 10
-171.5895690917969
 20
237.7096252441406
 30
0.0
  0
POINT
  5
4E
330
46
100
AcDbEntity
  8
DEFPOINTS
  6
Continuous
 62
     7
100
AcDbPoint
 10
-181.5895690917969
 20
202.0606384277344
 30
0.0
  0
POINT
  5
4F
330
46
100
AcDbEntity
  8
DEFPOINTS
  6
Continuous
 62
     7
100
AcDbPoint
 10
-181.5895690917969
 20
235.4236297607422
 30
0.0
  0
ENDBLK
  5
50
330
46
100
AcDbEntity
  8
0
100
AcDbBlockEnd
  0
BLOCK
  5
52
330
51
100
AcDbEntity
  8
0
100
AcDbBlockBegin
  2
*D3
 70
     1
 10
0.0
 20
0.0
 30
0.0
  3
*D3
  1

  0
LINE
  5
53
330
51
100
AcDbEntity
  8
0
  6
Continuous
 62
     7
100
AcDbLine
 10
-289.1143798828125
 20
161.3661346435547
 30
0.0
 11
-259.71142578125
 21
152.0071563720703
 31
0.0
  0
LINE
  5
54
330
51
100
AcDbEntity
  8
0
  6
Continuous
 62
     7
100
AcDbLine
 10
-345.3350767741217
 20
179.2612083714643
 30
0.0
 11
-291.9730592122064
 21
162.2760535914264
 31
0.0
  0
INSERT
  5
55
330
51
100
AcDbEntity
  8
0
  6
Continuous
 62
     7
100
AcDbBlockReference
  2
_OPEN30
 10
-348.1937561035156
 20
180.1711273193359
 30
0.0
 50
162.3437032007792
  0
INSERT
  5
56
330
51
100
AcDbEntity
  8
0
  6
Continuous
 62
     7
100
AcDbBlockReference
  2
_OPEN30
 10
-289.1143798828125
 20
161.3661346435547
 30
0.0
 50
342.3437032007799
  0
TEXT
  5
57
330
51
100
AcDbEntity
  8
0
  6
Continuous
 62
     7
100
AcDbText
 10
-267.2390292827195
 20
155.1935336337708
 30
0.0
 40
3.0
  1
%%C６２
 50
342.3000001904715
 41
0.8550420278260688
100
AcDbText
  0
POINT
  5
58
330
51
100
AcDbEntity
  8
DEFPOINTS
  6
Continuous
 62
     7
100
AcDbPoint
 10
-348.1937561035156
 20
180.1711273193359
 30
0.0
  0
POINT
  5
59
330
51
100
AcDbEntity
  8
DEFPOINTS
  6
Continuous
 62
     7
100
AcDbPoint
 10
-289.1143798828125
 20
161.3661346435547
 30
0.0
  0
ENDBLK
  5
5A
330
51
100
AcDbEntity
  8
0
100
AcDbBlockEnd
  0
BLOCK
  5
5C
330
5B
100
AcDbEntity
  8
0
100
AcDbBlockBegin
  2
*D4
 70
     1
 10
0.0
 20
0.0
 30
0.0
  3
*D4
  1

  0
LINE
  5
5D
330
5B
100
AcDbEntity
  8
0
  6
Continuous
 62
     7
100
AcDbLine
 10
-278.6607666015625
 20
193.4960327148438
 30
0.0
 11
-267.1699829101563
 21
200.0260162353516
 31
0.0
  0
LINE
  5
5E
330
5B
100
AcDbEntity
  8
0
  6
Continuous
 62
     7
100
AcDbLine
 10
-356.0391402232593
 20
149.5234510419975
 30
0.0
 11
-281.2690262806469
 21
192.0138109208931
 31
0.0
  0
INSERT
  5
5F
330
5B
100
AcDbEntity
  8
0
  6
Continuous
 62
     7
100
AcDbBlockReference
  2
_OPEN30
 10
-358.6473999023438
 20
148.0412292480469
 30
0.0
 50
209.6087028435103
  0
INSERT
  5
60
330
5B
100
AcDbEntity
  8
0
  6
Continuous
 62
     7
100
AcDbBlockReference
  2
_OPEN30
 10
-278.6607666015625
 20
193.4960327148438
 30
0.0
 50
29.6087028435096
  0
TEXT
  5
61
330
5B
100
AcDbEntity
  8
0
  6
Continuous
 62
     7
100
AcDbText
 10
-274.6178274986881
 20
196.6568991035663
 30
0.0
 40
3.0
  1
%%C９２
 50
29.60000105136802
 41
0.8550420278260688
100
AcDbText
  0
POINT
  5
62
330
5B
100
AcDbEntity
  8
DEFPOINTS
  6
Continuous
 62
     7
100
AcDbPoint
 10
-358.6473999023438
 20
148.0412292480469
 30
0.0
  0
POINT
  5
63
330
5B
100
AcDbEntity
  8
DEFPOINTS
  6
Continuous
 62
     7
100
AcDbPoint
 10
-278.6607666015625
 20
193.4960327148438
 30
0.0
  0
ENDBLK
  5
64
330
5B
100
AcDbEntity
  8
0
100
AcDbBlockEnd
  0
BLOCK
  5
66
330
65
100
AcDbEntity
  8
0
100
AcDbBlockBegin
  2
KOZU0001
 70
     0
 10
0.0
 20
0.0
 30
0.0
  3
KOZU0001
  1

  0
LINE
  5
67
330
65
100
AcDbEntity
  8
0
  6
Continuous
 62
     7
100
AcDbLine
 10
-74.16405291368253
 20
186.2686280883847
 30
0.0
 11
-71.58956922129118
 21
188.8431169297485
 31
0.0
  0
LINE
  5
68
330
65
100
AcDbEntity
  8
0
  6
Continuous
 62
     7
100
AcDbLine
 10
-78.6541764840958
 20
186.2686280883846
 30
0.0
 11
-72.8041881840841
 21
192.1186280883846
 31
0.0
  0
LINE
  5
69
330
65
100
AcDbEntity
  8
0
  6
Continuous
 62
     7
100
AcDbLine
 10
-83.14430005450905
 20
186.2686280883847
 30
0.0
 11
-77.29431175449734
 21
192.1186280883846
 31
0.0
  0
LINE
  5
6A
330
65
100
AcDbEntity
  8
0
  6
Continuous
 62
     7
100
AcDbLine
 10
-87.63442362492233
 20
186.2686280883846
 30
0.0
 11
-81.78443532491062
 21
192.1186280883846
 31
0.0
  0
LINE
  5
6B
330
65
100
AcDbEntity
  8
0
  6
Continuous
 62
     7
100
AcDbLine
 10
-92.12454719533559
 20
186.2686280883846
 30
0.0
 11
-86.27455889532386
 21
192.1186280883846
 31
0.0
  0
LINE
  5
6C
330
65
100
AcDbEntity
  8
0
  6
Continuous
 62
     7
100
AcDbLine
 10
-96.61467076574885
 20
186.2686280883847
 30
0.0
 11
-90.76468246573714
 21
192.1186280883846
 31
0.0
  0
LINE
  5
6D
330
65
100
AcDbEntity
  8
0
  6
Continuous
 62
     7
100
AcDbLine
 10
-101.1047943361621
 20
186.2686280883846
 30
0.0
 11
-95.2548060361504
 21
192.1186280883846
 31
0.0
  0
LINE
  5
6E
330
65
100
AcDbEntity
  8
0
  6
Continuous
 62
     7
100
AcDbLine
 10
-105.5949179065754
 20
186.2686280883846
 30
0.0
 11
-99.7449296065637
 21
192.1186280883846
 31
0.0
  0
LINE
  5
6F
330
65
100
AcDbEntity
  8
0
  6
Continuous
 62
     7
100
AcDbLine
 10
-110.0850414769886
 20
186.2686280883847
 30
0.0
 11
-104.2350531769769
 21
192.1186280883846
 31
0.0
  0
LINE
  5
70
330
65
100
AcDbEntity
  8
0
  6
Continuous
 62
     7
100
AcDbLine
 10
-114.5751650474019
 20
186.2686280883846
 30
0.0
 11
-108.7251767473902
 21
192.1186280883846
 31
0.0
  0
LINE
  5
71
330
65
100
AcDbEntity
  8
0
  6
Continuous
 62
     7
100
AcDbLine
 10
-119.0652886178152
 20
186.2686280883847
 30
0.0
 11
-113.2153003178035
 21
192.1186280883846
 31
0.0
  0
LINE
  5
72
330
65
100
AcDbEntity
  8
0
  6
Continuous
 62
     7
100
AcDbLine
 10
-123.5554121882285
 20
186.2686280883846
 30
0.0
 11
-117.7054238882168
 21
192.1186280883846
 31
0.0
  0
LINE
  5
73
330
65
100
AcDbEntity
  8
0
  6
Continuous
 62
     7
100
AcDbLine
 10
-128.0455357586417
 20
186.2686280883846
 30
0.0
 11
-122.19554745863
 21
192.1186280883846
 31
0.0
  0
LINE
  5
74
330
65
100
AcDbEntity
  8
0
  6
Continuous
 62
     7
100
AcDbLine
 10
-132.535659329055
 20
186.2686280883847
 30
0.0
 11
-126.6856710290433
 21
192.1186280883846
 31
0.0
  0
LINE
  5
75
330
65
100
AcDbEntity
  8
0
  6
Continuous
 62
     7
100
AcDbLine
 10
-137.0257828994683
 20
186.2686280883846
 30
0.0
 11
-131.1757945994565
 21
192.1186280883846
 31
0.0
  0
LINE
  5
76
330
65
100
AcDbEntity
  8
0
  6
Continuous
 62
     7
100
AcDbLine
 10
-141.5159064698815
 20
186.2686280883846
 30
0.0
 11
-135.6659181698698
 21
192.1186280883846
 31
0.0
  0
LINE
  5
77
330
65
100
AcDbEntity
  8
0
  6
Continuous
 62
     7
100
AcDbLine
 10
-146.0060300402948
 20
186.2686280883847
 30
0.0
 11
-140.1560417402831
 21
192.1186280883846
 31
0.0
  0
LINE
  5
78
330
65
100
AcDbEntity
  8
0
  6
Continuous
 62
     7
100
AcDbLine
 10
-150.496153610708
 20
186.2686280883847
 30
0.0
 11
-144.6461653106964
 21
192.1186280883846
 31
0.0
  0
LINE
  5
79
330
65
100
AcDbEntity
  8
0
  6
Continuous
 62
     7
100
AcDbLine
 10
-154.9862771811213
 20
186.2686280883847
 30
0.0
 11
-149.1362888811096
 21
192.1186280883846
 31
0.0
  0
LINE
  5
7A
330
65
100
AcDbEntity
  8
0
  6
Continuous
 62
     7
100
AcDbLine
 10
-159.4764007515346
 20
186.2686280883846
 30
0.0
 11
-153.6264124515229
 21
192.1186280883846
 31
0.0
  0
LINE
  5
7B
330
65
100
AcDbEntity
  8
0
  6
Continuous
 62
     7
100
AcDbLine
 10
-163.9665243219478
 20
186.2686280883846
 30
0.0
 11
-158.1165360219362
 21
192.1186280883846
 31
0.0
  0
LINE
  5
7C
330
65
100
AcDbEntity
  8
0
  6
Continuous
 62
     7
100
AcDbLine
 10
-168.4566478923611
 20
186.2686280883847
 30
0.0
 11
-162.6066595923494
 21
192.1186280883846
 31
0.0
  0
LINE
  5
7D
330
65
100
AcDbEntity
  8
0
  6
Continuous
 62
     7
100
AcDbLine
 10
-172.9467714627744
 20
186.2686280883847
 30
0.0
 11
-167.0967831627627
 21
192.1186280883846
 31
0.0
  0
LINE
  5
7E
330
65
100
AcDbEntity
  8
0
  6
Continuous
 62
     7
100
AcDbLine
 10
-177.4368950331876
 20
186.2686280883846
 30
0.0
 11
-175.5868987331839
 21
188.1186280883845
 31
0.0
  0
LINE
  5
7F
330
65
100
AcDbEntity
  8
0
  6
Continuous
 62
     7
100
AcDbLine
 10
-171.5895692212912
 20
192.1159655949444
 30
0.0
 11
-171.5869067331759
 21
192.1186280883846
 31
0.0
  0
ENDBLK
  5
80
330
65
100
AcDbEntity
  8
0
100
AcDbBlockEnd
  0
ENDSEC
  0
SECTION
  2
ENTITIES
  0
POINT
  5
81
330
22
100
AcDbEntity
  8
0
  6
Continuous
 62
     7
100
AcDbPoint
 10
-318.6540832519531
 20
170.7686309814453
 30
0.0
  0
POINT
  5
82
330
22
100
AcDbEntity
  8
0
  6
Continuous
 62
     7
100
AcDbPoint
 10
-318.6540832519531
 20
170.7686309814453
 30
0.0
  0
POINT
  5
83
330
22
100
AcDbEntity
  8
0
  6
Continuous
 62
     7
100
AcDbPoint
 10
-318.6540832519531
 20
170.7686309814453
 30
0.0
  0
POINT
  5
84
330
22
100
AcDbEntity
  8
0
  6
Continuous
 62
     7
100
AcDbPoint
 10
-318.6540832519531
 20
170.7686309814453
 30
0.0
  0
POINT
  5
85
330
22
100
AcDbEntity
  8
0
  6
Continuous
 62
     7
100
AcDbPoint
 10
-181.5895690917969
 20
170.7686309814453
 30
0.0
  0
POINT
  5
86
330
22
100
AcDbEntity
  8
0
  6
Continuous
 62
     7
100
AcDbPoint
 10
-71.58956909179687
 20
192.1186218261719
 30
0.0
  0
POINT
  5
87
330
22
100
AcDbEntity
  8
0
  6
Continuous
 62
     7
100
AcDbPoint
 10
-71.58956909179687
 20
149.4186248779297
 30
0.0
  0
LINE
  5
88
330
22
100
AcDbEntity
  8
0
  6
CENTER
 62
     7
100
AcDbLine
 10
-268.4604797363281
 20
170.7686309814453
 30
0.0
 11
-370.55908203125
 21
170.7686309814453
 31
0.0
  0
LINE
  5
89
330
22
100
AcDbEntity
  8
0
  6
CENTER
 62
     7
100
AcDbLine
 10
-318.6540832519531
 20
220.8702239990234
 30
0.0
 11
-318.6540832519531
 21
119.3336410522461
 31
0.0
  0
LINE
  5
8A
330
22
100
AcDbEntity
  8
0
  6
Continuous
 62
     7
100
AcDbLine
 10
-71.58956909179687
 20
149.4186248779297
 30
0.0
 11
-71.58956909179687
 21
170.7005462646484
 31
0.0
  0
LINE
  5
8B
330
22
100
AcDbEntity
  8
0
  6
Continuous
 62
     7
100
AcDbLine
 10
-71.58956909179687
 20
170.7686309814453
 30
0.0
 11
-71.58956909179687
 21
192.1186218261719
 31
0.0
  0
LINE
  5
8C
330
22
100
AcDbEntity
  8
0
  6
Continuous
 62
     7
100
AcDbLine
 10
-178.5895690917969
 20
192.7686309814453
 30
0.0
 11
-178.5895690917969
 21
170.7686309814453
 31
0.0
  0
LINE
  5
8D
330
22
100
AcDbEntity
  8
0
  6
Continuous
 62
     7
100
AcDbLine
 10
-178.5895690917969
 20
202.2686309814453
 30
0.0
 11
-178.5895690917969
 21
196.7686309814453
 31
0.0
  0
LINE
  5
8E
330
22
100
AcDbEntity
  8
0
  6
Continuous
 62
     7
100
AcDbLine
 10
-181.5895690917969
 20
199.7686309814453
 30
0.0
 11
-178.5895690917969
 21
196.7686309814453
 31
0.0
  0
LINE
  5
8F
330
22
100
AcDbEntity
  8
0
  6
Continuous
 62
     7
100
AcDbLine
 10
-181.5895690917969
 20
199.7686309814453
 30
0.0
 11
-181.5895690917969
 21
189.7686309814453
 31
0.0
  0
LINE
  5
90
330
22
100
AcDbEntity
  8
0
  6
Continuous
 62
     7
100
AcDbLine
 10
-178.5895690917969
 20
188.1186218261719
 30
0.0
 11
-177.4984741210938
 21
189.2686309814453
 31
0.0
  0
LINE
  5
91
330
22
100
AcDbEntity
  8
0
  6
Continuous
 62
     7
100
AcDbLine
 10
-181.5066375732422
 20
205.4593658447266
 30
0.0
 11
-176.7202758789063
 21
216.4679870605469
 31
0.0
  0
LINE
  5
92
330
22
100
AcDbEntity
  8
0
  6
Continuous
 62
     7
100
AcDbLine
 10
-181.5895690917969
 20
189.7686309814453
 30
0.0
 11
-178.5895690917969
 21
192.7686309814453
 31
0.0
  0
LINE
  5
93
330
22
100
AcDbEntity
  8
0
  6
Continuous
 62
     7
100
AcDbLine
 10
-181.5895690917969
 20
201.7686309814453
 30
0.0
 11
-178.5895690917969
 21
201.7686309814453
 31
0.0
  0
LINE
  5
94
330
22
100
AcDbEntity
  8
0
  6
Continuous
 62
     7
100
AcDbLine
 10
-181.5895690917969
 20
202.2686309814453
 30
0.0
 11
-178.5895690917969
 21
202.2686309814453
 31
0.0
  0
LINE
  5
95
330
22
100
AcDbEntity
  8
0
  6
Continuous
 62
     7
100
AcDbLine
 10
-181.5066375732422
 20
136.0778961181641
 30
0.0
 11
-176.7202758789063
 21
125.0692672729492
 31
0.0
  0
LINE
  5
96
330
22
100
AcDbEntity
  8
0
  6
Continuous
 62
     7
100
AcDbLine
 10
-176.0895690917969
 20
170.7686309814453
 30
0.0
 11
-176.0895690917969
 21
126.9896697998047
 31
0.0
  0
LINE
  5
97
330
22
100
AcDbEntity
  8
0
  6
Continuous
 62
     7
100
AcDbLine
 10
-181.5895690917969
 20
205.0606384277344
 30
0.0
 11
-181.5895690917969
 21
136.4766082763672
 31
0.0
  0
LINE
  5
98
330
22
100
AcDbEntity
  8
0
  6
Continuous
 62
     7
100
AcDbLine
 10
-172.3986358642578
 20
195.7369689941406
 30
0.0
 11
-172.3986358642578
 21
193.7686309814453
 31
0.0
  0
LINE
  5
99
330
22
100
AcDbEntity
  8
0
  6
Continuous
 62
     7
100
AcDbLine
 10
-172.1351165771484
 20
216.7686309814453
 30
0.0
 11
-171.5895690917969
 21
216.2230834960938
 31
0.0
  0
LINE
  5
9A
330
22
100
AcDbEntity
  8
0
  6
Continuous
 62
     7
100
AcDbLine
 10
-174.2564392089844
 20
216.7686309814453
 30
0.0
 11
-171.5895690917969
 21
214.1017608642578
 31
0.0
  0
LINE
  5
9B
330
22
100
AcDbEntity
  8
0
  6
Continuous
 62
     7
100
AcDbLine
 10
-174.9635467529297
 20
216.7686309814453
 30
0.0
 11
-171.5895690917969
 21
213.3946533203125
 31
0.0
  0
LINE
  5
9C
330
22
100
AcDbEntity
  8
0
  6
Continuous
 62
     7
100
AcDbLine
 10
-176.7396545410156
 20
216.4234161376953
 30
0.0
 11
-171.5895690917969
 21
211.2733306884766
 31
0.0
  0
LINE
  5
9D
330
22
100
AcDbEntity
  8
0
  6
Continuous
 62
     7
100
AcDbLine
 10
-176.9539337158203
 20
215.9305877685547
 30
0.0
 11
-171.5895690917969
 21
210.5662231445313
 31
0.0
  0
LINE
  5
9E
330
22
100
AcDbEntity
  8
0
  6
Continuous
 62
     7
100
AcDbLine
 10
-177.5967559814453
 20
214.4520874023438
 30
0.0
 11
-171.5895690917969
 21
208.4449005126953
 31
0.0
  0
LINE
  5
9F
330
22
100
AcDbEntity
  8
0
  6
Continuous
 62
     7
100
AcDbLine
 10
-177.81103515625
 20
213.9592590332031
 30
0.0
 11
-171.5895690917969
 21
207.73779296875
 31
0.0
  0
LINE
  5
A0
330
22
100
AcDbEntity
  8
0
  6
Continuous
 62
     7
100
AcDbLine
 10
-178.453857421875
 20
212.4807586669922
 30
0.0
 11
-171.5895690917969
 21
205.6164855957031
 31
0.0
  0
LINE
  5
A1
330
22
100
AcDbEntity
  8
0
  6
Continuous
 62
     7
100
AcDbLine
 10
-178.6681365966797
 20
211.9879302978516
 30
0.0
 11
-171.5895690917969
 21
204.9093780517578
 31
0.0
  0
LINE
  5
A2
330
22
100
AcDbEntity
  8
0
  6
Continuous
 62
     7
100
AcDbLine
 10
-179.3109588623047
 20
210.5094451904297
 30
0.0
 11
-171.5895690917969
 21
202.7880554199219
 31
0.0
  0
LINE
  5
A3
330
22
100
AcDbEntity
  8
0
  6
Continuous
 62
     7
100
AcDbLine
 10
-179.5252380371094
 20
210.0166015625
 30
0.0
 11
-171.5895690917969
 21
202.0809478759766
 31
0.0
  0
LINE
  5
A4
330
22
100
AcDbEntity
  8
0
  6
Continuous
 62
     7
100
AcDbLine
 10
-180.1680603027344
 20
208.5381164550781
 30
0.0
 11
-171.5895690917969
 21
199.9596252441406
 31
0.0
  0
LINE
  5
A5
330
22
100
AcDbEntity
  8
0
  6
Continuous
 62
     7
100
AcDbLine
 10
-180.38232421875
 20
208.0452728271484
 30
0.0
 11
-171.5895690917969
 21
199.2525177001953
 31
0.0
  0
LINE
  5
A6
330
22
100
AcDbEntity
  8
0
  6
Continuous
 62
     7
100
AcDbLine
 10
-181.0251617431641
 20
206.5667877197266
 30
0.0
 11
-171.5895690917969
 21
197.1311950683594
 31
0.0
  0
LINE
  5
A7
330
22
100
AcDbEntity
  8
0
  6
Continuous
 62
     7
100
AcDbLine
 10
-181.2394256591797
 20
206.0739440917969
 30
0.0
 11
-171.9341125488281
 21
196.7686309814453
 31
0.0
  0
LINE
  5
A8
330
22
100
AcDbEntity
  8
0
  6
Continuous
 62
     7
100
AcDbLine
 10
-178.5895690917969
 20
201.3027648925781
 30
0.0
 11
-174.055419921875
 21
196.7686309814453
 31
0.0
  0
LINE
  5
A9
330
22
100
AcDbEntity
  8
0
  6
Continuous
 62
     7
100
AcDbLine
 10
-181.5895690917969
 20
204.3027648925781
 30
0.0
 11
-179.555419921875
 21
202.2686309814453
 31
0.0
  0
LINE
  5
AA
330
22
100
AcDbEntity
  8
0
  6
Continuous
 62
     7
100
AcDbLine
 10
-178.5895690917969
 20
200.5956573486328
 30
0.0
 11
-174.7625274658203
 21
196.7686309814453
 31
0.0
  0
LINE
  5
AB
330
22
100
AcDbEntity
  8
0
  6
Continuous
 62
     7
100
AcDbLine
 10
-181.5895690917969
 20
203.5956573486328
 30
0.0
 11
-180.2625274658203
 21
202.2686309814453
 31
0.0
  0
LINE
  5
AC
330
22
100
AcDbEntity
  8
0
  6
Continuous
 62
     7
100
AcDbLine
 10
-172.8838500976563
 20
192.7686309814453
 30
0.0
 11
-171.5895690917969
 21
191.4743499755859
 31
0.0
  0
LINE
  5
AD
330
22
100
AcDbEntity
  8
0
  6
Continuous
 62
     7
100
AcDbLine
 10
-178.5895690917969
 20
198.4743499755859
 30
0.0
 11
-176.8838500976563
 21
196.7686309814453
 31
0.0
  0
LINE
  5
AE
330
22
100
AcDbEntity
  8
0
  6
Continuous
 62
     7
100
AcDbLine
 10
-173.5909576416016
 20
192.7686309814453
 30
0.0
 11
-171.5895690917969
 21
190.7672424316406
 31
0.0
  0
LINE
  5
AF
330
22
100
AcDbEntity
  8
0
  6
Continuous
 62
     7
100
AcDbLine
 10
-178.5895690917969
 20
197.7672424316406
 30
0.0
 11
-177.5909576416016
 21
196.7686309814453
 31
0.0
  0
LINE
  5
B0
330
22
100
AcDbEntity
  8
0
  6
Continuous
 62
     7
100
AcDbLine
 10
-175.7122802734375
 20
192.7686309814453
 30
0.0
 11
-172.2122802734375
 21
189.2686309814453
 31
0.0
  0
LINE
  5
B1
330
22
100
AcDbEntity
  8
0
  6
Continuous
 62
     7
100
AcDbLine
 10
-176.4193878173828
 20
192.7686309814453
 30
0.0
 11
-172.9193878173828
 21
189.2686309814453
 31
0.0
  0
LINE
  5
B2
330
22
100
AcDbEntity
  8
0
  6
Continuous
 62
     7
100
AcDbLine
 10
-178.5407104492188
 20
192.7686309814453
 30
0.0
 11
-175.0407104492188
 21
189.2686309814453
 31
0.0
  0
LINE
  5
B3
330
22
100
AcDbEntity
  8
0
  6
Continuous
 62
     7
100
AcDbLine
 10
-178.5895690917969
 20
192.1103820800781
 30
0.0
 11
-175.7478179931641
 21
189.2686309814453
 31
0.0
  0
LINE
  5
B4
330
22
100
AcDbEntity
  8
0
  6
Continuous
 62
     7
100
AcDbLine
 10
-178.5895690917969
 20
189.9890594482421
 30
0.0
 11
-177.869140625
 21
189.2686309814453
 31
0.0
  0
LINE
  5
B5
330
22
100
AcDbEntity
  8
0
  6
Continuous
 62
     7
100
AcDbLine
 10
-178.5895690917969
 20
189.2819519042969
 30
0.0
 11
-178.5762481689453
 21
189.2686309814453
 31
0.0
  0
LINE
  5
B6
330
22
100
AcDbEntity
  8
0
  6
Continuous
 62
     7
100
AcDbLine
 10
-171.5895690917969
 20
216.7686309814453
 30
0.0
 11
-176.2617492675781
 21
216.7686309814453
 31
0.0
  0
LINE
  5
B7
330
22
100
AcDbEntity
  8
0
  6
Continuous
 62
     7
100
AcDbLine
 10
-171.5895690917969
 20
188.1186218261719
 30
0.0
 11
-171.5895690917969
 21
216.7686309814453
 31
0.0
  0
LINE
  5
B8
330
22
100
AcDbEntity
  8
0
  6
Continuous
 62
     7
100
AcDbLine
 10
-171.5895690917969
 20
188.1186218261719
 30
0.0
 11
-178.5895690917969
 21
188.1186218261719
 31
0.0
  0
LINE
  5
B9
330
22
100
AcDbEntity
  8
0
  6
Continuous
 62
     7
100
AcDbLine
 10
-171.5895690917969
 20
189.2686309814453
 30
0.0
 11
-178.5895690917969
 21
189.2686309814453
 31
0.0
  0
LINE
  5
BA
330
22
100
AcDbEntity
  8
0
  6
Continuous
 62
     7
100
AcDbLine
 10
-178.5895690917969
 20
192.7686309814453
 30
0.0
 11
-171.6197662353516
 21
192.7686309814453
 31
0.0
  0
LINE
  5
BB
330
22
100
AcDbEntity
  8
0
  6
Continuous
 62
     7
100
AcDbLine
 10
-178.5895690917969
 20
196.7686309814453
 30
0.0
 11
-171.6197662353516
 21
196.7686309814453
 31
0.0
  0
LINE
  5
BC
330
22
100
AcDbEntity
  8
0
  6
Continuous
 62
     7
100
AcDbLine
 10
-172.3986358642578
 20
195.7369689941406
 30
0.0
 11
-173.2286987304688
 21
196.7686309814453
 31
0.0
  0
LINE
  5
BD
330
22
100
AcDbEntity
  8
0
  6
Continuous
 62
     7
100
AcDbLine
 10
-171.5895690917969
 20
188.1186218261719
 30
0.0
 11
-172.7395629882813
 21
189.2686309814453
 31
0.0
  0
LINE
  5
BE
330
22
100
AcDbEntity
  8
0
  6
Continuous
 62
     7
100
AcDbLine
 10
-172.3986358642578
 20
193.7686309814453
 30
0.0
 11
-173.3986358642578
 21
192.7686309814453
 31
0.0
  0
LINE
  5
BF
330
22
100
AcDbEntity
  8
0
  6
Continuous
 62
     7
100
AcDbLine
 10
-176.2617492675781
 20
124.7686309814453
 30
0.0
 11
-171.5895690917969
 21
124.7686309814453
 31
0.0
  0
LINE
  5
C0
330
22
100
AcDbEntity
  8
0
  6
Continuous
 62
     7
100
AcDbLine
 10
-181.5895690917969
 20
178.9785003662109
 30
0.0
 11
-181.5895690917969
 21
170.8367004394531
 31
0.0
  0
LINE
  5
C1
330
22
100
AcDbEntity
  8
0
  6
Continuous
 62
     7
100
AcDbLine
 10
-71.58956909179687
 20
180.6436309814453
 30
0.0
 11
-71.58956909179687
 21
170.8367004394531
 31
0.0
  0
LINE
  5
C2
330
22
100
AcDbEntity
  8
0
  6
Continuous
 62
     7
100
AcDbLine
 10
-71.58956909179687
 20
192.1186218261719
 30
0.0
 11
-171.5895690917969
 21
192.1186218261719
 31
0.0
  0
LINE
  5
C3
330
22
100
AcDbEntity
  8
0
  6
Continuous
 62
     7
100
AcDbLine
 10
-71.58956909179687
 20
186.2686309814453
 30
0.0
 11
-178.5895690917969
 21
186.2686309814453
 31
0.0
  0
LINE
  5
C4
330
22
100
AcDbEntity
  8
0
  6
CENTER
 62
     7
100
AcDbLine
 10
-186.9028930664063
 20
170.7686309814453
 30
0.0
 11
-67.30952453613281
 21
170.7686309814453
 31
0.0
  0
LINE
  5
C5
330
22
100
AcDbEntity
  8
0
  6
Continuous
 62
     7
100
AcDbLine
 10
-171.5895690917969
 20
124.7686309814453
 30
0.0
 11
-171.5895690917969
 21
170.7686309814453
 31
0.0
  0
LINE
  5
C6
330
22
100
AcDbEntity
  8
0
  6
Continuous
 62
     7
100
AcDbLine
 10
-71.58956909179687
 20
149.4186248779297
 30
0.0
 11
-171.5895690917969
 21
149.4186248779297
 31
0.0
  0
LINE
  5
C7
330
22
100
AcDbEntity
  8
0
  6
CENTER
 62
     7
100
AcDbLine
 10
-184.3840484619141
 20
194.7686309814453
 30
0.0
 11
-167.6979675292969
 21
194.7686309814453
 31
0.0
  0
LINE
  5
C8
330
22
100
AcDbEntity
  8
0
  6
Continuous
 62
     7
100
AcDbLine
 10
-311.6540832519531
 20
172.5186309814453
 30
0.0
 11
-311.6540832519531
 21
169.0186309814453
 31
0.0
  0
LINE
  5
C9
330
22
100
AcDbEntity
  8
0
  6
Continuous
 62
     7
100
AcDbLine
 10
-307.6540832519531
 20
172.5186309814453
 30
0.0
 11
-307.6540832519531
 21
169.0186309814453
 31
0.0
  0
LINE
  5
CA
330
22
100
AcDbEntity
  8
0
  6
Continuous
 62
     7
100
AcDbLine
 10
-305.6540832519531
 20
162.4259643554688
 30
0.0
 11
-305.6540832519531
 21
179.1112823486328
 31
0.0
  0
LINE
  5
CB
330
22
100
AcDbEntity
  8
0
  6
Continuous
 62
     7
100
AcDbLine
 10
-331.6540832519531
 20
162.4259643554688
 30
0.0
 11
-331.6540832519531
 21
179.1112823486328
 31
0.0
  0
LINE
  5
CC
330
22
100
AcDbEntity
  8
0
  6
Continuous
 62
     7
100
AcDbLine
 10
-313.6540832519531
 20
174.4348602294922
 30
0.0
 11
-313.6540832519531
 21
184.4348602294921
 31
0.0
  0
LINE
  5
CD
330
22
100
AcDbEntity
  8
0
  6
Continuous
 62
     7
100
AcDbLine
 10
-317.6540832519531
 20
174.4348602294922
 30
0.0
 11
-317.6540832519531
 21
184.4348602294921
 31
0.0
  0
LINE
  5
CE
330
22
100
AcDbEntity
  8
0
  6
Continuous
 62
     7
100
AcDbLine
 10
-325.6540832519531
 20
172.5186309814453
 30
0.0
 11
-325.6540832519531
 21
169.0186309814453
 31
0.0
  0
LINE
  5
CF
330
22
100
AcDbEntity
  8
0
  6
Continuous
 62
     7
100
AcDbLine
 10
-319.6540832519531
 20
174.4348602294922
 30
0.0
 11
-319.6540832519531
 21
184.4348602294921
 31
0.0
  0
LINE
  5
D0
330
22
100
AcDbEntity
  8
0
  6
Continuous
 62
     7
100
AcDbLine
 10
-323.6540832519531
 20
174.4348602294922
 30
0.0
 11
-323.6540832519531
 21
184.4348602294921
 31
0.0
  0
LINE
  5
D1
330
22
100
AcDbEntity
  8
0
  6
Continuous
 62
     7
100
AcDbLine
 10
-329.6540832519531
 20
172.5186309814453
 30
0.0
 11
-329.6540832519531
 21
169.0186309814453
 31
0.0
  0
LINE
  5
D2
330
22
100
AcDbEntity
  8
0
  6
Continuous
 62
     7
100
AcDbLine
 10
-322.8921508789063
 20
146.7312774658203
 30
0.0
 11
-322.8921508789063
 21
146.2686309814453
 31
0.0
  0
LINE
  5
D3
330
22
100
AcDbEntity
  8
0
  6
Continuous
 62
     7
100
AcDbLine
 10
-322.8921508789063
 20
145.8059692382813
 30
0.0
 11
-319.5744323730469
 21
145.3482513427734
 31
0.0
  0
LINE
  5
D4
330
22
100
AcDbEntity
  8
0
  6
Continuous
 62
     7
100
AcDbLine
 10
-318.6540832519531
 20
142.00537109375
 30
0.0
 11
-319.1170654296875
 21
142.00537109375
 31
0.0
  0
LINE
  5
D5
330
22
100
AcDbEntity
  8
0
  6
Continuous
 62
     7
100
AcDbLine
 10
-322.8921508789063
 20
146.7312774658203
 30
0.0
 11
-319.5744323730469
 21
147.1889953613281
 31
0.0
  0
LINE
  5
D6
330
22
100
AcDbEntity
  8
0
  6
Continuous
 62
     7
100
AcDbLine
 10
-325.6540832519531
 20
163.5448303222656
 30
0.0
 11
-325.6540832519531
 21
160.0448303222656
 31
0.0
  0
LINE
  5
D7
330
22
100
AcDbEntity
  8
0
  6
Continuous
 62
     7
100
AcDbLine
 10
-314.416015625
 20
145.8059692382813
 30
0.0
 11
-314.416015625
 21
146.2686309814453
 31
0.0
  0
LINE
  5
D8
330
22
100
AcDbEntity
  8
0
  6
Continuous
 62
     7
100
AcDbLine
 10
-314.416015625
 20
145.8059692382813
 30
0.0
 11
-317.7337036132813
 21
145.3482513427734
 31
0.0
  0
LINE
  5
D9
330
22
100
AcDbEntity
  8
0
  6
Continuous
 62
     7
100
AcDbLine
 10
-314.416015625
 20
146.7312774658203
 30
0.0
 11
-317.7337036132813
 21
147.1889953613281
 31
0.0
  0
LINE
  5
DA
330
22
100
AcDbEntity
  8
0
  6
Continuous
 62
     7
100
AcDbLine
 10
-314.416015625
 20
146.7312774658203
 30
0.0
 11
-314.416015625
 21
146.2686309814453
 31
0.0
  0
LINE
  5
DB
330
22
100
AcDbEntity
  8
0
  6
Continuous
 62
     7
100
AcDbLine
 10
-322.8921508789063
 20
145.8059692382813
 30
0.0
 11
-322.8921508789063
 21
146.2686309814453
 31
0.0
  0
LINE
  5
DC
330
22
100
AcDbEntity
  8
0
  6
Continuous
 62
     7
100
AcDbLine
 10
-319.1170654296875
 20
142.00537109375
 30
0.0
 11
-319.5744323730469
 21
145.3482513427734
 31
0.0
  0
LINE
  5
DD
330
22
100
AcDbEntity
  8
0
  6
Continuous
 62
     7
100
AcDbLine
 10
-318.6540832519531
 20
142.00537109375
 30
0.0
 11
-318.1910705566406
 21
142.00537109375
 31
0.0
  0
LINE
  5
DE
330
22
100
AcDbEntity
  8
0
  6
Continuous
 62
     7
100
AcDbLine
 10
-318.1910705566406
 20
142.00537109375
 30
0.0
 11
-317.7337036132813
 21
145.3482513427734
 31
0.0
  0
LINE
  5
DF
330
22
100
AcDbEntity
  8
0
  6
Continuous
 62
     7
100
AcDbLine
 10
-318.6540832519531
 20
150.5318756103516
 30
0.0
 11
-319.1170654296875
 21
150.5318756103516
 31
0.0
  0
LINE
  5
E0
330
22
100
AcDbEntity
  8
0
  6
Continuous
 62
     7
100
AcDbLine
 10
-318.6540832519531
 20
150.5318756103516
 30
0.0
 11
-318.1910705566406
 21
150.5318756103516
 31
0.0
  0
LINE
  5
E1
330
22
100
AcDbEntity
  8
0
  6
Continuous
 62
     7
100
AcDbLine
 10
-318.1910705566406
 20
150.5318756103516
 30
0.0
 11
-317.7337036132813
 21
147.1889953613281
 31
0.0
  0
LINE
  5
E2
330
22
100
AcDbEntity
  8
0
  6
Continuous
 62
     7
100
AcDbLine
 10
-319.1170654296875
 20
150.5318756103516
 30
0.0
 11
-319.5744323730469
 21
147.1889953613281
 31
0.0
  0
LINE
  5
E3
330
22
100
AcDbEntity
  8
0
  6
Continuous
 62
     7
100
AcDbLine
 10
-319.1170654296875
 20
191.00537109375
 30
0.0
 11
-319.5744323730469
 21
194.3482513427734
 31
0.0
  0
LINE
  5
E4
330
22
100
AcDbEntity
  8
0
  6
Continuous
 62
     7
100
AcDbLine
 10
-322.8921508789063
 20
194.8059692382813
 30
0.0
 11
-322.8921508789063
 21
195.2686309814453
 31
0.0
  0
LINE
  5
E5
330
22
100
AcDbEntity
  8
0
  6
Continuous
 62
     7
100
AcDbLine
 10
-322.8921508789063
 20
195.7312774658203
 30
0.0
 11
-319.5744323730469
 21
196.1889953613281
 31
0.0
  0
LINE
  5
E6
330
22
100
AcDbEntity
  8
0
  6
Continuous
 62
     7
100
AcDbLine
 10
-311.6540832519531
 20
181.492431640625
 30
0.0
 11
-311.6540832519531
 21
177.992431640625
 31
0.0
  0
LINE
  5
E7
330
22
100
AcDbEntity
  8
0
  6
Continuous
 62
     7
100
AcDbLine
 10
-307.6540832519531
 20
181.492431640625
 30
0.0
 11
-307.6540832519531
 21
177.992431640625
 31
0.0
  0
LINE
  5
E8
330
22
100
AcDbEntity
  8
0
  6
Continuous
 62
     7
100
AcDbLine
 10
-313.6540832519531
 20
167.1023864746094
 30
0.0
 11
-313.6540832519531
 21
157.1023864746094
 31
0.0
  0
LINE
  5
E9
330
22
100
AcDbEntity
  8
0
  6
Continuous
 62
     7
100
AcDbLine
 10
-329.6540832519531
 20
163.5448303222656
 30
0.0
 11
-329.6540832519531
 21
160.0448303222656
 31
0.0
  0
LINE
  5
EA
330
22
100
AcDbEntity
  8
0
  6
Continuous
 62
     7
100
AcDbLine
 10
-323.6540832519531
 20
167.1023864746094
 30
0.0
 11
-323.6540832519531
 21
157.1023864746094
 31
0.0
  0
LINE
  5
EB
330
22
100
AcDbEntity
  8
0
  6
Continuous
 62
     7
100
AcDbLine
 10
-317.6540832519531
 20
167.1023864746094
 30
0.0
 11
-317.6540832519531
 21
157.1023864746094
 31
0.0
  0
LINE
  5
EC
330
22
100
AcDbEntity
  8
0
  6
Continuous
 62
     7
100
AcDbLine
 10
-319.6540832519531
 20
167.1023864746094
 30
0.0
 11
-319.6540832519531
 21
157.1023864746094
 31
0.0
  0
LINE
  5
ED
330
22
100
AcDbEntity
  8
0
  6
Continuous
 62
     7
100
AcDbLine
 10
-311.6540832519531
 20
163.5448303222656
 30
0.0
 11
-311.6540832519531
 21
160.0448303222656
 31
0.0
  0
LINE
  5
EE
330
22
100
AcDbEntity
  8
0
  6
Continuous
 62
     7
100
AcDbLine
 10
-307.6540832519531
 20
163.5448303222656
 30
0.0
 11
-307.6540832519531
 21
160.0448303222656
 31
0.0
  0
LINE
  5
EF
330
22
100
AcDbEntity
  8
0
  6
Continuous
 62
     7
100
AcDbLine
 10
-314.416015625
 20
195.7312774658203
 30
0.0
 11
-314.416015625
 21
195.2686309814453
 31
0.0
  0
LINE
  5
F0
330
22
100
AcDbEntity
  8
0
  6
Continuous
 62
     7
100
AcDbLine
 10
-318.6540832519531
 20
191.00537109375
 30
0.0
 11
-319.1170654296875
 21
191.00537109375
 31
0.0
  0
LINE
  5
F1
330
22
100
AcDbEntity
  8
0
  6
Continuous
 62
     7
100
AcDbLine
 10
-322.8921508789063
 20
194.8059692382813
 30
0.0
 11
-319.5744323730469
 21
194.3482513427734
 31
0.0
  0
LINE
  5
F2
330
22
100
AcDbEntity
  8
0
  6
Continuous
 62
     7
100
AcDbLine
 10
-314.416015625
 20
195.7312774658203
 30
0.0
 11
-317.7337036132813
 21
196.1889953613281
 31
0.0
  0
LINE
  5
F3
330
22
100
AcDbEntity
  8
0
  6
Continuous
 62
     7
100
AcDbLine
 10
-314.416015625
 20
194.8059692382813
 30
0.0
 11
-317.7337036132813
 21
194.3482513427734
 31
0.0
  0
LINE
  5
F4
330
22
100
AcDbEntity
  8
0
  6
Continuous
 62
     7
100
AcDbLine
 10
-314.416015625
 20
194.8059692382813
 30
0.0
 11
-314.416015625
 21
195.2686309814453
 31
0.0
  0
LINE
  5
F5
330
22
100
AcDbEntity
  8
0
  6
Continuous
 62
     7
100
AcDbLine
 10
-329.6540832519531
 20
181.492431640625
 30
0.0
 11
-329.6540832519531
 21
177.992431640625
 31
0.0
  0
LINE
  5
F6
330
22
100
AcDbEntity
  8
0
  6
Continuous
 62
     7
100
AcDbLine
 10
-322.8921508789063
 20
195.7312774658203
 30
0.0
 11
-322.8921508789063
 21
195.2686309814453
 31
0.0
  0
LINE
  5
F7
330
22
100
AcDbEntity
  8
0
  6
Continuous
 62
     7
100
AcDbLine
 10
-318.1910705566406
 20
199.5318756103516
 30
0.0
 11
-317.7337036132813
 21
196.1889953613281
 31
0.0
  0
LINE
  5
F8
330
22
100
AcDbEntity
  8
0
  6
Continuous
 62
     7
100
AcDbLine
 10
-325.6540832519531
 20
181.492431640625
 30
0.0
 11
-325.6540832519531
 21
177.992431640625
 31
0.0
  0
LINE
  5
F9
330
22
100
AcDbEntity
  8
0
  6
Continuous
 62
     7
100
AcDbLine
 10
-318.6540832519531
 20
199.5318756103516
 30
0.0
 11
-319.1170654296875
 21
199.5318756103516
 31
0.0
  0
LINE
  5
FA
330
22
100
AcDbEntity
  8
0
  6
Continuous
 62
     7
100
AcDbLine
 10
-319.1170654296875
 20
199.5318756103516
 30
0.0
 11
-319.5744323730469
 21
196.1889953613281
 31
0.0
  0
LINE
  5
FB
330
22
100
AcDbEntity
  8
0
  6
Continuous
 62
     7
100
AcDbLine
 10
-318.6540832519531
 20
199.5318756103516
 30
0.0
 11
-318.1910705566406
 21
199.5318756103516
 31
0.0
  0
LINE
  5
FC
330
22
100
AcDbEntity
  8
0
  6
Continuous
 62
     7
100
AcDbLine
 10
-318.1910705566406
 20
191.00537109375
 30
0.0
 11
-317.7337036132813
 21
194.3482513427734
 31
0.0
  0
LINE
  5
FD
330
22
100
AcDbEntity
  8
0
  6
Continuous
 62
     7
100
AcDbLine
 10
-318.6540832519531
 20
191.00537109375
 30
0.0
 11
-318.1910705566406
 21
191.00537109375
 31
0.0
  0
LINE
  5
FE
330
22
100
AcDbEntity
  8
0
  6
Continuous
 62
     7
100
AcDbLine
 10
-181.4253692626953
 20
172.7686309814453
 30
0.0
 11
-178.5895690917969
 21
175.6044311523438
 31
0.0
  0
LINE
  5
FF
330
22
100
AcDbEntity
  8
0
  6
Continuous
 62
     7
100
AcDbLine
 10
-181.5895690917969
 20
175.4328460693359
 30
0.0
 11
-178.5895690917969
 21
178.4328460693359
 31
0.0
  0
LINE
  5
100
330
22
100
AcDbEntity
  8
0
  6
Continuous
 62
     7
100
AcDbLine
 10
-181.5895690917969
 20
178.2612762451172
 30
0.0
 11
-178.5895690917969
 21
181.2612762451172
 31
0.0
  0
LINE
  5
101
330
22
100
AcDbEntity
  8
0
  6
Continuous
 62
     7
100
AcDbLine
 10
-181.5895690917969
 20
181.0897064208984
 30
0.0
 11
-178.5895690917969
 21
184.0897064208984
 31
0.0
  0
LINE
  5
102
330
22
100
AcDbEntity
  8
0
  6
Continuous
 62
     7
100
AcDbLine
 10
-181.5895690917969
 20
183.9181365966797
 30
0.0
 11
-178.5895690917969
 21
186.9181365966797
 31
0.0
  0
LINE
  5
103
330
22
100
AcDbEntity
  8
0
  6
Continuous
 62
     7
100
AcDbLine
 10
-181.5895690917969
 20
186.7465667724609
 30
0.0
 11
-178.5895690917969
 21
189.7465667724609
 31
0.0
  0
LINE
  5
104
330
22
100
AcDbEntity
  8
0
  6
Continuous
 62
     7
100
AcDbLine
 10
-179.3211822509766
 20
197.5002288818359
 30
0.0
 11
-178.5895690917969
 21
198.2318420410156
 31
0.0
  0
LINE
  5
105
330
22
100
AcDbEntity
  8
0
  6
Continuous
 62
     7
100
AcDbLine
 10
-180.7353973388672
 20
198.9144439697266
 30
0.0
 11
-178.5895690917969
 21
201.0602722167969
 31
0.0
  0
LINE
  5
106
330
22
100
AcDbEntity
  8
0
  6
Continuous
 62
     7
100
AcDbLine
 10
-181.5895690917969
 20
200.8887023925781
 30
0.0
 11
-180.7096405029296
 21
201.7686309814453
 31
0.0
  0
LINE
  5
107
330
22
100
AcDbEntity
  8
0
  6
Continuous
 62
     7
100
AcDbLine
 10
-181.5895690917969
 20
172.7686309814453
 30
0.0
 11
-178.5895690917969
 21
172.7686309814453
 31
0.0
  0
CIRCLE
  5
108
330
22
100
AcDbEntity
  8
0
  6
Continuous
 62
     7
100
AcDbCircle
 10
-318.6540832519531
 20
170.7686309814453
 30
0.0
 40
46.0
  0
ARC
  5
109
330
22
100
AcDbEntity
  8
0
  6
Continuous
 62
     7
100
AcDbCircle
 10
-180.5895690917969
 20
205.0606384277344
 30
0.0
 40
1.0
100
AcDbArc
 50
156.5013297463602
 51
180.0000000000004
  0
ARC
  5
10A
330
22
100
AcDbEntity
  8
0
  6
Continuous
 62
     7
100
AcDbCircle
 10
-176.2617492675781
 20
216.2686309814453
 30
0.0
 40
0.5
100
AcDbArc
 50
90.00000000000019
 51
156.5017829233392
  0
ARC
  5
10B
330
22
100
AcDbEntity
  8
0
  6
Continuous
 62
     7
100
AcDbCircle
 10
-176.2617492675781
 20
125.2686309814453
 30
0.0
 40
0.5
100
AcDbArc
 50
203.4990188522742
 51
270.0000000000005
  0
ARC
  5
10C
330
22
100
AcDbEntity
  8
0
  6
Continuous
 62
     7
100
AcDbCircle
 10
-180.5895690917969
 20
136.4766082763672
 30
0.0
 40
1.0
100
AcDbArc
 50
180.0000000000004
 51
203.4978684871265
  0
ARC
  5
10D
330
22
100
AcDbEntity
  8
0
  6
Continuous
 62
     7
100
AcDbCircle
 10
-309.6540832519531
 20
172.5186309814453
 30
0.0
 40
2.0
100
AcDbArc
 50
0.0
 51
180.0000000000004
  0
ARC
  5
10E
330
22
100
AcDbEntity
  8
0
  6
Continuous
 62
     7
100
AcDbCircle
 10
-321.6540832519531
 20
174.4348602294922
 30
0.0
 40
2.0
100
AcDbArc
 50
180.0000000000004
 51
0.0
  0
CIRCLE
  5
10F
330
22
100
AcDbEntity
  8
0
  6
Continuous
 62
     7
100
AcDbCircle
 10
-318.6540832519531
 20
170.7686309814453
 30
0.0
 40
31.0
  0
CIRCLE
  5
110
330
22
100
AcDbEntity
  8
0
  6
Continuous
 62
     7
100
AcDbCircle
 10
-318.6540832519531
 20
170.7686309814453
 30
0.0
 40
31.5
  0
ARC
  5
111
330
22
100
AcDbEntity
  8
0
  6
Continuous
 62
     7
100
AcDbCircle
 10
-321.6540832519531
 20
167.1023864746094
 30
0.0
 40
2.0
100
AcDbArc
 50
0.0
 51
180.0000000000004
  0
CIRCLE
  5
112
330
22
100
AcDbEntity
  8
0
  6
Continuous
 62
     7
100
AcDbCircle
 10
-343.1540832519531
 20
170.7686309814453
 30
0.0
 40
3.700000047683716
  0
ARC
  5
113
330
22
100
AcDbEntity
  8
0
  6
Continuous
 62
     7
100
AcDbCircle
 10
-327.6540832519531
 20
169.0186309814453
 30
0.0
 40
2.0
100
AcDbArc
 50
180.0000000000004
 51
0.0
  0
ARC
  5
114
330
22
100
AcDbEntity
  8
0
  6
Continuous
 62
     7
100
AcDbCircle
 10
-318.6540832519531
 20
170.7686309814453
 30
0.0
 40
16.0
100
AcDbArc
 50
327.9012730484926
 51
32.0987269515081
  0
ARC
  5
115
330
22
100
AcDbEntity
  8
0
  6
Continuous
 62
     7
100
AcDbCircle
 10
-309.6540832519531
 20
169.0186309814453
 30
0.0
 40
2.0
100
AcDbArc
 50
180.0000000000004
 51
0.0
  0
ARC
  5
116
330
22
100
AcDbEntity
  8
0
  6
Continuous
 62
     7
100
AcDbCircle
 10
-318.6540832519531
 20
170.7686309814453
 30
0.0
 40
16.0
100
AcDbArc
 50
147.9012730484919
 51
212.0987269515088
  0
CIRCLE
  5
117
330
22
100
AcDbEntity
  8
0
  6
Continuous
 62
     7
100
AcDbCircle
 10
-318.6540832519531
 20
170.7686309814453
 30
0.0
 40
2.0
  0
ARC
  5
118
330
22
100
AcDbEntity
  8
0
  6
Continuous
 62
     7
100
AcDbCircle
 10
-315.6540832519531
 20
174.4348602294922
 30
0.0
 40
2.0
100
AcDbArc
 50
180.0000000000004
 51
0.0
  0
ARC
  5
119
330
22
100
AcDbEntity
  8
0
  6
Continuous
 62
     7
100
AcDbCircle
 10
-327.6540832519531
 20
172.5186309814453
 30
0.0
 40
2.0
100
AcDbArc
 50
0.0
 51
180.0000000000004
  0
CIRCLE
  5
11A
330
22
100
AcDbEntity
  8
0
  6
Continuous
 62
     7
100
AcDbCircle
 10
-294.1540832519531
 20
170.7686309814453
 30
0.0
 40
3.5
  0
ARC
  5
11B
330
22
100
AcDbEntity
  8
0
  6
Continuous
 62
     7
100
AcDbCircle
 10
-315.6540832519531
 20
167.1023864746094
 30
0.0
 40
2.0
100
AcDbArc
 50
0.0
 51
180.0000000000004
  0
ARC
  5
11C
330
22
100
AcDbEntity
  8
0
  6
Continuous
 62
     7
100
AcDbCircle
 10
-331.9540710449219
 20
162.4259643554688
 30
0.0
 40
0.3000000119209289
100
AcDbArc
 50
212.0968176594302
 51
0.0
  0
CIRCLE
  5
11D
330
22
100
AcDbEntity
  8
0
  6
Continuous
 62
     7
100
AcDbCircle
 10
-318.6540832519531
 20
146.2686309814453
 30
0.0
 40
5.25
  0
CIRCLE
  5
11E
330
22
100
AcDbEntity
  8
0
  6
Continuous
 62
     7
100
AcDbCircle
 10
-318.6540832519531
 20
146.2686309814453
 30
0.0
 40
5.0
  0
ARC
  5
11F
330
22
100
AcDbEntity
  8
0
  6
Continuous
 62
     7
100
AcDbCircle
 10
-309.6540832519531
 20
181.492431640625
 30
0.0
 40
2.0
100
AcDbArc
 50
0.0
 51
180.0000000000004
  0
ARC
  5
120
330
22
100
AcDbEntity
  8
0
  6
Continuous
 62
     7
100
AcDbCircle
 10
-305.3540649414063
 20
179.1112823486328
 30
0.0
 40
0.3000000119209289
100
AcDbArc
 50
32.10238360479465
 51
180.0000000000004
  0
ARC
  5
121
330
22
100
AcDbEntity
  8
0
  6
Continuous
 62
     7
100
AcDbCircle
 10
-309.6540832519531
 20
177.992431640625
 30
0.0
 40
2.0
100
AcDbArc
 50
180.0000000000004
 51
0.0
  0
ARC
  5
122
330
22
100
AcDbEntity
  8
0
  6
Continuous
 62
     7
100
AcDbCircle
 10
-327.6540832519531
 20
181.492431640625
 30
0.0
 40
2.0
100
AcDbArc
 50
0.0
 51
180.0000000000004
  0
ARC
  5
123
330
22
100
AcDbEntity
  8
0
  6
Continuous
 62
     7
100
AcDbCircle
 10
-331.9540710449219
 20
179.1112823486328
 30
0.0
 40
0.3000000119209289
100
AcDbArc
 50
0.0
 51
147.9007136748587
  0
ARC
  5
124
330
22
100
AcDbEntity
  8
0
  6
Continuous
 62
     7
100
AcDbCircle
 10
-321.6540832519531
 20
184.4348602294921
 30
0.0
 40
2.0
100
AcDbArc
 50
0.0
 51
180.0000000000004
  0
ARC
  5
125
330
22
100
AcDbEntity
  8
0
  6
Continuous
 62
     7
100
AcDbCircle
 10
-315.6540832519531
 20
157.1023864746094
 30
0.0
 40
2.0
100
AcDbArc
 50
180.0000000000004
 51
0.0
  0
ARC
  5
126
330
22
100
AcDbEntity
  8
0
  6
Continuous
 62
     7
100
AcDbCircle
 10
-321.6540832519531
 20
157.1023864746094
 30
0.0
 40
2.0
100
AcDbArc
 50
180.0000000000004
 51
0.0
  0
ARC
  5
127
330
22
100
AcDbEntity
  8
0
  6
Continuous
 62
     7
100
AcDbCircle
 10
-327.6540832519531
 20
163.5448303222656
 30
0.0
 40
2.0
100
AcDbArc
 50
0.0
 51
180.0000000000004
  0
ARC
  5
128
330
22
100
AcDbEntity
  8
0
  6
Continuous
 62
     7
100
AcDbCircle
 10
-327.6540832519531
 20
160.0448303222656
 30
0.0
 40
2.0
100
AcDbArc
 50
180.0000000000004
 51
0.0
  0
ARC
  5
129
330
22
100
AcDbEntity
  8
0
  6
Continuous
 62
     7
100
AcDbCircle
 10
-305.3540649414063
 20
162.4259643554688
 30
0.0
 40
0.3000000119209289
100
AcDbArc
 50
180.0000000000004
 51
327.900085189948
  0
ARC
  5
12A
330
22
100
AcDbEntity
  8
0
  6
Continuous
 62
     7
100
AcDbCircle
 10
-309.6540832519531
 20
160.0448303222656
 30
0.0
 40
2.0
100
AcDbArc
 50
180.0000000000004
 51
0.0
  0
ARC
  5
12B
330
22
100
AcDbEntity
  8
0
  6
Continuous
 62
     7
100
AcDbCircle
 10
-309.6540832519531
 20
163.5448303222656
 30
0.0
 40
2.0
100
AcDbArc
 50
0.0
 51
180.0000000000004
  0
ARC
  5
12C
330
22
100
AcDbEntity
  8
0
  6
Continuous
 62
     7
100
AcDbCircle
 10
-315.6540832519531
 20
184.4348602294921
 30
0.0
 40
2.0
100
AcDbArc
 50
0.0
 51
180.0000000000004
  0
ARC
  5
12D
330
22
100
AcDbEntity
  8
0
  6
Continuous
 62
     7
100
AcDbCircle
 10
-327.6540832519531
 20
177.992431640625
 30
0.0
 40
2.0
100
AcDbArc
 50
180.0000000000004
 51
0.0
  0
CIRCLE
  5
12E
330
22
100
AcDbEntity
  8
0
  6
Continuous
 62
     7
100
AcDbCircle
 10
-318.6540832519531
 20
195.2686309814453
 30
0.0
 40
5.0
  0
CIRCLE
  5
12F
330
22
100
AcDbEntity
  8
0
  6
Continuous
 62
     7
100
AcDbCircle
 10
-318.6540832519531
 20
195.2686309814453
 30
0.0
 40
5.25
  0
TEXT
  5
130
330
22
100
AcDbEntity
  8
0
  6
Continuous
 62
     7
100
AcDbText
 10
-254.8554773330689
 20
76.03224945068359
 30
0.0
 40
7.0
  1
ＤＬ－ＵＰＰ－３２Ｇ
 41
0.8443929888818491
100
AcDbText
  0
INSERT
  5
131
330
22
100
AcDbEntity
  8
0
  6
Continuous
 62
     7
100
AcDbBlockReference
  2
KOZU0001
 10
0.0
 20
0.0
 30
0.0
  0
DIMENSION
  5
132
330
22
100
AcDbEntity
  8
0
  6
Continuous
 62
     7
100
AcDbDimension
  2
*D1
 10
-171.5895690917969
 20
235.4236297607422
 30
0.0
 11
-121.5895690917969
 21
235.4236297607422
 31
0.0
 71
     5
 42
-1.0
  3
DIMSTYLE1
100
AcDbAlignedDimension
 13
-71.58956909179687
 23
192.1186218261719
 33
0.0
 14
-171.5895690917969
 24
213.7686309814453
 34
0.0
100
AcDbRotatedDimension
  0
DIMENSION
  5
133
330
22
100
AcDbEntity
  8
0
  6
Continuous
 62
     7
100
AcDbDimension
  2
*D2
 10
-181.5895690917969
 20
235.4236297607422
 30
0.0
 11
-176.5895690917969
 21
235.4236297607422
 31
0.0
 71
     5
 42
-1.0
  3
DIMSTYLE2
100
AcDbAlignedDimension
 13
-171.5895690917969
 23
237.7096252441406
 33
0.0
 14
-181.5895690917969
 24
202.0606384277344
 34
0.0
100
AcDbRotatedDimension
  0
DIMENSION
  5
134
330
22
100
AcDbEntity
  8
0
  6
Continuous
 62
     7
100
AcDbDimension
  2
*D3
 10
-348.1937696483213
 20
180.1711267992704
 30
0.0
 11
-263.5897216796875
 21
153.2416229248047
 31
0.0
 70
     3
 71
     5
 42
-1.0
  3
DIMSTYLE3
100
AcDbDiametricDimension
 15
-289.1143968555848
 25
161.3661351636203
 35
0.0
 40
0.0
  0
DIMENSION
  5
135
330
22
100
AcDbEntity
  8
0
  6
Continuous
 62
     7
100
AcDbDimension
  2
*D4
 10
-358.6473997379254
 20
148.0412326161934
 30
0.0
 11
-270.7085266113281
 21
198.0151214599609
 31
0.0
 70
     3
 71
     5
 42
-1.0
  3
DIMSTYLE4
100
AcDbDiametricDimension
 15
-278.6607667659808
 25
193.4960293466972
 35
0.0
 40
0.0
  0
ENDSEC
  0
SECTION
  2
OBJECTS
  0
DICTIONARY
  5
C
330
0
100
AcDbDictionary
281
     1
  3
ACAD_COLOR
350
1B
  3
ACAD_GROUP
350
D
  3
ACAD_LAYOUT
350
19
  3
ACAD_MATERIAL
350
1A
  3
ACAD_MLINESTYLE
350
16
  3
ACAD_PLOTSETTINGS
350
18
  3
ACAD_PLOTSTYLENAME
350
E
  3
ACAD_TABLESTYLE
350
1C
  3
AcDbVariableDictionary
350
141
  0
DICTIONARY
  5
1B
102
{ACAD_REACTORS
330
C
102
}
330
C
100
AcDbDictionary
281
     1
  0
DICTIONARY
  5
D
102
{ACAD_REACTORS
330
C
102
}
330
C
100
AcDbDictionary
281
     1
  0
DICTIONARY
  5
19
102
{ACAD_REACTORS
330
C
102
}
330
C
100
AcDbDictionary
281
     1
  3
Model
350
25
  3
レイアウト1
350
21
  0
DICTIONARY
  5
1A
102
{ACAD_REACTORS
330
C
102
}
330
C
100
AcDbDictionary
281
     1
  0
DICTIONARY
  5
16
102
{ACAD_REACTORS
330
C
102
}
330
C
100
AcDbDictionary
281
     1
  3
Standard
350
17
  0
DICTIONARY
  5
18
102
{ACAD_REACTORS
330
C
102
}
330
C
100
AcDbDictionary
281
     1
  0
ACDBDICTIONARYWDFLT
  5
E
102
{ACAD_REACTORS
330
C
102
}
330
C
100
AcDbDictionary
281
     1
  3
Normal
350
F
100
AcDbDictionaryWithDefault
340
F
  0
DICTIONARY
  5
1C
102
{ACAD_REACTORS
330
C
102
}
330
C
100
AcDbDictionary
281
     1
  3
Standard
350
1D
  0
DICTIONARY
  5
141
102
{ACAD_REACTORS
330
C
102
}
330
C
100
AcDbDictionary
281
     1
  3
CTABLESTYLE
350
142
  0
LAYOUT
  5
25
102
{ACAD_REACTORS
330
19
102
}
330
19
100
AcDbPlotSettings
  1

  2
PDF reDirect v2
  4
A3
  6

 40
3.174999952316284
 41
3.174999952316284
 42
3.17498779296875
 43
3.17498779296875
 44
297.0530090332031
 45
420.1583251953125
 46
0.0
 47
0.0
 48
0.0
 49
0.0
140
0.0
141
0.0
142
1.0
143
1.0
 70
 11952
 72
     1
 73
     1
 74
     2
  7
C:\Users\ck\AppData\Roaming\Autodesk\AutoCAD 2005\R16.1\jpn\Plot Styles\black.ctb
 75
    16
147
1.0
 76
     0
 77
     2
 78
   300
148
423.0
149
2.0
100
AcDbLayout
  1
Model
 70
     1
 71
     0
 10
0.0
 20
0.0
 11
12.0
 21
9.0
 12
0.0
 22
0.0
 32
0.0
 14
0.0
 24
0.0
 34
0.0
 15
0.0
 25
0.0
 35
0.0
146
0.0
 13
0.0
 23
0.0
 33
0.0
 16
1.0
 26
0.0
 36
0.0
 17
0.0
 27
1.0
 37
0.0
 76
     0
330
22
1001
ACAD_PSEXT
1000
PDF reDirect v2
1000
PDF reDirect Pro
1000
PDF_REDIRECT_PORT:
1000
PDF reDirect provided by EXP Systems
1070
     0
  0
LAYOUT
  5
21
102
{ACAD_REACTORS
330
19
102
}
330
19
100
AcDbPlotSettings
  1

  2
PDF reDirect v2
  4

  6

 40
0.0
 41
0.0
 42
0.0
 43
0.0
 44
0.0
 45
0.0
 46
0.0
 47
0.0
 48
0.0
 49
0.0
140
0.0
141
0.0
142
1.0
143
1.0
 70
   688
 72
     0
 73
     0
 74
     5
  7
C:\Users\ck\AppData\Roaming\Autodesk\AutoCAD 2005\R16.1\jpn\Plot Styles\black.ctb
 75
    16
147
1.0
 76
     0
 77
     2
 78
   300
148
0.0
149
0.0
100
AcDbLayout
  1
レイアウト1
 70
     1
 71
     1
 10
-423.0
 20
-2.0
 11
-5.0
 21
293.0
 12
0.0
 22
0.0
 32
0.0
 14
1.000000000000000E+20
 24
1.000000000000000E+20
 34
1.000000000000000E+20
 15
-1.000000000000000E+20
 25
-1.000000000000000E+20
 35
-1.000000000000000E+20
146
0.0
 13
0.0
 23
0.0
 33
0.0
 16
1.0
 26
0.0
 36
0.0
 17
0.0
 27
1.0
 37
0.0
 76
     0
330
1E
  0
MLINESTYLE
  5
17
102
{ACAD_REACTORS
330
16
102
}
330
16
100
AcDbMlineStyle
  2
STANDARD
 70
     0
  3

 62
   256
 51
90.0
 52
90.0
 71
     2
 49
0.5
 62
   256
  6
BYLAYER
 49
-0.5
 62
   256
  6
BYLAYER
  0
ACDBPLACEHOLDER
  5
F
102
{ACAD_REACTORS
330
E
102
}
330
E
  0
TABLESTYLE
  5
1D
102
{ACAD_REACTORS
330
1C
102
}
330
1C
100
AcDbTableStyle
  3
Standard
 70
     0
 71
     0
 40
0.06
 41
0.06
280
     0
281
     0
  7
STANDARD
140
0.18
170
     2
 62
     0
 63
     7
283
     0
274
    -2
284
     1
 64
     0
275
    -2
285
     1
 65
     0
276
    -2
286
     1
 66
     0
277
    -2
287
     1
 67
     0
278
    -2
288
     1
 68
     0
279
    -2
289
     1
 69
     0
  7
STANDARD
140
0.25
170
     5
 62
     0
 63
     7
283
     0
274
    -2
284
     1
 64
     0
275
    -2
285
     1
 65
     0
276
    -2
286
     1
 66
     0
277
    -2
287
     1
 67
     0
278
    -2
288
     1
 68
     0
279
    -2
289
     1
 69
     0
  7
STANDARD
140
0.18
170
     5
 62
     0
 63
     7
283
     0
274
    -2
284
     1
 64
     0
275
    -2
285
     1
 65
     0
276
    -2
286
     1
 66
     0
277
    -2
287
     1
 67
     0
278
    -2
288
     1
 68
     0
279
    -2
289
     1
 69
     0
  0
DICTIONARYVAR
  5
142
102
{ACAD_REACTORS
330
141
102
}
330
141
100
DictionaryVariables
280
     0
  1
STANDARD
  0
ENDSEC
  0
EOF
