  0
SECTION
  2
HEADER
  9
$ACADVER
  1
AC1018
  9
$ACADMAINTVER
 70
    39
  9
$DWGCODEPAGE
  3
ANSI_932
  9
$INSBASE
 10
0.0
 20
0.0
 30
0.0
  9
$EXTMIN
 10
-538.6770005126914
 20
109.7556163353795
 30
-0.0015258207003583
  9
$EXTMAX
 10
-57.07177603183277
 20
360.2265023708187
 30
0.0000000349246037
  9
$LIMMIN
 10
-592.0
 20
0.0
  9
$LIMMAX
 10
0.0
 20
418.0
  9
$ORTHOMODE
 70
     0
  9
$REGENMODE
 70
     1
  9
$FILLMODE
 70
     1
  9
$QTEXTMODE
 70
     0
  9
$MIRRTEXT
 70
     0
  9
$LTSCALE
 40
1.0
  9
$ATTMODE
 70
     1
  9
$TEXTSIZE
 40
0.2
  9
$TRACEWID
 40
0.05
  9
$TEXTSTYLE
  7
STANDARD
  9
$CLAYER
  8
0
  9
$CELTYPE
  6
CONTINUOUS
  9
$CECOLOR
 62
   256
  9
$CELTSCALE
 40
1.0
  9
$DISPSILH
 70
     0
  9
$DIMSCALE
 40
1.0
  9
$DIMASZ
 40
1.0
  9
$DIMEXO
 40
2.54
  9
$DIMDLI
 40
0.38
  9
$DIMRND
 40
0.0
  9
$DIMDLE
 40
0.0
  9
$DIMEXE
 40
2.54
  9
$DIMTP
 40
0.0
  9
$DIMTM
 40
0.0
  9
$DIMTXT
 40
3.0
  9
$DIMCEN
 40
0.09
  9
$DIMTSZ
 40
0.0
  9
$DIMTOL
 70
     0
  9
$DIMLIM
 70
     0
  9
$DIMTIH
 70
     0
  9
$DIMTOH
 70
     0
  9
$DIMSE1
 70
     0
  9
$DIMSE2
 70
     0
  9
$DIMTAD
 70
     1
  9
$DIMZIN
 70
     0
  9
$DIMBLK
  1

  9
$DIMASO
 70
     1
  9
$DIMSHO
 70
     0
  9
$DIMPOST
  1

  9
$DIMAPOST
  1

  9
$DIMALT
 70
     0
  9
$DIMALTD
 70
     2
  9
$DIMALTF
 40
25.4
  9
$DIMLFAC
 40
1.0
  9
$DIMTOFL
 70
     0
  9
$DIMTVP
 40
1.0
  9
$DIMTIX
 70
     0
  9
$DIMSOXD
 70
     0
  9
$DIMSAH
 70
     1
  9
$DIMBLK1
  1

  9
$DIMBLK2
  1

  9
$DIMSTYLE
  2
DIMSTYLE1
  9
$DIMCLRD
 70
     0
  9
$DIMCLRE
 70
     0
  9
$DIMCLRT
 70
     0
  9
$DIMTFAC
 40
1.0
  9
$DIMGAP
 40
1.5
  9
$DIMJUST
 70
     0
  9
$DIMSD1
 70
     0
  9
$DIMSD2
 70
     0
  9
$DIMTOLJ
 70
     1
  9
$DIMTZIN
 70
     0
  9
$DIMALTZ
 70
     0
  9
$DIMALTTZ
 70
     0
  9
$DIMUPT
 70
     0
  9
$DIMDEC
 70
     4
  9
$DIMTDEC
 70
     4
  9
$DIMALTU
 70
     2
  9
$DIMALTTD
 70
     2
  9
$DIMTXSTY
  7
STANDARD
  9
$DIMAUNIT
 70
     0
  9
$DIMADEC
 70
     0
  9
$DIMALTRND
 40
0.0
  9
$DIMAZIN
 70
     0
  9
$DIMDSEP
 70
    46
  9
$DIMATFIT
 70
     3
  9
$DIMFRAC
 70
     0
  9
$DIMLDRBLK
  1

  9
$DIMLUNIT
 70
     2
  9
$DIMLWD
 70
    -2
  9
$DIMLWE
 70
    -2
  9
$DIMTMOVE
 70
     0
  9
$LUNITS
 70
     2
  9
$LUPREC
 70
     4
  9
$SKETCHINC
 40
0.1
  9
$FILLETRAD
 40
0.0
  9
$AUNITS
 70
     0
  9
$AUPREC
 70
     0
  9
$MENU
  1
.
  9
$ELEVATION
 40
0.0
  9
$PELEVATION
 40
0.0
  9
$THICKNESS
 40
0.0
  9
$LIMCHECK
 70
     0
  9
$CHAMFERA
 40
0.0
  9
$CHAMFERB
 40
0.0
  9
$CHAMFERC
 40
0.0
  9
$CHAMFERD
 40
0.0
  9
$SKPOLY
 70
     0
  9
$TDCREATE
 40
2457842.694822014
  9
$TDUCREATE
 40
2457842.319822014
  9
$TDUPDATE
 40
2457842.695858577
  9
$TDUUPDATE
 40
2457842.320858576
  9
$TDINDWG
 40
0.0010376042
  9
$TDUSRTIMER
 40
0.0010376042
  9
$USRTIMER
 70
     1
  9
$ANGBASE
 50
0.0
  9
$ANGDIR
 70
     0
  9
$PDMODE
 70
     0
  9
$PDSIZE
 40
0.0
  9
$PLINEWID
 40
0.0
  9
$SPLFRAME
 70
     0
  9
$SPLINETYPE
 70
     6
  9
$SPLINESEGS
 70
     8
  9
$HANDSEED
  5
260
  9
$SURFTAB1
 70
     6
  9
$SURFTAB2
 70
     6
  9
$SURFTYPE
 70
     6
  9
$SURFU
 70
     6
  9
$SURFV
 70
     6
  9
$UCSBASE
  2

  9
$UCSNAME
  2

  9
$UCSORG
 10
0.0
 20
0.0
 30
0.0
  9
$UCSXDIR
 10
1.0
 20
0.0
 30
0.0
  9
$UCSYDIR
 10
0.0
 20
1.0
 30
0.0
  9
$UCSORTHOREF
  2

  9
$UCSORTHOVIEW
 70
     0
  9
$UCSORGTOP
 10
0.0
 20
0.0
 30
0.0
  9
$UCSORGBOTTOM
 10
0.0
 20
0.0
 30
0.0
  9
$UCSORGLEFT
 10
0.0
 20
0.0
 30
0.0
  9
$UCSORGRIGHT
 10
0.0
 20
0.0
 30
0.0
  9
$UCSORGFRONT
 10
0.0
 20
0.0
 30
0.0
  9
$UCSORGBACK
 10
0.0
 20
0.0
 30
0.0
  9
$PUCSBASE
  2

  9
$PUCSNAME
  2

  9
$PUCSORG
 10
0.0
 20
0.0
 30
0.0
  9
$PUCSXDIR
 10
1.0
 20
0.0
 30
0.0
  9
$PUCSYDIR
 10
0.0
 20
1.0
 30
0.0
  9
$PUCSORTHOREF
  2

  9
$PUCSORTHOVIEW
 70
     0
  9
$PUCSORGTOP
 10
0.0
 20
0.0
 30
0.0
  9
$PUCSORGBOTTOM
 10
0.0
 20
0.0
 30
0.0
  9
$PUCSORGLEFT
 10
0.0
 20
0.0
 30
0.0
  9
$PUCSORGRIGHT
 10
0.0
 20
0.0
 30
0.0
  9
$PUCSORGFRONT
 10
0.0
 20
0.0
 30
0.0
  9
$PUCSORGBACK
 10
0.0
 20
0.0
 30
0.0
  9
$USERI1
 70
     0
  9
$USERI2
 70
     0
  9
$USERI3
 70
     0
  9
$USERI4
 70
     0
  9
$USERI5
 70
     0
  9
$USERR1
 40
0.0
  9
$USERR2
 40
0.0
  9
$USERR3
 40
0.0
  9
$USERR4
 40
0.0
  9
$USERR5
 40
0.0
  9
$WORLDVIEW
 70
     1
  9
$SHADEDGE
 70
     3
  9
$SHADEDIF
 70
    70
  9
$TILEMODE
 70
     1
  9
$MAXACTVP
 70
    64
  9
$PINSBASE
 10
0.0
 20
0.0
 30
0.0
  9
$PLIMCHECK
 70
     0
  9
$PEXTMIN
 10
1.000000000000000E+20
 20
1.000000000000000E+20
 30
1.000000000000000E+20
  9
$PEXTMAX
 10
-1.000000000000000E+20
 20
-1.000000000000000E+20
 30
-1.000000000000000E+20
  9
$PLIMMIN
 10
-592.0
 20
0.0
  9
$PLIMMAX
 10
0.0
 20
418.0
  9
$UNITMODE
 70
     0
  9
$VISRETAIN
 70
     1
  9
$PLINEGEN
 70
     0
  9
$PSLTSCALE
 70
     1
  9
$TREEDEPTH
 70
  3020
  9
$CMLSTYLE
  2
Standard
  9
$CMLJUST
 70
     0
  9
$CMLSCALE
 40
1.0
  9
$PROXYGRAPHICS
 70
     1
  9
$MEASUREMENT
 70
     0
  9
$CELWEIGHT
370
    -1
  9
$ENDCAPS
280
     0
  9
$JOINSTYLE
280
     0
  9
$LWDISPLAY
290
     0
  9
$INSUNITS
 70
     0
  9
$HYPERLINKBASE
  1

  9
$STYLESHEET
  1

  9
$XEDIT
290
     1
  9
$CEPSNTYPE
380
     0
  9
$PSTYLEMODE
290
     1
  9
$FINGERPRINTGUID
  2
{AEB113BA-B02D-429D-811B-569B13902C90}
  9
$VERSIONGUID
  2
{26415C25-FE17-4E27-A2B5-6F42DBAFD6BF}
  9
$EXTNAMES
290
     1
  9
$PSVPSCALE
 40
0.0
  9
$OLESTARTUP
290
     0
  9
$SORTENTS
280
   127
  9
$INDEXCTL
280
     0
  9
$HIDETEXT
280
     0
  9
$XCLIPFRAME
290
     0
  9
$HALOGAP
280
     0
  9
$OBSCOLOR
 70
   257
  9
$OBSLTYPE
280
     0
  9
$INTERSECTIONDISPLAY
280
     0
  9
$INTERSECTIONCOLOR
 70
   257
  9
$DIMASSOC
280
     1
  9
$PROJECTNAME
  1

  0
ENDSEC
  0
SECTION
  2
CLASSES
  0
CLASS
  1
ACDBDICTIONARYWDFLT
  2
AcDbDictionaryWithDefault
  3
ObjectDBX Classes
 90
        0
 91
        1
280
     0
281
     0
  0
CLASS
  1
TABLESTYLE
  2
AcDbTableStyle
  3
ObjectDBX Classes
 90
     2047
 91
        1
280
     0
281
     0
  0
CLASS
  1
DICTIONARYVAR
  2
AcDbDictionaryVar
  3
ObjectDBX Classes
 90
        0
 91
        1
280
     0
281
     0
  0
ENDSEC
  0
SECTION
  2
TABLES
  0
TABLE
  2
VPORT
  5
8
330
0
100
AcDbSymbolTable
 70
     2
  0
VPORT
  5
25F
330
8
100
AcDbSymbolTableRecord
100
AcDbViewportTableRecord
  2
*Active
 70
     0
 10
0.0
 20
0.0
 11
1.0
 21
1.0
 12
-296.0
 22
209.0
 13
0.0
 23
0.0
 14
1.0
 24
1.0
 15
0.0
 25
0.0
 16
0.0
 26
0.0
 36
1.0
 17
0.0
 27
0.0
 37
0.0
 40
421.3043478260869
 41
1.707124010554089
 42
50.0
 43
0.0
 44
0.0
 50
0.0
 51
0.0
 71
     0
 72
   100
 73
     1
 74
     1
 75
     0
 76
     0
 77
     0
 78
     0
281
     0
 65
     1
110
0.0
120
0.0
130
0.0
111
1.0
121
0.0
131
0.0
112
0.0
122
1.0
132
0.0
 79
     0
146
0.0
  0
ENDTAB
  0
TABLE
  2
LTYPE
  5
5
330
0
100
AcDbSymbolTable
 70
     6
  0
LTYPE
  5
13
330
5
100
AcDbSymbolTableRecord
100
AcDbLinetypeTableRecord
  2
ByBlock
 70
     0
  3

 72
    65
 73
     0
 40
0.0
  0
LTYPE
  5
14
330
5
100
AcDbSymbolTableRecord
100
AcDbLinetypeTableRecord
  2
ByLayer
 70
     0
  3

 72
    65
 73
     0
 40
0.0
  0
LTYPE
  5
15
330
5
100
AcDbSymbolTableRecord
100
AcDbLinetypeTableRecord
  2
CONTINUOUS
 70
     0
  3
Solid line
 72
    65
 73
     0
 40
0.0
  0
LTYPE
  5
26
330
5
100
AcDbSymbolTableRecord
100
AcDbLinetypeTableRecord
  2
DASHED
 70
     0
  3
__ __ __ __ __ __ __ __ __ __ __ __ __ __ __
 72
    65
 73
     2
 40
3.5
 49
2.0
 74
     0
 49
-1.5
 74
     0
  0
LTYPE
  5
27
330
5
100
AcDbSymbolTableRecord
100
AcDbLinetypeTableRecord
  2
CENTER
 70
     0
  3
____ _ ____ _ ____ _ ____ _ ____ _ ____ _ ____
 72
    65
 73
     4
 40
17.5
 49
13.0
 74
     0
 49
-1.5
 74
     0
 49
1.5
 74
     0
 49
-1.5
 74
     0
  0
LTYPE
  5
28
330
5
100
AcDbSymbolTableRecord
100
AcDbLinetypeTableRecord
  2
PHANTOM
 70
     0
  3
_____ _ _ _____ _ _ _____ _ _ _____ _ _ ____  
 72
    65
 73
     6
 40
15.5
 49
8.0
 74
     0
 49
-1.5
 74
     0
 49
1.5
 74
     0
 49
-1.5
 74
     0
 49
1.5
 74
     0
 49
-1.5
 74
     0
  0
LTYPE
  5
29
330
5
100
AcDbSymbolTableRecord
100
AcDbLinetypeTableRecord
  2
DOT
 70
     0
  3
. . . . . . . . . . . . . . . . . . . . . . . .
 72
    65
 73
     2
 40
0.25
 49
0.0
 74
     0
 49
-0.25
 74
     0
  0
LTYPE
  5
2A
330
5
100
AcDbSymbolTableRecord
100
AcDbLinetypeTableRecord
  2
HIDDEN
 70
     0
  3
__ __ __ __ __ __ __ __ __ __ __ __ __ __ __
 72
    65
 73
     2
 40
3.5
 49
2.0
 74
     0
 49
-1.5
 74
     0
  0
ENDTAB
  0
TABLE
  2
LAYER
  5
2
330
0
100
AcDbSymbolTable
 70
     2
  0
LAYER
  5
10
330
2
100
AcDbSymbolTableRecord
100
AcDbLayerTableRecord
  2
0
 70
     0
 62
     7
  6
CONTINUOUS
370
    -3
390
F
  0
LAYER
  5
2B
330
2
100
AcDbSymbolTableRecord
100
AcDbLayerTableRecord
  2
DEFPOINTS
 70
     0
 62
     7
  6
CONTINUOUS
290
     0
370
    -3
390
F
  0
ENDTAB
  0
TABLE
  2
STYLE
  5
3
330
0
100
AcDbSymbolTable
 70
     4
  0
STYLE
  5
11
330
3
100
AcDbSymbolTableRecord
100
AcDbTextStyleTableRecord
  2
STANDARD
 70
     0
 40
0.0
 41
1.0
 50
0.0
 71
     0
 42
0.2
  3

  4

1001
ACAD
1000
MS Gothic
1071
    32817
  0
ENDTAB
  0
TABLE
  2
VIEW
  5
6
330
0
100
AcDbSymbolTable
 70
     0
  0
ENDTAB
  0
TABLE
  2
UCS
  5
7
330
0
100
AcDbSymbolTable
 70
     0
  0
ENDTAB
  0
TABLE
  2
APPID
  5
9
330
0
100
AcDbSymbolTable
 70
     2
  0
APPID
  5
12
330
9
100
AcDbSymbolTableRecord
100
AcDbRegAppTableRecord
  2
ACAD
 70
     0
  0
APPID
  5
244
330
9
100
AcDbSymbolTableRecord
100
AcDbRegAppTableRecord
  2
ACAD_PSEXT
 70
     0
  0
ENDTAB
  0
TABLE
  2
DIMSTYLE
  5
A
330
0
100
AcDbSymbolTable
 70
    14
100
AcDbDimStyleTable
 71
     1
340
2C
  0
DIMSTYLE
105
2C
102
{ACAD_REACTORS
330
235
102
}
330
A
100
AcDbSymbolTableRecord
100
AcDbDimStyleTableRecord
  2
DIMSTYLE1
 70
     0
 41
1.0
 42
2.54
 44
2.54
 73
     0
 74
     0
 75
     1
 76
     1
 77
     1
140
3.0
145
1.0
147
1.5
172
     1
173
     1
279
     2
340
11
  0
DIMSTYLE
105
2D
102
{ACAD_REACTORS
330
236
102
}
330
A
100
AcDbSymbolTableRecord
100
AcDbDimStyleTableRecord
  2
DIMSTYLE2
 70
     0
 41
1.0
 42
2.54
 44
2.54
 73
     0
 74
     0
 77
     1
140
3.0
145
1.0
147
1.5
172
     1
173
     1
279
     2
340
11
  0
DIMSTYLE
105
2E
102
{ACAD_REACTORS
330
237
102
}
330
A
100
AcDbSymbolTableRecord
100
AcDbDimStyleTableRecord
  2
DIMSTYLE3
 70
     0
 41
1.0
 42
2.54
 44
2.54
 73
     0
 74
     0
 77
     1
140
3.0
145
1.0
147
1.5
172
     1
173
     1
279
     2
340
11
  0
DIMSTYLE
105
2F
102
{ACAD_REACTORS
330
238
102
}
330
A
100
AcDbSymbolTableRecord
100
AcDbDimStyleTableRecord
  2
DIMSTYLE4
 70
     0
 41
1.0
 42
2.54
 44
2.54
 73
     0
 74
     0
 75
     1
 76
     1
 77
     1
140
3.0
145
1.0
147
1.5
172
     1
173
     1
279
     2
340
11
  0
DIMSTYLE
105
30
102
{ACAD_REACTORS
330
239
102
}
330
A
100
AcDbSymbolTableRecord
100
AcDbDimStyleTableRecord
  2
DIMSTYLE5
 70
     0
 41
1.0
 42
2.54
 44
2.54
 73
     0
 74
     0
 77
     1
140
3.0
145
1.0
147
1.5
172
     1
173
     1
279
     2
340
11
  0
DIMSTYLE
105
31
102
{ACAD_REACTORS
330
23A
102
}
330
A
100
AcDbSymbolTableRecord
100
AcDbDimStyleTableRecord
  2
DIMSTYLE6
 70
     0
 41
1.0
 42
2.54
 44
2.54
 73
     0
 74
     0
 77
     1
140
3.0
145
1.0
147
1.5
172
     1
173
     1
279
     2
340
11
  0
DIMSTYLE
105
32
102
{ACAD_REACTORS
330
23B
102
}
330
A
100
AcDbSymbolTableRecord
100
AcDbDimStyleTableRecord
  2
DIMSTYLE7
 70
     0
 41
1.0
 42
2.54
 44
2.54
 73
     0
 74
     0
 77
     1
140
3.0
145
1.0
147
1.5
172
     1
173
     1
279
     2
340
11
  0
DIMSTYLE
105
33
102
{ACAD_REACTORS
330
23C
102
}
330
A
100
AcDbSymbolTableRecord
100
AcDbDimStyleTableRecord
  2
DIMSTYLE8
 70
     0
 41
1.0
 42
2.54
 44
2.54
 73
     0
 74
     0
 77
     1
140
3.0
145
1.0
147
1.5
172
     1
173
     1
279
     2
340
11
  0
DIMSTYLE
105
34
102
{ACAD_REACTORS
330
23E
102
}
330
A
100
AcDbSymbolTableRecord
100
AcDbDimStyleTableRecord
  2
DIMSTYLE9
 70
     0
 41
1.0
 42
2.54
 44
2.54
 73
     0
 74
     0
 77
     1
140
3.0
145
1.0
147
1.5
172
     1
173
     1
279
     2
340
11
  0
DIMSTYLE
105
35
102
{ACAD_REACTORS
330
240
102
}
330
A
100
AcDbSymbolTableRecord
100
AcDbDimStyleTableRecord
  2
DIMSTYLE10
 70
     0
 41
1.0
 42
2.54
 44
2.54
 73
     0
 74
     0
 77
     1
140
3.0
145
1.0
147
1.5
172
     1
173
     1
279
     2
340
11
  0
DIMSTYLE
105
36
102
{ACAD_REACTORS
330
241
102
}
330
A
100
AcDbSymbolTableRecord
100
AcDbDimStyleTableRecord
  2
DIMSTYLE11
 70
     0
 41
1.0
 42
2.54
 44
2.54
 73
     0
 74
     0
 77
     1
140
3.0
145
1.0
147
1.5
172
     1
173
     1
279
     2
340
11
  0
ENDTAB
  0
TABLE
  2
BLOCK_RECORD
  5
1
330
0
100
AcDbSymbolTable
 70
    17
  0
BLOCK_RECORD
  5
22
330
1
100
AcDbSymbolTableRecord
100
AcDbBlockTableRecord
  2
*Model_Space
340
25
  0
BLOCK_RECORD
  5
1E
330
1
100
AcDbSymbolTableRecord
100
AcDbBlockTableRecord
  2
*Paper_Space
340
21
  0
BLOCK_RECORD
  5
3A
330
1
100
AcDbSymbolTableRecord
100
AcDbBlockTableRecord
  2
_OPEN30
340
0
102
{BLKREFS
331
44
331
45
331
4D
331
4E
331
59
331
5B
331
67
331
68
331
70
331
71
331
7B
331
7C
331
86
331
87
331
92
331
93
331
9C
331
9D
331
A8
331
A9
331
B5
331
B7
102
}
  0
BLOCK_RECORD
  5
40
330
1
100
AcDbSymbolTableRecord
100
AcDbBlockTableRecord
  2
*D1
340
0
  0
BLOCK_RECORD
  5
4A
330
1
100
AcDbSymbolTableRecord
100
AcDbBlockTableRecord
  2
*D2
340
0
  0
BLOCK_RECORD
  5
55
330
1
100
AcDbSymbolTableRecord
100
AcDbBlockTableRecord
  2
*D3
340
0
  0
BLOCK_RECORD
  5
63
330
1
100
AcDbSymbolTableRecord
100
AcDbBlockTableRecord
  2
*D4
340
0
  0
BLOCK_RECORD
  5
6D
330
1
100
AcDbSymbolTableRecord
100
AcDbBlockTableRecord
  2
*D5
340
0
  0
BLOCK_RECORD
  5
78
330
1
100
AcDbSymbolTableRecord
100
AcDbBlockTableRecord
  2
*D6
340
0
  0
BLOCK_RECORD
  5
83
330
1
100
AcDbSymbolTableRecord
100
AcDbBlockTableRecord
  2
*D7
340
0
  0
BLOCK_RECORD
  5
8F
330
1
100
AcDbSymbolTableRecord
100
AcDbBlockTableRecord
  2
*D8
340
0
  0
BLOCK_RECORD
  5
99
330
1
100
AcDbSymbolTableRecord
100
AcDbBlockTableRecord
  2
*D9
340
0
  0
BLOCK_RECORD
  5
A5
330
1
100
AcDbSymbolTableRecord
100
AcDbBlockTableRecord
  2
*D10
340
0
  0
BLOCK_RECORD
  5
B1
330
1
100
AcDbSymbolTableRecord
100
AcDbBlockTableRecord
  2
*D11
340
0
  0
BLOCK_RECORD
  5
BF
330
1
100
AcDbSymbolTableRecord
100
AcDbBlockTableRecord
  2
KOZU0001
340
0
102
{BLKREFS
331
23D
102
}
  0
BLOCK_RECORD
  5
C8
330
1
100
AcDbSymbolTableRecord
100
AcDbBlockTableRecord
  2
KOZU0002
340
0
102
{BLKREFS
331
23F
102
}
  0
ENDTAB
  0
ENDSEC
  0
SECTION
  2
BLOCKS
  0
BLOCK
  5
23
330
22
100
AcDbEntity
  8
0
100
AcDbBlockBegin
  2
*Model_Space
 70
     0
 10
0.0
 20
0.0
 30
0.0
  3
*Model_Space
  1

  0
ENDBLK
  5
24
330
22
100
AcDbEntity
  8
0
100
AcDbBlockEnd
  0
BLOCK
  5
1F
330
1E
100
AcDbEntity
 67
     1
  8
0
100
AcDbBlockBegin
  2
*Paper_Space
 70
     0
 10
0.0
 20
0.0
 30
0.0
  3
*Paper_Space
  1

  0
ENDBLK
  5
20
330
1E
100
AcDbEntity
 67
     1
  8
0
100
AcDbBlockEnd
  0
BLOCK
  5
3B
330
3A
100
AcDbEntity
  8
0
100
AcDbBlockBegin
  2
_OPEN30
 70
     0
 10
0.0
 20
0.0
 30
0.0
  3
_OPEN30
  1

  0
LINE
  5
3C
330
3A
100
AcDbEntity
  8
0
  6
ByBlock
 62
     0
100
AcDbLine
 10
0.0
 20
0.0
 30
0.0
 11
-2.999999999999993
 21
-1.000000000000017
 31
0.0
  0
LINE
  5
3D
330
3A
100
AcDbEntity
  8
0
  6
ByBlock
 62
     0
100
AcDbLine
 10
0.0
 20
0.0
 30
0.0
 11
-3.000000000000006
 21
0.9999999999999815
 31
0.0
  0
LINE
  5
3E
330
3A
100
AcDbEntity
  8
0
  6
ByBlock
 62
     0
100
AcDbLine
 10
0.0
 20
0.0
 30
0.0
 11
-3.0
 21
0.0
 31
0.0
  0
ENDBLK
  5
3F
330
3A
100
AcDbEntity
  8
0
100
AcDbBlockEnd
  0
BLOCK
  5
41
330
40
100
AcDbEntity
  8
0
100
AcDbBlockBegin
  2
*D1
 70
     1
 10
0.0
 20
0.0
 30
0.0
  3
*D1
  1

  0
LINE
  5
42
330
40
100
AcDbEntity
  8
0
  6
Continuous
 62
     7
100
AcDbLine
 10
-382.8668823242188
 20
271.959228515625
 30
0.0
 11
-325.5707397460938
 21
316.3623657226563
 31
0.0
  0
LINE
  5
43
330
40
100
AcDbEntity
  8
0
  6
Continuous
 62
     7
100
AcDbLine
 10
-480.0890549200996
 20
196.6143371688976
 30
0.0
 11
-385.2381545525567
 21
270.1215484512196
 31
0.0
  0
INSERT
  5
44
330
40
100
AcDbEntity
  8
0
  6
Continuous
 62
     7
100
AcDbBlockReference
  2
_OPEN30
 10
-482.4603271484375
 20
194.7766571044922
 30
0.0
 50
217.7748402603177
  0
INSERT
  5
45
330
40
100
AcDbEntity
  8
0
  6
Continuous
 62
     7
100
AcDbBlockReference
  2
_OPEN30
 10
-382.8668823242188
 20
271.959228515625
 30
0.0
 50
37.77484026031701
  0
TEXT
  5
46
330
40
100
AcDbEntity
  8
0
  6
Continuous
 62
     7
100
AcDbText
 10
-351.4303297890021
 20
297.261724065373
 30
0.0
 40
3.0
  1
%%C１２６（目皿部外径）
 50
37.79999831980516
 41
0.8440126077968535
100
AcDbText
  0
POINT
  5
47
330
40
100
AcDbEntity
  8
DEFPOINTS
  6
Continuous
 62
     7
100
AcDbPoint
 10
-482.4603271484375
 20
194.7766571044922
 30
0.0
  0
POINT
  5
48
330
40
100
AcDbEntity
  8
DEFPOINTS
  6
Continuous
 62
     7
100
AcDbPoint
 10
-382.8668823242188
 20
271.959228515625
 30
0.0
  0
ENDBLK
  5
49
330
40
100
AcDbEntity
  8
0
100
AcDbBlockEnd
  0
BLOCK
  5
4B
330
4A
100
AcDbEntity
  8
0
100
AcDbBlockBegin
  2
*D2
 70
     1
 10
0.0
 20
0.0
 30
0.0
  3
*D2
  1

  0
LINE
  5
4C
330
4A
100
AcDbEntity
  8
0
  6
Continuous
 62
     7
100
AcDbLine
 10
-106.1493835449219
 20
181.8679351806641
 30
0.0
 11
-106.1493835449219
 21
170.8679351806641
 31
0.0
  0
INSERT
  5
4D
330
4A
100
AcDbEntity
  8
0
  6
Continuous
 62
     7
100
AcDbBlockReference
  2
_OPEN30
 10
-106.1493835449219
 20
184.8679351806641
 30
0.0
 50
90.00000000000019
  0
INSERT
  5
4E
330
4A
100
AcDbEntity
  8
0
  6
Continuous
 62
     7
100
AcDbBlockReference
  2
_OPEN30
 10
-106.1493835449219
 20
167.8679351806641
 30
0.0
 50
270.0000000000005
  0
LINE
  5
4F
330
4A
100
AcDbEntity
  8
0
  6
Continuous
 62
     7
100
AcDbLine
 10
-131.4171838378906
 20
167.8679351806641
 30
0.0
 11
-103.8633804321289
 21
167.8679351806641
 31
0.0
  0
TEXT
  5
50
330
4A
100
AcDbEntity
  8
0
  6
Continuous
 62
     7
100
AcDbText
 10
-106.8993834325836
 20
173.7979350358238
 30
0.0
 40
3.0
  1
17
 50
90.00000250447815
 41
1.285000026226043
100
AcDbText
  0
POINT
  5
51
330
4A
100
AcDbEntity
  8
DEFPOINTS
  6
Continuous
 62
     7
100
AcDbPoint
 10
-100.9337692260742
 20
184.8679351806641
 30
0.0
  0
POINT
  5
52
330
4A
100
AcDbEntity
  8
DEFPOINTS
  6
Continuous
 62
     7
100
AcDbPoint
 10
-133.9571838378906
 20
167.8679351806641
 30
0.0
  0
POINT
  5
53
330
4A
100
AcDbEntity
  8
DEFPOINTS
  6
Continuous
 62
     7
100
AcDbPoint
 10
-106.1493835449219
 20
167.8679351806641
 30
0.0
  0
ENDBLK
  5
54
330
4A
100
AcDbEntity
  8
0
100
AcDbBlockEnd
  0
BLOCK
  5
56
330
55
100
AcDbEntity
  8
0
100
AcDbBlockBegin
  2
*D3
 70
     1
 10
0.0
 20
0.0
 30
0.0
  3
*D3
  1

  0
LINE
  5
57
330
55
100
AcDbEntity
  8
0
  6
Continuous
 62
     7
100
AcDbLine
 10
-135.4337768554688
 20
356.1220092773438
 30
0.0
 11
-120.5709838867188
 21
356.1220092773438
 31
0.0
  0
LINE
  5
58
330
55
100
AcDbEntity
  8
0
  6
Continuous
 62
     7
100
AcDbLine
 10
-138.9337768554687
 20
356.1220092773438
 30
0.0
 11
-135.4337768554688
 21
356.1220092773438
 31
0.0
  0
INSERT
  5
59
330
55
100
AcDbEntity
  8
0
  6
Continuous
 62
     7
100
AcDbBlockReference
  2
_OPEN30
 10
-138.9337768554687
 20
356.1220092773438
 30
0.0
 50
0.0000000000003562
  0
LINE
  5
5A
330
55
100
AcDbEntity
  8
0
  6
Continuous
 62
     7
100
AcDbLine
 10
-141.9337768554688
 20
356.1220092773438
 30
0.0
 11
-145.2837768554687
 21
356.1220092773437
 31
0.0
  0
INSERT
  5
5B
330
55
100
AcDbEntity
  8
0
  6
Continuous
 62
     7
100
AcDbBlockReference
  2
_OPEN30
 10
-135.4337768554688
 20
356.1220092773438
 30
0.0
 50
180.0
  0
LINE
  5
5C
330
55
100
AcDbEntity
  8
0
  6
Continuous
 62
     7
100
AcDbLine
 10
-132.4337768554687
 20
356.1220092773438
 30
0.0
 11
-129.0837768554688
 21
356.1220092773438
 31
0.0
  0
LINE
  5
5D
330
55
100
AcDbEntity
  8
0
  6
Continuous
 62
     7
100
AcDbLine
 10
-135.4337768554688
 20
332.9079504394532
 30
0.0
 11
-135.4337768554688
 21
358.4080200195313
 31
0.0
  0
TEXT
  5
5E
330
55
100
AcDbEntity
  8
0
  6
Continuous
 62
     7
100
AcDbText
 10
-128.7109837532044
 20
356.8720092773438
 30
0.0
 40
3.0
  1
3.5
 41
1.356666684150696
100
AcDbText
  0
POINT
  5
5F
330
55
100
AcDbEntity
  8
DEFPOINTS
  6
Continuous
 62
     7
100
AcDbPoint
 10
-138.9337768554687
 20
358.4080200195313
 30
0.0
  0
POINT
  5
60
330
55
100
AcDbEntity
  8
DEFPOINTS
  6
Continuous
 62
     7
100
AcDbPoint
 10
-135.4337768554688
 20
330.3679504394531
 30
0.0
  0
POINT
  5
61
330
55
100
AcDbEntity
  8
DEFPOINTS
  6
Continuous
 62
     7
100
AcDbPoint
 10
-135.4337768554688
 20
356.1220092773438
 30
0.0
  0
ENDBLK
  5
62
330
55
100
AcDbEntity
  8
0
100
AcDbBlockEnd
  0
BLOCK
  5
64
330
63
100
AcDbEntity
  8
0
100
AcDbBlockBegin
  2
*D4
 70
     1
 10
0.0
 20
0.0
 30
0.0
  3
*D4
  1

  0
LINE
  5
65
330
63
100
AcDbEntity
  8
0
  6
Continuous
 62
     7
100
AcDbLine
 10
-378.3882446289063
 20
314.3644409179688
 30
0.0
 11
-357.762451171875
 21
345.1448669433594
 31
0.0
  0
LINE
  5
66
330
63
100
AcDbEntity
  8
0
  6
Continuous
 62
     7
100
AcDbLine
 10
-485.2689536455068
 20
154.8636297960082
 30
0.0
 11
-380.0582558271493
 21
311.8722405653199
 31
0.0
  0
INSERT
  5
67
330
63
100
AcDbEntity
  8
0
  6
Continuous
 62
     7
100
AcDbBlockReference
  2
_OPEN30
 10
-486.93896484375
 20
152.3714294433594
 30
0.0
 50
236.1741550164692
  0
INSERT
  5
68
330
63
100
AcDbEntity
  8
0
  6
Continuous
 62
     7
100
AcDbBlockReference
  2
_OPEN30
 10
-378.3882446289063
 20
314.3644409179688
 30
0.0
 50
56.17415501646846
  0
TEXT
  5
69
330
63
100
AcDbEntity
  8
0
  6
Continuous
 62
     7
100
AcDbText
 10
-376.2710394517792
 20
318.8582838946226
 30
0.0
 40
3.0
  1
%%C１９５（防水皿外径）
 50
56.19999860415884
 41
0.8440126077968535
100
AcDbText
  0
POINT
  5
6A
330
63
100
AcDbEntity
  8
DEFPOINTS
  6
Continuous
 62
     7
100
AcDbPoint
 10
-486.93896484375
 20
152.3714294433594
 30
0.0
  0
POINT
  5
6B
330
63
100
AcDbEntity
  8
DEFPOINTS
  6
Continuous
 62
     7
100
AcDbPoint
 10
-378.3882446289063
 20
314.3644409179688
 30
0.0
  0
ENDBLK
  5
6C
330
63
100
AcDbEntity
  8
0
100
AcDbBlockEnd
  0
BLOCK
  5
6E
330
6D
100
AcDbEntity
  8
0
100
AcDbBlockBegin
  2
*D5
 70
     1
 10
0.0
 20
0.0
 30
0.0
  3
*D5
  1

  0
LINE
  5
6F
330
6D
100
AcDbEntity
  8
0
  6
Continuous
 62
     7
100
AcDbLine
 10
-132.4337768554687
 20
156.0791015625
 30
0.0
 11
-118.4337692260742
 21
156.0791015625
 31
0.0
  0
INSERT
  5
70
330
6D
100
AcDbEntity
  8
0
  6
Continuous
 62
     7
100
AcDbBlockReference
  2
_OPEN30
 10
-135.4337768554688
 20
156.0791015625
 30
0.0
 50
180.0000000000004
  0
INSERT
  5
71
330
6D
100
AcDbEntity
  8
0
  6
Continuous
 62
     7
100
AcDbBlockReference
  2
_OPEN30
 10
-115.4337692260742
 20
156.0791015625
 30
0.0
  0
LINE
  5
72
330
6D
100
AcDbEntity
  8
0
  6
Continuous
 62
     7
100
AcDbLine
 10
-115.4337692260742
 20
180.3279351806641
 30
0.0
 11
-115.4337692260742
 21
153.7931060791016
 31
0.0
  0
TEXT
  5
73
330
6D
100
AcDbEntity
  8
0
  6
Continuous
 62
     7
100
AcDbText
 10
-128.003769338131
 20
156.8291015625
 30
0.0
 40
3.0
  1
20
 41
1.101428593908038
100
AcDbText
  0
POINT
  5
74
330
6D
100
AcDbEntity
  8
DEFPOINTS
  6
Continuous
 62
     7
100
AcDbPoint
 10
-135.4337768554688
 20
136.3679351806641
 30
0.0
  0
POINT
  5
75
330
6D
100
AcDbEntity
  8
DEFPOINTS
  6
Continuous
 62
     7
100
AcDbPoint
 10
-115.4337692260742
 20
182.8679351806641
 30
0.0
  0
POINT
  5
76
330
6D
100
AcDbEntity
  8
DEFPOINTS
  6
Continuous
 62
     7
100
AcDbPoint
 10
-115.4337692260742
 20
156.0791015625
 30
0.0
  0
ENDBLK
  5
77
330
6D
100
AcDbEntity
  8
0
100
AcDbBlockEnd
  0
BLOCK
  5
79
330
78
100
AcDbEntity
  8
0
100
AcDbBlockBegin
  2
*D6
 70
     1
 10
0.0
 20
0.0
 30
0.0
  3
*D6
  1

  0
LINE
  5
7A
330
78
100
AcDbEntity
  8
0
  6
Continuous
 62
     7
100
AcDbLine
 10
-141.9337768554688
 20
346.4581298828125
 30
0.0
 11
-170.9337768554688
 21
346.4581298828125
 31
0.0
  0
INSERT
  5
7B
330
78
100
AcDbEntity
  8
0
  6
Continuous
 62
     7
100
AcDbBlockReference
  2
_OPEN30
 10
-138.9337768554687
 20
346.4581298828125
 30
0.0
  0
INSERT
  5
7C
330
78
100
AcDbEntity
  8
0
  6
Continuous
 62
     7
100
AcDbBlockReference
  2
_OPEN30
 10
-173.9337768554688
 20
346.4581298828125
 30
0.0
 50
180.0000000000004
  0
LINE
  5
7D
330
78
100
AcDbEntity
  8
0
  6
Continuous
 62
     7
100
AcDbLine
 10
-173.9337768554688
 20
282.4079504394532
 30
0.0
 11
-173.9337768554688
 21
348.744140625
 31
0.0
  0
TEXT
  5
7E
330
78
100
AcDbEntity
  8
0
  6
Continuous
 62
     7
100
AcDbText
 10
-159.0037769675255
 20
347.2081298828125
 30
0.0
 40
3.0
  1
35
 41
1.028000020980834
100
AcDbText
  0
POINT
  5
7F
330
78
100
AcDbEntity
  8
DEFPOINTS
  6
Continuous
 62
     7
100
AcDbPoint
 10
-138.9337768554687
 20
358.4080200195313
 30
0.0
  0
POINT
  5
80
330
78
100
AcDbEntity
  8
DEFPOINTS
  6
Continuous
 62
     7
100
AcDbPoint
 10
-173.9337768554688
 20
279.8679504394531
 30
0.0
  0
POINT
  5
81
330
78
100
AcDbEntity
  8
DEFPOINTS
  6
Continuous
 62
     7
100
AcDbPoint
 10
-173.9337768554688
 20
346.4581298828125
 30
0.0
  0
ENDBLK
  5
82
330
78
100
AcDbEntity
  8
0
100
AcDbBlockEnd
  0
BLOCK
  5
84
330
83
100
AcDbEntity
  8
0
100
AcDbBlockBegin
  2
*D7
 70
     1
 10
0.0
 20
0.0
 30
0.0
  3
*D7
  1

  0
LINE
  5
85
330
83
100
AcDbEntity
  8
0
  6
Continuous
 62
     7
100
AcDbLine
 10
-74.20970916748048
 20
187.8679351806641
 30
0.0
 11
-74.20970916748044
 21
278.8679504394531
 31
0.0
  0
INSERT
  5
86
330
83
100
AcDbEntity
  8
0
  6
Continuous
 62
     7
100
AcDbBlockReference
  2
_OPEN30
 10
-74.20970916748046
 20
184.8679351806641
 30
0.0
 50
270.0000000000005
  0
INSERT
  5
87
330
83
100
AcDbEntity
  8
0
  6
Continuous
 62
     7
100
AcDbBlockReference
  2
_OPEN30
 10
-74.20970916748046
 20
281.8679504394531
 30
0.0
 50
90.00000000000019
  0
LINE
  5
88
330
83
100
AcDbEntity
  8
0
  6
Continuous
 62
     7
100
AcDbLine
 10
-98.39376922607421
 20
184.8679351806641
 30
0.0
 11
-71.9237060546875
 21
184.8679351806641
 31
0.0
  0
LINE
  5
89
330
83
100
AcDbEntity
  8
0
  6
Continuous
 62
     7
100
AcDbLine
 10
-98.39376922607421
 20
281.8679504394531
 30
0.0
 11
-71.9237060546875
 21
281.8679504394531
 31
0.0
  0
TEXT
  5
8A
330
83
100
AcDbEntity
  8
0
  6
Continuous
 62
     7
100
AcDbText
 10
-74.9597089895751
 20
229.2979349762192
 30
0.0
 40
3.0
  1
%%C97
 50
90.00000250447815
 41
0.9498249830693319
100
AcDbText
  0
POINT
  5
8B
330
83
100
AcDbEntity
  8
DEFPOINTS
  6
Continuous
 62
     7
100
AcDbPoint
 10
-100.9337692260742
 20
184.8679351806641
 30
0.0
  0
POINT
  5
8C
330
83
100
AcDbEntity
  8
DEFPOINTS
  6
Continuous
 62
     7
100
AcDbPoint
 10
-100.9337692260742
 20
281.8679504394531
 30
0.0
  0
POINT
  5
8D
330
83
100
AcDbEntity
  8
DEFPOINTS
  6
Continuous
 62
     7
100
AcDbPoint
 10
-74.20970916748046
 20
281.8679504394531
 30
0.0
  0
ENDBLK
  5
8E
330
83
100
AcDbEntity
  8
0
100
AcDbBlockEnd
  0
BLOCK
  5
90
330
8F
100
AcDbEntity
  8
0
100
AcDbBlockBegin
  2
*D8
 70
     1
 10
0.0
 20
0.0
 30
0.0
  3
*D8
  1

  0
LINE
  5
91
330
8F
100
AcDbEntity
  8
0
  6
Continuous
 62
     7
100
AcDbLine
 10
-206.9337768554688
 20
246.0818176269531
 30
0.0
 11
-156.9337768554688
 21
246.0818176269531
 31
0.0
  0
INSERT
  5
92
330
8F
100
AcDbEntity
  8
0
  6
Continuous
 62
     7
100
AcDbBlockReference
  2
_OPEN30
 10
-209.9337768554689
 20
246.0818176269531
 30
0.0
 50
180.0000000000004
  0
INSERT
  5
93
330
8F
100
AcDbEntity
  8
0
  6
Continuous
 62
     7
100
AcDbBlockReference
  2
_OPEN30
 10
-153.9337768554688
 20
246.0818176269531
 30
0.0
  0
TEXT
  5
94
330
8F
100
AcDbEntity
  8
0
  6
Continuous
 62
     7
100
AcDbText
 10
-184.5037769675255
 20
246.8318176269531
 30
0.0
 40
3.0
  1
56
 41
1.028000020980834
100
AcDbText
  0
POINT
  5
95
330
8F
100
AcDbEntity
  8
DEFPOINTS
  6
Continuous
 62
     7
100
AcDbPoint
 10
-209.9337768554689
 20
289.3679504394531
 30
0.0
  0
POINT
  5
96
330
8F
100
AcDbEntity
  8
DEFPOINTS
  6
Continuous
 62
     7
100
AcDbPoint
 10
-153.9337768554688
 20
233.3679351806641
 30
0.0
  0
POINT
  5
97
330
8F
100
AcDbEntity
  8
DEFPOINTS
  6
Continuous
 62
     7
100
AcDbPoint
 10
-153.9337768554688
 20
246.0818176269531
 30
0.0
  0
ENDBLK
  5
98
330
8F
100
AcDbEntity
  8
0
100
AcDbBlockEnd
  0
BLOCK
  5
9A
330
99
100
AcDbEntity
  8
0
100
AcDbBlockBegin
  2
*D9
 70
     1
 10
0.0
 20
0.0
 30
0.0
  3
*D9
  1

  0
LINE
  5
9B
330
99
100
AcDbEntity
  8
0
  6
Continuous
 62
     7
100
AcDbLine
 10
-170.9337768554688
 20
114.0203857421875
 30
0.0
 11
-102.9337692260742
 21
114.0203857421875
 31
0.0
  0
INSERT
  5
9C
330
99
100
AcDbEntity
  8
0
  6
Continuous
 62
     7
100
AcDbBlockReference
  2
_OPEN30
 10
-173.9337768554688
 20
114.0203857421875
 30
0.0
 50
180.0000000000004
  0
INSERT
  5
9D
330
99
100
AcDbEntity
  8
0
  6
Continuous
 62
     7
100
AcDbBlockReference
  2
_OPEN30
 10
-99.93376922607422
 20
114.0203857421875
 30
0.0
  0
LINE
  5
9E
330
99
100
AcDbEntity
  8
0
  6
Continuous
 62
     7
100
AcDbLine
 10
-173.9337768554686
 20
184.3279351806641
 30
0.0
 11
-173.9337768554688
 21
111.7343902587891
 31
0.0
  0
LINE
  5
9F
330
99
100
AcDbEntity
  8
0
  6
Continuous
 62
     7
100
AcDbLine
 10
-99.93376922607421
 20
183.3279351806641
 30
0.0
 11
-99.93376922607422
 21
111.7343902587891
 31
0.0
  0
TEXT
  5
A0
330
99
100
AcDbEntity
  8
0
  6
Continuous
 62
     7
100
AcDbText
 10
-139.5037769675255
 20
114.7703857421875
 30
0.0
 40
3.0
  1
74
 41
1.028000020980834
100
AcDbText
  0
POINT
  5
A1
330
99
100
AcDbEntity
  8
DEFPOINTS
  6
Continuous
 62
     7
100
AcDbPoint
 10
-173.9337768554688
 20
186.8679351806641
 30
0.0
  0
POINT
  5
A2
330
99
100
AcDbEntity
  8
DEFPOINTS
  6
Continuous
 62
     7
100
AcDbPoint
 10
-99.93376922607422
 20
185.8679351806641
 30
0.0
  0
POINT
  5
A3
330
99
100
AcDbEntity
  8
DEFPOINTS
  6
Continuous
 62
     7
100
AcDbPoint
 10
-99.93376922607422
 20
114.0203857421875
 30
0.0
  0
ENDBLK
  5
A4
330
99
100
AcDbEntity
  8
0
100
AcDbBlockEnd
  0
BLOCK
  5
A6
330
A5
100
AcDbEntity
  8
0
100
AcDbBlockBegin
  2
*D10
 70
     1
 10
0.0
 20
0.0
 30
0.0
  3
*D10
  1

  0
LINE
  5
A7
330
A5
100
AcDbEntity
  8
0
  6
Continuous
 62
     7
100
AcDbLine
 10
-141.9337768554688
 20
356.1220092773438
 30
0.0
 11
-200.9337768554688
 21
356.1220092773438
 31
0.0
  0
INSERT
  5
A8
330
A5
100
AcDbEntity
  8
0
  6
Continuous
 62
     7
100
AcDbBlockReference
  2
_OPEN30
 10
-138.9337768554687
 20
356.1220092773438
 30
0.0
  0
INSERT
  5
A9
330
A5
100
AcDbEntity
  8
0
  6
Continuous
 62
     7
100
AcDbBlockReference
  2
_OPEN30
 10
-203.9337768554688
 20
356.1220092773438
 30
0.0
 50
180.0000000000004
  0
LINE
  5
AA
330
A5
100
AcDbEntity
  8
0
  6
Continuous
 62
     7
100
AcDbLine
 10
-138.9337768554687
 20
331.4079504394532
 30
0.0
 11
-138.9337768554687
 21
358.4080200195313
 31
0.0
  0
LINE
  5
AB
330
A5
100
AcDbEntity
  8
0
  6
Continuous
 62
     7
100
AcDbLine
 10
-203.9337768554688
 20
298.9079504394532
 30
0.0
 11
-203.9337768554688
 21
358.4080200195313
 31
0.0
  0
TEXT
  5
AC
330
A5
100
AcDbEntity
  8
0
  6
Continuous
 62
     7
100
AcDbText
 10
-186.0037774443626
 20
356.8720092773438
 30
0.0
 40
3.0
  1
６５　（５１～７３）
 41
0.8443929326254473
100
AcDbText
  0
POINT
  5
AD
330
A5
100
AcDbEntity
  8
DEFPOINTS
  6
Continuous
 62
     7
100
AcDbPoint
 10
-138.9337768554687
 20
328.8679504394531
 30
0.0
  0
POINT
  5
AE
330
A5
100
AcDbEntity
  8
DEFPOINTS
  6
Continuous
 62
     7
100
AcDbPoint
 10
-203.9337768554688
 20
296.3679504394531
 30
0.0
  0
POINT
  5
AF
330
A5
100
AcDbEntity
  8
DEFPOINTS
  6
Continuous
 62
     7
100
AcDbPoint
 10
-203.9337768554688
 20
356.1220092773438
 30
0.0
  0
ENDBLK
  5
B0
330
A5
100
AcDbEntity
  8
0
100
AcDbBlockEnd
  0
BLOCK
  5
B2
330
B1
100
AcDbEntity
  8
0
100
AcDbBlockBegin
  2
*D11
 70
     1
 10
0.0
 20
0.0
 30
0.0
  3
*D11
  1

  0
LINE
  5
B3
330
B1
100
AcDbEntity
  8
0
  6
Continuous
 62
     7
100
AcDbLine
 10
-209.9337768554689
 20
356.1220092773438
 30
0.0
 11
-220.5347137451172
 21
356.1220092773438
 31
0.0
  0
LINE
  5
B4
330
B1
100
AcDbEntity
  8
0
  6
Continuous
 62
     7
100
AcDbLine
 10
-203.9337768554688
 20
356.1220092773438
 30
0.0
 11
-209.9337768554689
 21
356.1220092773438
 31
0.0
  0
INSERT
  5
B5
330
B1
100
AcDbEntity
  8
0
  6
Continuous
 62
     7
100
AcDbBlockReference
  2
_OPEN30
 10
-203.9337768554688
 20
356.1220092773438
 30
0.0
 50
180.0
  0
LINE
  5
B6
330
B1
100
AcDbEntity
  8
0
  6
Continuous
 62
     7
100
AcDbLine
 10
-200.9337768554688
 20
356.1220092773438
 30
0.0
 11
-197.5837768554688
 21
356.1220092773438
 31
0.0
  0
INSERT
  5
B7
330
B1
100
AcDbEntity
  8
0
  6
Continuous
 62
     7
100
AcDbBlockReference
  2
_OPEN30
 10
-209.9337768554689
 20
356.1220092773438
 30
0.0
 50
0.0000000000003562
  0
LINE
  5
B8
330
B1
100
AcDbEntity
  8
0
  6
Continuous
 62
     7
100
AcDbLine
 10
-212.9337768554688
 20
356.1220092773438
 30
0.0
 11
-216.2837768554687
 21
356.1220092773437
 31
0.0
  0
LINE
  5
B9
330
B1
100
AcDbEntity
  8
0
  6
Continuous
 62
     7
100
AcDbLine
 10
-209.9337768554689
 20
291.9079504394532
 30
0.0
 11
-209.9337768554689
 21
358.4080200195313
 31
0.0
  0
TEXT
  5
BA
330
B1
100
AcDbEntity
  8
0
  6
Continuous
 62
     7
100
AcDbText
 10
-220.5347217321396
 20
356.8720092773438
 30
0.0
 40
3.0
  1
6
100
AcDbText
  0
POINT
  5
BB
330
B1
100
AcDbEntity
  8
DEFPOINTS
  6
Continuous
 62
     7
100
AcDbPoint
 10
-203.9337768554688
 20
358.4080200195313
 30
0.0
  0
POINT
  5
BC
330
B1
100
AcDbEntity
  8
DEFPOINTS
  6
Continuous
 62
     7
100
AcDbPoint
 10
-209.9337768554689
 20
289.3679504394531
 30
0.0
  0
POINT
  5
BD
330
B1
100
AcDbEntity
  8
DEFPOINTS
  6
Continuous
 62
     7
100
AcDbPoint
 10
-209.9337768554689
 20
356.1220092773438
 30
0.0
  0
ENDBLK
  5
BE
330
B1
100
AcDbEntity
  8
0
100
AcDbBlockEnd
  0
BLOCK
  5
C0
330
BF
100
AcDbEntity
  8
0
100
AcDbBlockBegin
  2
KOZU0001
 70
     0
 10
0.0
 20
0.0
 30
0.0
  3
KOZU0001
  1

  0
LINE
  5
C1
330
BF
100
AcDbEntity
  8
0
  6
Continuous
 62
     7
100
AcDbLine
 10
0.0
 20
0.0
 30
0.0
 11
42.7562255859375
 21
-32.23793029785156
 31
0.0
  0
LINE
  5
C2
330
BF
100
AcDbEntity
  8
0
  6
Continuous
 62
     7
100
AcDbLine
 10
42.7562255859375
 20
-32.23793029785156
 30
0.0
 11
69.43243408203125
 21
-32.23793029785156
 31
0.0
  0
LINE
  5
C3
330
BF
100
AcDbEntity
  8
0
  6
Continuous
 62
     7
100
AcDbLine
 10
0.0
 20
0.0
 30
0.0
 11
2.997439085012478
 21
-1.00765020301668
 31
0.0
  0
LINE
  5
C4
330
BF
100
AcDbEntity
  8
0
  6
Continuous
 62
     7
100
AcDbLine
 10
0.0
 20
0.0
 30
0.0
 11
1.793361146199974
 21
-2.604583613420832
 31
0.0
  0
TEXT
  5
C5
330
BF
100
AcDbEntity
  8
0
  6
Continuous
 62
     7
100
AcDbText
 10
44.57243275642395
 20
-31.48793029785156
 30
0.0
 40
3.0
  1
共廻り防止用羽根
 41
0.8454512278006642
100
AcDbText
  0
TEXT
  5
C6
330
BF
100
AcDbEntity
  8
0
  6
Continuous
 62
     7
100
AcDbText
 10
44.57243275642395
 20
-36.75293029785156
 30
0.0
 40
3.0
  1
３ヶ所
 41
0.8550420278260688
100
AcDbText
  0
ENDBLK
  5
C7
330
BF
100
AcDbEntity
  8
0
100
AcDbBlockEnd
  0
BLOCK
  5
C9
330
C8
100
AcDbEntity
  8
0
100
AcDbBlockBegin
  2
KOZU0002
 70
     0
 10
0.0
 20
0.0
 30
0.0
  3
KOZU0002
  1

  0
LINE
  5
CA
330
C8
100
AcDbEntity
  8
0
  6
Continuous
 62
     7
100
AcDbLine
 10
0.0
 20
0.0
 30
0.0
 11
30.54996490478516
 21
31.96710205078125
 31
0.0
  0
LINE
  5
CB
330
C8
100
AcDbEntity
  8
0
  6
Continuous
 62
     7
100
AcDbLine
 10
30.54996490478516
 20
31.96710205078125
 30
0.0
 11
56.27106475830078
 21
31.96710205078125
 31
0.0
  0
LINE
  5
CC
330
C8
100
AcDbEntity
  8
0
  6
Continuous
 62
     7
100
AcDbLine
 10
0.0
 20
0.0
 30
0.0
 11
1.349752031301088
 21
2.859749893609331
 31
0.0
  0
LINE
  5
CD
330
C8
100
AcDbEntity
  8
0
  6
Continuous
 62
     7
100
AcDbLine
 10
0.0
 20
0.0
 30
0.0
 11
2.79565156120647
 21
1.477948696106813
 31
0.0
  0
TEXT
  5
CE
330
C8
100
AcDbEntity
  8
0
  6
Continuous
 62
     7
100
AcDbText
 10
31.53732991218567
 20
32.71710205078125
 30
0.0
 40
3.0
  1
配管接続口
 41
0.8487395020950888
100
AcDbText
  0
TEXT
  5
CF
330
C8
100
AcDbEntity
  8
0
  6
Continuous
 62
     7
100
AcDbText
 10
31.53732991218567
 20
27.45210205078125
 30
0.0
 40
3.0
  1
Ｒｃ３（８０Ａ）
 41
0.8454512278006642
100
AcDbText
  0
ENDBLK
  5
D0
330
C8
100
AcDbEntity
  8
0
100
AcDbBlockEnd
  0
ENDSEC
  0
SECTION
  2
ENTITIES
  0
POINT
  5
D1
330
22
100
AcDbEntity
  8
0
  6
Continuous
 62
     7
100
AcDbPoint
 10
-135.4337768554688
 20
233.3679351806641
 30
0.0
  0
POINT
  5
D2
330
22
100
AcDbEntity
  8
0
  6
Continuous
 62
     7
100
AcDbPoint
 10
-135.4337768554688
 20
233.3679351806641
 30
0.0
  0
POINT
  5
D3
330
22
100
AcDbEntity
  8
0
  6
Continuous
 62
     7
100
AcDbPoint
 10
-432.6636047363281
 20
233.3679351806641
 30
0.0
  0
POINT
  5
D4
330
22
100
AcDbEntity
  8
0
  6
Continuous
 62
     7
100
AcDbPoint
 10
-432.6636047363281
 20
233.3679351806641
 30
0.0
  0
POINT
  5
D5
330
22
100
AcDbEntity
  8
0
  6
Continuous
 62
     7
100
AcDbPoint
 10
-135.4337768554688
 20
233.3679351806641
 30
0.0
  0
LINE
  5
D6
330
22
100
AcDbEntity
  8
0
  6
CENTER
 62
     7
100
AcDbLine
 10
-326.728759765625
 20
233.3679351806641
 30
0.0
 11
-538.6582031249999
 21
233.3679351806641
 31
0.0
  0
LINE
  5
D7
330
22
100
AcDbEntity
  8
0
  6
CENTER
 62
     7
100
AcDbLine
 10
-95.02447509765623
 20
233.3679351806641
 30
0.0
 11
-217.4911499023438
 21
233.3679351806641
 31
0.0
  0
LINE
  5
D8
330
22
100
AcDbEntity
  8
0
  6
CENTER
 62
     7
100
AcDbLine
 10
-432.6636047363281
 20
128.6429138183594
 30
0.0
 11
-432.6636047363281
 21
337.6243286132813
 31
0.0
  0
LINE
  5
D9
330
22
100
AcDbEntity
  8
0
  6
Continuous
 62
     7
100
AcDbLine
 10
-452.7101745605468
 20
247.8291015625
 30
0.0
 11
-455.4716796874999
 21
249.4234619140625
 31
0.0
  0
LINE
  5
DA
330
22
100
AcDbEntity
  8
0
  6
Continuous
 62
     7
100
AcDbLine
 10
-433.7782592773438
 20
277.1964721679688
 30
0.0
 11
-434.1611938476563
 21
277.3599548339845
 31
0.0
  0
LINE
  5
DB
330
22
100
AcDbEntity
  8
0
  6
Continuous
 62
     7
100
AcDbLine
 10
-434.5441589355468
 20
277.5234680175781
 30
0.0
 11
-434.1611938476563
 21
277.3599548339845
 31
0.0
  0
LINE
  5
DC
330
22
100
AcDbEntity
  8
0
  6
Continuous
 62
     7
100
AcDbLine
 10
-429.1347961425781
 20
279.3614501953125
 30
0.0
 11
-429.2984008789063
 21
278.9782104492188
 31
0.0
  0
LINE
  5
DD
330
22
100
AcDbEntity
  8
0
  6
Continuous
 62
     7
100
AcDbLine
 10
-429.1347961425781
 20
279.3614501953125
 30
0.0
 11
-428.9711914062499
 21
279.7446899414063
 31
0.0
  0
LINE
  5
DE
330
22
100
AcDbEntity
  8
0
  6
Continuous
 62
     7
100
AcDbLine
 10
-463.9724731445313
 20
248.5578918457031
 30
0.0
 11
-466.3370971679688
 21
249.9231109619141
 31
0.0
  0
LINE
  5
DF
330
22
100
AcDbEntity
  8
0
  6
Continuous
 62
     7
100
AcDbLine
 10
-461.4724731445313
 20
252.8880157470703
 30
0.0
 11
-463.8370971679687
 21
254.2532348632813
 31
0.0
  0
LINE
  5
E0
330
22
100
AcDbEntity
  8
0
  6
Continuous
 62
     7
100
AcDbLine
 10
-430.7830505371093
 20
284.2124328613281
 30
0.0
 11
-431.166015625
 21
284.3759155273438
 31
0.0
  0
LINE
  5
E1
330
22
100
AcDbEntity
  8
0
  6
Continuous
 62
     7
100
AcDbLine
 10
-431.5489501953124
 20
284.5393981933593
 30
0.0
 11
-433.1001892089843
 21
281.9549865722656
 31
0.0
  0
LINE
  5
E2
330
22
100
AcDbEntity
  8
0
  6
Continuous
 62
     7
100
AcDbLine
 10
-430.7830505371093
 20
284.2124328613281
 30
0.0
 11
-431.5765686035156
 21
281.3045349121095
 31
0.0
  0
LINE
  5
E3
330
22
100
AcDbEntity
  8
0
  6
Continuous
 62
     7
100
AcDbLine
 10
-429.2984008789063
 20
278.9782104492188
 30
0.0
 11
-432.2270202636718
 21
279.7808837890625
 31
0.0
  0
LINE
  5
E4
330
22
100
AcDbEntity
  8
0
  6
Continuous
 62
     7
100
AcDbLine
 10
-433.7782592773438
 20
277.1964721679688
 30
0.0
 11
-432.2270202636718
 21
279.7808837890625
 31
0.0
  0
LINE
  5
E5
330
22
100
AcDbEntity
  8
0
  6
Continuous
 62
     7
100
AcDbLine
 10
-431.5489501953124
 20
284.5393981933593
 30
0.0
 11
-431.166015625
 21
284.3759155273438
 31
0.0
  0
LINE
  5
E6
330
22
100
AcDbEntity
  8
0
  6
Continuous
 62
     7
100
AcDbLine
 10
-436.02880859375
 20
282.7576599121094
 30
0.0
 11
-433.1001892089843
 21
281.9549865722656
 31
0.0
  0
LINE
  5
E7
330
22
100
AcDbEntity
  8
0
  6
Continuous
 62
     7
100
AcDbLine
 10
-428.9711914062499
 20
279.7446899414063
 30
0.0
 11
-431.5765686035156
 21
281.3045349121095
 31
0.0
  0
LINE
  5
E8
330
22
100
AcDbEntity
  8
0
  6
Continuous
 62
     7
100
AcDbLine
 10
-436.1924133300781
 20
282.3744201660156
 30
0.0
 11
-436.3560180664062
 21
281.9911804199218
 31
0.0
  0
LINE
  5
E9
330
22
100
AcDbEntity
  8
0
  6
Continuous
 62
     7
100
AcDbLine
 10
-436.3560180664062
 20
281.9911804199218
 30
0.0
 11
-433.7506408691406
 21
280.4313354492188
 31
0.0
  0
LINE
  5
EA
330
22
100
AcDbEntity
  8
0
  6
Continuous
 62
     7
100
AcDbLine
 10
-436.1924133300781
 20
282.3744201660156
 30
0.0
 11
-436.02880859375
 21
282.7576599121094
 31
0.0
  0
LINE
  5
EB
330
22
100
AcDbEntity
  8
0
  6
Continuous
 62
     7
100
AcDbLine
 10
-434.5441589355468
 20
277.5234680175781
 30
0.0
 11
-433.7506408691406
 21
280.4313354492188
 31
0.0
  0
LINE
  5
EC
330
22
100
AcDbEntity
  8
0
  6
Continuous
 62
     7
100
AcDbLine
 10
-435.1636047363281
 20
219.0588531494141
 30
0.0
 11
-435.1636047363281
 21
215.7114868164063
 31
0.0
  0
LINE
  5
ED
330
22
100
AcDbEntity
  8
0
  6
Continuous
 62
     7
100
AcDbLine
 10
-477.6366882324218
 20
209.5744018554688
 30
0.0
 11
-477.5867919921875
 21
209.1610107421875
 31
0.0
  0
LINE
  5
EE
330
22
100
AcDbEntity
  8
0
  6
Continuous
 62
     7
100
AcDbLine
 10
-470.0631103515624
 20
210.4884643554688
 30
0.0
 11
-473.0768737792969
 21
210.5396575927734
 31
0.0
  0
LINE
  5
EF
330
22
100
AcDbEntity
  8
0
  6
Continuous
 62
     7
100
AcDbLine
 10
-473.8460388183593
 20
213.4772644042969
 30
0.0
 11
-473.0768737792969
 21
210.5396575927734
 31
0.0
  0
LINE
  5
F0
330
22
100
AcDbEntity
  8
0
  6
Continuous
 62
     7
100
AcDbLine
 10
-474.2597351074218
 20
213.4273223876953
 30
0.0
 11
-473.8460388183593
 21
213.4772644042969
 31
0.0
  0
LINE
  5
F1
330
22
100
AcDbEntity
  8
0
  6
Continuous
 62
     7
100
AcDbLine
 10
-474.6734313964843
 20
213.3773956298828
 30
0.0
 11
-474.7216186523438
 21
210.3411560058594
 31
0.0
  0
LINE
  5
F2
330
22
100
AcDbEntity
  8
0
  6
Continuous
 62
     7
100
AcDbLine
 10
-474.2597351074218
 20
213.4273223876953
 30
0.0
 11
-474.6734313964843
 21
213.3773956298828
 31
0.0
  0
LINE
  5
F3
330
22
100
AcDbEntity
  8
0
  6
Continuous
 62
     7
100
AcDbLine
 10
-477.6366882324218
 20
209.5744018554688
 30
0.0
 11
-474.7216186523438
 21
210.3411560058594
 31
0.0
  0
LINE
  5
F4
330
22
100
AcDbEntity
  8
0
  6
Continuous
 62
     7
100
AcDbLine
 10
-469.9633178710937
 20
209.6616821289063
 30
0.0
 11
-472.8783874511718
 21
208.8949279785156
 31
0.0
  0
LINE
  5
F5
330
22
100
AcDbEntity
  8
0
  6
Continuous
 62
     7
100
AcDbLine
 10
-472.9265441894531
 20
205.8586883544922
 30
0.0
 11
-472.8783874511718
 21
208.8949279785156
 31
0.0
  0
LINE
  5
F6
330
22
100
AcDbEntity
  8
0
  6
Continuous
 62
     7
100
AcDbLine
 10
-477.5368957519531
 20
208.7476348876953
 30
0.0
 11
-474.5231018066406
 21
208.6964263916016
 31
0.0
  0
LINE
  5
F7
330
22
100
AcDbEntity
  8
0
  6
Continuous
 62
     7
100
AcDbLine
 10
-477.5368957519531
 20
208.7476348876953
 30
0.0
 11
-477.5867919921875
 21
209.1610107421875
 31
0.0
  0
LINE
  5
F8
330
22
100
AcDbEntity
  8
0
  6
Continuous
 62
     7
100
AcDbLine
 10
-430.1636047363281
 20
208.7762756347656
 30
0.0
 11
-430.1636047363281
 21
205.5875549316406
 31
0.0
  0
LINE
  5
F9
330
22
100
AcDbEntity
  8
0
  6
Continuous
 62
     7
100
AcDbLine
 10
-412.6161499023438
 20
247.8285675048828
 30
0.0
 11
-409.8546447753906
 21
249.4229278564453
 31
0.0
  0
LINE
  5
FA
330
22
100
AcDbEntity
  8
0
  6
Continuous
 62
     7
100
AcDbLine
 10
-403.8538513183594
 20
252.8874969482422
 30
0.0
 11
-401.4891967773437
 21
254.2527160644531
 31
0.0
  0
LINE
  5
FB
330
22
100
AcDbEntity
  8
0
  6
Continuous
 62
     7
100
AcDbLine
 10
-401.3538513183593
 20
248.557373046875
 30
0.0
 11
-398.9891967773438
 21
249.9225921630859
 31
0.0
  0
LINE
  5
FC
330
22
100
AcDbEntity
  8
0
  6
Continuous
 62
     7
100
AcDbLine
 10
-419.0214843749999
 20
238.3569488525391
 30
0.0
 11
-416.1222229003906
 21
240.0308380126953
 31
0.0
  0
LINE
  5
FD
330
22
100
AcDbEntity
  8
0
  6
Continuous
 62
     7
100
AcDbLine
 10
-393.4837341308594
 20
212.9186706542969
 30
0.0
 11
-391.3621520996094
 21
210.7775268554688
 31
0.0
  0
LINE
  5
FE
330
22
100
AcDbEntity
  8
0
  6
Continuous
 62
     7
100
AcDbLine
 10
-393.4837341308594
 20
212.9186706542969
 30
0.0
 11
-393.8167724609375
 21
212.6687622070313
 31
0.0
  0
LINE
  5
FF
330
22
100
AcDbEntity
  8
0
  6
Continuous
 62
     7
100
AcDbLine
 10
-394.1498413085938
 20
212.4188690185547
 30
0.0
 11
-393.8167724609375
 21
212.6687622070313
 31
0.0
  0
LINE
  5
100
330
22
100
AcDbEntity
  8
0
  6
Continuous
 62
     7
100
AcDbLine
 10
-394.8467407226563
 20
207.6483459472656
 30
0.0
 11
-392.6872863769531
 21
209.7832489013672
 31
0.0
  0
LINE
  5
101
330
22
100
AcDbEntity
  8
0
  6
Continuous
 62
     7
100
AcDbLine
 10
-388.9053344726563
 20
206.8167877197266
 30
0.0
 11
-390.3678894042969
 21
209.4524078369141
 31
0.0
  0
LINE
  5
102
330
22
100
AcDbEntity
  8
0
  6
Continuous
 62
     7
100
AcDbLine
 10
-388.7086181640625
 20
212.2539367675781
 30
0.0
 11
-391.3621520996094
 21
210.7775268554688
 31
0.0
  0
LINE
  5
103
330
22
100
AcDbEntity
  8
0
  6
Continuous
 62
     7
100
AcDbLine
 10
-394.1498413085938
 20
212.4188690185547
 30
0.0
 11
-392.6872863769531
 21
209.7832489013672
 31
0.0
  0
LINE
  5
104
330
22
100
AcDbEntity
  8
0
  6
Continuous
 62
     7
100
AcDbLine
 10
-388.4585266113281
 20
211.9206237792969
 30
0.0
 11
-388.2084350585938
 21
211.5873107910156
 31
0.0
  0
LINE
  5
105
330
22
100
AcDbEntity
  8
0
  6
Continuous
 62
     7
100
AcDbLine
 10
-388.2084350585938
 20
211.5873107910156
 30
0.0
 11
-390.3678894042969
 21
209.4524078369141
 31
0.0
  0
LINE
  5
106
330
22
100
AcDbEntity
  8
0
  6
Continuous
 62
     7
100
AcDbLine
 10
-388.4585266113281
 20
211.9206237792969
 30
0.0
 11
-388.7086181640625
 21
212.2539367675781
 31
0.0
  0
LINE
  5
107
330
22
100
AcDbEntity
  8
0
  6
Continuous
 62
     7
100
AcDbLine
 10
-430.1636047363281
 20
219.2442626953125
 30
0.0
 11
-430.1636047363281
 21
215.7114868164063
 31
0.0
  0
LINE
  5
108
330
22
100
AcDbEntity
  8
0
  6
Continuous
 62
     7
100
AcDbLine
 10
-435.1636047363281
 20
208.7762756347656
 30
0.0
 11
-435.1636047363281
 21
205.5875549316406
 31
0.0
  0
LINE
  5
109
330
22
100
AcDbEntity
  8
0
  6
Continuous
 62
     7
100
AcDbLine
 10
-430.1636047363281
 20
240.5616912841797
 30
0.0
 11
-430.1636047363281
 21
226.1741943359375
 31
0.0
  0
LINE
  5
10A
330
22
100
AcDbEntity
  8
0
  6
Continuous
 62
     7
100
AcDbLine
 10
-446.3055419921874
 20
238.3578796386719
 30
0.0
 11
-449.2040710449218
 21
240.0313568115234
 31
0.0
  0
LINE
  5
10B
330
22
100
AcDbEntity
  8
0
  6
Continuous
 62
     7
100
AcDbLine
 10
-435.1636047363281
 20
240.5616912841797
 30
0.0
 11
-435.1636047363281
 21
226.1741943359375
 31
0.0
  0
LINE
  5
10C
330
22
100
AcDbEntity
  8
0
  6
Continuous
 62
     7
100
AcDbLine
 10
-389.5714416503906
 20
206.3169860839844
 30
0.0
 11
-389.2384033203125
 21
206.56689453125
 31
0.0
  0
LINE
  5
10D
330
22
100
AcDbEntity
  8
0
  6
Continuous
 62
     7
100
AcDbLine
 10
-394.3465576171875
 20
206.9817352294922
 30
0.0
 11
-391.6930236816406
 21
208.4581298828125
 31
0.0
  0
LINE
  5
10E
330
22
100
AcDbEntity
  8
0
  6
Continuous
 62
     7
100
AcDbLine
 10
-394.5966491699219
 20
207.3150329589844
 30
0.0
 11
-394.8467407226563
 21
207.6483459472656
 31
0.0
  0
LINE
  5
10F
330
22
100
AcDbEntity
  8
0
  6
Continuous
 62
     7
100
AcDbLine
 10
-394.5966491699219
 20
207.3150329589844
 30
0.0
 11
-394.3465576171875
 21
206.9817352294922
 31
0.0
  0
LINE
  5
110
330
22
100
AcDbEntity
  8
0
  6
Continuous
 62
     7
100
AcDbLine
 10
-388.9053344726563
 20
206.8167877197266
 30
0.0
 11
-389.2384033203125
 21
206.56689453125
 31
0.0
  0
LINE
  5
111
330
22
100
AcDbEntity
  8
0
  6
Continuous
 62
     7
100
AcDbLine
 10
-389.5714416503906
 20
206.3169860839844
 30
0.0
 11
-391.6930236816406
 21
208.4581298828125
 31
0.0
  0
LINE
  5
112
330
22
100
AcDbEntity
  8
0
  6
Continuous
 62
     7
100
AcDbLine
 10
-435.1636047363281
 20
198.6584320068359
 30
0.0
 11
-435.1636047363281
 21
195.927978515625
 31
0.0
  0
LINE
  5
113
330
22
100
AcDbEntity
  8
0
  6
Continuous
 62
     7
100
AcDbLine
 10
-473.7539672851562
 20
205.7588348388672
 30
0.0
 11
-474.5231018066406
 21
208.6964263916016
 31
0.0
  0
LINE
  5
114
330
22
100
AcDbEntity
  8
0
  6
Continuous
 62
     7
100
AcDbLine
 10
-473.3402404785156
 20
205.8087615966797
 30
0.0
 11
-473.7539672851562
 21
205.7588348388672
 31
0.0
  0
LINE
  5
115
330
22
100
AcDbEntity
  8
0
  6
Continuous
 62
     7
100
AcDbLine
 10
-473.3402404785156
 20
205.8087615966797
 30
0.0
 11
-472.9265441894531
 21
205.8586883544922
 31
0.0
  0
LINE
  5
116
330
22
100
AcDbEntity
  8
0
  6
Continuous
 62
     7
100
AcDbLine
 10
-430.1636047363281
 20
198.6584320068359
 30
0.0
 11
-430.1636047363281
 21
195.927978515625
 31
0.0
  0
LINE
  5
117
330
22
100
AcDbEntity
  8
0
  6
Continuous
 62
     7
100
AcDbLine
 10
-410.1161499023437
 20
243.4984436035156
 30
0.0
 11
-407.3546447753906
 21
245.0928039550781
 31
0.0
  0
LINE
  5
118
330
22
100
AcDbEntity
  8
0
  6
Continuous
 62
     7
100
AcDbLine
 10
-443.9454956054688
 20
242.7688140869141
 30
0.0
 11
-446.7040710449218
 21
244.3614807128906
 31
0.0
  0
LINE
  5
119
330
22
100
AcDbEntity
  8
0
  6
Continuous
 62
     7
100
AcDbLine
 10
-455.2101745605468
 20
243.4989624023438
 30
0.0
 11
-457.9716796875
 21
245.0933227539064
 31
0.0
  0
LINE
  5
11A
330
22
100
AcDbEntity
  8
0
  6
Continuous
 62
     7
100
AcDbLine
 10
-421.6817016601563
 20
242.5945739746094
 30
0.0
 11
-418.6222229003906
 21
244.3609619140625
 31
0.0
  0
LINE
  5
11B
330
22
100
AcDbEntity
  8
0
  6
Continuous
 62
     7
100
AcDbLine
 10
-207.7337646484375
 20
282.1179504394531
 30
0.0
 11
-204.3137664794922
 21
282.1179504394531
 31
0.0
  0
LINE
  5
11C
330
22
100
AcDbEntity
  8
0
  6
Continuous
 62
     7
100
AcDbLine
 10
-205.9337768554688
 20
296.3679504394531
 30
0.0
 11
-209.9337768554689
 21
289.3679504394531
 31
0.0
  0
LINE
  5
11D
330
22
100
AcDbEntity
  8
0
  6
Continuous
 62
     7
100
AcDbLine
 10
-209.9337768554689
 20
284.3179321289063
 30
0.0
 11
-209.9337768554689
 21
275.9179382324219
 31
0.0
  0
LINE
  5
11E
330
22
100
AcDbEntity
  8
0
  6
Continuous
 62
     7
100
AcDbLine
 10
-204.3137664794922
 20
282.1179504394531
 30
0.0
 11
-203.9337768554688
 21
282.1179504394531
 31
0.0
  0
LINE
  5
11F
330
22
100
AcDbEntity
  8
0
  6
Continuous
 62
     7
100
AcDbLine
 10
-203.9337768554688
 20
281.7379455566406
 30
0.0
 11
-204.3137664794922
 21
282.1179504394531
 31
0.0
  0
LINE
  5
120
330
22
100
AcDbEntity
  8
0
  6
Continuous
 62
     7
100
AcDbLine
 10
-207.7337646484375
 20
282.1179504394531
 30
0.0
 11
-207.3537750244141
 21
281.7379455566406
 31
0.0
  0
LINE
  5
121
330
22
100
AcDbEntity
  8
0
  6
Continuous
 62
     7
100
AcDbLine
 10
-209.9337768554689
 20
287.8679504394531
 30
0.0
 11
-206.9337768554688
 21
287.8679504394531
 31
0.0
  0
LINE
  5
122
330
22
100
AcDbEntity
  8
0
  6
Continuous
 62
     7
100
AcDbLine
 10
-209.9337768554689
 20
287.3679504394531
 30
0.0
 11
-206.9337768554688
 21
287.3679504394531
 31
0.0
  0
LINE
  5
123
330
22
100
AcDbEntity
  8
0
  6
Continuous
 62
     7
100
AcDbLine
 10
-153.9337768554688
 20
250.1460876464844
 30
0.0
 11
-153.9337768554688
 21
258.0361633300781
 31
0.0
  0
LINE
  5
124
330
22
100
AcDbEntity
  8
0
  6
Continuous
 62
     7
100
AcDbLine
 10
-209.9337768554689
 20
250.1460876464844
 30
0.0
 11
-209.9337768554689
 21
258.0361633300781
 31
0.0
  0
LINE
  5
125
330
22
100
AcDbEntity
  8
0
  6
Continuous
 62
     7
100
AcDbLine
 10
-155.14013671875
 20
274.6979370117188
 30
0.0
 11
-153.9337768554688
 21
273.4915771484375
 31
0.0
  0
LINE
  5
126
330
22
100
AcDbEntity
  8
0
  6
Continuous
 62
     7
100
AcDbLine
 10
-155.8472442626953
 20
274.6979370117188
 30
0.0
 11
-153.9337768554688
 21
272.7844543457031
 31
0.0
  0
LINE
  5
127
330
22
100
AcDbEntity
  8
0
  6
Continuous
 62
     7
100
AcDbLine
 10
-157.9685668945313
 20
274.6979370117188
 30
0.0
 11
-155.6385650634766
 21
272.3679504394531
 31
0.0
  0
LINE
  5
128
330
22
100
AcDbEntity
  8
0
  6
Continuous
 62
     7
100
AcDbLine
 10
-158.6756744384766
 20
274.6979370117188
 30
0.0
 11
-156.3456726074219
 21
272.3679504394531
 31
0.0
  0
LINE
  5
129
330
22
100
AcDbEntity
  8
0
  6
Continuous
 62
     7
100
AcDbLine
 10
-160.7969818115234
 20
274.6979370117188
 30
0.0
 11
-158.4669952392578
 21
272.3679504394531
 31
0.0
  0
LINE
  5
12A
330
22
100
AcDbEntity
  8
0
  6
Continuous
 62
     7
100
AcDbLine
 10
-161.5040893554688
 20
274.6979370117188
 30
0.0
 11
-159.1740875244141
 21
272.3679504394531
 31
0.0
  0
LINE
  5
12B
330
22
100
AcDbEntity
  8
0
  6
Continuous
 62
     7
100
AcDbLine
 10
-163.6254119873047
 20
274.6979370117188
 30
0.0
 11
-161.29541015625
 21
272.3679504394531
 31
0.0
  0
LINE
  5
12C
330
22
100
AcDbEntity
  8
0
  6
Continuous
 62
     7
100
AcDbLine
 10
-164.33251953125
 20
274.6979370117188
 30
0.0
 11
-162.0025177001953
 21
272.3679504394531
 31
0.0
  0
LINE
  5
12D
330
22
100
AcDbEntity
  8
0
  6
Continuous
 62
     7
100
AcDbLine
 10
-166.4538421630859
 20
274.6979370117188
 30
0.0
 11
-164.1238403320313
 21
272.3679504394531
 31
0.0
  0
LINE
  5
12E
330
22
100
AcDbEntity
  8
0
  6
Continuous
 62
     7
100
AcDbLine
 10
-167.1609497070313
 20
274.6979370117188
 30
0.0
 11
-164.8309478759766
 21
272.3679504394531
 31
0.0
  0
LINE
  5
12F
330
22
100
AcDbEntity
  8
0
  6
Continuous
 62
     7
100
AcDbLine
 10
-169.2822723388672
 20
274.6979370117188
 30
0.0
 11
-166.9522705078125
 21
272.3679504394531
 31
0.0
  0
LINE
  5
130
330
22
100
AcDbEntity
  8
0
  6
Continuous
 62
     7
100
AcDbLine
 10
-169.9893798828125
 20
274.6979370117188
 30
0.0
 11
-167.6593780517578
 21
272.3679504394531
 31
0.0
  0
LINE
  5
131
330
22
100
AcDbEntity
  8
0
  6
Continuous
 62
     7
100
AcDbLine
 10
-172.1107025146484
 20
274.6979370117188
 30
0.0
 11
-169.7807006835938
 21
272.3679504394531
 31
0.0
  0
LINE
  5
132
330
22
100
AcDbEntity
  8
0
  6
Continuous
 62
     7
100
AcDbLine
 10
-172.8178100585938
 20
274.6979370117188
 30
0.0
 11
-170.4878082275391
 21
272.3679504394531
 31
0.0
  0
LINE
  5
133
330
22
100
AcDbEntity
  8
0
  6
Continuous
 62
     7
100
AcDbLine
 10
-174.9391174316406
 20
274.6979370117188
 30
0.0
 11
-172.609130859375
 21
272.3679504394531
 31
0.0
  0
LINE
  5
134
330
22
100
AcDbEntity
  8
0
  6
Continuous
 62
     7
100
AcDbLine
 10
-175.6462249755859
 20
274.6979370117188
 30
0.0
 11
-173.3162231445313
 21
272.3679504394531
 31
0.0
  0
LINE
  5
135
330
22
100
AcDbEntity
  8
0
  6
Continuous
 62
     7
100
AcDbLine
 10
-177.7675476074219
 20
274.6979370117188
 30
0.0
 11
-175.4375457763672
 21
272.3679504394531
 31
0.0
  0
LINE
  5
136
330
22
100
AcDbEntity
  8
0
  6
Continuous
 62
     7
100
AcDbLine
 10
-178.4746551513672
 20
274.6979370117188
 30
0.0
 11
-176.1446533203125
 21
272.3679504394531
 31
0.0
  0
LINE
  5
137
330
22
100
AcDbEntity
  8
0
  6
Continuous
 62
     7
100
AcDbLine
 10
-180.5959777832031
 20
274.6979370117188
 30
0.0
 11
-178.2659759521484
 21
272.3679504394531
 31
0.0
  0
LINE
  5
138
330
22
100
AcDbEntity
  8
0
  6
Continuous
 62
     7
100
AcDbLine
 10
-181.3030853271484
 20
274.6979370117188
 30
0.0
 11
-178.9730834960938
 21
272.3679504394531
 31
0.0
  0
LINE
  5
139
330
22
100
AcDbEntity
  8
0
  6
Continuous
 62
     7
100
AcDbLine
 10
-205.0944061279297
 20
296.3679504394531
 30
0.0
 11
-203.9337768554688
 21
295.2073059082031
 31
0.0
  0
LINE
  5
13A
330
22
100
AcDbEntity
  8
0
  6
Continuous
 62
     7
100
AcDbLine
 10
-184.1315155029297
 20
274.6979370117188
 30
0.0
 11
-181.801513671875
 21
272.3679504394531
 31
0.0
  0
LINE
  5
13B
330
22
100
AcDbEntity
  8
0
  6
Continuous
 62
     7
100
AcDbLine
 10
-205.801513671875
 20
296.3679504394531
 30
0.0
 11
-203.9337768554688
 21
294.5001831054688
 31
0.0
  0
LINE
  5
13C
330
22
100
AcDbEntity
  8
0
  6
Continuous
 62
     7
100
AcDbLine
 10
-186.2528381347656
 20
274.6979370117188
 30
0.0
 11
-183.9228363037109
 21
272.3679504394531
 31
0.0
  0
LINE
  5
13D
330
22
100
AcDbEntity
  8
0
  6
Continuous
 62
     7
100
AcDbLine
 10
-206.6570587158203
 20
295.1021728515625
 30
0.0
 11
-203.9337768554688
 21
292.3788757324219
 31
0.0
  0
LINE
  5
13E
330
22
100
AcDbEntity
  8
0
  6
Continuous
 62
     7
100
AcDbLine
 10
-186.9599456787109
 20
274.6979370117188
 30
0.0
 11
-184.6299438476563
 21
272.3679504394531
 31
0.0
  0
LINE
  5
13F
330
22
100
AcDbEntity
  8
0
  6
Continuous
 62
     7
100
AcDbLine
 10
-206.9141998291016
 20
294.6521911621094
 30
0.0
 11
-203.9337768554688
 21
291.6717834472656
 31
0.0
  0
LINE
  5
140
330
22
100
AcDbEntity
  8
0
  6
Continuous
 62
     7
100
AcDbLine
 10
-189.0812530517578
 20
274.6979370117188
 30
0.0
 11
-186.7512664794922
 21
272.3679504394531
 31
0.0
  0
LINE
  5
141
330
22
100
AcDbEntity
  8
0
  6
Continuous
 62
     7
100
AcDbLine
 10
-207.6855773925781
 20
293.3022766113282
 30
0.0
 11
-203.9337768554688
 21
289.5504455566406
 31
0.0
  0
LINE
  5
142
330
22
100
AcDbEntity
  8
0
  6
Continuous
 62
     7
100
AcDbLine
 10
-189.7883605957031
 20
274.6979370117188
 30
0.0
 11
-187.4583587646484
 21
272.3679504394531
 31
0.0
  0
LINE
  5
143
330
22
100
AcDbEntity
  8
0
  6
Continuous
 62
     7
100
AcDbLine
 10
-207.9427185058594
 20
292.852294921875
 30
0.0
 11
-203.9337768554688
 21
288.8433532714844
 31
0.0
  0
LINE
  5
144
330
22
100
AcDbEntity
  8
0
  6
Continuous
 62
     7
100
AcDbLine
 10
-191.9096832275391
 20
274.6979370117188
 30
0.0
 11
-189.5796813964844
 21
272.3679504394531
 31
0.0
  0
LINE
  5
145
330
22
100
AcDbEntity
  8
0
  6
Continuous
 62
     7
100
AcDbLine
 10
-208.714111328125
 20
291.5023498535156
 30
0.0
 11
-203.9337768554688
 21
286.7220153808594
 31
0.0
  0
LINE
  5
146
330
22
100
AcDbEntity
  8
0
  6
Continuous
 62
     7
100
AcDbLine
 10
-192.6167907714844
 20
274.6979370117188
 30
0.0
 11
-190.2867889404297
 21
272.3679504394531
 31
0.0
  0
LINE
  5
147
330
22
100
AcDbEntity
  8
0
  6
Continuous
 62
     7
100
AcDbLine
 10
-208.9712371826172
 20
291.0523681640625
 30
0.0
 11
-203.9337768554688
 21
286.0149230957031
 31
0.0
  0
LINE
  5
148
330
22
100
AcDbEntity
  8
0
  6
Continuous
 62
     7
100
AcDbLine
 10
-194.7381134033203
 20
274.6979370117188
 30
0.0
 11
-192.4081115722656
 21
272.3679504394531
 31
0.0
  0
LINE
  5
149
330
22
100
AcDbEntity
  8
0
  6
Continuous
 62
     7
100
AcDbLine
 10
-206.9337768554688
 20
286.8935852050782
 30
0.0
 11
-203.9337768554688
 21
283.8935852050781
 31
0.0
  0
LINE
  5
14A
330
22
100
AcDbEntity
  8
0
  6
Continuous
 62
     7
100
AcDbLine
 10
-209.7426300048828
 20
289.7024536132813
 30
0.0
 11
-207.9081115722656
 21
287.8679504394531
 31
0.0
  0
LINE
  5
14B
330
22
100
AcDbEntity
  8
0
  6
Continuous
 62
     7
100
AcDbLine
 10
-195.4452209472656
 20
274.6979370117188
 30
0.0
 11
-193.1152191162109
 21
272.3679504394531
 31
0.0
  0
LINE
  5
14C
330
22
100
AcDbEntity
  8
0
  6
Continuous
 62
     7
100
AcDbLine
 10
-206.9337768554688
 20
286.1864929199219
 30
0.0
 11
-203.9337768554688
 21
283.1864929199219
 31
0.0
  0
LINE
  5
14D
330
22
100
AcDbEntity
  8
0
  6
Continuous
 62
     7
100
AcDbLine
 10
-209.9337768554689
 20
289.1864929199219
 30
0.0
 11
-208.6152191162109
 21
287.8679504394531
 31
0.0
  0
LINE
  5
14E
330
22
100
AcDbEntity
  8
0
  6
Continuous
 62
     7
100
AcDbLine
 10
-197.5665435791016
 20
274.6979370117188
 30
0.0
 11
-195.2365417480469
 21
272.3679504394531
 31
0.0
  0
LINE
  5
14F
330
22
100
AcDbEntity
  8
0
  6
Continuous
 62
     7
100
AcDbLine
 10
-206.9337768554688
 20
284.0651550292969
 30
0.0
 11
-204.9865417480469
 21
282.1179504394531
 31
0.0
  0
LINE
  5
150
330
22
100
AcDbEntity
  8
0
  6
Continuous
 62
     7
100
AcDbLine
 10
-198.2736511230469
 20
274.6979370117188
 30
0.0
 11
-195.9436492919922
 21
272.3679504394531
 31
0.0
  0
LINE
  5
151
330
22
100
AcDbEntity
  8
0
  6
Continuous
 62
     7
100
AcDbLine
 10
-206.9337768554688
 20
283.3580627441406
 30
0.0
 11
-205.6936492919922
 21
282.1179504394531
 31
0.0
  0
LINE
  5
152
330
22
100
AcDbEntity
  8
0
  6
Continuous
 62
     7
100
AcDbLine
 10
-200.3949737548828
 20
274.6979370117188
 30
0.0
 11
-198.0649719238281
 21
272.3679504394531
 31
0.0
  0
LINE
  5
153
330
22
100
AcDbEntity
  8
0
  6
Continuous
 62
     7
100
AcDbLine
 10
-201.1020812988281
 20
274.6979370117188
 30
0.0
 11
-198.7720794677734
 21
272.3679504394531
 31
0.0
  0
LINE
  5
154
330
22
100
AcDbEntity
  8
0
  6
Continuous
 62
     7
100
AcDbLine
 10
-204.5220794677734
 20
278.1179504394531
 30
0.0
 11
-203.9337768554688
 21
277.5296325683594
 31
0.0
  0
LINE
  5
155
330
22
100
AcDbEntity
  8
0
  6
Continuous
 62
     7
100
AcDbLine
 10
-203.223388671875
 20
274.6979370117188
 30
0.0
 11
-200.8934020996094
 21
272.3679504394531
 31
0.0
  0
LINE
  5
156
330
22
100
AcDbEntity
  8
0
  6
Continuous
 62
     7
100
AcDbLine
 10
-206.6434020996094
 20
278.1179504394531
 30
0.0
 11
-203.9337768554688
 21
275.4083251953125
 31
0.0
  0
LINE
  5
157
330
22
100
AcDbEntity
  8
0
  6
Continuous
 62
     7
100
AcDbLine
 10
-203.9304962158203
 20
274.6979370117188
 30
0.0
 11
-201.6004943847656
 21
272.3679504394531
 31
0.0
  0
LINE
  5
158
330
22
100
AcDbEntity
  8
0
  6
Continuous
 62
     7
100
AcDbLine
 10
-206.9337768554688
 20
277.7012023925781
 30
0.0
 11
-203.9337768554688
 21
274.7012023925781
 31
0.0
  0
LINE
  5
159
330
22
100
AcDbEntity
  8
0
  6
Continuous
 62
     7
100
AcDbLine
 10
-206.9337768554688
 20
275.5798950195313
 30
0.0
 11
-203.7218170166016
 21
272.3679504394531
 31
0.0
  0
LINE
  5
15A
330
22
100
AcDbEntity
  8
0
  6
Continuous
 62
     7
100
AcDbLine
 10
-206.9337768554688
 20
274.872772216797
 30
0.0
 11
-204.4289245605469
 21
272.3679504394531
 31
0.0
  0
LINE
  5
15B
330
22
100
AcDbEntity
  8
0
  6
Continuous
 62
     7
100
AcDbLine
 10
-153.9337768554688
 20
272.3679504394531
 30
0.0
 11
-204.4337768554688
 21
272.3679504394531
 31
0.0
  0
LINE
  5
15C
330
22
100
AcDbEntity
  8
0
  6
Continuous
 62
     7
100
AcDbLine
 10
-153.9337768554688
 20
274.6979370117188
 30
0.0
 11
-201.9337768554688
 21
274.6979370117188
 31
0.0
  0
LINE
  5
15D
330
22
100
AcDbEntity
  8
0
  6
Continuous
 62
     7
100
AcDbLine
 10
-155.4037780761719
 20
276.1679382324219
 30
0.0
 11
-200.4637756347656
 21
276.1679382324219
 31
0.0
  0
LINE
  5
15E
330
22
100
AcDbEntity
  8
0
  6
Continuous
 62
     7
100
AcDbLine
 10
-209.9337768554689
 20
246.3679351806641
 30
0.0
 11
-206.9337768554688
 21
246.3679351806641
 31
0.0
  0
LINE
  5
15F
330
22
100
AcDbEntity
  8
0
  6
Continuous
 62
     7
100
AcDbLine
 10
-203.9337768554688
 20
296.3679504394531
 30
0.0
 11
-205.9337768554688
 21
296.3679504394531
 31
0.0
  0
LINE
  5
160
330
22
100
AcDbEntity
  8
0
  6
Continuous
 62
     7
100
AcDbLine
 10
-203.9337768554688
 20
281.7379455566406
 30
0.0
 11
-207.3537750244141
 21
281.7379455566406
 31
0.0
  0
LINE
  5
161
330
22
100
AcDbEntity
  8
0
  6
Continuous
 62
     7
100
AcDbLine
 10
-206.9337768554688
 20
287.8679504394531
 30
0.0
 11
-206.9337768554688
 21
282.1179504394531
 31
0.0
  0
LINE
  5
162
330
22
100
AcDbEntity
  8
0
  6
Continuous
 62
     7
100
AcDbLine
 10
-209.9337768554689
 20
256.3679504394531
 30
0.0
 11
-206.9337768554688
 21
256.3679504394531
 31
0.0
  0
LINE
  5
163
330
22
100
AcDbEntity
  8
0
  6
Continuous
 62
     7
100
AcDbLine
 10
-209.9337768554689
 20
252.3679351806641
 30
0.0
 11
-206.9337768554688
 21
252.3679351806641
 31
0.0
  0
LINE
  5
164
330
22
100
AcDbEntity
  8
0
  6
Continuous
 62
     7
100
AcDbLine
 10
-201.9337768554688
 20
274.6979370117188
 30
0.0
 11
-200.4637756347656
 21
276.1679382324219
 31
0.0
  0
LINE
  5
165
330
22
100
AcDbEntity
  8
0
  6
Continuous
 62
     7
100
AcDbLine
 10
-203.9337768554688
 20
278.4979248046875
 30
0.0
 11
-204.3137664794922
 21
278.1179504394531
 31
0.0
  0
LINE
  5
166
330
22
100
AcDbEntity
  8
0
  6
Continuous
 62
     7
100
AcDbLine
 10
-209.9337768554689
 20
275.9179382324219
 30
0.0
 11
-207.7337646484375
 21
278.1179504394531
 31
0.0
  0
LINE
  5
167
330
22
100
AcDbEntity
  8
0
  6
Continuous
 62
     7
100
AcDbLine
 10
-203.9337768554688
 20
274.6979370117188
 30
0.0
 11
-201.9337768554688
 21
274.6979370117188
 31
0.0
  0
LINE
  5
168
330
22
100
AcDbEntity
  8
0
  6
Continuous
 62
     7
100
AcDbLine
 10
-206.9337768554688
 20
277.8679504394531
 30
0.0
 11
-207.9837646484375
 21
277.8679504394531
 31
0.0
  0
LINE
  5
169
330
22
100
AcDbEntity
  8
0
  6
Continuous
 62
     7
100
AcDbLine
 10
-207.7337646484375
 20
278.1179504394531
 30
0.0
 11
-204.3137664794922
 21
278.1179504394531
 31
0.0
  0
LINE
  5
16A
330
22
100
AcDbEntity
  8
0
  6
Continuous
 62
     7
100
AcDbLine
 10
-207.7337646484375
 20
278.1179504394531
 30
0.0
 11
-207.3537750244141
 21
278.4979248046875
 31
0.0
  0
LINE
  5
16B
330
22
100
AcDbEntity
  8
0
  6
Continuous
 62
     7
100
AcDbLine
 10
-206.9337768554688
 20
274.8679504394531
 30
0.0
 11
-204.4337768554688
 21
272.3679504394531
 31
0.0
  0
LINE
  5
16C
330
22
100
AcDbEntity
  8
0
  6
Continuous
 62
     7
100
AcDbLine
 10
-209.9337768554689
 20
275.3679504394531
 30
0.0
 11
-206.9337768554688
 21
275.3679504394531
 31
0.0
  0
LINE
  5
16D
330
22
100
AcDbEntity
  8
0
  6
Continuous
 62
     7
100
AcDbLine
 10
-209.9337768554689
 20
266.3679504394531
 30
0.0
 11
-206.9337768554688
 21
266.3679504394531
 31
0.0
  0
LINE
  5
16E
330
22
100
AcDbEntity
  8
0
  6
Continuous
 62
     7
100
AcDbLine
 10
-209.9337768554689
 20
262.3679504394531
 30
0.0
 11
-206.9337768554688
 21
262.3679504394531
 31
0.0
  0
LINE
  5
16F
330
22
100
AcDbEntity
  8
0
  6
Continuous
 62
     7
100
AcDbLine
 10
-203.9337768554688
 20
278.4979248046875
 30
0.0
 11
-207.3537750244141
 21
278.4979248046875
 31
0.0
  0
LINE
  5
170
330
22
100
AcDbEntity
  8
0
  6
Continuous
 62
     7
100
AcDbLine
 10
-204.3137664794922
 20
278.1179504394531
 30
0.0
 11
-203.9337768554688
 21
278.1179504394531
 31
0.0
  0
LINE
  5
171
330
22
100
AcDbEntity
  8
0
  6
CENTER
 62
     7
100
AcDbLine
 10
-215.5294036865234
 20
280.1179504394531
 30
0.0
 11
-198.5960693359375
 21
280.1179504394531
 31
0.0
  0
LINE
  5
172
330
22
100
AcDbEntity
  8
0
  6
Continuous
 62
     7
100
AcDbLine
 10
-203.9337768554688
 20
296.3679504394531
 30
0.0
 11
-203.9337768554688
 21
274.6979370117188
 31
0.0
  0
LINE
  5
173
330
22
100
AcDbEntity
  8
0
  6
Continuous
 62
     7
100
AcDbLine
 10
-206.9337768554688
 20
282.3679504394531
 30
0.0
 11
-207.9837646484375
 21
282.3679504394531
 31
0.0
  0
LINE
  5
174
330
22
100
AcDbEntity
  8
0
  6
Continuous
 62
     7
100
AcDbLine
 10
-209.9337768554689
 20
284.3179321289063
 30
0.0
 11
-207.7337646484375
 21
282.1179504394531
 31
0.0
  0
LINE
  5
175
330
22
100
AcDbEntity
  8
0
  6
Continuous
 62
     7
100
AcDbLine
 10
-203.9337768554688
 20
281.7379455566406
 30
0.0
 11
-203.9337768554688
 21
278.4979248046875
 31
0.0
  0
LINE
  5
176
330
22
100
AcDbEntity
  8
0
  6
Continuous
 62
     7
100
AcDbLine
 10
-134.3647766113281
 20
276.231903076172
 30
0.0
 11
-138.9337768554687
 21
276.231903076172
 31
0.0
  0
LINE
  5
177
330
22
100
AcDbEntity
  8
0
  6
Continuous
 62
     7
100
AcDbLine
 10
-132.9337768554688
 20
274.8009033203125
 30
0.0
 11
-134.3647766113281
 21
276.231903076172
 31
0.0
  0
LINE
  5
178
330
22
100
AcDbEntity
  8
0
  6
Continuous
 62
     7
100
AcDbLine
 10
-137.9337768554687
 20
314.1203308105469
 30
0.0
 11
-138.9337768554687
 21
313.1203308105469
 31
0.0
  0
LINE
  5
179
330
22
100
AcDbEntity
  8
0
  6
Continuous
 62
     7
100
AcDbLine
 10
-137.9337768554687
 20
314.1203308105469
 30
0.0
 11
-138.9337768554687
 21
315.1203308105469
 31
0.0
  0
LINE
  5
17A
330
22
100
AcDbEntity
  8
0
  6
Continuous
 62
     7
100
AcDbLine
 10
-137.9337768554687
 20
298.1179504394532
 30
0.0
 11
-138.9337768554687
 21
297.1179504394531
 31
0.0
  0
LINE
  5
17B
330
22
100
AcDbEntity
  8
0
  6
Continuous
 62
     7
100
AcDbLine
 10
-137.9337768554687
 20
298.1179504394532
 30
0.0
 11
-138.9337768554687
 21
299.1179504394531
 31
0.0
  0
LINE
  5
17C
330
22
100
AcDbEntity
  8
0
  6
Continuous
 62
     7
100
AcDbLine
 10
-153.9337768554688
 20
274.6979370117188
 30
0.0
 11
-155.4037780761719
 21
276.1679382324219
 31
0.0
  0
LINE
  5
17D
330
22
100
AcDbEntity
  8
0
  6
Continuous
 62
     7
100
AcDbLine
 10
-134.4337768554688
 20
281.8679504394531
 30
0.0
 11
-100.9337692260742
 21
281.8679504394531
 31
0.0
  0
LINE
  5
17E
330
22
100
AcDbEntity
  8
0
  6
Continuous
 62
     7
100
AcDbLine
 10
-138.9337768554687
 20
285.8679504394531
 30
0.0
 11
-138.9337768554687
 21
328.8679504394531
 31
0.0
  0
LINE
  5
17F
330
22
100
AcDbEntity
  8
0
  6
Continuous
 62
     7
100
AcDbLine
 10
-143.9337768554688
 20
280.8679504394531
 30
0.0
 11
-172.9337768554688
 21
280.8679504394531
 31
0.0
  0
LINE
  5
180
330
22
100
AcDbEntity
  8
0
  6
Continuous
 62
     7
100
AcDbLine
 10
-173.9337768554688
 20
276.1679382324219
 30
0.0
 11
-173.9337768554688
 21
279.8679504394531
 31
0.0
  0
LINE
  5
181
330
22
100
AcDbEntity
  8
0
  6
Continuous
 62
     7
100
AcDbLine
 10
-173.9337768554688
 20
277.3079223632813
 30
0.0
 11
-138.9337768554687
 21
277.3079223632813
 31
0.0
  0
LINE
  5
182
330
22
100
AcDbEntity
  8
0
  6
Continuous
 62
     7
100
AcDbLine
 10
-172.4587707519531
 20
275.8329467773438
 30
0.0
 11
-140.4087677001952
 21
275.8329467773438
 31
0.0
  0
LINE
  5
183
330
22
100
AcDbEntity
  8
0
  6
Continuous
 62
     7
100
AcDbLine
 10
-173.9337768554688
 20
277.3079223632813
 30
0.0
 11
-172.4587707519531
 21
275.8329467773438
 31
0.0
  0
LINE
  5
184
330
22
100
AcDbEntity
  8
0
  6
Continuous
 62
     7
100
AcDbLine
 10
-140.4087677001952
 20
275.8329467773438
 30
0.0
 11
-138.9337768554687
 21
277.3079223632813
 31
0.0
  0
LINE
  5
185
330
22
100
AcDbEntity
  8
0
  6
Continuous
 62
     7
100
AcDbLine
 10
-135.4337768554688
 20
282.8679504394531
 30
0.0
 11
-135.4337768554688
 21
330.3679504394531
 31
0.0
  0
LINE
  5
186
330
22
100
AcDbEntity
  8
0
  6
Continuous
 62
     7
100
AcDbLine
 10
-135.9337768554688
 20
330.8679504394531
 30
0.0
 11
-136.9337768554688
 21
330.8679504394531
 31
0.0
  0
LINE
  5
187
330
22
100
AcDbEntity
  8
0
  6
Continuous
 62
     7
100
AcDbLine
 10
-138.9337768554687
 20
327.3991394042969
 30
0.0
 11
-135.6022796630859
 21
330.7306213378906
 31
0.0
  0
LINE
  5
188
330
22
100
AcDbEntity
  8
0
  6
Continuous
 62
     7
100
AcDbLine
 10
-138.9337768554687
 20
323.156494140625
 30
0.0
 11
-135.4337768554688
 21
326.656494140625
 31
0.0
  0
LINE
  5
189
330
22
100
AcDbEntity
  8
0
  6
Continuous
 62
     7
100
AcDbLine
 10
-138.9337768554687
 20
318.9138488769531
 30
0.0
 11
-135.4337768554688
 21
322.4138488769531
 31
0.0
  0
LINE
  5
18A
330
22
100
AcDbEntity
  8
0
  6
Continuous
 62
     7
100
AcDbLine
 10
-138.7092132568359
 20
314.8957824707031
 30
0.0
 11
-135.4337768554688
 21
318.1712341308594
 31
0.0
  0
LINE
  5
18B
330
22
100
AcDbEntity
  8
0
  6
Continuous
 62
     7
100
AcDbLine
 10
-173.9337768554688
 20
279.6712341308595
 30
0.0
 11
-172.737060546875
 21
280.8679504394531
 31
0.0
  0
LINE
  5
18C
330
22
100
AcDbEntity
  8
0
  6
Continuous
 62
     7
100
AcDbLine
 10
-138.9337768554687
 20
310.4285888671875
 30
0.0
 11
-135.4337768554688
 21
313.9285888671875
 31
0.0
  0
LINE
  5
18D
330
22
100
AcDbEntity
  8
0
  6
Continuous
 62
     7
100
AcDbLine
 10
-172.0544128417969
 20
277.3079223632813
 30
0.0
 11
-168.4944152832031
 21
280.8679504394531
 31
0.0
  0
LINE
  5
18E
330
22
100
AcDbEntity
  8
0
  6
Continuous
 62
     7
100
AcDbLine
 10
-138.9337768554687
 20
306.1859436035156
 30
0.0
 11
-135.4337768554688
 21
309.6859436035156
 31
0.0
  0
LINE
  5
18F
330
22
100
AcDbEntity
  8
0
  6
Continuous
 62
     7
100
AcDbLine
 10
-167.811767578125
 20
277.3079223632813
 30
0.0
 11
-164.2517700195313
 21
280.8679504394531
 31
0.0
  0
LINE
  5
190
330
22
100
AcDbEntity
  8
0
  6
Continuous
 62
     7
100
AcDbLine
 10
-138.9337768554687
 20
301.9432983398438
 30
0.0
 11
-135.4337768554688
 21
305.4432983398438
 31
0.0
  0
LINE
  5
191
330
22
100
AcDbEntity
  8
0
  6
Continuous
 62
     7
100
AcDbLine
 10
-163.5691375732422
 20
277.3079223632813
 30
0.0
 11
-160.0091247558594
 21
280.8679504394531
 31
0.0
  0
LINE
  5
192
330
22
100
AcDbEntity
  8
0
  6
Continuous
 62
     7
100
AcDbLine
 10
-138.2251281738281
 20
298.4093017578125
 30
0.0
 11
-135.4337768554688
 21
301.2006530761719
 31
0.0
  0
LINE
  5
193
330
22
100
AcDbEntity
  8
0
  6
Continuous
 62
     7
100
AcDbLine
 10
-159.3264923095703
 20
277.3079223632813
 30
0.0
 11
-155.7664947509766
 21
280.8679504394531
 31
0.0
  0
LINE
  5
194
330
22
100
AcDbEntity
  8
0
  6
Continuous
 62
     7
100
AcDbLine
 10
-138.9337768554687
 20
293.4580078125
 30
0.0
 11
-135.4337768554688
 21
296.9580078125
 31
0.0
  0
LINE
  5
195
330
22
100
AcDbEntity
  8
0
  6
Continuous
 62
     7
100
AcDbLine
 10
-155.0838470458984
 20
277.3079223632813
 30
0.0
 11
-151.5238494873047
 21
280.8679504394531
 31
0.0
  0
LINE
  5
196
330
22
100
AcDbEntity
  8
0
  6
Continuous
 62
     7
100
AcDbLine
 10
-138.9337768554687
 20
289.2153625488281
 30
0.0
 11
-135.4337768554688
 21
292.7153625488281
 31
0.0
  0
LINE
  5
197
330
22
100
AcDbEntity
  8
0
  6
Continuous
 62
     7
100
AcDbLine
 10
-150.8412170410156
 20
277.3079223632813
 30
0.0
 11
-147.2812042236328
 21
280.8679504394531
 31
0.0
  0
LINE
  5
198
330
22
100
AcDbEntity
  8
0
  6
Continuous
 62
     7
100
AcDbLine
 10
-139.0367279052734
 20
284.8697814941406
 30
0.0
 11
-135.4337768554688
 21
288.4727478027344
 31
0.0
  0
LINE
  5
199
330
22
100
AcDbEntity
  8
0
  6
Continuous
 62
     7
100
AcDbLine
 10
-146.5985717773438
 20
277.3079223632813
 30
0.0
 11
-142.9356079101563
 21
280.9708862304688
 31
0.0
  0
LINE
  5
19A
330
22
100
AcDbEntity
  8
0
  6
Continuous
 62
     7
100
AcDbLine
 10
-142.3559265136719
 20
277.3079223632813
 30
0.0
 11
-135.4337768554688
 21
284.2301025390625
 31
0.0
  0
LINE
  5
19B
330
22
100
AcDbEntity
  8
0
  6
Continuous
 62
     7
100
AcDbLine
 10
-138.2696838378906
 20
277.1515502929688
 30
0.0
 11
-133.5532836914063
 21
281.8679504394531
 31
0.0
  0
LINE
  5
19C
330
22
100
AcDbEntity
  8
0
  6
Continuous
 62
     7
100
AcDbLine
 10
-134.8357543945313
 20
276.3428344726563
 30
0.0
 11
-129.3106536865234
 21
281.8679504394531
 31
0.0
  0
LINE
  5
19D
330
22
100
AcDbEntity
  8
0
  6
Continuous
 62
     7
100
AcDbLine
 10
-130.5859375
 20
276.3500061035156
 30
0.0
 11
-125.0680084228516
 21
281.8679504394531
 31
0.0
  0
LINE
  5
19E
330
22
100
AcDbEntity
  8
0
  6
Continuous
 62
     7
100
AcDbLine
 10
-126.206428527832
 20
276.4868774414063
 30
0.0
 11
-120.8253631591797
 21
281.8679504394531
 31
0.0
  0
LINE
  5
19F
330
22
100
AcDbEntity
  8
0
  6
Continuous
 62
     7
100
AcDbLine
 10
-121.8269195556641
 20
276.6237487792969
 30
0.0
 11
-116.5827255249023
 21
281.8679504394531
 31
0.0
  0
LINE
  5
1A0
330
22
100
AcDbEntity
  8
0
  6
Continuous
 62
     7
100
AcDbLine
 10
-117.4474105834961
 20
276.7606201171875
 30
0.0
 11
-112.340087890625
 21
281.8679504394531
 31
0.0
  0
LINE
  5
1A1
330
22
100
AcDbEntity
  8
0
  6
Continuous
 62
     7
100
AcDbLine
 10
-113.0679092407227
 20
276.8974609375
 30
0.0
 11
-108.0974426269531
 21
281.8679504394531
 31
0.0
  0
LINE
  5
1A2
330
22
100
AcDbEntity
  8
0
  6
Continuous
 62
     7
100
AcDbLine
 10
-108.6884002685547
 20
277.0343322753906
 30
0.0
 11
-103.8548049926758
 21
281.8679504394531
 31
0.0
  0
LINE
  5
1A3
330
22
100
AcDbEntity
  8
0
  6
Continuous
 62
     7
100
AcDbLine
 10
-104.3088912963867
 20
277.1712036132813
 30
0.0
 11
-100.0978469848633
 21
281.3822631835938
 31
0.0
  0
LINE
  5
1A4
330
22
100
AcDbEntity
  8
0
  6
Continuous
 62
     7
100
AcDbLine
 10
-135.9337768554688
 20
135.8679351806641
 30
0.0
 11
-136.9337768554688
 21
135.8679351806641
 31
0.0
  0
LINE
  5
1A5
330
22
100
AcDbEntity
  8
0
  6
Continuous
 62
     7
100
AcDbLine
 10
-203.9337768554688
 20
192.0379333496094
 30
0.0
 11
-201.9337768554688
 21
192.0379333496094
 31
0.0
  0
LINE
  5
1A6
330
22
100
AcDbEntity
  8
0
  6
Continuous
 62
     7
100
AcDbLine
 10
-201.9337768554688
 20
192.0379333496094
 30
0.0
 11
-200.4637756347656
 21
190.5679321289063
 31
0.0
  0
LINE
  5
1A7
330
22
100
AcDbEntity
  8
0
  6
Continuous
 62
     7
100
AcDbLine
 10
-203.9337768554688
 20
170.3679351806641
 30
0.0
 11
-205.9337768554688
 21
170.3679351806641
 31
0.0
  0
LINE
  5
1A8
330
22
100
AcDbEntity
  8
0
  6
Continuous
 62
     7
100
AcDbLine
 10
-205.9337768554688
 20
170.3679351806641
 30
0.0
 11
-209.9337768554689
 21
177.3679351806641
 31
0.0
  0
LINE
  5
1A9
330
22
100
AcDbEntity
  8
0
  6
Continuous
 62
     7
100
AcDbLine
 10
-173.9337768554688
 20
190.5679321289063
 30
0.0
 11
-200.4637756347656
 21
190.5679321289063
 31
0.0
  0
LINE
  5
1AA
330
22
100
AcDbEntity
  8
0
  6
Continuous
 62
     7
100
AcDbLine
 10
-201.9337768554688
 20
192.0379333496094
 30
0.0
 11
-173.9337768554688
 21
192.0379333496094
 31
0.0
  0
LINE
  5
1AB
330
22
100
AcDbEntity
  8
0
  6
Continuous
 62
     7
100
AcDbLine
 10
-138.9337768554687
 20
180.8679351806641
 30
0.0
 11
-138.9337768554687
 21
233.3679351806641
 31
0.0
  0
LINE
  5
1AC
330
22
100
AcDbEntity
  8
0
  6
Continuous
 62
     7
100
AcDbLine
 10
-173.9337768554688
 20
186.8679351806641
 30
0.0
 11
-173.9337768554688
 21
233.3679351806641
 31
0.0
  0
LINE
  5
1AD
330
22
100
AcDbEntity
  8
0
  6
Continuous
 62
     7
100
AcDbLine
 10
-135.4337768554688
 20
183.8679351806641
 30
0.0
 11
-135.4337768554688
 21
233.3679351806641
 31
0.0
  0
LINE
  5
1AE
330
22
100
AcDbEntity
  8
0
  6
Continuous
 62
     7
100
AcDbLine
 10
-203.9337768554688
 20
233.3679351806641
 30
0.0
 11
-203.9337768554688
 21
170.3679351806641
 31
0.0
  0
LINE
  5
1AF
330
22
100
AcDbEntity
  8
0
  6
Continuous
 62
     7
100
AcDbLine
 10
-205.9337768554688
 20
172.5960235595703
 30
0.0
 11
-205.9337768554688
 21
233.3679351806641
 31
0.0
  0
LINE
  5
1B0
330
22
100
AcDbEntity
  8
0
  6
Continuous
 62
     7
100
AcDbLine
 10
-201.9337768554688
 20
192.0379333496094
 30
0.0
 11
-201.9337768554688
 21
233.3679351806641
 31
0.0
  0
LINE
  5
1B1
330
22
100
AcDbEntity
  8
0
  6
Continuous
 62
     7
100
AcDbLine
 10
-138.9337768554687
 20
328.8679504394531
 30
0.0
 11
-138.9337768554687
 21
318.5347595214844
 31
0.0
  0
LINE
  5
1B2
330
22
100
AcDbEntity
  8
0
  6
Continuous
 62
     7
100
AcDbLine
 10
-99.93376922607422
 20
277.3079223632813
 30
0.0
 11
-134.3647766113281
 21
276.231903076172
 31
0.0
  0
LINE
  5
1B3
330
22
100
AcDbEntity
  8
0
  6
Continuous
 62
     7
100
AcDbLine
 10
-132.9337768554688
 20
274.8009033203125
 30
0.0
 11
-101.4570999145508
 21
275.7846069335938
 31
0.0
  0
LINE
  5
1B4
330
22
100
AcDbEntity
  8
0
  6
Continuous
 62
     7
100
AcDbLine
 10
-99.93376922607422
 20
277.3079223632813
 30
0.0
 11
-101.4570999145508
 21
275.7846069335938
 31
0.0
  0
LINE
  5
1B5
330
22
100
AcDbEntity
  8
0
  6
Continuous
 62
     7
100
AcDbLine
 10
-135.4337768554688
 20
167.8679351806641
 30
0.0
 11
-135.4337768554688
 21
150.6737365722656
 31
0.0
  0
LINE
  5
1B6
330
22
100
AcDbEntity
  8
0
  6
Continuous
 62
     7
100
AcDbLine
 10
-134.4337768554688
 20
184.8679351806641
 30
0.0
 11
-100.9337692260742
 21
184.8679351806641
 31
0.0
  0
LINE
  5
1B7
330
22
100
AcDbEntity
  8
0
  6
Continuous
 62
     7
100
AcDbLine
 10
-138.9337768554687
 20
137.8679351806641
 30
0.0
 11
-138.9337768554687
 21
180.8679351806641
 31
0.0
  0
LINE
  5
1B8
330
22
100
AcDbEntity
  8
0
  6
Continuous
 62
     7
100
AcDbLine
 10
-135.4337768554688
 20
136.3679351806641
 30
0.0
 11
-135.4337768554688
 21
179.8679351806641
 31
0.0
  0
LINE
  5
1B9
330
22
100
AcDbEntity
  8
0
  6
Continuous
 62
     7
100
AcDbLine
 10
-135.4337768554688
 20
179.8679351806641
 30
0.0
 11
-135.4337768554688
 21
183.8679351806641
 31
0.0
  0
LINE
  5
1BA
330
22
100
AcDbEntity
  8
0
  6
Continuous
 62
     7
100
AcDbLine
 10
-135.4337768554688
 20
167.8679351806641
 30
0.0
 11
-133.9571838378906
 21
167.8679351806641
 31
0.0
  0
LINE
  5
1BB
330
22
100
AcDbEntity
  8
0
  6
Continuous
 62
     7
100
AcDbLine
 10
-115.4337692260742
 20
184.8679351806641
 30
0.0
 11
-115.4337692260742
 21
182.8679351806641
 31
0.0
  0
LINE
  5
1BC
330
22
100
AcDbEntity
  8
0
  6
Continuous
 62
     7
100
AcDbLine
 10
-117.4337692260742
 20
180.8679351806641
 30
0.0
 11
-118.4337692260742
 21
180.8679351806641
 31
0.0
  0
LINE
  5
1BD
330
22
100
AcDbEntity
  8
0
  6
Continuous
 62
     7
100
AcDbLine
 10
-143.9337768554688
 20
185.8679351806641
 30
0.0
 11
-172.9337768554688
 21
185.8679351806641
 31
0.0
  0
LINE
  5
1BE
330
22
100
AcDbEntity
  8
0
  6
Continuous
 62
     7
100
AcDbLine
 10
-209.9337768554689
 20
289.3679504394531
 30
0.0
 11
-209.9337768554689
 21
177.3679351806641
 31
0.0
  0
LINE
  5
1BF
330
22
100
AcDbEntity
  8
0
  6
Continuous
 62
     7
100
AcDbLine
 10
-101.4570999145508
 20
275.7846069335938
 30
0.0
 11
-101.4570999145508
 21
233.3679351806641
 31
0.0
  0
LINE
  5
1C0
330
22
100
AcDbEntity
  8
0
  6
Continuous
 62
     7
100
AcDbLine
 10
-138.9337768554687
 20
277.3079223632813
 30
0.0
 11
-138.9337768554687
 21
233.3679351806641
 31
0.0
  0
LINE
  5
1C1
330
22
100
AcDbEntity
  8
0
  6
Continuous
 62
     7
100
AcDbLine
 10
-140.4087677001952
 20
233.3679351806641
 30
0.0
 11
-140.4087677001952
 21
275.8329467773438
 31
0.0
  0
LINE
  5
1C2
330
22
100
AcDbEntity
  8
0
  6
Continuous
 62
     7
100
AcDbLine
 10
-153.9337768554688
 20
274.6979370117188
 30
0.0
 11
-153.9337768554688
 21
233.3679351806641
 31
0.0
  0
LINE
  5
1C3
330
22
100
AcDbEntity
  8
0
  6
Continuous
 62
     7
100
AcDbLine
 10
-134.3647766113281
 20
276.231903076172
 30
0.0
 11
-134.3647766113281
 21
233.3679351806641
 31
0.0
  0
LINE
  5
1C4
330
22
100
AcDbEntity
  8
0
  6
Continuous
 62
     7
100
AcDbLine
 10
-132.9337768554688
 20
274.8009033203125
 30
0.0
 11
-132.9337768554688
 21
233.3679351806641
 31
0.0
  0
LINE
  5
1C5
330
22
100
AcDbEntity
  8
0
  6
Continuous
 62
     7
100
AcDbLine
 10
-206.9337768554688
 20
278.1179504394531
 30
0.0
 11
-206.9337768554688
 21
233.3679351806641
 31
0.0
  0
LINE
  5
1C6
330
22
100
AcDbEntity
  8
0
  6
Continuous
 62
     7
100
AcDbLine
 10
-209.8096313476563
 20
284.1937866210938
 30
0.0
 11
-206.9337768554688
 21
287.0696411132813
 31
0.0
  0
LINE
  5
1C7
330
22
100
AcDbEntity
  8
0
  6
Continuous
 62
     7
100
AcDbLine
 10
-207.3928527832031
 20
282.3679504394531
 30
0.0
 11
-206.9337768554688
 21
282.8270263671875
 31
0.0
  0
LINE
  5
1C8
330
22
100
AcDbEntity
  8
0
  6
Continuous
 62
     7
100
AcDbLine
 10
-209.9337768554689
 20
275.5843811035155
 30
0.0
 11
-207.6502075195314
 21
277.8679504394531
 31
0.0
  0
LINE
  5
1C9
330
22
100
AcDbEntity
  8
0
  6
Continuous
 62
     7
100
AcDbLine
 10
-209.9337768554689
 20
262.8564453125
 30
0.0
 11
-206.9337768554688
 21
265.8564453125
 31
0.0
  0
LINE
  5
1CA
330
22
100
AcDbEntity
  8
0
  6
Continuous
 62
     7
100
AcDbLine
 10
-209.9337768554689
 20
254.3711700439453
 30
0.0
 11
-207.93701171875
 21
256.3679504394531
 31
0.0
  0
LINE
  5
1CB
330
22
100
AcDbEntity
  8
0
  6
Continuous
 62
     7
100
AcDbLine
 10
-207.6943664550781
 20
252.3679351806641
 30
0.0
 11
-206.9337768554688
 21
253.1285247802734
 31
0.0
  0
LINE
  5
1CC
330
22
100
AcDbEntity
  8
0
  6
Continuous
 62
     7
100
AcDbLine
 10
-209.9337768554689
 20
245.8858947753906
 30
0.0
 11
-209.4517211914063
 21
246.3679351806641
 31
0.0
  0
LINE
  5
1CD
330
22
100
AcDbEntity
  8
0
  6
Continuous
 62
     7
100
AcDbLine
 10
-209.9337768554689
 20
241.6432495117188
 30
0.0
 11
-206.9337768554688
 21
244.6432495117188
 31
0.0
  0
LINE
  5
1CE
330
22
100
AcDbEntity
  8
0
  6
Continuous
 62
     7
100
AcDbLine
 10
-209.9337768554689
 20
237.4006042480469
 30
0.0
 11
-206.9337768554688
 21
240.4006042480469
 31
0.0
  0
LINE
  5
1CF
330
22
100
AcDbEntity
  8
0
  6
Continuous
 62
     7
100
AcDbLine
 10
-209.7238006591797
 20
233.3679351806641
 30
0.0
 11
-206.9337768554688
 21
236.1579742431641
 31
0.0
  0
LINE
  5
1D0
330
22
100
AcDbEntity
  8
0
  6
Continuous
 62
     7
100
AcDbLine
 10
-209.9337768554689
 20
286.1909790039063
 30
0.0
 11
-208.7568054199219
 21
287.3679504394531
 31
0.0
  0
LINE
  5
1D1
330
22
100
AcDbEntity
  8
0
  6
Continuous
 62
     7
100
AcDbLine
 10
-208.7489776611328
 20
283.1331481933594
 30
0.0
 11
-206.9337768554688
 21
284.9483337402343
 31
0.0
  0
LINE
  5
1D2
330
22
100
AcDbEntity
  8
0
  6
Continuous
 62
     7
100
AcDbLine
 10
-208.0288848876953
 20
275.3679504394531
 30
0.0
 11
-206.9337768554688
 21
276.4630432128906
 31
0.0
  0
LINE
  5
1D3
330
22
100
AcDbEntity
  8
0
  6
Continuous
 62
     7
100
AcDbLine
 10
-209.9337768554689
 20
264.977783203125
 30
0.0
 11
-208.5436096191406
 21
266.3679504394531
 31
0.0
  0
LINE
  5
1D4
330
22
100
AcDbEntity
  8
0
  6
Continuous
 62
     7
100
AcDbLine
 10
-208.3009643554688
 20
262.3679504394531
 30
0.0
 11
-206.9337768554688
 21
263.7351379394531
 31
0.0
  0
LINE
  5
1D5
330
22
100
AcDbEntity
  8
0
  6
Continuous
 62
     7
100
AcDbLine
 10
-209.8156890869141
 20
252.3679351806641
 30
0.0
 11
-206.9337768554688
 21
255.2498474121094
 31
0.0
  0
LINE
  5
1D6
330
22
100
AcDbEntity
  8
0
  6
Continuous
 62
     7
100
AcDbLine
 10
-209.9337768554689
 20
243.7645721435547
 30
0.0
 11
-207.3303985595703
 21
246.3679351806641
 31
0.0
  0
LINE
  5
1D7
330
22
100
AcDbEntity
  8
0
  6
Continuous
 62
     7
100
AcDbLine
 10
-209.9337768554689
 20
239.5219268798828
 30
0.0
 11
-206.9337768554688
 21
242.5219268798828
 31
0.0
  0
LINE
  5
1D8
330
22
100
AcDbEntity
  8
0
  6
Continuous
 62
     7
100
AcDbLine
 10
-209.9337768554689
 20
235.2792816162109
 30
0.0
 11
-206.9337768554688
 21
238.2792816162109
 31
0.0
  0
LINE
  5
1D9
330
22
100
AcDbEntity
  8
0
  6
Continuous
 62
     7
100
AcDbLine
 10
-207.6024780273438
 20
233.3679351806641
 30
0.0
 11
-206.9337768554688
 21
234.0366516113281
 31
0.0
  0
LINE
  5
1DA
330
22
100
AcDbEntity
  8
0
  6
Continuous
 62
     7
100
AcDbLine
 10
-99.93376922607422
 20
185.8679351806641
 30
0.0
 11
-99.93376922607422
 21
280.8679504394531
 31
0.0
  0
ARC
  5
1DB
330
22
100
AcDbEntity
  8
0
  6
Continuous
 62
     7
100
AcDbCircle
 10
-432.6636047363281
 20
233.3679351806641
 30
0.0
 40
23.0
100
AcDbArc
 50
40.36806420024104
 51
139.6293957991284
  0
ARC
  5
1DC
330
22
100
AcDbEntity
  8
0
  6
Continuous
 62
     7
100
AcDbCircle
 10
-432.6636047363281
 20
233.3679351806641
 30
0.0
 40
19.0
100
AcDbArc
 50
41.15384142016139
 51
138.7866832892765
  0
ARC
  5
1DD
330
22
100
AcDbEntity
  8
0
  6
Continuous
 62
     7
100
AcDbCircle
 10
-432.6636047363281
 20
233.3679351806641
 30
0.0
 40
39.25
100
AcDbArc
 50
34.20883399239183
 51
145.7895598546563
  0
ARC
  5
1DE
330
22
100
AcDbEntity
  8
0
  6
Continuous
 62
     7
100
AcDbCircle
 10
-432.6636047363281
 20
233.3679351806641
 30
0.0
 40
42.0
100
AcDbArc
 50
39.85011710777327
 51
140.1520416888787
  0
ARC
  5
1DF
330
22
100
AcDbEntity
  8
0
  6
Continuous
 62
     7
100
AcDbCircle
 10
-432.6636047363281
 20
233.3679351806641
 30
0.0
 40
29.0
100
AcDbArc
 50
37.18013642814145
 51
142.8186096697699
  0
ARC
  5
1E0
330
22
100
AcDbEntity
  8
0
  6
Continuous
 62
     7
100
AcDbCircle
 10
-432.6636047363281
 20
233.3679351806641
 30
0.0
 40
33.0
100
AcDbArc
 50
37.386494288422
 51
142.6123717675577
  0
ARC
  5
1E1
330
22
100
AcDbEntity
  8
0
  6
Continuous
 62
     7
100
AcDbCircle
 10
-468.3370971679687
 20
246.4590148925781
 30
0.0
 40
4.0
100
AcDbArc
 50
59.99996028107254
 51
159.8491132412399
  0
ARC
  5
1E2
330
22
100
AcDbEntity
  8
0
  6
Continuous
 62
     7
100
AcDbCircle
 10
-464.9724731445313
 20
246.8258361816406
 30
0.0
 40
2.0
100
AcDbArc
 50
337.3869946392965
 51
60.00006956400067
  0
ARC
  5
1E3
330
22
100
AcDbEntity
  8
0
  6
Continuous
 62
     7
100
AcDbCircle
 10
-461.8370971679688
 20
257.7173461914063
 30
0.0
 40
4.0
100
AcDbArc
 50
140.1512767488568
 51
240.0000695640013
  0
ARC
  5
1E4
330
22
100
AcDbEntity
  8
0
  6
Continuous
 62
     7
100
AcDbCircle
 10
-454.9716796874999
 20
250.2894744873047
 30
0.0
 40
1.0
100
AcDbArc
 50
142.8185119547095
 51
239.9996324279565
  0
CIRCLE
  5
1E5
330
22
100
AcDbEntity
  8
0
  6
Continuous
 62
     7
100
AcDbCircle
 10
-432.6636047363281
 20
280.8679504394531
 30
0.0
 40
4.5
  0
ARC
  5
1E6
330
22
100
AcDbEntity
  8
0
  6
Continuous
 62
     7
100
AcDbCircle
 10
-460.4724731445313
 20
254.6200714111328
 30
0.0
 40
2.0
100
AcDbArc
 50
240.0000695640013
 51
322.6128835427109
  0
CIRCLE
  5
1E7
330
22
100
AcDbEntity
  8
0
  6
Continuous
 62
     7
100
AcDbCircle
 10
-473.7999877929688
 20
209.6180419921875
 30
0.0
 40
4.5
  0
ARC
  5
1E8
330
22
100
AcDbEntity
  8
0
  6
Continuous
 62
     7
100
AcDbCircle
 10
-428.1636047363281
 20
208.7762756347656
 30
0.0
 40
2.0
100
AcDbArc
 50
100.3702187943962
 51
180.0000000000004
  0
ARC
  5
1E9
330
22
100
AcDbEntity
  8
0
  6
Continuous
 62
     7
100
AcDbCircle
 10
-400.3538513183594
 20
246.8253173828125
 30
0.0
 40
2.0
100
AcDbArc
 50
119.9999304359993
 51
202.6133415231008
  0
ARC
  5
1EA
330
22
100
AcDbEntity
  8
0
  6
Continuous
 62
     7
100
AcDbCircle
 10
-396.9891967773438
 20
246.4584808349609
 30
0.0
 40
4.0
100
AcDbArc
 50
20.15109194566967
 51
119.9999304359993
  0
ARC
  5
1EB
330
22
100
AcDbEntity
  8
0
  6
Continuous
 62
     7
100
AcDbCircle
 10
-413.6161499023438
 20
249.5606231689453
 30
0.0
 40
2.0
100
AcDbArc
 50
220.3696324829685
 51
299.9999304360001
  0
ARC
  5
1EC
330
22
100
AcDbEntity
  8
0
  6
Continuous
 62
     7
100
AcDbCircle
 10
-404.8538513183594
 20
254.6195373535156
 30
0.0
 40
2.0
100
AcDbArc
 50
217.3872999862755
 51
300.0001490025784
  0
ARC
  5
1ED
330
22
100
AcDbEntity
  8
0
  6
Continuous
 62
     7
100
AcDbCircle
 10
-403.4891967773438
 20
257.7168273925781
 30
0.0
 40
4.0
100
AcDbArc
 50
299.9999304360001
 51
39.84900335098409
  0
ARC
  5
1EE
330
22
100
AcDbEntity
  8
0
  6
Continuous
 62
     7
100
AcDbCircle
 10
-410.3546447753906
 20
250.2889556884766
 30
0.0
 40
1.0
100
AcDbArc
 50
299.9999304360001
 51
37.1804313585673
  0
ARC
  5
1EF
330
22
100
AcDbEntity
  8
0
  6
Continuous
 62
     7
100
AcDbCircle
 10
-451.7101745605469
 20
249.5611419677734
 30
0.0
 40
2.0
100
AcDbArc
 50
239.9998509974231
 51
319.6307005595019
  0
ARC
  5
1F0
330
22
100
AcDbEntity
  8
0
  6
Continuous
 62
     7
100
AcDbCircle
 10
-415.6222229003906
 20
239.1648101806641
 30
0.0
 40
1.0
100
AcDbArc
 50
18.78799909056676
 51
119.9999304359993
  0
ARC
  5
1F1
330
22
100
AcDbEntity
  8
0
  6
Continuous
 62
     7
100
AcDbCircle
 10
-418.0214843749999
 20
236.6249084472656
 30
0.0
 40
2.0
100
AcDbArc
 50
120.0001490025776
 51
192.5407560251527
  0
ARC
  5
1F2
330
22
100
AcDbEntity
  8
0
  6
Continuous
 62
     7
100
AcDbCircle
 10
-432.6636047363281
 20
233.3679351806641
 30
0.0
 40
13.0
100
AcDbArc
 50
287.4575708761689
 51
12.5406027635318
  0
ARC
  5
1F3
330
22
100
AcDbEntity
  8
0
  6
Continuous
 62
     7
100
AcDbCircle
 10
-426.1636047363281
 20
195.927978515625
 30
0.0
 40
4.0
100
AcDbArc
 50
180.0000000000004
 51
279.8489546929871
  0
ARC
  5
1F4
330
22
100
AcDbEntity
  8
0
  6
Continuous
 62
     7
100
AcDbCircle
 10
-432.6636047363281
 20
233.3679351806641
 30
0.0
 40
19.0
100
AcDbArc
 50
161.2114188852665
 51
258.7876899298667
  0
ARC
  5
1F5
330
22
100
AcDbEntity
  8
0
  6
Continuous
 62
     7
100
AcDbCircle
 10
-432.6636047363281
 20
233.3679351806641
 30
0.0
 40
19.0
100
AcDbArc
 50
281.2122197988166
 51
18.86778360905777
  0
CIRCLE
  5
1F6
330
22
100
AcDbEntity
  8
0
  6
Continuous
 62
     7
100
AcDbCircle
 10
-391.527587890625
 20
209.6178283691406
 30
0.0
 40
4.5
  0
ARC
  5
1F7
330
22
100
AcDbEntity
  8
0
  6
Continuous
 62
     7
100
AcDbCircle
 10
-437.163604736328
 20
219.0588531494141
 30
0.0
 40
2.0
100
AcDbArc
 50
0.0
 51
72.54213578570895
  0
ARC
  5
1F8
330
22
100
AcDbEntity
  8
0
  6
Continuous
 62
     7
100
AcDbCircle
 10
-428.1636047363281
 20
219.0588531494141
 30
0.0
 40
2.0
100
AcDbArc
 50
107.4578642142911
 51
180.0000000000004
  0
ARC
  5
1F9
330
22
100
AcDbEntity
  8
0
  6
Continuous
 62
     7
100
AcDbCircle
 10
-429.1636047363281
 20
215.7114868164063
 30
0.0
 40
1.0
100
AcDbArc
 50
180.0000000000004
 51
281.2113439218734
  0
ARC
  5
1FA
330
22
100
AcDbEntity
  8
0
  6
Continuous
 62
     7
100
AcDbCircle
 10
-436.1636047363281
 20
215.7114868164063
 30
0.0
 40
1.0
100
AcDbArc
 50
258.7869409181199
 51
0.0
  0
ARC
  5
1FB
330
22
100
AcDbEntity
  8
0
  6
Continuous
 62
     7
100
AcDbCircle
 10
-437.163604736328
 20
208.7762756347656
 30
0.0
 40
2.0
100
AcDbArc
 50
0.0
 51
79.63064119096016
  0
ARC
  5
1FC
330
22
100
AcDbEntity
  8
0
  6
Continuous
 62
     7
100
AcDbCircle
 10
-447.3055419921875
 20
236.6258239746094
 30
0.0
 40
2.0
100
AcDbArc
 50
347.4558303738216
 51
60.00006956400067
  0
ARC
  5
1FD
330
22
100
AcDbEntity
  8
0
  6
Continuous
 62
     7
100
AcDbCircle
 10
-449.7040710449218
 20
239.1653289794922
 30
0.0
 40
1.0
100
AcDbArc
 50
60.00006956400067
 51
161.2120009094332
  0
ARC
  5
1FE
330
22
100
AcDbEntity
  8
0
  6
Continuous
 62
     7
100
AcDbCircle
 10
-436.1636047363281
 20
226.1741943359375
 30
0.0
 40
1.0
100
AcDbArc
 50
244.0554522365235
 51
0.0
  0
ARC
  5
1FF
330
22
100
AcDbEntity
  8
0
  6
Continuous
 62
     7
100
AcDbCircle
 10
-429.1636047363281
 20
226.1741943359375
 30
0.0
 40
1.0
100
AcDbArc
 50
180.0000000000004
 51
295.9445477634779
  0
ARC
  5
200
330
22
100
AcDbEntity
  8
0
  6
Continuous
 62
     7
100
AcDbCircle
 10
-432.6636047363281
 20
233.3679351806641
 30
0.0
 40
13.0
100
AcDbArc
 50
167.4558083810714
 51
252.5424291238326
  0
ARC
  5
201
330
22
100
AcDbEntity
  8
0
  6
Continuous
 62
     7
100
AcDbCircle
 10
-436.1636047363281
 20
205.5875549316406
 30
0.0
 40
1.0
100
AcDbArc
 50
262.8192459429492
 51
0.0
  0
ARC
  5
202
330
22
100
AcDbEntity
  8
0
  6
Continuous
 62
     7
100
AcDbCircle
 10
-437.163604736328
 20
198.6584320068359
 30
0.0
 40
2.0
100
AcDbArc
 50
0.0
 51
82.61299350318049
  0
ARC
  5
203
330
22
100
AcDbEntity
  8
0
  6
Continuous
 62
     7
100
AcDbCircle
 10
-439.1636047363281
 20
195.927978515625
 30
0.0
 40
4.0
100
AcDbArc
 50
260.1510453070143
 51
0.0
  0
ARC
  5
204
330
22
100
AcDbEntity
  8
0
  6
Continuous
 62
     7
100
AcDbCircle
 10
-429.1636047363281
 20
205.5875549316406
 30
0.0
 40
1.0
100
AcDbArc
 50
180.0000000000004
 51
277.1807540570523
  0
ARC
  5
205
330
22
100
AcDbEntity
  8
0
  6
Continuous
 62
     7
100
AcDbCircle
 10
-428.1636047363281
 20
198.6584320068359
 30
0.0
 40
2.0
100
AcDbArc
 50
97.38700649681952
 51
180.0000000000004
  0
ARC
  5
206
330
22
100
AcDbEntity
  8
0
  6
Continuous
 62
     7
100
AcDbCircle
 10
-432.6636047363281
 20
233.3679351806641
 30
0.0
 40
29.0
100
AcDbArc
 50
157.1801854732139
 51
262.8192421745687
  0
ARC
  5
207
330
22
100
AcDbEntity
  8
0
  6
Continuous
 62
     7
100
AcDbCircle
 10
-432.6636047363281
 20
233.3679351806641
 30
0.0
 40
23.0
100
AcDbArc
 50
160.3690655801414
 51
259.6302027655081
  0
CIRCLE
  5
208
330
22
100
AcDbEntity
  8
0
  6
Continuous
 62
     7
100
AcDbCircle
 10
-432.6636047363281
 20
233.3679351806641
 30
0.0
 40
79.75
  0
CIRCLE
  5
209
330
22
100
AcDbEntity
  8
0
  6
Continuous
 62
     7
100
AcDbCircle
 10
-432.6636047363281
 20
233.3679351806641
 30
0.0
 40
81.75
  0
CIRCLE
  5
20A
330
22
100
AcDbEntity
  8
0
  6
Continuous
 62
     7
100
AcDbCircle
 10
-432.6636047363281
 20
233.3679351806641
 30
0.0
 40
80.75000000000001
  0
CIRCLE
  5
20B
330
22
100
AcDbEntity
  8
0
  6
Continuous
 62
     7
100
AcDbCircle
 10
-432.6636047363281
 20
233.3679351806641
 30
0.0
 40
63.0
  0
CIRCLE
  5
20C
330
22
100
AcDbEntity
  8
0
  6
Continuous
 62
     7
100
AcDbCircle
 10
-432.6636047363281
 20
233.3679351806641
 30
0.0
 40
54.0
  0
CIRCLE
  5
20D
330
22
100
AcDbEntity
  8
0
  6
Continuous
 62
     7
100
AcDbCircle
 10
-432.6636047363281
 20
233.3679351806641
 30
0.0
 40
54.5
  0
CIRCLE
  5
20E
330
22
100
AcDbEntity
  8
0
  6
Continuous
 62
     7
100
AcDbCircle
 10
-432.6636047363281
 20
233.3679351806641
 30
0.0
 40
54.0
  0
ARC
  5
20F
330
22
100
AcDbEntity
  8
0
  6
Continuous
 62
     7
100
AcDbCircle
 10
-432.6636047363281
 20
233.3679351806641
 30
0.0
 40
23.0
100
AcDbArc
 50
280.3697224532198
 51
19.62956390332252
  0
ARC
  5
210
330
22
100
AcDbEntity
  8
0
  6
Continuous
 62
     7
100
AcDbCircle
 10
-432.6636047363281
 20
233.3679351806641
 30
0.0
 40
29.0
100
AcDbArc
 50
277.1807578254327
 51
22.81868268255698
  0
ARC
  5
211
330
22
100
AcDbEntity
  8
0
  6
Continuous
 62
     7
100
AcDbCircle
 10
-432.6636047363281
 20
233.3679351806641
 30
0.0
 40
33.0
100
AcDbArc
 50
277.3870522303617
 51
22.61246732491692
  0
ARC
  5
212
330
22
100
AcDbEntity
  8
0
  6
Continuous
 62
     7
100
AcDbCircle
 10
-432.6636047363281
 20
233.3679351806641
 30
0.0
 40
39.25
100
AcDbArc
 50
274.2096103830791
 51
25.78991519028363
  0
ARC
  5
213
330
22
100
AcDbEntity
  8
0
  6
Continuous
 62
     7
100
AcDbCircle
 10
-432.6636047363281
 20
233.3679351806641
 30
0.0
 40
42.0
100
AcDbArc
 50
279.8490189262565
 51
20.15204374295274
  0
ARC
  5
214
330
22
100
AcDbEntity
  8
0
  6
Continuous
 62
     7
100
AcDbCircle
 10
-406.8546447753906
 20
244.2267761230469
 30
0.0
 40
1.0
100
AcDbArc
 50
22.81919334309472
 51
119.9999304359993
  0
ARC
  5
215
330
22
100
AcDbEntity
  8
0
  6
Continuous
 62
     7
100
AcDbCircle
 10
-409.1161499023438
 20
241.7663879394531
 30
0.0
 40
2.0
100
AcDbArc
 50
119.9999304359993
 51
199.6300650186631
  0
ARC
  5
216
330
22
100
AcDbEntity
  8
0
  6
Continuous
 62
     7
100
AcDbCircle
 10
-442.8052978515625
 20
244.419921875
 30
0.0
 40
2.0
100
AcDbArc
 50
240.0000695640013
 51
312.5406831936007
  0
ARC
  5
217
330
22
100
AcDbEntity
  8
0
  6
Continuous
 62
     7
100
AcDbCircle
 10
-446.2040710449218
 20
245.2275085449219
 30
0.0
 40
1.0
100
AcDbArc
 50
138.7885794140195
 51
240.0000695640013
  0
ARC
  5
218
330
22
100
AcDbEntity
  8
0
  6
Continuous
 62
     7
100
AcDbCircle
 10
-436.1636047363281
 20
240.5616912841797
 30
0.0
 40
1.0
100
AcDbArc
 50
0.0
 51
115.9445477634773
  0
ARC
  5
219
330
22
100
AcDbEntity
  8
0
  6
Continuous
 62
     7
100
AcDbCircle
 10
-432.6636047363281
 20
233.3679351806641
 30
0.0
 40
9.0
100
AcDbArc
 50
115.9444627654121
 51
244.0554947356208
  0
ARC
  5
21A
330
22
100
AcDbEntity
  8
0
  6
Continuous
 62
     7
100
AcDbCircle
 10
-429.1636047363281
 20
240.5616912841797
 30
0.0
 40
1.0
100
AcDbArc
 50
64.05545223652274
 51
180.0000000000004
  0
ARC
  5
21B
330
22
100
AcDbEntity
  8
0
  6
Continuous
 62
     7
100
AcDbCircle
 10
-456.2101745605469
 20
241.7669219970703
 30
0.0
 40
2.0
100
AcDbArc
 50
340.3695232549499
 51
59.99985099742237
  0
ARC
  5
21C
330
22
100
AcDbEntity
  8
0
  6
Continuous
 62
     7
100
AcDbCircle
 10
-458.4716796875
 20
244.2273101806641
 30
0.0
 40
1.0
100
AcDbArc
 50
59.99963242795577
 51
157.1809343750117
  0
ARC
  5
21D
330
22
100
AcDbEntity
  8
0
  6
Continuous
 62
     7
100
AcDbCircle
 10
-422.5212097167968
 20
244.4192810058594
 30
0.0
 40
2.0
100
AcDbArc
 50
227.4556110421906
 51
299.9999304360001
  0
ARC
  5
21E
330
22
100
AcDbEntity
  8
0
  6
Continuous
 62
     7
100
AcDbCircle
 10
-432.6636047363281
 20
233.3679351806641
 30
0.0
 40
9.0
100
AcDbArc
 50
295.9445052643806
 51
64.05553723458786
  0
ARC
  5
21F
330
22
100
AcDbEntity
  8
0
  6
Continuous
 62
     7
100
AcDbCircle
 10
-432.6636047363281
 20
233.3679351806641
 30
0.0
 40
13.0
100
AcDbArc
 50
47.45580515710557
 51
132.5405759306285
  0
ARC
  5
220
330
22
100
AcDbEntity
  8
0
  6
Continuous
 62
     7
100
AcDbCircle
 10
-419.1222229003906
 20
245.2269897460938
 30
0.0
 40
1.0
100
AcDbArc
 50
299.9999304360001
 51
41.2125726038974
  0
CIRCLE
  5
221
330
22
100
AcDbEntity
  8
0
  6
Continuous
 62
     7
100
AcDbCircle
 10
-432.6636047363281
 20
233.3679351806641
 30
0.0
 40
97.5
  0
ARC
  5
222
330
22
100
AcDbEntity
  8
0
  6
Continuous
 62
     7
100
AcDbCircle
 10
-432.6636047363281
 20
233.3679351806641
 30
0.0
 40
39.25
100
AcDbArc
 50
154.2091683148475
 51
265.7903451886064
  0
ARC
  5
223
330
22
100
AcDbEntity
  8
0
  6
Continuous
 62
     7
100
AcDbCircle
 10
-432.6636047363281
 20
233.3679351806641
 30
0.0
 40
42.0
100
AcDbArc
 50
159.8501099499051
 51
260.150981073745
  0
ARC
  5
224
330
22
100
AcDbEntity
  8
0
  6
Continuous
 62
     7
100
AcDbCircle
 10
-432.6636047363281
 20
233.3679351806641
 30
0.0
 40
33.0
100
AcDbArc
 50
157.3865585523614
 51
262.6129477696398
  0
ARC
  5
225
330
22
100
AcDbEntity
  8
0
  6
Continuous
 62
     7
100
AcDbCircle
 10
-100.9337692260742
 20
280.8679504394531
 30
0.0
 40
1.0
100
AcDbArc
 50
0.0
 51
90.00000000000019
  0
ARC
  5
226
330
22
100
AcDbEntity
  8
0
  6
Continuous
 62
     7
100
AcDbCircle
 10
-172.9337768554688
 20
279.8679504394531
 30
0.0
 40
1.0
100
AcDbArc
 50
90.00000000000019
 51
180.0000000000004
  0
ARC
  5
227
330
22
100
AcDbEntity
  8
0
  6
Continuous
 62
     7
100
AcDbCircle
 10
-143.9337768554688
 20
285.8679504394531
 30
0.0
 40
5.0
100
AcDbArc
 50
270.0000000000005
 51
0.0
  0
ARC
  5
228
330
22
100
AcDbEntity
  8
0
  6
Continuous
 62
     7
100
AcDbCircle
 10
-134.4337768554688
 20
282.8679504394531
 30
0.0
 40
1.0
100
AcDbArc
 50
180.0000000000004
 51
270.0000000000005
  0
ARC
  5
229
330
22
100
AcDbEntity
  8
0
  6
Continuous
 62
     7
100
AcDbCircle
 10
-135.9337768554688
 20
330.3679504394531
 30
0.0
 40
0.5
100
AcDbArc
 50
0.0
 51
90.00000000000019
  0
ARC
  5
22A
330
22
100
AcDbEntity
  8
0
  6
Continuous
 62
     7
100
AcDbCircle
 10
-136.9337768554688
 20
328.8679504394531
 30
0.0
 40
2.0
100
AcDbArc
 50
90.00000000000019
 51
180.0000000000004
  0
ARC
  5
22B
330
22
100
AcDbEntity
  8
0
  6
Continuous
 62
     7
100
AcDbCircle
 10
-134.4337768554688
 20
183.8679351806641
 30
0.0
 40
1.0
100
AcDbArc
 50
90.00000000000019
 51
180.0000000000004
  0
ARC
  5
22C
330
22
100
AcDbEntity
  8
0
  6
Continuous
 62
     7
100
AcDbCircle
 10
-136.9337768554688
 20
137.8679351806641
 30
0.0
 40
2.0
100
AcDbArc
 50
180.0000000000004
 51
270.0000000000005
  0
ARC
  5
22D
330
22
100
AcDbEntity
  8
0
  6
Continuous
 62
     7
100
AcDbCircle
 10
-100.9337692260742
 20
185.8679351806641
 30
0.0
 40
1.0
100
AcDbArc
 50
270.0000000000005
 51
0.0
  0
ARC
  5
22E
330
22
100
AcDbEntity
  8
0
  6
Continuous
 62
     7
100
AcDbCircle
 10
-135.9337768554688
 20
136.3679351806641
 30
0.0
 40
0.5
100
AcDbArc
 50
270.0000000000005
 51
0.0
  0
ARC
  5
22F
330
22
100
AcDbEntity
  8
0
  6
Continuous
 62
     7
100
AcDbCircle
 10
-115.8634948730469
 20
164.0697784423828
 30
0.0
 40
17.0
100
AcDbArc
 50
98.69604263790776
 51
162.2318549080127
  0
ARC
  5
230
330
22
100
AcDbEntity
  8
0
  6
Continuous
 62
     7
100
AcDbCircle
 10
-117.4337692260742
 20
182.8679351806641
 30
0.0
 40
2.0
100
AcDbArc
 50
270.0000000000005
 51
0.0
  0
ARC
  5
231
330
22
100
AcDbEntity
  8
0
  6
Continuous
 62
     7
100
AcDbCircle
 10
-172.9337768554688
 20
186.8679351806641
 30
0.0
 40
1.0
100
AcDbArc
 50
180.0000000000004
 51
270.0000000000005
  0
ARC
  5
232
330
22
100
AcDbEntity
  8
0
  6
Continuous
 62
     7
100
AcDbCircle
 10
-143.9337768554688
 20
180.8679351806641
 30
0.0
 40
5.0
100
AcDbArc
 50
0.0
 51
90.00000000000019
  0
ARC
  5
233
330
22
100
AcDbEntity
  8
0
  6
Continuous
 62
     7
100
AcDbCircle
 10
-133.9571838378906
 20
169.8679351806641
 30
0.0
 40
2.0
100
AcDbArc
 50
270.0000000000005
 51
342.2317638604965
  0
TEXT
  5
234
330
22
100
AcDbEntity
  8
0
  6
Continuous
 62
     7
100
AcDbText
 10
-346.4677057266235
 20
111.0502014160156
 30
0.0
 40
7.0
  1
DL-T4-80
 41
1.020882425188017
100
AcDbText
  0
DIMENSION
  5
235
330
22
100
AcDbEntity
  8
0
  6
Continuous
 62
     7
100
AcDbDimension
  2
*D1
 10
-482.4603244663391
 20
194.7766576152512
 30
0.0
 11
-338.2728576660156
 21
306.5185241699219
 31
0.0
 70
     3
 71
     5
 42
-1.0
  3
DIMSTYLE1
100
AcDbDiametricDimension
 15
-382.8668850063172
 25
271.9592127460769
 35
0.0
 40
0.0
  0
DIMENSION
  5
236
330
22
100
AcDbEntity
  8
0
  6
Continuous
 62
     7
100
AcDbDimension
  2
*D2
 10
-106.1493835449219
 20
167.8679351806641
 30
0.0
 11
-106.1493835449219
 21
176.3679351806641
 31
0.0
 71
     5
 42
-1.0
  3
DIMSTYLE2
100
AcDbAlignedDimension
 13
-100.9337692260742
 23
184.8679351806641
 33
0.0
 14
-133.9571838378906
 24
167.8679351806641
 34
0.0
 50
90.0
100
AcDbRotatedDimension
  0
DIMENSION
  5
237
330
22
100
AcDbEntity
  8
0
  6
Continuous
 62
     7
100
AcDbDimension
  2
*D3
 10
-135.4337768554688
 20
356.1220092773438
 30
0.0
 11
-124.640983581543
 21
356.1220092773438
 31
0.0
 71
     5
 42
-1.0
  3
DIMSTYLE3
100
AcDbAlignedDimension
 13
-138.9337768554687
 23
358.4080200195313
 33
0.0
 14
-135.4337768554688
 24
330.3679504394531
 34
0.0
100
AcDbRotatedDimension
  0
DIMENSION
  5
238
330
22
100
AcDbEntity
  8
0
  6
Continuous
 62
     7
100
AcDbDimension
  2
*D4
 10
-486.9389664640775
 20
152.3714222352171
 30
0.0
 11
-366.7081298828125
 21
331.7949829101563
 31
0.0
 70
     3
 71
     5
 42
-1.0
  3
DIMSTYLE4
100
AcDbDiametricDimension
 15
-378.3882430085788
 25
314.364448126111
 35
0.0
 40
0.0
  0
DIMENSION
  5
239
330
22
100
AcDbEntity
  8
0
  6
Continuous
 62
     7
100
AcDbDimension
  2
*D5
 10
-115.4337692260742
 20
156.0791015625
 30
0.0
 11
-125.4337692260742
 21
156.0791015625
 31
0.0
 71
     5
 42
-1.0
  3
DIMSTYLE5
100
AcDbAlignedDimension
 13
-135.4337768554688
 23
136.3679351806641
 33
0.0
 14
-115.4337692260742
 24
182.8679351806641
 34
0.0
100
AcDbRotatedDimension
  0
DIMENSION
  5
23A
330
22
100
AcDbEntity
  8
0
  6
Continuous
 62
     7
100
AcDbDimension
  2
*D6
 10
-173.9337768554688
 20
346.4581298828125
 30
0.0
 11
-156.4337768554688
 21
346.4581298828125
 31
0.0
 71
     5
 42
-1.0
  3
DIMSTYLE6
100
AcDbAlignedDimension
 13
-138.9337768554687
 23
358.4080200195313
 33
0.0
 14
-173.9337768554688
 24
279.8679504394531
 34
0.0
100
AcDbRotatedDimension
  0
DIMENSION
  5
23B
330
22
100
AcDbEntity
  8
0
  6
Continuous
 62
     7
100
AcDbDimension
  2
*D7
 10
-74.20970916748046
 20
281.8679504394531
 30
0.0
 11
-74.20970916748046
 21
233.3679351806641
 31
0.0
 71
     5
 42
-1.0
  3
DIMSTYLE7
100
AcDbAlignedDimension
 13
-100.9337692260742
 23
184.8679351806641
 33
0.0
 14
-100.9337692260742
 24
281.8679504394531
 34
0.0
 50
90.0
100
AcDbRotatedDimension
  0
DIMENSION
  5
23C
330
22
100
AcDbEntity
  8
0
  6
Continuous
 62
     7
100
AcDbDimension
  2
*D8
 10
-153.9337768554688
 20
246.0818176269531
 30
0.0
 11
-181.9337768554688
 21
246.0818176269531
 31
0.0
 71
     5
 42
-1.0
  3
DIMSTYLE8
100
AcDbAlignedDimension
 13
-209.9337768554689
 23
289.3679504394531
 33
0.0
 14
-153.9337768554688
 24
233.3679351806641
 34
0.0
100
AcDbRotatedDimension
  0
INSERT
  5
23D
330
22
100
AcDbEntity
  8
0
  6
Continuous
 62
     7
100
AcDbBlockReference
  2
KOZU0001
 10
-129.7814178466797
 20
181.3503570556641
 30
0.0
  0
DIMENSION
  5
23E
330
22
100
AcDbEntity
  8
0
  6
Continuous
 62
     7
100
AcDbDimension
  2
*D9
 10
-99.93376922607422
 20
114.0203857421875
 30
0.0
 11
-136.9337768554688
 21
114.0203857421875
 31
0.0
 71
     5
 42
-1.0
  3
DIMSTYLE9
100
AcDbAlignedDimension
 13
-173.9337768554688
 23
186.8679351806641
 33
0.0
 14
-99.93376922607422
 24
185.8679351806641
 34
0.0
100
AcDbRotatedDimension
  0
INSERT
  5
23F
330
22
100
AcDbEntity
  8
0
  6
Continuous
 62
     7
100
AcDbBlockReference
  2
KOZU0002
 10
-114.9973297119141
 20
276.8371887207031
 30
0.0
  0
DIMENSION
  5
240
330
22
100
AcDbEntity
  8
0
  6
Continuous
 62
     7
100
AcDbDimension
  2
*D10
 10
-203.9337768554688
 20
356.1220092773438
 30
0.0
 11
-171.4337768554688
 21
356.1220092773438
 31
0.0
 71
     5
 42
-1.0
  3
DIMSTYLE10
100
AcDbAlignedDimension
 13
-138.9337768554687
 23
328.8679504394531
 33
0.0
 14
-203.9337768554688
 24
296.3679504394531
 34
0.0
100
AcDbRotatedDimension
  0
DIMENSION
  5
241
330
22
100
AcDbEntity
  8
0
  6
Continuous
 62
     7
100
AcDbDimension
  2
*D11
 10
-209.9337768554689
 20
356.1220092773438
 30
0.0
 11
-219.4647216796875
 21
356.1220092773438
 31
0.0
 71
     5
 42
-1.0
  3
DIMSTYLE11
100
AcDbAlignedDimension
 13
-203.9337768554688
 23
358.4080200195313
 33
0.0
 14
-209.9337768554689
 24
289.3679504394531
 34
0.0
100
AcDbRotatedDimension
  0
ENDSEC
  0
SECTION
  2
OBJECTS
  0
DICTIONARY
  5
C
330
0
100
AcDbDictionary
281
     1
  3
ACAD_COLOR
350
1B
  3
ACAD_GROUP
350
D
  3
ACAD_LAYOUT
350
19
  3
ACAD_MATERIAL
350
1A
  3
ACAD_MLINESTYLE
350
16
  3
ACAD_PLOTSETTINGS
350
18
  3
ACAD_PLOTSTYLENAME
350
E
  3
ACAD_TABLESTYLE
350
1C
  3
AcDbVariableDictionary
350
25D
  0
DICTIONARY
  5
1B
102
{ACAD_REACTORS
330
C
102
}
330
C
100
AcDbDictionary
281
     1
  0
DICTIONARY
  5
D
102
{ACAD_REACTORS
330
C
102
}
330
C
100
AcDbDictionary
281
     1
  0
DICTIONARY
  5
19
102
{ACAD_REACTORS
330
C
102
}
330
C
100
AcDbDictionary
281
     1
  3
Model
350
25
  3
レイアウト1
350
21
  0
DICTIONARY
  5
1A
102
{ACAD_REACTORS
330
C
102
}
330
C
100
AcDbDictionary
281
     1
  0
DICTIONARY
  5
16
102
{ACAD_REACTORS
330
C
102
}
330
C
100
AcDbDictionary
281
     1
  3
Standard
350
17
  0
DICTIONARY
  5
18
102
{ACAD_REACTORS
330
C
102
}
330
C
100
AcDbDictionary
281
     1
  0
ACDBDICTIONARYWDFLT
  5
E
102
{ACAD_REACTORS
330
C
102
}
330
C
100
AcDbDictionary
281
     1
  3
Normal
350
F
100
AcDbDictionaryWithDefault
340
F
  0
DICTIONARY
  5
1C
102
{ACAD_REACTORS
330
C
102
}
330
C
100
AcDbDictionary
281
     1
  3
Standard
350
1D
  0
DICTIONARY
  5
25D
102
{ACAD_REACTORS
330
C
102
}
330
C
100
AcDbDictionary
281
     1
  3
CTABLESTYLE
350
25E
  0
LAYOUT
  5
25
102
{ACAD_REACTORS
330
19
102
}
330
19
100
AcDbPlotSettings
  1

  2
PDF reDirect v2
  4
User66
  6

 40
3.174999952316284
 41
3.174999952316284
 42
3.17498779296875
 43
3.17498779296875
 44
420.0
 45
594.0
 46
0.0
 47
0.0
 48
0.0
 49
0.0
140
0.0
141
0.0
142
1.0
143
1.0
 70
 11952
 72
     1
 73
     1
 74
     2
  7
C:\Users\ck\AppData\Roaming\Autodesk\AutoCAD 2005\R16.1\jpn\Plot Styles\black.ctb
 75
    16
147
1.0
 76
     0
 77
     2
 78
   300
148
592.0
149
0.0
100
AcDbLayout
  1
Model
 70
     1
 71
     0
 10
0.0
 20
0.0
 11
12.0
 21
9.0
 12
0.0
 22
0.0
 32
0.0
 14
0.0
 24
0.0
 34
0.0
 15
0.0
 25
0.0
 35
0.0
146
0.0
 13
0.0
 23
0.0
 33
0.0
 16
1.0
 26
0.0
 36
0.0
 17
0.0
 27
1.0
 37
0.0
 76
     0
330
22
1001
ACAD_PSEXT
1000
PDF reDirect v2
1000
PDF reDirect Pro
1000
PDF_REDIRECT_PORT:
1000
PDF reDirect provided by EXP Systems
1070
     0
  0
LAYOUT
  5
21
102
{ACAD_REACTORS
330
19
102
}
330
19
100
AcDbPlotSettings
  1

  2
PDF reDirect v2
  4

  6

 40
0.0
 41
0.0
 42
0.0
 43
0.0
 44
0.0
 45
0.0
 46
0.0
 47
0.0
 48
0.0
 49
0.0
140
0.0
141
0.0
142
1.0
143
1.0
 70
   688
 72
     0
 73
     0
 74
     5
  7
C:\Users\ck\AppData\Roaming\Autodesk\AutoCAD 2005\R16.1\jpn\Plot Styles\black.ctb
 75
    16
147
1.0
 76
     0
 77
     2
 78
   300
148
0.0
149
0.0
100
AcDbLayout
  1
レイアウト1
 70
     1
 71
     1
 10
-592.0
 20
0.0
 11
0.0
 21
418.0
 12
0.0
 22
0.0
 32
0.0
 14
1.000000000000000E+20
 24
1.000000000000000E+20
 34
1.000000000000000E+20
 15
-1.000000000000000E+20
 25
-1.000000000000000E+20
 35
-1.000000000000000E+20
146
0.0
 13
0.0
 23
0.0
 33
0.0
 16
1.0
 26
0.0
 36
0.0
 17
0.0
 27
1.0
 37
0.0
 76
     0
330
1E
  0
MLINESTYLE
  5
17
102
{ACAD_REACTORS
330
16
102
}
330
16
100
AcDbMlineStyle
  2
STANDARD
 70
     0
  3

 62
   256
 51
90.0
 52
90.0
 71
     2
 49
0.5
 62
   256
  6
BYLAYER
 49
-0.5
 62
   256
  6
BYLAYER
  0
ACDBPLACEHOLDER
  5
F
102
{ACAD_REACTORS
330
E
102
}
330
E
  0
TABLESTYLE
  5
1D
102
{ACAD_REACTORS
330
1C
102
}
330
1C
100
AcDbTableStyle
  3
Standard
 70
     0
 71
     0
 40
0.06
 41
0.06
280
     0
281
     0
  7
STANDARD
140
0.18
170
     2
 62
     0
 63
     7
283
     0
274
    -2
284
     1
 64
     0
275
    -2
285
     1
 65
     0
276
    -2
286
     1
 66
     0
277
    -2
287
     1
 67
     0
278
    -2
288
     1
 68
     0
279
    -2
289
     1
 69
     0
  7
STANDARD
140
0.25
170
     5
 62
     0
 63
     7
283
     0
274
    -2
284
     1
 64
     0
275
    -2
285
     1
 65
     0
276
    -2
286
     1
 66
     0
277
    -2
287
     1
 67
     0
278
    -2
288
     1
 68
     0
279
    -2
289
     1
 69
     0
  7
STANDARD
140
0.18
170
     5
 62
     0
 63
     7
283
     0
274
    -2
284
     1
 64
     0
275
    -2
285
     1
 65
     0
276
    -2
286
     1
 66
     0
277
    -2
287
     1
 67
     0
278
    -2
288
     1
 68
     0
279
    -2
289
     1
 69
     0
  0
DICTIONARYVAR
  5
25E
102
{ACAD_REACTORS
330
25D
102
}
330
25D
100
DictionaryVariables
280
     0
  1
STANDARD
  0
ENDSEC
  0
EOF
