  0
SECTION
  2
HEADER
  9
$ACADVER
  1
AC1018
  9
$ACADMAINTVER
 70
    39
  9
$DWGCODEPAGE
  3
ANSI_932
  9
$INSBASE
 10
0.0
 20
0.0
 30
0.0
  9
$EXTMIN
 10
-553.3559556079048
 20
13.60464576446065
 30
-0.0015258207003583
  9
$EXTMAX
 10
-74.82202019312172
 20
393.3930063156795
 30
0.0000000349246037
  9
$LIMMIN
 10
-592.0
 20
0.0
  9
$LIMMAX
 10
0.0
 20
418.0
  9
$ORTHOMODE
 70
     0
  9
$REGENMODE
 70
     1
  9
$FILLMODE
 70
     1
  9
$QTEXTMODE
 70
     0
  9
$MIRRTEXT
 70
     0
  9
$LTSCALE
 40
1.0
  9
$ATTMODE
 70
     1
  9
$TEXTSIZE
 40
0.2
  9
$TRACEWID
 40
0.05
  9
$TEXTSTYLE
  7
STANDARD
  9
$CLAYER
  8
0
  9
$CELTYPE
  6
CONTINUOUS
  9
$CECOLOR
 62
   256
  9
$CELTSCALE
 40
1.0
  9
$DISPSILH
 70
     0
  9
$DIMSCALE
 40
1.0
  9
$DIMASZ
 40
1.0
  9
$DIMEXO
 40
2.54
  9
$DIMDLI
 40
0.38
  9
$DIMRND
 40
0.0
  9
$DIMDLE
 40
0.0
  9
$DIMEXE
 40
2.54
  9
$DIMTP
 40
0.0
  9
$DIMTM
 40
0.0
  9
$DIMTXT
 40
3.0
  9
$DIMCEN
 40
0.09
  9
$DIMTSZ
 40
0.0
  9
$DIMTOL
 70
     0
  9
$DIMLIM
 70
     0
  9
$DIMTIH
 70
     0
  9
$DIMTOH
 70
     0
  9
$DIMSE1
 70
     0
  9
$DIMSE2
 70
     0
  9
$DIMTAD
 70
     1
  9
$DIMZIN
 70
     0
  9
$DIMBLK
  1

  9
$DIMASO
 70
     1
  9
$DIMSHO
 70
     0
  9
$DIMPOST
  1

  9
$DIMAPOST
  1

  9
$DIMALT
 70
     0
  9
$DIMALTD
 70
     2
  9
$DIMALTF
 40
25.4
  9
$DIMLFAC
 40
1.0
  9
$DIMTOFL
 70
     0
  9
$DIMTVP
 40
1.0
  9
$DIMTIX
 70
     0
  9
$DIMSOXD
 70
     0
  9
$DIMSAH
 70
     1
  9
$DIMBLK1
  1

  9
$DIMBLK2
  1

  9
$DIMSTYLE
  2
DIMSTYLE1
  9
$DIMCLRD
 70
     0
  9
$DIMCLRE
 70
     0
  9
$DIMCLRT
 70
     0
  9
$DIMTFAC
 40
1.0
  9
$DIMGAP
 40
1.5
  9
$DIMJUST
 70
     0
  9
$DIMSD1
 70
     0
  9
$DIMSD2
 70
     0
  9
$DIMTOLJ
 70
     1
  9
$DIMTZIN
 70
     0
  9
$DIMALTZ
 70
     0
  9
$DIMALTTZ
 70
     0
  9
$DIMUPT
 70
     0
  9
$DIMDEC
 70
     4
  9
$DIMTDEC
 70
     4
  9
$DIMALTU
 70
     2
  9
$DIMALTTD
 70
     2
  9
$DIMTXSTY
  7
STANDARD
  9
$DIMAUNIT
 70
     0
  9
$DIMADEC
 70
     0
  9
$DIMALTRND
 40
0.0
  9
$DIMAZIN
 70
     0
  9
$DIMDSEP
 70
    46
  9
$DIMATFIT
 70
     3
  9
$DIMFRAC
 70
     0
  9
$DIMLDRBLK
  1

  9
$DIMLUNIT
 70
     2
  9
$DIMLWD
 70
    -2
  9
$DIMLWE
 70
    -2
  9
$DIMTMOVE
 70
     0
  9
$LUNITS
 70
     2
  9
$LUPREC
 70
     4
  9
$SKETCHINC
 40
0.1
  9
$FILLETRAD
 40
0.0
  9
$AUNITS
 70
     0
  9
$AUPREC
 70
     0
  9
$MENU
  1
.
  9
$ELEVATION
 40
0.0
  9
$PELEVATION
 40
0.0
  9
$THICKNESS
 40
0.0
  9
$LIMCHECK
 70
     0
  9
$CHAMFERA
 40
0.0
  9
$CHAMFERB
 40
0.0
  9
$CHAMFERC
 40
0.0
  9
$CHAMFERD
 40
0.0
  9
$SKPOLY
 70
     0
  9
$TDCREATE
 40
2457841.599842373
  9
$TDUCREATE
 40
2457841.224842373
  9
$TDUPDATE
 40
2457841.600349352
  9
$TDUUPDATE
 40
2457841.225349352
  9
$TDINDWG
 40
0.0005080208
  9
$TDUSRTIMER
 40
0.0005080208
  9
$USRTIMER
 70
     1
  9
$ANGBASE
 50
0.0
  9
$ANGDIR
 70
     0
  9
$PDMODE
 70
     0
  9
$PDSIZE
 40
0.0
  9
$PLINEWID
 40
0.0
  9
$SPLFRAME
 70
     0
  9
$SPLINETYPE
 70
     6
  9
$SPLINESEGS
 70
     8
  9
$HANDSEED
  5
34F
  9
$SURFTAB1
 70
     6
  9
$SURFTAB2
 70
     6
  9
$SURFTYPE
 70
     6
  9
$SURFU
 70
     6
  9
$SURFV
 70
     6
  9
$UCSBASE
  2

  9
$UCSNAME
  2

  9
$UCSORG
 10
0.0
 20
0.0
 30
0.0
  9
$UCSXDIR
 10
1.0
 20
0.0
 30
0.0
  9
$UCSYDIR
 10
0.0
 20
1.0
 30
0.0
  9
$UCSORTHOREF
  2

  9
$UCSORTHOVIEW
 70
     0
  9
$UCSORGTOP
 10
0.0
 20
0.0
 30
0.0
  9
$UCSORGBOTTOM
 10
0.0
 20
0.0
 30
0.0
  9
$UCSORGLEFT
 10
0.0
 20
0.0
 30
0.0
  9
$UCSORGRIGHT
 10
0.0
 20
0.0
 30
0.0
  9
$UCSORGFRONT
 10
0.0
 20
0.0
 30
0.0
  9
$UCSORGBACK
 10
0.0
 20
0.0
 30
0.0
  9
$PUCSBASE
  2

  9
$PUCSNAME
  2

  9
$PUCSORG
 10
0.0
 20
0.0
 30
0.0
  9
$PUCSXDIR
 10
1.0
 20
0.0
 30
0.0
  9
$PUCSYDIR
 10
0.0
 20
1.0
 30
0.0
  9
$PUCSORTHOREF
  2

  9
$PUCSORTHOVIEW
 70
     0
  9
$PUCSORGTOP
 10
0.0
 20
0.0
 30
0.0
  9
$PUCSORGBOTTOM
 10
0.0
 20
0.0
 30
0.0
  9
$PUCSORGLEFT
 10
0.0
 20
0.0
 30
0.0
  9
$PUCSORGRIGHT
 10
0.0
 20
0.0
 30
0.0
  9
$PUCSORGFRONT
 10
0.0
 20
0.0
 30
0.0
  9
$PUCSORGBACK
 10
0.0
 20
0.0
 30
0.0
  9
$USERI1
 70
     0
  9
$USERI2
 70
     0
  9
$USERI3
 70
     0
  9
$USERI4
 70
     0
  9
$USERI5
 70
     0
  9
$USERR1
 40
0.0
  9
$USERR2
 40
0.0
  9
$USERR3
 40
0.0
  9
$USERR4
 40
0.0
  9
$USERR5
 40
0.0
  9
$WORLDVIEW
 70
     1
  9
$SHADEDGE
 70
     3
  9
$SHADEDIF
 70
    70
  9
$TILEMODE
 70
     1
  9
$MAXACTVP
 70
    64
  9
$PINSBASE
 10
0.0
 20
0.0
 30
0.0
  9
$PLIMCHECK
 70
     0
  9
$PEXTMIN
 10
1.000000000000000E+20
 20
1.000000000000000E+20
 30
1.000000000000000E+20
  9
$PEXTMAX
 10
-1.000000000000000E+20
 20
-1.000000000000000E+20
 30
-1.000000000000000E+20
  9
$PLIMMIN
 10
-592.0
 20
0.0
  9
$PLIMMAX
 10
0.0
 20
418.0
  9
$UNITMODE
 70
     0
  9
$VISRETAIN
 70
     1
  9
$PLINEGEN
 70
     0
  9
$PSLTSCALE
 70
     1
  9
$TREEDEPTH
 70
  3020
  9
$CMLSTYLE
  2
Standard
  9
$CMLJUST
 70
     0
  9
$CMLSCALE
 40
1.0
  9
$PROXYGRAPHICS
 70
     1
  9
$MEASUREMENT
 70
     0
  9
$CELWEIGHT
370
    -1
  9
$ENDCAPS
280
     0
  9
$JOINSTYLE
280
     0
  9
$LWDISPLAY
290
     0
  9
$INSUNITS
 70
     0
  9
$HYPERLINKBASE
  1

  9
$STYLESHEET
  1

  9
$XEDIT
290
     1
  9
$CEPSNTYPE
380
     0
  9
$PSTYLEMODE
290
     1
  9
$FINGERPRINTGUID
  2
{F5E4750D-0586-4423-814B-2F99D9E5CE86}
  9
$VERSIONGUID
  2
{7FE00F4C-2A92-47A3-B8E5-EA9A81EFF972}
  9
$EXTNAMES
290
     1
  9
$PSVPSCALE
 40
0.0
  9
$OLESTARTUP
290
     0
  9
$SORTENTS
280
   127
  9
$INDEXCTL
280
     0
  9
$HIDETEXT
280
     0
  9
$XCLIPFRAME
290
     0
  9
$HALOGAP
280
     0
  9
$OBSCOLOR
 70
   257
  9
$OBSLTYPE
280
     0
  9
$INTERSECTIONDISPLAY
280
     0
  9
$INTERSECTIONCOLOR
 70
   257
  9
$DIMASSOC
280
     1
  9
$PROJECTNAME
  1

  0
ENDSEC
  0
SECTION
  2
CLASSES
  0
CLASS
  1
ACDBDICTIONARYWDFLT
  2
AcDbDictionaryWithDefault
  3
ObjectDBX Classes
 90
        0
 91
        1
280
     0
281
     0
  0
CLASS
  1
TABLESTYLE
  2
AcDbTableStyle
  3
ObjectDBX Classes
 90
     2047
 91
        1
280
     0
281
     0
  0
CLASS
  1
DICTIONARYVAR
  2
AcDbDictionaryVar
  3
ObjectDBX Classes
 90
        0
 91
        1
280
     0
281
     0
  0
ENDSEC
  0
SECTION
  2
TABLES
  0
TABLE
  2
VPORT
  5
8
330
0
100
AcDbSymbolTable
 70
     2
  0
VPORT
  5
34E
330
8
100
AcDbSymbolTableRecord
100
AcDbViewportTableRecord
  2
*Active
 70
     0
 10
0.0
 20
0.0
 11
1.0
 21
1.0
 12
-296.0
 22
209.0
 13
0.0
 23
0.0
 14
1.0
 24
1.0
 15
0.0
 25
0.0
 16
0.0
 26
0.0
 36
1.0
 17
0.0
 27
0.0
 37
0.0
 40
421.3043478260869
 41
1.707124010554089
 42
50.0
 43
0.0
 44
0.0
 50
0.0
 51
0.0
 71
     0
 72
   100
 73
     1
 74
     1
 75
     0
 76
     0
 77
     0
 78
     0
281
     0
 65
     1
110
0.0
120
0.0
130
0.0
111
1.0
121
0.0
131
0.0
112
0.0
122
1.0
132
0.0
 79
     0
146
0.0
  0
ENDTAB
  0
TABLE
  2
LTYPE
  5
5
330
0
100
AcDbSymbolTable
 70
     6
  0
LTYPE
  5
13
330
5
100
AcDbSymbolTableRecord
100
AcDbLinetypeTableRecord
  2
ByBlock
 70
     0
  3

 72
    65
 73
     0
 40
0.0
  0
LTYPE
  5
14
330
5
100
AcDbSymbolTableRecord
100
AcDbLinetypeTableRecord
  2
ByLayer
 70
     0
  3

 72
    65
 73
     0
 40
0.0
  0
LTYPE
  5
15
330
5
100
AcDbSymbolTableRecord
100
AcDbLinetypeTableRecord
  2
CONTINUOUS
 70
     0
  3
Solid line
 72
    65
 73
     0
 40
0.0
  0
LTYPE
  5
26
330
5
100
AcDbSymbolTableRecord
100
AcDbLinetypeTableRecord
  2
DASHED
 70
     0
  3
__ __ __ __ __ __ __ __ __ __ __ __ __ __ __
 72
    65
 73
     2
 40
3.5
 49
2.0
 74
     0
 49
-1.5
 74
     0
  0
LTYPE
  5
27
330
5
100
AcDbSymbolTableRecord
100
AcDbLinetypeTableRecord
  2
CENTER
 70
     0
  3
____ _ ____ _ ____ _ ____ _ ____ _ ____ _ ____
 72
    65
 73
     4
 40
17.5
 49
13.0
 74
     0
 49
-1.5
 74
     0
 49
1.5
 74
     0
 49
-1.5
 74
     0
  0
LTYPE
  5
28
330
5
100
AcDbSymbolTableRecord
100
AcDbLinetypeTableRecord
  2
PHANTOM
 70
     0
  3
_____ _ _ _____ _ _ _____ _ _ _____ _ _ ____  
 72
    65
 73
     6
 40
15.5
 49
8.0
 74
     0
 49
-1.5
 74
     0
 49
1.5
 74
     0
 49
-1.5
 74
     0
 49
1.5
 74
     0
 49
-1.5
 74
     0
  0
LTYPE
  5
29
330
5
100
AcDbSymbolTableRecord
100
AcDbLinetypeTableRecord
  2
DOT
 70
     0
  3
. . . . . . . . . . . . . . . . . . . . . . . .
 72
    65
 73
     2
 40
0.25
 49
0.0
 74
     0
 49
-0.25
 74
     0
  0
LTYPE
  5
2A
330
5
100
AcDbSymbolTableRecord
100
AcDbLinetypeTableRecord
  2
HIDDEN
 70
     0
  3
__ __ __ __ __ __ __ __ __ __ __ __ __ __ __
 72
    65
 73
     2
 40
3.5
 49
2.0
 74
     0
 49
-1.5
 74
     0
  0
ENDTAB
  0
TABLE
  2
LAYER
  5
2
330
0
100
AcDbSymbolTable
 70
     2
  0
LAYER
  5
10
330
2
100
AcDbSymbolTableRecord
100
AcDbLayerTableRecord
  2
0
 70
     0
 62
     7
  6
CONTINUOUS
370
    -3
390
F
  0
LAYER
  5
2B
330
2
100
AcDbSymbolTableRecord
100
AcDbLayerTableRecord
  2
DEFPOINTS
 70
     0
 62
     7
  6
CONTINUOUS
290
     0
370
    -3
390
F
  0
ENDTAB
  0
TABLE
  2
STYLE
  5
3
330
0
100
AcDbSymbolTable
 70
     2
  0
STYLE
  5
11
330
3
100
AcDbSymbolTableRecord
100
AcDbTextStyleTableRecord
  2
STANDARD
 70
     0
 40
0.0
 41
1.0
 50
0.0
 71
     0
 42
0.2
  3

  4

1001
ACAD
1000
MS Gothic
1071
    32817
  0
ENDTAB
  0
TABLE
  2
VIEW
  5
6
330
0
100
AcDbSymbolTable
 70
     0
  0
ENDTAB
  0
TABLE
  2
UCS
  5
7
330
0
100
AcDbSymbolTable
 70
     0
  0
ENDTAB
  0
TABLE
  2
APPID
  5
9
330
0
100
AcDbSymbolTable
 70
     2
  0
APPID
  5
12
330
9
100
AcDbSymbolTableRecord
100
AcDbRegAppTableRecord
  2
ACAD
 70
     0
  0
APPID
  5
343
330
9
100
AcDbSymbolTableRecord
100
AcDbRegAppTableRecord
  2
ACAD_PSEXT
 70
     0
  0
ENDTAB
  0
TABLE
  2
DIMSTYLE
  5
A
330
0
100
AcDbSymbolTable
 70
    14
100
AcDbDimStyleTable
 71
     1
340
2C
  0
DIMSTYLE
105
2C
102
{ACAD_REACTORS
330
333
102
}
330
A
100
AcDbSymbolTableRecord
100
AcDbDimStyleTableRecord
  2
DIMSTYLE1
 70
     0
 41
1.0
 42
2.54
 44
2.54
 73
     0
 74
     0
 77
     1
140
3.0
145
1.0
147
1.5
172
     1
173
     1
279
     2
340
11
  0
DIMSTYLE
105
2D
102
{ACAD_REACTORS
330
334
102
}
330
A
100
AcDbSymbolTableRecord
100
AcDbDimStyleTableRecord
  2
DIMSTYLE2
 70
     0
 41
1.0
 42
2.54
 44
2.54
 73
     0
 74
     0
 77
     1
140
3.0
145
1.0
147
1.5
172
     1
173
     1
279
     2
340
11
  0
DIMSTYLE
105
2E
102
{ACAD_REACTORS
330
335
102
}
330
A
100
AcDbSymbolTableRecord
100
AcDbDimStyleTableRecord
  2
DIMSTYLE3
 70
     0
 41
1.0
 42
2.54
 44
2.54
 73
     0
 74
     0
 77
     1
140
3.0
145
1.0
147
1.5
172
     1
173
     1
279
     2
340
11
  0
DIMSTYLE
105
2F
102
{ACAD_REACTORS
330
336
102
}
330
A
100
AcDbSymbolTableRecord
100
AcDbDimStyleTableRecord
  2
DIMSTYLE4
 70
     0
 41
1.0
 42
2.54
 44
2.54
 73
     0
 74
     0
 77
     1
140
3.0
145
1.0
147
1.5
172
     1
173
     1
279
     2
340
11
  0
DIMSTYLE
105
30
102
{ACAD_REACTORS
330
337
102
}
330
A
100
AcDbSymbolTableRecord
100
AcDbDimStyleTableRecord
  2
DIMSTYLE5
 70
     0
 41
1.0
 42
2.54
 44
2.54
 73
     0
 74
     0
 75
     1
 76
     1
 77
     1
140
3.0
145
1.0
147
1.5
172
     1
173
     1
279
     2
340
11
  0
DIMSTYLE
105
31
102
{ACAD_REACTORS
330
338
102
}
330
A
100
AcDbSymbolTableRecord
100
AcDbDimStyleTableRecord
  2
DIMSTYLE6
 70
     0
 41
1.0
 42
2.54
 44
2.54
 73
     0
 74
     0
 75
     1
 76
     1
 77
     1
140
3.0
145
1.0
147
1.5
172
     1
173
     1
279
     2
340
11
  0
DIMSTYLE
105
32
102
{ACAD_REACTORS
330
339
102
}
330
A
100
AcDbSymbolTableRecord
100
AcDbDimStyleTableRecord
  2
DIMSTYLE7
 70
     0
 41
1.0
 42
2.54
 44
2.54
 73
     0
 74
     0
 75
     1
 76
     1
 77
     1
140
3.0
145
1.0
147
1.5
172
     1
173
     1
279
     2
340
11
  0
DIMSTYLE
105
33
102
{ACAD_REACTORS
330
33A
102
}
330
A
100
AcDbSymbolTableRecord
100
AcDbDimStyleTableRecord
  2
DIMSTYLE8
 70
     0
 41
1.0
 42
2.54
 44
2.54
 73
     0
 74
     0
 77
     1
140
3.0
145
1.0
147
1.5
172
     1
173
     1
279
     2
340
11
  0
DIMSTYLE
105
34
102
{ACAD_REACTORS
330
33B
102
}
330
A
100
AcDbSymbolTableRecord
100
AcDbDimStyleTableRecord
  2
DIMSTYLE9
 70
     0
 41
1.0
 42
2.54
 44
2.54
 73
     0
 74
     0
 77
     1
140
3.0
145
1.0
147
1.5
172
     1
173
     1
279
     2
340
11
  0
DIMSTYLE
105
35
102
{ACAD_REACTORS
330
33C
102
}
330
A
100
AcDbSymbolTableRecord
100
AcDbDimStyleTableRecord
  2
DIMSTYLE10
 70
     0
 41
1.0
 42
2.54
 44
2.54
 73
     0
 74
     0
 77
     1
140
3.0
145
1.0
147
1.5
172
     1
173
     1
279
     2
340
11
  0
DIMSTYLE
105
36
102
{ACAD_REACTORS
330
33D
102
}
330
A
100
AcDbSymbolTableRecord
100
AcDbDimStyleTableRecord
  2
DIMSTYLE11
 70
     0
 41
1.0
 42
2.54
 44
2.54
 73
     0
 74
     0
 77
     1
140
3.0
145
1.0
147
1.5
172
     1
173
     1
279
     2
340
11
  0
DIMSTYLE
105
37
102
{ACAD_REACTORS
330
33E
102
}
330
A
100
AcDbSymbolTableRecord
100
AcDbDimStyleTableRecord
  2
DIMSTYLE12
 70
     0
 41
1.0
 42
2.54
 44
2.54
 73
     0
 74
     0
 77
     1
140
3.0
145
1.0
147
1.5
172
     1
173
     1
279
     2
340
11
  0
DIMSTYLE
105
38
102
{ACAD_REACTORS
330
33F
102
}
330
A
100
AcDbSymbolTableRecord
100
AcDbDimStyleTableRecord
  2
DIMSTYLE13
 70
     0
 41
1.0
 42
2.54
 44
2.54
 73
     0
 74
     0
 77
     1
140
3.0
145
1.0
147
1.5
172
     1
173
     1
279
     2
340
11
  0
ENDTAB
  0
TABLE
  2
BLOCK_RECORD
  5
1
330
0
100
AcDbSymbolTable
 70
    17
  0
BLOCK_RECORD
  5
22
330
1
100
AcDbSymbolTableRecord
100
AcDbBlockTableRecord
  2
*Model_Space
340
25
  0
BLOCK_RECORD
  5
1E
330
1
100
AcDbSymbolTableRecord
100
AcDbBlockTableRecord
  2
*Paper_Space
340
21
  0
BLOCK_RECORD
  5
3C
330
1
100
AcDbSymbolTableRecord
100
AcDbBlockTableRecord
  2
_OPEN30
340
0
102
{BLKREFS
331
46
331
48
331
53
331
54
331
5E
331
5F
331
68
331
69
331
74
331
75
331
7E
331
7F
331
88
331
89
331
91
331
92
331
9D
331
9E
331
A8
331
A9
331
B4
331
B5
331
C0
331
C1
331
CB
331
CC
102
}
  0
BLOCK_RECORD
  5
42
330
1
100
AcDbSymbolTableRecord
100
AcDbBlockTableRecord
  2
*D1
340
0
  0
BLOCK_RECORD
  5
50
330
1
100
AcDbSymbolTableRecord
100
AcDbBlockTableRecord
  2
*D2
340
0
  0
BLOCK_RECORD
  5
5B
330
1
100
AcDbSymbolTableRecord
100
AcDbBlockTableRecord
  2
*D3
340
0
  0
BLOCK_RECORD
  5
65
330
1
100
AcDbSymbolTableRecord
100
AcDbBlockTableRecord
  2
*D4
340
0
  0
BLOCK_RECORD
  5
70
330
1
100
AcDbSymbolTableRecord
100
AcDbBlockTableRecord
  2
*D5
340
0
  0
BLOCK_RECORD
  5
7A
330
1
100
AcDbSymbolTableRecord
100
AcDbBlockTableRecord
  2
*D6
340
0
  0
BLOCK_RECORD
  5
84
330
1
100
AcDbSymbolTableRecord
100
AcDbBlockTableRecord
  2
*D7
340
0
  0
BLOCK_RECORD
  5
8E
330
1
100
AcDbSymbolTableRecord
100
AcDbBlockTableRecord
  2
*D8
340
0
  0
BLOCK_RECORD
  5
9A
330
1
100
AcDbSymbolTableRecord
100
AcDbBlockTableRecord
  2
*D9
340
0
  0
BLOCK_RECORD
  5
A5
330
1
100
AcDbSymbolTableRecord
100
AcDbBlockTableRecord
  2
*D10
340
0
  0
BLOCK_RECORD
  5
B1
330
1
100
AcDbSymbolTableRecord
100
AcDbBlockTableRecord
  2
*D11
340
0
  0
BLOCK_RECORD
  5
BD
330
1
100
AcDbSymbolTableRecord
100
AcDbBlockTableRecord
  2
*D12
340
0
  0
BLOCK_RECORD
  5
C8
330
1
100
AcDbSymbolTableRecord
100
AcDbBlockTableRecord
  2
*D13
340
0
  0
BLOCK_RECORD
  5
D3
330
1
100
AcDbSymbolTableRecord
100
AcDbBlockTableRecord
  2
KOZU0001
340
0
102
{BLKREFS
331
332
102
}
  0
BLOCK_RECORD
  5
DC
330
1
100
AcDbSymbolTableRecord
100
AcDbBlockTableRecord
  2
KOZU0002
340
0
102
{BLKREFS
331
340
102
}
  0
ENDTAB
  0
ENDSEC
  0
SECTION
  2
BLOCKS
  0
BLOCK
  5
23
330
22
100
AcDbEntity
  8
0
100
AcDbBlockBegin
  2
*Model_Space
 70
     0
 10
0.0
 20
0.0
 30
0.0
  3
*Model_Space
  1

  0
ENDBLK
  5
24
330
22
100
AcDbEntity
  8
0
100
AcDbBlockEnd
  0
BLOCK
  5
1F
330
1E
100
AcDbEntity
 67
     1
  8
0
100
AcDbBlockBegin
  2
*Paper_Space
 70
     0
 10
0.0
 20
0.0
 30
0.0
  3
*Paper_Space
  1

  0
ENDBLK
  5
20
330
1E
100
AcDbEntity
 67
     1
  8
0
100
AcDbBlockEnd
  0
BLOCK
  5
3D
330
3C
100
AcDbEntity
  8
0
100
AcDbBlockBegin
  2
_OPEN30
 70
     0
 10
0.0
 20
0.0
 30
0.0
  3
_OPEN30
  1

  0
LINE
  5
3E
330
3C
100
AcDbEntity
  8
0
  6
ByBlock
 62
     0
100
AcDbLine
 10
0.0
 20
0.0
 30
0.0
 11
-2.999999999999993
 21
-1.000000000000017
 31
0.0
  0
LINE
  5
3F
330
3C
100
AcDbEntity
  8
0
  6
ByBlock
 62
     0
100
AcDbLine
 10
0.0
 20
0.0
 30
0.0
 11
-3.000000000000006
 21
0.9999999999999815
 31
0.0
  0
LINE
  5
40
330
3C
100
AcDbEntity
  8
0
  6
ByBlock
 62
     0
100
AcDbLine
 10
0.0
 20
0.0
 30
0.0
 11
-3.0
 21
0.0
 31
0.0
  0
ENDBLK
  5
41
330
3C
100
AcDbEntity
  8
0
100
AcDbBlockEnd
  0
BLOCK
  5
43
330
42
100
AcDbEntity
  8
0
100
AcDbBlockBegin
  2
*D1
 70
     1
 10
0.0
 20
0.0
 30
0.0
  3
*D1
  1

  0
LINE
  5
44
330
42
100
AcDbEntity
  8
0
  6
Continuous
 62
     7
100
AcDbLine
 10
-145.4337768554688
 20
389.2662963867188
 30
0.0
 11
-129.2688903808594
 21
389.2662963867188
 31
0.0
  0
LINE
  5
45
330
42
100
AcDbEntity
  8
0
  6
Continuous
 62
     7
100
AcDbLine
 10
-148.9337768554688
 20
389.2662963867188
 30
0.0
 11
-145.4337768554688
 21
389.2662963867188
 31
0.0
  0
INSERT
  5
46
330
42
100
AcDbEntity
  8
0
  6
Continuous
 62
     7
100
AcDbBlockReference
  2
_OPEN30
 10
-148.9337768554688
 20
389.2662963867188
 30
0.0
 50
0.0000000000003562
  0
LINE
  5
47
330
42
100
AcDbEntity
  8
0
  6
Continuous
 62
     7
100
AcDbLine
 10
-151.9337768554688
 20
389.2662963867188
 30
0.0
 11
-155.2837768554686
 21
389.2662963867187
 31
0.0
  0
INSERT
  5
48
330
42
100
AcDbEntity
  8
0
  6
Continuous
 62
     7
100
AcDbBlockReference
  2
_OPEN30
 10
-145.4337768554688
 20
389.2662963867188
 30
0.0
 50
180.0
  0
LINE
  5
49
330
42
100
AcDbEntity
  8
0
  6
Continuous
 62
     7
100
AcDbLine
 10
-142.4337768554688
 20
389.2662963867188
 30
0.0
 11
-139.0837768554687
 21
389.2662963867188
 31
0.0
  0
LINE
  5
4A
330
42
100
AcDbEntity
  8
0
  6
Continuous
 62
     7
100
AcDbLine
 10
-145.4337768554688
 20
358.4079504394532
 30
0.0
 11
-145.4337768554688
 21
391.5522766113281
 31
0.0
  0
TEXT
  5
4B
330
42
100
AcDbEntity
  8
0
  6
Continuous
 62
     7
100
AcDbText
 10
-137.4088978767395
 20
390.0162963867188
 30
0.0
 40
3.0
  1
3.5
 41
1.356666684150696
100
AcDbText
  0
POINT
  5
4C
330
42
100
AcDbEntity
  8
DEFPOINTS
  6
Continuous
 62
     7
100
AcDbPoint
 10
-148.9337768554688
 20
391.5522766113281
 30
0.0
  0
POINT
  5
4D
330
42
100
AcDbEntity
  8
DEFPOINTS
  6
Continuous
 62
     7
100
AcDbPoint
 10
-145.4337768554688
 20
355.8679504394531
 30
0.0
  0
POINT
  5
4E
330
42
100
AcDbEntity
  8
DEFPOINTS
  6
Continuous
 62
     7
100
AcDbPoint
 10
-145.4337768554688
 20
389.2662963867188
 30
0.0
  0
ENDBLK
  5
4F
330
42
100
AcDbEntity
  8
0
100
AcDbBlockEnd
  0
BLOCK
  5
51
330
50
100
AcDbEntity
  8
0
100
AcDbBlockBegin
  2
*D2
 70
     1
 10
0.0
 20
0.0
 30
0.0
  3
*D2
  1

  0
LINE
  5
52
330
50
100
AcDbEntity
  8
0
  6
Continuous
 62
     7
100
AcDbLine
 10
-151.9337768554688
 20
377.5957946777344
 30
0.0
 11
-175.9337768554688
 21
377.5957946777344
 31
0.0
  0
INSERT
  5
53
330
50
100
AcDbEntity
  8
0
  6
Continuous
 62
     7
100
AcDbBlockReference
  2
_OPEN30
 10
-148.9337768554688
 20
377.5957946777344
 30
0.0
  0
INSERT
  5
54
330
50
100
AcDbEntity
  8
0
  6
Continuous
 62
     7
100
AcDbBlockReference
  2
_OPEN30
 10
-178.9337768554688
 20
377.5957946777344
 30
0.0
 50
180.0000000000004
  0
LINE
  5
55
330
50
100
AcDbEntity
  8
0
  6
Continuous
 62
     7
100
AcDbLine
 10
-178.9337768554688
 20
307.9079504394532
 30
0.0
 11
-178.9337768554688
 21
379.8818054199219
 31
0.0
  0
TEXT
  5
56
330
50
100
AcDbEntity
  8
0
  6
Continuous
 62
     7
100
AcDbText
 10
-166.5037769675255
 20
378.3457946777344
 30
0.0
 40
3.0
  1
30
 41
1.101428593908038
100
AcDbText
  0
POINT
  5
57
330
50
100
AcDbEntity
  8
DEFPOINTS
  6
Continuous
 62
     7
100
AcDbPoint
 10
-148.9337768554688
 20
391.5522766113281
 30
0.0
  0
POINT
  5
58
330
50
100
AcDbEntity
  8
DEFPOINTS
  6
Continuous
 62
     7
100
AcDbPoint
 10
-178.9337768554688
 20
305.3679504394531
 30
0.0
  0
POINT
  5
59
330
50
100
AcDbEntity
  8
DEFPOINTS
  6
Continuous
 62
     7
100
AcDbPoint
 10
-178.9337768554688
 20
377.5957946777344
 30
0.0
  0
ENDBLK
  5
5A
330
50
100
AcDbEntity
  8
0
100
AcDbBlockEnd
  0
BLOCK
  5
5C
330
5B
100
AcDbEntity
  8
0
100
AcDbBlockBegin
  2
*D3
 70
     1
 10
0.0
 20
0.0
 30
0.0
  3
*D3
  1

  0
LINE
  5
5D
330
5B
100
AcDbEntity
  8
0
  6
Continuous
 62
     7
100
AcDbLine
 10
-255.9337768554688
 20
278.7644348144531
 30
0.0
 11
-161.9337768554688
 21
278.7644348144531
 31
0.0
  0
INSERT
  5
5E
330
5B
100
AcDbEntity
  8
0
  6
Continuous
 62
     7
100
AcDbBlockReference
  2
_OPEN30
 10
-258.9337768554688
 20
278.7644348144531
 30
0.0
 50
180.0000000000004
  0
INSERT
  5
5F
330
5B
100
AcDbEntity
  8
0
  6
Continuous
 62
     7
100
AcDbBlockReference
  2
_OPEN30
 10
-158.9337768554688
 20
278.7644348144531
 30
0.0
  0
TEXT
  5
60
330
5B
100
AcDbEntity
  8
0
  6
Continuous
 62
     7
100
AcDbText
 10
-213.0037770271301
 20
279.5144348144531
 30
0.0
 40
3.0
  1
100
 41
1.320000017011488
100
AcDbText
  0
POINT
  5
61
330
5B
100
AcDbEntity
  8
DEFPOINTS
  6
Continuous
 62
     7
100
AcDbPoint
 10
-258.9337768554688
 20
273.3679504394531
 30
0.0
  0
POINT
  5
62
330
5B
100
AcDbEntity
  8
DEFPOINTS
  6
Continuous
 62
     7
100
AcDbPoint
 10
-158.9337768554688
 20
273.3679504394531
 30
0.0
  0
POINT
  5
63
330
5B
100
AcDbEntity
  8
DEFPOINTS
  6
Continuous
 62
     7
100
AcDbPoint
 10
-158.9337768554688
 20
278.7644348144531
 30
0.0
  0
ENDBLK
  5
64
330
5B
100
AcDbEntity
  8
0
100
AcDbBlockEnd
  0
BLOCK
  5
66
330
65
100
AcDbEntity
  8
0
100
AcDbBlockBegin
  2
*D4
 70
     1
 10
0.0
 20
0.0
 30
0.0
  3
*D4
  1

  0
LINE
  5
67
330
65
100
AcDbEntity
  8
0
  6
Continuous
 62
     7
100
AcDbLine
 10
-161.9337768554688
 20
288.71923828125
 30
0.0
 11
-205.9337768554688
 21
288.71923828125
 31
0.0
  0
INSERT
  5
68
330
65
100
AcDbEntity
  8
0
  6
Continuous
 62
     7
100
AcDbBlockReference
  2
_OPEN30
 10
-158.9337768554688
 20
288.71923828125
 30
0.0
  0
INSERT
  5
69
330
65
100
AcDbEntity
  8
0
  6
Continuous
 62
     7
100
AcDbBlockReference
  2
_OPEN30
 10
-208.9337768554688
 20
288.71923828125
 30
0.0
 50
180.0000000000004
  0
LINE
  5
6A
330
65
100
AcDbEntity
  8
0
  6
Continuous
 62
     7
100
AcDbLine
 10
-208.9337768554687
 20
299.0623559570312
 30
0.0
 11
-208.9337768554688
 21
286.4332580566406
 31
0.0
  0
TEXT
  5
6B
330
65
100
AcDbEntity
  8
0
  6
Continuous
 62
     7
100
AcDbText
 10
-186.5037769675255
 20
289.46923828125
 30
0.0
 40
3.0
  1
50
 41
1.101428593908038
100
AcDbText
  0
POINT
  5
6C
330
65
100
AcDbEntity
  8
DEFPOINTS
  6
Continuous
 62
     7
100
AcDbPoint
 10
-158.9337768554688
 20
295.8679504394531
 30
0.0
  0
POINT
  5
6D
330
65
100
AcDbEntity
  8
DEFPOINTS
  6
Continuous
 62
     7
100
AcDbPoint
 10
-208.9337768554688
 20
301.6023559570313
 30
0.0
  0
POINT
  5
6E
330
65
100
AcDbEntity
  8
DEFPOINTS
  6
Continuous
 62
     7
100
AcDbPoint
 10
-208.9337768554688
 20
288.71923828125
 30
0.0
  0
ENDBLK
  5
6F
330
65
100
AcDbEntity
  8
0
100
AcDbBlockEnd
  0
BLOCK
  5
71
330
70
100
AcDbEntity
  8
0
100
AcDbBlockBegin
  2
*D5
 70
     1
 10
0.0
 20
0.0
 30
0.0
  3
*D5
  1

  0
LINE
  5
72
330
70
100
AcDbEntity
  8
0
  6
Continuous
 62
     7
100
AcDbLine
 10
-378.8587951660156
 20
336.5663757324219
 30
0.0
 11
-354.0957336425781
 21
365.6527099609375
 31
0.0
  0
LINE
  5
73
330
70
100
AcDbEntity
  8
0
  6
Continuous
 62
     7
100
AcDbLine
 10
-484.5236620768161
 20
212.4537906858006
 30
0.0
 11
-380.8035473958402
 21
334.2820949343167
 31
0.0
  0
INSERT
  5
74
330
70
100
AcDbEntity
  8
0
  6
Continuous
 62
     7
100
AcDbBlockReference
  2
_OPEN30
 10
-486.4684143066406
 20
210.1695098876953
 30
0.0
 50
229.5901551180615
  0
INSERT
  5
75
330
70
100
AcDbEntity
  8
0
  6
Continuous
 62
     7
100
AcDbBlockReference
  2
_OPEN30
 10
-378.8587951660156
 20
336.5663757324219
 30
0.0
 50
49.59015511806078
  0
TEXT
  5
76
330
70
100
AcDbEntity
  8
0
  6
Continuous
 62
     7
100
AcDbText
 10
-375.4995634233263
 20
341.6647641987732
 30
0.0
 40
3.0
  1
%%C１６６（防水皿外径）
 50
49.60000046955386
 41
0.8440126077968535
100
AcDbText
  0
POINT
  5
77
330
70
100
AcDbEntity
  8
DEFPOINTS
  6
Continuous
 62
     7
100
AcDbPoint
 10
-486.4684143066406
 20
210.1695098876953
 30
0.0
  0
POINT
  5
78
330
70
100
AcDbEntity
  8
DEFPOINTS
  6
Continuous
 62
     7
100
AcDbPoint
 10
-378.8587951660156
 20
336.5663757324219
 30
0.0
  0
ENDBLK
  5
79
330
70
100
AcDbEntity
  8
0
100
AcDbBlockEnd
  0
BLOCK
  5
7B
330
7A
100
AcDbEntity
  8
0
100
AcDbBlockBegin
  2
*D6
 70
     1
 10
0.0
 20
0.0
 30
0.0
  3
*D6
  1

  0
LINE
  5
7C
330
7A
100
AcDbEntity
  8
0
  6
Continuous
 62
     7
100
AcDbLine
 10
-376.1083679199219
 20
306.40966796875
 30
0.0
 11
-328.2225646972656
 21
334.3863525390625
 31
0.0
  0
LINE
  5
7D
330
7A
100
AcDbEntity
  8
0
  6
Continuous
 62
     7
100
AcDbLine
 10
-486.6285254872943
 20
241.8395790362068
 30
0.0
 11
-378.6986839853618
 21
304.8963065839104
 31
0.0
  0
INSERT
  5
7E
330
7A
100
AcDbEntity
  8
0
  6
Continuous
 62
     7
100
AcDbBlockReference
  2
_OPEN30
 10
-489.2188415527344
 20
240.3262176513672
 30
0.0
 50
210.2951007659322
  0
INSERT
  5
7F
330
7A
100
AcDbEntity
  8
0
  6
Continuous
 62
     7
100
AcDbBlockReference
  2
_OPEN30
 10
-376.1083679199219
 20
306.40966796875
 30
0.0
 50
30.29510076593152
  0
TEXT
  5
80
330
7A
100
AcDbEntity
  8
0
  6
Continuous
 62
     7
100
AcDbText
 10
-356.3511852605736
 20
318.8195726224268
 30
0.0
 40
3.0
  1
%%C１３１（目皿受外径）
 50
30.29999981864594
 41
0.8440126077968535
100
AcDbText
  0
POINT
  5
81
330
7A
100
AcDbEntity
  8
DEFPOINTS
  6
Continuous
 62
     7
100
AcDbPoint
 10
-489.2188415527344
 20
240.3262176513672
 30
0.0
  0
POINT
  5
82
330
7A
100
AcDbEntity
  8
DEFPOINTS
  6
Continuous
 62
     7
100
AcDbPoint
 10
-376.1083679199219
 20
306.40966796875
 30
0.0
  0
ENDBLK
  5
83
330
7A
100
AcDbEntity
  8
0
100
AcDbBlockEnd
  0
BLOCK
  5
85
330
84
100
AcDbEntity
  8
0
100
AcDbBlockBegin
  2
*D7
 70
     1
 10
0.0
 20
0.0
 30
0.0
  3
*D7
  1

  0
LINE
  5
86
330
84
100
AcDbEntity
  8
0
  6
Continuous
 62
     7
100
AcDbLine
 10
-379.9779968261719
 20
289.1548767089844
 30
0.0
 11
-322.2974243164063
 21
306.4385681152344
 31
0.0
  0
LINE
  5
87
330
84
100
AcDbEntity
  8
0
  6
Continuous
 62
     7
100
AcDbLine
 10
-482.4754525967711
 20
258.4420994394993
 30
0.0
 11
-382.851756875885
 21
288.2937709218288
 31
0.0
  0
INSERT
  5
88
330
84
100
AcDbEntity
  8
0
  6
Continuous
 62
     7
100
AcDbBlockReference
  2
_OPEN30
 10
-485.3492126464844
 20
257.5809936523438
 30
0.0
 50
196.6805444837376
  0
INSERT
  5
89
330
84
100
AcDbEntity
  8
0
  6
Continuous
 62
     7
100
AcDbBlockReference
  2
_OPEN30
 10
-379.9779968261719
 20
289.1548767089844
 30
0.0
 50
16.68054448373684
  0
TEXT
  5
8A
330
84
100
AcDbEntity
  8
0
  6
Continuous
 62
     7
100
AcDbText
 10
-350.4252976611138
 20
298.7879935674772
 30
0.0
 40
3.0
  1
%%C１１０（目皿外径）
 50
16.70000035088335
 41
0.8443929326254473
100
AcDbText
  0
POINT
  5
8B
330
84
100
AcDbEntity
  8
DEFPOINTS
  6
Continuous
 62
     7
100
AcDbPoint
 10
-485.3492126464844
 20
257.5809936523438
 30
0.0
  0
POINT
  5
8C
330
84
100
AcDbEntity
  8
DEFPOINTS
  6
Continuous
 62
     7
100
AcDbPoint
 10
-379.9779968261719
 20
289.1548767089844
 30
0.0
  0
ENDBLK
  5
8D
330
84
100
AcDbEntity
  8
0
100
AcDbBlockEnd
  0
BLOCK
  5
8F
330
8E
100
AcDbEntity
  8
0
100
AcDbBlockBegin
  2
*D8
 70
     1
 10
0.0
 20
0.0
 30
0.0
  3
*D8
  1

  0
LINE
  5
90
330
8E
100
AcDbEntity
  8
0
  6
Continuous
 62
     7
100
AcDbLine
 10
-289.9337768554688
 20
389.2662963867188
 30
0.0
 11
-151.9337768554688
 21
389.2662963867188
 31
0.0
  0
INSERT
  5
91
330
8E
100
AcDbEntity
  8
0
  6
Continuous
 62
     7
100
AcDbBlockReference
  2
_OPEN30
 10
-292.9337768554688
 20
389.2662963867188
 30
0.0
 50
180.0000000000004
  0
INSERT
  5
92
330
8E
100
AcDbEntity
  8
0
  6
Continuous
 62
     7
100
AcDbBlockReference
  2
_OPEN30
 10
-148.9337768554688
 20
389.2662963867188
 30
0.0
  0
LINE
  5
93
330
8E
100
AcDbEntity
  8
0
  6
Continuous
 62
     7
100
AcDbLine
 10
-292.9337768554688
 20
340.9079504394532
 30
0.0
 11
-292.9337768554688
 21
391.5522766113281
 31
0.0
  0
LINE
  5
94
330
8E
100
AcDbEntity
  8
0
  6
Continuous
 62
     7
100
AcDbLine
 10
-148.9337768554688
 20
356.9079504394532
 30
0.0
 11
-148.9337768554688
 21
391.5522766113281
 31
0.0
  0
TEXT
  5
95
330
8E
100
AcDbEntity
  8
0
  6
Continuous
 62
     7
100
AcDbText
 10
-240.0037776231766
 20
390.0162963867188
 30
0.0
 40
3.0
  1
１４４　（１３９～１５６）
 41
0.8434321120058422
100
AcDbText
  0
POINT
  5
96
330
8E
100
AcDbEntity
  8
DEFPOINTS
  6
Continuous
 62
     7
100
AcDbPoint
 10
-292.9337768554688
 20
338.3679504394531
 30
0.0
  0
POINT
  5
97
330
8E
100
AcDbEntity
  8
DEFPOINTS
  6
Continuous
 62
     7
100
AcDbPoint
 10
-148.9337768554688
 20
354.3679504394531
 30
0.0
  0
POINT
  5
98
330
8E
100
AcDbEntity
  8
DEFPOINTS
  6
Continuous
 62
     7
100
AcDbPoint
 10
-148.9337768554688
 20
389.2662963867188
 30
0.0
  0
ENDBLK
  5
99
330
8E
100
AcDbEntity
  8
0
100
AcDbBlockEnd
  0
BLOCK
  5
9B
330
9A
100
AcDbEntity
  8
0
100
AcDbBlockBegin
  2
*D9
 70
     1
 10
0.0
 20
0.0
 30
0.0
  3
*D9
  1

  0
LINE
  5
9C
330
9A
100
AcDbEntity
  8
0
  6
Continuous
 62
     7
100
AcDbLine
 10
-289.9337768554688
 20
377.5957946777344
 30
0.0
 11
-245.9337768554688
 21
377.5957946777344
 31
0.0
  0
INSERT
  5
9D
330
9A
100
AcDbEntity
  8
0
  6
Continuous
 62
     7
100
AcDbBlockReference
  2
_OPEN30
 10
-292.9337768554688
 20
377.5957946777344
 30
0.0
 50
180.0000000000004
  0
INSERT
  5
9E
330
9A
100
AcDbEntity
  8
0
  6
Continuous
 62
     7
100
AcDbBlockReference
  2
_OPEN30
 10
-242.9337768554688
 20
377.5957946777344
 30
0.0
  0
LINE
  5
9F
330
9A
100
AcDbEntity
  8
0
  6
Continuous
 62
     7
100
AcDbLine
 10
-242.9337768554688
 20
309.4079504394532
 30
0.0
 11
-242.9337768554688
 21
379.8818054199219
 31
0.0
  0
TEXT
  5
A0
330
9A
100
AcDbEntity
  8
0
  6
Continuous
 62
     7
100
AcDbText
 10
-270.5037769675255
 20
378.3457946777344
 30
0.0
 40
3.0
  1
50
 41
1.101428593908038
100
AcDbText
  0
POINT
  5
A1
330
9A
100
AcDbEntity
  8
DEFPOINTS
  6
Continuous
 62
     7
100
AcDbPoint
 10
-292.9337768554688
 20
391.5522766113281
 30
0.0
  0
POINT
  5
A2
330
9A
100
AcDbEntity
  8
DEFPOINTS
  6
Continuous
 62
     7
100
AcDbPoint
 10
-242.9337768554688
 20
306.8679504394531
 30
0.0
  0
POINT
  5
A3
330
9A
100
AcDbEntity
  8
DEFPOINTS
  6
Continuous
 62
     7
100
AcDbPoint
 10
-242.9337768554688
 20
377.5957946777344
 30
0.0
  0
ENDBLK
  5
A4
330
9A
100
AcDbEntity
  8
0
100
AcDbBlockEnd
  0
BLOCK
  5
A6
330
A5
100
AcDbEntity
  8
0
100
AcDbBlockBegin
  2
*D10
 70
     1
 10
0.0
 20
0.0
 30
0.0
  3
*D10
  1

  0
LINE
  5
A7
330
A5
100
AcDbEntity
  8
0
  6
Continuous
 62
     7
100
AcDbLine
 10
-77.14622497558595
 20
242.3679351806641
 30
0.0
 11
-77.14622497558591
 21
304.3679504394531
 31
0.0
  0
INSERT
  5
A8
330
A5
100
AcDbEntity
  8
0
  6
Continuous
 62
     7
100
AcDbBlockReference
  2
_OPEN30
 10
-77.14622497558593
 20
239.3679351806641
 30
0.0
 50
270.0000000000005
  0
INSERT
  5
A9
330
A5
100
AcDbEntity
  8
0
  6
Continuous
 62
     7
100
AcDbBlockReference
  2
_OPEN30
 10
-77.14622497558593
 20
307.3679504394531
 30
0.0
 50
90.00000000000019
  0
LINE
  5
AA
330
A5
100
AcDbEntity
  8
0
  6
Continuous
 62
     7
100
AcDbLine
 10
-115.3937692260742
 20
239.3679351806641
 30
0.0
 11
-74.86022186279297
 21
239.3679351806641
 31
0.0
  0
LINE
  5
AB
330
A5
100
AcDbEntity
  8
0
  6
Continuous
 62
     7
100
AcDbLine
 10
-115.3937692260742
 20
307.3679504394531
 30
0.0
 11
-74.86022186279297
 21
307.3679504394531
 31
0.0
  0
TEXT
  5
AC
330
A5
100
AcDbEntity
  8
0
  6
Continuous
 62
     7
100
AcDbText
 10
-77.89622479768055
 20
269.2979502350082
 30
0.0
 40
3.0
  1
%%C68
 50
90.00000250447815
 41
0.9498249830693319
100
AcDbText
  0
POINT
  5
AD
330
A5
100
AcDbEntity
  8
DEFPOINTS
  6
Continuous
 62
     7
100
AcDbPoint
 10
-117.9337692260742
 20
239.3679351806641
 30
0.0
  0
POINT
  5
AE
330
A5
100
AcDbEntity
  8
DEFPOINTS
  6
Continuous
 62
     7
100
AcDbPoint
 10
-117.9337692260742
 20
307.3679504394531
 30
0.0
  0
POINT
  5
AF
330
A5
100
AcDbEntity
  8
DEFPOINTS
  6
Continuous
 62
     7
100
AcDbPoint
 10
-77.14622497558593
 20
307.3679504394531
 30
0.0
  0
ENDBLK
  5
B0
330
A5
100
AcDbEntity
  8
0
100
AcDbBlockEnd
  0
BLOCK
  5
B2
330
B1
100
AcDbEntity
  8
0
100
AcDbBlockBegin
  2
*D11
 70
     1
 10
0.0
 20
0.0
 30
0.0
  3
*D11
  1

  0
LINE
  5
B3
330
B1
100
AcDbEntity
  8
0
  6
Continuous
 62
     7
100
AcDbLine
 10
-175.9337768554688
 20
172.8554840087891
 30
0.0
 11
-119.9337692260742
 21
172.855484008789
 31
0.0
  0
INSERT
  5
B4
330
B1
100
AcDbEntity
  8
0
  6
Continuous
 62
     7
100
AcDbBlockReference
  2
_OPEN30
 10
-178.9337768554688
 20
172.8554840087891
 30
0.0
 50
180.0000000000004
  0
INSERT
  5
B5
330
B1
100
AcDbEntity
  8
0
  6
Continuous
 62
     7
100
AcDbBlockReference
  2
_OPEN30
 10
-116.9337692260742
 20
172.8554840087891
 30
0.0
  0
LINE
  5
B6
330
B1
100
AcDbEntity
  8
0
  6
Continuous
 62
     7
100
AcDbLine
 10
-178.9337768554687
 20
238.8279351806641
 30
0.0
 11
-178.9337768554688
 21
170.5694732666016
 31
0.0
  0
LINE
  5
B7
330
B1
100
AcDbEntity
  8
0
  6
Continuous
 62
     7
100
AcDbLine
 10
-116.9337692260742
 20
237.8279351806641
 30
0.0
 11
-116.9337692260742
 21
170.5694732666016
 31
0.0
  0
TEXT
  5
B8
330
B1
100
AcDbEntity
  8
0
  6
Continuous
 62
     7
100
AcDbText
 10
-150.5037769675255
 20
173.6054840087891
 30
0.0
 40
3.0
  1
62
 41
1.028000020980834
100
AcDbText
  0
POINT
  5
B9
330
B1
100
AcDbEntity
  8
DEFPOINTS
  6
Continuous
 62
     7
100
AcDbPoint
 10
-178.9337768554688
 20
241.3679351806641
 30
0.0
  0
POINT
  5
BA
330
B1
100
AcDbEntity
  8
DEFPOINTS
  6
Continuous
 62
     7
100
AcDbPoint
 10
-116.9337692260742
 20
240.3679351806641
 30
0.0
  0
POINT
  5
BB
330
B1
100
AcDbEntity
  8
DEFPOINTS
  6
Continuous
 62
     7
100
AcDbPoint
 10
-116.9337692260742
 20
172.8554840087891
 30
0.0
  0
ENDBLK
  5
BC
330
B1
100
AcDbEntity
  8
0
100
AcDbBlockEnd
  0
BLOCK
  5
BE
330
BD
100
AcDbEntity
  8
0
100
AcDbBlockBegin
  2
*D12
 70
     1
 10
0.0
 20
0.0
 30
0.0
  3
*D12
  1

  0
LINE
  5
BF
330
BD
100
AcDbEntity
  8
0
  6
Continuous
 62
     7
100
AcDbLine
 10
-120.7646255493164
 20
236.3679351806641
 30
0.0
 11
-120.7646255493164
 21
227.3679351806641
 31
0.0
  0
INSERT
  5
C0
330
BD
100
AcDbEntity
  8
0
  6
Continuous
 62
     7
100
AcDbBlockReference
  2
_OPEN30
 10
-120.7646255493164
 20
239.3679351806641
 30
0.0
 50
90.00000000000019
  0
INSERT
  5
C1
330
BD
100
AcDbEntity
  8
0
  6
Continuous
 62
     7
100
AcDbBlockReference
  2
_OPEN30
 10
-120.7646255493164
 20
224.3679351806641
 30
0.0
 50
270.0000000000005
  0
LINE
  5
C2
330
BD
100
AcDbEntity
  8
0
  6
Continuous
 62
     7
100
AcDbLine
 10
-141.3664483642578
 20
224.3679351806641
 30
0.0
 11
-118.4786224365234
 21
224.3679351806641
 31
0.0
  0
TEXT
  5
C3
330
BD
100
AcDbEntity
  8
0
  6
Continuous
 62
     7
100
AcDbText
 10
-121.5146254369781
 20
229.2979350358238
 30
0.0
 40
3.0
  1
15
 50
90.00000250447815
 41
1.285000026226043
100
AcDbText
  0
POINT
  5
C4
330
BD
100
AcDbEntity
  8
DEFPOINTS
  6
Continuous
 62
     7
100
AcDbPoint
 10
-117.9337692260742
 20
239.3679351806641
 30
0.0
  0
POINT
  5
C5
330
BD
100
AcDbEntity
  8
DEFPOINTS
  6
Continuous
 62
     7
100
AcDbPoint
 10
-143.9064483642578
 20
224.3679351806641
 30
0.0
  0
POINT
  5
C6
330
BD
100
AcDbEntity
  8
DEFPOINTS
  6
Continuous
 62
     7
100
AcDbPoint
 10
-120.7646255493164
 20
224.3679351806641
 30
0.0
  0
ENDBLK
  5
C7
330
BD
100
AcDbEntity
  8
0
100
AcDbBlockEnd
  0
BLOCK
  5
C9
330
C8
100
AcDbEntity
  8
0
100
AcDbBlockBegin
  2
*D13
 70
     1
 10
0.0
 20
0.0
 30
0.0
  3
*D13
  1

  0
LINE
  5
CA
330
C8
100
AcDbEntity
  8
0
  6
Continuous
 62
     7
100
AcDbLine
 10
-142.4337768554688
 20
215.2975463867188
 30
0.0
 11
-132.4337768554687
 21
215.2975463867186
 31
0.0
  0
INSERT
  5
CB
330
C8
100
AcDbEntity
  8
0
  6
Continuous
 62
     7
100
AcDbBlockReference
  2
_OPEN30
 10
-145.4337768554688
 20
215.2975463867188
 30
0.0
 50
180.0000000000004
  0
INSERT
  5
CC
330
C8
100
AcDbEntity
  8
0
  6
Continuous
 62
     7
100
AcDbBlockReference
  2
_OPEN30
 10
-129.4337768554687
 20
215.2975463867188
 30
0.0
  0
LINE
  5
CD
330
C8
100
AcDbEntity
  8
0
  6
Continuous
 62
     7
100
AcDbLine
 10
-129.4337768554687
 20
234.6930780029297
 30
0.0
 11
-129.4337768554687
 21
213.0115356445313
 31
0.0
  0
TEXT
  5
CE
330
C8
100
AcDbEntity
  8
0
  6
Continuous
 62
     7
100
AcDbText
 10
-140.0037769675255
 20
216.0475463867189
 30
0.0
 40
3.0
  1
16
 41
1.285000026226043
100
AcDbText
  0
POINT
  5
CF
330
C8
100
AcDbEntity
  8
DEFPOINTS
  6
Continuous
 62
     7
100
AcDbPoint
 10
-145.4337768554688
 20
234.3679351806641
 30
0.0
  0
POINT
  5
D0
330
C8
100
AcDbEntity
  8
DEFPOINTS
  6
Continuous
 62
     7
100
AcDbPoint
 10
-129.4337768554687
 20
237.2330780029297
 30
0.0
  0
POINT
  5
D1
330
C8
100
AcDbEntity
  8
DEFPOINTS
  6
Continuous
 62
     7
100
AcDbPoint
 10
-129.4337768554687
 20
215.2975463867188
 30
0.0
  0
ENDBLK
  5
D2
330
C8
100
AcDbEntity
  8
0
100
AcDbBlockEnd
  0
BLOCK
  5
D4
330
D3
100
AcDbEntity
  8
0
100
AcDbBlockBegin
  2
KOZU0001
 70
     0
 10
0.0
 20
0.0
 30
0.0
  3
KOZU0001
  1

  0
LINE
  5
D5
330
D3
100
AcDbEntity
  8
0
  6
Continuous
 62
     7
100
AcDbLine
 10
0.0
 20
0.0
 30
0.0
 11
21.67559814453125
 21
21.20834350585938
 31
0.0
  0
LINE
  5
D6
330
D3
100
AcDbEntity
  8
0
  6
Continuous
 62
     7
100
AcDbLine
 10
21.67559814453125
 20
21.20834350585938
 30
0.0
 11
47.39669799804688
 21
21.20834350585938
 31
0.0
  0
LINE
  5
D7
330
D3
100
AcDbEntity
  8
0
  6
Continuous
 62
     7
100
AcDbLine
 10
0.0
 20
0.0
 30
0.0
 11
1.44494575636389
 21
2.812851180060187
 31
0.0
  0
LINE
  5
D8
330
D3
100
AcDbEntity
  8
0
  6
Continuous
 62
     7
100
AcDbLine
 10
0.0
 20
0.0
 30
0.0
 11
2.843667313127225
 21
1.383313490229814
 31
0.0
  0
TEXT
  5
D9
330
D3
100
AcDbEntity
  8
0
  6
Continuous
 62
     7
100
AcDbText
 10
23.21683430671692
 20
21.95834350585938
 30
0.0
 40
3.0
  1
配管接続口
 41
0.8487395020950888
100
AcDbText
  0
TEXT
  5
DA
330
D3
100
AcDbEntity
  8
0
  6
Continuous
 62
     7
100
AcDbText
 10
23.21683430671692
 20
16.69334350585937
 30
0.0
 40
3.0
  1
Ｒｃ２（５０Ａ）
 41
0.8454512278006642
100
AcDbText
  0
ENDBLK
  5
DB
330
D3
100
AcDbEntity
  8
0
100
AcDbBlockEnd
  0
BLOCK
  5
DD
330
DC
100
AcDbEntity
  8
0
100
AcDbBlockBegin
  2
KOZU0002
 70
     0
 10
0.0
 20
0.0
 30
0.0
  3
KOZU0002
  1

  0
LINE
  5
DE
330
DC
100
AcDbEntity
  8
0
  6
Continuous
 62
     7
100
AcDbLine
 10
0.0
 20
0.0
 30
0.0
 11
28.92265319824219
 21
-36.23277282714844
 31
0.0
  0
LINE
  5
DF
330
DC
100
AcDbEntity
  8
0
  6
Continuous
 62
     7
100
AcDbLine
 10
28.92265319824219
 20
-36.23277282714844
 30
0.0
 11
55.91397857666016
 21
-36.23277282714844
 31
0.0
  0
LINE
  5
E0
330
DC
100
AcDbEntity
  8
0
  6
Continuous
 62
     7
100
AcDbLine
 10
0.0
 20
0.0
 30
0.0
 11
2.653113160844359
 21
-1.720752903747208
 31
0.0
  0
LINE
  5
E1
330
DC
100
AcDbEntity
  8
0
  6
Continuous
 62
     7
100
AcDbLine
 10
0.0
 20
0.0
 30
0.0
 11
1.090038786427163
 21
-2.968470219504382
 31
0.0
  0
TEXT
  5
E2
330
DC
100
AcDbEntity
  8
0
  6
Continuous
 62
     7
100
AcDbText
 10
31.05397725105286
 20
-35.48277282714844
 30
0.0
 40
3.0
  1
共廻り防止用羽根
 41
0.8454512278006642
100
AcDbText
  0
TEXT
  5
E3
330
DC
100
AcDbEntity
  8
0
  6
Continuous
 62
     7
100
AcDbText
 10
31.05397725105286
 20
-40.74777282714843
 30
0.0
 40
3.0
  1
３ヶ所
 41
0.8550420278260688
100
AcDbText
  0
ENDBLK
  5
E4
330
DC
100
AcDbEntity
  8
0
100
AcDbBlockEnd
  0
ENDSEC
  0
SECTION
  2
ENTITIES
  0
LINE
  5
E5
330
22
100
AcDbEntity
  8
0
  6
CENTER
 62
     7
100
AcDbLine
 10
-432.6636047363281
 20
359.4031677246094
 30
0.0
 11
-432.6636047363281
 21
188.6328582763672
 31
0.0
  0
LINE
  5
E6
330
22
100
AcDbEntity
  8
0
  6
CENTER
 62
     7
100
AcDbLine
 10
-519.3876953124999
 20
273.3679504394531
 30
0.0
 11
-347.0060119628906
 21
273.3679504394531
 31
0.0
  0
LINE
  5
E7
330
22
100
AcDbEntity
  8
0
  6
CENTER
 62
     7
100
AcDbLine
 10
-299.8489990234375
 20
273.3679504394531
 30
0.0
 11
-112.9965362548828
 21
273.3679504394531
 31
0.0
  0
LINE
  5
E8
330
22
100
AcDbEntity
  8
0
  6
Continuous
 62
     7
100
AcDbLine
 10
-443.0137023925781
 20
318.121826171875
 30
0.0
 11
-443.6679687499999
 21
318.7760925292969
 31
0.0
  0
LINE
  5
E9
330
22
100
AcDbEntity
  8
0
  6
Continuous
 62
     7
100
AcDbLine
 10
-443.3230285644531
 20
312.4376220703125
 30
0.0
 11
-442.9956359863281
 21
312.7650146484375
 31
0.0
  0
LINE
  5
EA
330
22
100
AcDbEntity
  8
0
  6
Continuous
 62
     7
100
AcDbLine
 10
-442.9956359863281
 20
312.7650146484375
 30
0.0
 11
-445.0360107421874
 21
315.4521789550781
 31
0.0
  0
LINE
  5
EB
330
22
100
AcDbEntity
  8
0
  6
Continuous
 62
     7
100
AcDbLine
 10
-443.3230285644531
 20
312.4376220703125
 30
0.0
 11
-443.6504211425781
 21
312.1102294921875
 31
0.0
  0
LINE
  5
EC
330
22
100
AcDbEntity
  8
0
  6
Continuous
 62
     7
100
AcDbLine
 10
-443.0137023925781
 20
318.121826171875
 30
0.0
 11
-445.0360107421874
 21
315.4521789550781
 31
0.0
  0
LINE
  5
ED
330
22
100
AcDbEntity
  8
0
  6
Continuous
 62
     7
100
AcDbLine
 10
-437.2051086425781
 20
284.1091918945313
 30
0.0
 11
-445.0549621582031
 21
308.2685241699219
 31
0.0
  0
LINE
  5
EE
330
22
100
AcDbEntity
  8
0
  6
Continuous
 62
     7
100
AcDbLine
 10
-443.6504211425781
 20
312.1102294921875
 30
0.0
 11
-446.3376159667968
 21
314.1505737304688
 31
0.0
  0
LINE
  5
EF
330
22
100
AcDbEntity
  8
0
  6
Continuous
 62
     7
100
AcDbLine
 10
-443.6679687499999
 20
318.7760925292969
 30
0.0
 11
-446.3376159667968
 21
316.7537841796875
 31
0.0
  0
LINE
  5
F0
330
22
100
AcDbEntity
  8
0
  6
Continuous
 62
     7
100
AcDbLine
 10
-428.1221008300781
 20
284.1091918945313
 30
0.0
 11
-420.2722473144531
 21
308.2685241699219
 31
0.0
  0
LINE
  5
F1
330
22
100
AcDbEntity
  8
0
  6
Continuous
 62
     7
100
AcDbLine
 10
-449.3521728515625
 20
318.4667663574219
 30
0.0
 11
-449.6795654296875
 21
318.1393737792969
 31
0.0
  0
LINE
  5
F2
330
22
100
AcDbEntity
  8
0
  6
Continuous
 62
     7
100
AcDbLine
 10
-449.0247802734375
 20
318.7941589355469
 30
0.0
 11
-446.3376159667968
 21
316.7537841796875
 31
0.0
  0
LINE
  5
F3
330
22
100
AcDbEntity
  8
0
  6
Continuous
 62
     7
100
AcDbLine
 10
-449.0072326660156
 20
312.1282653808594
 30
0.0
 11
-449.3343811035156
 21
312.4554138183594
 31
0.0
  0
LINE
  5
F4
330
22
100
AcDbEntity
  8
0
  6
Continuous
 62
     7
100
AcDbLine
 10
-449.6795654296875
 20
318.1393737792969
 30
0.0
 11
-447.6392211914062
 21
315.4521789550781
 31
0.0
  0
LINE
  5
F5
330
22
100
AcDbEntity
  8
0
  6
Continuous
 62
     7
100
AcDbLine
 10
-449.3521728515625
 20
318.4667663574219
 30
0.0
 11
-449.0247802734375
 21
318.7941589355469
 31
0.0
  0
LINE
  5
F6
330
22
100
AcDbEntity
  8
0
  6
Continuous
 62
     7
100
AcDbLine
 10
-449.6615295410156
 20
312.7825622558594
 30
0.0
 11
-447.6392211914062
 21
315.4521789550781
 31
0.0
  0
LINE
  5
F7
330
22
100
AcDbEntity
  8
0
  6
Continuous
 62
     7
100
AcDbLine
 10
-449.6615295410156
 20
312.7825622558594
 30
0.0
 11
-449.3343811035156
 21
312.4554138183594
 31
0.0
  0
LINE
  5
F8
330
22
100
AcDbEntity
  8
0
  6
Continuous
 62
     7
100
AcDbLine
 10
-449.0072326660156
 20
312.1282653808594
 30
0.0
 11
-446.3376159667968
 21
314.1505737304688
 31
0.0
  0
LINE
  5
F9
330
22
100
AcDbEntity
  8
0
  6
Continuous
 62
     7
100
AcDbLine
 10
-430.0242004394531
 20
262.0086364746094
 30
0.0
 11
-420.4177856445313
 21
232.4431457519531
 31
0.0
  0
LINE
  5
FA
330
22
100
AcDbEntity
  8
0
  6
Continuous
 62
     7
100
AcDbLine
 10
-431.5436706542969
 20
277.4814453125
 30
0.0
 11
-432.0006408691406
 21
277.5538330078125
 31
0.0
  0
LINE
  5
FB
330
22
100
AcDbEntity
  8
0
  6
Continuous
 62
     7
100
AcDbLine
 10
-432.4575805664062
 20
277.626220703125
 30
0.0
 11
-432.0006408691406
 21
277.5538330078125
 31
0.0
  0
LINE
  5
FC
330
22
100
AcDbEntity
  8
0
  6
Continuous
 62
     7
100
AcDbLine
 10
-431.5436706542969
 20
277.4814453125
 30
0.0
 11
-431.610595703125
 21
274.1329956054688
 31
0.0
  0
LINE
  5
FD
330
22
100
AcDbEntity
  8
0
  6
Continuous
 62
     7
100
AcDbLine
 10
-432.4575805664062
 20
277.626220703125
 30
0.0
 11
-433.4286804199218
 21
274.4209594726563
 31
0.0
  0
LINE
  5
FE
330
22
100
AcDbEntity
  8
0
  6
Continuous
 62
     7
100
AcDbLine
 10
-428.4528503417968
 20
272.7010192871095
 30
0.0
 11
-428.5252685546875
 21
272.2437133789063
 31
0.0
  0
LINE
  5
FF
330
22
100
AcDbEntity
  8
0
  6
Continuous
 62
     7
100
AcDbLine
 10
-428.4528503417968
 20
272.7010192871095
 30
0.0
 11
-428.3804016113281
 21
273.1583251953125
 31
0.0
  0
LINE
  5
100
330
22
100
AcDbEntity
  8
0
  6
Continuous
 62
     7
100
AcDbLine
 10
-428.5252685546875
 20
272.2437133789063
 30
0.0
 11
-431.8985595703124
 21
272.3149108886719
 31
0.0
  0
LINE
  5
101
330
22
100
AcDbEntity
  8
0
  6
Continuous
 62
     7
100
AcDbLine
 10
-428.3804016113281
 20
273.1583251953125
 30
0.0
 11
-431.610595703125
 21
274.1329956054688
 31
0.0
  0
LINE
  5
102
330
22
100
AcDbEntity
  8
0
  6
Continuous
 62
     7
100
AcDbLine
 10
-435.3030090332031
 20
262.0086364746094
 30
0.0
 11
-444.909423828125
 21
232.4431457519531
 31
0.0
  0
LINE
  5
103
330
22
100
AcDbEntity
  8
0
  6
Continuous
 62
     7
100
AcDbLine
 10
-442.6513061523437
 20
267.3475036621094
 30
0.0
 11
-467.8012390136719
 21
249.0750274658203
 31
0.0
  0
LINE
  5
104
330
22
100
AcDbEntity
  8
0
  6
Continuous
 62
     7
100
AcDbLine
 10
-422.6759033203125
 20
267.3475036621094
 30
0.0
 11
-397.5259704589844
 21
249.0750274658203
 31
0.0
  0
LINE
  5
105
330
22
100
AcDbEntity
  8
0
  6
Continuous
 62
     7
100
AcDbLine
 10
-433.7835388183593
 20
269.2544250488281
 30
0.0
 11
-433.7166137695312
 21
272.6028747558594
 31
0.0
  0
LINE
  5
106
330
22
100
AcDbEntity
  8
0
  6
Continuous
 62
     7
100
AcDbLine
 10
-432.86962890625
 20
269.1096801757813
 30
0.0
 11
-433.3265991210938
 21
269.1820373535156
 31
0.0
  0
LINE
  5
107
330
22
100
AcDbEntity
  8
0
  6
Continuous
 62
     7
100
AcDbLine
 10
-436.8743591308593
 20
274.0348510742188
 30
0.0
 11
-436.9468078613281
 21
273.5775451660156
 31
0.0
  0
LINE
  5
108
330
22
100
AcDbEntity
  8
0
  6
Continuous
 62
     7
100
AcDbLine
 10
-436.8743591308593
 20
274.0348510742188
 30
0.0
 11
-436.8019409179687
 21
274.4921569824219
 31
0.0
  0
LINE
  5
109
330
22
100
AcDbEntity
  8
0
  6
Continuous
 62
     7
100
AcDbLine
 10
-421.0446472167968
 20
272.3679504394531
 30
0.0
 11
-389.9576416015625
 21
272.3679504394531
 31
0.0
  0
LINE
  5
10A
330
22
100
AcDbEntity
  8
0
  6
Continuous
 62
     7
100
AcDbLine
 10
-432.86962890625
 20
269.1096801757813
 30
0.0
 11
-431.8985595703124
 21
272.3149108886719
 31
0.0
  0
LINE
  5
10B
330
22
100
AcDbEntity
  8
0
  6
Continuous
 62
     7
100
AcDbLine
 10
-433.7835388183593
 20
269.2544250488281
 30
0.0
 11
-433.3265991210938
 21
269.1820373535156
 31
0.0
  0
LINE
  5
10C
330
22
100
AcDbEntity
  8
0
  6
Continuous
 62
     7
100
AcDbLine
 10
-444.2825622558594
 20
272.3679504394531
 30
0.0
 11
-475.3695678710938
 21
272.3679504394531
 31
0.0
  0
LINE
  5
10D
330
22
100
AcDbEntity
  8
0
  6
Continuous
 62
     7
100
AcDbLine
 10
-436.8019409179687
 20
274.4921569824219
 30
0.0
 11
-433.4286804199218
 21
274.4209594726563
 31
0.0
  0
LINE
  5
10E
330
22
100
AcDbEntity
  8
0
  6
Continuous
 62
     7
100
AcDbLine
 10
-436.9468078613281
 20
273.5775451660156
 30
0.0
 11
-433.7166137695312
 21
272.6028747558594
 31
0.0
  0
LINE
  5
10F
330
22
100
AcDbEntity
  8
0
  6
Continuous
 62
     7
100
AcDbLine
 10
-441.4757385253905
 20
281.0064086914063
 30
0.0
 11
-466.6256713867188
 21
299.2789001464844
 31
0.0
  0
LINE
  5
110
330
22
100
AcDbEntity
  8
0
  6
Continuous
 62
     7
100
AcDbLine
 10
-423.8514709472656
 20
281.0064086914063
 30
0.0
 11
-398.7015380859375
 21
299.2789001464844
 31
0.0
  0
LINE
  5
111
330
22
100
AcDbEntity
  8
0
  6
Continuous
 62
     7
100
AcDbLine
 10
-421.0446472167968
 20
97.36793518066406
 30
0.0
 11
-389.9576416015625
 21
97.36793518066406
 31
0.0
  0
LINE
  5
112
330
22
100
AcDbEntity
  8
0
  6
CENTER
 62
     7
100
AcDbLine
 10
-519.3876953124999
 20
98.36793518066407
 30
0.0
 11
-347.0060119628906
 21
98.36793518066407
 31
0.0
  0
LINE
  5
113
330
22
100
AcDbEntity
  8
0
  6
CENTER
 62
     7
100
AcDbLine
 10
-432.6636047363281
 20
184.4031677246094
 30
0.0
 11
-432.6636047363281
 21
13.63285636901856
 31
0.0
  0
LINE
  5
114
330
22
100
AcDbEntity
  8
0
  6
Continuous
 62
     7
100
AcDbLine
 10
-436.8743591308593
 20
99.03485870361329
 30
0.0
 11
-436.8019409179687
 21
99.49215698242188
 31
0.0
  0
LINE
  5
115
330
22
100
AcDbEntity
  8
0
  6
Continuous
 62
     7
100
AcDbLine
 10
-436.8743591308593
 20
99.03485870361329
 30
0.0
 11
-436.9468078613281
 21
98.57756042480469
 31
0.0
  0
LINE
  5
116
330
22
100
AcDbEntity
  8
0
  6
Continuous
 62
     7
100
AcDbLine
 10
-432.86962890625
 20
94.1096649169922
 30
0.0
 11
-433.3265991210938
 21
94.18203735351564
 31
0.0
  0
LINE
  5
117
330
22
100
AcDbEntity
  8
0
  6
Continuous
 62
     7
100
AcDbLine
 10
-433.7835388183593
 20
94.25441741943359
 30
0.0
 11
-433.7166137695312
 21
97.60287475585938
 31
0.0
  0
LINE
  5
118
330
22
100
AcDbEntity
  8
0
  6
Continuous
 62
     7
100
AcDbLine
 10
-422.6759033203125
 20
92.34750366210937
 30
0.0
 11
-397.5259704589844
 21
74.07501983642578
 31
0.0
  0
LINE
  5
119
330
22
100
AcDbEntity
  8
0
  6
Continuous
 62
     7
100
AcDbLine
 10
-442.6513061523437
 20
92.34750366210937
 30
0.0
 11
-467.8012390136719
 21
74.07501983642578
 31
0.0
  0
LINE
  5
11A
330
22
100
AcDbEntity
  8
0
  6
Continuous
 62
     7
100
AcDbLine
 10
-435.3030090332031
 20
87.0086441040039
 30
0.0
 11
-444.909423828125
 21
57.44313812255859
 31
0.0
  0
LINE
  5
11B
330
22
100
AcDbEntity
  8
0
  6
Continuous
 62
     7
100
AcDbLine
 10
-428.3804016113281
 20
98.15831756591796
 30
0.0
 11
-431.610595703125
 21
99.13299560546876
 31
0.0
  0
LINE
  5
11C
330
22
100
AcDbEntity
  8
0
  6
Continuous
 62
     7
100
AcDbLine
 10
-428.5252685546875
 20
97.24372100830079
 30
0.0
 11
-431.8985595703124
 21
97.31491851806641
 31
0.0
  0
LINE
  5
11D
330
22
100
AcDbEntity
  8
0
  6
Continuous
 62
     7
100
AcDbLine
 10
-428.4528503417968
 20
97.70101928710937
 30
0.0
 11
-428.3804016113281
 21
98.15831756591796
 31
0.0
  0
LINE
  5
11E
330
22
100
AcDbEntity
  8
0
  6
Continuous
 62
     7
100
AcDbLine
 10
-428.4528503417968
 20
97.70101928710937
 30
0.0
 11
-428.5252685546875
 21
97.24372100830079
 31
0.0
  0
LINE
  5
11F
330
22
100
AcDbEntity
  8
0
  6
Continuous
 62
     7
100
AcDbLine
 10
-432.4575805664062
 20
102.6262054443359
 30
0.0
 11
-433.4286804199218
 21
99.42095184326172
 31
0.0
  0
LINE
  5
120
330
22
100
AcDbEntity
  8
0
  6
Continuous
 62
     7
100
AcDbLine
 10
-431.5436706542969
 20
102.4814605712891
 30
0.0
 11
-431.610595703125
 21
99.13299560546876
 31
0.0
  0
LINE
  5
121
330
22
100
AcDbEntity
  8
0
  6
Continuous
 62
     7
100
AcDbLine
 10
-432.4575805664062
 20
102.6262054443359
 30
0.0
 11
-432.0006408691406
 21
102.5538330078125
 31
0.0
  0
LINE
  5
122
330
22
100
AcDbEntity
  8
0
  6
Continuous
 62
     7
100
AcDbLine
 10
-431.5436706542969
 20
102.4814605712891
 30
0.0
 11
-432.0006408691406
 21
102.5538330078125
 31
0.0
  0
LINE
  5
123
330
22
100
AcDbEntity
  8
0
  6
Continuous
 62
     7
100
AcDbLine
 10
-430.0242004394531
 20
87.0086441040039
 30
0.0
 11
-420.4177856445313
 21
57.44313812255859
 31
0.0
  0
LINE
  5
124
330
22
100
AcDbEntity
  8
0
  6
Continuous
 62
     7
100
AcDbLine
 10
-421.6592407226563
 20
137.1282653808594
 30
0.0
 11
-418.9895935058594
 21
139.1505889892578
 31
0.0
  0
LINE
  5
125
330
22
100
AcDbEntity
  8
0
  6
Continuous
 62
     7
100
AcDbLine
 10
-422.3135070800781
 20
137.7825622558594
 30
0.0
 11
-421.9863891601563
 21
137.4554138183594
 31
0.0
  0
LINE
  5
126
330
22
100
AcDbEntity
  8
0
  6
Continuous
 62
     7
100
AcDbLine
 10
-422.3135070800781
 20
137.7825622558594
 30
0.0
 11
-420.2911987304688
 21
140.4521942138672
 31
0.0
  0
LINE
  5
127
330
22
100
AcDbEntity
  8
0
  6
Continuous
 62
     7
100
AcDbLine
 10
-422.0041809082031
 20
143.4667663574219
 30
0.0
 11
-421.676788330078
 21
143.7941589355469
 31
0.0
  0
LINE
  5
128
330
22
100
AcDbEntity
  8
0
  6
Continuous
 62
     7
100
AcDbLine
 10
-422.3315734863281
 20
143.1393737792969
 30
0.0
 11
-420.2911987304688
 21
140.4521942138672
 31
0.0
  0
LINE
  5
129
330
22
100
AcDbEntity
  8
0
  6
Continuous
 62
     7
100
AcDbLine
 10
-421.6592407226563
 20
137.1282653808594
 30
0.0
 11
-421.9863891601563
 21
137.4554138183594
 31
0.0
  0
LINE
  5
12A
330
22
100
AcDbEntity
  8
0
  6
Continuous
 62
     7
100
AcDbLine
 10
-421.676788330078
 20
143.7941589355469
 30
0.0
 11
-418.9895935058594
 21
141.7537841796875
 31
0.0
  0
LINE
  5
12B
330
22
100
AcDbEntity
  8
0
  6
Continuous
 62
     7
100
AcDbLine
 10
-422.0041809082031
 20
143.4667663574219
 30
0.0
 11
-422.3315734863281
 21
143.1393737792969
 31
0.0
  0
LINE
  5
12C
330
22
100
AcDbEntity
  8
0
  6
Continuous
 62
     7
100
AcDbLine
 10
-428.1221008300781
 20
109.1091995239258
 30
0.0
 11
-420.2722473144531
 21
133.2685394287109
 31
0.0
  0
LINE
  5
12D
330
22
100
AcDbEntity
  8
0
  6
Continuous
 62
     7
100
AcDbLine
 10
-416.3199768066406
 20
143.7761077880859
 30
0.0
 11
-418.9895935058594
 21
141.7537841796875
 31
0.0
  0
LINE
  5
12E
330
22
100
AcDbEntity
  8
0
  6
Continuous
 62
     7
100
AcDbLine
 10
-416.3024291992187
 20
137.1102294921875
 30
0.0
 11
-418.9895935058594
 21
139.1505889892578
 31
0.0
  0
LINE
  5
12F
330
22
100
AcDbEntity
  8
0
  6
Continuous
 62
     7
100
AcDbLine
 10
-437.2051086425781
 20
109.1091995239258
 30
0.0
 11
-445.0549621582031
 21
133.2685394287109
 31
0.0
  0
LINE
  5
130
330
22
100
AcDbEntity
  8
0
  6
Continuous
 62
     7
100
AcDbLine
 10
-415.6656799316406
 20
143.1218109130859
 30
0.0
 11
-417.6880187988281
 21
140.4521942138672
 31
0.0
  0
LINE
  5
131
330
22
100
AcDbEntity
  8
0
  6
Continuous
 62
     7
100
AcDbLine
 10
-415.9750366210937
 20
137.4376068115234
 30
0.0
 11
-416.3024291992187
 21
137.1102294921875
 31
0.0
  0
LINE
  5
132
330
22
100
AcDbEntity
  8
0
  6
Continuous
 62
     7
100
AcDbLine
 10
-415.6476440429687
 20
137.7649993896484
 30
0.0
 11
-417.6880187988281
 21
140.4521942138672
 31
0.0
  0
LINE
  5
133
330
22
100
AcDbEntity
  8
0
  6
Continuous
 62
     7
100
AcDbLine
 10
-415.9750366210937
 20
137.4376068115234
 30
0.0
 11
-415.6476440429687
 21
137.7649993896484
 31
0.0
  0
LINE
  5
134
330
22
100
AcDbEntity
  8
0
  6
Continuous
 62
     7
100
AcDbLine
 10
-415.6656799316406
 20
143.1218109130859
 30
0.0
 11
-416.3199768066406
 21
143.7761077880859
 31
0.0
  0
LINE
  5
135
330
22
100
AcDbEntity
  8
0
  6
Continuous
 62
     7
100
AcDbLine
 10
-432.86962890625
 20
94.1096649169922
 30
0.0
 11
-431.8985595703124
 21
97.31491851806641
 31
0.0
  0
LINE
  5
136
330
22
100
AcDbEntity
  8
0
  6
Continuous
 62
     7
100
AcDbLine
 10
-433.7835388183593
 20
94.25441741943359
 30
0.0
 11
-433.3265991210938
 21
94.18203735351564
 31
0.0
  0
LINE
  5
137
330
22
100
AcDbEntity
  8
0
  6
Continuous
 62
     7
100
AcDbLine
 10
-444.2825622558594
 20
97.36793518066406
 30
0.0
 11
-475.3695678710938
 21
97.36793518066406
 31
0.0
  0
LINE
  5
138
330
22
100
AcDbEntity
  8
0
  6
Continuous
 62
     7
100
AcDbLine
 10
-436.8019409179687
 20
99.49215698242188
 30
0.0
 11
-433.4286804199218
 21
99.42095184326172
 31
0.0
  0
LINE
  5
139
330
22
100
AcDbEntity
  8
0
  6
Continuous
 62
     7
100
AcDbLine
 10
-436.9468078613281
 20
98.57756042480469
 30
0.0
 11
-433.7166137695312
 21
97.60287475585938
 31
0.0
  0
LINE
  5
13A
330
22
100
AcDbEntity
  8
0
  6
Continuous
 62
     7
100
AcDbLine
 10
-441.4757385253905
 20
106.0064010620117
 30
0.0
 11
-466.6256713867188
 21
124.2788848876953
 31
0.0
  0
LINE
  5
13B
330
22
100
AcDbEntity
  8
0
  6
Continuous
 62
     7
100
AcDbLine
 10
-423.8514709472656
 20
106.0064010620117
 30
0.0
 11
-398.7015380859375
 21
124.2788848876953
 31
0.0
  0
LINE
  5
13C
330
22
100
AcDbEntity
  8
0
  6
Continuous
 62
     7
100
AcDbLine
 10
-148.9337768554688
 20
353.1918029785156
 30
0.0
 11
-145.8092193603516
 21
356.3163452148438
 31
0.0
  0
LINE
  5
13D
330
22
100
AcDbEntity
  8
0
  6
Continuous
 62
     7
100
AcDbLine
 10
-148.9337768554688
 20
350.3633728027344
 30
0.0
 11
-145.4337768554688
 21
353.8633728027344
 31
0.0
  0
LINE
  5
13E
330
22
100
AcDbEntity
  8
0
  6
Continuous
 62
     7
100
AcDbLine
 10
-148.9337768554688
 20
347.5349426269531
 30
0.0
 11
-145.4337768554688
 21
351.0349426269531
 31
0.0
  0
LINE
  5
13F
330
22
100
AcDbEntity
  8
0
  6
Continuous
 62
     7
100
AcDbLine
 10
-148.9337768554688
 20
344.7065124511719
 30
0.0
 11
-145.4337768554688
 21
348.2065124511719
 31
0.0
  0
LINE
  5
140
330
22
100
AcDbEntity
  8
0
  6
Continuous
 62
     7
100
AcDbLine
 10
-148.9337768554688
 20
341.8780822753906
 30
0.0
 11
-145.4337768554688
 21
345.3780822753906
 31
0.0
  0
LINE
  5
141
330
22
100
AcDbEntity
  8
0
  6
Continuous
 62
     7
100
AcDbLine
 10
-148.1484375
 20
339.8349914550781
 30
0.0
 11
-145.4337768554688
 21
342.5496520996094
 31
0.0
  0
LINE
  5
142
330
22
100
AcDbEntity
  8
0
  6
Continuous
 62
     7
100
AcDbLine
 10
-148.9337768554688
 20
336.2212524414063
 30
0.0
 11
-145.4337768554688
 21
339.7212524414063
 31
0.0
  0
LINE
  5
143
330
22
100
AcDbEntity
  8
0
  6
Continuous
 62
     7
100
AcDbLine
 10
-148.9337768554688
 20
333.392822265625
 30
0.0
 11
-145.4337768554688
 21
336.892822265625
 31
0.0
  0
LINE
  5
144
330
22
100
AcDbEntity
  8
0
  6
Continuous
 62
     7
100
AcDbLine
 10
-178.9337768554688
 20
303.392822265625
 30
0.0
 11
-175.9586486816406
 21
306.3679504394531
 31
0.0
  0
LINE
  5
145
330
22
100
AcDbEntity
  8
0
  6
Continuous
 62
     7
100
AcDbLine
 10
-148.9337768554688
 20
330.5643920898438
 30
0.0
 11
-145.4337768554688
 21
334.0643920898438
 31
0.0
  0
LINE
  5
146
330
22
100
AcDbEntity
  8
0
  6
Continuous
 62
     7
100
AcDbLine
 10
-176.3302154541016
 20
303.1679382324219
 30
0.0
 11
-173.1302185058594
 21
306.3679504394531
 31
0.0
  0
LINE
  5
147
330
22
100
AcDbEntity
  8
0
  6
Continuous
 62
     7
100
AcDbLine
 10
-148.9337768554688
 20
327.7359619140625
 30
0.0
 11
-145.4337768554688
 21
331.2359619140625
 31
0.0
  0
LINE
  5
148
330
22
100
AcDbEntity
  8
0
  6
Continuous
 62
     7
100
AcDbLine
 10
-173.5018005371094
 20
303.1679382324219
 30
0.0
 11
-170.3017883300781
 21
306.3679504394531
 31
0.0
  0
LINE
  5
149
330
22
100
AcDbEntity
  8
0
  6
Continuous
 62
     7
100
AcDbLine
 10
-148.9337768554688
 20
324.9075317382813
 30
0.0
 11
-145.4337768554688
 21
328.4075317382813
 31
0.0
  0
LINE
  5
14A
330
22
100
AcDbEntity
  8
0
  6
Continuous
 62
     7
100
AcDbLine
 10
-170.6733703613281
 20
303.1679382324219
 30
0.0
 11
-167.4733734130859
 21
306.3679504394531
 31
0.0
  0
LINE
  5
14B
330
22
100
AcDbEntity
  8
0
  6
Continuous
 62
     7
100
AcDbLine
 10
-148.9337768554688
 20
322.0791015625
 30
0.0
 11
-145.4337768554688
 21
325.5791015625
 31
0.0
  0
LINE
  5
14C
330
22
100
AcDbEntity
  8
0
  6
Continuous
 62
     7
100
AcDbLine
 10
-167.8449401855469
 20
303.1679382324219
 30
0.0
 11
-164.6449432373047
 21
306.3679504394531
 31
0.0
  0
LINE
  5
14D
330
22
100
AcDbEntity
  8
0
  6
Continuous
 62
     7
100
AcDbLine
 10
-148.9337768554688
 20
319.2506713867188
 30
0.0
 11
-145.4337768554688
 21
322.7506713867188
 31
0.0
  0
LINE
  5
14E
330
22
100
AcDbEntity
  8
0
  6
Continuous
 62
     7
100
AcDbLine
 10
-165.0165100097656
 20
303.1679382324219
 30
0.0
 11
-161.8165130615234
 21
306.3679504394531
 31
0.0
  0
LINE
  5
14F
330
22
100
AcDbEntity
  8
0
  6
Continuous
 62
     7
100
AcDbLine
 10
-148.9337768554688
 20
316.4222412109375
 30
0.0
 11
-145.4337768554688
 21
319.9222412109375
 31
0.0
  0
LINE
  5
150
330
22
100
AcDbEntity
  8
0
  6
Continuous
 62
     7
100
AcDbLine
 10
-162.1880798339844
 20
303.1679382324219
 30
0.0
 11
-158.9880828857422
 21
306.3679504394531
 31
0.0
  0
LINE
  5
151
330
22
100
AcDbEntity
  8
0
  6
Continuous
 62
     7
100
AcDbLine
 10
-148.9337768554688
 20
313.5938110351563
 30
0.0
 11
-145.4337768554688
 21
317.0938110351563
 31
0.0
  0
LINE
  5
152
330
22
100
AcDbEntity
  8
0
  6
Continuous
 62
     7
100
AcDbLine
 10
-159.3596649169922
 20
303.1679382324219
 30
0.0
 11
-156.1596527099609
 21
306.3679504394531
 31
0.0
  0
LINE
  5
153
330
22
100
AcDbEntity
  8
0
  6
Continuous
 62
     7
100
AcDbLine
 10
-148.9996032714844
 20
310.6995544433594
 30
0.0
 11
-145.4337768554688
 21
314.265380859375
 31
0.0
  0
LINE
  5
154
330
22
100
AcDbEntity
  8
0
  6
Continuous
 62
     7
100
AcDbLine
 10
-156.5312347412109
 20
303.1679382324219
 30
0.0
 11
-153.2653961181641
 21
306.4337768554688
 31
0.0
  0
LINE
  5
155
330
22
100
AcDbEntity
  8
0
  6
Continuous
 62
     7
100
AcDbLine
 10
-153.7028045654297
 20
303.1679382324219
 30
0.0
 11
-145.4337768554688
 21
311.4369812011719
 31
0.0
  0
LINE
  5
156
330
22
100
AcDbEntity
  8
0
  6
Continuous
 62
     7
100
AcDbLine
 10
-150.8743743896484
 20
303.1679382324219
 30
0.0
 11
-145.4337768554688
 21
308.6085510253906
 31
0.0
  0
LINE
  5
157
330
22
100
AcDbEntity
  8
0
  6
Continuous
 62
     7
100
AcDbLine
 10
-148.0459442138672
 20
303.1679382324219
 30
0.0
 11
-143.845947265625
 21
307.3679504394531
 31
0.0
  0
LINE
  5
158
330
22
100
AcDbEntity
  8
0
  6
Continuous
 62
     7
100
AcDbLine
 10
-145.217529296875
 20
303.1679382324219
 30
0.0
 11
-141.0175170898438
 21
307.3679504394531
 31
0.0
  0
LINE
  5
159
330
22
100
AcDbEntity
  8
0
  6
Continuous
 62
     7
100
AcDbLine
 10
-143.2102813720703
 20
302.3467407226563
 30
0.0
 11
-138.1891021728516
 21
307.3679504394531
 31
0.0
  0
LINE
  5
15A
330
22
100
AcDbEntity
  8
0
  6
Continuous
 62
     7
100
AcDbLine
 10
-140.2906036376952
 20
302.43798828125
 30
0.0
 11
-135.3606719970703
 21
307.3679504394531
 31
0.0
  0
LINE
  5
15B
330
22
100
AcDbEntity
  8
0
  6
Continuous
 62
     7
100
AcDbLine
 10
-137.3709411621094
 20
302.5292358398438
 30
0.0
 11
-132.5322418212891
 21
307.3679504394531
 31
0.0
  0
LINE
  5
15C
330
22
100
AcDbEntity
  8
0
  6
Continuous
 62
     7
100
AcDbLine
 10
-134.4512634277344
 20
302.6204833984375
 30
0.0
 11
-129.7038116455078
 21
307.3679504394531
 31
0.0
  0
LINE
  5
15D
330
22
100
AcDbEntity
  8
0
  6
Continuous
 62
     7
100
AcDbLine
 10
-131.5315856933594
 20
302.7117309570313
 30
0.0
 11
-126.8753890991211
 21
307.3679504394531
 31
0.0
  0
LINE
  5
15E
330
22
100
AcDbEntity
  8
0
  6
Continuous
 62
     7
100
AcDbLine
 10
-128.6119232177734
 20
302.802978515625
 30
0.0
 11
-124.0469589233398
 21
307.3679504394531
 31
0.0
  0
LINE
  5
15F
330
22
100
AcDbEntity
  8
0
  6
Continuous
 62
     7
100
AcDbLine
 10
-125.6922454833984
 20
302.8942260742188
 30
0.0
 11
-121.2185287475586
 21
307.3679504394531
 31
0.0
  0
LINE
  5
160
330
22
100
AcDbEntity
  8
0
  6
Continuous
 62
     7
100
AcDbLine
 10
-122.772575378418
 20
302.9854736328125
 30
0.0
 11
-118.3901062011719
 21
307.3679504394531
 31
0.0
  0
LINE
  5
161
330
22
100
AcDbEntity
  8
0
  6
Continuous
 62
     7
100
AcDbLine
 10
-119.8529052734375
 20
303.0767211914063
 30
0.0
 11
-116.9337692260742
 21
305.995849609375
 31
0.0
  0
LINE
  5
162
330
22
100
AcDbEntity
  8
0
  6
Continuous
 62
     7
100
AcDbLine
 10
-153.9337768554688
 20
306.3679504394531
 30
0.0
 11
-177.9337768554688
 21
306.3679504394531
 31
0.0
  0
LINE
  5
163
330
22
100
AcDbEntity
  8
0
  6
Continuous
 62
     7
100
AcDbLine
 10
-208.9337768554688
 20
301.6023559570313
 30
0.0
 11
-210.9493713378906
 21
303.6179504394531
 31
0.0
  0
LINE
  5
164
330
22
100
AcDbEntity
  8
0
  6
Continuous
 62
     7
100
AcDbLine
 10
-158.9337768554688
 20
301.6023559570313
 30
0.0
 11
-208.9337768554688
 21
301.6023559570313
 31
0.0
  0
LINE
  5
165
330
22
100
AcDbEntity
  8
0
  6
Continuous
 62
     7
100
AcDbLine
 10
-160.4993591308594
 20
303.1679382324219
 30
0.0
 11
-210.4993591308594
 21
303.1679382324219
 31
0.0
  0
LINE
  5
166
330
22
100
AcDbEntity
  8
0
  6
Continuous
 62
     7
100
AcDbLine
 10
-150.1837768554688
 20
301.6979370117188
 30
0.0
 11
-148.9337768554688
 21
303.1679382324219
 31
0.0
  0
LINE
  5
167
330
22
100
AcDbEntity
  8
0
  6
Continuous
 62
     7
100
AcDbLine
 10
-144.3599243164063
 20
302.3108215332031
 30
0.0
 11
-148.9337768554688
 21
302.3108215332031
 31
0.0
  0
LINE
  5
168
330
22
100
AcDbEntity
  8
0
  6
Continuous
 62
     7
100
AcDbLine
 10
-147.9337768554688
 20
323.6179504394531
 30
0.0
 11
-148.9337768554688
 21
324.6179504394531
 31
0.0
  0
LINE
  5
169
330
22
100
AcDbEntity
  8
0
  6
Continuous
 62
     7
100
AcDbLine
 10
-148.9337768554688
 20
311.3679504394531
 30
0.0
 11
-148.9337768554688
 21
354.3679504394531
 31
0.0
  0
LINE
  5
16A
330
22
100
AcDbEntity
  8
0
  6
Continuous
 62
     7
100
AcDbLine
 10
-147.9337768554688
 20
339.6203308105469
 30
0.0
 11
-148.9337768554688
 21
340.6203308105469
 31
0.0
  0
LINE
  5
16B
330
22
100
AcDbEntity
  8
0
  6
Continuous
 62
     7
100
AcDbLine
 10
-147.9337768554688
 20
339.6203308105469
 30
0.0
 11
-148.9337768554688
 21
338.6203308105469
 31
0.0
  0
LINE
  5
16C
330
22
100
AcDbEntity
  8
0
  6
Continuous
 62
     7
100
AcDbLine
 10
-147.9337768554688
 20
323.6179504394531
 30
0.0
 11
-148.9337768554688
 21
322.6179504394531
 31
0.0
  0
LINE
  5
16D
330
22
100
AcDbEntity
  8
0
  6
Continuous
 62
     7
100
AcDbLine
 10
-142.9337768554688
 20
300.8846740722656
 30
0.0
 11
-144.3599243164063
 21
302.3108215332031
 31
0.0
  0
LINE
  5
16E
330
22
100
AcDbEntity
  8
0
  6
Continuous
 62
     7
100
AcDbLine
 10
-145.4337768554688
 20
308.3679504394531
 30
0.0
 11
-145.4337768554688
 21
355.8679504394531
 31
0.0
  0
LINE
  5
16F
330
22
100
AcDbEntity
  8
0
  6
Continuous
 62
     7
100
AcDbLine
 10
-116.9337692260742
 20
303.1679382324219
 30
0.0
 11
-118.4519348144531
 21
301.6497802734375
 31
0.0
  0
LINE
  5
170
330
22
100
AcDbEntity
  8
0
  6
Continuous
 62
     7
100
AcDbLine
 10
-145.9337768554688
 20
356.3679504394531
 30
0.0
 11
-146.9337768554688
 21
356.3679504394531
 31
0.0
  0
LINE
  5
171
330
22
100
AcDbEntity
  8
0
  6
Continuous
 62
     7
100
AcDbLine
 10
-178.9337768554688
 20
303.1679382324219
 30
0.0
 11
-177.4637756347656
 21
301.6979370117188
 31
0.0
  0
LINE
  5
172
330
22
100
AcDbEntity
  8
0
  6
Continuous
 62
     7
100
AcDbLine
 10
-178.9337768554688
 20
303.1679382324219
 30
0.0
 11
-178.9337768554688
 21
305.3679504394531
 31
0.0
  0
LINE
  5
173
330
22
100
AcDbEntity
  8
0
  6
Continuous
 62
     7
100
AcDbLine
 10
-158.9337768554688
 20
301.6023559570313
 30
0.0
 11
-160.8337707519531
 21
303.5023498535156
 31
0.0
  0
LINE
  5
174
330
22
100
AcDbEntity
  8
0
  6
Continuous
 62
     7
100
AcDbLine
 10
-178.9337768554688
 20
303.1679382324219
 30
0.0
 11
-148.9337768554688
 21
303.1679382324219
 31
0.0
  0
LINE
  5
175
330
22
100
AcDbEntity
  8
0
  6
Continuous
 62
     7
100
AcDbLine
 10
-177.4637756347656
 20
301.6979370117188
 30
0.0
 11
-150.1837768554688
 21
301.6979370117188
 31
0.0
  0
LINE
  5
176
330
22
100
AcDbEntity
  8
0
  6
Continuous
 62
     7
100
AcDbLine
 10
-148.9337768554688
 20
192.367935180664
 30
0.0
 11
-148.9337768554688
 21
235.3679351806641
 31
0.0
  0
LINE
  5
177
330
22
100
AcDbEntity
  8
0
  6
Continuous
 62
     7
100
AcDbLine
 10
-145.9337768554688
 20
190.3679351806641
 30
0.0
 11
-146.9337768554688
 21
190.3679351806641
 31
0.0
  0
LINE
  5
178
330
22
100
AcDbEntity
  8
0
  6
Continuous
 62
     7
100
AcDbLine
 10
-145.4337768554688
 20
190.8679351806641
 30
0.0
 11
-145.4337768554688
 21
234.3679351806641
 31
0.0
  0
LINE
  5
179
330
22
100
AcDbEntity
  8
0
  6
Continuous
 62
     7
100
AcDbLine
 10
-145.4337768554688
 20
234.3679351806641
 30
0.0
 11
-145.4337768554688
 21
238.3679351806641
 31
0.0
  0
LINE
  5
17A
330
22
100
AcDbEntity
  8
0
  6
Continuous
 62
     7
100
AcDbLine
 10
-144.4337768554688
 20
239.3679351806641
 30
0.0
 11
-117.9337692260742
 21
239.3679351806641
 31
0.0
  0
LINE
  5
17B
330
22
100
AcDbEntity
  8
0
  6
Continuous
 62
     7
100
AcDbLine
 10
-129.4337768554687
 20
237.2330780029297
 30
0.0
 11
-129.4337768554687
 21
239.3679351806641
 31
0.0
  0
LINE
  5
17C
330
22
100
AcDbEntity
  8
0
  6
Continuous
 62
     7
100
AcDbLine
 10
-145.4337768554688
 20
224.3679351806641
 30
0.0
 11
-143.9064483642578
 21
224.3679351806641
 31
0.0
  0
LINE
  5
17D
330
22
100
AcDbEntity
  8
0
  6
Continuous
 62
     7
100
AcDbLine
 10
-178.9337768554688
 20
241.3679351806641
 30
0.0
 11
-178.9337768554688
 21
273.3679504394531
 31
0.0
  0
LINE
  5
17E
330
22
100
AcDbEntity
  8
0
  6
Continuous
 62
     7
100
AcDbLine
 10
-153.9337768554688
 20
240.3679351806641
 30
0.0
 11
-177.9337768554688
 21
240.3679351806641
 31
0.0
  0
LINE
  5
17F
330
22
100
AcDbEntity
  8
0
  6
Continuous
 62
     7
100
AcDbLine
 10
-208.9337768554688
 20
245.1335296630859
 30
0.0
 11
-210.9493713378906
 21
243.1179351806641
 31
0.0
  0
LINE
  5
180
330
22
100
AcDbEntity
  8
0
  6
Continuous
 62
     7
100
AcDbLine
 10
-208.9337768554688
 20
273.3679504394531
 30
0.0
 11
-208.9337768554688
 21
245.1335296630859
 31
0.0
  0
LINE
  5
181
330
22
100
AcDbEntity
  8
0
  6
Continuous
 62
     7
100
AcDbLine
 10
-208.9337768554688
 20
245.1335296630859
 30
0.0
 11
-178.9337768554688
 21
245.1335296630859
 31
0.0
  0
LINE
  5
182
330
22
100
AcDbEntity
  8
0
  6
Continuous
 62
     7
100
AcDbLine
 10
-178.9337768554688
 20
243.2335357666016
 30
0.0
 11
-210.8337707519531
 21
243.2335357666016
 31
0.0
  0
LINE
  5
183
330
22
100
AcDbEntity
  8
0
  6
Continuous
 62
     7
100
AcDbLine
 10
-118.4519348144531
 20
301.6497802734375
 30
0.0
 11
-142.9337768554688
 21
300.8846740722656
 31
0.0
  0
LINE
  5
184
330
22
100
AcDbEntity
  8
0
  6
Continuous
 62
     7
100
AcDbLine
 10
-116.9337692260742
 20
303.1679382324219
 30
0.0
 11
-144.3599243164063
 21
302.3108215332031
 31
0.0
  0
LINE
  5
185
330
22
100
AcDbEntity
  8
0
  6
Continuous
 62
     7
100
AcDbLine
 10
-144.4337768554688
 20
307.3679504394531
 30
0.0
 11
-117.9337692260742
 21
307.3679504394531
 31
0.0
  0
LINE
  5
186
330
22
100
AcDbEntity
  8
0
  6
Continuous
 62
     7
100
AcDbLine
 10
-148.9337768554688
 20
235.3679351806641
 30
0.0
 11
-148.9337768554688
 21
273.3679504394531
 31
0.0
  0
LINE
  5
187
330
22
100
AcDbEntity
  8
0
  6
Continuous
 62
     7
100
AcDbLine
 10
-145.4337768554688
 20
238.3679351806641
 30
0.0
 11
-145.4337768554688
 21
273.3679504394531
 31
0.0
  0
LINE
  5
188
330
22
100
AcDbEntity
  8
0
  6
Continuous
 62
     7
100
AcDbLine
 10
-282.4638366699219
 20
317.1284484863281
 30
0.0
 11
-282.4638366699219
 21
313.7759399414063
 31
0.0
  0
LINE
  5
189
330
22
100
AcDbEntity
  8
0
  6
Continuous
 62
     7
100
AcDbLine
 10
-289.4337768554688
 20
326.0179443359375
 30
0.0
 11
-290.0337829589844
 21
325.4179382324219
 31
0.0
  0
LINE
  5
18A
330
22
100
AcDbEntity
  8
0
  6
Continuous
 62
     7
100
AcDbLine
 10
-292.4337768554688
 20
338.8679504394531
 30
0.0
 11
-289.4337768554688
 21
338.8679504394531
 31
0.0
  0
LINE
  5
18B
330
22
100
AcDbEntity
  8
0
  6
Continuous
 62
     7
100
AcDbLine
 10
-286.4337768554688
 20
323.8679504394531
 30
0.0
 11
-286.4337768554688
 21
326.3679504394531
 31
0.0
  0
LINE
  5
18C
330
22
100
AcDbEntity
  8
0
  6
Continuous
 62
     7
100
AcDbLine
 10
-285.9337768554688
 20
323.3679504394531
 30
0.0
 11
-281.3771362304688
 21
323.3679504394531
 31
0.0
  0
LINE
  5
18D
330
22
100
AcDbEntity
  8
0
  6
Continuous
 62
     7
100
AcDbLine
 10
-288.9337768554688
 20
338.3679504394531
 30
0.0
 11
-289.4337768554688
 21
338.8679504394531
 31
0.0
  0
LINE
  5
18E
330
22
100
AcDbEntity
  8
0
  6
Continuous
 62
     7
100
AcDbLine
 10
-287.0337829589844
 20
322.8679504394531
 30
0.0
 11
-286.5337829589844
 21
323.3679504394531
 31
0.0
  0
LINE
  5
18F
330
22
100
AcDbEntity
  8
0
  6
Continuous
 62
     7
100
AcDbLine
 10
-286.5337829589844
 20
325.4179382324219
 30
0.0
 11
-287.1337585449219
 21
326.0179443359375
 31
0.0
  0
LINE
  5
190
330
22
100
AcDbEntity
  8
0
  6
Continuous
 62
     7
100
AcDbLine
 10
-289.4337768554688
 20
326.0179443359375
 30
0.0
 11
-289.0837707519531
 21
326.3679504394531
 31
0.0
  0
LINE
  5
191
330
22
100
AcDbEntity
  8
0
  6
Continuous
 62
     7
100
AcDbLine
 10
-246.7946929931641
 20
308.8679504394531
 30
0.0
 11
-242.9337768554688
 21
305.0070190429688
 31
0.0
  0
LINE
  5
192
330
22
100
AcDbEntity
  8
0
  6
Continuous
 62
     7
100
AcDbLine
 10
-247.5018005371094
 20
308.8679504394531
 30
0.0
 11
-242.9337768554688
 21
304.2998962402344
 31
0.0
  0
LINE
  5
193
330
22
100
AcDbEntity
  8
0
  6
Continuous
 62
     7
100
AcDbLine
 10
-249.6231231689453
 20
308.8679504394531
 30
0.0
 11
-243.8931427001953
 21
303.1379699707031
 31
0.0
  0
LINE
  5
194
330
22
100
AcDbEntity
  8
0
  6
Continuous
 62
     7
100
AcDbLine
 10
-250.3302307128906
 20
308.8679504394531
 30
0.0
 11
-244.5788116455078
 21
303.1165161132813
 31
0.0
  0
LINE
  5
195
330
22
100
AcDbEntity
  8
0
  6
Continuous
 62
     7
100
AcDbLine
 10
-252.4515533447266
 20
308.8679504394531
 30
0.0
 11
-246.6358489990234
 21
303.05224609375
 31
0.0
  0
LINE
  5
196
330
22
100
AcDbEntity
  8
0
  6
Continuous
 62
     7
100
AcDbLine
 10
-253.1586608886719
 20
308.8679504394531
 30
0.0
 11
-247.321533203125
 21
303.0308227539063
 31
0.0
  0
LINE
  5
197
330
22
100
AcDbEntity
  8
0
  6
Continuous
 62
     7
100
AcDbLine
 10
-255.2799835205078
 20
308.8679504394531
 30
0.0
 11
-249.3785705566406
 21
302.9665222167969
 31
0.0
  0
LINE
  5
198
330
22
100
AcDbEntity
  8
0
  6
Continuous
 62
     7
100
AcDbLine
 10
-255.9870910644531
 20
308.8679504394531
 30
0.0
 11
-250.0642395019531
 21
302.9450988769531
 31
0.0
  0
LINE
  5
199
330
22
100
AcDbEntity
  8
0
  6
Continuous
 62
     7
100
AcDbLine
 10
-258.1083984375
 20
308.8679504394531
 30
0.0
 11
-252.1212768554689
 21
302.8807983398438
 31
0.0
  0
LINE
  5
19A
330
22
100
AcDbEntity
  8
0
  6
Continuous
 62
     7
100
AcDbLine
 10
-258.8155212402345
 20
308.8679504394531
 30
0.0
 11
-252.8069610595703
 21
302.859375
 31
0.0
  0
LINE
  5
19B
330
22
100
AcDbEntity
  8
0
  6
Continuous
 62
     7
100
AcDbLine
 10
-260.9368286132813
 20
308.8679504394531
 30
0.0
 11
-254.8639984130859
 21
302.7951049804688
 31
0.0
  0
LINE
  5
19C
330
22
100
AcDbEntity
  8
0
  6
Continuous
 62
     7
100
AcDbLine
 10
-281.9368286132813
 20
329.8679504394531
 30
0.0
 11
-277.1975402832031
 21
325.1286315917969
 31
0.0
  0
LINE
  5
19D
330
22
100
AcDbEntity
  8
0
  6
Continuous
 62
     7
100
AcDbLine
 10
-290.9368286132813
 20
338.8679504394531
 30
0.0
 11
-288.9337768554688
 21
336.8648681640625
 31
0.0
  0
LINE
  5
19E
330
22
100
AcDbEntity
  8
0
  6
Continuous
 62
     7
100
AcDbLine
 10
-261.6439514160155
 20
308.8679504394531
 30
0.0
 11
-255.5496673583984
 21
302.773681640625
 31
0.0
  0
LINE
  5
19F
330
22
100
AcDbEntity
  8
0
  6
Continuous
 62
     7
100
AcDbLine
 10
-282.6439514160156
 20
329.8679504394531
 30
0.0
 11
-276.2316284179688
 21
323.4556274414063
 31
0.0
  0
LINE
  5
1A0
330
22
100
AcDbEntity
  8
0
  6
Continuous
 62
     7
100
AcDbLine
 10
-291.6439514160156
 20
338.8679504394531
 30
0.0
 11
-288.9337768554688
 21
336.1577758789063
 31
0.0
  0
LINE
  5
1A1
330
22
100
AcDbEntity
  8
0
  6
Continuous
 62
     7
100
AcDbLine
 10
-263.7652587890625
 20
308.8679504394531
 30
0.0
 11
-257.6067199707031
 21
302.7093811035156
 31
0.0
  0
LINE
  5
1A2
330
22
100
AcDbEntity
  8
0
  6
Continuous
 62
     7
100
AcDbLine
 10
-284.7652587890625
 20
329.8679504394531
 30
0.0
 11
-273.3338317871094
 21
318.4365234375
 31
0.0
  0
LINE
  5
1A3
330
22
100
AcDbEntity
  8
0
  6
Continuous
 62
     7
100
AcDbLine
 10
-292.9337768554688
 20
338.0364379882813
 30
0.0
 11
-288.9337768554688
 21
334.0364379882813
 31
0.0
  0
LINE
  5
1A4
330
22
100
AcDbEntity
  8
0
  6
Continuous
 62
     7
100
AcDbLine
 10
-264.4723510742188
 20
308.8679504394531
 30
0.0
 11
-258.9723510742188
 21
303.3679504394531
 31
0.0
  0
LINE
  5
1A5
330
22
100
AcDbEntity
  8
0
  6
Continuous
 62
     7
100
AcDbLine
 10
-285.4723510742188
 20
329.8679504394531
 30
0.0
 11
-272.367919921875
 21
316.7634887695313
 31
0.0
  0
LINE
  5
1A6
330
22
100
AcDbEntity
  8
0
  6
Continuous
 62
     7
100
AcDbLine
 10
-292.9337768554688
 20
337.329345703125
 30
0.0
 11
-288.9337768554688
 21
333.329345703125
 31
0.0
  0
LINE
  5
1A7
330
22
100
AcDbEntity
  8
0
  6
Continuous
 62
     7
100
AcDbLine
 10
-266.5936889648438
 20
308.8679504394531
 30
0.0
 11
-261.0936889648438
 21
303.3679504394531
 31
0.0
  0
LINE
  5
1A8
330
22
100
AcDbEntity
  8
0
  6
Continuous
 62
     7
100
AcDbLine
 10
-277.6662902832031
 20
319.9405517578125
 30
0.0
 11
-269.4701232910156
 21
311.744384765625
 31
0.0
  0
LINE
  5
1A9
330
22
100
AcDbEntity
  8
0
  6
Continuous
 62
     7
100
AcDbLine
 10
-287.7996520996094
 20
330.0739135742188
 30
0.0
 11
-281.0627136230469
 21
323.3369750976563
 31
0.0
  0
LINE
  5
1AA
330
22
100
AcDbEntity
  8
0
  6
Continuous
 62
     7
100
AcDbLine
 10
-292.9337768554688
 20
335.2080078125
 30
0.0
 11
-288.7278137207031
 21
331.0020446777344
 31
0.0
  0
LINE
  5
1AB
330
22
100
AcDbEntity
  8
0
  6
Continuous
 62
     7
100
AcDbLine
 10
-267.30078125
 20
308.8679504394531
 30
0.0
 11
-261.80078125
 21
303.3679504394531
 31
0.0
  0
LINE
  5
1AC
330
22
100
AcDbEntity
  8
0
  6
Continuous
 62
     7
100
AcDbLine
 10
-276.7003479003906
 20
318.2675170898438
 30
0.0
 11
-268.5042114257813
 21
310.0713500976563
 31
0.0
  0
LINE
  5
1AD
330
22
100
AcDbEntity
  8
0
  6
Continuous
 62
     7
100
AcDbLine
 10
-292.9337768554688
 20
334.5009155273438
 30
0.0
 11
-281.80078125
 21
323.3679504394531
 31
0.0
  0
LINE
  5
1AE
330
22
100
AcDbEntity
  8
0
  6
Continuous
 62
     7
100
AcDbLine
 10
-273.8025817871094
 20
313.2484130859375
 30
0.0
 11
-263.6338806152344
 21
303.0797119140625
 31
0.0
  0
LINE
  5
1AF
330
22
100
AcDbEntity
  8
0
  6
Continuous
 62
     7
100
AcDbLine
 10
-286.4337768554688
 20
325.8796081542969
 30
0.0
 11
-283.922119140625
 21
323.3679504394531
 31
0.0
  0
LINE
  5
1B0
330
22
100
AcDbEntity
  8
0
  6
Continuous
 62
     7
100
AcDbLine
 10
-292.9337768554688
 20
332.3796081542969
 30
0.0
 11
-286.922119140625
 21
326.3679504394531
 31
0.0
  0
LINE
  5
1B1
330
22
100
AcDbEntity
  8
0
  6
Continuous
 62
     7
100
AcDbLine
 10
-272.836669921875
 20
311.5753784179688
 30
0.0
 11
-263.8832397460938
 21
302.6219482421875
 31
0.0
  0
LINE
  5
1B2
330
22
100
AcDbEntity
  8
0
  6
Continuous
 62
     7
100
AcDbLine
 10
-286.4337768554688
 20
325.1724853515625
 30
0.0
 11
-284.6292114257813
 21
323.3679504394531
 31
0.0
  0
LINE
  5
1B3
330
22
100
AcDbEntity
  8
0
  6
Continuous
 62
     7
100
AcDbLine
 10
-292.9337768554688
 20
331.6724853515625
 30
0.0
 11
-287.6292114257813
 21
326.3679504394531
 31
0.0
  0
LINE
  5
1B4
330
22
100
AcDbEntity
  8
0
  6
Continuous
 62
     7
100
AcDbLine
 10
-269.9388732910156
 20
306.5562744140625
 30
0.0
 11
-263.9448547363281
 21
300.562255859375
 31
0.0
  0
LINE
  5
1B5
330
22
100
AcDbEntity
  8
0
  6
Continuous
 62
     7
100
AcDbLine
 10
-292.9337768554688
 20
329.5511779785156
 30
0.0
 11
-289.4171447753906
 21
326.0345458984375
 31
0.0
  0
LINE
  5
1B6
330
22
100
AcDbEntity
  8
0
  6
Continuous
 62
     7
100
AcDbLine
 10
-268.9729614257813
 20
304.8832397460938
 30
0.0
 11
-264.1360778808594
 21
300.04638671875
 31
0.0
  0
LINE
  5
1B7
330
22
100
AcDbEntity
  8
0
  6
Continuous
 62
     7
100
AcDbLine
 10
-292.9337768554688
 20
328.8440551757813
 30
0.0
 11
-290.1076354980469
 21
326.0179443359375
 31
0.0
  0
LINE
  5
1B8
330
22
100
AcDbEntity
  8
0
  6
Continuous
 62
     7
100
AcDbLine
 10
-292.9337768554688
 20
326.7227478027344
 30
0.0
 11
-292.2289733886719
 21
326.0179443359375
 31
0.0
  0
LINE
  5
1B9
330
22
100
AcDbEntity
  8
0
  6
Continuous
 62
     7
100
AcDbLine
 10
-279.0677490234375
 20
328.3679504394531
 30
0.0
 11
-267.8094177246094
 21
308.8679504394531
 31
0.0
  0
LINE
  5
1BA
330
22
100
AcDbEntity
  8
0
  6
Continuous
 62
     7
100
AcDbLine
 10
-278.7790832519531
 20
321.8679504394531
 30
0.0
 11
-266.2217102050781
 21
300.1179504394531
 31
0.0
  0
LINE
  5
1BB
330
22
100
AcDbEntity
  8
0
  6
Continuous
 62
     7
100
AcDbLine
 10
-292.9337768554688
 20
320.7021789550781
 30
0.0
 11
-292.9337768554688
 21
338.3679504394531
 31
0.0
  0
LINE
  5
1BC
330
22
100
AcDbEntity
  8
0
  6
Continuous
 62
     7
100
AcDbLine
 10
-292.5396728515625
 20
320.7021789550781
 30
0.0
 11
-290.0396728515625
 21
318.2021789550781
 31
0.0
  0
LINE
  5
1BD
330
22
100
AcDbEntity
  8
0
  6
Continuous
 62
     7
100
AcDbLine
 10
-292.5396728515625
 20
310.2021789550781
 30
0.0
 11
-290.0396728515625
 21
312.7021789550781
 31
0.0
  0
LINE
  5
1BE
330
22
100
AcDbEntity
  8
0
  6
Continuous
 62
     7
100
AcDbLine
 10
-292.9337768554688
 20
326.0179443359375
 30
0.0
 11
-292.3337707519531
 21
325.4179382324219
 31
0.0
  0
LINE
  5
1BF
330
22
100
AcDbEntity
  8
0
  6
Continuous
 62
     7
100
AcDbLine
 10
-292.9337768554688
 20
326.0179443359375
 30
0.0
 11
-289.4337768554688
 21
326.0179443359375
 31
0.0
  0
LINE
  5
1C0
330
22
100
AcDbEntity
  8
0
  6
Continuous
 62
     7
100
AcDbLine
 10
-292.3337707519531
 20
325.4179382324219
 30
0.0
 11
-290.0337829589844
 21
325.4179382324219
 31
0.0
  0
LINE
  5
1C1
330
22
100
AcDbEntity
  8
0
  6
Continuous
 62
     7
100
AcDbLine
 10
-292.9337768554688
 20
338.3679504394531
 30
0.0
 11
-292.4337768554688
 21
338.8679504394531
 31
0.0
  0
LINE
  5
1C2
330
22
100
AcDbEntity
  8
0
  6
Continuous
 62
     7
100
AcDbLine
 10
-286.5337829589844
 20
323.3679504394531
 30
0.0
 11
-286.5337829589844
 21
325.4179382324219
 31
0.0
  0
LINE
  5
1C3
330
22
100
AcDbEntity
  8
0
  6
Continuous
 62
     7
100
AcDbLine
 10
-288.9488830566406
 20
313.7759399414063
 30
0.0
 11
-282.4638366699219
 21
313.7759399414063
 31
0.0
  0
LINE
  5
1C4
330
22
100
AcDbEntity
  8
0
  6
Continuous
 62
     7
100
AcDbLine
 10
-290.0396728515625
 20
318.2021789550781
 30
0.0
 11
-283.5545959472656
 21
318.2021789550781
 31
0.0
  0
LINE
  5
1C5
330
22
100
AcDbEntity
  8
0
  6
Continuous
 62
     7
100
AcDbLine
 10
-290.0396728515625
 20
312.7021789550781
 30
0.0
 11
-283.5545959472656
 21
312.7021789550781
 31
0.0
  0
LINE
  5
1C6
330
22
100
AcDbEntity
  8
0
  6
Continuous
 62
     7
100
AcDbLine
 10
-286.4337768554688
 20
323.8679504394531
 30
0.0
 11
-285.9337768554688
 21
323.3679504394531
 31
0.0
  0
LINE
  5
1C7
330
22
100
AcDbEntity
  8
0
  6
Continuous
 62
     7
100
AcDbLine
 10
-286.9337768554688
 20
321.8679504394531
 30
0.0
 11
-289.9337768554688
 21
321.8679504394531
 31
0.0
  0
LINE
  5
1C8
330
22
100
AcDbEntity
  8
0
  6
Continuous
 62
     7
100
AcDbLine
 10
-286.9337768554688
 20
318.2021789550781
 30
0.0
 11
-286.9337768554688
 21
321.8679504394531
 31
0.0
  0
LINE
  5
1C9
330
22
100
AcDbEntity
  8
0
  6
Continuous
 62
     7
100
AcDbLine
 10
-290.0396728515625
 20
318.2021789550781
 30
0.0
 11
-288.9488830566406
 21
317.1284484863281
 31
0.0
  0
LINE
  5
1CA
330
22
100
AcDbEntity
  8
0
  6
Continuous
 62
     7
100
AcDbLine
 10
-288.9337768554688
 20
331.8679504394531
 30
0.0
 11
-288.9337768554688
 21
338.3679504394531
 31
0.0
  0
LINE
  5
1CB
330
22
100
AcDbEntity
  8
0
  6
Continuous
 62
     7
100
AcDbLine
 10
-286.9337768554688
 20
329.8679504394531
 30
0.0
 11
-281.6658325195313
 21
329.8679504394531
 31
0.0
  0
LINE
  5
1CC
330
22
100
AcDbEntity
  8
0
  6
Continuous
 62
     7
100
AcDbLine
 10
-288.9488830566406
 20
317.1284484863281
 30
0.0
 11
-282.4638366699219
 21
317.1284484863281
 31
0.0
  0
LINE
  5
1CD
330
22
100
AcDbEntity
  8
0
  6
Continuous
 62
     7
100
AcDbLine
 10
-292.9337768554688
 20
325.4179382324219
 30
0.0
 11
-286.5337829589844
 21
325.4179382324219
 31
0.0
  0
LINE
  5
1CE
330
22
100
AcDbEntity
  8
0
  6
Continuous
 62
     7
100
AcDbLine
 10
-292.3337707519531
 20
326.0179443359375
 30
0.0
 11
-287.1337585449219
 21
326.0179443359375
 31
0.0
  0
LINE
  5
1CF
330
22
100
AcDbEntity
  8
0
  6
Continuous
 62
     7
100
AcDbLine
 10
-289.9337768554688
 20
318.2021789550781
 30
0.0
 11
-289.9337768554688
 21
322.8679504394531
 31
0.0
  0
LINE
  5
1D0
330
22
100
AcDbEntity
  8
0
  6
Continuous
 62
     7
100
AcDbLine
 10
-283.5545959472656
 20
312.7021789550781
 30
0.0
 11
-282.4638366699219
 21
313.7759399414063
 31
0.0
  0
LINE
  5
1D1
330
22
100
AcDbEntity
  8
0
  6
Continuous
 62
     7
100
AcDbLine
 10
-283.5545959472656
 20
318.2021789550781
 30
0.0
 11
-282.4638366699219
 21
317.1284484863281
 31
0.0
  0
LINE
  5
1D2
330
22
100
AcDbEntity
  8
0
  6
Continuous
 62
     7
100
AcDbLine
 10
-258.9337768554688
 20
301.2207946777344
 30
0.0
 11
-257.0909118652344
 21
303.0636596679688
 31
0.0
  0
LINE
  5
1D3
330
22
100
AcDbEntity
  8
0
  6
Continuous
 62
     7
100
AcDbLine
 10
-257.9337768554688
 20
302.6991577148438
 30
0.0
 11
-256.478515625
 21
301.243896484375
 31
0.0
  0
LINE
  5
1D4
330
22
100
AcDbEntity
  8
0
  6
Continuous
 62
     7
100
AcDbLine
 10
-257.9337768554688
 20
302.6991577148438
 30
0.0
 11
-257.9337768554688
 21
302.3679504394531
 31
0.0
  0
LINE
  5
1D5
330
22
100
AcDbEntity
  8
0
  6
Continuous
 62
     7
100
AcDbLine
 10
-263.9337768554688
 20
300.6179504394531
 30
0.0
 11
-263.9337768554688
 21
302.3679504394531
 31
0.0
  0
LINE
  5
1D6
330
22
100
AcDbEntity
  8
0
  6
Continuous
 62
     7
100
AcDbLine
 10
-264.9337768554688
 20
299.6179504394531
 30
0.0
 11
-265.3556823730469
 21
299.6179504394531
 31
0.0
  0
LINE
  5
1D7
330
22
100
AcDbEntity
  8
0
  6
Continuous
 62
     7
100
AcDbLine
 10
-258.9337768554688
 20
303.3679504394531
 30
0.0
 11
-262.9337768554688
 21
303.3679504394531
 31
0.0
  0
LINE
  5
1D8
330
22
100
AcDbEntity
  8
0
  6
Continuous
 62
     7
100
AcDbLine
 10
-244.9337768554688
 20
308.8679504394531
 30
0.0
 11
-267.8094177246094
 21
308.8679504394531
 31
0.0
  0
LINE
  5
1D9
330
22
100
AcDbEntity
  8
0
  6
Continuous
 62
     7
100
AcDbLine
 10
-258.9337768554688
 20
301.2207946777344
 30
0.0
 11
-240.5361328125
 21
301.7957458496094
 31
0.0
  0
LINE
  5
1DA
330
22
100
AcDbEntity
  8
0
  6
Continuous
 62
     7
100
AcDbLine
 10
-238.6932678222656
 20
303.6386108398438
 30
0.0
 11
-257.0909118652344
 21
303.0636596679688
 31
0.0
  0
LINE
  5
1DB
330
22
100
AcDbEntity
  8
0
  6
Continuous
 62
     7
100
AcDbLine
 10
-242.9337768554688
 20
306.8679504394531
 30
0.0
 11
-244.9337768554688
 21
308.8679504394531
 31
0.0
  0
LINE
  5
1DC
330
22
100
AcDbEntity
  8
0
  6
Continuous
 62
     7
100
AcDbLine
 10
-257.9337768554688
 20
302.6991577148438
 30
0.0
 11
-242.9337768554688
 21
303.1679382324219
 31
0.0
  0
LINE
  5
1DD
330
22
100
AcDbEntity
  8
0
  6
Continuous
 62
     7
100
AcDbLine
 10
-242.9337768554688
 20
303.1679382324219
 30
0.0
 11
-244.48291015625
 21
301.6188049316406
 31
0.0
  0
LINE
  5
1DE
330
22
100
AcDbEntity
  8
0
  6
Continuous
 62
     7
100
AcDbLine
 10
-238.6932678222656
 20
303.6386108398438
 30
0.0
 11
-240.5361328125
 21
301.7957458496094
 31
0.0
  0
LINE
  5
1DF
330
22
100
AcDbEntity
  8
0
  6
Continuous
 62
     7
100
AcDbLine
 10
-256.478515625
 20
301.243896484375
 30
0.0
 11
-244.48291015625
 21
301.6188049316406
 31
0.0
  0
LINE
  5
1E0
330
22
100
AcDbEntity
  8
0
  6
Continuous
 62
     7
100
AcDbLine
 10
-289.0837707519531
 20
326.3679504394531
 30
0.0
 11
-286.4337768554688
 21
326.3679504394531
 31
0.0
  0
LINE
  5
1E1
330
22
100
AcDbEntity
  8
0
  6
Continuous
 62
     7
100
AcDbLine
 10
-289.9337768554688
 20
322.8679504394531
 30
0.0
 11
-287.0337829589844
 21
322.8679504394531
 31
0.0
  0
LINE
  5
1E2
330
22
100
AcDbEntity
  8
0
  6
Continuous
 62
     7
100
AcDbLine
 10
-290.0396728515625
 20
312.7021789550781
 30
0.0
 11
-288.9488830566406
 21
313.7759399414063
 31
0.0
  0
LINE
  5
1E3
330
22
100
AcDbEntity
  8
0
  6
Continuous
 62
     7
100
AcDbLine
 10
-292.9337768554688
 20
325.4179382324219
 30
0.0
 11
-292.3337707519531
 21
326.0179443359375
 31
0.0
  0
LINE
  5
1E4
330
22
100
AcDbEntity
  8
0
  6
Continuous
 62
     7
100
AcDbLine
 10
-292.9337768554688
 20
320.7021789550781
 30
0.0
 11
-292.9337768554688
 21
325.4179382324219
 31
0.0
  0
LINE
  5
1E5
330
22
100
AcDbEntity
  8
0
  6
Continuous
 62
     7
100
AcDbLine
 10
-292.9337768554688
 20
310.2021789550781
 30
0.0
 11
-292.5396728515625
 21
310.2021789550781
 31
0.0
  0
LINE
  5
1E6
330
22
100
AcDbEntity
  8
0
  6
Continuous
 62
     7
100
AcDbLine
 10
-292.9337768554688
 20
320.7021789550781
 30
0.0
 11
-292.5396728515625
 21
320.7021789550781
 31
0.0
  0
LINE
  5
1E7
330
22
100
AcDbEntity
  8
0
  6
Continuous
 62
     7
100
AcDbLine
 10
-284.0237426757813
 20
276.5891723632813
 30
0.0
 11
-282.9329528808594
 21
275.5154113769531
 31
0.0
  0
LINE
  5
1E8
330
22
100
AcDbEntity
  8
0
  6
Continuous
 62
     7
100
AcDbLine
 10
-290.5088195800781
 20
276.5891723632813
 30
0.0
 11
-289.4180297851563
 21
275.5154113769531
 31
0.0
  0
LINE
  5
1E9
330
22
100
AcDbEntity
  8
0
  6
Continuous
 62
     7
100
AcDbLine
 10
-290.5088195800781
 20
276.5891723632813
 30
0.0
 11
-284.0237426757813
 21
276.5891723632813
 31
0.0
  0
LINE
  5
1EA
330
22
100
AcDbEntity
  8
0
  6
Continuous
 62
     7
100
AcDbLine
 10
-242.9337768554688
 20
303.506103515625
 30
0.0
 11
-242.9337768554688
 21
306.8679504394531
 31
0.0
  0
LINE
  5
1EB
330
22
100
AcDbEntity
  8
0
  6
Continuous
 62
     7
100
AcDbLine
 10
-242.9337768554688
 20
239.8679351806641
 30
0.0
 11
-243.4337768554688
 21
239.3679351806641
 31
0.0
  0
LINE
  5
1EC
330
22
100
AcDbEntity
  8
0
  6
Continuous
 62
     7
100
AcDbLine
 10
-288.9337768554688
 20
214.8679351806641
 30
0.0
 11
-288.9337768554688
 21
273.3679504394531
 31
0.0
  0
LINE
  5
1ED
330
22
100
AcDbEntity
  8
0
  6
Continuous
 62
     7
100
AcDbLine
 10
-280.1658325195313
 20
219.8679351806641
 30
0.0
 11
-280.1658325195313
 21
273.3679504394531
 31
0.0
  0
LINE
  5
1EE
330
22
100
AcDbEntity
  8
0
  6
Continuous
 62
     7
100
AcDbLine
 10
-292.9337768554688
 20
208.3679351806641
 30
0.0
 11
-292.9337768554688
 21
273.3679504394531
 31
0.0
  0
LINE
  5
1EF
330
22
100
AcDbEntity
  8
0
  6
Continuous
 62
     7
100
AcDbLine
 10
-242.9337768554688
 20
247.5334167480469
 30
0.0
 11
-266.8347473144531
 21
247.5334167480469
 31
0.0
  0
LINE
  5
1F0
330
22
100
AcDbEntity
  8
0
  6
Continuous
 62
     7
100
AcDbLine
 10
-238.6932678222656
 20
243.0972595214844
 30
0.0
 11
-242.9337768554688
 21
243.2297821044922
 31
0.0
  0
LINE
  5
1F1
330
22
100
AcDbEntity
  8
0
  6
Continuous
 62
     7
100
AcDbLine
 10
-238.6932678222656
 20
243.0972595214844
 30
0.0
 11
-240.5361328125
 21
244.9401245117188
 31
0.0
  0
LINE
  5
1F2
330
22
100
AcDbEntity
  8
0
  6
Continuous
 62
     7
100
AcDbLine
 10
-242.9337768554688
 20
239.8679351806641
 30
0.0
 11
-242.9337768554688
 21
273.3679504394531
 31
0.0
  0
LINE
  5
1F3
330
22
100
AcDbEntity
  8
0
  6
Continuous
 62
     7
100
AcDbLine
 10
-240.5361328125
 20
244.9401245117188
 30
0.0
 11
-240.5361328125
 21
273.3679504394531
 31
0.0
  0
LINE
  5
1F4
330
22
100
AcDbEntity
  8
0
  6
Continuous
 62
     7
100
AcDbLine
 10
-265.2113342285156
 20
251.0261383056641
 30
0.0
 11
-265.2113342285156
 21
273.3679504394531
 31
0.0
  0
LINE
  5
1F5
330
22
100
AcDbEntity
  8
0
  6
Continuous
 62
     7
100
AcDbLine
 10
-267.8094177246094
 20
239.4415893554688
 30
0.0
 11
-267.8094177246094
 21
273.3679504394531
 31
0.0
  0
LINE
  5
1F6
330
22
100
AcDbEntity
  8
0
  6
Continuous
 62
     7
100
AcDbLine
 10
-242.9337768554688
 20
251.0261383056641
 30
0.0
 11
-265.3656311035156
 21
251.0261383056641
 31
0.0
  0
LINE
  5
1F7
330
22
100
AcDbEntity
  8
0
  6
Continuous
 62
     7
100
AcDbLine
 10
-242.9337768554688
 20
240.8679351806641
 30
0.0
 11
-242.9337768554688
 21
273.3679504394531
 31
0.0
  0
LINE
  5
1F8
330
22
100
AcDbEntity
  8
0
  6
Continuous
 62
     7
100
AcDbLine
 10
-279.0677490234375
 20
218.3679351806641
 30
0.0
 11
-267.8094177246094
 21
237.8679351806641
 31
0.0
  0
LINE
  5
1F9
330
22
100
AcDbEntity
  8
0
  6
Continuous
 62
     7
100
AcDbLine
 10
-292.4337768554688
 20
207.8679351806641
 30
0.0
 11
-289.4337768554688
 21
207.8679351806641
 31
0.0
  0
LINE
  5
1FA
330
22
100
AcDbEntity
  8
0
  6
Continuous
 62
     7
100
AcDbLine
 10
-292.4337768554688
 20
207.8679351806641
 30
0.0
 11
-292.9337768554688
 21
208.3679351806641
 31
0.0
  0
LINE
  5
1FB
330
22
100
AcDbEntity
  8
0
  6
Continuous
 62
     7
100
AcDbLine
 10
-292.9337768554688
 20
208.3679351806641
 30
0.0
 11
-292.4337768554688
 21
207.8679351806641
 31
0.0
  0
LINE
  5
1FC
330
22
100
AcDbEntity
  8
0
  6
Continuous
 62
     7
100
AcDbLine
 10
-286.9337768554688
 20
216.8679351806641
 30
0.0
 11
-281.6658325195313
 21
216.8679351806641
 31
0.0
  0
LINE
  5
1FD
330
22
100
AcDbEntity
  8
0
  6
Continuous
 62
     7
100
AcDbLine
 10
-288.9337768554688
 20
208.3679351806641
 30
0.0
 11
-289.4337768554688
 21
207.8679351806641
 31
0.0
  0
LINE
  5
1FE
330
22
100
AcDbEntity
  8
0
  6
Continuous
 62
     7
100
AcDbLine
 10
-288.9337768554688
 20
214.8679351806641
 30
0.0
 11
-288.9337768554688
 21
208.3679351806641
 31
0.0
  0
LINE
  5
1FF
330
22
100
AcDbEntity
  8
0
  6
Continuous
 62
     7
100
AcDbLine
 10
-242.9337768554688
 20
245.0150604248047
 30
0.0
 11
-240.5361328125
 21
244.9401245117188
 31
0.0
  0
LINE
  5
200
330
22
100
AcDbEntity
  8
0
  6
Continuous
 62
     7
100
AcDbLine
 10
-150.1837768554688
 20
273.3679504394531
 30
0.0
 11
-150.1837768554688
 21
301.6979370117188
 31
0.0
  0
LINE
  5
201
330
22
100
AcDbEntity
  8
0
  6
Continuous
 62
     7
100
AcDbLine
 10
-148.9337768554688
 20
303.1679382324219
 30
0.0
 11
-148.9337768554688
 21
273.3679504394531
 31
0.0
  0
LINE
  5
202
330
22
100
AcDbEntity
  8
0
  6
Continuous
 62
     7
100
AcDbLine
 10
-144.3599243164063
 20
302.3108215332031
 30
0.0
 11
-144.3599243164063
 21
273.3679504394531
 31
0.0
  0
LINE
  5
203
330
22
100
AcDbEntity
  8
0
  6
Continuous
 62
     7
100
AcDbLine
 10
-142.9337768554688
 20
300.8846740722656
 30
0.0
 11
-142.9337768554688
 21
273.3679504394531
 31
0.0
  0
LINE
  5
204
330
22
100
AcDbEntity
  8
0
  6
Continuous
 62
     7
100
AcDbLine
 10
-118.4519348144531
 20
301.6497802734375
 30
0.0
 11
-118.4519348144531
 21
273.3679504394531
 31
0.0
  0
LINE
  5
205
330
22
100
AcDbEntity
  8
0
  6
Continuous
 62
     7
100
AcDbLine
 10
-116.9337692260742
 20
240.3679351806641
 30
0.0
 11
-116.9337692260742
 21
306.3679504394531
 31
0.0
  0
LINE
  5
206
330
22
100
AcDbEntity
  8
0
  6
Continuous
 62
     7
100
AcDbLine
 10
-158.9337768554688
 20
273.3679504394531
 30
0.0
 11
-158.9337768554688
 21
301.6023559570313
 31
0.0
  0
LINE
  5
207
330
22
100
AcDbEntity
  8
0
  6
Continuous
 62
     7
100
AcDbLine
 10
-282.9329528808594
 20
275.5154113769531
 30
0.0
 11
-282.9329528808594
 21
273.3679504394531
 31
0.0
  0
LINE
  5
208
330
22
100
AcDbEntity
  8
0
  6
Continuous
 62
     7
100
AcDbLine
 10
-289.4180297851563
 20
275.5154113769531
 30
0.0
 11
-282.9329528808594
 21
275.5154113769531
 31
0.0
  0
LINE
  5
209
330
22
100
AcDbEntity
  8
0
  6
Continuous
 62
     7
100
AcDbLine
 10
-265.2113342285156
 20
241.2155609130859
 30
0.0
 11
-265.2113342285156
 21
247.5334167480469
 31
0.0
  0
LINE
  5
20A
330
22
100
AcDbEntity
  8
0
  6
Continuous
 62
     7
100
AcDbLine
 10
-243.4337768554688
 20
239.3679351806641
 30
0.0
 11
-265.2113342285156
 21
239.3679351806641
 31
0.0
  0
LINE
  5
20B
330
22
100
AcDbEntity
  8
0
  6
Continuous
 62
     7
100
AcDbLine
 10
-210.9493713378906
 20
303.6179504394531
 30
0.0
 11
-238.6932678222656
 21
303.6386108398438
 31
0.0
  0
LINE
  5
20C
330
22
100
AcDbEntity
  8
0
  6
Continuous
 62
     7
100
AcDbLine
 10
-210.9493713378906
 20
243.1179351806641
 30
0.0
 11
-239.3549957275391
 21
243.1179351806641
 31
0.0
  0
LINE
  5
20D
330
22
100
AcDbEntity
  8
0
  6
Continuous
 62
     7
100
AcDbLine
 10
-158.9337768554688
 20
281.1772155761719
 30
0.0
 11
-158.9337768554688
 21
289.4833374023438
 31
0.0
  0
LINE
  5
20E
330
22
100
AcDbEntity
  8
0
  6
Continuous
 62
     7
100
AcDbLine
 10
-258.9337768554688
 20
281.1772155761719
 30
0.0
 11
-258.9337768554688
 21
289.4833374023438
 31
0.0
  0
LINE
  5
20F
330
22
100
AcDbEntity
  8
0
  6
Continuous
 62
     7
100
AcDbLine
 10
-258.9337768554688
 20
300.1179504394531
 30
0.0
 11
-158.9337768554688
 21
300.1179504394531
 31
0.0
  0
LINE
  5
210
330
22
100
AcDbEntity
  8
0
  6
Continuous
 62
     7
100
AcDbLine
 10
-257.9166259765625
 20
300.1179504394531
 30
0.0
 11
-256.745361328125
 21
301.2891845703125
 31
0.0
  0
LINE
  5
211
330
22
100
AcDbEntity
  8
0
  6
Continuous
 62
     7
100
AcDbLine
 10
-254.3810882568359
 20
300.1179504394531
 30
0.0
 11
-253.0957794189453
 21
301.4032287597656
 31
0.0
  0
LINE
  5
212
330
22
100
AcDbEntity
  8
0
  6
Continuous
 62
     7
100
AcDbLine
 10
-250.8455505371094
 20
300.1179504394531
 30
0.0
 11
-249.4461975097656
 21
301.5173034667969
 31
0.0
  0
LINE
  5
213
330
22
100
AcDbEntity
  8
0
  6
Continuous
 62
     7
100
AcDbLine
 10
-247.3100128173828
 20
300.1179504394531
 30
0.0
 11
-245.7966003417969
 21
301.63134765625
 31
0.0
  0
LINE
  5
214
330
22
100
AcDbEntity
  8
0
  6
Continuous
 62
     7
100
AcDbLine
 10
-243.7744750976563
 20
300.1179504394531
 30
0.0
 11
-242.1470184326172
 21
301.7453918457031
 31
0.0
  0
LINE
  5
215
330
22
100
AcDbEntity
  8
0
  6
Continuous
 62
     7
100
AcDbLine
 10
-240.2389526367188
 20
300.1179504394531
 30
0.0
 11
-236.7197418212891
 21
303.6371459960938
 31
0.0
  0
LINE
  5
216
330
22
100
AcDbEntity
  8
0
  6
Continuous
 62
     7
100
AcDbLine
 10
-233.1678771972656
 20
300.1179504394531
 30
0.0
 11
-229.6539306640625
 21
303.6318664550781
 31
0.0
  0
LINE
  5
217
330
22
100
AcDbEntity
  8
0
  6
Continuous
 62
     7
100
AcDbLine
 10
-229.6323394775391
 20
300.1179504394531
 30
0.0
 11
-226.1210327148438
 21
303.6292419433594
 31
0.0
  0
LINE
  5
218
330
22
100
AcDbEntity
  8
0
  6
Continuous
 62
     7
100
AcDbLine
 10
-226.0968170166016
 20
300.1179504394531
 30
0.0
 11
-222.588134765625
 21
303.6266174316406
 31
0.0
  0
LINE
  5
219
330
22
100
AcDbEntity
  8
0
  6
Continuous
 62
     7
100
AcDbLine
 10
-222.561279296875
 20
300.1179504394531
 30
0.0
 11
-219.0552368164063
 21
303.6239929199219
 31
0.0
  0
LINE
  5
21A
330
22
100
AcDbEntity
  8
0
  6
Continuous
 62
     7
100
AcDbLine
 10
-219.0257415771484
 20
300.1179504394531
 30
0.0
 11
-215.5223388671875
 21
303.621337890625
 31
0.0
  0
LINE
  5
21B
330
22
100
AcDbEntity
  8
0
  6
Continuous
 62
     7
100
AcDbLine
 10
-215.4902038574219
 20
300.1179504394531
 30
0.0
 11
-211.9894409179688
 21
303.6187133789063
 31
0.0
  0
LINE
  5
21C
330
22
100
AcDbEntity
  8
0
  6
Continuous
 62
     7
100
AcDbLine
 10
-211.9546813964844
 20
300.1179504394531
 30
0.0
 11
-209.7020263671875
 21
302.37060546875
 31
0.0
  0
LINE
  5
21D
330
22
100
AcDbEntity
  8
0
  6
Continuous
 62
     7
100
AcDbLine
 10
-208.4191436767578
 20
300.1179504394531
 30
0.0
 11
-206.9347381591797
 21
301.6023559570313
 31
0.0
  0
LINE
  5
21E
330
22
100
AcDbEntity
  8
0
  6
Continuous
 62
     7
100
AcDbLine
 10
-204.8836059570313
 20
300.1179504394531
 30
0.0
 11
-203.3992004394531
 21
301.6023559570313
 31
0.0
  0
LINE
  5
21F
330
22
100
AcDbEntity
  8
0
  6
Continuous
 62
     7
100
AcDbLine
 10
-201.3480682373047
 20
300.1179504394531
 30
0.0
 11
-199.8636627197266
 21
301.6023559570313
 31
0.0
  0
LINE
  5
220
330
22
100
AcDbEntity
  8
0
  6
Continuous
 62
     7
100
AcDbLine
 10
-197.8125457763672
 20
300.1179504394531
 30
0.0
 11
-196.3281402587891
 21
301.6023559570313
 31
0.0
  0
LINE
  5
221
330
22
100
AcDbEntity
  8
0
  6
Continuous
 62
     7
100
AcDbLine
 10
-194.2770080566406
 20
300.1179504394531
 30
0.0
 11
-192.7926025390625
 21
301.6023559570313
 31
0.0
  0
LINE
  5
222
330
22
100
AcDbEntity
  8
0
  6
Continuous
 62
     7
100
AcDbLine
 10
-190.7414703369141
 20
300.1179504394531
 30
0.0
 11
-189.2570648193359
 21
301.6023559570313
 31
0.0
  0
LINE
  5
223
330
22
100
AcDbEntity
  8
0
  6
Continuous
 62
     7
100
AcDbLine
 10
-187.2059326171875
 20
300.1179504394531
 30
0.0
 11
-185.7215270996094
 21
301.6023559570313
 31
0.0
  0
LINE
  5
224
330
22
100
AcDbEntity
  8
0
  6
Continuous
 62
     7
100
AcDbLine
 10
-183.67041015625
 20
300.1179504394531
 30
0.0
 11
-182.1860046386719
 21
301.6023559570313
 31
0.0
  0
LINE
  5
225
330
22
100
AcDbEntity
  8
0
  6
Continuous
 62
     7
100
AcDbLine
 10
-180.1348724365234
 20
300.1179504394531
 30
0.0
 11
-178.6504669189453
 21
301.6023559570313
 31
0.0
  0
LINE
  5
226
330
22
100
AcDbEntity
  8
0
  6
Continuous
 62
     7
100
AcDbLine
 10
-176.5993347167969
 20
300.1179504394531
 30
0.0
 11
-175.1149291992188
 21
301.6023559570313
 31
0.0
  0
LINE
  5
227
330
22
100
AcDbEntity
  8
0
  6
Continuous
 62
     7
100
AcDbLine
 10
-173.0637969970703
 20
300.1179504394531
 30
0.0
 11
-171.5793914794922
 21
301.6023559570313
 31
0.0
  0
LINE
  5
228
330
22
100
AcDbEntity
  8
0
  6
Continuous
 62
     7
100
AcDbLine
 10
-169.5282745361328
 20
300.1179504394531
 30
0.0
 11
-168.0438690185547
 21
301.6023559570313
 31
0.0
  0
LINE
  5
229
330
22
100
AcDbEntity
  8
0
  6
Continuous
 62
     7
100
AcDbLine
 10
-165.9927368164063
 20
300.1179504394531
 30
0.0
 11
-164.5083312988281
 21
301.6023559570313
 31
0.0
  0
LINE
  5
22A
330
22
100
AcDbEntity
  8
0
  6
Continuous
 62
     7
100
AcDbLine
 10
-162.4571990966797
 20
300.1179504394531
 30
0.0
 11
-160.9727935791016
 21
301.6023559570313
 31
0.0
  0
LINE
  5
22B
330
22
100
AcDbEntity
  8
0
  6
Continuous
 62
     7
100
AcDbLine
 10
-258.9337768554688
 20
273.3679504394531
 30
0.0
 11
-258.9337768554688
 21
301.2207946777344
 31
0.0
  0
LINE
  5
22C
330
22
100
AcDbEntity
  8
0
  6
Continuous
 62
     7
100
AcDbLine
 10
-266.2217102050781
 20
300.1179504394531
 30
0.0
 11
-266.2217102050781
 21
273.3679504394531
 31
0.0
  0
LINE
  5
22D
330
22
100
AcDbEntity
  8
0
  6
Continuous
 62
     7
100
AcDbLine
 10
-263.9337768554688
 20
273.3679504394531
 30
0.0
 11
-263.9337768554688
 21
300.6179504394531
 31
0.0
  0
LINE
  5
22E
330
22
100
AcDbEntity
  8
0
  6
Continuous
 62
     7
100
AcDbLine
 10
-289.9337768554688
 20
276.5891723632813
 30
0.0
 11
-289.9337768554688
 21
312.7021789550781
 31
0.0
  0
LINE
  5
22F
330
22
100
AcDbEntity
  8
0
  6
Continuous
 62
     7
100
AcDbLine
 10
-290.5088195800781
 20
276.5891723632813
 30
0.0
 11
-292.9337768554688
 21
278.9762573242188
 31
0.0
  0
LINE
  5
230
330
22
100
AcDbEntity
  8
0
  6
Continuous
 62
     7
100
AcDbLine
 10
-292.9337768554688
 20
273.3679504394531
 30
0.0
 11
-292.9337768554688
 21
310.2021789550781
 31
0.0
  0
LINE
  5
231
330
22
100
AcDbEntity
  8
0
  6
Continuous
 62
     7
100
AcDbLine
 10
-292.9337768554688
 20
273.3679504394531
 30
0.0
 11
-292.9337768554688
 21
310.2021789550781
 31
0.0
  0
LINE
  5
232
330
22
100
AcDbEntity
  8
0
  6
Continuous
 62
     7
100
AcDbLine
 10
-286.9337768554688
 20
276.5891723632813
 30
0.0
 11
-286.9337768554688
 21
312.7021789550781
 31
0.0
  0
LINE
  5
233
330
22
100
AcDbEntity
  8
0
  6
Continuous
 62
     7
100
AcDbLine
 10
-289.9337768554688
 20
319.85693359375
 30
0.0
 11
-287.9227600097656
 21
321.8679504394531
 31
0.0
  0
LINE
  5
234
330
22
100
AcDbEntity
  8
0
  6
Continuous
 62
     7
100
AcDbLine
 10
-288.7600708007813
 20
318.2021789550781
 30
0.0
 11
-286.9337768554688
 21
320.0285034179688
 31
0.0
  0
LINE
  5
235
330
22
100
AcDbEntity
  8
0
  6
Continuous
 62
     7
100
AcDbLine
 10
-289.9337768554688
 20
311.3716430664063
 30
0.0
 11
-288.6032104492188
 21
312.7021789550781
 31
0.0
  0
LINE
  5
236
330
22
100
AcDbEntity
  8
0
  6
Continuous
 62
     7
100
AcDbLine
 10
-289.9337768554688
 20
308.543212890625
 30
0.0
 11
-286.9337768554688
 21
311.543212890625
 31
0.0
  0
LINE
  5
237
330
22
100
AcDbEntity
  8
0
  6
Continuous
 62
     7
100
AcDbLine
 10
-289.9337768554688
 20
305.7147827148438
 30
0.0
 11
-286.9337768554688
 21
308.7147827148438
 31
0.0
  0
LINE
  5
238
330
22
100
AcDbEntity
  8
0
  6
Continuous
 62
     7
100
AcDbLine
 10
-289.9337768554688
 20
302.8863525390625
 30
0.0
 11
-286.9337768554688
 21
305.8863525390625
 31
0.0
  0
LINE
  5
239
330
22
100
AcDbEntity
  8
0
  6
Continuous
 62
     7
100
AcDbLine
 10
-289.9337768554688
 20
300.0579223632813
 30
0.0
 11
-286.9337768554688
 21
303.0579223632813
 31
0.0
  0
LINE
  5
23A
330
22
100
AcDbEntity
  8
0
  6
Continuous
 62
     7
100
AcDbLine
 10
-289.9337768554688
 20
297.2294921875
 30
0.0
 11
-286.9337768554688
 21
300.2294921875
 31
0.0
  0
LINE
  5
23B
330
22
100
AcDbEntity
  8
0
  6
Continuous
 62
     7
100
AcDbLine
 10
-289.9337768554688
 20
294.4010620117188
 30
0.0
 11
-286.9337768554688
 21
297.4010620117188
 31
0.0
  0
LINE
  5
23C
330
22
100
AcDbEntity
  8
0
  6
Continuous
 62
     7
100
AcDbLine
 10
-289.9337768554688
 20
291.5726623535156
 30
0.0
 11
-286.9337768554688
 21
294.5726623535156
 31
0.0
  0
LINE
  5
23D
330
22
100
AcDbEntity
  8
0
  6
Continuous
 62
     7
100
AcDbLine
 10
-289.9337768554688
 20
288.7442321777344
 30
0.0
 11
-286.9337768554688
 21
291.7442321777344
 31
0.0
  0
LINE
  5
23E
330
22
100
AcDbEntity
  8
0
  6
Continuous
 62
     7
100
AcDbLine
 10
-289.9337768554688
 20
285.9158020019531
 30
0.0
 11
-286.9337768554688
 21
288.9158020019531
 31
0.0
  0
LINE
  5
23F
330
22
100
AcDbEntity
  8
0
  6
Continuous
 62
     7
100
AcDbLine
 10
-289.9337768554688
 20
283.0873718261719
 30
0.0
 11
-286.9337768554688
 21
286.0873718261719
 31
0.0
  0
LINE
  5
240
330
22
100
AcDbEntity
  8
0
  6
Continuous
 62
     7
100
AcDbLine
 10
-289.9337768554688
 20
280.2589416503906
 30
0.0
 11
-286.9337768554688
 21
283.2589416503907
 31
0.0
  0
LINE
  5
241
330
22
100
AcDbEntity
  8
0
  6
Continuous
 62
     7
100
AcDbLine
 10
-289.9337768554688
 20
277.4305114746094
 30
0.0
 11
-286.9337768554688
 21
280.4305114746094
 31
0.0
  0
LINE
  5
242
330
22
100
AcDbEntity
  8
0
  6
Continuous
 62
     7
100
AcDbLine
 10
-287.9466857910156
 20
276.5891723632813
 30
0.0
 11
-286.9337768554688
 21
277.6020812988281
 31
0.0
  0
LINE
  5
243
330
22
100
AcDbEntity
  8
0
  6
Continuous
 62
     7
100
AcDbLine
 10
-288.9837951660156
 20
276.5891723632813
 30
0.0
 11
-289.9337768554688
 21
277.5391235351563
 31
0.0
  0
LINE
  5
244
330
22
100
AcDbEntity
  8
0
  6
Continuous
 62
     7
100
AcDbLine
 10
-286.9337768554688
 20
277.3675537109375
 30
0.0
 11
-289.9337768554688
 21
280.3675537109375
 31
0.0
  0
LINE
  5
245
330
22
100
AcDbEntity
  8
0
  6
Continuous
 62
     7
100
AcDbLine
 10
-286.9337768554688
 20
280.1959838867188
 30
0.0
 11
-289.9337768554688
 21
283.1959838867188
 31
0.0
  0
LINE
  5
246
330
22
100
AcDbEntity
  8
0
  6
Continuous
 62
     7
100
AcDbLine
 10
-286.9337768554688
 20
283.0244140625
 30
0.0
 11
-289.9337768554688
 21
286.0244140625
 31
0.0
  0
LINE
  5
247
330
22
100
AcDbEntity
  8
0
  6
Continuous
 62
     7
100
AcDbLine
 10
-286.9337768554688
 20
285.8528442382813
 30
0.0
 11
-289.9337768554688
 21
288.8528442382813
 31
0.0
  0
LINE
  5
248
330
22
100
AcDbEntity
  8
0
  6
Continuous
 62
     7
100
AcDbLine
 10
-286.9337768554688
 20
288.6812744140625
 30
0.0
 11
-289.9337768554688
 21
291.6812744140625
 31
0.0
  0
LINE
  5
249
330
22
100
AcDbEntity
  8
0
  6
Continuous
 62
     7
100
AcDbLine
 10
-286.9337768554688
 20
291.5097045898438
 30
0.0
 11
-289.9337768554688
 21
294.5097045898438
 31
0.0
  0
LINE
  5
24A
330
22
100
AcDbEntity
  8
0
  6
Continuous
 62
     7
100
AcDbLine
 10
-286.9337768554688
 20
294.338134765625
 30
0.0
 11
-289.9337768554688
 21
297.338134765625
 31
0.0
  0
LINE
  5
24B
330
22
100
AcDbEntity
  8
0
  6
Continuous
 62
     7
100
AcDbLine
 10
-286.9337768554688
 20
297.1665344238281
 30
0.0
 11
-289.9337768554688
 21
300.1665344238281
 31
0.0
  0
LINE
  5
24C
330
22
100
AcDbEntity
  8
0
  6
Continuous
 62
     7
100
AcDbLine
 10
-286.9337768554688
 20
299.9949645996094
 30
0.0
 11
-289.9337768554688
 21
302.9949645996094
 31
0.0
  0
LINE
  5
24D
330
22
100
AcDbEntity
  8
0
  6
Continuous
 62
     7
100
AcDbLine
 10
-286.9337768554688
 20
302.8233947753906
 30
0.0
 11
-289.9337768554688
 21
305.8233947753906
 31
0.0
  0
LINE
  5
24E
330
22
100
AcDbEntity
  8
0
  6
Continuous
 62
     7
100
AcDbLine
 10
-286.9337768554688
 20
305.6518249511719
 30
0.0
 11
-289.9337768554688
 21
308.6518249511719
 31
0.0
  0
LINE
  5
24F
330
22
100
AcDbEntity
  8
0
  6
Continuous
 62
     7
100
AcDbLine
 10
-286.9337768554688
 20
308.4802551269531
 30
0.0
 11
-289.9337768554688
 21
311.4802551269531
 31
0.0
  0
LINE
  5
250
330
22
100
AcDbEntity
  8
0
  6
Continuous
 62
     7
100
AcDbLine
 10
-286.9337768554688
 20
311.3086853027344
 30
0.0
 11
-288.3272705078125
 21
312.7021789550781
 31
0.0
  0
LINE
  5
251
330
22
100
AcDbEntity
  8
0
  6
Continuous
 62
     7
100
AcDbLine
 10
-288.17041015625
 20
318.2021789550781
 30
0.0
 11
-289.9337768554688
 21
319.9655456542969
 31
0.0
  0
LINE
  5
252
330
22
100
AcDbEntity
  8
0
  6
Continuous
 62
     7
100
AcDbLine
 10
-286.9337768554688
 20
319.7939758300781
 30
0.0
 11
-289.0077514648438
 21
321.8679504394531
 31
0.0
  0
LINE
  5
253
330
22
100
AcDbEntity
  8
0
  6
Continuous
 62
     7
100
AcDbLine
 10
-288.4710083007813
 20
325.4179382324219
 30
0.0
 11
-286.5337829589844
 21
323.4806823730469
 31
0.0
  0
LINE
  5
254
330
22
100
AcDbEntity
  8
0
  6
Continuous
 62
     7
100
AcDbLine
 10
-291.2994384765625
 20
325.4179382324219
 30
0.0
 11
-288.7494506835938
 21
322.8679504394531
 31
0.0
  0
LINE
  5
255
330
22
100
AcDbEntity
  8
0
  6
Continuous
 62
     7
100
AcDbLine
 10
-292.9337768554688
 20
324.2238464355469
 30
0.0
 11
-289.9337768554688
 21
321.2238464355469
 31
0.0
  0
LINE
  5
256
330
22
100
AcDbEntity
  8
0
  6
Continuous
 62
     7
100
AcDbLine
 10
-292.9337768554688
 20
321.3954162597656
 30
0.0
 11
-289.9337768554688
 21
318.3954162597656
 31
0.0
  0
LINE
  5
257
330
22
100
AcDbEntity
  8
0
  6
Continuous
 62
     7
100
AcDbLine
 10
-291.3827514648438
 20
311.3591003417969
 30
0.0
 11
-289.9337768554688
 21
309.9101257324219
 31
0.0
  0
LINE
  5
258
330
22
100
AcDbEntity
  8
0
  6
Continuous
 62
     7
100
AcDbLine
 10
-292.9337768554688
 20
310.0816955566406
 30
0.0
 11
-289.9337768554688
 21
307.0816955566406
 31
0.0
  0
LINE
  5
259
330
22
100
AcDbEntity
  8
0
  6
Continuous
 62
     7
100
AcDbLine
 10
-292.9337768554688
 20
307.2532653808594
 30
0.0
 11
-289.9337768554688
 21
304.2532653808594
 31
0.0
  0
LINE
  5
25A
330
22
100
AcDbEntity
  8
0
  6
Continuous
 62
     7
100
AcDbLine
 10
-292.9337768554688
 20
304.4248352050781
 30
0.0
 11
-289.9337768554688
 21
301.4248352050781
 31
0.0
  0
LINE
  5
25B
330
22
100
AcDbEntity
  8
0
  6
Continuous
 62
     7
100
AcDbLine
 10
-292.9337768554688
 20
301.5964050292969
 30
0.0
 11
-289.9337768554688
 21
298.5964050292969
 31
0.0
  0
LINE
  5
25C
330
22
100
AcDbEntity
  8
0
  6
Continuous
 62
     7
100
AcDbLine
 10
-292.9337768554688
 20
298.7679748535157
 30
0.0
 11
-289.9337768554688
 21
295.7679748535156
 31
0.0
  0
LINE
  5
25D
330
22
100
AcDbEntity
  8
0
  6
Continuous
 62
     7
100
AcDbLine
 10
-292.9337768554688
 20
295.9395751953125
 30
0.0
 11
-289.9337768554688
 21
292.9395751953125
 31
0.0
  0
LINE
  5
25E
330
22
100
AcDbEntity
  8
0
  6
Continuous
 62
     7
100
AcDbLine
 10
-292.9337768554688
 20
293.1111450195313
 30
0.0
 11
-289.9337768554688
 21
290.1111450195313
 31
0.0
  0
LINE
  5
25F
330
22
100
AcDbEntity
  8
0
  6
Continuous
 62
     7
100
AcDbLine
 10
-292.9337768554688
 20
290.28271484375
 30
0.0
 11
-289.9337768554688
 21
287.28271484375
 31
0.0
  0
LINE
  5
260
330
22
100
AcDbEntity
  8
0
  6
Continuous
 62
     7
100
AcDbLine
 10
-292.9337768554688
 20
287.4542846679688
 30
0.0
 11
-289.9337768554688
 21
284.4542846679688
 31
0.0
  0
LINE
  5
261
330
22
100
AcDbEntity
  8
0
  6
Continuous
 62
     7
100
AcDbLine
 10
-292.9337768554688
 20
284.6258544921875
 30
0.0
 11
-289.9337768554688
 21
281.6258544921875
 31
0.0
  0
LINE
  5
262
330
22
100
AcDbEntity
  8
0
  6
Continuous
 62
     7
100
AcDbLine
 10
-292.9337768554688
 20
281.7974243164063
 30
0.0
 11
-289.9337768554688
 21
278.7974243164063
 31
0.0
  0
ARC
  5
263
330
22
100
AcDbEntity
  8
0
  6
Continuous
 62
     7
100
AcDbCircle
 10
-432.6636047363281
 20
273.3686828613281
 30
0.0
 40
18.5
100
AcDbArc
 50
111.0985967008455
 51
140.9014235050759
  0
ARC
  5
264
330
22
100
AcDbEntity
  8
0
  6
Continuous
 62
     7
100
AcDbCircle
 10
-432.6629028320312
 20
273.3686218261719
 30
0.0
 40
26.0
100
AcDbArc
 50
38.20419984475547
 51
69.79576581702911
  0
ARC
  5
265
330
22
100
AcDbEntity
  8
0
  6
Continuous
 62
     7
100
AcDbCircle
 10
-432.6636047363281
 20
273.3679504394531
 30
0.0
 40
39.0
100
AcDbArc
 50
71.99998714327539
 51
108.0000128567246
  0
ARC
  5
266
330
22
100
AcDbEntity
  8
0
  6
Continuous
 62
     7
100
AcDbCircle
 10
-432.6629028320312
 20
273.3686218261719
 30
0.0
 40
18.5
100
AcDbArc
 50
39.09857649492406
 51
68.90140329915446
  0
ARC
  5
267
330
22
100
AcDbEntity
  8
0
  6
Continuous
 62
     7
100
AcDbCircle
 10
-432.6629028320312
 20
273.3686218261719
 30
0.0
 40
20.0
100
AcDbArc
 50
38.86596603150574
 51
69.13396017154356
  0
ARC
  5
268
330
22
100
AcDbEntity
  8
0
  6
Continuous
 62
     7
100
AcDbCircle
 10
-432.6636047363281
 20
273.3679504394531
 30
0.0
 40
41.5
100
AcDbArc
 50
72.00002071408076
 51
102.8199401814006
  0
ARC
  5
269
330
22
100
AcDbEntity
  8
0
  6
Continuous
 62
     7
100
AcDbCircle
 10
-432.6636047363281
 20
273.3679504394531
 30
0.0
 40
49.5
100
AcDbArc
 50
72.00000742987334
 51
108.0000261650788
  0
ARC
  5
26A
330
22
100
AcDbEntity
  8
0
  6
Continuous
 62
     7
100
AcDbCircle
 10
-432.6636047363281
 20
273.3679504394531
 30
0.0
 40
47.0
100
AcDbArc
 50
71.99999036291917
 51
103.1326347140824
  0
ARC
  5
26B
330
22
100
AcDbEntity
  8
0
  6
Continuous
 62
     7
100
AcDbCircle
 10
-426.219970703125
 20
283.4911499023438
 30
0.0
 40
2.0
100
AcDbArc
 50
161.9999332718726
 51
237.5221694470143
  0
ARC
  5
26C
330
22
100
AcDbEntity
  8
0
  6
Continuous
 62
     7
100
AcDbCircle
 10
-439.1072387695313
 20
283.4911499023438
 30
0.0
 40
2.0
100
AcDbArc
 50
302.4778305529872
 51
18.00006672812741
  0
ARC
  5
26D
330
22
100
AcDbEntity
  8
0
  6
Continuous
 62
     7
100
AcDbCircle
 10
-432.6629028320312
 20
273.3686218261719
 30
0.0
 40
32.5
100
AcDbArc
 50
37.7631893965571
 51
70.23678684136744
  0
ARC
  5
26E
330
22
100
AcDbEntity
  8
0
  6
Continuous
 62
     7
100
AcDbCircle
 10
-432.6629028320312
 20
273.3686218261719
 30
0.0
 40
27.5
100
AcDbArc
 50
38.08394979535293
 51
69.91601653255457
  0
ARC
  5
26F
330
22
100
AcDbEntity
  8
0
  6
Continuous
 62
     7
100
AcDbCircle
 10
-420.3201293945313
 20
290.3572998046875
 30
0.0
 40
25.0
100
AcDbArc
 50
27.27387373490977
 51
69.60075766939531
  0
ARC
  5
270
330
22
100
AcDbEntity
  8
0
  6
Continuous
 62
     7
100
AcDbCircle
 10
-432.6629028320312
 20
273.3686218261719
 30
0.0
 40
34.0
100
AcDbArc
 50
37.68540809231194
 51
70.31457454570622
  0
ARC
  5
271
330
22
100
AcDbEntity
  8
0
  6
Continuous
 62
     7
100
AcDbCircle
 10
-411.9546813964843
 20
312.8521728515625
 30
0.0
 40
1.0
100
AcDbArc
 50
69.60174099926168
 51
159.7157294994532
  0
ARC
  5
272
330
22
100
AcDbEntity
  8
0
  6
Continuous
 62
     7
100
AcDbCircle
 10
-399.8771057128906
 20
300.8969116210938
 30
0.0
 40
2.0
100
AcDbArc
 50
306.0003124205727
 51
27.27431082746387
  0
ARC
  5
273
330
22
100
AcDbEntity
  8
0
  6
Continuous
 62
     7
100
AcDbCircle
 10
-419.3211975097656
 20
307.9595336914063
 30
0.0
 40
1.0
100
AcDbArc
 50
87.46555997411968
 51
162.0013260774329
  0
ARC
  5
274
330
22
100
AcDbEntity
  8
0
  6
Continuous
 62
     7
100
AcDbCircle
 10
-418.9895935058594
 20
315.4521789550781
 30
0.0
 40
2.75
100
AcDbArc
 50
251.9993607521268
 51
72.00016194439604
  0
ARC
  5
275
330
22
100
AcDbEntity
  8
0
  6
Continuous
 62
     7
100
AcDbCircle
 10
-418.9895935058594
 20
315.4521789550781
 30
0.0
 40
6.5
100
AcDbArc
 50
267.4659511919571
 51
339.7164864653223
  0
ARC
  5
276
330
22
100
AcDbEntity
  8
0
  6
Continuous
 62
     7
100
AcDbCircle
 10
-418.9895935058594
 20
315.4521789550781
 30
0.0
 40
5.25
100
AcDbArc
 50
251.9999244038862
 51
72.00024115674032
  0
ARC
  5
277
330
22
100
AcDbEntity
  8
0
  6
Continuous
 62
     7
100
AcDbCircle
 10
-432.6629028320312
 20
273.3686218261719
 30
0.0
 40
40.53212356567382
100
AcDbArc
 50
37.41485896118687
 51
64.78163054285741
  0
ARC
  5
278
330
22
100
AcDbEntity
  8
0
  6
Continuous
 62
     7
100
AcDbCircle
 10
-446.3376159667968
 20
315.4521789550781
 30
0.0
 40
5.25
100
AcDbArc
 50
108.0000755961145
 51
288.0000755961152
  0
ARC
  5
279
330
22
100
AcDbEntity
  8
0
  6
Continuous
 62
     7
100
AcDbCircle
 10
-446.0060119628906
 20
307.9595336914063
 30
0.0
 40
1.0
100
AcDbArc
 50
17.9986739225671
 51
92.53444002588031
  0
ARC
  5
27A
330
22
100
AcDbEntity
  8
0
  6
Continuous
 62
     7
100
AcDbCircle
 10
-432.6636047363281
 20
273.3686828613281
 30
0.0
 40
20.0
100
AcDbArc
 50
110.8659581358253
 51
141.1340339684943
  0
ARC
  5
27B
330
22
100
AcDbEntity
  8
0
  6
Continuous
 62
     7
100
AcDbCircle
 10
-432.6636047363281
 20
273.3686828613281
 30
0.0
 40
27.5
100
AcDbArc
 50
110.0839616332933
 51
141.9160502046471
  0
ARC
  5
27C
330
22
100
AcDbEntity
  8
0
  6
Continuous
 62
     7
100
AcDbCircle
 10
-432.6636047363281
 20
273.3686828613281
 30
0.0
 40
26.0
100
AcDbArc
 50
110.2042109566427
 51
141.7957473085722
  0
ARC
  5
27D
330
22
100
AcDbEntity
  8
0
  6
Continuous
 62
     7
100
AcDbCircle
 10
-432.6636047363281
 20
273.3686828613281
 30
0.0
 40
34.0
100
AcDbArc
 50
109.6854254542938
 51
142.3145919076881
  0
ARC
  5
27E
330
22
100
AcDbEntity
  8
0
  6
Continuous
 62
     7
100
AcDbCircle
 10
-432.6636047363281
 20
273.3686828613281
 30
0.0
 40
32.5
100
AcDbArc
 50
109.7632131586326
 51
142.2367776558149
  0
CIRCLE
  5
27F
330
22
100
AcDbEntity
  8
0
  6
Continuous
 62
     7
100
AcDbCircle
 10
-446.3376159667968
 20
315.4521789550781
 30
0.0
 40
4.75
  0
ARC
  5
280
330
22
100
AcDbEntity
  8
0
  6
Continuous
 62
     7
100
AcDbCircle
 10
-432.6636047363281
 20
273.3686828613281
 30
0.0
 40
39.0
100
AcDbArc
 50
113.7970205796399
 51
142.5307135888588
  0
ARC
  5
281
330
22
100
AcDbEntity
  8
0
  6
Continuous
 62
     7
100
AcDbCircle
 10
-465.4501037597656
 20
300.8969116210938
 30
0.0
 40
2.0
100
AcDbArc
 50
152.7256891725361
 51
233.9996875794289
  0
ARC
  5
282
330
22
100
AcDbEntity
  8
0
  6
Continuous
 62
     7
100
AcDbCircle
 10
-445.0071105957031
 20
290.3572998046875
 30
0.0
 40
25.0
100
AcDbArc
 50
111.7658619976605
 51
152.7260942149501
  0
ARC
  5
283
330
22
100
AcDbEntity
  8
0
  6
Continuous
 62
     7
100
AcDbCircle
 10
-446.3376159667968
 20
315.4521789550781
 30
0.0
 40
6.5
100
AcDbArc
 50
257.2212262432211
 51
272.5340488080443
  0
ARC
  5
284
330
22
100
AcDbEntity
  8
0
  6
Continuous
 62
     7
100
AcDbCircle
 10
-446.3376159667968
 20
315.4521789550781
 30
0.0
 40
6.5
100
AcDbArc
 50
201.5938045025465
 51
272.5340488080443
  0
ARC
  5
285
330
22
100
AcDbEntity
  8
0
  6
Continuous
 62
     7
100
AcDbCircle
 10
-453.3112182617188
 20
312.6919860839844
 30
0.0
 40
1.0
100
AcDbArc
 50
21.59490400079534
 51
77.02019261956746
  0
ARC
  5
286
330
22
100
AcDbEntity
  8
0
  6
Continuous
 62
     7
100
AcDbCircle
 10
-453.5358581542968
 20
311.7175598144531
 30
0.0
 40
2.0
100
AcDbArc
 50
77.01914432308287
 51
111.7655303260471
  0
ARC
  5
287
330
22
100
AcDbEntity
  8
0
  6
Continuous
 62
     7
100
AcDbCircle
 10
-432.6629028320312
 20
273.3686218261719
 30
0.0
 40
39.0
100
AcDbArc
 50
37.46925913697121
 51
66.7112441782878
  0
ARC
  5
288
330
22
100
AcDbEntity
  8
0
  6
Continuous
 62
     7
100
AcDbCircle
 10
-432.6636047363281
 20
252.3679351806641
 30
0.0
 40
25.0
100
AcDbArc
 50
243.2738637106063
 51
296.726073820304
  0
ARC
  5
289
330
22
100
AcDbEntity
  8
0
  6
Continuous
 62
     7
100
AcDbCircle
 10
-432.6633605957031
 20
273.3675537109375
 30
0.0
 40
39.0
100
AcDbArc
 50
253.4692781517513
 51
286.5307218482501
  0
ARC
  5
28A
330
22
100
AcDbEntity
  8
0
  6
Continuous
 62
     7
100
AcDbCircle
 10
-432.6633605957031
 20
273.3675537109375
 30
0.0
 40
40.49999999999999
100
AcDbArc
 50
253.4148729067063
 51
286.5851684706692
  0
ARC
  5
28B
330
22
100
AcDbEntity
  8
0
  6
Continuous
 62
     7
100
AcDbCircle
 10
-432.6633605957031
 20
273.3675537109375
 30
0.0
 40
32.5
100
AcDbArc
 50
253.7632105061895
 51
286.2367894938118
  0
ARC
  5
28C
330
22
100
AcDbEntity
  8
0
  6
Continuous
 62
     7
100
AcDbCircle
 10
-432.6633605957031
 20
273.3675537109375
 30
0.0
 40
27.5
100
AcDbArc
 50
254.0839408586874
 51
285.9160591413139
  0
ARC
  5
28D
330
22
100
AcDbEntity
  8
0
  6
Continuous
 62
     7
100
AcDbCircle
 10
-432.6633605957031
 20
273.3675537109375
 30
0.0
 40
34.0
100
AcDbArc
 50
253.6854325033191
 51
286.3145674966824
  0
ARC
  5
28E
330
22
100
AcDbEntity
  8
0
  6
Continuous
 62
     7
100
AcDbCircle
 10
-443.0072937011718
 20
231.8251037597656
 30
0.0
 40
2.0
100
AcDbArc
 50
161.9999332718726
 51
243.2732779007286
  0
ARC
  5
28F
330
22
100
AcDbEntity
  8
0
  6
Continuous
 62
     7
100
AcDbCircle
 10
-422.3199157714843
 20
231.8251037597656
 30
0.0
 40
2.0
100
AcDbArc
 50
296.7259412379431
 51
18.00006672812741
  0
ARC
  5
290
330
22
100
AcDbEntity
  8
0
  6
Continuous
 62
     7
100
AcDbCircle
 10
-475.3695678710938
 20
270.3679504394531
 30
0.0
 40
2.0
100
AcDbArc
 50
90.00000000000019
 51
171.274310366712
  0
ARC
  5
291
330
22
100
AcDbEntity
  8
0
  6
Continuous
 62
     7
100
AcDbCircle
 10
-452.6358032226562
 20
266.8785705566406
 30
0.0
 40
25.0
100
AcDbArc
 50
171.2738741915142
 51
224.7261123252585
  0
ARC
  5
292
330
22
100
AcDbEntity
  8
0
  6
Continuous
 62
     7
100
AcDbCircle
 10
-432.6633605957031
 20
273.3675537109375
 30
0.0
 40
26.0
100
AcDbArc
 50
254.2042634425779
 51
285.795801268993
  0
ARC
  5
293
330
22
100
AcDbEntity
  8
0
  6
Continuous
 62
     7
100
AcDbCircle
 10
-432.6633605957031
 20
273.3675537109375
 30
0.0
 40
20.0
100
AcDbArc
 50
254.8659675441812
 51
285.1340324558202
  0
ARC
  5
294
330
22
100
AcDbEntity
  8
0
  6
Continuous
 62
     7
100
AcDbCircle
 10
-432.6633605957031
 20
273.3675537109375
 30
0.0
 40
18.5
100
AcDbArc
 50
255.0986222549887
 51
284.9014690814984
  0
CIRCLE
  5
295
330
22
100
AcDbEntity
  8
0
  6
Continuous
 62
     7
100
AcDbCircle
 10
-432.6636047363281
 20
273.3679504394531
 30
0.0
 40
5.5
  0
CIRCLE
  5
296
330
22
100
AcDbEntity
  8
0
  6
Continuous
 62
     7
100
AcDbCircle
 10
-432.6636047363281
 20
273.3679504394531
 30
0.0
 40
5.0
  0
ARC
  5
297
330
22
100
AcDbEntity
  8
0
  6
Continuous
 62
     7
100
AcDbCircle
 10
-431.9263305664063
 20
261.3905944824219
 30
0.0
 40
2.0
100
AcDbArc
 50
18.00006672812741
 51
93.52196351413835
  0
ARC
  5
298
330
22
100
AcDbEntity
  8
0
  6
Continuous
 62
     7
100
AcDbCircle
 10
-432.6639099121093
 20
273.3680419921875
 30
0.0
 40
27.5
100
AcDbArc
 50
182.0839423833917
 51
213.9160923380635
  0
ARC
  5
299
330
22
100
AcDbEntity
  8
0
  6
Continuous
 62
     7
100
AcDbCircle
 10
-432.6636047363281
 20
273.3679504394531
 30
0.0
 40
10.0
100
AcDbArc
 50
194.4775032562587
 51
201.5225290869701
  0
ARC
  5
29A
330
22
100
AcDbEntity
  8
0
  6
Continuous
 62
     7
100
AcDbCircle
 10
-443.826904296875
 20
268.9655456542969
 30
0.0
 40
2.0
100
AcDbArc
 50
306.0005058267116
 51
21.52233664538207
  0
ARC
  5
29B
330
22
100
AcDbEntity
  8
0
  6
Continuous
 62
     7
100
AcDbCircle
 10
-444.2825622558594
 20
270.3679504394531
 30
0.0
 40
2.0
100
AcDbArc
 50
14.47750325625797
 51
90.00000000000019
  0
ARC
  5
29C
330
22
100
AcDbEntity
  8
0
  6
Continuous
 62
     7
100
AcDbCircle
 10
-421.5003356933594
 20
268.9655456542969
 30
0.0
 40
2.0
100
AcDbArc
 50
158.477342616818
 51
234.0002014616679
  0
ARC
  5
29D
330
22
100
AcDbEntity
  8
0
  6
Continuous
 62
     7
100
AcDbCircle
 10
-432.6636047363281
 20
273.3679504394531
 30
0.0
 40
10.0
100
AcDbArc
 50
338.4774709130313
 51
345.5224967437428
  0
ARC
  5
29E
330
22
100
AcDbEntity
  8
0
  6
Continuous
 62
     7
100
AcDbCircle
 10
-432.6639099121093
 20
273.3680419921875
 30
0.0
 40
32.5
100
AcDbArc
 50
181.7632266116268
 51
214.2368061104264
  0
ARC
  5
29F
330
22
100
AcDbEntity
  8
0
  6
Continuous
 62
     7
100
AcDbCircle
 10
-432.6639099121093
 20
273.3680419921875
 30
0.0
 40
34.0
100
AcDbArc
 50
181.6854130604746
 51
214.314615640331
  0
ARC
  5
2A0
330
22
100
AcDbEntity
  8
0
  6
Continuous
 62
     7
100
AcDbCircle
 10
-468.976806640625
 20
250.6930541992189
 30
0.0
 40
2.0
100
AcDbArc
 50
224.7261376438839
 51
306.0000554778671
  0
ARC
  5
2A1
330
22
100
AcDbEntity
  8
0
  6
Continuous
 62
     7
100
AcDbCircle
 10
-432.6639099121093
 20
273.3680419921875
 30
0.0
 40
40.49999999999999
100
AcDbArc
 50
181.4148548153991
 51
214.5851866106177
  0
ARC
  5
2A2
330
22
100
AcDbEntity
  8
0
  6
Continuous
 62
     7
100
AcDbCircle
 10
-432.6639099121093
 20
273.3680419921875
 30
0.0
 40
39.0
100
AcDbArc
 50
181.4692845336338
 51
214.5307478055001
  0
ARC
  5
2A3
330
22
100
AcDbEntity
  8
0
  6
Continuous
 62
     7
100
AcDbCircle
 10
-432.6627502441406
 20
273.367919921875
 30
0.0
 40
32.5
100
AcDbArc
 50
325.7632463978165
 51
358.236775043787
  0
ARC
  5
2A4
330
22
100
AcDbEntity
  8
0
  6
Continuous
 62
     7
100
AcDbCircle
 10
-432.6627502441406
 20
273.367919921875
 30
0.0
 40
34.0
100
AcDbArc
 50
325.6854345894085
 51
358.3145869395268
  0
ARC
  5
2A5
330
22
100
AcDbEntity
  8
0
  6
Continuous
 62
     7
100
AcDbCircle
 10
-432.6627502441406
 20
273.367919921875
 30
0.0
 40
39.0
100
AcDbArc
 50
325.4692960762508
 51
358.5307166159595
  0
ARC
  5
2A6
330
22
100
AcDbEntity
  8
0
  6
Continuous
 62
     7
100
AcDbCircle
 10
-432.6627502441406
 20
273.367919921875
 30
0.0
 40
40.49999999999999
100
AcDbArc
 50
325.414855668042
 51
358.5851462506155
  0
ARC
  5
2A7
330
22
100
AcDbEntity
  8
0
  6
Continuous
 62
     7
100
AcDbCircle
 10
-396.3504028320313
 20
250.6930541992189
 30
0.0
 40
2.0
100
AcDbArc
 50
233.9999445221343
 51
315.2738623561177
  0
ARC
  5
2A8
330
22
100
AcDbEntity
  8
0
  6
Continuous
 62
     7
100
AcDbCircle
 10
-412.69140625
 20
266.8785705566406
 30
0.0
 40
25.0
100
AcDbArc
 50
315.2738876747429
 51
8.726125808485884
  0
ARC
  5
2A9
330
22
100
AcDbEntity
  8
0
  6
Continuous
 62
     7
100
AcDbCircle
 10
-389.9576416015625
 20
270.3679504394531
 30
0.0
 40
2.0
100
AcDbArc
 50
8.725689633287872
 51
90.00000000000019
  0
ARC
  5
2AA
330
22
100
AcDbEntity
  8
0
  6
Continuous
 62
     7
100
AcDbCircle
 10
-432.6639099121093
 20
273.3680419921875
 30
0.0
 40
18.5
100
AcDbArc
 50
183.0985830719983
 51
212.9014807056049
  0
ARC
  5
2AB
330
22
100
AcDbEntity
  8
0
  6
Continuous
 62
     7
100
AcDbCircle
 10
-432.6639099121093
 20
273.3680419921875
 30
0.0
 40
20.0
100
AcDbArc
 50
182.8659852387386
 51
213.1341067288174
  0
ARC
  5
2AC
330
22
100
AcDbEntity
  8
0
  6
Continuous
 62
     7
100
AcDbCircle
 10
-432.6639099121093
 20
273.3680419921875
 30
0.0
 40
26.0
100
AcDbArc
 50
182.2042290893828
 51
213.7957876764605
  0
ARC
  5
2AD
330
22
100
AcDbEntity
  8
0
  6
Continuous
 62
     7
100
AcDbCircle
 10
-432.6627502441406
 20
273.367919921875
 30
0.0
 40
18.5
100
AcDbArc
 50
327.0986499898714
 51
356.9014220369286
  0
ARC
  5
2AE
330
22
100
AcDbEntity
  8
0
  6
Continuous
 62
     7
100
AcDbCircle
 10
-421.0446472167968
 20
270.3679504394531
 30
0.0
 40
2.0
100
AcDbArc
 50
90.00000000000019
 51
165.522496743742
  0
ARC
  5
2AF
330
22
100
AcDbEntity
  8
0
  6
Continuous
 62
     7
100
AcDbCircle
 10
-432.6627502441406
 20
273.367919921875
 30
0.0
 40
20.0
100
AcDbArc
 50
326.8660142688184
 51
357.1340191325811
  0
ARC
  5
2B0
330
22
100
AcDbEntity
  8
0
  6
Continuous
 62
     7
100
AcDbCircle
 10
-432.6627502441406
 20
273.367919921875
 30
0.0
 40
27.5
100
AcDbArc
 50
326.0839431397737
 51
357.9160576166098
  0
ARC
  5
2B1
330
22
100
AcDbEntity
  8
0
  6
Continuous
 62
     7
100
AcDbCircle
 10
-432.6627502441406
 20
273.367919921875
 30
0.0
 40
26.0
100
AcDbArc
 50
326.2042497308851
 51
357.7957734971998
  0
ARC
  5
2B2
330
22
100
AcDbEntity
  8
0
  6
Continuous
 62
     7
100
AcDbCircle
 10
-432.6636047363281
 20
273.3679504394531
 30
0.0
 40
10.0
100
AcDbArc
 50
266.4774699525468
 51
273.5225300474547
  0
ARC
  5
2B3
330
22
100
AcDbEntity
  8
0
  6
Continuous
 62
     7
100
AcDbCircle
 10
-433.40087890625
 20
261.3905944824219
 30
0.0
 40
2.0
100
AcDbArc
 50
86.47803648586165
 51
161.9999332718726
  0
CIRCLE
  5
2B4
330
22
100
AcDbEntity
  8
0
  6
Continuous
 62
     7
100
AcDbCircle
 10
-432.6636047363281
 20
273.3679504394531
 30
0.0
 40
66.25240325927734
  0
CIRCLE
  5
2B5
330
22
100
AcDbEntity
  8
0
  6
Continuous
 62
     7
100
AcDbCircle
 10
-432.6636047363281
 20
273.3679504394531
 30
0.0
 40
65.5
  0
CIRCLE
  5
2B6
330
22
100
AcDbEntity
  8
0
  6
DASHED
 62
     7
100
AcDbCircle
 10
-432.6636047363281
 20
273.3679504394531
 30
0.0
 40
49.5
  0
CIRCLE
  5
2B7
330
22
100
AcDbEntity
  8
0
  6
Continuous
 62
     7
100
AcDbCircle
 10
-432.6636047363281
 20
273.3679504394531
 30
0.0
 40
83.0
  0
CIRCLE
  5
2B8
330
22
100
AcDbEntity
  8
0
  6
DASHED
 62
     7
100
AcDbCircle
 10
-432.6636047363281
 20
273.3679504394531
 30
0.0
 40
26.25
  0
ARC
  5
2B9
330
22
100
AcDbEntity
  8
0
  6
Continuous
 62
     7
100
AcDbCircle
 10
-425.0270385742187
 20
282.6244201660156
 30
0.0
 40
2.0
100
AcDbArc
 50
230.4769640949989
 51
306.0003124205727
  0
ARC
  5
2BA
330
22
100
AcDbEntity
  8
0
  6
Continuous
 62
     7
100
AcDbCircle
 10
-432.6636047363281
 20
273.3679504394531
 30
0.0
 40
10.0
100
AcDbArc
 50
50.47754406884499
 51
57.52241084435099
  0
ARC
  5
2BB
330
22
100
AcDbEntity
  8
0
  6
Continuous
 62
     7
100
AcDbCircle
 10
-432.6636047363281
 20
273.3679504394531
 30
0.0
 40
10.0
100
AcDbArc
 50
122.477589155649
 51
129.522455931155
  0
ARC
  5
2BC
330
22
100
AcDbEntity
  8
0
  6
Continuous
 62
     7
100
AcDbCircle
 10
-440.3001708984374
 20
282.6244201660156
 30
0.0
 40
2.0
100
AcDbArc
 50
233.9996875794289
 51
309.5230359050026
  0
CIRCLE
  5
2BD
330
22
100
AcDbEntity
  8
0
  6
Continuous
 62
     7
100
AcDbCircle
 10
-432.6636047363281
 20
273.3679504394531
 30
0.0
 40
55.0
  0
CIRCLE
  5
2BE
330
22
100
AcDbEntity
  8
0
  6
Continuous
 62
     7
100
AcDbCircle
 10
-432.6636047363281
 20
273.3679504394531
 30
0.0
 40
55.59999847412109
  0
CIRCLE
  5
2BF
330
22
100
AcDbEntity
  8
0
  6
Continuous
 62
     7
100
AcDbCircle
 10
-432.6636047363281
 20
98.36793518066407
 30
0.0
 40
55.0
  0
CIRCLE
  5
2C0
330
22
100
AcDbEntity
  8
0
  6
Continuous
 62
     7
100
AcDbCircle
 10
-432.6636047363281
 20
98.36793518066407
 30
0.0
 40
55.59999847412109
  0
ARC
  5
2C1
330
22
100
AcDbEntity
  8
0
  6
Continuous
 62
     7
100
AcDbCircle
 10
-421.0446472167968
 20
95.36793518066406
 30
0.0
 40
2.0
100
AcDbArc
 50
90.00000000000019
 51
165.522496743742
  0
ARC
  5
2C2
330
22
100
AcDbEntity
  8
0
  6
Continuous
 62
     7
100
AcDbCircle
 10
-389.9576416015625
 20
95.36793518066406
 30
0.0
 40
2.0
100
AcDbArc
 50
8.726121708742592
 51
90.00000000000019
  0
ARC
  5
2C3
330
22
100
AcDbEntity
  8
0
  6
Continuous
 62
     7
100
AcDbCircle
 10
-412.69140625
 20
91.87857818603516
 30
0.0
 40
25.0
100
AcDbArc
 50
315.2738876747429
 51
8.726108525583329
  0
ARC
  5
2C4
330
22
100
AcDbEntity
  8
0
  6
Continuous
 62
     7
100
AcDbCircle
 10
-396.3504028320313
 20
75.69305419921875
 30
0.0
 40
2.0
100
AcDbArc
 50
234.0000729922976
 51
315.2740176427546
  0
ARC
  5
2C5
330
22
100
AcDbEntity
  8
0
  6
Continuous
 62
     7
100
AcDbCircle
 10
-468.976806640625
 20
75.69305419921875
 30
0.0
 40
2.0
100
AcDbArc
 50
224.7259823572468
 51
305.9999270077038
  0
ARC
  5
2C6
330
22
100
AcDbEntity
  8
0
  6
Continuous
 62
     7
100
AcDbCircle
 10
-432.6636047363281
 20
98.36793518066407
 30
0.0
 40
10.0
100
AcDbArc
 50
338.4775115782769
 51
345.5224967437428
  0
ARC
  5
2C7
330
22
100
AcDbEntity
  8
0
  6
Continuous
 62
     7
100
AcDbCircle
 10
-421.5003356933594
 20
93.96553802490235
 30
0.0
 40
2.0
100
AcDbArc
 50
158.477342616818
 51
234.0000729922976
  0
ARC
  5
2C8
330
22
100
AcDbEntity
  8
0
  6
Continuous
 62
     7
100
AcDbCircle
 10
-444.2825622558594
 20
95.36793518066406
 30
0.0
 40
2.0
100
AcDbArc
 50
14.47750325625797
 51
90.00000000000019
  0
ARC
  5
2C9
330
22
100
AcDbEntity
  8
0
  6
Continuous
 62
     7
100
AcDbCircle
 10
-443.826904296875
 20
93.96553802490235
 30
0.0
 40
2.0
100
AcDbArc
 50
306.0006342971125
 51
21.52233664538207
  0
ARC
  5
2CA
330
22
100
AcDbEntity
  8
0
  6
Continuous
 62
     7
100
AcDbCircle
 10
-432.6636047363281
 20
98.36793518066407
 30
0.0
 40
10.0
100
AcDbArc
 50
194.4775032562587
 51
201.5224884217245
  0
ARC
  5
2CB
330
22
100
AcDbEntity
  8
0
  6
Continuous
 62
     7
100
AcDbCircle
 10
-431.9263305664063
 20
86.39060974121093
 30
0.0
 40
2.0
100
AcDbArc
 50
17.99985886123844
 51
93.52201722137991
  0
CIRCLE
  5
2CC
330
22
100
AcDbEntity
  8
0
  6
Continuous
 62
     7
100
AcDbCircle
 10
-432.6636047363281
 20
98.36793518066407
 30
0.0
 40
5.0
  0
CIRCLE
  5
2CD
330
22
100
AcDbEntity
  8
0
  6
Continuous
 62
     7
100
AcDbCircle
 10
-432.6636047363281
 20
98.36793518066407
 30
0.0
 40
5.5
  0
ARC
  5
2CE
330
22
100
AcDbEntity
  8
0
  6
Continuous
 62
     7
100
AcDbCircle
 10
-452.6358032226562
 20
91.87857818603516
 30
0.0
 40
25.0
100
AcDbArc
 50
171.2738914744167
 51
224.7261123252585
  0
ARC
  5
2CF
330
22
100
AcDbEntity
  8
0
  6
Continuous
 62
     7
100
AcDbCircle
 10
-475.3695678710938
 20
95.36793518066406
 30
0.0
 40
2.0
100
AcDbArc
 50
90.00000000000019
 51
171.2738782912574
  0
ARC
  5
2D0
330
22
100
AcDbEntity
  8
0
  6
Continuous
 62
     7
100
AcDbCircle
 10
-422.3199157714843
 20
56.82510375976563
 30
0.0
 40
2.0
100
AcDbArc
 50
296.7259412379431
 51
17.99985886123844
  0
ARC
  5
2D1
330
22
100
AcDbEntity
  8
0
  6
Continuous
 62
     7
100
AcDbCircle
 10
-443.0072937011718
 20
56.82510375976563
 30
0.0
 40
2.0
100
AcDbArc
 50
162.0001411387616
 51
243.2732779007286
  0
ARC
  5
2D2
330
22
100
AcDbEntity
  8
0
  6
Continuous
 62
     7
100
AcDbCircle
 10
-432.6636047363281
 20
77.36793518066406
 30
0.0
 40
25.0
100
AcDbArc
 50
243.2738637106063
 51
296.726073820304
  0
ARC
  5
2D3
330
22
100
AcDbEntity
  8
0
  6
Continuous
 62
     7
100
AcDbCircle
 10
-453.5358581542968
 20
136.7175445556641
 30
0.0
 40
2.0
100
AcDbArc
 50
77.01924251372694
 51
111.7652061407656
  0
ARC
  5
2D4
330
22
100
AcDbEntity
  8
0
  6
Continuous
 62
     7
100
AcDbCircle
 10
-453.3112182617188
 20
137.6919860839844
 30
0.0
 40
1.0
100
AcDbArc
 50
21.59409109760295
 51
77.02019261956746
  0
ARC
  5
2D5
330
22
100
AcDbEntity
  8
0
  6
Continuous
 62
     7
100
AcDbCircle
 10
-446.3376159667968
 20
140.4521942138672
 30
0.0
 40
6.5
100
AcDbArc
 50
201.5940546273056
 51
272.5340369145485
  0
ARC
  5
2D6
330
22
100
AcDbEntity
  8
0
  6
Continuous
 62
     7
100
AcDbCircle
 10
-446.3376159667968
 20
140.4521942138672
 30
0.0
 40
6.5
100
AcDbArc
 50
257.2212559933865
 51
272.5340369145485
  0
ARC
  5
2D7
330
22
100
AcDbEntity
  8
0
  6
Continuous
 62
     7
100
AcDbCircle
 10
-445.0071105957031
 20
115.357292175293
 30
0.0
 40
25.0
100
AcDbArc
 50
111.7658425462648
 51
152.7260942149501
  0
ARC
  5
2D8
330
22
100
AcDbEntity
  8
0
  6
Continuous
 62
     7
100
AcDbCircle
 10
-465.4501037597656
 20
125.8969192504883
 30
0.0
 40
2.0
100
AcDbArc
 50
152.7260777061365
 51
234.0000729922976
  0
CIRCLE
  5
2D9
330
22
100
AcDbEntity
  8
0
  6
Continuous
 62
     7
100
AcDbCircle
 10
-418.9895935058594
 20
140.4521942138672
 30
0.0
 40
4.75
  0
ARC
  5
2DA
330
22
100
AcDbEntity
  8
0
  6
Continuous
 62
     7
100
AcDbCircle
 10
-446.0060119628906
 20
132.9595184326172
 30
0.0
 40
1.0
100
AcDbArc
 50
18.0003368929858
 51
92.53444002588031
  0
ARC
  5
2DB
330
22
100
AcDbEntity
  8
0
  6
Continuous
 62
     7
100
AcDbCircle
 10
-446.3376159667968
 20
140.4521942138672
 30
0.0
 40
5.25
100
AcDbArc
 50
108.0000755961145
 51
288.0000241364982
  0
ARC
  5
2DC
330
22
100
AcDbEntity
  8
0
  6
Continuous
 62
     7
100
AcDbCircle
 10
-418.9895935058594
 20
140.4521942138672
 30
0.0
 40
5.25
100
AcDbArc
 50
251.9999758635032
 51
72.00024115674032
  0
ARC
  5
2DD
330
22
100
AcDbEntity
  8
0
  6
Continuous
 62
     7
100
AcDbCircle
 10
-418.9895935058594
 20
140.4521942138672
 30
0.0
 40
6.5
100
AcDbArc
 50
267.4659630854529
 51
339.7162341425449
  0
ARC
  5
2DE
330
22
100
AcDbEntity
  8
0
  6
Continuous
 62
     7
100
AcDbCircle
 10
-419.3211975097656
 20
132.9595184326172
 30
0.0
 40
1.0
100
AcDbArc
 50
87.46555997411968
 51
161.9996631070142
  0
ARC
  5
2DF
330
22
100
AcDbEntity
  8
0
  6
Continuous
 62
     7
100
AcDbCircle
 10
-399.8771057128906
 20
125.8969192504883
 30
0.0
 40
2.0
100
AcDbArc
 50
305.9999270077038
 51
27.27392229386341
  0
ARC
  5
2E0
330
22
100
AcDbEntity
  8
0
  6
Continuous
 62
     7
100
AcDbCircle
 10
-411.9546813964843
 20
137.8521728515625
 30
0.0
 40
1.0
100
AcDbArc
 50
69.60174099926168
 51
159.7165495461443
  0
ARC
  5
2E1
330
22
100
AcDbEntity
  8
0
  6
Continuous
 62
     7
100
AcDbCircle
 10
-420.3201293945313
 20
115.357292175293
 30
0.0
 40
25.0
100
AcDbArc
 50
27.27387373490977
 51
69.60076376405964
  0
ARC
  5
2E2
330
22
100
AcDbEntity
  8
0
  6
Continuous
 62
     7
100
AcDbCircle
 10
-439.1072387695313
 20
108.4911651611328
 30
0.0
 40
2.0
100
AcDbArc
 50
302.4777131889842
 51
17.99985886123844
  0
ARC
  5
2E3
330
22
100
AcDbEntity
  8
0
  6
Continuous
 62
     7
100
AcDbCircle
 10
-426.219970703125
 20
108.4911651611328
 30
0.0
 40
2.0
100
AcDbArc
 50
162.0001411387616
 51
237.5222868110172
  0
ARC
  5
2E4
330
22
100
AcDbEntity
  8
0
  6
Continuous
 62
     7
100
AcDbCircle
 10
-432.6636047363281
 20
98.36793518066407
 30
0.0
 40
47.0
100
AcDbArc
 50
76.86736951226004
 51
107.9999685070376
  0
ARC
  5
2E5
330
22
100
AcDbEntity
  8
0
  6
Continuous
 62
     7
100
AcDbCircle
 10
-432.6636047363281
 20
98.36793518066407
 30
0.0
 40
49.5
100
AcDbArc
 50
72.00001834552589
 51
108.0000152494087
  0
ARC
  5
2E6
330
22
100
AcDbEntity
  8
0
  6
Continuous
 62
     7
100
AcDbCircle
 10
-432.6636047363281
 20
98.36793518066407
 30
0.0
 40
41.5
100
AcDbArc
 50
77.18006449302348
 51
108.0000193569923
  0
ARC
  5
2E7
330
22
100
AcDbEntity
  8
0
  6
Continuous
 62
     7
100
AcDbCircle
 10
-432.6636047363281
 20
98.36793518066407
 30
0.0
 40
39.0
100
AcDbArc
 50
71.99999407052397
 51
108.0000059294761
  0
ARC
  5
2E8
330
22
100
AcDbEntity
  8
0
  6
Continuous
 62
     7
100
AcDbCircle
 10
-432.6636047363281
 20
98.36793518066407
 30
0.0
 40
10.0
100
AcDbArc
 50
266.4774699525468
 51
273.5225300474547
  0
ARC
  5
2E9
330
22
100
AcDbEntity
  8
0
  6
Continuous
 62
     7
100
AcDbCircle
 10
-433.40087890625
 20
86.39060974121093
 30
0.0
 40
2.0
100
AcDbArc
 50
86.47798277862007
 51
162.0001411387616
  0
CIRCLE
  5
2EA
330
22
100
AcDbEntity
  8
0
  6
Continuous
 62
     7
100
AcDbCircle
 10
-432.6636047363281
 20
98.36793518066407
 30
0.0
 40
66.25240325927734
  0
CIRCLE
  5
2EB
330
22
100
AcDbEntity
  8
0
  6
Continuous
 62
     7
100
AcDbCircle
 10
-432.6636047363281
 20
98.36793518066407
 30
0.0
 40
65.5
  0
CIRCLE
  5
2EC
330
22
100
AcDbEntity
  8
0
  6
DASHED
 62
     7
100
AcDbCircle
 10
-432.6636047363281
 20
98.36793518066407
 30
0.0
 40
49.5
  0
CIRCLE
  5
2ED
330
22
100
AcDbEntity
  8
0
  6
Continuous
 62
     7
100
AcDbCircle
 10
-432.6636047363281
 20
98.36793518066407
 30
0.0
 40
83.0
  0
CIRCLE
  5
2EE
330
22
100
AcDbEntity
  8
0
  6
DASHED
 62
     7
100
AcDbCircle
 10
-432.6636047363281
 20
98.36793518066407
 30
0.0
 40
26.25
  0
ARC
  5
2EF
330
22
100
AcDbEntity
  8
0
  6
Continuous
 62
     7
100
AcDbCircle
 10
-425.0270385742187
 20
107.6244354248047
 30
0.0
 40
2.0
100
AcDbArc
 50
230.4773813735252
 51
305.9999270077038
  0
ARC
  5
2F0
330
22
100
AcDbEntity
  8
0
  6
Continuous
 62
     7
100
AcDbCircle
 10
-432.6636047363281
 20
98.36793518066407
 30
0.0
 40
10.0
100
AcDbArc
 50
50.47757188709338
 51
57.52248126231139
  0
ARC
  5
2F1
330
22
100
AcDbEntity
  8
0
  6
Continuous
 62
     7
100
AcDbCircle
 10
-432.6636047363281
 20
98.36793518066407
 30
0.0
 40
10.0
100
AcDbArc
 50
122.4775187376886
 51
129.5224281129066
  0
ARC
  5
2F2
330
22
100
AcDbEntity
  8
0
  6
Continuous
 62
     7
100
AcDbCircle
 10
-440.3001708984374
 20
107.6244354248047
 30
0.0
 40
2.0
100
AcDbArc
 50
234.0000729922976
 51
309.5226186264762
  0
ARC
  5
2F3
330
22
100
AcDbEntity
  8
0
  6
Continuous
 62
     7
100
AcDbCircle
 10
-446.3376159667968
 20
140.4521942138672
 30
0.0
 40
2.75
100
AcDbArc
 50
107.9993315837076
 51
287.9998380556047
  0
ARC
  5
2F4
330
22
100
AcDbEntity
  8
0
  6
Continuous
 62
     7
100
AcDbCircle
 10
-146.9337768554688
 20
354.3679504394531
 30
0.0
 40
2.0
100
AcDbArc
 50
90.00000000000019
 51
180.0000000000004
  0
ARC
  5
2F5
330
22
100
AcDbEntity
  8
0
  6
Continuous
 62
     7
100
AcDbCircle
 10
-144.4337768554688
 20
308.3679504394531
 30
0.0
 40
1.0
100
AcDbArc
 50
180.0000000000004
 51
270.0000000000005
  0
ARC
  5
2F6
330
22
100
AcDbEntity
  8
0
  6
Continuous
 62
     7
100
AcDbCircle
 10
-117.9337692260742
 20
306.3679504394531
 30
0.0
 40
1.0
100
AcDbArc
 50
0.0
 51
90.00000000000019
  0
ARC
  5
2F7
330
22
100
AcDbEntity
  8
0
  6
Continuous
 62
     7
100
AcDbCircle
 10
-153.9337768554688
 20
311.3679504394531
 30
0.0
 40
5.0
100
AcDbArc
 50
270.0000000000005
 51
0.0
  0
ARC
  5
2F8
330
22
100
AcDbEntity
  8
0
  6
Continuous
 62
     7
100
AcDbCircle
 10
-177.9337768554688
 20
305.3679504394531
 30
0.0
 40
1.0
100
AcDbArc
 50
90.00000000000019
 51
180.0000000000004
  0
ARC
  5
2F9
330
22
100
AcDbEntity
  8
0
  6
Continuous
 62
     7
100
AcDbCircle
 10
-144.4337768554688
 20
238.3679351806641
 30
0.0
 40
1.0
100
AcDbArc
 50
90.00000000000019
 51
180.0000000000004
  0
ARC
  5
2FA
330
22
100
AcDbEntity
  8
0
  6
Continuous
 62
     7
100
AcDbCircle
 10
-127.9143676757813
 20
220.6013793945313
 30
0.0
 40
15.0
100
AcDbArc
 50
101.948018525957
 51
160.1713197855318
  0
ARC
  5
2FB
330
22
100
AcDbEntity
  8
0
  6
Continuous
 62
     7
100
AcDbCircle
 10
-131.4337768554687
 20
237.2330780029297
 30
0.0
 40
2.0
100
AcDbArc
 50
281.9480262139505
 51
0.0
  0
ARC
  5
2FC
330
22
100
AcDbEntity
  8
0
  6
Continuous
 62
     7
100
AcDbCircle
 10
-117.9337692260742
 20
240.3679351806641
 30
0.0
 40
1.0
100
AcDbArc
 50
270.0000000000005
 51
0.0
  0
ARC
  5
2FD
330
22
100
AcDbEntity
  8
0
  6
Continuous
 62
     7
100
AcDbCircle
 10
-177.9337768554688
 20
241.3679351806641
 30
0.0
 40
1.0
100
AcDbArc
 50
180.0000000000004
 51
270.0000000000005
  0
ARC
  5
2FE
330
22
100
AcDbEntity
  8
0
  6
Continuous
 62
     7
100
AcDbCircle
 10
-145.9337768554688
 20
355.8679504394531
 30
0.0
 40
0.5
100
AcDbArc
 50
0.0
 51
90.00000000000019
  0
ARC
  5
2FF
330
22
100
AcDbEntity
  8
0
  6
Continuous
 62
     7
100
AcDbCircle
 10
-143.9064483642578
 20
226.3679351806641
 30
0.0
 40
2.0
100
AcDbArc
 50
270.0000000000005
 51
340.1710991474457
  0
ARC
  5
300
330
22
100
AcDbEntity
  8
0
  6
Continuous
 62
     7
100
AcDbCircle
 10
-145.9337768554688
 20
190.8679351806641
 30
0.0
 40
0.5
100
AcDbArc
 50
270.0000000000005
 51
0.0
  0
ARC
  5
301
330
22
100
AcDbEntity
  8
0
  6
Continuous
 62
     7
100
AcDbCircle
 10
-153.9337768554688
 20
235.3679351806641
 30
0.0
 40
5.0
100
AcDbArc
 50
0.0
 51
90.00000000000019
  0
ARC
  5
302
330
22
100
AcDbEntity
  8
0
  6
Continuous
 62
     7
100
AcDbCircle
 10
-146.9337768554688
 20
192.367935180664
 30
0.0
 40
2.0
100
AcDbArc
 50
180.0000000000004
 51
270.0000000000005
  0
ARC
  5
303
330
22
100
AcDbEntity
  8
0
  6
Continuous
 62
     7
100
AcDbCircle
 10
-281.3771362304688
 20
320.3679504394531
 30
0.0
 40
3.0
100
AcDbArc
 50
30.00022185874558
 51
90.00000000000019
  0
ARC
  5
304
330
22
100
AcDbEntity
  8
0
  6
Continuous
 62
     7
100
AcDbCircle
 10
-281.6658325195313
 20
326.8679504394531
 30
0.0
 40
3.0
100
AcDbArc
 50
29.99993043599933
 51
90.00000000000019
  0
ARC
  5
305
330
22
100
AcDbEntity
  8
0
  6
Continuous
 62
     7
100
AcDbCircle
 10
-286.9337768554688
 20
331.8679504394531
 30
0.0
 40
2.0
100
AcDbArc
 50
180.0000000000004
 51
270.0000000000005
  0
ARC
  5
306
330
22
100
AcDbEntity
  8
0
  6
Continuous
 62
     7
100
AcDbCircle
 10
-258.9337768554688
 20
302.3679504394531
 30
0.0
 40
1.0
100
AcDbArc
 50
0.0
 51
90.00000000000019
  0
ARC
  5
307
330
22
100
AcDbEntity
  8
0
  6
Continuous
 62
     7
100
AcDbCircle
 10
-265.3556823730469
 20
300.6179504394531
 30
0.0
 40
1.0
100
AcDbArc
 50
209.9999304360001
 51
270.0000000000005
  0
ARC
  5
308
330
22
100
AcDbEntity
  8
0
  6
Continuous
 62
     7
100
AcDbCircle
 10
-264.9337768554688
 20
300.6179504394531
 30
0.0
 40
1.0
100
AcDbArc
 50
270.0000000000005
 51
0.0
  0
ARC
  5
309
330
22
100
AcDbEntity
  8
0
  6
Continuous
 62
     7
100
AcDbCircle
 10
-262.9337768554688
 20
302.3679504394531
 30
0.0
 40
1.0
100
AcDbArc
 50
90.00000000000019
 51
180.0000000000004
  0
ARC
  5
30A
330
22
100
AcDbEntity
  8
0
  6
Continuous
 62
     7
100
AcDbCircle
 10
-244.0261993408203
 20
248.8885345458984
 30
0.0
 40
0.9098099470138549
100
AcDbArc
 50
138.8467080398825
 51
221.1532919601182
  0
ARC
  5
30B
330
22
100
AcDbEntity
  8
0
  6
Continuous
 62
     7
100
AcDbCircle
 10
-242.9246978759766
 20
250.0213928222656
 30
0.0
 40
2.487993478775023
100
AcDbArc
 50
224.1049660384527
 51
269.7909204579515
  0
ARC
  5
30C
330
22
100
AcDbEntity
  8
0
  6
Continuous
 62
     7
100
AcDbCircle
 10
-239.5767517089844
 20
245.3526763916016
 30
0.0
 40
6.5922532081604
100
AcDbArc
 50
120.6130852607391
 51
141.1570166076121
  0
ARC
  5
30D
330
22
100
AcDbEntity
  8
0
  6
Continuous
 62
     7
100
AcDbCircle
 10
-266.685791015625
 20
248.5418090820314
 30
0.0
 40
1.12554121017456
100
AcDbArc
 50
176.6588542130857
 51
217.5261107261397
  0
ARC
  5
30E
330
22
100
AcDbEntity
  8
0
  6
Continuous
 62
     7
100
AcDbCircle
 10
-264.6797180175781
 20
247.4821319580078
 30
0.0
 40
3.609778881072998
100
AcDbArc
 50
100.9536944665093
 51
130.493011292489
  0
ARC
  5
30F
330
22
100
AcDbEntity
  8
0
  6
Continuous
 62
     7
100
AcDbCircle
 10
-264.3307189941406
 20
247.9206848144531
 30
0.0
 40
3.545835494995116
100
AcDbArc
 50
139.4193244664061
 51
168.8329555021996
  0
ARC
  5
310
330
22
100
AcDbEntity
  8
0
  6
Continuous
 62
     7
100
AcDbCircle
 10
-281.6658325195313
 20
219.8679351806641
 30
0.0
 40
3.0
100
AcDbArc
 50
270.0000000000005
 51
330.0000695640014
  0
ARC
  5
311
330
22
100
AcDbEntity
  8
0
  6
Continuous
 62
     7
100
AcDbCircle
 10
-286.9337768554688
 20
214.8679351806641
 30
0.0
 40
2.0
100
AcDbArc
 50
90.00000000000019
 51
180.0000000000004
  0
ARC
  5
312
330
22
100
AcDbEntity
  8
0
  6
Continuous
 62
     7
100
AcDbCircle
 10
-265.2113342285156
 20
236.3679351806641
 30
0.0
 40
3.0
100
AcDbArc
 50
90.00000000000019
 51
150.0000695640007
  0
ARC
  5
313
330
22
100
AcDbEntity
  8
0
  6
Continuous
 62
     7
100
AcDbCircle
 10
-266.7727661132813
 20
248.6942749023438
 30
0.0
 40
1.162511467933655
100
AcDbArc
 50
226.1290364661798
 51
266.9437330668616
  0
LWPOLYLINE
  5
314
330
22
100
AcDbEntity
  8
0
  6
Continuous
 62
     7
100
AcDbPolyline
 90
       17
 70
     0
 43
0.0
 10
-292.9337768554688
 20
320.7021789550781
 42
0.0491268497694673
 10
-293.3032961740088
 20
320.6013016771951
 42
0.0491268497694673
 10
-293.6586150723662
 20
320.3025465007624
 42
0.0491268497694673
 10
-293.986078844542
 20
319.8173944196665
 42
0.0491268497694673
 10
-294.2731032414155
 20
319.1644895563075
 42
0.0491268497694673
 10
-294.5086580763799
 20
318.368922678431
 42
0.0491268497694673
 10
-294.6836911092285
 20
317.4612669749948
 42
0.0491268497694673
 10
-294.7914759186682
 20
316.4764031456628
 42
0.0491268497694673
 10
-294.8278703949188
 20
315.4521789550781
 42
0.0491268497694673
 10
-294.7914759186681
 20
314.4279547644935
 42
0.0491268497694673
 10
-294.6836911092285
 20
313.4430909351614
 42
0.0491268497694673
 10
-294.5086580763799
 20
312.5354352317252
 42
0.0491268497694673
 10
-294.2731032414155
 20
311.7398683538488
 42
0.0491268497694673
 10
-293.9860788445419
 20
311.0869634904897
 42
0.0491268497694673
 10
-293.658615072366
 20
310.6018114093938
 42
0.0491268497694673
 10
-293.3032961740087
 20
310.3030562329611
 42
0.0491268497694673
 10
-292.9337768554687
 20
310.2021789550781
 42
-1.0
  0
TEXT
  5
327
330
22
100
AcDbEntity
  8
0
  6
Continuous
 62
     7
100
AcDbText
 10
-234.0295038223267
 20
145.8001251220703
 30
0.0
 40
7.0
  1
ＤＬ－ＳＵＣ－５０
 41
0.8448610808647003
100
AcDbText
  0
TEXT
  5
328
330
22
100
AcDbEntity
  8
0
  6
Continuous
 62
     7
100
AcDbText
 10
-552.3399286270141
 20
333.4527282714844
 30
0.0
 40
7.0
  1
　全　開　時　　
 41
0.8454512837995997
100
AcDbText
  0
LINE
  5
329
330
22
100
AcDbEntity
  8
0
  6
Continuous
 62
     7
100
AcDbLine
 10
-553.3385953903198
 20
331.7027282714844
 30
0.0
 11
-553.3385953903198
 21
342.2027282714844
 31
0.0
  0
LINE
  5
32A
330
22
100
AcDbEntity
  8
0
  6
Continuous
 62
     7
100
AcDbLine
 10
-497.4132566452026
 20
331.7027282714844
 30
0.0
 11
-497.4132566452026
 21
342.2027282714844
 31
0.0
  0
LINE
  5
32B
330
22
100
AcDbEntity
  8
0
  6
Continuous
 62
     7
100
AcDbLine
 10
-553.3385953903198
 20
331.7027282714844
 30
0.0
 11
-497.4132566452026
 21
331.7027282714844
 31
0.0
  0
LINE
  5
32C
330
22
100
AcDbEntity
  8
0
  6
Continuous
 62
     7
100
AcDbLine
 10
-553.3385953903198
 20
342.2027282714844
 30
0.0
 11
-497.4132566452026
 21
342.2027282714844
 31
0.0
  0
TEXT
  5
32D
330
22
100
AcDbEntity
  8
0
  6
Continuous
 62
     7
100
AcDbText
 10
-552.3399286270141
 20
163.4527282714844
 30
0.0
 40
7.0
  1
　全　閉　時　　
 41
0.8454512837995997
100
AcDbText
  0
LINE
  5
32E
330
22
100
AcDbEntity
  8
0
  6
Continuous
 62
     7
100
AcDbLine
 10
-553.3385953903198
 20
161.7027282714844
 30
0.0
 11
-553.3385953903198
 21
172.2027282714844
 31
0.0
  0
LINE
  5
32F
330
22
100
AcDbEntity
  8
0
  6
Continuous
 62
     7
100
AcDbLine
 10
-497.4132566452026
 20
161.7027282714844
 30
0.0
 11
-497.4132566452026
 21
172.2027282714844
 31
0.0
  0
LINE
  5
330
330
22
100
AcDbEntity
  8
0
  6
Continuous
 62
     7
100
AcDbLine
 10
-553.3385953903198
 20
161.7027282714844
 30
0.0
 11
-497.4132566452026
 21
161.7027282714844
 31
0.0
  0
LINE
  5
331
330
22
100
AcDbEntity
  8
0
  6
Continuous
 62
     7
100
AcDbLine
 10
-553.3385953903198
 20
172.2027282714844
 30
0.0
 11
-497.4132566452026
 21
172.2027282714844
 31
0.0
  0
INSERT
  5
332
330
22
100
AcDbEntity
  8
0
  6
Continuous
 62
     7
100
AcDbBlockReference
  2
KOZU0001
 10
-133.3894653320313
 20
302.6536560058594
 30
0.0
  0
DIMENSION
  5
333
330
22
100
AcDbEntity
  8
0
  6
Continuous
 62
     7
100
AcDbDimension
  2
*D1
 10
-145.4337768554688
 20
389.2662963867188
 30
0.0
 11
-133.3388977050781
 21
389.2662963867188
 31
0.0
 71
     5
 42
-1.0
  3
DIMSTYLE1
100
AcDbAlignedDimension
 13
-148.9337768554688
 23
391.5522766113281
 33
0.0
 14
-145.4337768554688
 24
355.8679504394531
 34
0.0
100
AcDbRotatedDimension
  0
DIMENSION
  5
334
330
22
100
AcDbEntity
  8
0
  6
Continuous
 62
     7
100
AcDbDimension
  2
*D2
 10
-178.9337768554688
 20
377.5957946777344
 30
0.0
 11
-163.9337768554688
 21
377.5957946777344
 31
0.0
 71
     5
 42
-1.0
  3
DIMSTYLE2
100
AcDbAlignedDimension
 13
-148.9337768554688
 23
391.5522766113281
 33
0.0
 14
-178.9337768554688
 24
305.3679504394531
 34
0.0
100
AcDbRotatedDimension
  0
DIMENSION
  5
335
330
22
100
AcDbEntity
  8
0
  6
Continuous
 62
     7
100
AcDbDimension
  2
*D3
 10
-158.9337768554688
 20
278.7644348144531
 30
0.0
 11
-208.9337768554688
 21
278.7644348144531
 31
0.0
 71
     5
 42
-1.0
  3
DIMSTYLE3
100
AcDbAlignedDimension
 13
-258.9337768554688
 23
273.3679504394531
 33
0.0
 14
-158.9337768554688
 24
273.3679504394531
 34
0.0
100
AcDbRotatedDimension
  0
DIMENSION
  5
336
330
22
100
AcDbEntity
  8
0
  6
Continuous
 62
     7
100
AcDbDimension
  2
*D4
 10
-208.9337768554688
 20
288.71923828125
 30
0.0
 11
-183.9337768554688
 21
288.71923828125
 31
0.0
 71
     5
 42
-1.0
  3
DIMSTYLE4
100
AcDbAlignedDimension
 13
-158.9337768554688
 23
295.8679504394531
 33
0.0
 14
-208.9337768554688
 24
301.6023559570313
 34
0.0
100
AcDbRotatedDimension
  0
DIMENSION
  5
337
330
22
100
AcDbEntity
  8
0
  6
Continuous
 62
     7
100
AcDbDimension
  2
*D5
 10
-486.4684281328201
 20
210.1695249901405
 30
0.0
 11
-364.5131225585938
 21
353.4165954589844
 31
0.0
 70
     3
 71
     5
 42
-1.0
  3
DIMSTYLE5
100
AcDbDiametricDimension
 15
-378.8587813398363
 25
336.5663758887659
 35
0.0
 40
0.0
  0
DIMENSION
  5
338
330
22
100
AcDbEntity
  8
0
  6
Continuous
 62
     7
100
AcDbDimension
  2
*D6
 10
-489.2188417285281
 20
240.3262318286409
 30
0.0
 11
-342.0980224609375
 21
326.27978515625
 31
0.0
 70
     3
 71
     5
 42
-1.0
  3
DIMSTYLE6
100
AcDbDiametricDimension
 15
-376.1083677441282
 25
306.4096690502653
 35
0.0
 40
0.0
  0
DIMENSION
  5
339
330
22
100
AcDbEntity
  8
0
  6
Continuous
 62
     7
100
AcDbDimension
  2
*D7
 10
-485.349201393151
 20
257.580996809491
 30
0.0
 11
-336.2543029785156
 21
302.2564697265625
 31
0.0
 70
     3
 71
     5
 42
-1.0
  3
DIMSTYLE7
100
AcDbDiametricDimension
 15
-379.9780080795052
 25
289.1549040694152
 35
0.0
 40
0.0
  0
DIMENSION
  5
33A
330
22
100
AcDbEntity
  8
0
  6
Continuous
 62
     7
100
AcDbDimension
  2
*D8
 10
-148.9337768554688
 20
389.2662963867188
 30
0.0
 11
-220.9337768554688
 21
389.2662963867188
 31
0.0
 71
     5
 42
-1.0
  3
DIMSTYLE8
100
AcDbAlignedDimension
 13
-292.9337768554688
 23
338.3679504394531
 33
0.0
 14
-148.9337768554688
 24
354.3679504394531
 34
0.0
100
AcDbRotatedDimension
  0
DIMENSION
  5
33B
330
22
100
AcDbEntity
  8
0
  6
Continuous
 62
     7
100
AcDbDimension
  2
*D9
 10
-242.9337768554688
 20
377.5957946777344
 30
0.0
 11
-267.9337768554688
 21
377.5957946777344
 31
0.0
 71
     5
 42
-1.0
  3
DIMSTYLE9
100
AcDbAlignedDimension
 13
-292.9337768554688
 23
391.5522766113281
 33
0.0
 14
-242.9337768554688
 24
306.8679504394531
 34
0.0
100
AcDbRotatedDimension
  0
DIMENSION
  5
33C
330
22
100
AcDbEntity
  8
0
  6
Continuous
 62
     7
100
AcDbDimension
  2
*D10
 10
-77.14622497558593
 20
307.3679504394531
 30
0.0
 11
-77.14622497558593
 21
273.3679504394531
 31
0.0
 71
     5
 42
-1.0
  3
DIMSTYLE10
100
AcDbAlignedDimension
 13
-117.9337692260742
 23
239.3679351806641
 33
0.0
 14
-117.9337692260742
 24
307.3679504394531
 34
0.0
 50
90.0
100
AcDbRotatedDimension
  0
DIMENSION
  5
33D
330
22
100
AcDbEntity
  8
0
  6
Continuous
 62
     7
100
AcDbDimension
  2
*D11
 10
-116.9337692260742
 20
172.8554840087891
 30
0.0
 11
-147.9337768554688
 21
172.8554840087891
 31
0.0
 71
     5
 42
-1.0
  3
DIMSTYLE11
100
AcDbAlignedDimension
 13
-178.9337768554688
 23
241.3679351806641
 33
0.0
 14
-116.9337692260742
 24
240.3679351806641
 34
0.0
100
AcDbRotatedDimension
  0
DIMENSION
  5
33E
330
22
100
AcDbEntity
  8
0
  6
Continuous
 62
     7
100
AcDbDimension
  2
*D12
 10
-120.7646255493164
 20
224.3679351806641
 30
0.0
 11
-120.7646255493164
 21
231.8679351806641
 31
0.0
 71
     5
 42
-1.0
  3
DIMSTYLE12
100
AcDbAlignedDimension
 13
-117.9337692260742
 23
239.3679351806641
 33
0.0
 14
-143.9064483642578
 24
224.3679351806641
 34
0.0
 50
90.0
100
AcDbRotatedDimension
  0
DIMENSION
  5
33F
330
22
100
AcDbEntity
  8
0
  6
Continuous
 62
     7
100
AcDbDimension
  2
*D13
 10
-129.4337768554687
 20
215.2975463867188
 30
0.0
 11
-137.4337768554688
 21
215.2975463867188
 31
0.0
 71
     5
 42
-1.0
  3
DIMSTYLE13
100
AcDbAlignedDimension
 13
-145.4337768554688
 23
234.3679351806641
 33
0.0
 14
-129.4337768554687
 24
237.2330780029297
 34
0.0
100
AcDbRotatedDimension
  0
INSERT
  5
340
330
22
100
AcDbEntity
  8
0
  6
Continuous
 62
     7
100
AcDbBlockReference
  2
KOZU0002
 10
-140.3642272949219
 20
235.6387481689453
 30
0.0
  0
ENDSEC
  0
SECTION
  2
OBJECTS
  0
DICTIONARY
  5
C
330
0
100
AcDbDictionary
281
     1
  3
ACAD_COLOR
350
1B
  3
ACAD_GROUP
350
D
  3
ACAD_LAYOUT
350
19
  3
ACAD_MATERIAL
350
1A
  3
ACAD_MLINESTYLE
350
16
  3
ACAD_PLOTSETTINGS
350
18
  3
ACAD_PLOTSTYLENAME
350
E
  3
ACAD_TABLESTYLE
350
1C
  3
AcDbVariableDictionary
350
34C
  0
DICTIONARY
  5
1B
102
{ACAD_REACTORS
330
C
102
}
330
C
100
AcDbDictionary
281
     1
  0
DICTIONARY
  5
D
102
{ACAD_REACTORS
330
C
102
}
330
C
100
AcDbDictionary
281
     1
  0
DICTIONARY
  5
19
102
{ACAD_REACTORS
330
C
102
}
330
C
100
AcDbDictionary
281
     1
  3
Model
350
25
  3
レイアウト1
350
21
  0
DICTIONARY
  5
1A
102
{ACAD_REACTORS
330
C
102
}
330
C
100
AcDbDictionary
281
     1
  0
DICTIONARY
  5
16
102
{ACAD_REACTORS
330
C
102
}
330
C
100
AcDbDictionary
281
     1
  3
Standard
350
17
  0
DICTIONARY
  5
18
102
{ACAD_REACTORS
330
C
102
}
330
C
100
AcDbDictionary
281
     1
  0
ACDBDICTIONARYWDFLT
  5
E
102
{ACAD_REACTORS
330
C
102
}
330
C
100
AcDbDictionary
281
     1
  3
Normal
350
F
100
AcDbDictionaryWithDefault
340
F
  0
DICTIONARY
  5
1C
102
{ACAD_REACTORS
330
C
102
}
330
C
100
AcDbDictionary
281
     1
  3
Standard
350
1D
  0
DICTIONARY
  5
34C
102
{ACAD_REACTORS
330
C
102
}
330
C
100
AcDbDictionary
281
     1
  3
CTABLESTYLE
350
34D
  0
LAYOUT
  5
25
102
{ACAD_REACTORS
330
19
102
}
330
19
100
AcDbPlotSettings
  1

  2
PDF reDirect v2
  4
User66
  6

 40
3.174999952316284
 41
3.174999952316284
 42
3.17498779296875
 43
3.17498779296875
 44
420.0
 45
594.0
 46
0.0
 47
0.0
 48
0.0
 49
0.0
140
0.0
141
0.0
142
1.0
143
1.0
 70
 11952
 72
     1
 73
     1
 74
     2
  7
C:\Users\ck\AppData\Roaming\Autodesk\AutoCAD 2005\R16.1\jpn\Plot Styles\black.ctb
 75
    16
147
1.0
 76
     0
 77
     2
 78
   300
148
592.0
149
0.0
100
AcDbLayout
  1
Model
 70
     1
 71
     0
 10
0.0
 20
0.0
 11
12.0
 21
9.0
 12
0.0
 22
0.0
 32
0.0
 14
0.0
 24
0.0
 34
0.0
 15
0.0
 25
0.0
 35
0.0
146
0.0
 13
0.0
 23
0.0
 33
0.0
 16
1.0
 26
0.0
 36
0.0
 17
0.0
 27
1.0
 37
0.0
 76
     0
330
22
1001
ACAD_PSEXT
1000
PDF reDirect v2
1000
PDF reDirect Pro
1000
PDF_REDIRECT_PORT:
1000
PDF reDirect provided by EXP Systems
1070
     0
  0
LAYOUT
  5
21
102
{ACAD_REACTORS
330
19
102
}
330
19
100
AcDbPlotSettings
  1

  2
PDF reDirect v2
  4

  6

 40
0.0
 41
0.0
 42
0.0
 43
0.0
 44
0.0
 45
0.0
 46
0.0
 47
0.0
 48
0.0
 49
0.0
140
0.0
141
0.0
142
1.0
143
1.0
 70
   688
 72
     0
 73
     0
 74
     5
  7
C:\Users\ck\AppData\Roaming\Autodesk\AutoCAD 2005\R16.1\jpn\Plot Styles\black.ctb
 75
    16
147
1.0
 76
     0
 77
     2
 78
   300
148
0.0
149
0.0
100
AcDbLayout
  1
レイアウト1
 70
     1
 71
     1
 10
-592.0
 20
0.0
 11
0.0
 21
418.0
 12
0.0
 22
0.0
 32
0.0
 14
1.000000000000000E+20
 24
1.000000000000000E+20
 34
1.000000000000000E+20
 15
-1.000000000000000E+20
 25
-1.000000000000000E+20
 35
-1.000000000000000E+20
146
0.0
 13
0.0
 23
0.0
 33
0.0
 16
1.0
 26
0.0
 36
0.0
 17
0.0
 27
1.0
 37
0.0
 76
     0
330
1E
  0
MLINESTYLE
  5
17
102
{ACAD_REACTORS
330
16
102
}
330
16
100
AcDbMlineStyle
  2
STANDARD
 70
     0
  3

 62
   256
 51
90.0
 52
90.0
 71
     2
 49
0.5
 62
   256
  6
BYLAYER
 49
-0.5
 62
   256
  6
BYLAYER
  0
ACDBPLACEHOLDER
  5
F
102
{ACAD_REACTORS
330
E
102
}
330
E
  0
TABLESTYLE
  5
1D
102
{ACAD_REACTORS
330
1C
102
}
330
1C
100
AcDbTableStyle
  3
Standard
 70
     0
 71
     0
 40
0.06
 41
0.06
280
     0
281
     0
  7
STANDARD
140
0.18
170
     2
 62
     0
 63
     7
283
     0
274
    -2
284
     1
 64
     0
275
    -2
285
     1
 65
     0
276
    -2
286
     1
 66
     0
277
    -2
287
     1
 67
     0
278
    -2
288
     1
 68
     0
279
    -2
289
     1
 69
     0
  7
STANDARD
140
0.25
170
     5
 62
     0
 63
     7
283
     0
274
    -2
284
     1
 64
     0
275
    -2
285
     1
 65
     0
276
    -2
286
     1
 66
     0
277
    -2
287
     1
 67
     0
278
    -2
288
     1
 68
     0
279
    -2
289
     1
 69
     0
  7
STANDARD
140
0.18
170
     5
 62
     0
 63
     7
283
     0
274
    -2
284
     1
 64
     0
275
    -2
285
     1
 65
     0
276
    -2
286
     1
 66
     0
277
    -2
287
     1
 67
     0
278
    -2
288
     1
 68
     0
279
    -2
289
     1
 69
     0
  0
DICTIONARYVAR
  5
34D
102
{ACAD_REACTORS
330
34C
102
}
330
34C
100
DictionaryVariables
280
     0
  1
STANDARD
  0
ENDSEC
  0
EOF
