  0
SECTION
  2
HEADER
  9
$ACADVER
  1
AC1018
  9
$ACADMAINTVER
 70
    39
  9
$DWGCODEPAGE
  3
ANSI_932
  9
$INSBASE
 10
0.0
 20
0.0
 30
0.0
  9
$EXTMIN
 10
-553.3559556079048
 20
21.57736305889841
 30
-0.0015258207003583
  9
$EXTMAX
 10
-67.59545768470889
 20
393.3930063156795
 30
0.0000000349246037
  9
$LIMMIN
 10
-592.0
 20
0.0
  9
$LIMMAX
 10
0.0
 20
418.0
  9
$ORTHOMODE
 70
     0
  9
$REGENMODE
 70
     1
  9
$FILLMODE
 70
     1
  9
$QTEXTMODE
 70
     0
  9
$MIRRTEXT
 70
     0
  9
$LTSCALE
 40
1.0
  9
$ATTMODE
 70
     1
  9
$TEXTSIZE
 40
0.2
  9
$TRACEWID
 40
0.05
  9
$TEXTSTYLE
  7
STANDARD
  9
$CLAYER
  8
0
  9
$CELTYPE
  6
CONTINUOUS
  9
$CECOLOR
 62
   256
  9
$CELTSCALE
 40
1.0
  9
$DISPSILH
 70
     0
  9
$DIMSCALE
 40
1.0
  9
$DIMASZ
 40
1.0
  9
$DIMEXO
 40
2.54
  9
$DIMDLI
 40
0.38
  9
$DIMRND
 40
0.0
  9
$DIMDLE
 40
0.0
  9
$DIMEXE
 40
2.54
  9
$DIMTP
 40
0.0
  9
$DIMTM
 40
0.0
  9
$DIMTXT
 40
3.0
  9
$DIMCEN
 40
0.09
  9
$DIMTSZ
 40
0.0
  9
$DIMTOL
 70
     0
  9
$DIMLIM
 70
     0
  9
$DIMTIH
 70
     0
  9
$DIMTOH
 70
     0
  9
$DIMSE1
 70
     0
  9
$DIMSE2
 70
     0
  9
$DIMTAD
 70
     1
  9
$DIMZIN
 70
     0
  9
$DIMBLK
  1

  9
$DIMASO
 70
     1
  9
$DIMSHO
 70
     0
  9
$DIMPOST
  1

  9
$DIMAPOST
  1

  9
$DIMALT
 70
     0
  9
$DIMALTD
 70
     2
  9
$DIMALTF
 40
25.4
  9
$DIMLFAC
 40
1.0
  9
$DIMTOFL
 70
     0
  9
$DIMTVP
 40
1.0
  9
$DIMTIX
 70
     0
  9
$DIMSOXD
 70
     0
  9
$DIMSAH
 70
     1
  9
$DIMBLK1
  1

  9
$DIMBLK2
  1

  9
$DIMSTYLE
  2
DIMSTYLE1
  9
$DIMCLRD
 70
     0
  9
$DIMCLRE
 70
     0
  9
$DIMCLRT
 70
     0
  9
$DIMTFAC
 40
1.0
  9
$DIMGAP
 40
1.5
  9
$DIMJUST
 70
     0
  9
$DIMSD1
 70
     0
  9
$DIMSD2
 70
     0
  9
$DIMTOLJ
 70
     1
  9
$DIMTZIN
 70
     0
  9
$DIMALTZ
 70
     0
  9
$DIMALTTZ
 70
     0
  9
$DIMUPT
 70
     0
  9
$DIMDEC
 70
     4
  9
$DIMTDEC
 70
     4
  9
$DIMALTU
 70
     2
  9
$DIMALTTD
 70
     2
  9
$DIMTXSTY
  7
STANDARD
  9
$DIMAUNIT
 70
     0
  9
$DIMADEC
 70
     0
  9
$DIMALTRND
 40
0.0
  9
$DIMAZIN
 70
     0
  9
$DIMDSEP
 70
    46
  9
$DIMATFIT
 70
     3
  9
$DIMFRAC
 70
     0
  9
$DIMLDRBLK
  1

  9
$DIMLUNIT
 70
     2
  9
$DIMLWD
 70
    -2
  9
$DIMLWE
 70
    -2
  9
$DIMTMOVE
 70
     0
  9
$LUNITS
 70
     2
  9
$LUPREC
 70
     4
  9
$SKETCHINC
 40
0.1
  9
$FILLETRAD
 40
0.0
  9
$AUNITS
 70
     0
  9
$AUPREC
 70
     0
  9
$MENU
  1
.
  9
$ELEVATION
 40
0.0
  9
$PELEVATION
 40
0.0
  9
$THICKNESS
 40
0.0
  9
$LIMCHECK
 70
     0
  9
$CHAMFERA
 40
0.0
  9
$CHAMFERB
 40
0.0
  9
$CHAMFERC
 40
0.0
  9
$CHAMFERD
 40
0.0
  9
$SKPOLY
 70
     0
  9
$TDCREATE
 40
2457841.599214502
  9
$TDUCREATE
 40
2457841.224214502
  9
$TDUPDATE
 40
2457841.599770174
  9
$TDUUPDATE
 40
2457841.224770174
  9
$TDINDWG
 40
0.0005568287
  9
$TDUSRTIMER
 40
0.0005568287
  9
$USRTIMER
 70
     1
  9
$ANGBASE
 50
0.0
  9
$ANGDIR
 70
     0
  9
$PDMODE
 70
     0
  9
$PDSIZE
 40
0.0
  9
$PLINEWID
 40
0.0
  9
$SPLFRAME
 70
     0
  9
$SPLINETYPE
 70
     6
  9
$SPLINESEGS
 70
     8
  9
$HANDSEED
  5
312
  9
$SURFTAB1
 70
     6
  9
$SURFTAB2
 70
     6
  9
$SURFTYPE
 70
     6
  9
$SURFU
 70
     6
  9
$SURFV
 70
     6
  9
$UCSBASE
  2

  9
$UCSNAME
  2

  9
$UCSORG
 10
0.0
 20
0.0
 30
0.0
  9
$UCSXDIR
 10
1.0
 20
0.0
 30
0.0
  9
$UCSYDIR
 10
0.0
 20
1.0
 30
0.0
  9
$UCSORTHOREF
  2

  9
$UCSORTHOVIEW
 70
     0
  9
$UCSORGTOP
 10
0.0
 20
0.0
 30
0.0
  9
$UCSORGBOTTOM
 10
0.0
 20
0.0
 30
0.0
  9
$UCSORGLEFT
 10
0.0
 20
0.0
 30
0.0
  9
$UCSORGRIGHT
 10
0.0
 20
0.0
 30
0.0
  9
$UCSORGFRONT
 10
0.0
 20
0.0
 30
0.0
  9
$UCSORGBACK
 10
0.0
 20
0.0
 30
0.0
  9
$PUCSBASE
  2

  9
$PUCSNAME
  2

  9
$PUCSORG
 10
0.0
 20
0.0
 30
0.0
  9
$PUCSXDIR
 10
1.0
 20
0.0
 30
0.0
  9
$PUCSYDIR
 10
0.0
 20
1.0
 30
0.0
  9
$PUCSORTHOREF
  2

  9
$PUCSORTHOVIEW
 70
     0
  9
$PUCSORGTOP
 10
0.0
 20
0.0
 30
0.0
  9
$PUCSORGBOTTOM
 10
0.0
 20
0.0
 30
0.0
  9
$PUCSORGLEFT
 10
0.0
 20
0.0
 30
0.0
  9
$PUCSORGRIGHT
 10
0.0
 20
0.0
 30
0.0
  9
$PUCSORGFRONT
 10
0.0
 20
0.0
 30
0.0
  9
$PUCSORGBACK
 10
0.0
 20
0.0
 30
0.0
  9
$USERI1
 70
     0
  9
$USERI2
 70
     0
  9
$USERI3
 70
     0
  9
$USERI4
 70
     0
  9
$USERI5
 70
     0
  9
$USERR1
 40
0.0
  9
$USERR2
 40
0.0
  9
$USERR3
 40
0.0
  9
$USERR4
 40
0.0
  9
$USERR5
 40
0.0
  9
$WORLDVIEW
 70
     1
  9
$SHADEDGE
 70
     3
  9
$SHADEDIF
 70
    70
  9
$TILEMODE
 70
     1
  9
$MAXACTVP
 70
    64
  9
$PINSBASE
 10
0.0
 20
0.0
 30
0.0
  9
$PLIMCHECK
 70
     0
  9
$PEXTMIN
 10
1.000000000000000E+20
 20
1.000000000000000E+20
 30
1.000000000000000E+20
  9
$PEXTMAX
 10
-1.000000000000000E+20
 20
-1.000000000000000E+20
 30
-1.000000000000000E+20
  9
$PLIMMIN
 10
-592.0
 20
0.0
  9
$PLIMMAX
 10
0.0
 20
418.0
  9
$UNITMODE
 70
     0
  9
$VISRETAIN
 70
     1
  9
$PLINEGEN
 70
     0
  9
$PSLTSCALE
 70
     1
  9
$TREEDEPTH
 70
  3020
  9
$CMLSTYLE
  2
Standard
  9
$CMLJUST
 70
     0
  9
$CMLSCALE
 40
1.0
  9
$PROXYGRAPHICS
 70
     1
  9
$MEASUREMENT
 70
     0
  9
$CELWEIGHT
370
    -1
  9
$ENDCAPS
280
     0
  9
$JOINSTYLE
280
     0
  9
$LWDISPLAY
290
     0
  9
$INSUNITS
 70
     0
  9
$HYPERLINKBASE
  1

  9
$STYLESHEET
  1

  9
$XEDIT
290
     1
  9
$CEPSNTYPE
380
     0
  9
$PSTYLEMODE
290
     1
  9
$FINGERPRINTGUID
  2
{50EABD19-3F58-4C5E-B78B-DBBDDE9FB94A}
  9
$VERSIONGUID
  2
{7066B9C1-767F-4361-AAE2-14265495FE93}
  9
$EXTNAMES
290
     1
  9
$PSVPSCALE
 40
0.0
  9
$OLESTARTUP
290
     0
  9
$SORTENTS
280
   127
  9
$INDEXCTL
280
     0
  9
$HIDETEXT
280
     0
  9
$XCLIPFRAME
290
     0
  9
$HALOGAP
280
     0
  9
$OBSCOLOR
 70
   257
  9
$OBSLTYPE
280
     0
  9
$INTERSECTIONDISPLAY
280
     0
  9
$INTERSECTIONCOLOR
 70
   257
  9
$DIMASSOC
280
     1
  9
$PROJECTNAME
  1

  0
ENDSEC
  0
SECTION
  2
CLASSES
  0
CLASS
  1
ACDBDICTIONARYWDFLT
  2
AcDbDictionaryWithDefault
  3
ObjectDBX Classes
 90
        0
 91
        1
280
     0
281
     0
  0
CLASS
  1
TABLESTYLE
  2
AcDbTableStyle
  3
ObjectDBX Classes
 90
     2047
 91
        1
280
     0
281
     0
  0
CLASS
  1
DICTIONARYVAR
  2
AcDbDictionaryVar
  3
ObjectDBX Classes
 90
        0
 91
        1
280
     0
281
     0
  0
ENDSEC
  0
SECTION
  2
TABLES
  0
TABLE
  2
VPORT
  5
8
330
0
100
AcDbSymbolTable
 70
     2
  0
VPORT
  5
311
330
8
100
AcDbSymbolTableRecord
100
AcDbViewportTableRecord
  2
*Active
 70
     0
 10
0.0
 20
0.0
 11
1.0
 21
1.0
 12
-296.0
 22
209.0
 13
0.0
 23
0.0
 14
1.0
 24
1.0
 15
0.0
 25
0.0
 16
0.0
 26
0.0
 36
1.0
 17
0.0
 27
0.0
 37
0.0
 40
421.3043478260869
 41
1.707124010554089
 42
50.0
 43
0.0
 44
0.0
 50
0.0
 51
0.0
 71
     0
 72
   100
 73
     1
 74
     1
 75
     0
 76
     0
 77
     0
 78
     0
281
     0
 65
     1
110
0.0
120
0.0
130
0.0
111
1.0
121
0.0
131
0.0
112
0.0
122
1.0
132
0.0
 79
     0
146
0.0
  0
ENDTAB
  0
TABLE
  2
LTYPE
  5
5
330
0
100
AcDbSymbolTable
 70
     6
  0
LTYPE
  5
13
330
5
100
AcDbSymbolTableRecord
100
AcDbLinetypeTableRecord
  2
ByBlock
 70
     0
  3

 72
    65
 73
     0
 40
0.0
  0
LTYPE
  5
14
330
5
100
AcDbSymbolTableRecord
100
AcDbLinetypeTableRecord
  2
ByLayer
 70
     0
  3

 72
    65
 73
     0
 40
0.0
  0
LTYPE
  5
15
330
5
100
AcDbSymbolTableRecord
100
AcDbLinetypeTableRecord
  2
CONTINUOUS
 70
     0
  3
Solid line
 72
    65
 73
     0
 40
0.0
  0
LTYPE
  5
26
330
5
100
AcDbSymbolTableRecord
100
AcDbLinetypeTableRecord
  2
DASHED
 70
     0
  3
__ __ __ __ __ __ __ __ __ __ __ __ __ __ __
 72
    65
 73
     2
 40
3.5
 49
2.0
 74
     0
 49
-1.5
 74
     0
  0
LTYPE
  5
27
330
5
100
AcDbSymbolTableRecord
100
AcDbLinetypeTableRecord
  2
CENTER
 70
     0
  3
____ _ ____ _ ____ _ ____ _ ____ _ ____ _ ____
 72
    65
 73
     4
 40
17.5
 49
13.0
 74
     0
 49
-1.5
 74
     0
 49
1.5
 74
     0
 49
-1.5
 74
     0
  0
LTYPE
  5
28
330
5
100
AcDbSymbolTableRecord
100
AcDbLinetypeTableRecord
  2
PHANTOM
 70
     0
  3
_____ _ _ _____ _ _ _____ _ _ _____ _ _ ____  
 72
    65
 73
     6
 40
15.5
 49
8.0
 74
     0
 49
-1.5
 74
     0
 49
1.5
 74
     0
 49
-1.5
 74
     0
 49
1.5
 74
     0
 49
-1.5
 74
     0
  0
LTYPE
  5
29
330
5
100
AcDbSymbolTableRecord
100
AcDbLinetypeTableRecord
  2
DOT
 70
     0
  3
. . . . . . . . . . . . . . . . . . . . . . . .
 72
    65
 73
     2
 40
0.25
 49
0.0
 74
     0
 49
-0.25
 74
     0
  0
LTYPE
  5
2A
330
5
100
AcDbSymbolTableRecord
100
AcDbLinetypeTableRecord
  2
HIDDEN
 70
     0
  3
__ __ __ __ __ __ __ __ __ __ __ __ __ __ __
 72
    65
 73
     2
 40
3.5
 49
2.0
 74
     0
 49
-1.5
 74
     0
  0
ENDTAB
  0
TABLE
  2
LAYER
  5
2
330
0
100
AcDbSymbolTable
 70
     2
  0
LAYER
  5
10
330
2
100
AcDbSymbolTableRecord
100
AcDbLayerTableRecord
  2
0
 70
     0
 62
     7
  6
CONTINUOUS
370
    -3
390
F
  0
LAYER
  5
2B
330
2
100
AcDbSymbolTableRecord
100
AcDbLayerTableRecord
  2
DEFPOINTS
 70
     0
 62
     7
  6
CONTINUOUS
290
     0
370
    -3
390
F
  0
ENDTAB
  0
TABLE
  2
STYLE
  5
3
330
0
100
AcDbSymbolTable
 70
     2
  0
STYLE
  5
11
330
3
100
AcDbSymbolTableRecord
100
AcDbTextStyleTableRecord
  2
STANDARD
 70
     0
 40
0.0
 41
1.0
 50
0.0
 71
     0
 42
0.2
  3

  4

1001
ACAD
1000
MS Gothic
1071
    32817
  0
ENDTAB
  0
TABLE
  2
VIEW
  5
6
330
0
100
AcDbSymbolTable
 70
     0
  0
ENDTAB
  0
TABLE
  2
UCS
  5
7
330
0
100
AcDbSymbolTable
 70
     0
  0
ENDTAB
  0
TABLE
  2
APPID
  5
9
330
0
100
AcDbSymbolTable
 70
     2
  0
APPID
  5
12
330
9
100
AcDbSymbolTableRecord
100
AcDbRegAppTableRecord
  2
ACAD
 70
     0
  0
APPID
  5
306
330
9
100
AcDbSymbolTableRecord
100
AcDbRegAppTableRecord
  2
ACAD_PSEXT
 70
     0
  0
ENDTAB
  0
TABLE
  2
DIMSTYLE
  5
A
330
0
100
AcDbSymbolTable
 70
    14
100
AcDbDimStyleTable
 71
     1
340
2C
  0
DIMSTYLE
105
2C
102
{ACAD_REACTORS
330
2F6
102
}
330
A
100
AcDbSymbolTableRecord
100
AcDbDimStyleTableRecord
  2
DIMSTYLE1
 70
     0
 41
1.0
 42
2.54
 44
2.54
 73
     0
 74
     0
 75
     1
 76
     1
 77
     1
140
3.0
145
1.0
147
1.5
172
     1
173
     1
279
     2
340
11
  0
DIMSTYLE
105
2D
102
{ACAD_REACTORS
330
2F7
102
}
330
A
100
AcDbSymbolTableRecord
100
AcDbDimStyleTableRecord
  2
DIMSTYLE2
 70
     0
 41
1.0
 42
2.54
 44
2.54
 73
     0
 74
     0
 75
     1
 76
     1
 77
     1
140
3.0
145
1.0
147
1.5
172
     1
173
     1
279
     2
340
11
  0
DIMSTYLE
105
2E
102
{ACAD_REACTORS
330
2F8
102
}
330
A
100
AcDbSymbolTableRecord
100
AcDbDimStyleTableRecord
  2
DIMSTYLE3
 70
     0
 41
1.0
 42
2.54
 44
2.54
 73
     0
 74
     0
 77
     1
140
3.0
145
1.0
147
1.5
172
     1
173
     1
279
     2
340
11
  0
DIMSTYLE
105
2F
102
{ACAD_REACTORS
330
2F9
102
}
330
A
100
AcDbSymbolTableRecord
100
AcDbDimStyleTableRecord
  2
DIMSTYLE4
 70
     0
 41
1.0
 42
2.54
 44
2.54
 73
     0
 74
     0
 77
     1
140
3.0
145
1.0
147
1.5
172
     1
173
     1
279
     2
340
11
  0
DIMSTYLE
105
30
102
{ACAD_REACTORS
330
2FA
102
}
330
A
100
AcDbSymbolTableRecord
100
AcDbDimStyleTableRecord
  2
DIMSTYLE5
 70
     0
 41
1.0
 42
2.54
 44
2.54
 73
     0
 74
     0
 77
     1
140
3.0
145
1.0
147
1.5
172
     1
173
     1
279
     2
340
11
  0
DIMSTYLE
105
31
102
{ACAD_REACTORS
330
2FB
102
}
330
A
100
AcDbSymbolTableRecord
100
AcDbDimStyleTableRecord
  2
DIMSTYLE6
 70
     0
 41
1.0
 42
2.54
 44
2.54
 73
     0
 74
     0
 77
     1
140
3.0
145
1.0
147
1.5
172
     1
173
     1
279
     2
340
11
  0
DIMSTYLE
105
32
102
{ACAD_REACTORS
330
2FD
102
}
330
A
100
AcDbSymbolTableRecord
100
AcDbDimStyleTableRecord
  2
DIMSTYLE7
 70
     0
 41
1.0
 42
2.54
 44
2.54
 73
     0
 74
     0
 77
     1
140
3.0
145
1.0
147
1.5
172
     1
173
     1
279
     2
340
11
  0
DIMSTYLE
105
33
102
{ACAD_REACTORS
330
2FE
102
}
330
A
100
AcDbSymbolTableRecord
100
AcDbDimStyleTableRecord
  2
DIMSTYLE8
 70
     0
 41
1.0
 42
2.54
 44
2.54
 73
     0
 74
     0
 77
     1
140
3.0
145
1.0
147
1.5
172
     1
173
     1
279
     2
340
11
  0
DIMSTYLE
105
34
102
{ACAD_REACTORS
330
2FF
102
}
330
A
100
AcDbSymbolTableRecord
100
AcDbDimStyleTableRecord
  2
DIMSTYLE9
 70
     0
 41
1.0
 42
2.54
 44
2.54
 73
     0
 74
     0
 77
     1
140
3.0
145
1.0
147
1.5
172
     1
173
     1
279
     2
340
11
  0
DIMSTYLE
105
35
102
{ACAD_REACTORS
330
300
102
}
330
A
100
AcDbSymbolTableRecord
100
AcDbDimStyleTableRecord
  2
DIMSTYLE10
 70
     0
 41
1.0
 42
2.54
 44
2.54
 73
     0
 74
     0
 77
     1
140
3.0
145
1.0
147
1.5
172
     1
173
     1
279
     2
340
11
  0
DIMSTYLE
105
36
102
{ACAD_REACTORS
330
301
102
}
330
A
100
AcDbSymbolTableRecord
100
AcDbDimStyleTableRecord
  2
DIMSTYLE11
 70
     0
 41
1.0
 42
2.54
 44
2.54
 73
     0
 74
     0
 75
     1
 76
     1
 77
     1
140
3.0
145
1.0
147
1.5
172
     1
173
     1
279
     2
340
11
  0
DIMSTYLE
105
37
102
{ACAD_REACTORS
330
302
102
}
330
A
100
AcDbSymbolTableRecord
100
AcDbDimStyleTableRecord
  2
DIMSTYLE12
 70
     0
 41
1.0
 42
2.54
 44
2.54
 73
     0
 74
     0
 77
     1
140
3.0
145
1.0
147
1.5
172
     1
173
     1
279
     2
340
11
  0
DIMSTYLE
105
38
102
{ACAD_REACTORS
330
303
102
}
330
A
100
AcDbSymbolTableRecord
100
AcDbDimStyleTableRecord
  2
DIMSTYLE13
 70
     0
 41
1.0
 42
2.54
 44
2.54
 73
     0
 74
     0
 77
     1
140
3.0
145
1.0
147
1.5
172
     1
173
     1
279
     2
340
11
  0
ENDTAB
  0
TABLE
  2
BLOCK_RECORD
  5
1
330
0
100
AcDbSymbolTable
 70
    17
  0
BLOCK_RECORD
  5
22
330
1
100
AcDbSymbolTableRecord
100
AcDbBlockTableRecord
  2
*Model_Space
340
25
  0
BLOCK_RECORD
  5
1E
330
1
100
AcDbSymbolTableRecord
100
AcDbBlockTableRecord
  2
*Paper_Space
340
21
  0
BLOCK_RECORD
  5
3C
330
1
100
AcDbSymbolTableRecord
100
AcDbBlockTableRecord
  2
_OPEN30
340
0
102
{BLKREFS
331
46
331
47
331
50
331
51
331
59
331
5A
331
65
331
66
331
71
331
72
331
7C
331
7D
331
87
331
88
331
94
331
96
331
A1
331
A2
331
AC
331
AD
331
B8
331
B9
331
C1
331
C2
331
CB
331
CC
102
}
  0
BLOCK_RECORD
  5
42
330
1
100
AcDbSymbolTableRecord
100
AcDbBlockTableRecord
  2
*D1
340
0
  0
BLOCK_RECORD
  5
4C
330
1
100
AcDbSymbolTableRecord
100
AcDbBlockTableRecord
  2
*D2
340
0
  0
BLOCK_RECORD
  5
56
330
1
100
AcDbSymbolTableRecord
100
AcDbBlockTableRecord
  2
*D3
340
0
  0
BLOCK_RECORD
  5
62
330
1
100
AcDbSymbolTableRecord
100
AcDbBlockTableRecord
  2
*D4
340
0
  0
BLOCK_RECORD
  5
6E
330
1
100
AcDbSymbolTableRecord
100
AcDbBlockTableRecord
  2
*D5
340
0
  0
BLOCK_RECORD
  5
79
330
1
100
AcDbSymbolTableRecord
100
AcDbBlockTableRecord
  2
*D6
340
0
  0
BLOCK_RECORD
  5
84
330
1
100
AcDbSymbolTableRecord
100
AcDbBlockTableRecord
  2
*D7
340
0
  0
BLOCK_RECORD
  5
90
330
1
100
AcDbSymbolTableRecord
100
AcDbBlockTableRecord
  2
*D8
340
0
  0
BLOCK_RECORD
  5
9E
330
1
100
AcDbSymbolTableRecord
100
AcDbBlockTableRecord
  2
*D9
340
0
  0
BLOCK_RECORD
  5
A9
330
1
100
AcDbSymbolTableRecord
100
AcDbBlockTableRecord
  2
*D10
340
0
  0
BLOCK_RECORD
  5
B4
330
1
100
AcDbSymbolTableRecord
100
AcDbBlockTableRecord
  2
*D11
340
0
  0
BLOCK_RECORD
  5
BE
330
1
100
AcDbSymbolTableRecord
100
AcDbBlockTableRecord
  2
*D12
340
0
  0
BLOCK_RECORD
  5
C8
330
1
100
AcDbSymbolTableRecord
100
AcDbBlockTableRecord
  2
*D13
340
0
  0
BLOCK_RECORD
  5
D3
330
1
100
AcDbSymbolTableRecord
100
AcDbBlockTableRecord
  2
KOZU0001
340
0
102
{BLKREFS
331
2F5
102
}
  0
BLOCK_RECORD
  5
DC
330
1
100
AcDbSymbolTableRecord
100
AcDbBlockTableRecord
  2
KOZU0002
340
0
102
{BLKREFS
331
2FC
102
}
  0
ENDTAB
  0
ENDSEC
  0
SECTION
  2
BLOCKS
  0
BLOCK
  5
23
330
22
100
AcDbEntity
  8
0
100
AcDbBlockBegin
  2
*Model_Space
 70
     0
 10
0.0
 20
0.0
 30
0.0
  3
*Model_Space
  1

  0
ENDBLK
  5
24
330
22
100
AcDbEntity
  8
0
100
AcDbBlockEnd
  0
BLOCK
  5
1F
330
1E
100
AcDbEntity
 67
     1
  8
0
100
AcDbBlockBegin
  2
*Paper_Space
 70
     0
 10
0.0
 20
0.0
 30
0.0
  3
*Paper_Space
  1

  0
ENDBLK
  5
20
330
1E
100
AcDbEntity
 67
     1
  8
0
100
AcDbBlockEnd
  0
BLOCK
  5
3D
330
3C
100
AcDbEntity
  8
0
100
AcDbBlockBegin
  2
_OPEN30
 70
     0
 10
0.0
 20
0.0
 30
0.0
  3
_OPEN30
  1

  0
LINE
  5
3E
330
3C
100
AcDbEntity
  8
0
  6
ByBlock
 62
     0
100
AcDbLine
 10
0.0
 20
0.0
 30
0.0
 11
-2.999999999999993
 21
-1.000000000000017
 31
0.0
  0
LINE
  5
3F
330
3C
100
AcDbEntity
  8
0
  6
ByBlock
 62
     0
100
AcDbLine
 10
0.0
 20
0.0
 30
0.0
 11
-3.000000000000006
 21
0.9999999999999815
 31
0.0
  0
LINE
  5
40
330
3C
100
AcDbEntity
  8
0
  6
ByBlock
 62
     0
100
AcDbLine
 10
0.0
 20
0.0
 30
0.0
 11
-3.0
 21
0.0
 31
0.0
  0
ENDBLK
  5
41
330
3C
100
AcDbEntity
  8
0
100
AcDbBlockEnd
  0
BLOCK
  5
43
330
42
100
AcDbEntity
  8
0
100
AcDbBlockBegin
  2
*D1
 70
     1
 10
0.0
 20
0.0
 30
0.0
  3
*D1
  1

  0
LINE
  5
44
330
42
100
AcDbEntity
  8
0
  6
Continuous
 62
     7
100
AcDbLine
 10
-382.748291015625
 20
331.997802734375
 30
0.0
 11
-358.9485473632813
 21
359.9526672363281
 31
0.0
  0
LINE
  5
45
330
42
100
AcDbEntity
  8
0
  6
Continuous
 62
     7
100
AcDbLine
 10
-480.6341659601712
 20
217.0223481977143
 30
0.0
 11
-384.693043512485
 21
329.7135221636139
 31
0.0
  0
INSERT
  5
46
330
42
100
AcDbEntity
  8
0
  6
Continuous
 62
     7
100
AcDbBlockReference
  2
_OPEN30
 10
-482.5789184570313
 20
214.7380676269531
 30
0.0
 50
229.5901484201073
  0
INSERT
  5
47
330
42
100
AcDbEntity
  8
0
  6
Continuous
 62
     7
100
AcDbBlockReference
  2
_OPEN30
 10
-382.748291015625
 20
331.997802734375
 30
0.0
 50
49.5901484201066
  0
TEXT
  5
48
330
42
100
AcDbEntity
  8
0
  6
Continuous
 62
     7
100
AcDbText
 10
-380.3523771440294
 20
335.9646909565857
 30
0.0
 40
3.0
  1
%%C１５４（防水皿外径）
 50
49.60000046955386
 41
0.8440126077968535
100
AcDbText
  0
POINT
  5
49
330
42
100
AcDbEntity
  8
DEFPOINTS
  6
Continuous
 62
     7
100
AcDbPoint
 10
-482.5789184570313
 20
214.7380676269531
 30
0.0
  0
POINT
  5
4A
330
42
100
AcDbEntity
  8
DEFPOINTS
  6
Continuous
 62
     7
100
AcDbPoint
 10
-382.748291015625
 20
331.997802734375
 30
0.0
  0
ENDBLK
  5
4B
330
42
100
AcDbEntity
  8
0
100
AcDbBlockEnd
  0
BLOCK
  5
4D
330
4C
100
AcDbEntity
  8
0
100
AcDbBlockBegin
  2
*D2
 70
     1
 10
0.0
 20
0.0
 30
0.0
  3
*D2
  1

  0
LINE
  5
4E
330
4C
100
AcDbEntity
  8
0
  6
Continuous
 62
     7
100
AcDbLine
 10
-389.2854919433594
 20
298.8428649902344
 30
0.0
 11
-333.6393127441406
 21
331.3534545898438
 31
0.0
  0
LINE
  5
4F
330
4C
100
AcDbEntity
  8
0
  6
Continuous
 62
     7
100
AcDbLine
 10
-473.9024819416587
 20
249.4063822809429
 30
0.0
 11
-391.8758078532631
 21
297.3295033391743
 31
0.0
  0
INSERT
  5
50
330
4C
100
AcDbEntity
  8
0
  6
Continuous
 62
     7
100
AcDbBlockReference
  2
_OPEN30
 10
-476.4927978515625
 20
247.8930206298828
 30
0.0
 50
210.2951066545222
  0
INSERT
  5
51
330
4C
100
AcDbEntity
  8
0
  6
Continuous
 62
     7
100
AcDbBlockReference
  2
_OPEN30
 10
-389.2854919433594
 20
298.8428649902344
 30
0.0
 50
30.29510665452152
  0
TEXT
  5
52
330
4C
100
AcDbEntity
  8
0
  6
Continuous
 62
     7
100
AcDbText
 10
-361.7679333074486
 20
315.786674673208
 30
0.0
 40
3.0
  1
%%C１０１（目皿受外径）
 50
30.29999981864594
 41
0.8440126077968535
100
AcDbText
  0
POINT
  5
53
330
4C
100
AcDbEntity
  8
DEFPOINTS
  6
Continuous
 62
     7
100
AcDbPoint
 10
-476.4927978515625
 20
247.8930206298828
 30
0.0
  0
POINT
  5
54
330
4C
100
AcDbEntity
  8
DEFPOINTS
  6
Continuous
 62
     7
100
AcDbPoint
 10
-389.2854919433594
 20
298.8428649902344
 30
0.0
  0
ENDBLK
  5
55
330
4C
100
AcDbEntity
  8
0
100
AcDbBlockEnd
  0
BLOCK
  5
57
330
56
100
AcDbEntity
  8
0
100
AcDbBlockBegin
  2
*D3
 70
     1
 10
0.0
 20
0.0
 30
0.0
  3
*D3
  1

  0
LINE
  5
58
330
56
100
AcDbEntity
  8
0
  6
Continuous
 62
     7
100
AcDbLine
 10
-86.69379425048829
 20
248.3679351806641
 30
0.0
 11
-86.69379425048823
 21
298.3679504394531
 31
0.0
  0
INSERT
  5
59
330
56
100
AcDbEntity
  8
0
  6
Continuous
 62
     7
100
AcDbBlockReference
  2
_OPEN30
 10
-86.69379425048829
 20
245.3679351806641
 30
0.0
 50
270.0000000000005
  0
INSERT
  5
5A
330
56
100
AcDbEntity
  8
0
  6
Continuous
 62
     7
100
AcDbBlockReference
  2
_OPEN30
 10
-86.69379425048829
 20
301.3679504394531
 30
0.0
 50
90.00000000000019
  0
LINE
  5
5B
330
56
100
AcDbEntity
  8
0
  6
Continuous
 62
     7
100
AcDbLine
 10
-118.8937692260742
 20
245.3679351806641
 30
0.0
 11
-84.40779113769531
 21
245.3679351806641
 31
0.0
  0
LINE
  5
5C
330
56
100
AcDbEntity
  8
0
  6
Continuous
 62
     7
100
AcDbLine
 10
-118.8937692260742
 20
301.3679504394531
 30
0.0
 11
-84.40779113769531
 21
301.3679504394531
 31
0.0
  0
TEXT
  5
5D
330
56
100
AcDbEntity
  8
0
  6
Continuous
 62
     7
100
AcDbText
 10
-87.44379407258291
 20
269.2979502350082
 30
0.0
 40
3.0
  1
%%C56
 50
90.00000250447815
 41
0.9498249830693319
100
AcDbText
  0
POINT
  5
5E
330
56
100
AcDbEntity
  8
DEFPOINTS
  6
Continuous
 62
     7
100
AcDbPoint
 10
-121.4337692260742
 20
245.3679351806641
 30
0.0
  0
POINT
  5
5F
330
56
100
AcDbEntity
  8
DEFPOINTS
  6
Continuous
 62
     7
100
AcDbPoint
 10
-121.4337692260742
 20
301.3679504394531
 30
0.0
  0
POINT
  5
60
330
56
100
AcDbEntity
  8
DEFPOINTS
  6
Continuous
 62
     7
100
AcDbPoint
 10
-86.69379425048829
 20
301.3679504394531
 30
0.0
  0
ENDBLK
  5
61
330
56
100
AcDbEntity
  8
0
100
AcDbBlockEnd
  0
BLOCK
  5
63
330
62
100
AcDbEntity
  8
0
100
AcDbBlockBegin
  2
*D4
 70
     1
 10
0.0
 20
0.0
 30
0.0
  3
*D4
  1

  0
LINE
  5
64
330
62
100
AcDbEntity
  8
0
  6
Continuous
 62
     7
100
AcDbLine
 10
-175.9337768554688
 20
173.9212799072266
 30
0.0
 11
-123.9337692260742
 21
173.9212799072265
 31
0.0
  0
INSERT
  5
65
330
62
100
AcDbEntity
  8
0
  6
Continuous
 62
     7
100
AcDbBlockReference
  2
_OPEN30
 10
-178.9337768554688
 20
173.9212799072266
 30
0.0
 50
180.0000000000004
  0
INSERT
  5
66
330
62
100
AcDbEntity
  8
0
  6
Continuous
 62
     7
100
AcDbBlockReference
  2
_OPEN30
 10
-120.9337692260742
 20
173.9212799072266
 30
0.0
  0
LINE
  5
67
330
62
100
AcDbEntity
  8
0
  6
Continuous
 62
     7
100
AcDbLine
 10
-178.9337768554687
 20
244.8279351806641
 30
0.0
 11
-178.9337768554688
 21
171.6352844238281
 31
0.0
  0
LINE
  5
68
330
62
100
AcDbEntity
  8
0
  6
Continuous
 62
     7
100
AcDbLine
 10
-120.9337692260742
 20
243.8279351806641
 30
0.0
 11
-120.9337692260742
 21
171.6352844238281
 31
0.0
  0
TEXT
  5
69
330
62
100
AcDbEntity
  8
0
  6
Continuous
 62
     7
100
AcDbText
 10
-152.5037769675255
 20
174.6712799072266
 30
0.0
 40
3.0
  1
58
 41
1.028000020980834
100
AcDbText
  0
POINT
  5
6A
330
62
100
AcDbEntity
  8
DEFPOINTS
  6
Continuous
 62
     7
100
AcDbPoint
 10
-178.9337768554688
 20
247.3679351806641
 30
0.0
  0
POINT
  5
6B
330
62
100
AcDbEntity
  8
DEFPOINTS
  6
Continuous
 62
     7
100
AcDbPoint
 10
-120.9337692260742
 20
246.3679351806641
 30
0.0
  0
POINT
  5
6C
330
62
100
AcDbEntity
  8
DEFPOINTS
  6
Continuous
 62
     7
100
AcDbPoint
 10
-120.9337692260742
 20
173.9212799072266
 30
0.0
  0
ENDBLK
  5
6D
330
62
100
AcDbEntity
  8
0
100
AcDbBlockEnd
  0
BLOCK
  5
6F
330
6E
100
AcDbEntity
  8
0
100
AcDbBlockBegin
  2
*D5
 70
     1
 10
0.0
 20
0.0
 30
0.0
  3
*D5
  1

  0
LINE
  5
70
330
6E
100
AcDbEntity
  8
0
  6
Continuous
 62
     7
100
AcDbLine
 10
-142.4337768554688
 20
222.0244598388672
 30
0.0
 11
-134.4337768554688
 21
222.0244598388672
 31
0.0
  0
INSERT
  5
71
330
6E
100
AcDbEntity
  8
0
  6
Continuous
 62
     7
100
AcDbBlockReference
  2
_OPEN30
 10
-145.4337768554688
 20
222.0244598388672
 30
0.0
 50
180.0000000000004
  0
INSERT
  5
72
330
6E
100
AcDbEntity
  8
0
  6
Continuous
 62
     7
100
AcDbBlockReference
  2
_OPEN30
 10
-131.4337768554687
 20
222.0244598388672
 30
0.0
  0
LINE
  5
73
330
6E
100
AcDbEntity
  8
0
  6
Continuous
 62
     7
100
AcDbLine
 10
-131.4337768554687
 20
240.4083032226563
 30
0.0
 11
-131.4337768554687
 21
219.7384643554688
 31
0.0
  0
TEXT
  5
74
330
6E
100
AcDbEntity
  8
0
  6
Continuous
 62
     7
100
AcDbText
 10
-141.0037769675255
 20
222.7744598388672
 30
0.0
 40
3.0
  1
14
 41
1.285000026226043
100
AcDbText
  0
POINT
  5
75
330
6E
100
AcDbEntity
  8
DEFPOINTS
  6
Continuous
 62
     7
100
AcDbPoint
 10
-145.4337768554688
 20
240.3679351806641
 30
0.0
  0
POINT
  5
76
330
6E
100
AcDbEntity
  8
DEFPOINTS
  6
Continuous
 62
     7
100
AcDbPoint
 10
-131.4337768554687
 20
242.9483032226563
 30
0.0
  0
POINT
  5
77
330
6E
100
AcDbEntity
  8
DEFPOINTS
  6
Continuous
 62
     7
100
AcDbPoint
 10
-131.4337768554687
 20
222.0244598388672
 30
0.0
  0
ENDBLK
  5
78
330
6E
100
AcDbEntity
  8
0
100
AcDbBlockEnd
  0
BLOCK
  5
7A
330
79
100
AcDbEntity
  8
0
100
AcDbBlockBegin
  2
*D6
 70
     1
 10
0.0
 20
0.0
 30
0.0
  3
*D6
  1

  0
LINE
  5
7B
330
79
100
AcDbEntity
  8
0
  6
Continuous
 62
     7
100
AcDbLine
 10
-123.8288650512695
 20
242.3679351806641
 30
0.0
 11
-123.8288650512696
 21
234.3679351806641
 31
0.0
  0
INSERT
  5
7C
330
79
100
AcDbEntity
  8
0
  6
Continuous
 62
     7
100
AcDbBlockReference
  2
_OPEN30
 10
-123.8288650512695
 20
245.3679351806641
 30
0.0
 50
90.00000000000019
  0
INSERT
  5
7D
330
79
100
AcDbEntity
  8
0
  6
Continuous
 62
     7
100
AcDbBlockReference
  2
_OPEN30
 10
-123.8288650512695
 20
231.3679351806641
 30
0.0
 50
270.0000000000005
  0
LINE
  5
7E
330
79
100
AcDbEntity
  8
0
  6
Continuous
 62
     7
100
AcDbLine
 10
-141.333275756836
 20
231.3679351806641
 30
0.0
 11
-121.5428619384766
 21
231.3679351806641
 31
0.0
  0
TEXT
  5
7F
330
79
100
AcDbEntity
  8
0
  6
Continuous
 62
     7
100
AcDbText
 10
-124.5788649389313
 20
235.7979350358238
 30
0.0
 40
3.0
  1
14
 50
90.00000250447815
 41
1.285000026226043
100
AcDbText
  0
POINT
  5
80
330
79
100
AcDbEntity
  8
DEFPOINTS
  6
Continuous
 62
     7
100
AcDbPoint
 10
-121.9337692260742
 20
245.3679351806641
 30
0.0
  0
POINT
  5
81
330
79
100
AcDbEntity
  8
DEFPOINTS
  6
Continuous
 62
     7
100
AcDbPoint
 10
-143.8732757568359
 20
231.3679351806641
 30
0.0
  0
POINT
  5
82
330
79
100
AcDbEntity
  8
DEFPOINTS
  6
Continuous
 62
     7
100
AcDbPoint
 10
-123.8288650512695
 20
231.3679351806641
 30
0.0
  0
ENDBLK
  5
83
330
79
100
AcDbEntity
  8
0
100
AcDbBlockEnd
  0
BLOCK
  5
85
330
84
100
AcDbEntity
  8
0
100
AcDbBlockBegin
  2
*D7
 70
     1
 10
0.0
 20
0.0
 30
0.0
  3
*D7
  1

  0
LINE
  5
86
330
84
100
AcDbEntity
  8
0
  6
Continuous
 62
     7
100
AcDbLine
 10
-287.9337768554688
 20
389.2662963867188
 30
0.0
 11
-151.9337768554688
 21
389.2662963867188
 31
0.0
  0
INSERT
  5
87
330
84
100
AcDbEntity
  8
0
  6
Continuous
 62
     7
100
AcDbBlockReference
  2
_OPEN30
 10
-290.9337768554688
 20
389.2662963867188
 30
0.0
 50
180.0000000000004
  0
INSERT
  5
88
330
84
100
AcDbEntity
  8
0
  6
Continuous
 62
     7
100
AcDbBlockReference
  2
_OPEN30
 10
-148.9337768554688
 20
389.2662963867188
 30
0.0
  0
LINE
  5
89
330
84
100
AcDbEntity
  8
0
  6
Continuous
 62
     7
100
AcDbLine
 10
-290.9337768554688
 20
325.9079504394532
 30
0.0
 11
-290.9337768554688
 21
391.5522766113281
 31
0.0
  0
LINE
  5
8A
330
84
100
AcDbEntity
  8
0
  6
Continuous
 62
     7
100
AcDbLine
 10
-148.9337768554688
 20
350.9079504394532
 30
0.0
 11
-148.9337768554688
 21
391.5522766113281
 31
0.0
  0
TEXT
  5
8B
330
84
100
AcDbEntity
  8
0
  6
Continuous
 62
     7
100
AcDbText
 10
-239.0037776231766
 20
390.0162963867188
 30
0.0
 40
3.0
  1
１４２　（１３６～１５３）
 41
0.8434321120058422
100
AcDbText
  0
POINT
  5
8C
330
84
100
AcDbEntity
  8
DEFPOINTS
  6
Continuous
 62
     7
100
AcDbPoint
 10
-290.9337768554688
 20
323.3679504394531
 30
0.0
  0
POINT
  5
8D
330
84
100
AcDbEntity
  8
DEFPOINTS
  6
Continuous
 62
     7
100
AcDbPoint
 10
-148.9337768554688
 20
348.3679504394531
 30
0.0
  0
POINT
  5
8E
330
84
100
AcDbEntity
  8
DEFPOINTS
  6
Continuous
 62
     7
100
AcDbPoint
 10
-148.9337768554688
 20
389.2662963867188
 30
0.0
  0
ENDBLK
  5
8F
330
84
100
AcDbEntity
  8
0
100
AcDbBlockEnd
  0
BLOCK
  5
91
330
90
100
AcDbEntity
  8
0
100
AcDbBlockBegin
  2
*D8
 70
     1
 10
0.0
 20
0.0
 30
0.0
  3
*D8
  1

  0
LINE
  5
92
330
90
100
AcDbEntity
  8
0
  6
Continuous
 62
     7
100
AcDbLine
 10
-145.4337768554688
 20
389.2662963867188
 30
0.0
 11
-129.2688903808594
 21
389.2662963867188
 31
0.0
  0
LINE
  5
93
330
90
100
AcDbEntity
  8
0
  6
Continuous
 62
     7
100
AcDbLine
 10
-148.9337768554688
 20
389.2662963867188
 30
0.0
 11
-145.4337768554688
 21
389.2662963867188
 31
0.0
  0
INSERT
  5
94
330
90
100
AcDbEntity
  8
0
  6
Continuous
 62
     7
100
AcDbBlockReference
  2
_OPEN30
 10
-148.9337768554688
 20
389.2662963867188
 30
0.0
 50
0.0000000000003562
  0
LINE
  5
95
330
90
100
AcDbEntity
  8
0
  6
Continuous
 62
     7
100
AcDbLine
 10
-151.9337768554688
 20
389.2662963867188
 30
0.0
 11
-155.2837768554686
 21
389.2662963867187
 31
0.0
  0
INSERT
  5
96
330
90
100
AcDbEntity
  8
0
  6
Continuous
 62
     7
100
AcDbBlockReference
  2
_OPEN30
 10
-145.4337768554688
 20
389.2662963867188
 30
0.0
 50
180.0
  0
LINE
  5
97
330
90
100
AcDbEntity
  8
0
  6
Continuous
 62
     7
100
AcDbLine
 10
-142.4337768554688
 20
389.2662963867188
 30
0.0
 11
-139.0837768554687
 21
389.2662963867188
 31
0.0
  0
LINE
  5
98
330
90
100
AcDbEntity
  8
0
  6
Continuous
 62
     7
100
AcDbLine
 10
-145.4337768554688
 20
352.4079504394532
 30
0.0
 11
-145.4337768554688
 21
391.5522766113281
 31
0.0
  0
TEXT
  5
99
330
90
100
AcDbEntity
  8
0
  6
Continuous
 62
     7
100
AcDbText
 10
-137.4088978767395
 20
390.0162963867188
 30
0.0
 40
3.0
  1
3.5
 41
1.356666684150696
100
AcDbText
  0
POINT
  5
9A
330
90
100
AcDbEntity
  8
DEFPOINTS
  6
Continuous
 62
     7
100
AcDbPoint
 10
-148.9337768554688
 20
391.5522766113281
 30
0.0
  0
POINT
  5
9B
330
90
100
AcDbEntity
  8
DEFPOINTS
  6
Continuous
 62
     7
100
AcDbPoint
 10
-145.4337768554688
 20
349.8679504394531
 30
0.0
  0
POINT
  5
9C
330
90
100
AcDbEntity
  8
DEFPOINTS
  6
Continuous
 62
     7
100
AcDbPoint
 10
-145.4337768554688
 20
389.2662963867188
 30
0.0
  0
ENDBLK
  5
9D
330
90
100
AcDbEntity
  8
0
100
AcDbBlockEnd
  0
BLOCK
  5
9F
330
9E
100
AcDbEntity
  8
0
100
AcDbBlockBegin
  2
*D9
 70
     1
 10
0.0
 20
0.0
 30
0.0
  3
*D9
  1

  0
LINE
  5
A0
330
9E
100
AcDbEntity
  8
0
  6
Continuous
 62
     7
100
AcDbLine
 10
-151.9337768554688
 20
377.5957946777344
 30
0.0
 11
-175.9337768554688
 21
377.5957946777344
 31
0.0
  0
INSERT
  5
A1
330
9E
100
AcDbEntity
  8
0
  6
Continuous
 62
     7
100
AcDbBlockReference
  2
_OPEN30
 10
-148.9337768554688
 20
377.5957946777344
 30
0.0
  0
INSERT
  5
A2
330
9E
100
AcDbEntity
  8
0
  6
Continuous
 62
     7
100
AcDbBlockReference
  2
_OPEN30
 10
-178.9337768554688
 20
377.5957946777344
 30
0.0
 50
180.0000000000004
  0
LINE
  5
A3
330
9E
100
AcDbEntity
  8
0
  6
Continuous
 62
     7
100
AcDbLine
 10
-178.9337768554688
 20
301.9079504394532
 30
0.0
 11
-178.9337768554688
 21
379.8818054199219
 31
0.0
  0
TEXT
  5
A4
330
9E
100
AcDbEntity
  8
0
  6
Continuous
 62
     7
100
AcDbText
 10
-166.5037769675255
 20
378.3457946777344
 30
0.0
 40
3.0
  1
30
 41
1.101428593908038
100
AcDbText
  0
POINT
  5
A5
330
9E
100
AcDbEntity
  8
DEFPOINTS
  6
Continuous
 62
     7
100
AcDbPoint
 10
-148.9337768554688
 20
391.5522766113281
 30
0.0
  0
POINT
  5
A6
330
9E
100
AcDbEntity
  8
DEFPOINTS
  6
Continuous
 62
     7
100
AcDbPoint
 10
-178.9337768554688
 20
299.3679504394531
 30
0.0
  0
POINT
  5
A7
330
9E
100
AcDbEntity
  8
DEFPOINTS
  6
Continuous
 62
     7
100
AcDbPoint
 10
-178.9337768554688
 20
377.5957946777344
 30
0.0
  0
ENDBLK
  5
A8
330
9E
100
AcDbEntity
  8
0
100
AcDbBlockEnd
  0
BLOCK
  5
AA
330
A9
100
AcDbEntity
  8
0
100
AcDbBlockBegin
  2
*D10
 70
     1
 10
0.0
 20
0.0
 30
0.0
  3
*D10
  1

  0
LINE
  5
AB
330
A9
100
AcDbEntity
  8
0
  6
Continuous
 62
     7
100
AcDbLine
 10
-287.9337768554688
 20
377.5957946777344
 30
0.0
 11
-248.9337768554688
 21
377.5957946777344
 31
0.0
  0
INSERT
  5
AC
330
A9
100
AcDbEntity
  8
0
  6
Continuous
 62
     7
100
AcDbBlockReference
  2
_OPEN30
 10
-290.9337768554688
 20
377.5957946777344
 30
0.0
 50
180.0000000000004
  0
INSERT
  5
AD
330
A9
100
AcDbEntity
  8
0
  6
Continuous
 62
     7
100
AcDbBlockReference
  2
_OPEN30
 10
-245.9337768554688
 20
377.5957946777344
 30
0.0
  0
LINE
  5
AE
330
A9
100
AcDbEntity
  8
0
  6
Continuous
 62
     7
100
AcDbLine
 10
-245.9337768554688
 20
302.9079504394532
 30
0.0
 11
-245.9337768554688
 21
379.8818054199219
 31
0.0
  0
TEXT
  5
AF
330
A9
100
AcDbEntity
  8
0
  6
Continuous
 62
     7
100
AcDbText
 10
-271.0037769675255
 20
378.3457946777344
 30
0.0
 40
3.0
  1
45
 41
1.028000020980834
100
AcDbText
  0
POINT
  5
B0
330
A9
100
AcDbEntity
  8
DEFPOINTS
  6
Continuous
 62
     7
100
AcDbPoint
 10
-290.9337768554688
 20
391.5522766113281
 30
0.0
  0
POINT
  5
B1
330
A9
100
AcDbEntity
  8
DEFPOINTS
  6
Continuous
 62
     7
100
AcDbPoint
 10
-245.9337768554688
 20
300.3679504394531
 30
0.0
  0
POINT
  5
B2
330
A9
100
AcDbEntity
  8
DEFPOINTS
  6
Continuous
 62
     7
100
AcDbPoint
 10
-245.9337768554688
 20
377.5957946777344
 30
0.0
  0
ENDBLK
  5
B3
330
A9
100
AcDbEntity
  8
0
100
AcDbBlockEnd
  0
BLOCK
  5
B5
330
B4
100
AcDbEntity
  8
0
100
AcDbBlockBegin
  2
*D11
 70
     1
 10
0.0
 20
0.0
 30
0.0
  3
*D11
  1

  0
LINE
  5
B6
330
B4
100
AcDbEntity
  8
0
  6
Continuous
 62
     7
100
AcDbLine
 10
-392.4309692382813
 20
285.4234313964844
 30
0.0
 11
-330.75634765625
 21
303.9039001464844
 31
0.0
  0
LINE
  5
B7
330
B4
100
AcDbEntity
  8
0
  6
Continuous
 62
     7
100
AcDbLine
 10
-470.0224805136906
 20
262.1735458500631
 30
0.0
 11
-395.3047289589656
 21
284.5623245112651
 31
0.0
  0
INSERT
  5
B8
330
B4
100
AcDbEntity
  8
0
  6
Continuous
 62
     7
100
AcDbBlockReference
  2
_OPEN30
 10
-472.896240234375
 20
261.3124389648438
 30
0.0
 50
196.6805663764571
  0
INSERT
  5
B9
330
B4
100
AcDbEntity
  8
0
  6
Continuous
 62
     7
100
AcDbBlockReference
  2
_OPEN30
 10
-392.4309692382813
 20
285.4234313964844
 30
0.0
 50
16.68056637645634
  0
TEXT
  5
BA
330
B4
100
AcDbEntity
  8
0
  6
Continuous
 62
     7
100
AcDbText
 10
-356.0106280733792
 20
297.1149083966159
 30
0.0
 40
3.0
  1
%%C８４（目皿外径）
 50
16.70000035088335
 41
0.8448610247221777
100
AcDbText
  0
POINT
  5
BB
330
B4
100
AcDbEntity
  8
DEFPOINTS
  6
Continuous
 62
     7
100
AcDbPoint
 10
-472.896240234375
 20
261.3124389648438
 30
0.0
  0
POINT
  5
BC
330
B4
100
AcDbEntity
  8
DEFPOINTS
  6
Continuous
 62
     7
100
AcDbPoint
 10
-392.4309692382813
 20
285.4234313964844
 30
0.0
  0
ENDBLK
  5
BD
330
B4
100
AcDbEntity
  8
0
100
AcDbBlockEnd
  0
BLOCK
  5
BF
330
BE
100
AcDbEntity
  8
0
100
AcDbBlockBegin
  2
*D12
 70
     1
 10
0.0
 20
0.0
 30
0.0
  3
*D12
  1

  0
LINE
  5
C0
330
BE
100
AcDbEntity
  8
0
  6
Continuous
 62
     7
100
AcDbLine
 10
-255.9337768554688
 20
278.7644348144531
 30
0.0
 11
-161.9337768554688
 21
278.7644348144531
 31
0.0
  0
INSERT
  5
C1
330
BE
100
AcDbEntity
  8
0
  6
Continuous
 62
     7
100
AcDbBlockReference
  2
_OPEN30
 10
-258.9337768554688
 20
278.7644348144531
 30
0.0
 50
180.0000000000004
  0
INSERT
  5
C2
330
BE
100
AcDbEntity
  8
0
  6
Continuous
 62
     7
100
AcDbBlockReference
  2
_OPEN30
 10
-158.9337768554688
 20
278.7644348144531
 30
0.0
  0
TEXT
  5
C3
330
BE
100
AcDbEntity
  8
0
  6
Continuous
 62
     7
100
AcDbText
 10
-213.0037770271301
 20
279.5144348144531
 30
0.0
 40
3.0
  1
100
 41
1.320000017011488
100
AcDbText
  0
POINT
  5
C4
330
BE
100
AcDbEntity
  8
DEFPOINTS
  6
Continuous
 62
     7
100
AcDbPoint
 10
-258.9337768554688
 20
273.3679504394531
 30
0.0
  0
POINT
  5
C5
330
BE
100
AcDbEntity
  8
DEFPOINTS
  6
Continuous
 62
     7
100
AcDbPoint
 10
-158.9337768554688
 20
273.3679504394531
 30
0.0
  0
POINT
  5
C6
330
BE
100
AcDbEntity
  8
DEFPOINTS
  6
Continuous
 62
     7
100
AcDbPoint
 10
-158.9337768554688
 20
278.7644348144531
 30
0.0
  0
ENDBLK
  5
C7
330
BE
100
AcDbEntity
  8
0
100
AcDbBlockEnd
  0
BLOCK
  5
C9
330
C8
100
AcDbEntity
  8
0
100
AcDbBlockBegin
  2
*D13
 70
     1
 10
0.0
 20
0.0
 30
0.0
  3
*D13
  1

  0
LINE
  5
CA
330
C8
100
AcDbEntity
  8
0
  6
Continuous
 62
     7
100
AcDbLine
 10
-161.9337768554688
 20
286.25390625
 30
0.0
 11
-205.9337768554688
 21
286.25390625
 31
0.0
  0
INSERT
  5
CB
330
C8
100
AcDbEntity
  8
0
  6
Continuous
 62
     7
100
AcDbBlockReference
  2
_OPEN30
 10
-158.9337768554688
 20
286.25390625
 30
0.0
  0
INSERT
  5
CC
330
C8
100
AcDbEntity
  8
0
  6
Continuous
 62
     7
100
AcDbBlockReference
  2
_OPEN30
 10
-208.9337768554688
 20
286.25390625
 30
0.0
 50
180.0000000000004
  0
LINE
  5
CD
330
C8
100
AcDbEntity
  8
0
  6
Continuous
 62
     7
100
AcDbLine
 10
-208.9337768554687
 20
293.3279504394531
 30
0.0
 11
-208.9337768554688
 21
283.9679260253906
 31
0.0
  0
TEXT
  5
CE
330
C8
100
AcDbEntity
  8
0
  6
Continuous
 62
     7
100
AcDbText
 10
-186.5037769675255
 20
287.00390625
 30
0.0
 40
3.0
  1
50
 41
1.101428593908038
100
AcDbText
  0
POINT
  5
CF
330
C8
100
AcDbEntity
  8
DEFPOINTS
  6
Continuous
 62
     7
100
AcDbPoint
 10
-158.9337768554688
 20
295.8679504394531
 30
0.0
  0
POINT
  5
D0
330
C8
100
AcDbEntity
  8
DEFPOINTS
  6
Continuous
 62
     7
100
AcDbPoint
 10
-208.9337768554688
 20
295.8679504394531
 30
0.0
  0
POINT
  5
D1
330
C8
100
AcDbEntity
  8
DEFPOINTS
  6
Continuous
 62
     7
100
AcDbPoint
 10
-208.9337768554688
 20
286.25390625
 30
0.0
  0
ENDBLK
  5
D2
330
C8
100
AcDbEntity
  8
0
100
AcDbBlockEnd
  0
BLOCK
  5
D4
330
D3
100
AcDbEntity
  8
0
100
AcDbBlockBegin
  2
KOZU0001
 70
     0
 10
0.0
 20
0.0
 30
0.0
  3
KOZU0001
  1

  0
LINE
  5
D5
330
D3
100
AcDbEntity
  8
0
  6
Continuous
 62
     7
100
AcDbLine
 10
0.0
 20
0.0
 30
0.0
 11
21.67559051513672
 21
21.20831298828125
 31
0.0
  0
LINE
  5
D6
330
D3
100
AcDbEntity
  8
0
  6
Continuous
 62
     7
100
AcDbLine
 10
21.67559051513672
 20
21.20831298828125
 30
0.0
 11
59.39669799804688
 21
21.20831298828125
 31
0.0
  0
LINE
  5
D7
330
D3
100
AcDbEntity
  8
0
  6
Continuous
 62
     7
100
AcDbLine
 10
0.0
 20
0.0
 30
0.0
 11
1.444947284732258
 21
2.812850394945468
 31
0.0
  0
LINE
  5
D8
330
D3
100
AcDbEntity
  8
0
  6
Continuous
 62
     7
100
AcDbLine
 10
0.0
 20
0.0
 30
0.0
 11
2.843668064753087
 21
1.383311945117019
 31
0.0
  0
TEXT
  5
D9
330
D3
100
AcDbEntity
  8
0
  6
Continuous
 62
     7
100
AcDbText
 10
23.21682667732239
 20
21.95831298828125
 30
0.0
 40
3.0
  1
配管接続口
 41
0.8487395020950888
100
AcDbText
  0
TEXT
  5
DA
330
D3
100
AcDbEntity
  8
0
  6
Continuous
 62
     7
100
AcDbText
 10
23.21682667732239
 20
16.69331298828125
 30
0.0
 40
3.0
  1
Ｒｃ１　１／２（４０Ａ）
 41
0.8436974815103043
100
AcDbText
  0
ENDBLK
  5
DB
330
D3
100
AcDbEntity
  8
0
100
AcDbBlockEnd
  0
BLOCK
  5
DD
330
DC
100
AcDbEntity
  8
0
100
AcDbBlockBegin
  2
KOZU0002
 70
     0
 10
0.0
 20
0.0
 30
0.0
  3
KOZU0002
  1

  0
LINE
  5
DE
330
DC
100
AcDbEntity
  8
0
  6
Continuous
 62
     7
100
AcDbLine
 10
0.0
 20
0.0
 30
0.0
 11
24.4305419921875
 21
-35.61561584472656
 31
0.0
  0
LINE
  5
DF
330
DC
100
AcDbEntity
  8
0
  6
Continuous
 62
     7
100
AcDbLine
 10
24.4305419921875
 20
-35.61561584472656
 30
0.0
 11
53.5354995727539
 21
-35.61561584472656
 31
0.0
  0
LINE
  5
E0
330
DC
100
AcDbEntity
  8
0
  6
Continuous
 62
     7
100
AcDbLine
 10
0.0
 20
0.0
 30
0.0
 11
2.521620238451392
 21
-1.908253487624832
 31
0.0
  0
LINE
  5
E1
330
DC
100
AcDbEntity
  8
0
  6
Continuous
 62
     7
100
AcDbLine
 10
0.0
 20
0.0
 30
0.0
 11
0.872344098186215
 21
-3.039574933170702
 31
0.0
  0
TEXT
  5
E2
330
DC
100
AcDbEntity
  8
0
  6
Continuous
 62
     7
100
AcDbText
 10
28.67549824714661
 20
-34.86561584472656
 30
0.0
 40
3.0
  1
共廻り防止用羽根
 41
0.8454512278006642
100
AcDbText
  0
TEXT
  5
E3
330
DC
100
AcDbEntity
  8
0
  6
Continuous
 62
     7
100
AcDbText
 10
28.67549824714661
 20
-40.13061584472656
 30
0.0
 40
3.0
  1
３ヶ所
 41
0.8550420278260688
100
AcDbText
  0
ENDBLK
  5
E4
330
DC
100
AcDbEntity
  8
0
100
AcDbBlockEnd
  0
ENDSEC
  0
SECTION
  2
ENTITIES
  0
LINE
  5
E5
330
22
100
AcDbEntity
  8
0
  6
CENTER
 62
     7
100
AcDbLine
 10
-432.6636047363281
 20
356.2054138183594
 30
0.0
 11
-432.6636047363281
 21
191.6073150634766
 31
0.0
  0
LINE
  5
E6
330
22
100
AcDbEntity
  8
0
  6
CENTER
 62
     7
100
AcDbLine
 10
-514.225341796875
 20
273.3679504394531
 30
0.0
 11
-344.5773010253906
 21
273.3679504394531
 31
0.0
  0
LINE
  5
E7
330
22
100
AcDbEntity
  8
0
  6
CENTER
 62
     7
100
AcDbLine
 10
-299.8489990234375
 20
273.3679504394531
 30
0.0
 11
-112.9965362548828
 21
273.3679504394531
 31
0.0
  0
LINE
  5
E8
330
22
100
AcDbEntity
  8
0
  6
Continuous
 62
     7
100
AcDbLine
 10
-440.12939453125
 20
301.4922790527344
 30
0.0
 11
-442.1697387695313
 21
304.179443359375
 31
0.0
  0
LINE
  5
E9
330
22
100
AcDbEntity
  8
0
  6
Continuous
 62
     7
100
AcDbLine
 10
-440.7841491699218
 20
300.8374938964844
 30
0.0
 11
-443.4713439941406
 21
302.8778381347656
 31
0.0
  0
LINE
  5
EA
330
22
100
AcDbEntity
  8
0
  6
Continuous
 62
     7
100
AcDbLine
 10
-440.4567565917968
 20
301.1648864746094
 30
0.0
 11
-440.12939453125
 21
301.4922790527344
 31
0.0
  0
LINE
  5
EB
330
22
100
AcDbEntity
  8
0
  6
Continuous
 62
     7
100
AcDbLine
 10
-446.1585388183594
 20
307.5214233398438
 30
0.0
 11
-443.4713439941406
 21
305.4810485839844
 31
0.0
  0
LINE
  5
EC
330
22
100
AcDbEntity
  8
0
  6
Continuous
 62
     7
100
AcDbLine
 10
-440.4567565917968
 20
301.1648864746094
 30
0.0
 11
-440.7841491699218
 21
300.8374938964844
 31
0.0
  0
LINE
  5
ED
330
22
100
AcDbEntity
  8
0
  6
Continuous
 62
     7
100
AcDbLine
 10
-446.1409606933593
 20
300.8555297851563
 30
0.0
 11
-443.4713439941406
 21
302.8778381347656
 31
0.0
  0
LINE
  5
EE
330
22
100
AcDbEntity
  8
0
  6
Continuous
 62
     7
100
AcDbLine
 10
-446.1409606933593
 20
300.8555297851563
 30
0.0
 11
-446.4681091308594
 21
301.1826782226563
 31
0.0
  0
LINE
  5
EF
330
22
100
AcDbEntity
  8
0
  6
Continuous
 62
     7
100
AcDbLine
 10
-446.7952575683593
 20
301.5098266601563
 30
0.0
 11
-446.4681091308594
 21
301.1826782226563
 31
0.0
  0
LINE
  5
F0
330
22
100
AcDbEntity
  8
0
  6
Continuous
 62
     7
100
AcDbLine
 10
-440.8017272949218
 20
307.5033569335938
 30
0.0
 11
-443.4713439941406
 21
305.4810485839844
 31
0.0
  0
LINE
  5
F1
330
22
100
AcDbEntity
  8
0
  6
Continuous
 62
     7
100
AcDbLine
 10
-440.1474304199219
 20
306.8490905761719
 30
0.0
 11
-442.1697387695313
 21
304.179443359375
 31
0.0
  0
LINE
  5
F2
330
22
100
AcDbEntity
  8
0
  6
Continuous
 62
     7
100
AcDbLine
 10
-446.8133239746093
 20
306.8666381835938
 30
0.0
 11
-444.77294921875
 21
304.179443359375
 31
0.0
  0
LINE
  5
F3
330
22
100
AcDbEntity
  8
0
  6
Continuous
 62
     7
100
AcDbLine
 10
-446.7952575683593
 20
301.5098266601563
 30
0.0
 11
-444.77294921875
 21
304.179443359375
 31
0.0
  0
LINE
  5
F4
330
22
100
AcDbEntity
  8
0
  6
Continuous
 62
     7
100
AcDbLine
 10
-443.3387451171874
 20
267.0119323730469
 30
0.0
 11
-459.7912292480469
 21
255.0585021972656
 31
0.0
  0
LINE
  5
F5
330
22
100
AcDbEntity
  8
0
  6
Continuous
 62
     7
100
AcDbLine
 10
-423.3633422851562
 20
267.0119323730469
 30
0.0
 11
-406.9108581542968
 21
255.0585021972656
 31
0.0
  0
LINE
  5
F6
330
22
100
AcDbEntity
  8
0
  6
Continuous
 62
     7
100
AcDbLine
 10
-435.5587768554688
 20
270.0440368652344
 30
0.0
 11
-435.8859252929688
 21
270.3711547851563
 31
0.0
  0
LINE
  5
F7
330
22
100
AcDbEntity
  8
0
  6
Continuous
 62
     7
100
AcDbLine
 10
-444.970001220703
 20
272.0323486328125
 30
0.0
 11
-465.3063659667968
 21
272.0323486328125
 31
0.0
  0
LINE
  5
F8
330
22
100
AcDbEntity
  8
0
  6
Continuous
 62
     7
100
AcDbLine
 10
-437.8925476074218
 20
283.7736206054688
 30
0.0
 11
-441.9647827148438
 21
296.3067016601563
 31
0.0
  0
LINE
  5
F9
330
22
100
AcDbEntity
  8
0
  6
Continuous
 62
     7
100
AcDbLine
 10
-430.2019653320312
 20
270.0259704589844
 30
0.0
 11
-432.8891601562499
 21
272.0663452148438
 31
0.0
  0
LINE
  5
FA
330
22
100
AcDbEntity
  8
0
  6
Continuous
 62
     7
100
AcDbLine
 10
-430.2195129394531
 20
276.6918640136719
 30
0.0
 11
-432.8891601562499
 21
274.6695251464844
 31
0.0
  0
LINE
  5
FB
330
22
100
AcDbEntity
  8
0
  6
Continuous
 62
     7
100
AcDbLine
 10
-424.5389099121093
 20
280.6708068847656
 30
0.0
 11
-408.08642578125
 21
292.6242370605469
 31
0.0
  0
LINE
  5
FC
330
22
100
AcDbEntity
  8
0
  6
Continuous
 62
     7
100
AcDbLine
 10
-430.2195129394531
 20
276.6918640136719
 30
0.0
 11
-429.8923645019531
 21
276.3647155761719
 31
0.0
  0
LINE
  5
FD
330
22
100
AcDbEntity
  8
0
  6
Continuous
 62
     7
100
AcDbLine
 10
-429.5652465820313
 20
276.0375671386719
 30
0.0
 11
-431.5875549316406
 21
273.3679504394531
 31
0.0
  0
LINE
  5
FE
330
22
100
AcDbEntity
  8
0
  6
Continuous
 62
     7
100
AcDbLine
 10
-436.2311096191406
 20
276.0551147460938
 30
0.0
 11
-434.1907348632813
 21
273.3679504394531
 31
0.0
  0
LINE
  5
FF
330
22
100
AcDbEntity
  8
0
  6
Continuous
 62
     7
100
AcDbLine
 10
-435.5763244628906
 20
276.7098999023438
 30
0.0
 11
-432.8891601562499
 21
274.6695251464844
 31
0.0
  0
LINE
  5
100
330
22
100
AcDbEntity
  8
0
  6
Continuous
 62
     7
100
AcDbLine
 10
-435.9037170410156
 20
276.3825073242188
 30
0.0
 11
-435.5763244628906
 21
276.7098999023438
 31
0.0
  0
LINE
  5
101
330
22
100
AcDbEntity
  8
0
  6
Continuous
 62
     7
100
AcDbLine
 10
-435.9037170410156
 20
276.3825073242188
 30
0.0
 11
-436.2311096191406
 21
276.0551147460938
 31
0.0
  0
LINE
  5
102
330
22
100
AcDbEntity
  8
0
  6
Continuous
 62
     7
100
AcDbLine
 10
-442.1631774902343
 20
280.6708068847656
 30
0.0
 11
-458.6156616210938
 21
292.6242370605469
 31
0.0
  0
LINE
  5
103
330
22
100
AcDbEntity
  8
0
  6
Continuous
 62
     7
100
AcDbLine
 10
-421.7320861816406
 20
272.0323486328125
 30
0.0
 11
-401.3957214355468
 21
272.0323486328125
 31
0.0
  0
LINE
  5
104
330
22
100
AcDbEntity
  8
0
  6
Continuous
 62
     7
100
AcDbLine
 10
-429.8745727539063
 20
270.3533630371094
 30
0.0
 11
-429.5471801757813
 21
270.6807556152345
 31
0.0
  0
LINE
  5
105
330
22
100
AcDbEntity
  8
0
  6
Continuous
 62
     7
100
AcDbLine
 10
-429.8745727539063
 20
270.3533630371094
 30
0.0
 11
-430.2019653320312
 21
270.0259704589844
 31
0.0
  0
LINE
  5
106
330
22
100
AcDbEntity
  8
0
  6
Continuous
 62
     7
100
AcDbLine
 10
-429.5471801757813
 20
270.6807556152345
 30
0.0
 11
-431.5875549316406
 21
273.3679504394531
 31
0.0
  0
LINE
  5
107
330
22
100
AcDbEntity
  8
0
  6
Continuous
 62
     7
100
AcDbLine
 10
-436.2130737304688
 20
270.6983032226563
 30
0.0
 11
-435.8859252929688
 21
270.3711547851563
 31
0.0
  0
LINE
  5
108
330
22
100
AcDbEntity
  8
0
  6
Continuous
 62
     7
100
AcDbLine
 10
-435.5587768554688
 20
270.0440368652344
 30
0.0
 11
-432.8891601562499
 21
272.0663452148438
 31
0.0
  0
LINE
  5
109
330
22
100
AcDbEntity
  8
0
  6
Continuous
 62
     7
100
AcDbLine
 10
-429.5652465820313
 20
276.0375671386719
 30
0.0
 11
-429.8923645019531
 21
276.3647155761719
 31
0.0
  0
LINE
  5
10A
330
22
100
AcDbEntity
  8
0
  6
Continuous
 62
     7
100
AcDbLine
 10
-436.2130737304688
 20
270.6983032226563
 30
0.0
 11
-434.1907348632813
 21
273.3679504394531
 31
0.0
  0
LINE
  5
10B
330
22
100
AcDbEntity
  8
0
  6
Continuous
 62
     7
100
AcDbLine
 10
-428.8095397949218
 20
283.7736206054688
 30
0.0
 11
-424.7372741699218
 21
296.3067016601563
 31
0.0
  0
LINE
  5
10C
330
22
100
AcDbEntity
  8
0
  6
Continuous
 62
     7
100
AcDbLine
 10
-440.1474304199219
 20
306.8490905761719
 30
0.0
 11
-440.8017272949218
 21
307.5033569335938
 31
0.0
  0
LINE
  5
10D
330
22
100
AcDbEntity
  8
0
  6
Continuous
 62
     7
100
AcDbLine
 10
-446.4859313964844
 20
307.1940307617188
 30
0.0
 11
-446.1585388183594
 21
307.5214233398438
 31
0.0
  0
LINE
  5
10E
330
22
100
AcDbEntity
  8
0
  6
Continuous
 62
     7
100
AcDbLine
 10
-446.4859313964844
 20
307.1940307617188
 30
0.0
 11
-446.8133239746093
 21
306.8666381835938
 31
0.0
  0
LINE
  5
10F
330
22
100
AcDbEntity
  8
0
  6
Continuous
 62
     7
100
AcDbLine
 10
-430.7116394042968
 20
261.6730651855469
 30
0.0
 11
-424.4273681640625
 21
242.3320159912109
 31
0.0
  0
LINE
  5
110
330
22
100
AcDbEntity
  8
0
  6
Continuous
 62
     7
100
AcDbLine
 10
-435.9904479980468
 20
261.6730651855469
 30
0.0
 11
-442.2747192382812
 21
242.3320159912109
 31
0.0
  0
LINE
  5
111
330
22
100
AcDbEntity
  8
0
  6
Continuous
 62
     7
100
AcDbLine
 10
-208.9337768554688
 20
295.8679504394531
 30
0.0
 11
-210.4337768554688
 21
297.3679504394531
 31
0.0
  0
LINE
  5
112
330
22
100
AcDbEntity
  8
0
  6
Continuous
 62
     7
100
AcDbLine
 10
-160.4337768554688
 20
297.3679504394531
 30
0.0
 11
-210.4050445556641
 21
297.3392028808594
 31
0.0
  0
LINE
  5
113
330
22
100
AcDbEntity
  8
0
  6
Continuous
 62
     7
100
AcDbLine
 10
-208.9337768554688
 20
295.8679504394531
 30
0.0
 11
-158.9337768554688
 21
295.8679504394531
 31
0.0
  0
LINE
  5
114
330
22
100
AcDbEntity
  8
0
  6
Continuous
 62
     7
100
AcDbLine
 10
-148.9337768554688
 20
341.1312561035156
 30
0.0
 11
-148.9337768554688
 21
345.944091796875
 31
0.0
  0
LINE
  5
115
330
22
100
AcDbEntity
  8
0
  6
Continuous
 62
     7
100
AcDbLine
 10
-178.9337768554688
 20
297.2694396972656
 30
0.0
 11
-148.9652709960938
 21
297.2694396972656
 31
0.0
  0
LINE
  5
116
330
22
100
AcDbEntity
  8
0
  6
Continuous
 62
     7
100
AcDbLine
 10
-120.9337692260742
 20
297.2694396972656
 30
0.0
 11
-122.4612274169922
 21
295.7419738769531
 31
0.0
  0
LINE
  5
117
330
22
100
AcDbEntity
  8
0
  6
Continuous
 62
     7
100
AcDbLine
 10
-145.4337768554688
 20
302.3679504394531
 30
0.0
 11
-145.4337768554688
 21
349.8679504394531
 31
0.0
  0
LINE
  5
118
330
22
100
AcDbEntity
  8
0
  6
Continuous
 62
     7
100
AcDbLine
 10
-148.9337768554688
 20
305.3679504394531
 30
0.0
 11
-148.9337768554688
 21
348.3679504394531
 31
0.0
  0
LINE
  5
119
330
22
100
AcDbEntity
  8
0
  6
Continuous
 62
     7
100
AcDbLine
 10
-148.9652709960938
 20
297.2694396972656
 30
0.0
 11
-148.9652709960938
 21
273.3679504394531
 31
0.0
  0
LINE
  5
11A
330
22
100
AcDbEntity
  8
0
  6
Continuous
 62
     7
100
AcDbLine
 10
-148.9337768554688
 20
347.9631958007813
 30
0.0
 11
-146.5290374755859
 21
350.3679504394531
 31
0.0
  0
LINE
  5
11B
330
22
100
AcDbEntity
  8
0
  6
Continuous
 62
     7
100
AcDbLine
 10
-148.9337768554688
 20
345.134765625
 30
0.0
 11
-145.4337768554688
 21
348.634765625
 31
0.0
  0
LINE
  5
11C
330
22
100
AcDbEntity
  8
0
  6
Continuous
 62
     7
100
AcDbLine
 10
-148.9337768554688
 20
342.3063354492188
 30
0.0
 11
-145.4337768554688
 21
345.8063354492188
 31
0.0
  0
LINE
  5
11D
330
22
100
AcDbEntity
  8
0
  6
Continuous
 62
     7
100
AcDbLine
 10
-148.9337768554688
 20
339.4779052734375
 30
0.0
 11
-145.4337768554688
 21
342.9779052734375
 31
0.0
  0
LINE
  5
11E
330
22
100
AcDbEntity
  8
0
  6
Continuous
 62
     7
100
AcDbLine
 10
-148.9337768554688
 20
336.6495056152344
 30
0.0
 11
-145.4337768554688
 21
340.1495056152344
 31
0.0
  0
LINE
  5
11F
330
22
100
AcDbEntity
  8
0
  6
Continuous
 62
     7
100
AcDbLine
 10
-148.5341339111328
 20
334.220703125
 30
0.0
 11
-145.4337768554688
 21
337.3210754394531
 31
0.0
  0
LINE
  5
120
330
22
100
AcDbEntity
  8
0
  6
Continuous
 62
     7
100
AcDbLine
 10
-148.9337768554688
 20
330.9926452636719
 30
0.0
 11
-145.4337768554688
 21
334.4926452636719
 31
0.0
  0
LINE
  5
121
330
22
100
AcDbEntity
  8
0
  6
Continuous
 62
     7
100
AcDbLine
 10
-148.9337768554688
 20
328.1642150878906
 30
0.0
 11
-145.4337768554688
 21
331.6642150878906
 31
0.0
  0
LINE
  5
122
330
22
100
AcDbEntity
  8
0
  6
Continuous
 62
     7
100
AcDbLine
 10
-178.9337768554688
 20
298.1642150878906
 30
0.0
 11
-176.7300415039063
 21
300.3679504394531
 31
0.0
  0
LINE
  5
123
330
22
100
AcDbEntity
  8
0
  6
Continuous
 62
     7
100
AcDbLine
 10
-148.9337768554688
 20
325.3357849121094
 30
0.0
 11
-145.4337768554688
 21
328.8357849121094
 31
0.0
  0
LINE
  5
124
330
22
100
AcDbEntity
  8
0
  6
Continuous
 62
     7
100
AcDbLine
 10
-177.0001220703125
 20
297.2694396972656
 30
0.0
 11
-173.901611328125
 21
300.3679504394531
 31
0.0
  0
LINE
  5
125
330
22
100
AcDbEntity
  8
0
  6
Continuous
 62
     7
100
AcDbLine
 10
-148.9337768554688
 20
322.5073547363281
 30
0.0
 11
-145.4337768554688
 21
326.0073547363281
 31
0.0
  0
LINE
  5
126
330
22
100
AcDbEntity
  8
0
  6
Continuous
 62
     7
100
AcDbLine
 10
-174.1716918945313
 20
297.2694396972656
 30
0.0
 11
-171.0731964111328
 21
300.3679504394531
 31
0.0
  0
LINE
  5
127
330
22
100
AcDbEntity
  8
0
  6
Continuous
 62
     7
100
AcDbLine
 10
-148.9337768554688
 20
319.6789245605469
 30
0.0
 11
-145.4337768554688
 21
323.1789245605469
 31
0.0
  0
LINE
  5
128
330
22
100
AcDbEntity
  8
0
  6
Continuous
 62
     7
100
AcDbLine
 10
-171.34326171875
 20
297.2694396972656
 30
0.0
 11
-168.2447662353516
 21
300.3679504394531
 31
0.0
  0
LINE
  5
129
330
22
100
AcDbEntity
  8
0
  6
Continuous
 62
     7
100
AcDbLine
 10
-148.050048828125
 20
317.7342224121094
 30
0.0
 11
-145.4337768554688
 21
320.3504943847656
 31
0.0
  0
LINE
  5
12A
330
22
100
AcDbEntity
  8
0
  6
Continuous
 62
     7
100
AcDbLine
 10
-168.5148315429688
 20
297.2694396972656
 30
0.0
 11
-165.4163360595703
 21
300.3679504394531
 31
0.0
  0
LINE
  5
12B
330
22
100
AcDbEntity
  8
0
  6
Continuous
 62
     7
100
AcDbLine
 10
-148.9337768554688
 20
314.0220642089844
 30
0.0
 11
-145.4337768554688
 21
317.5220642089844
 31
0.0
  0
LINE
  5
12C
330
22
100
AcDbEntity
  8
0
  6
Continuous
 62
     7
100
AcDbLine
 10
-165.6864013671875
 20
297.2694396972656
 30
0.0
 11
-162.5879058837891
 21
300.3679504394531
 31
0.0
  0
LINE
  5
12D
330
22
100
AcDbEntity
  8
0
  6
Continuous
 62
     7
100
AcDbLine
 10
-148.9337768554688
 20
311.1936340332031
 30
0.0
 11
-145.4337768554688
 21
314.6936340332031
 31
0.0
  0
LINE
  5
12E
330
22
100
AcDbEntity
  8
0
  6
Continuous
 62
     7
100
AcDbLine
 10
-162.8579864501953
 20
297.2694396972656
 30
0.0
 11
-159.7594757080078
 21
300.3679504394531
 31
0.0
  0
LINE
  5
12F
330
22
100
AcDbEntity
  8
0
  6
Continuous
 62
     7
100
AcDbLine
 10
-148.9337768554688
 20
308.365234375
 30
0.0
 11
-145.4337768554688
 21
311.865234375
 31
0.0
  0
LINE
  5
130
330
22
100
AcDbEntity
  8
0
  6
Continuous
 62
     7
100
AcDbLine
 10
-160.0295562744141
 20
297.2694396972656
 30
0.0
 11
-156.9310607910156
 21
300.3679504394531
 31
0.0
  0
LINE
  5
131
330
22
100
AcDbEntity
  8
0
  6
Continuous
 62
     7
100
AcDbLine
 10
-148.9337768554688
 20
305.5368041992188
 30
0.0
 11
-145.4337768554688
 21
309.0368041992188
 31
0.0
  0
LINE
  5
132
330
22
100
AcDbEntity
  8
0
  6
Continuous
 62
     7
100
AcDbLine
 10
-157.2011260986328
 20
297.2694396972656
 30
0.0
 11
-154.1026306152344
 21
300.3679504394531
 31
0.0
  0
LINE
  5
133
330
22
100
AcDbEntity
  8
0
  6
Continuous
 62
     7
100
AcDbLine
 10
-154.3726959228516
 20
297.2694396972656
 30
0.0
 11
-145.4337768554688
 21
306.2083740234375
 31
0.0
  0
LINE
  5
134
330
22
100
AcDbEntity
  8
0
  6
Continuous
 62
     7
100
AcDbLine
 10
-151.5442657470703
 20
297.2694396972656
 30
0.0
 11
-145.4337768554688
 21
303.3799438476563
 31
0.0
  0
LINE
  5
135
330
22
100
AcDbEntity
  8
0
  6
Continuous
 62
     7
100
AcDbLine
 10
-148.7158508300781
 20
297.2694396972656
 30
0.0
 11
-144.5868835449219
 21
301.3984069824219
 31
0.0
  0
LINE
  5
136
330
22
100
AcDbEntity
  8
0
  6
Continuous
 62
     7
100
AcDbLine
 10
-145.8874206542969
 20
297.2694396972656
 30
0.0
 11
-141.7889251708984
 21
301.3679504394531
 31
0.0
  0
LINE
  5
137
330
22
100
AcDbEntity
  8
0
  6
Continuous
 62
     7
100
AcDbLine
 10
-143.7727508544922
 20
296.5556945800781
 30
0.0
 11
-138.9604949951172
 21
301.3679504394531
 31
0.0
  0
LINE
  5
138
330
22
100
AcDbEntity
  8
0
  6
Continuous
 62
     7
100
AcDbLine
 10
-140.8530731201172
 20
296.6469421386719
 30
0.0
 11
-136.1320648193359
 21
301.3679504394531
 31
0.0
  0
LINE
  5
139
330
22
100
AcDbEntity
  8
0
  6
Continuous
 62
     7
100
AcDbLine
 10
-137.9333953857422
 20
296.7381591796875
 30
0.0
 11
-133.3036346435547
 21
301.3679504394531
 31
0.0
  0
LINE
  5
13A
330
22
100
AcDbEntity
  8
0
  6
Continuous
 62
     7
100
AcDbLine
 10
-135.0137329101563
 20
296.8294067382813
 30
0.0
 11
-130.4752044677734
 21
301.3679504394531
 31
0.0
  0
LINE
  5
13B
330
22
100
AcDbEntity
  8
0
  6
Continuous
 62
     7
100
AcDbLine
 10
-132.0940551757812
 20
296.920654296875
 30
0.0
 11
-127.6467819213867
 21
301.3679504394531
 31
0.0
  0
LINE
  5
13C
330
22
100
AcDbEntity
  8
0
  6
Continuous
 62
     7
100
AcDbLine
 10
-129.1743927001953
 20
297.0119018554688
 30
0.0
 11
-124.818359375
 21
301.3679504394531
 31
0.0
  0
LINE
  5
13D
330
22
100
AcDbEntity
  8
0
  6
Continuous
 62
     7
100
AcDbLine
 10
-126.2547149658203
 20
297.1031494140625
 30
0.0
 11
-121.9899291992188
 21
301.3679504394531
 31
0.0
  0
LINE
  5
13E
330
22
100
AcDbEntity
  8
0
  6
Continuous
 62
     7
100
AcDbLine
 10
-123.3350448608398
 20
297.1943969726563
 30
0.0
 11
-120.9337692260742
 21
299.5956726074219
 31
0.0
  0
LINE
  5
13F
330
22
100
AcDbEntity
  8
0
  6
Continuous
 62
     7
100
AcDbLine
 10
-153.9337768554688
 20
300.3679504394531
 30
0.0
 11
-177.9337768554688
 21
300.3679504394531
 31
0.0
  0
LINE
  5
140
330
22
100
AcDbEntity
  8
0
  6
Continuous
 62
     7
100
AcDbLine
 10
-178.9337768554688
 20
297.3572998046875
 30
0.0
 11
-178.9337768554688
 21
299.3679504394531
 31
0.0
  0
LINE
  5
141
330
22
100
AcDbEntity
  8
0
  6
Continuous
 62
     7
100
AcDbLine
 10
-178.9337768554688
 20
297.2694396972656
 30
0.0
 11
-177.4547729492188
 21
295.7904357910156
 31
0.0
  0
LINE
  5
142
330
22
100
AcDbEntity
  8
0
  6
Continuous
 62
     7
100
AcDbLine
 10
-150.4442749023438
 20
295.7904357910156
 30
0.0
 11
-148.9652709960938
 21
297.2694396972656
 31
0.0
  0
LINE
  5
143
330
22
100
AcDbEntity
  8
0
  6
Continuous
 62
     7
100
AcDbLine
 10
-144.4337768554688
 20
301.3679504394531
 30
0.0
 11
-121.9337692260742
 21
301.3679504394531
 31
0.0
  0
LINE
  5
144
330
22
100
AcDbEntity
  8
0
  6
Continuous
 62
     7
100
AcDbLine
 10
-144.36865234375
 20
296.5370483398438
 30
0.0
 11
-120.9337692260742
 21
297.2694396972656
 31
0.0
  0
LINE
  5
145
330
22
100
AcDbEntity
  8
0
  6
Continuous
 62
     7
100
AcDbLine
 10
-158.9337768554688
 20
295.8679504394531
 30
0.0
 11
-160.4337768554688
 21
297.3679504394531
 31
0.0
  0
LINE
  5
146
330
22
100
AcDbEntity
  8
0
  6
Continuous
 62
     7
100
AcDbLine
 10
-244.1573486328125
 20
296.0075988769531
 30
0.0
 11
-243.0678558349609
 21
297.3679504394531
 31
0.0
  0
LINE
  5
147
330
22
100
AcDbEntity
  8
0
  6
Continuous
 62
     7
100
AcDbLine
 10
-245.9337768554688
 20
297.2679443359375
 30
0.0
 11
-247.48291015625
 21
295.7187805175781
 31
0.0
  0
LINE
  5
148
330
22
100
AcDbEntity
  8
0
  6
Continuous
 62
     7
100
AcDbLine
 10
-245.9337768554688
 20
297.2859191894531
 30
0.0
 11
-245.9337768554688
 21
300.8679504394531
 31
0.0
  0
LINE
  5
149
330
22
100
AcDbEntity
  8
0
  6
Continuous
 62
     7
100
AcDbLine
 10
-245.9337768554688
 20
300.8679504394531
 30
0.0
 11
-247.9337768554688
 21
302.3679504394531
 31
0.0
  0
LINE
  5
14A
330
22
100
AcDbEntity
  8
0
  6
Continuous
 62
     7
100
AcDbLine
 10
-243.0678558349609
 20
297.3679504394531
 30
0.0
 11
-210.4337768554688
 21
297.3679504394531
 31
0.0
  0
LINE
  5
14B
330
22
100
AcDbEntity
  8
0
  6
Continuous
 62
     7
100
AcDbLine
 10
-148.9337768554688
 20
198.3679351806641
 30
0.0
 11
-148.9337768554688
 21
241.3679351806641
 31
0.0
  0
LINE
  5
14C
330
22
100
AcDbEntity
  8
0
  6
Continuous
 62
     7
100
AcDbLine
 10
-145.4337768554688
 20
196.8679351806641
 30
0.0
 11
-145.4337768554688
 21
273.3679504394531
 31
0.0
  0
LINE
  5
14D
330
22
100
AcDbEntity
  8
0
  6
Continuous
 62
     7
100
AcDbLine
 10
-145.9337768554688
 20
196.3679351806641
 30
0.0
 11
-146.9337768554688
 21
196.3679351806641
 31
0.0
  0
LINE
  5
14E
330
22
100
AcDbEntity
  8
0
  6
Continuous
 62
     7
100
AcDbLine
 10
-147.9337768554688
 20
317.6179504394531
 30
0.0
 11
-148.9337768554688
 21
316.6179504394531
 31
0.0
  0
LINE
  5
14F
330
22
100
AcDbEntity
  8
0
  6
Continuous
 62
     7
100
AcDbLine
 10
-147.9337768554688
 20
333.6203308105469
 30
0.0
 11
-148.9337768554688
 21
332.6203308105469
 31
0.0
  0
LINE
  5
150
330
22
100
AcDbEntity
  8
0
  6
Continuous
 62
     7
100
AcDbLine
 10
-147.9337768554688
 20
333.6203308105469
 30
0.0
 11
-148.9337768554688
 21
334.6203308105469
 31
0.0
  0
LINE
  5
151
330
22
100
AcDbEntity
  8
0
  6
Continuous
 62
     7
100
AcDbLine
 10
-147.9337768554688
 20
317.6179504394531
 30
0.0
 11
-148.9337768554688
 21
318.6179504394531
 31
0.0
  0
LINE
  5
152
330
22
100
AcDbEntity
  8
0
  6
Continuous
 62
     7
100
AcDbLine
 10
-145.9337768554688
 20
350.3679504394531
 30
0.0
 11
-146.9337768554688
 21
350.3679504394531
 31
0.0
  0
LINE
  5
153
330
22
100
AcDbEntity
  8
0
  6
Continuous
 62
     7
100
AcDbLine
 10
-158.9337768554688
 20
295.8679504394531
 30
0.0
 11
-158.9337768554688
 21
273.3679504394531
 31
0.0
  0
LINE
  5
154
330
22
100
AcDbEntity
  8
0
  6
Continuous
 62
     7
100
AcDbLine
 10
-122.4612274169922
 20
295.7419738769531
 30
0.0
 11
-122.4612274169922
 21
273.3679504394531
 31
0.0
  0
LINE
  5
155
330
22
100
AcDbEntity
  8
0
  6
Continuous
 62
     7
100
AcDbLine
 10
-148.9652709960938
 20
296.5370483398438
 30
0.0
 11
-144.36865234375
 21
296.5370483398438
 31
0.0
  0
LINE
  5
156
330
22
100
AcDbEntity
  8
0
  6
Continuous
 62
     7
100
AcDbLine
 10
-177.4547729492188
 20
295.7904357910156
 30
0.0
 11
-150.4442749023438
 21
295.7904357910156
 31
0.0
  0
LINE
  5
157
330
22
100
AcDbEntity
  8
0
  6
Continuous
 62
     7
100
AcDbLine
 10
-150.4337768554688
 20
273.3679504394531
 30
0.0
 11
-150.4337768554688
 21
295.7904357910156
 31
0.0
  0
LINE
  5
158
330
22
100
AcDbEntity
  8
0
  6
Continuous
 62
     7
100
AcDbLine
 10
-144.36865234375
 20
296.5370483398438
 30
0.0
 11
-144.36865234375
 21
273.3679504394531
 31
0.0
  0
LINE
  5
159
330
22
100
AcDbEntity
  8
0
  6
Continuous
 62
     7
100
AcDbLine
 10
-142.9337768554688
 20
295.1021728515625
 30
0.0
 11
-144.36865234375
 21
296.5370483398438
 31
0.0
  0
LINE
  5
15A
330
22
100
AcDbEntity
  8
0
  6
Continuous
 62
     7
100
AcDbLine
 10
-142.9337768554688
 20
295.1021728515625
 30
0.0
 11
-122.4612274169922
 21
295.7419738769531
 31
0.0
  0
LINE
  5
15B
330
22
100
AcDbEntity
  8
0
  6
Continuous
 62
     7
100
AcDbLine
 10
-142.9337768554688
 20
273.3679504394531
 30
0.0
 11
-142.9337768554688
 21
295.1021728515625
 31
0.0
  0
LINE
  5
15C
330
22
100
AcDbEntity
  8
0
  6
Continuous
 62
     7
100
AcDbLine
 10
-144.4337768554688
 20
245.3679351806641
 30
0.0
 11
-121.9337692260742
 21
245.3679351806641
 31
0.0
  0
LINE
  5
15D
330
22
100
AcDbEntity
  8
0
  6
Continuous
 62
     7
100
AcDbLine
 10
-131.4337768554687
 20
245.3679351806641
 30
0.0
 11
-131.4337768554687
 21
242.9483032226563
 31
0.0
  0
LINE
  5
15E
330
22
100
AcDbEntity
  8
0
  6
Continuous
 62
     7
100
AcDbLine
 10
-145.4337768554688
 20
231.3679351806641
 30
0.0
 11
-143.8732757568359
 21
231.3679351806641
 31
0.0
  0
LINE
  5
15F
330
22
100
AcDbEntity
  8
0
  6
Continuous
 62
     7
100
AcDbLine
 10
-264.4337768554688
 20
296.8679504394531
 30
0.0
 11
-263.9337768554688
 21
297.3679504394531
 31
0.0
  0
LINE
  5
160
330
22
100
AcDbEntity
  8
0
  6
Continuous
 62
     7
100
AcDbLine
 10
-281.5545959472656
 20
301.429443359375
 30
0.0
 11
-280.4638366699219
 21
302.5032043457031
 31
0.0
  0
LINE
  5
161
330
22
100
AcDbEntity
  8
0
  6
Continuous
 62
     7
100
AcDbLine
 10
-288.0396728515625
 20
301.429443359375
 30
0.0
 11
-281.5545959472656
 21
301.429443359375
 31
0.0
  0
LINE
  5
162
330
22
100
AcDbEntity
  8
0
  6
Continuous
 62
     7
100
AcDbLine
 10
-288.0396728515625
 20
301.429443359375
 30
0.0
 11
-286.9488830566406
 21
302.5032043457031
 31
0.0
  0
LINE
  5
163
330
22
100
AcDbEntity
  8
0
  6
Continuous
 62
     7
100
AcDbLine
 10
-277.5677490234375
 20
316.3679504394531
 30
0.0
 11
-269.4848327636719
 21
302.3679504394531
 31
0.0
  0
LINE
  5
164
330
22
100
AcDbEntity
  8
0
  6
Continuous
 62
     7
100
AcDbLine
 10
-286.9488830566406
 20
302.5032043457031
 30
0.0
 11
-280.4638366699219
 21
302.5032043457031
 31
0.0
  0
LINE
  5
165
330
22
100
AcDbEntity
  8
0
  6
Continuous
 62
     7
100
AcDbLine
 10
-288.0396728515625
 20
306.929443359375
 30
0.0
 11
-286.9488830566406
 21
305.855712890625
 31
0.0
  0
LINE
  5
166
330
22
100
AcDbEntity
  8
0
  6
Continuous
 62
     7
100
AcDbLine
 10
-281.5545959472656
 20
306.929443359375
 30
0.0
 11
-280.4638366699219
 21
305.855712890625
 31
0.0
  0
LINE
  5
167
330
22
100
AcDbEntity
  8
0
  6
Continuous
 62
     7
100
AcDbLine
 10
-290.9337768554688
 20
273.3679504394531
 30
0.0
 11
-290.9337768554688
 21
298.929443359375
 31
0.0
  0
LINE
  5
168
330
22
100
AcDbEntity
  8
0
  6
Continuous
 62
     7
100
AcDbLine
 10
-287.9337768554688
 20
276.5891723632813
 30
0.0
 11
-287.9337768554688
 21
301.429443359375
 31
0.0
  0
LINE
  5
169
330
22
100
AcDbEntity
  8
0
  6
Continuous
 62
     7
100
AcDbLine
 10
-280.4638366699219
 20
305.855712890625
 30
0.0
 11
-280.4638366699219
 21
302.5032043457031
 31
0.0
  0
LINE
  5
16A
330
22
100
AcDbEntity
  8
0
  6
Continuous
 62
     7
100
AcDbLine
 10
-290.9337768554688
 20
298.929443359375
 30
0.0
 11
-290.5396728515625
 21
298.929443359375
 31
0.0
  0
LINE
  5
16B
330
22
100
AcDbEntity
  8
0
  6
Continuous
 62
     7
100
AcDbLine
 10
-290.9337768554688
 20
273.3679504394531
 30
0.0
 11
-290.9337768554688
 21
298.929443359375
 31
0.0
  0
LINE
  5
16C
330
22
100
AcDbEntity
  8
0
  6
Continuous
 62
     7
100
AcDbLine
 10
-286.9488830566406
 20
305.855712890625
 30
0.0
 11
-280.4638366699219
 21
305.855712890625
 31
0.0
  0
LINE
  5
16D
330
22
100
AcDbEntity
  8
0
  6
Continuous
 62
     7
100
AcDbLine
 10
-290.5396728515625
 20
298.929443359375
 30
0.0
 11
-288.0396728515625
 21
301.429443359375
 31
0.0
  0
LINE
  5
16E
330
22
100
AcDbEntity
  8
0
  6
Continuous
 62
     7
100
AcDbLine
 10
-284.9337768554688
 20
276.5891723632813
 30
0.0
 11
-284.9337768554688
 21
301.429443359375
 31
0.0
  0
LINE
  5
16F
330
22
100
AcDbEntity
  8
0
  6
Continuous
 62
     7
100
AcDbLine
 10
-286.3285522460938
 20
313.9679260253906
 30
0.0
 11
-285.5337829589844
 21
313.1731567382813
 31
0.0
  0
LINE
  5
170
330
22
100
AcDbEntity
  8
0
  6
Continuous
 62
     7
100
AcDbLine
 10
-289.156982421875
 20
313.9679260253906
 30
0.0
 11
-286.8069763183594
 21
311.6179504394531
 31
0.0
  0
LINE
  5
171
330
22
100
AcDbEntity
  8
0
  6
Continuous
 62
     7
100
AcDbLine
 10
-290.9337768554688
 20
312.9162902832031
 30
0.0
 11
-287.9337768554688
 21
309.9162902832031
 31
0.0
  0
LINE
  5
172
330
22
100
AcDbEntity
  8
0
  6
Continuous
 62
     7
100
AcDbLine
 10
-290.9337768554688
 20
310.0878601074219
 30
0.0
 11
-287.9337768554688
 21
307.0878601074219
 31
0.0
  0
LINE
  5
173
330
22
100
AcDbEntity
  8
0
  6
Continuous
 62
     7
100
AcDbLine
 10
-289.400146484375
 20
300.0689697265625
 30
0.0
 11
-287.9337768554688
 21
298.6026000976563
 31
0.0
  0
LINE
  5
174
330
22
100
AcDbEntity
  8
0
  6
Continuous
 62
     7
100
AcDbLine
 10
-290.9337768554688
 20
298.774169921875
 30
0.0
 11
-287.9337768554688
 21
295.774169921875
 31
0.0
  0
LINE
  5
175
330
22
100
AcDbEntity
  8
0
  6
Continuous
 62
     7
100
AcDbLine
 10
-290.9337768554688
 20
295.9457397460938
 30
0.0
 11
-287.9337768554688
 21
292.9457397460938
 31
0.0
  0
LINE
  5
176
330
22
100
AcDbEntity
  8
0
  6
Continuous
 62
     7
100
AcDbLine
 10
-290.9337768554688
 20
293.1173095703125
 30
0.0
 11
-287.9337768554688
 21
290.1173095703125
 31
0.0
  0
LINE
  5
177
330
22
100
AcDbEntity
  8
0
  6
Continuous
 62
     7
100
AcDbLine
 10
-290.9337768554688
 20
290.2888793945313
 30
0.0
 11
-287.9337768554688
 21
287.2888793945313
 31
0.0
  0
LINE
  5
178
330
22
100
AcDbEntity
  8
0
  6
Continuous
 62
     7
100
AcDbLine
 10
-290.9337768554688
 20
287.46044921875
 30
0.0
 11
-287.9337768554688
 21
284.46044921875
 31
0.0
  0
LINE
  5
179
330
22
100
AcDbEntity
  8
0
  6
Continuous
 62
     7
100
AcDbLine
 10
-290.9337768554688
 20
284.6320190429688
 30
0.0
 11
-287.9337768554688
 21
281.6320190429688
 31
0.0
  0
LINE
  5
17A
330
22
100
AcDbEntity
  8
0
  6
Continuous
 62
     7
100
AcDbLine
 10
-290.9337768554688
 20
281.8035888671875
 30
0.0
 11
-287.9337768554688
 21
278.8035888671875
 31
0.0
  0
LINE
  5
17B
330
22
100
AcDbEntity
  8
0
  6
Continuous
 62
     7
100
AcDbLine
 10
-277.7120971679688
 20
310.6179504394531
 30
0.0
 11
-268.6188049316406
 21
294.8679504394531
 31
0.0
  0
LINE
  5
17C
330
22
100
AcDbEntity
  8
0
  6
Continuous
 62
     7
100
AcDbLine
 10
-287.9337768554688
 20
308.3443908691406
 30
0.0
 11
-285.4102172851563
 21
310.8679504394531
 31
0.0
  0
LINE
  5
17D
330
22
100
AcDbEntity
  8
0
  6
Continuous
 62
     7
100
AcDbLine
 10
-286.520263671875
 20
306.929443359375
 30
0.0
 11
-284.9337768554688
 21
308.5159606933594
 31
0.0
  0
LINE
  5
17E
330
22
100
AcDbEntity
  8
0
  6
Continuous
 62
     7
100
AcDbLine
 10
-287.9337768554688
 20
299.8591003417969
 30
0.0
 11
-286.3634033203125
 21
301.429443359375
 31
0.0
  0
LINE
  5
17F
330
22
100
AcDbEntity
  8
0
  6
Continuous
 62
     7
100
AcDbLine
 10
-287.9337768554688
 20
297.0306701660156
 30
0.0
 11
-284.9337768554688
 21
300.0306701660156
 31
0.0
  0
LINE
  5
180
330
22
100
AcDbEntity
  8
0
  6
Continuous
 62
     7
100
AcDbLine
 10
-287.9337768554688
 20
294.2022399902344
 30
0.0
 11
-284.9337768554688
 21
297.2022399902344
 31
0.0
  0
LINE
  5
181
330
22
100
AcDbEntity
  8
0
  6
Continuous
 62
     7
100
AcDbLine
 10
-287.9337768554688
 20
291.3738098144531
 30
0.0
 11
-284.9337768554688
 21
294.3738098144531
 31
0.0
  0
LINE
  5
182
330
22
100
AcDbEntity
  8
0
  6
Continuous
 62
     7
100
AcDbLine
 10
-287.9337768554688
 20
288.5453796386719
 30
0.0
 11
-284.9337768554688
 21
291.5453796386719
 31
0.0
  0
LINE
  5
183
330
22
100
AcDbEntity
  8
0
  6
Continuous
 62
     7
100
AcDbLine
 10
-287.9337768554688
 20
285.7169494628906
 30
0.0
 11
-284.9337768554688
 21
288.7169494628906
 31
0.0
  0
LINE
  5
184
330
22
100
AcDbEntity
  8
0
  6
Continuous
 62
     7
100
AcDbLine
 10
-287.9337768554688
 20
282.8885192871094
 30
0.0
 11
-284.9337768554688
 21
285.8885192871094
 31
0.0
  0
LINE
  5
185
330
22
100
AcDbEntity
  8
0
  6
Continuous
 62
     7
100
AcDbLine
 10
-287.9337768554688
 20
280.0601196289063
 30
0.0
 11
-284.9337768554688
 21
283.0601196289063
 31
0.0
  0
LINE
  5
186
330
22
100
AcDbEntity
  8
0
  6
Continuous
 62
     7
100
AcDbLine
 10
-287.9337768554688
 20
277.231689453125
 30
0.0
 11
-284.9337768554688
 21
280.231689453125
 31
0.0
  0
LINE
  5
187
330
22
100
AcDbEntity
  8
0
  6
Continuous
 62
     7
100
AcDbLine
 10
-285.7478637695313
 20
276.5891723632813
 30
0.0
 11
-284.9337768554688
 21
277.4032592773438
 31
0.0
  0
LINE
  5
188
330
22
100
AcDbEntity
  8
0
  6
Continuous
 62
     7
100
AcDbLine
 10
-285.4767761230469
 20
276.5891723632813
 30
0.0
 11
-287.9337768554688
 21
279.046173095703
 31
0.0
  0
LINE
  5
189
330
22
100
AcDbEntity
  8
0
  6
Continuous
 62
     7
100
AcDbLine
 10
-284.9337768554688
 20
278.8746032714844
 30
0.0
 11
-287.9337768554688
 21
281.8746032714844
 31
0.0
  0
LINE
  5
18A
330
22
100
AcDbEntity
  8
0
  6
Continuous
 62
     7
100
AcDbLine
 10
-284.9337768554688
 20
281.7030029296875
 30
0.0
 11
-287.9337768554688
 21
284.7030029296875
 31
0.0
  0
LINE
  5
18B
330
22
100
AcDbEntity
  8
0
  6
Continuous
 62
     7
100
AcDbLine
 10
-284.9337768554688
 20
284.5314331054688
 30
0.0
 11
-287.9337768554688
 21
287.5314331054688
 31
0.0
  0
LINE
  5
18C
330
22
100
AcDbEntity
  8
0
  6
Continuous
 62
     7
100
AcDbLine
 10
-284.9337768554688
 20
287.35986328125
 30
0.0
 11
-287.9337768554688
 21
290.35986328125
 31
0.0
  0
LINE
  5
18D
330
22
100
AcDbEntity
  8
0
  6
Continuous
 62
     7
100
AcDbLine
 10
-284.9337768554688
 20
290.1882934570313
 30
0.0
 11
-287.9337768554688
 21
293.1882934570313
 31
0.0
  0
LINE
  5
18E
330
22
100
AcDbEntity
  8
0
  6
Continuous
 62
     7
100
AcDbLine
 10
-284.9337768554688
 20
293.0167236328125
 30
0.0
 11
-287.9337768554688
 21
296.0167236328125
 31
0.0
  0
LINE
  5
18F
330
22
100
AcDbEntity
  8
0
  6
Continuous
 62
     7
100
AcDbLine
 10
-284.9337768554688
 20
295.8451538085938
 30
0.0
 11
-287.9337768554688
 21
298.8451538085938
 31
0.0
  0
LINE
  5
190
330
22
100
AcDbEntity
  8
0
  6
Continuous
 62
     7
100
AcDbLine
 10
-287.5328063964844
 20
306.929443359375
 30
0.0
 11
-287.9337768554688
 21
307.3304443359375
 31
0.0
  0
LINE
  5
191
330
22
100
AcDbEntity
  8
0
  6
Continuous
 62
     7
100
AcDbLine
 10
-284.9337768554688
 20
307.1588745117188
 30
0.0
 11
-287.9337768554688
 21
310.1588745117188
 31
0.0
  0
LINE
  5
192
330
22
100
AcDbEntity
  8
0
  6
Continuous
 62
     7
100
AcDbLine
 10
-284.9337768554688
 20
309.9872741699219
 30
0.0
 11
-285.8144226074219
 21
310.8679504394531
 31
0.0
  0
LINE
  5
193
330
22
100
AcDbEntity
  8
0
  6
Continuous
 62
     7
100
AcDbLine
 10
-290.9337768554688
 20
323.3679504394531
 30
0.0
 11
-290.4337768554688
 21
323.8679504394531
 31
0.0
  0
LINE
  5
194
330
22
100
AcDbEntity
  8
0
  6
Continuous
 62
     7
100
AcDbLine
 10
-290.4337768554688
 20
323.8679504394531
 30
0.0
 11
-287.9337768554688
 21
323.8679504394531
 31
0.0
  0
LINE
  5
195
330
22
100
AcDbEntity
  8
0
  6
Continuous
 62
     7
100
AcDbLine
 10
-290.9337768554688
 20
313.9679260253906
 30
0.0
 11
-285.5337829589844
 21
313.9679260253906
 31
0.0
  0
LINE
  5
196
330
22
100
AcDbEntity
  8
0
  6
Continuous
 62
     7
100
AcDbLine
 10
-280.9329528808594
 20
275.5154113769531
 30
0.0
 11
-280.9329528808594
 21
273.3679504394531
 31
0.0
  0
LINE
  5
197
330
22
100
AcDbEntity
  8
0
  6
Continuous
 62
     7
100
AcDbLine
 10
-264.4337768554688
 20
295.3679504394531
 30
0.0
 11
-264.4337768554688
 21
296.8679504394531
 31
0.0
  0
LINE
  5
198
330
22
100
AcDbEntity
  8
0
  6
Continuous
 62
     7
100
AcDbLine
 10
-268.6188049316406
 20
273.3679504394531
 30
0.0
 11
-268.6188049316406
 21
294.0061645507813
 31
0.0
  0
LINE
  5
199
330
22
100
AcDbEntity
  8
0
  6
Continuous
 62
     7
100
AcDbLine
 10
-264.4337768554688
 20
273.3679504394531
 30
0.0
 11
-264.4337768554688
 21
295.3679504394531
 31
0.0
  0
LINE
  5
19A
330
22
100
AcDbEntity
  8
0
  6
Continuous
 62
     7
100
AcDbLine
 10
-288.5088195800781
 20
276.5891723632813
 30
0.0
 11
-290.9337768554688
 21
278.9762573242188
 31
0.0
  0
LINE
  5
19B
330
22
100
AcDbEntity
  8
0
  6
Continuous
 62
     7
100
AcDbLine
 10
-288.5088195800781
 20
276.5891723632813
 30
0.0
 11
-287.4180297851563
 21
275.5154113769531
 31
0.0
  0
LINE
  5
19C
330
22
100
AcDbEntity
  8
0
  6
Continuous
 62
     7
100
AcDbLine
 10
-267.7527770996094
 20
294.3679504394531
 30
0.0
 11
-265.4337768554688
 21
294.3679504394531
 31
0.0
  0
LINE
  5
19D
330
22
100
AcDbEntity
  8
0
  6
Continuous
 62
     7
100
AcDbLine
 10
-282.0237426757813
 20
276.5891723632813
 30
0.0
 11
-280.9329528808594
 21
275.5154113769531
 31
0.0
  0
LINE
  5
19E
330
22
100
AcDbEntity
  8
0
  6
Continuous
 62
     7
100
AcDbLine
 10
-287.4180297851563
 20
275.5154113769531
 30
0.0
 11
-280.9329528808594
 21
275.5154113769531
 31
0.0
  0
LINE
  5
19F
330
22
100
AcDbEntity
  8
0
  6
Continuous
 62
     7
100
AcDbLine
 10
-288.5088195800781
 20
276.5891723632813
 30
0.0
 11
-282.0237426757813
 21
276.5891723632813
 31
0.0
  0
LINE
  5
1A0
330
22
100
AcDbEntity
  8
0
  6
Continuous
 62
     7
100
AcDbLine
 10
-266.742431640625
 20
255.8835144042969
 30
0.0
 11
-266.742431640625
 21
273.3679504394531
 31
0.0
  0
LINE
  5
1A1
330
22
100
AcDbEntity
  8
0
  6
Continuous
 62
     7
100
AcDbLine
 10
-287.4337768554688
 20
319.8679504394531
 30
0.0
 11
-287.4337768554688
 21
323.3679504394531
 31
0.0
  0
LINE
  5
1A2
330
22
100
AcDbEntity
  8
0
  6
Continuous
 62
     7
100
AcDbLine
 10
-286.0337829589844
 20
311.6179504394531
 30
0.0
 11
-285.5337829589844
 21
312.1179504394531
 31
0.0
  0
LINE
  5
1A3
330
22
100
AcDbEntity
  8
0
  6
Continuous
 62
     7
100
AcDbLine
 10
-285.5337829589844
 20
313.9679260253906
 30
0.0
 11
-286.1837768554688
 21
314.6179504394531
 31
0.0
  0
LINE
  5
1A4
330
22
100
AcDbEntity
  8
0
  6
Continuous
 62
     7
100
AcDbLine
 10
-285.5337829589844
 20
312.1179504394531
 30
0.0
 11
-285.5337829589844
 21
313.9679260253906
 31
0.0
  0
LINE
  5
1A5
330
22
100
AcDbEntity
  8
0
  6
Continuous
 62
     7
100
AcDbLine
 10
-287.9337768554688
 20
311.6179504394531
 30
0.0
 11
-286.0337829589844
 21
311.6179504394531
 31
0.0
  0
LINE
  5
1A6
330
22
100
AcDbEntity
  8
0
  6
Continuous
 62
     7
100
AcDbLine
 10
-287.9337768554688
 20
306.929443359375
 30
0.0
 11
-287.9337768554688
 21
311.6179504394531
 31
0.0
  0
LINE
  5
1A7
330
22
100
AcDbEntity
  8
0
  6
Continuous
 62
     7
100
AcDbLine
 10
-284.9337768554688
 20
310.8679504394531
 30
0.0
 11
-287.9337768554688
 21
310.8679504394531
 31
0.0
  0
LINE
  5
1A8
330
22
100
AcDbEntity
  8
0
  6
Continuous
 62
     7
100
AcDbLine
 10
-285.5337829589844
 20
312.1179504394531
 30
0.0
 11
-285.5337829589844
 21
310.8679504394531
 31
0.0
  0
LINE
  5
1A9
330
22
100
AcDbEntity
  8
0
  6
Continuous
 62
     7
100
AcDbLine
 10
-284.9337768554688
 20
306.929443359375
 30
0.0
 11
-284.9337768554688
 21
310.8679504394531
 31
0.0
  0
LINE
  5
1AA
330
22
100
AcDbEntity
  8
0
  6
Continuous
 62
     7
100
AcDbLine
 10
-285.5337829589844
 20
312.6179504394531
 30
0.0
 11
-285.5337829589844
 21
314.8679504394531
 31
0.0
  0
LINE
  5
1AB
330
22
100
AcDbEntity
  8
0
  6
Continuous
 62
     7
100
AcDbLine
 10
-287.9337768554688
 20
323.8679504394531
 30
0.0
 11
-287.4337768554688
 21
323.3679504394531
 31
0.0
  0
LINE
  5
1AC
330
22
100
AcDbEntity
  8
0
  6
Continuous
 62
     7
100
AcDbLine
 10
-285.4337768554688
 20
317.8679504394531
 30
0.0
 11
-280.1658325195313
 21
317.8679504394531
 31
0.0
  0
LINE
  5
1AD
330
22
100
AcDbEntity
  8
0
  6
Continuous
 62
     7
100
AcDbLine
 10
-285.5337829589844
 20
314.8679504394531
 30
0.0
 11
-287.9337768554688
 21
314.8679504394531
 31
0.0
  0
LINE
  5
1AE
330
22
100
AcDbEntity
  8
0
  6
Continuous
 62
     7
100
AcDbLine
 10
-290.9337768554688
 20
314.6179504394531
 30
0.0
 11
-287.9337768554688
 21
314.6179504394531
 31
0.0
  0
LINE
  5
1AF
330
22
100
AcDbEntity
  8
0
  6
Continuous
 62
     7
100
AcDbLine
 10
-285.0337829589843
 20
312.1179504394531
 30
0.0
 11
-280.3101501464844
 21
312.1179504394531
 31
0.0
  0
LINE
  5
1B0
330
22
100
AcDbEntity
  8
0
  6
Continuous
 62
     7
100
AcDbLine
 10
-285.0337829589843
 20
312.1179504394531
 30
0.0
 11
-285.5337829589844
 21
312.6179504394531
 31
0.0
  0
LINE
  5
1B1
330
22
100
AcDbEntity
  8
0
  6
Continuous
 62
     7
100
AcDbLine
 10
-287.9337768554688
 20
314.6179504394531
 30
0.0
 11
-287.9337768554688
 21
314.8679504394531
 31
0.0
  0
LINE
  5
1B2
330
22
100
AcDbEntity
  8
0
  6
Continuous
 62
     7
100
AcDbLine
 10
-290.9337768554688
 20
313.9679260253906
 30
0.0
 11
-290.2837829589844
 21
314.6179504394531
 31
0.0
  0
LINE
  5
1B3
330
22
100
AcDbEntity
  8
0
  6
Continuous
 62
     7
100
AcDbLine
 10
-290.2837829589844
 20
314.6179504394531
 30
0.0
 11
-286.1837768554688
 21
314.6179504394531
 31
0.0
  0
LINE
  5
1B4
330
22
100
AcDbEntity
  8
0
  6
Continuous
 62
     7
100
AcDbLine
 10
-288.0396728515625
 20
306.929443359375
 30
0.0
 11
-281.5545959472656
 21
306.929443359375
 31
0.0
  0
LINE
  5
1B5
330
22
100
AcDbEntity
  8
0
  6
Continuous
 62
     7
100
AcDbLine
 10
-290.9337768554688
 20
309.429443359375
 30
0.0
 11
-290.9337768554688
 21
313.9679260253906
 31
0.0
  0
LINE
  5
1B6
330
22
100
AcDbEntity
  8
0
  6
Continuous
 62
     7
100
AcDbLine
 10
-290.9337768554688
 20
309.429443359375
 30
0.0
 11
-290.9337768554688
 21
323.3679504394531
 31
0.0
  0
LINE
  5
1B7
330
22
100
AcDbEntity
  8
0
  6
Continuous
 62
     7
100
AcDbLine
 10
-245.9337768554688
 20
249.449951171875
 30
0.0
 11
-243.0678558349609
 21
249.3679351806641
 31
0.0
  0
LINE
  5
1B8
330
22
100
AcDbEntity
  8
0
  6
Continuous
 62
     7
100
AcDbLine
 10
-244.1573486328125
 20
250.7282562255859
 30
0.0
 11
-244.1573486328125
 21
273.3679504394531
 31
0.0
  0
LINE
  5
1B9
330
22
100
AcDbEntity
  8
0
  6
Continuous
 62
     7
100
AcDbLine
 10
-245.9337768554688
 20
246.6179351806641
 30
0.0
 11
-245.9337768554688
 21
273.3679504394531
 31
0.0
  0
LINE
  5
1BA
330
22
100
AcDbEntity
  8
0
  6
Continuous
 62
     7
100
AcDbLine
 10
-245.9337768554688
 20
246.8679351806641
 30
0.0
 11
-245.9337768554688
 21
273.3679504394531
 31
0.0
  0
LINE
  5
1BB
330
22
100
AcDbEntity
  8
0
  6
Continuous
 62
     7
100
AcDbLine
 10
-120.9337692260742
 20
246.3679351806641
 30
0.0
 11
-120.9337692260742
 21
300.3679504394531
 31
0.0
  0
LINE
  5
1BC
330
22
100
AcDbEntity
  8
0
  6
Continuous
 62
     7
100
AcDbLine
 10
-243.0678558349609
 20
249.3679351806641
 30
0.0
 11
-210.4337768554688
 21
249.3679351806641
 31
0.0
  0
LINE
  5
1BD
330
22
100
AcDbEntity
  8
0
  6
Continuous
 62
     7
100
AcDbLine
 10
-208.9337768554688
 20
250.8679351806641
 30
0.0
 11
-210.4337768554688
 21
249.3679351806641
 31
0.0
  0
LINE
  5
1BE
330
22
100
AcDbEntity
  8
0
  6
Continuous
 62
     7
100
AcDbLine
 10
-208.9337768554688
 20
250.8679351806641
 30
0.0
 11
-208.9337768554688
 21
273.3679504394531
 31
0.0
  0
LINE
  5
1BF
330
22
100
AcDbEntity
  8
0
  6
Continuous
 62
     7
100
AcDbLine
 10
-178.9337768554688
 20
250.8679351806641
 30
0.0
 11
-208.9337768554688
 21
250.8679351806641
 31
0.0
  0
LINE
  5
1C0
330
22
100
AcDbEntity
  8
0
  6
Continuous
 62
     7
100
AcDbLine
 10
-178.9337768554688
 20
249.3679351806641
 30
0.0
 11
-210.4337768554688
 21
249.3679351806641
 31
0.0
  0
LINE
  5
1C1
330
22
100
AcDbEntity
  8
0
  6
Continuous
 62
     7
100
AcDbLine
 10
-277.5677490234375
 20
230.3679351806641
 30
0.0
 11
-269.3405151367188
 21
244.6179351806641
 31
0.0
  0
LINE
  5
1C2
330
22
100
AcDbEntity
  8
0
  6
Continuous
 62
     7
100
AcDbLine
 10
-287.9337768554688
 20
222.8679351806641
 30
0.0
 11
-287.4337768554688
 21
223.3679351806641
 31
0.0
  0
LINE
  5
1C3
330
22
100
AcDbEntity
  8
0
  6
Continuous
 62
     7
100
AcDbLine
 10
-287.4337768554688
 20
223.3679351806641
 30
0.0
 11
-287.4337768554688
 21
226.8679351806641
 31
0.0
  0
LINE
  5
1C4
330
22
100
AcDbEntity
  8
0
  6
Continuous
 62
     7
100
AcDbLine
 10
-285.4337768554688
 20
228.8679351806641
 30
0.0
 11
-280.1658325195313
 21
228.8679351806641
 31
0.0
  0
LINE
  5
1C5
330
22
100
AcDbEntity
  8
0
  6
Continuous
 62
     7
100
AcDbLine
 10
-290.4337768554688
 20
222.8679351806641
 30
0.0
 11
-290.9337768554688
 21
223.3679351806641
 31
0.0
  0
LINE
  5
1C6
330
22
100
AcDbEntity
  8
0
  6
Continuous
 62
     7
100
AcDbLine
 10
-287.9337768554688
 20
222.8679351806641
 30
0.0
 11
-290.4337768554688
 21
222.8679351806641
 31
0.0
  0
LINE
  5
1C7
330
22
100
AcDbEntity
  8
0
  6
Continuous
 62
     7
100
AcDbLine
 10
-290.9337768554688
 20
309.429443359375
 30
0.0
 11
-290.5396728515625
 21
309.429443359375
 31
0.0
  0
LINE
  5
1C8
330
22
100
AcDbEntity
  8
0
  6
Continuous
 62
     7
100
AcDbLine
 10
-290.5396728515625
 20
309.429443359375
 30
0.0
 11
-288.0396728515625
 21
306.929443359375
 31
0.0
  0
LINE
  5
1C9
330
22
100
AcDbEntity
  8
0
  6
Continuous
 62
     7
100
AcDbLine
 10
-269.3405151367188
 20
245.4172515869141
 30
0.0
 11
-269.3405151367188
 21
273.3679504394531
 31
0.0
  0
LINE
  5
1CA
330
22
100
AcDbEntity
  8
0
  6
Continuous
 62
     7
100
AcDbLine
 10
-287.4337768554688
 20
226.8679351806641
 30
0.0
 11
-287.4337768554688
 21
273.3679504394531
 31
0.0
  0
LINE
  5
1CB
330
22
100
AcDbEntity
  8
0
  6
Continuous
 62
     7
100
AcDbLine
 10
-153.9337768554688
 20
246.3679351806641
 30
0.0
 11
-177.9337768554688
 21
246.3679351806641
 31
0.0
  0
LINE
  5
1CC
330
22
100
AcDbEntity
  8
0
  6
Continuous
 62
     7
100
AcDbLine
 10
-178.9337768554688
 20
247.3679351806641
 30
0.0
 11
-178.9337768554688
 21
273.3679504394531
 31
0.0
  0
LINE
  5
1CD
330
22
100
AcDbEntity
  8
0
  6
Continuous
 62
     7
100
AcDbLine
 10
-148.9337768554688
 20
241.3679351806641
 30
0.0
 11
-148.9337768554688
 21
273.3679504394531
 31
0.0
  0
LINE
  5
1CE
330
22
100
AcDbEntity
  8
0
  6
Continuous
 62
     7
100
AcDbLine
 10
-246.4337768554688
 20
246.1179351806641
 30
0.0
 11
-245.9337768554688
 21
246.6179351806641
 31
0.0
  0
LINE
  5
1CF
330
22
100
AcDbEntity
  8
0
  6
Continuous
 62
     7
100
AcDbLine
 10
-244.1573486328125
 20
250.7282562255859
 30
0.0
 11
-243.0678558349609
 21
249.3679351806641
 31
0.0
  0
LINE
  5
1D0
330
22
100
AcDbEntity
  8
0
  6
Continuous
 62
     7
100
AcDbLine
 10
-245.9337768554688
 20
250.7974243164063
 30
0.0
 11
-244.1573486328125
 21
250.7282562255859
 31
0.0
  0
LINE
  5
1D1
330
22
100
AcDbEntity
  8
0
  6
Continuous
 62
     7
100
AcDbLine
 10
-257.9580078125
 20
296.8921508789063
 30
0.0
 11
-256.5027465820313
 21
295.4369201660156
 31
0.0
  0
LINE
  5
1D2
330
22
100
AcDbEntity
  8
0
  6
Continuous
 62
     7
100
AcDbLine
 10
-256.5027465820313
 20
295.4369201660156
 30
0.0
 11
-247.48291015625
 21
295.7187805175781
 31
0.0
  0
LINE
  5
1D3
330
22
100
AcDbEntity
  8
0
  6
Continuous
 62
     7
100
AcDbLine
 10
-246.4337768554688
 20
246.1179351806641
 30
0.0
 11
-266.742431640625
 21
246.1179351806641
 31
0.0
  0
LINE
  5
1D4
330
22
100
AcDbEntity
  8
0
  6
Continuous
 62
     7
100
AcDbLine
 10
-258.9337768554688
 20
295.4323120117188
 30
0.0
 11
-244.1573486328125
 21
296.0075988769531
 31
0.0
  0
LINE
  5
1D5
330
22
100
AcDbEntity
  8
0
  6
Continuous
 62
     7
100
AcDbLine
 10
-258.9337768554688
 20
295.4323120117188
 30
0.0
 11
-258.9337768554688
 21
273.3679504394531
 31
0.0
  0
LINE
  5
1D6
330
22
100
AcDbEntity
  8
0
  6
Continuous
 62
     7
100
AcDbLine
 10
-245.9337768554688
 20
252.1296081542969
 30
0.0
 11
-267.2315979003906
 21
252.1296081542969
 31
0.0
  0
LINE
  5
1D7
330
22
100
AcDbEntity
  8
0
  6
Continuous
 62
     7
100
AcDbLine
 10
-245.9337768554688
 20
255.8835144042969
 30
0.0
 11
-267.1087036132813
 21
255.8835144042969
 31
0.0
  0
LINE
  5
1D8
330
22
100
AcDbEntity
  8
0
  6
Continuous
 62
     7
100
AcDbLine
 10
-257.9580078125
 20
296.8921508789063
 30
0.0
 11
-245.9337768554688
 21
297.2679443359375
 31
0.0
  0
LINE
  5
1D9
330
22
100
AcDbEntity
  8
0
  6
Continuous
 62
     7
100
AcDbLine
 10
-258.4337768554688
 20
297.3679504394531
 30
0.0
 11
-263.9337768554688
 21
297.3679504394531
 31
0.0
  0
LINE
  5
1DA
330
22
100
AcDbEntity
  8
0
  6
Continuous
 62
     7
100
AcDbLine
 10
-257.9337768554688
 20
296.8679504394531
 30
0.0
 11
-258.4337768554688
 21
297.3679504394531
 31
0.0
  0
LINE
  5
1DB
330
22
100
AcDbEntity
  8
0
  6
Continuous
 62
     7
100
AcDbLine
 10
-247.9337768554688
 20
302.3679504394531
 30
0.0
 11
-269.4848327636719
 21
302.3679504394531
 31
0.0
  0
LINE
  5
1DC
330
22
100
AcDbEntity
  8
0
  6
Continuous
 62
     7
100
AcDbLine
 10
-246.4732360839844
 20
301.2725219726563
 30
0.0
 11
-245.9337768554688
 21
300.7330627441406
 31
0.0
  0
LINE
  5
1DD
330
22
100
AcDbEntity
  8
0
  6
Continuous
 62
     7
100
AcDbLine
 10
-249.6899566650391
 20
302.3679504394531
 30
0.0
 11
-245.9337768554688
 21
298.6117553710938
 31
0.0
  0
LINE
  5
1DE
330
22
100
AcDbEntity
  8
0
  6
Continuous
 62
     7
100
AcDbLine
 10
-250.3970642089844
 20
302.3679504394531
 30
0.0
 11
-245.9337768554688
 21
297.9046325683594
 31
0.0
  0
LINE
  5
1DF
330
22
100
AcDbEntity
  8
0
  6
Continuous
 62
     7
100
AcDbLine
 10
-252.5183868408203
 20
302.3679504394531
 30
0.0
 11
-247.3733978271484
 21
297.2229614257813
 31
0.0
  0
LINE
  5
1E0
330
22
100
AcDbEntity
  8
0
  6
Continuous
 62
     7
100
AcDbLine
 10
-253.2254943847656
 20
302.3679504394531
 30
0.0
 11
-248.0590667724609
 21
297.2015075683594
 31
0.0
  0
LINE
  5
1E1
330
22
100
AcDbEntity
  8
0
  6
Continuous
 62
     7
100
AcDbLine
 10
-255.3468170166016
 20
302.3679504394531
 30
0.0
 11
-250.1161041259766
 21
297.1372375488281
 31
0.0
  0
LINE
  5
1E2
330
22
100
AcDbEntity
  8
0
  6
Continuous
 62
     7
100
AcDbLine
 10
-256.0539245605469
 20
302.3679504394531
 30
0.0
 11
-250.8017883300781
 21
297.1158142089844
 31
0.0
  0
LINE
  5
1E3
330
22
100
AcDbEntity
  8
0
  6
Continuous
 62
     7
100
AcDbLine
 10
-258.1752319335938
 20
302.3679504394531
 30
0.0
 11
-252.8588256835938
 21
297.051513671875
 31
0.0
  0
LINE
  5
1E4
330
22
100
AcDbEntity
  8
0
  6
Continuous
 62
     7
100
AcDbLine
 10
-258.8823547363281
 20
302.3679504394531
 30
0.0
 11
-253.5444946289064
 21
297.0300903320313
 31
0.0
  0
LINE
  5
1E5
330
22
100
AcDbEntity
  8
0
  6
Continuous
 62
     7
100
AcDbLine
 10
-261.003662109375
 20
302.3679504394531
 30
0.0
 11
-255.6015319824219
 21
296.9657897949219
 31
0.0
  0
LINE
  5
1E6
330
22
100
AcDbEntity
  8
0
  6
Continuous
 62
     7
100
AcDbLine
 10
-261.7107849121094
 20
302.3679504394531
 30
0.0
 11
-256.2872009277344
 21
296.9443664550781
 31
0.0
  0
LINE
  5
1E7
330
22
100
AcDbEntity
  8
0
  6
Continuous
 62
     7
100
AcDbLine
 10
-263.8320922851563
 20
302.3679504394531
 30
0.0
 11
-258.8320922851563
 21
297.3679504394531
 31
0.0
  0
LINE
  5
1E8
330
22
100
AcDbEntity
  8
0
  6
Continuous
 62
     7
100
AcDbLine
 10
-279.1334838867188
 20
317.6693420410156
 30
0.0
 11
-277.2066345214844
 21
315.7424926757813
 31
0.0
  0
LINE
  5
1E9
330
22
100
AcDbEntity
  8
0
  6
Continuous
 62
     7
100
AcDbLine
 10
-264.5392150878906
 20
302.3679504394531
 30
0.0
 11
-259.5392150878906
 21
297.3679504394531
 31
0.0
  0
LINE
  5
1EA
330
22
100
AcDbEntity
  8
0
  6
Continuous
 62
     7
100
AcDbLine
 10
-280.0357971191406
 20
317.8645324707031
 30
0.0
 11
-276.24072265625
 21
314.0694580078125
 31
0.0
  0
LINE
  5
1EB
330
22
100
AcDbEntity
  8
0
  6
Continuous
 62
     7
100
AcDbLine
 10
-266.6605224609375
 20
302.3679504394531
 30
0.0
 11
-261.6605224609375
 21
297.3679504394531
 31
0.0
  0
LINE
  5
1EC
330
22
100
AcDbEntity
  8
0
  6
Continuous
 62
     7
100
AcDbLine
 10
-282.1605224609375
 20
317.8679504394531
 30
0.0
 11
-273.3429260253906
 21
309.0503540039063
 31
0.0
  0
LINE
  5
1ED
330
22
100
AcDbEntity
  8
0
  6
Continuous
 62
     7
100
AcDbLine
 10
-288.1605224609375
 20
323.8679504394531
 30
0.0
 11
-287.4337768554688
 21
323.1411743164063
 31
0.0
  0
LINE
  5
1EE
330
22
100
AcDbEntity
  8
0
  6
Continuous
 62
     7
100
AcDbLine
 10
-267.3676147460938
 20
302.3679504394531
 30
0.0
 11
-262.3676147460938
 21
297.3679504394531
 31
0.0
  0
LINE
  5
1EF
330
22
100
AcDbEntity
  8
0
  6
Continuous
 62
     7
100
AcDbLine
 10
-282.8676147460938
 20
317.8679504394531
 30
0.0
 11
-272.3770141601563
 21
307.3773193359375
 31
0.0
  0
LINE
  5
1F0
330
22
100
AcDbEntity
  8
0
  6
Continuous
 62
     7
100
AcDbLine
 10
-288.8676147460938
 20
323.8679504394531
 30
0.0
 11
-287.4337768554688
 21
322.43408203125
 31
0.0
  0
LINE
  5
1F1
330
22
100
AcDbEntity
  8
0
  6
Continuous
 62
     7
100
AcDbLine
 10
-277.6753845214845
 20
310.5543823242188
 30
0.0
 11
-264.2113647460938
 21
297.0903625488281
 31
0.0
  0
LINE
  5
1F2
330
22
100
AcDbEntity
  8
0
  6
Continuous
 62
     7
100
AcDbLine
 10
-284.9889526367188
 20
317.8679504394531
 30
0.0
 11
-278.834716796875
 21
311.7136840820313
 31
0.0
  0
LINE
  5
1F3
330
22
100
AcDbEntity
  8
0
  6
Continuous
 62
     7
100
AcDbLine
 10
-290.7113647460938
 20
323.5903625488281
 30
0.0
 11
-287.4337768554688
 21
320.3127746582031
 31
0.0
  0
LINE
  5
1F4
330
22
100
AcDbEntity
  8
0
  6
Continuous
 62
     7
100
AcDbLine
 10
-276.70947265625
 20
308.88134765625
 30
0.0
 11
-264.4337768554688
 21
296.6056518554688
 31
0.0
  0
LINE
  5
1F5
330
22
100
AcDbEntity
  8
0
  6
Continuous
 62
     7
100
AcDbLine
 10
-285.7247009277344
 20
317.8966064453125
 30
0.0
 11
-279.9048767089844
 21
312.0767517089844
 31
0.0
  0
LINE
  5
1F6
330
22
100
AcDbEntity
  8
0
  6
Continuous
 62
     7
100
AcDbLine
 10
-290.9337768554688
 20
323.1056518554688
 30
0.0
 11
-287.4051208496094
 21
319.5769958496094
 31
0.0
  0
LINE
  5
1F7
330
22
100
AcDbEntity
  8
0
  6
Continuous
 62
     7
100
AcDbLine
 10
-273.8116760253906
 20
303.8622436523438
 30
0.0
 11
-264.6800537109375
 21
294.7305908203125
 31
0.0
  0
LINE
  5
1F8
330
22
100
AcDbEntity
  8
0
  6
Continuous
 62
     7
100
AcDbLine
 10
-290.9337768554688
 20
320.9843444824219
 30
0.0
 11
-282.0673828125
 21
312.1179504394531
 31
0.0
  0
LINE
  5
1F9
330
22
100
AcDbEntity
  8
0
  6
Continuous
 62
     7
100
AcDbLine
 10
-272.8457641601563
 20
302.189208984375
 30
0.0
 11
-265.0923767089844
 21
294.4358520507813
 31
0.0
  0
LINE
  5
1FA
330
22
100
AcDbEntity
  8
0
  6
Continuous
 62
     7
100
AcDbLine
 10
-290.9337768554688
 20
320.2772216796875
 30
0.0
 11
-282.7744750976563
 21
312.1179504394531
 31
0.0
  0
LINE
  5
1FB
330
22
100
AcDbEntity
  8
0
  6
Continuous
 62
     7
100
AcDbLine
 10
-269.9479675292969
 20
297.1701049804688
 30
0.0
 11
-267.1458129882813
 21
294.3679504394531
 31
0.0
  0
LINE
  5
1FC
330
22
100
AcDbEntity
  8
0
  6
Continuous
 62
     7
100
AcDbLine
 10
-285.5337829589844
 20
312.7559204101563
 30
0.0
 11
-284.8958129882813
 21
312.1179504394531
 31
0.0
  0
LINE
  5
1FD
330
22
100
AcDbEntity
  8
0
  6
Continuous
 62
     7
100
AcDbLine
 10
-290.9337768554688
 20
318.1559143066406
 30
0.0
 11
-287.6458129882813
 21
314.8679504394531
 31
0.0
  0
LINE
  5
1FE
330
22
100
AcDbEntity
  8
0
  6
Continuous
 62
     7
100
AcDbLine
 10
-268.9820556640625
 20
295.4970703125
 30
0.0
 11
-267.8676452636719
 21
294.3826599121094
 31
0.0
  0
LINE
  5
1FF
330
22
100
AcDbEntity
  8
0
  6
Continuous
 62
     7
100
AcDbLine
 10
-290.9337768554688
 20
317.4487915039063
 30
0.0
 11
-288.1029052734375
 21
314.6179504394531
 31
0.0
  0
LINE
  5
200
330
22
100
AcDbEntity
  8
0
  6
Continuous
 62
     7
100
AcDbLine
 10
-290.9337768554688
 20
315.3274841308594
 30
0.0
 11
-290.2242431640625
 21
314.6179504394531
 31
0.0
  0
LINE
  5
201
330
22
100
AcDbEntity
  8
0
  6
Continuous
 62
     7
100
AcDbLine
 10
-290.9337768554688
 20
314.620361328125
 30
0.0
 11
-290.9313354492188
 21
314.6179504394531
 31
0.0
  0
LINE
  5
202
330
22
100
AcDbEntity
  8
0
  6
Continuous
 62
     7
100
AcDbLine
 10
-258.9337768554688
 20
295.4323120117188
 30
0.0
 11
-257.4085693359375
 21
296.95751953125
 31
0.0
  0
LINE
  5
203
330
22
100
AcDbEntity
  8
0
  6
Continuous
 62
     7
100
AcDbLine
 10
-257.4085693359375
 20
296.95751953125
 30
0.0
 11
-243.0678558349609
 21
297.3679504394531
 31
0.0
  0
LINE
  5
204
330
22
100
AcDbEntity
  8
0
  6
Continuous
 62
     7
100
AcDbLine
 10
-158.9337768554688
 20
280.8684997558594
 30
0.0
 11
-158.9337768554688
 21
285.7333984375
 31
0.0
  0
LINE
  5
205
330
22
100
AcDbEntity
  8
0
  6
Continuous
 62
     7
100
AcDbLine
 10
-258.9337768554688
 20
280.8684997558594
 30
0.0
 11
-258.9337768554688
 21
285.7333984375
 31
0.0
  0
LINE
  5
206
330
22
100
AcDbEntity
  8
0
  6
Continuous
 62
     7
100
AcDbLine
 10
-257.9242553710938
 20
293.8679504394531
 30
0.0
 11
-256.2555847167969
 21
295.5365905761719
 31
0.0
  0
LINE
  5
207
330
22
100
AcDbEntity
  8
0
  6
Continuous
 62
     7
100
AcDbLine
 10
-250.8531799316406
 20
293.8679504394531
 30
0.0
 11
-248.8980712890625
 21
295.8230285644532
 31
0.0
  0
LINE
  5
208
330
22
100
AcDbEntity
  8
0
  6
Continuous
 62
     7
100
AcDbLine
 10
-243.7821044921875
 20
293.8679504394531
 30
0.0
 11
-240.2821044921875
 21
297.3679504394531
 31
0.0
  0
LINE
  5
209
330
22
100
AcDbEntity
  8
0
  6
Continuous
 62
     7
100
AcDbLine
 10
-236.7110443115234
 20
293.8679504394531
 30
0.0
 11
-233.2110443115234
 21
297.3679504394531
 31
0.0
  0
LINE
  5
20A
330
22
100
AcDbEntity
  8
0
  6
Continuous
 62
     7
100
AcDbLine
 10
-229.6399688720703
 20
293.8679504394531
 30
0.0
 11
-226.1399688720703
 21
297.3679504394531
 31
0.0
  0
LINE
  5
20B
330
22
100
AcDbEntity
  8
0
  6
Continuous
 62
     7
100
AcDbLine
 10
-222.5689086914063
 20
293.8679504394531
 30
0.0
 11
-219.0689086914063
 21
297.3679504394531
 31
0.0
  0
LINE
  5
20C
330
22
100
AcDbEntity
  8
0
  6
Continuous
 62
     7
100
AcDbLine
 10
-215.4978332519531
 20
293.8679504394531
 30
0.0
 11
-211.9978332519531
 21
297.3679504394531
 31
0.0
  0
LINE
  5
20D
330
22
100
AcDbEntity
  8
0
  6
Continuous
 62
     7
100
AcDbLine
 10
-208.4267730712891
 20
293.8679504394531
 30
0.0
 11
-206.4267730712891
 21
295.8679504394531
 31
0.0
  0
LINE
  5
20E
330
22
100
AcDbEntity
  8
0
  6
Continuous
 62
     7
100
AcDbLine
 10
-201.3556976318359
 20
293.8679504394531
 30
0.0
 11
-199.3556976318359
 21
295.8679504394531
 31
0.0
  0
LINE
  5
20F
330
22
100
AcDbEntity
  8
0
  6
Continuous
 62
     7
100
AcDbLine
 10
-194.2846374511719
 20
293.8679504394531
 30
0.0
 11
-192.2846374511719
 21
295.8679504394531
 31
0.0
  0
LINE
  5
210
330
22
100
AcDbEntity
  8
0
  6
Continuous
 62
     7
100
AcDbLine
 10
-187.2135620117188
 20
293.8679504394531
 30
0.0
 11
-185.2135620117188
 21
295.8679504394531
 31
0.0
  0
LINE
  5
211
330
22
100
AcDbEntity
  8
0
  6
Continuous
 62
     7
100
AcDbLine
 10
-180.1425018310547
 20
293.8679504394531
 30
0.0
 11
-178.1425018310547
 21
295.8679504394531
 31
0.0
  0
LINE
  5
212
330
22
100
AcDbEntity
  8
0
  6
Continuous
 62
     7
100
AcDbLine
 10
-173.0714263916016
 20
293.8679504394531
 30
0.0
 11
-171.0714263916016
 21
295.8679504394531
 31
0.0
  0
LINE
  5
213
330
22
100
AcDbEntity
  8
0
  6
Continuous
 62
     7
100
AcDbLine
 10
-166.0003662109375
 20
293.8679504394531
 30
0.0
 11
-164.0003662109375
 21
295.8679504394531
 31
0.0
  0
LINE
  5
214
330
22
100
AcDbEntity
  8
0
  6
Continuous
 62
     7
100
AcDbLine
 10
-258.9151000976563
 20
293.8679504394531
 30
0.0
 11
-158.9337768554688
 21
293.8679504394531
 31
0.0
  0
LINE
  5
215
330
22
100
AcDbEntity
  8
0
  6
Continuous
 62
     7
100
AcDbLine
 10
-266.742431640625
 20
246.9172515869141
 30
0.0
 11
-266.742431640625
 21
252.1296081542969
 31
0.0
  0
LINE
  5
216
330
22
100
AcDbEntity
  8
0
  6
Continuous
 62
     7
100
AcDbLine
 10
-290.9337768554688
 20
223.3679351806641
 30
0.0
 11
-290.9337768554688
 21
273.3679504394531
 31
0.0
  0
LINE
  5
217
330
22
100
AcDbEntity
  8
0
  6
Continuous
 62
     7
100
AcDbLine
 10
-279.3214111328125
 20
231.8679351806641
 30
0.0
 11
-279.3214111328125
 21
273.3679504394531
 31
0.0
  0
LINE
  5
218
330
22
100
AcDbEntity
  8
0
  6
CENTER
 62
     7
100
AcDbLine
 10
-514.225341796875
 20
103.3679351806641
 30
0.0
 11
-344.5773010253906
 21
103.3679351806641
 31
0.0
  0
LINE
  5
219
330
22
100
AcDbEntity
  8
0
  6
CENTER
 62
     7
100
AcDbLine
 10
-432.6636047363281
 20
186.2054138183594
 30
0.0
 11
-432.6636047363281
 21
21.60731315612793
 31
0.0
  0
LINE
  5
21A
330
22
100
AcDbEntity
  8
0
  6
Continuous
 62
     7
100
AcDbLine
 10
-435.9904479980468
 20
91.67305755615235
 30
0.0
 11
-442.2747192382812
 21
72.33201599121094
 31
0.0
  0
LINE
  5
21B
330
22
100
AcDbEntity
  8
0
  6
Continuous
 62
     7
100
AcDbLine
 10
-430.7116394042968
 20
91.67305755615235
 30
0.0
 11
-424.4273681640625
 21
72.33201599121094
 31
0.0
  0
LINE
  5
21C
330
22
100
AcDbEntity
  8
0
  6
Continuous
 62
     7
100
AcDbLine
 10
-426.2453002929688
 20
137.1940307617188
 30
0.0
 11
-426.5726928710938
 21
136.8666381835938
 31
0.0
  0
LINE
  5
21D
330
22
100
AcDbEntity
  8
0
  6
Continuous
 62
     7
100
AcDbLine
 10
-426.2453002929688
 20
137.1940307617188
 30
0.0
 11
-425.9179077148438
 21
137.5214233398438
 31
0.0
  0
LINE
  5
21E
330
22
100
AcDbEntity
  8
0
  6
Continuous
 62
     7
100
AcDbLine
 10
-419.9068298339843
 20
136.8490753173828
 30
0.0
 11
-420.5610961914063
 21
137.5033721923828
 31
0.0
  0
LINE
  5
21F
330
22
100
AcDbEntity
  8
0
  6
Continuous
 62
     7
100
AcDbLine
 10
-428.8095397949218
 20
113.7736053466797
 30
0.0
 11
-424.7372741699218
 21
126.3066940307617
 31
0.0
  0
LINE
  5
220
330
22
100
AcDbEntity
  8
0
  6
Continuous
 62
     7
100
AcDbLine
 10
-436.2130737304688
 20
100.6983108520508
 30
0.0
 11
-434.1907348632813
 21
103.3679351806641
 31
0.0
  0
LINE
  5
221
330
22
100
AcDbEntity
  8
0
  6
Continuous
 62
     7
100
AcDbLine
 10
-429.5652465820313
 20
106.0375671386719
 30
0.0
 11
-429.8923645019531
 21
106.3647079467773
 31
0.0
  0
LINE
  5
222
330
22
100
AcDbEntity
  8
0
  6
Continuous
 62
     7
100
AcDbLine
 10
-435.5587768554688
 20
100.0440216064453
 30
0.0
 11
-432.8891601562499
 21
102.0663375854492
 31
0.0
  0
LINE
  5
223
330
22
100
AcDbEntity
  8
0
  6
Continuous
 62
     7
100
AcDbLine
 10
-436.2130737304688
 20
100.6983108520508
 30
0.0
 11
-435.8859252929688
 21
100.3711624145508
 31
0.0
  0
LINE
  5
224
330
22
100
AcDbEntity
  8
0
  6
Continuous
 62
     7
100
AcDbLine
 10
-429.5471801757813
 20
100.6807556152344
 30
0.0
 11
-431.5875549316406
 21
103.3679351806641
 31
0.0
  0
LINE
  5
225
330
22
100
AcDbEntity
  8
0
  6
Continuous
 62
     7
100
AcDbLine
 10
-429.8745727539063
 20
100.3533630371094
 30
0.0
 11
-430.2019653320312
 21
100.0259704589844
 31
0.0
  0
LINE
  5
226
330
22
100
AcDbEntity
  8
0
  6
Continuous
 62
     7
100
AcDbLine
 10
-429.8745727539063
 20
100.3533630371094
 30
0.0
 11
-429.5471801757813
 21
100.6807556152344
 31
0.0
  0
LINE
  5
227
330
22
100
AcDbEntity
  8
0
  6
Continuous
 62
     7
100
AcDbLine
 10
-421.7320861816406
 20
102.0323486328125
 30
0.0
 11
-401.3957214355468
 21
102.0323486328125
 31
0.0
  0
LINE
  5
228
330
22
100
AcDbEntity
  8
0
  6
Continuous
 62
     7
100
AcDbLine
 10
-442.1631774902343
 20
110.6708145141602
 30
0.0
 11
-458.6156616210938
 21
122.6242370605469
 31
0.0
  0
LINE
  5
229
330
22
100
AcDbEntity
  8
0
  6
Continuous
 62
     7
100
AcDbLine
 10
-435.9037170410156
 20
106.3825149536133
 30
0.0
 11
-436.2311096191406
 21
106.0551223754883
 31
0.0
  0
LINE
  5
22A
330
22
100
AcDbEntity
  8
0
  6
Continuous
 62
     7
100
AcDbLine
 10
-435.9037170410156
 20
106.3825149536133
 30
0.0
 11
-435.5763244628906
 21
106.7098999023438
 31
0.0
  0
LINE
  5
22B
330
22
100
AcDbEntity
  8
0
  6
Continuous
 62
     7
100
AcDbLine
 10
-435.5763244628906
 20
106.7098999023438
 30
0.0
 11
-432.8891601562499
 21
104.6695404052734
 31
0.0
  0
LINE
  5
22C
330
22
100
AcDbEntity
  8
0
  6
Continuous
 62
     7
100
AcDbLine
 10
-436.2311096191406
 20
106.0551223754883
 30
0.0
 11
-434.1907348632813
 21
103.3679351806641
 31
0.0
  0
LINE
  5
22D
330
22
100
AcDbEntity
  8
0
  6
Continuous
 62
     7
100
AcDbLine
 10
-429.5652465820313
 20
106.0375671386719
 30
0.0
 11
-431.5875549316406
 21
103.3679351806641
 31
0.0
  0
LINE
  5
22E
330
22
100
AcDbEntity
  8
0
  6
Continuous
 62
     7
100
AcDbLine
 10
-430.2195129394531
 20
106.6918487548828
 30
0.0
 11
-429.8923645019531
 21
106.3647079467773
 31
0.0
  0
LINE
  5
22F
330
22
100
AcDbEntity
  8
0
  6
Continuous
 62
     7
100
AcDbLine
 10
-424.5389099121093
 20
110.6708145141602
 30
0.0
 11
-408.08642578125
 21
122.6242370605469
 31
0.0
  0
LINE
  5
230
330
22
100
AcDbEntity
  8
0
  6
Continuous
 62
     7
100
AcDbLine
 10
-430.2195129394531
 20
106.6918487548828
 30
0.0
 11
-432.8891601562499
 21
104.6695404052734
 31
0.0
  0
LINE
  5
231
330
22
100
AcDbEntity
  8
0
  6
Continuous
 62
     7
100
AcDbLine
 10
-430.2019653320312
 20
100.0259704589844
 30
0.0
 11
-432.8891601562499
 21
102.0663375854492
 31
0.0
  0
LINE
  5
232
330
22
100
AcDbEntity
  8
0
  6
Continuous
 62
     7
100
AcDbLine
 10
-437.8925476074218
 20
113.7736129760742
 30
0.0
 11
-441.9647827148438
 21
126.3067016601563
 31
0.0
  0
LINE
  5
233
330
22
100
AcDbEntity
  8
0
  6
Continuous
 62
     7
100
AcDbLine
 10
-444.970001220703
 20
102.032356262207
 30
0.0
 11
-465.3063659667968
 21
102.032356262207
 31
0.0
  0
LINE
  5
234
330
22
100
AcDbEntity
  8
0
  6
Continuous
 62
     7
100
AcDbLine
 10
-435.5587768554688
 20
100.0440216064453
 30
0.0
 11
-435.8859252929688
 21
100.3711624145508
 31
0.0
  0
LINE
  5
235
330
22
100
AcDbEntity
  8
0
  6
Continuous
 62
     7
100
AcDbLine
 10
-423.3633422851562
 20
97.01192474365235
 30
0.0
 11
-406.9108581542968
 21
85.05849456787109
 31
0.0
  0
LINE
  5
236
330
22
100
AcDbEntity
  8
0
  6
Continuous
 62
     7
100
AcDbLine
 10
-443.3387451171874
 20
97.01192474365235
 30
0.0
 11
-459.7912292480469
 21
85.05850219726562
 31
0.0
  0
LINE
  5
237
330
22
100
AcDbEntity
  8
0
  6
Continuous
 62
     7
100
AcDbLine
 10
-426.5546569824218
 20
131.5098266601562
 30
0.0
 11
-424.5323486328125
 21
134.1794586181641
 31
0.0
  0
LINE
  5
238
330
22
100
AcDbEntity
  8
0
  6
Continuous
 62
     7
100
AcDbLine
 10
-426.5726928710938
 20
136.8666381835938
 30
0.0
 11
-424.5323486328125
 21
134.1794586181641
 31
0.0
  0
LINE
  5
239
330
22
100
AcDbEntity
  8
0
  6
Continuous
 62
     7
100
AcDbLine
 10
-419.9068298339843
 20
136.8490753173828
 30
0.0
 11
-421.9291381835938
 21
134.1794586181641
 31
0.0
  0
LINE
  5
23A
330
22
100
AcDbEntity
  8
0
  6
Continuous
 62
     7
100
AcDbLine
 10
-420.5610961914063
 20
137.5033721923828
 30
0.0
 11
-423.2307434082031
 21
135.4810638427734
 31
0.0
  0
LINE
  5
23B
330
22
100
AcDbEntity
  8
0
  6
Continuous
 62
     7
100
AcDbLine
 10
-426.5546569824218
 20
131.5098266601562
 30
0.0
 11
-426.2275085449219
 21
131.1826782226563
 31
0.0
  0
LINE
  5
23C
330
22
100
AcDbEntity
  8
0
  6
Continuous
 62
     7
100
AcDbLine
 10
-425.9003601074218
 20
130.8555450439452
 30
0.0
 11
-426.2275085449219
 21
131.1826782226563
 31
0.0
  0
LINE
  5
23D
330
22
100
AcDbEntity
  8
0
  6
Continuous
 62
     7
100
AcDbLine
 10
-425.9003601074218
 20
130.8555450439452
 30
0.0
 11
-423.2307434082031
 21
132.8778533935547
 31
0.0
  0
LINE
  5
23E
330
22
100
AcDbEntity
  8
0
  6
Continuous
 62
     7
100
AcDbLine
 10
-420.2161560058593
 20
131.1648864746094
 30
0.0
 11
-420.5435485839843
 21
130.8374938964844
 31
0.0
  0
LINE
  5
23F
330
22
100
AcDbEntity
  8
0
  6
Continuous
 62
     7
100
AcDbLine
 10
-425.9179077148438
 20
137.5214233398438
 30
0.0
 11
-423.2307434082031
 21
135.4810638427734
 31
0.0
  0
LINE
  5
240
330
22
100
AcDbEntity
  8
0
  6
Continuous
 62
     7
100
AcDbLine
 10
-420.2161560058593
 20
131.1648864746094
 30
0.0
 11
-419.8887634277343
 21
131.4922637939453
 31
0.0
  0
LINE
  5
241
330
22
100
AcDbEntity
  8
0
  6
Continuous
 62
     7
100
AcDbLine
 10
-420.5435485839843
 20
130.8374938964844
 30
0.0
 11
-423.2307434082031
 21
132.8778533935547
 31
0.0
  0
LINE
  5
242
330
22
100
AcDbEntity
  8
0
  6
Continuous
 62
     7
100
AcDbLine
 10
-419.8887634277343
 20
131.4922637939453
 30
0.0
 11
-421.9291381835938
 21
134.1794586181641
 31
0.0
  0
ARC
  5
243
330
22
100
AcDbEntity
  8
0
  6
Continuous
 62
     7
100
AcDbCircle
 10
-443.6372680664063
 20
287.1901550292969
 30
0.0
 40
17.5
100
AcDbArc
 50
119.3240464490819
 51
152.9366742669116
  0
ARC
  5
244
330
22
100
AcDbEntity
  8
0
  6
Continuous
 62
     7
100
AcDbCircle
 10
-423.2307434082031
 20
304.179443359375
 30
0.0
 40
6.5
100
AcDbArc
 50
272.6673376878185
 51
335.8661474401162
  0
ARC
  5
245
330
22
100
AcDbEntity
  8
0
  6
Continuous
 62
     7
100
AcDbCircle
 10
-415.4736938476562
 20
300.7040405273438
 30
0.0
 40
2.0
100
AcDbArc
 50
60.67586939556393
 51
155.8660119372869
  0
ARC
  5
246
330
22
100
AcDbEntity
  8
0
  6
Continuous
 62
     7
100
AcDbCircle
 10
-433.3511962890624
 20
273.0321350097656
 30
0.0
 40
27.5
100
AcDbArc
 50
38.08393896766335
 51
64.67879896784999
  0
ARC
  5
247
330
22
100
AcDbEntity
  8
0
  6
Continuous
 62
     7
100
AcDbCircle
 10
-423.2307434082031
 20
304.179443359375
 30
0.0
 40
5.25
100
AcDbArc
 50
252.2010982873537
 51
71.72208380929915
  0
ARC
  5
248
330
22
100
AcDbEntity
  8
0
  6
Continuous
 62
     7
100
AcDbCircle
 10
-443.4713439941406
 20
304.179443359375
 30
0.0
 40
5.25
100
AcDbArc
 50
107.7218073816791
 51
287.7989017126477
  0
ARC
  5
249
330
22
100
AcDbEntity
  8
0
  6
Continuous
 62
     7
100
AcDbCircle
 10
-423.0647888183593
 20
287.1901550292969
 30
0.0
 40
17.5
100
AcDbArc
 50
27.06337119237663
 51
60.67595355091816
  0
ARC
  5
24A
330
22
100
AcDbEntity
  8
0
  6
Continuous
 62
     7
100
AcDbCircle
 10
-433.3510437011718
 20
273.0321655273438
 30
0.0
 40
27.5
100
AcDbArc
 50
115.3212585062332
 51
141.9160502046471
  0
ARC
  5
24B
330
22
100
AcDbEntity
  8
0
  6
Continuous
 62
     7
100
AcDbCircle
 10
-433.3511962890624
 20
273.0321350097656
 30
0.0
 40
29.0
100
AcDbArc
 50
37.97609832107395
 51
62.11735474019828
  0
ARC
  5
24C
330
22
100
AcDbEntity
  8
0
  6
Continuous
 62
     7
100
AcDbCircle
 10
-423.2307434082031
 20
304.179443359375
 30
0.0
 40
2.75
100
AcDbArc
 50
252.4194164109862
 51
71.5041284029098
  0
ARC
  5
24D
330
22
100
AcDbEntity
  8
0
  6
Continuous
 62
     7
100
AcDbCircle
 10
-433.3510437011718
 20
273.0323486328125
 30
0.0
 40
27.50003814697266
100
AcDbArc
 50
71.961617281209
 51
108.038382718791
  0
ARC
  5
24E
330
22
100
AcDbEntity
  8
0
  6
Continuous
 62
     7
100
AcDbCircle
 10
-433.3510437011718
 20
273.0323486328125
 30
0.0
 40
30.00008010864258
100
AcDbArc
 50
71.96156174581419
 51
100.9159102288907
  0
ARC
  5
24F
330
22
100
AcDbEntity
  8
0
  6
Continuous
 62
     7
100
AcDbCircle
 10
-422.8351745605468
 20
295.6886596679688
 30
0.0
 40
2.0
100
AcDbArc
 50
92.66746891459364
 51
161.9996631070142
  0
CIRCLE
  5
250
330
22
100
AcDbEntity
  8
0
  6
Continuous
 62
     7
100
AcDbCircle
 10
-443.4713439941406
 20
304.179443359375
 30
0.0
 40
4.75
  0
ARC
  5
251
330
22
100
AcDbEntity
  8
0
  6
Continuous
 62
     7
100
AcDbCircle
 10
-451.2283630371094
 20
300.7040405273438
 30
0.0
 40
2.0
100
AcDbArc
 50
24.13434552745152
 51
119.3241306044361
  0
ARC
  5
252
330
22
100
AcDbEntity
  8
0
  6
Continuous
 62
     7
100
AcDbCircle
 10
-443.8669128417968
 20
295.6886596679688
 30
0.0
 40
2.0
100
AcDbArc
 50
18.00006672812741
 51
87.33253108540637
  0
ARC
  5
253
330
22
100
AcDbEntity
  8
0
  6
Continuous
 62
     7
100
AcDbCircle
 10
-443.4713439941406
 20
304.179443359375
 30
0.0
 40
6.5
100
AcDbArc
 50
204.1338525598853
 51
267.332662312183
  0
ARC
  5
254
330
22
100
AcDbEntity
  8
0
  6
Continuous
 62
     7
100
AcDbCircle
 10
-460.966796875
 20
256.6765441894531
 30
0.0
 40
2.0
100
AcDbArc
 50
224.9369438817589
 51
305.9997985383335
  0
ARC
  5
255
330
22
100
AcDbEntity
  8
0
  6
Continuous
 62
     7
100
AcDbCircle
 10
-405.7352905273438
 20
256.6765441894531
 30
0.0
 40
2.0
100
AcDbArc
 50
234.0002014616679
 51
315.0630561182425
  0
ARC
  5
256
330
22
100
AcDbEntity
  8
0
  6
Continuous
 62
     7
100
AcDbCircle
 10
-449.9945373535156
 20
267.6245422363281
 30
0.0
 40
17.5
100
AcDbArc
 50
171.0633029048658
 51
224.9366257566437
  0
ARC
  5
257
330
22
100
AcDbEntity
  8
0
  6
Continuous
 62
     7
100
AcDbCircle
 10
-416.7075500488281
 20
267.6245422363281
 30
0.0
 40
17.5
100
AcDbArc
 50
315.0633742433578
 51
8.936697095134215
  0
ARC
  5
258
330
22
100
AcDbEntity
  8
0
  6
Continuous
 62
     7
100
AcDbCircle
 10
-433.3510437011718
 20
273.0323486328125
 30
0.0
 40
29.0
100
AcDbArc
 50
181.9761080080274
 51
214.0239189258369
  0
ARC
  5
259
330
22
100
AcDbEntity
  8
0
  6
Continuous
 62
     7
100
AcDbCircle
 10
-433.3510437011718
 20
273.0321655273438
 30
0.0
 40
19.0
100
AcDbArc
 50
111.0169427850555
 51
140.9830514617313
  0
ARC
  5
25A
330
22
100
AcDbEntity
  8
0
  6
Continuous
 62
     7
100
AcDbCircle
 10
-433.3510437011718
 20
273.0321655273438
 30
0.0
 40
20.5
100
AcDbArc
 50
110.7959953644997
 51
141.2039875312855
  0
ARC
  5
25B
330
22
100
AcDbEntity
  8
0
  6
Continuous
 62
     7
100
AcDbCircle
 10
-433.3510437011718
 20
273.0323486328125
 30
0.0
 40
27.5
100
AcDbArc
 50
182.0839423833917
 51
213.9160568602277
  0
ARC
  5
25C
330
22
100
AcDbEntity
  8
0
  6
Continuous
 62
     7
100
AcDbCircle
 10
-433.3513183593749
 20
273.0322570800781
 30
0.0
 40
27.5
100
AcDbArc
 50
326.0839431397737
 51
357.9160576166098
  0
ARC
  5
25D
330
22
100
AcDbEntity
  8
0
  6
Continuous
 62
     7
100
AcDbCircle
 10
-433.3513183593749
 20
273.0322570800781
 30
0.0
 40
29.0
100
AcDbArc
 50
325.9761148110357
 51
358.023891991974
  0
ARC
  5
25E
330
22
100
AcDbEntity
  8
0
  6
Continuous
 62
     7
100
AcDbCircle
 10
-432.61376953125
 20
261.0550231933594
 30
0.0
 40
2.0
100
AcDbArc
 50
18.00006672812741
 51
93.52201722137991
  0
ARC
  5
25F
330
22
100
AcDbEntity
  8
0
  6
Continuous
 62
     7
100
AcDbCircle
 10
-465.3063659667968
 20
270.0323486328125
 30
0.0
 40
2.0
100
AcDbArc
 50
90.00000000000019
 51
171.0630064974457
  0
ARC
  5
260
330
22
100
AcDbEntity
  8
0
  6
Continuous
 62
     7
100
AcDbCircle
 10
-444.5143127441406
 20
268.6299438476563
 30
0.0
 40
2.0
100
AcDbArc
 50
306.0003124205727
 51
21.52265738318204
  0
ARC
  5
261
330
22
100
AcDbEntity
  8
0
  6
Continuous
 62
     7
100
AcDbCircle
 10
-422.187774658203
 20
268.6299438476563
 30
0.0
 40
2.0
100
AcDbArc
 50
158.477342616818
 51
233.9996875794289
  0
ARC
  5
262
330
22
100
AcDbEntity
  8
0
  6
Continuous
 62
     7
100
AcDbCircle
 10
-433.3513183593749
 20
273.0322570800781
 30
0.0
 40
19.0
100
AcDbArc
 50
327.0169887455803
 51
356.9830382726187
  0
CIRCLE
  5
263
330
22
100
AcDbEntity
  8
0
  6
Continuous
 62
     7
100
AcDbCircle
 10
-432.8891601562499
 20
273.3679504394531
 30
0.0
 40
5.0
  0
CIRCLE
  5
264
330
22
100
AcDbEntity
  8
0
  6
Continuous
 62
     7
100
AcDbCircle
 10
-432.8891601562499
 20
273.3679504394531
 30
0.0
 40
5.5
  0
ARC
  5
265
330
22
100
AcDbEntity
  8
0
  6
Continuous
 62
     7
100
AcDbCircle
 10
-421.7320861816406
 20
270.0323486328125
 30
0.0
 40
2.0
100
AcDbArc
 50
90.00000000000019
 51
165.522496743742
  0
ARC
  5
266
330
22
100
AcDbEntity
  8
0
  6
Continuous
 62
     7
100
AcDbCircle
 10
-425.7144775390624
 20
282.2888488769531
 30
0.0
 40
2.0
100
AcDbArc
 50
230.4775204647301
 51
305.9997985383335
  0
ARC
  5
267
330
22
100
AcDbEntity
  8
0
  6
Continuous
 62
     7
100
AcDbCircle
 10
-401.3957214355468
 20
270.0323486328125
 30
0.0
 40
2.0
100
AcDbArc
 50
8.936993502554305
 51
90.00000000000019
  0
ARC
  5
268
330
22
100
AcDbEntity
  8
0
  6
Continuous
 62
     7
100
AcDbCircle
 10
-433.3511962890624
 20
273.0321350097656
 30
0.0
 40
19.0
100
AcDbArc
 50
39.01700647446544
 51
68.98302420968929
  0
ARC
  5
269
330
22
100
AcDbEntity
  8
0
  6
Continuous
 62
     7
100
AcDbCircle
 10
-433.3511962890624
 20
273.0321350097656
 30
0.0
 40
20.5
100
AcDbArc
 50
38.79606590972857
 51
69.20400463550032
  0
ARC
  5
26A
330
22
100
AcDbEntity
  8
0
  6
Continuous
 62
     7
100
AcDbCircle
 10
-426.9074096679688
 20
283.1555786132813
 30
0.0
 40
2.0
100
AcDbArc
 50
161.9999332718726
 51
237.5221694470143
  0
ARC
  5
26B
330
22
100
AcDbEntity
  8
0
  6
Continuous
 62
     7
100
AcDbCircle
 10
-433.3510437011718
 20
273.0323486328125
 30
0.0
 40
19.0
100
AcDbArc
 50
183.0169617273827
 51
212.9830112544211
  0
ARC
  5
26C
330
22
100
AcDbEntity
  8
0
  6
Continuous
 62
     7
100
AcDbCircle
 10
-433.3510437011718
 20
273.0323486328125
 30
0.0
 40
20.5
100
AcDbArc
 50
182.7960269631324
 51
213.2039479505484
  0
ARC
  5
26D
330
22
100
AcDbEntity
  8
0
  6
Continuous
 62
     7
100
AcDbCircle
 10
-433.3513183593749
 20
273.0322570800781
 30
0.0
 40
20.5
100
AcDbArc
 50
326.7960520494531
 51
357.203973036869
  0
ARC
  5
26E
330
22
100
AcDbEntity
  8
0
  6
Continuous
 62
     7
100
AcDbCircle
 10
-439.7946472167968
 20
283.1555786132813
 30
0.0
 40
2.0
100
AcDbArc
 50
302.47709301665
 51
18.0003368929858
  0
ARC
  5
26F
330
22
100
AcDbEntity
  8
0
  6
Continuous
 62
     7
100
AcDbCircle
 10
-433.3510437011718
 20
273.0323486328125
 30
0.0
 40
10.0
100
AcDbArc
 50
50.47754406884499
 51
57.52250473490442
  0
ARC
  5
270
330
22
100
AcDbEntity
  8
0
  6
Continuous
 62
     7
100
AcDbCircle
 10
-433.3511962890624
 20
273.0324096679688
 30
0.0
 40
19.0
100
AcDbArc
 50
255.0169318862472
 51
284.9829792146739
  0
ARC
  5
271
330
22
100
AcDbEntity
  8
0
  6
Continuous
 62
     7
100
AcDbCircle
 10
-440.9876098632813
 20
282.2888488769531
 30
0.0
 40
2.0
100
AcDbArc
 50
234.0002014616679
 51
309.5224795352713
  0
ARC
  5
272
330
22
100
AcDbEntity
  8
0
  6
Continuous
 62
     7
100
AcDbCircle
 10
-433.3510437011718
 20
273.0323486328125
 30
0.0
 40
10.0
100
AcDbArc
 50
122.4774952650956
 51
129.522455931155
  0
ARC
  5
273
330
22
100
AcDbEntity
  8
0
  6
Continuous
 62
     7
100
AcDbCircle
 10
-444.970001220703
 20
270.0323486328125
 30
0.0
 40
2.0
100
AcDbArc
 50
14.47750325625797
 51
90.00000000000019
  0
ARC
  5
274
330
22
100
AcDbEntity
  8
0
  6
Continuous
 62
     7
100
AcDbCircle
 10
-433.3510437011718
 20
273.0323486328125
 30
0.0
 40
10.0
100
AcDbArc
 50
338.4774709130313
 51
345.5224967437428
  0
ARC
  5
275
330
22
100
AcDbEntity
  8
0
  6
Continuous
 62
     7
100
AcDbCircle
 10
-409.2619934082031
 20
294.2422790527344
 30
0.0
 40
2.0
100
AcDbArc
 50
305.9997985383335
 51
27.0631709969316
  0
ARC
  5
276
330
22
100
AcDbEntity
  8
0
  6
Continuous
 62
     7
100
AcDbCircle
 10
-457.4400939941406
 20
294.2422790527344
 30
0.0
 40
2.0
100
AcDbArc
 50
152.9368290030684
 51
234.0002014616679
  0
ARC
  5
277
330
22
100
AcDbEntity
  8
0
  6
Continuous
 62
     7
100
AcDbCircle
 10
-433.3510437011718
 20
273.0323486328125
 30
0.0
 40
10.0
100
AcDbArc
 50
194.4775032562587
 51
201.5225290869701
  0
ARC
  5
278
330
22
100
AcDbEntity
  8
0
  6
Continuous
 62
     7
100
AcDbCircle
 10
-434.0883178710938
 20
261.0550231933594
 30
0.0
 40
2.0
100
AcDbArc
 50
86.47798277862007
 51
161.9999332718726
  0
ARC
  5
279
330
22
100
AcDbEntity
  8
0
  6
Continuous
 62
     7
100
AcDbCircle
 10
-433.3510437011718
 20
273.0323486328125
 30
0.0
 40
10.0
100
AcDbArc
 50
266.4774699525468
 51
273.5225300474547
  0
ARC
  5
27A
330
22
100
AcDbEntity
  8
0
  6
Continuous
 62
     7
100
AcDbCircle
 10
-433.3510437011718
 20
273.0323486328125
 30
0.0
 40
35.49990463256836
100
AcDbArc
 50
71.96159407391609
 51
101.4883454831632
  0
ARC
  5
27B
330
22
100
AcDbEntity
  8
0
  6
Continuous
 62
     7
100
AcDbCircle
 10
-433.3510437011718
 20
273.0323486328125
 30
0.0
 40
37.99994659423828
100
AcDbArc
 50
71.96160975759081
 51
107.9615593318534
  0
ARC
  5
27C
330
22
100
AcDbEntity
  8
0
  6
Continuous
 62
     7
100
AcDbCircle
 10
-433.3511962890624
 20
273.0324096679688
 30
0.0
 40
20.5
100
AcDbArc
 50
254.7960274156084
 51
285.203972584393
  0
CIRCLE
  5
27D
330
22
100
AcDbEntity
  8
0
  6
DASHED
 62
     7
100
AcDbCircle
 10
-432.8891601562499
 20
273.3679504394531
 30
0.0
 40
21.0
  0
ARC
  5
27E
330
22
100
AcDbEntity
  8
0
  6
Continuous
 62
     7
100
AcDbCircle
 10
-433.3511962890624
 20
273.0324096679688
 30
0.0
 40
29.0
100
AcDbArc
 50
253.9760739053511
 51
286.0238681432097
  0
ARC
  5
27F
330
22
100
AcDbEntity
  8
0
  6
Continuous
 62
     7
100
AcDbCircle
 10
-426.3294677734375
 20
241.7139739990234
 30
0.0
 40
2.0
100
AcDbArc
 50
296.9366851768763
 51
18.0003368929858
  0
ARC
  5
280
330
22
100
AcDbEntity
  8
0
  6
Continuous
 62
     7
100
AcDbCircle
 10
-440.3726196289063
 20
241.7139739990234
 30
0.0
 40
2.0
100
AcDbArc
 50
161.9996631070142
 51
243.0633148231251
  0
ARC
  5
281
330
22
100
AcDbEntity
  8
0
  6
Continuous
 62
     7
100
AcDbCircle
 10
-433.3510437011718
 20
255.5323486328125
 30
0.0
 40
17.5
100
AcDbArc
 50
243.0633558769491
 51
296.9366441230524
  0
ARC
  5
282
330
22
100
AcDbEntity
  8
0
  6
Continuous
 62
     7
100
AcDbCircle
 10
-433.3511962890624
 20
273.0324096679688
 30
0.0
 40
27.5
100
AcDbArc
 50
254.0839408586874
 51
285.9160591413139
  0
CIRCLE
  5
283
330
22
100
AcDbEntity
  8
0
  6
DASHED
 62
     7
100
AcDbCircle
 10
-433.3510437011718
 20
273.0323486328125
 30
0.0
 40
38.25
  0
CIRCLE
  5
284
330
22
100
AcDbEntity
  8
0
  6
Continuous
 62
     7
100
AcDbCircle
 10
-432.8891601562499
 20
273.3679504394531
 30
0.0
 40
50.5
  0
CIRCLE
  5
285
330
22
100
AcDbEntity
  8
0
  6
Continuous
 62
     7
100
AcDbCircle
 10
-432.8891601562499
 20
273.3679504394531
 30
0.0
 40
60.25240325927734
  0
CIRCLE
  5
286
330
22
100
AcDbEntity
  8
0
  6
Continuous
 62
     7
100
AcDbCircle
 10
-432.6636047363281
 20
273.3679504394531
 30
0.0
 40
77.0
  0
ARC
  5
287
330
22
100
AcDbEntity
  8
0
  6
Continuous
 62
     7
100
AcDbCircle
 10
-246.2121276855469
 20
254.0145568847656
 30
0.0
 40
1.905385494232178
100
AcDbArc
 50
205.3694845805212
 51
278.4001730796878
  0
ARC
  5
288
330
22
100
AcDbEntity
  8
0
  6
Continuous
 62
     7
100
AcDbCircle
 10
-244.6758270263672
 20
252.8564147949219
 30
0.0
 40
3.278074979782104
100
AcDbArc
 50
112.5659503951798
 51
173.6464664695078
  0
ARC
  5
289
330
22
100
AcDbEntity
  8
0
  6
Continuous
 62
     7
100
AcDbCircle
 10
-153.9337768554688
 20
305.3679504394531
 30
0.0
 40
5.0
100
AcDbArc
 50
270.0000000000005
 51
0.0
  0
ARC
  5
28A
330
22
100
AcDbEntity
  8
0
  6
Continuous
 62
     7
100
AcDbCircle
 10
-121.9337692260742
 20
300.3679504394531
 30
0.0
 40
1.0
100
AcDbArc
 50
0.0
 51
90.00000000000019
  0
ARC
  5
28B
330
22
100
AcDbEntity
  8
0
  6
Continuous
 62
     7
100
AcDbCircle
 10
-144.4337768554688
 20
302.3679504394531
 30
0.0
 40
1.0
100
AcDbArc
 50
180.0000000000004
 51
270.0000000000005
  0
ARC
  5
28C
330
22
100
AcDbEntity
  8
0
  6
Continuous
 62
     7
100
AcDbCircle
 10
-177.9337768554688
 20
299.3679504394531
 30
0.0
 40
1.0
100
AcDbArc
 50
90.00000000000019
 51
180.0000000000004
  0
ARC
  5
28D
330
22
100
AcDbEntity
  8
0
  6
Continuous
 62
     7
100
AcDbCircle
 10
-146.9337768554688
 20
348.3679504394531
 30
0.0
 40
2.0
100
AcDbArc
 50
90.00000000000019
 51
180.0000000000004
  0
ARC
  5
28E
330
22
100
AcDbEntity
  8
0
  6
Continuous
 62
     7
100
AcDbCircle
 10
-145.9337768554688
 20
349.8679504394531
 30
0.0
 40
0.5
100
AcDbArc
 50
0.0
 51
90.00000000000019
  0
ARC
  5
28F
330
22
100
AcDbEntity
  8
0
  6
Continuous
 62
     7
100
AcDbCircle
 10
-144.4337768554688
 20
244.3679351806641
 30
0.0
 40
1.0
100
AcDbArc
 50
90.00000000000019
 51
180.0000000000004
  0
ARC
  5
290
330
22
100
AcDbEntity
  8
0
  6
Continuous
 62
     7
100
AcDbCircle
 10
-133.4337768554687
 20
242.9483032226563
 30
0.0
 40
2.0
100
AcDbArc
 50
286.2609915437038
 51
0.0
  0
ARC
  5
291
330
22
100
AcDbEntity
  8
0
  6
Continuous
 62
     7
100
AcDbCircle
 10
-128.95361328125
 20
227.5883483886719
 30
0.0
 40
14.0
100
AcDbArc
 50
106.2607867186408
 51
158.8245774423801
  0
ARC
  5
292
330
22
100
AcDbEntity
  8
0
  6
Continuous
 62
     7
100
AcDbCircle
 10
-143.8732757568359
 20
233.3679351806641
 30
0.0
 40
2.0
100
AcDbArc
 50
270.0000000000005
 51
338.8247746927407
  0
ARC
  5
293
330
22
100
AcDbEntity
  8
0
  6
Continuous
 62
     7
100
AcDbCircle
 10
-146.9337768554688
 20
198.3679351806641
 30
0.0
 40
2.0
100
AcDbArc
 50
180.0000000000004
 51
270.0000000000005
  0
ARC
  5
294
330
22
100
AcDbEntity
  8
0
  6
Continuous
 62
     7
100
AcDbCircle
 10
-145.9337768554688
 20
196.8679351806641
 30
0.0
 40
0.5
100
AcDbArc
 50
270.0000000000005
 51
0.0
  0
ARC
  5
295
330
22
100
AcDbEntity
  8
0
  6
Continuous
 62
     7
100
AcDbCircle
 10
-267.5862121582031
 20
254.0367736816406
 30
0.0
 40
1.939849734306334
100
AcDbArc
 50
208.0111407953302
 51
280.5331660480588
  0
ARC
  5
296
330
22
100
AcDbEntity
  8
0
  6
Continuous
 62
     7
100
AcDbCircle
 10
-267.7527770996094
 20
295.3679504394531
 30
0.0
 40
1.0
100
AcDbArc
 50
209.9999304360001
 51
270.0000000000005
  0
ARC
  5
297
330
22
100
AcDbEntity
  8
0
  6
Continuous
 62
     7
100
AcDbCircle
 10
-265.4337768554688
 20
295.3679504394531
 30
0.0
 40
1.0
100
AcDbArc
 50
270.0000000000005
 51
0.0
  0
ARC
  5
298
330
22
100
AcDbEntity
  8
0
  6
Continuous
 62
     7
100
AcDbCircle
 10
-267.019775390625
 20
253.5636138916016
 30
0.0
 40
2.320734500885009
100
AcDbArc
 50
91.54020879671035
 51
190.8758801628265
  0
ARC
  5
299
330
22
100
AcDbEntity
  8
0
  6
Continuous
 62
     7
100
AcDbCircle
 10
-285.4337768554688
 20
319.8679504394531
 30
0.0
 40
2.0
100
AcDbArc
 50
180.0000000000004
 51
270.0000000000005
  0
ARC
  5
29A
330
22
100
AcDbEntity
  8
0
  6
Continuous
 62
     7
100
AcDbCircle
 10
-280.3101501464844
 20
309.1179504394531
 30
0.0
 40
3.0
100
AcDbArc
 50
30.00022185874558
 51
90.00000000000019
  0
ARC
  5
29B
330
22
100
AcDbEntity
  8
0
  6
Continuous
 62
     7
100
AcDbCircle
 10
-280.1658325195313
 20
314.8679504394531
 30
0.0
 40
3.0
100
AcDbArc
 50
29.99993043599933
 51
90.00000000000019
  0
ARC
  5
29C
330
22
100
AcDbEntity
  8
0
  6
Continuous
 62
     7
100
AcDbCircle
 10
-285.4337768554688
 20
226.8679351806641
 30
0.0
 40
2.0
100
AcDbArc
 50
90.00000000000019
 51
180.0000000000004
  0
ARC
  5
29D
330
22
100
AcDbEntity
  8
0
  6
Continuous
 62
     7
100
AcDbCircle
 10
-280.1658325195313
 20
231.8679351806641
 30
0.0
 40
3.0
100
AcDbArc
 50
270.0000000000005
 51
330.0000695640014
  0
ARC
  5
29E
330
22
100
AcDbEntity
  8
0
  6
Continuous
 62
     7
100
AcDbCircle
 10
-121.9337692260742
 20
246.3679351806641
 30
0.0
 40
1.0
100
AcDbArc
 50
270.0000000000005
 51
0.0
  0
ARC
  5
29F
330
22
100
AcDbEntity
  8
0
  6
Continuous
 62
     7
100
AcDbCircle
 10
-153.9337768554688
 20
241.3679351806641
 30
0.0
 40
5.0
100
AcDbArc
 50
0.0
 51
90.00000000000019
  0
ARC
  5
2A0
330
22
100
AcDbEntity
  8
0
  6
Continuous
 62
     7
100
AcDbCircle
 10
-177.9337768554688
 20
247.3679351806641
 30
0.0
 40
1.0
100
AcDbArc
 50
180.0000000000004
 51
270.0000000000005
  0
ARC
  5
2A1
330
22
100
AcDbEntity
  8
0
  6
Continuous
 62
     7
100
AcDbCircle
 10
-266.742431640625
 20
243.1179351806641
 30
0.0
 40
3.0
100
AcDbArc
 50
90.00000000000019
 51
150.0000695640007
  0
CIRCLE
  5
2A2
330
22
100
AcDbEntity
  8
0
  6
Continuous
 62
     7
100
AcDbCircle
 10
-432.6636047363281
 20
273.3679504394531
 30
0.0
 40
42.0
  0
CIRCLE
  5
2A3
330
22
100
AcDbEntity
  8
0
  6
Continuous
 62
     7
100
AcDbCircle
 10
-432.6636047363281
 20
273.3679504394531
 30
0.0
 40
42.6500015258789
  0
CIRCLE
  5
2A4
330
22
100
AcDbEntity
  8
0
  6
Continuous
 62
     7
100
AcDbCircle
 10
-432.6636047363281
 20
103.3679351806641
 30
0.0
 40
42.6500015258789
  0
CIRCLE
  5
2A5
330
22
100
AcDbEntity
  8
0
  6
Continuous
 62
     7
100
AcDbCircle
 10
-432.6636047363281
 20
103.3679351806641
 30
0.0
 40
42.0
  0
CIRCLE
  5
2A6
330
22
100
AcDbEntity
  8
0
  6
Continuous
 62
     7
100
AcDbCircle
 10
-432.6636047363281
 20
103.3679351806641
 30
0.0
 40
77.0
  0
CIRCLE
  5
2A7
330
22
100
AcDbEntity
  8
0
  6
Continuous
 62
     7
100
AcDbCircle
 10
-432.8891601562499
 20
103.3679351806641
 30
0.0
 40
60.25240325927734
  0
CIRCLE
  5
2A8
330
22
100
AcDbEntity
  8
0
  6
Continuous
 62
     7
100
AcDbCircle
 10
-432.8891601562499
 20
103.3679351806641
 30
0.0
 40
50.5
  0
CIRCLE
  5
2A9
330
22
100
AcDbEntity
  8
0
  6
DASHED
 62
     7
100
AcDbCircle
 10
-433.3510437011718
 20
103.032356262207
 30
0.0
 40
38.25
  0
ARC
  5
2AA
330
22
100
AcDbEntity
  8
0
  6
Continuous
 62
     7
100
AcDbCircle
 10
-433.3510437011718
 20
85.53235626220702
 30
0.0
 40
17.5
100
AcDbArc
 50
243.0633785081487
 51
296.9366214918527
  0
ARC
  5
2AB
330
22
100
AcDbEntity
  8
0
  6
Continuous
 62
     7
100
AcDbCircle
 10
-440.3726196289063
 20
71.71398162841796
 30
0.0
 40
2.0
100
AcDbArc
 50
161.9998709766013
 51
243.0635128462502
  0
ARC
  5
2AC
330
22
100
AcDbEntity
  8
0
  6
Continuous
 62
     7
100
AcDbCircle
 10
-426.3294677734375
 20
71.71398162841796
 30
0.0
 40
2.0
100
AcDbArc
 50
296.9364871537512
 51
18.00012902339873
  0
CIRCLE
  5
2AD
330
22
100
AcDbEntity
  8
0
  6
DASHED
 62
     7
100
AcDbCircle
 10
-432.8891601562499
 20
103.3679351806641
 30
0.0
 40
21.0
  0
ARC
  5
2AE
330
22
100
AcDbEntity
  8
0
  6
Continuous
 62
     7
100
AcDbCircle
 10
-433.3510437011718
 20
103.032356262207
 30
0.0
 40
37.99994659423828
100
AcDbArc
 50
71.96159907127487
 51
107.9615699741571
  0
ARC
  5
2AF
330
22
100
AcDbEntity
  8
0
  6
Continuous
 62
     7
100
AcDbCircle
 10
-433.3510437011718
 20
103.032356262207
 30
0.0
 40
35.49990463256836
100
AcDbArc
 50
78.51160870167776
 51
107.9615649144741
  0
ARC
  5
2B0
330
22
100
AcDbEntity
  8
0
  6
Continuous
 62
     7
100
AcDbCircle
 10
-433.3510437011718
 20
103.032356262207
 30
0.0
 40
10.0
100
AcDbArc
 50
266.4774699525468
 51
273.5225300474547
  0
ARC
  5
2B1
330
22
100
AcDbEntity
  8
0
  6
Continuous
 62
     7
100
AcDbCircle
 10
-434.0883178710938
 20
91.05502319335938
 30
0.0
 40
2.0
100
AcDbArc
 50
86.47799620558384
 51
162.0001411387616
  0
ARC
  5
2B2
330
22
100
AcDbEntity
  8
0
  6
Continuous
 62
     7
100
AcDbCircle
 10
-433.3510437011718
 20
103.032356262207
 30
0.0
 40
10.0
100
AcDbArc
 50
194.4775032562587
 51
201.5224884217245
  0
ARC
  5
2B3
330
22
100
AcDbEntity
  8
0
  6
Continuous
 62
     7
100
AcDbCircle
 10
-457.4400939941406
 20
124.2422714233398
 30
0.0
 40
2.0
100
AcDbArc
 50
152.9366343685983
 51
234.0000729922976
  0
ARC
  5
2B4
330
22
100
AcDbEntity
  8
0
  6
Continuous
 62
     7
100
AcDbCircle
 10
-409.2619934082031
 20
124.2422714233398
 30
0.0
 40
2.0
100
AcDbArc
 50
305.9999270077038
 51
27.0633656314017
  0
ARC
  5
2B5
330
22
100
AcDbEntity
  8
0
  6
Continuous
 62
     7
100
AcDbCircle
 10
-433.3510437011718
 20
103.0323486328125
 30
0.0
 40
10.0
100
AcDbArc
 50
338.4775115782769
 51
345.5224967437428
  0
ARC
  5
2B6
330
22
100
AcDbEntity
  8
0
  6
Continuous
 62
     7
100
AcDbCircle
 10
-444.970001220703
 20
100.032356262207
 30
0.0
 40
2.0
100
AcDbArc
 50
14.47750325625797
 51
90.00000000000019
  0
ARC
  5
2B7
330
22
100
AcDbEntity
  8
0
  6
Continuous
 62
     7
100
AcDbCircle
 10
-433.3510437011718
 20
103.0323486328125
 30
0.0
 40
10.0
100
AcDbArc
 50
122.4775422103119
 51
129.5224281129066
  0
ARC
  5
2B8
330
22
100
AcDbEntity
  8
0
  6
Continuous
 62
     7
100
AcDbCircle
 10
-440.9876098632813
 20
112.2888488769531
 30
0.0
 40
2.0
100
AcDbArc
 50
234.0000729922976
 51
309.5226186264762
  0
ARC
  5
2B9
330
22
100
AcDbEntity
  8
0
  6
Continuous
 62
     7
100
AcDbCircle
 10
-433.3510437011718
 20
103.0323486328125
 30
0.0
 40
10.0
100
AcDbArc
 50
50.47754406884499
 51
57.52245778968815
  0
ARC
  5
2BA
330
22
100
AcDbEntity
  8
0
  6
Continuous
 62
     7
100
AcDbCircle
 10
-439.7946472167968
 20
113.1555786132813
 30
0.0
 40
2.0
100
AcDbArc
 50
302.4768582922232
 51
18.00012902339873
  0
ARC
  5
2BB
330
22
100
AcDbEntity
  8
0
  6
Continuous
 62
     7
100
AcDbCircle
 10
-426.9074096679688
 20
113.1555709838867
 30
0.0
 40
2.0
100
AcDbArc
 50
162.0001411387616
 51
237.5222868110172
  0
ARC
  5
2BC
330
22
100
AcDbEntity
  8
0
  6
Continuous
 62
     7
100
AcDbCircle
 10
-401.3957214355468
 20
100.0323486328125
 30
0.0
 40
2.0
100
AcDbArc
 50
8.936561680969663
 51
90.00000000000019
  0
ARC
  5
2BD
330
22
100
AcDbEntity
  8
0
  6
Continuous
 62
     7
100
AcDbCircle
 10
-425.7144775390624
 20
112.2888488769531
 30
0.0
 40
2.0
100
AcDbArc
 50
230.4775204647301
 51
305.9999270077038
  0
ARC
  5
2BE
330
22
100
AcDbEntity
  8
0
  6
Continuous
 62
     7
100
AcDbCircle
 10
-421.7320861816406
 20
100.0323486328125
 30
0.0
 40
2.0
100
AcDbArc
 50
90.00000000000019
 51
165.522496743742
  0
CIRCLE
  5
2BF
330
22
100
AcDbEntity
  8
0
  6
Continuous
 62
     7
100
AcDbCircle
 10
-432.8891601562499
 20
103.3679351806641
 30
0.0
 40
5.5
  0
CIRCLE
  5
2C0
330
22
100
AcDbEntity
  8
0
  6
Continuous
 62
     7
100
AcDbCircle
 10
-432.8891601562499
 20
103.3679351806641
 30
0.0
 40
5.0
  0
ARC
  5
2C1
330
22
100
AcDbEntity
  8
0
  6
Continuous
 62
     7
100
AcDbCircle
 10
-422.187774658203
 20
98.62995147705078
 30
0.0
 40
2.0
100
AcDbArc
 50
158.477342616818
 51
233.9999445221343
  0
ARC
  5
2C2
330
22
100
AcDbEntity
  8
0
  6
Continuous
 62
     7
100
AcDbCircle
 10
-444.5143127441406
 20
98.62995910644531
 30
0.0
 40
2.0
100
AcDbArc
 50
305.9999270077038
 51
21.52265738318204
  0
ARC
  5
2C3
330
22
100
AcDbEntity
  8
0
  6
Continuous
 62
     7
100
AcDbCircle
 10
-465.3063659667968
 20
100.032356262207
 30
0.0
 40
2.0
100
AcDbArc
 50
90.00000000000019
 51
171.0634383190304
  0
ARC
  5
2C4
330
22
100
AcDbEntity
  8
0
  6
Continuous
 62
     7
100
AcDbCircle
 10
-432.61376953125
 20
91.05502319335938
 30
0.0
 40
2.0
100
AcDbArc
 50
17.99985886123844
 51
93.52200379441617
  0
ARC
  5
2C5
330
22
100
AcDbEntity
  8
0
  6
Continuous
 62
     7
100
AcDbCircle
 10
-416.7075500488281
 20
97.62455749511721
 30
0.0
 40
17.5
100
AcDbArc
 50
315.0633388786699
 51
8.936598392159748
  0
ARC
  5
2C6
330
22
100
AcDbEntity
  8
0
  6
Continuous
 62
     7
100
AcDbCircle
 10
-449.9945373535156
 20
97.62455749511721
 30
0.0
 40
17.5
100
AcDbArc
 50
171.0633769320916
 51
224.9366611213317
  0
ARC
  5
2C7
330
22
100
AcDbEntity
  8
0
  6
Continuous
 62
     7
100
AcDbCircle
 10
-405.7352905273438
 20
86.67652893066406
 30
0.0
 40
2.0
100
AcDbArc
 50
234.0000729922976
 51
315.0633655584535
  0
ARC
  5
2C8
330
22
100
AcDbEntity
  8
0
  6
Continuous
 62
     7
100
AcDbCircle
 10
-460.966796875
 20
86.67652893066406
 30
0.0
 40
2.0
100
AcDbArc
 50
224.9366344415479
 51
306.0000554778671
  0
ARC
  5
2C9
330
22
100
AcDbEntity
  8
0
  6
Continuous
 62
     7
100
AcDbCircle
 10
-443.4713439941406
 20
134.1794586181641
 30
0.0
 40
6.5
100
AcDbArc
 50
204.1339753054623
 51
267.3326654418476
  0
ARC
  5
2CA
330
22
100
AcDbEntity
  8
0
  6
Continuous
 62
     7
100
AcDbCircle
 10
-443.8669128417968
 20
125.6886672973633
 30
0.0
 40
2.0
100
AcDbArc
 50
17.99985886123844
 51
87.33253108540637
  0
ARC
  5
2CB
330
22
100
AcDbEntity
  8
0
  6
Continuous
 62
     7
100
AcDbCircle
 10
-451.2283630371094
 20
130.7040405273438
 30
0.0
 40
2.0
100
AcDbArc
 50
24.13434552745152
 51
119.3239165189763
  0
CIRCLE
  5
2CC
330
22
100
AcDbEntity
  8
0
  6
Continuous
 62
     7
100
AcDbCircle
 10
-423.2307434082031
 20
134.1794586181641
 30
0.0
 40
4.75
  0
ARC
  5
2CD
330
22
100
AcDbEntity
  8
0
  6
Continuous
 62
     7
100
AcDbCircle
 10
-422.8351745605468
 20
125.6886672973633
 30
0.0
 40
2.0
100
AcDbArc
 50
92.66746891459364
 51
162.0000788466785
  0
ARC
  5
2CE
330
22
100
AcDbEntity
  8
0
  6
Continuous
 62
     7
100
AcDbCircle
 10
-433.3510437011718
 20
103.032356262207
 30
0.0
 40
30.00008010864258
100
AcDbArc
 50
79.08408701182105
 51
107.9615922440816
  0
ARC
  5
2CF
330
22
100
AcDbEntity
  8
0
  6
Continuous
 62
     7
100
AcDbCircle
 10
-433.3510437011718
 20
103.032356262207
 30
0.0
 40
27.50003814697266
100
AcDbArc
 50
71.96160251471105
 51
108.038397485289
  0
ARC
  5
2D0
330
22
100
AcDbEntity
  8
0
  6
Continuous
 62
     7
100
AcDbCircle
 10
-423.0647888183593
 20
117.1901473999023
 30
0.0
 40
17.5
100
AcDbArc
 50
27.06339343627084
 51
60.67599025116239
  0
ARC
  5
2D1
330
22
100
AcDbEntity
  8
0
  6
Continuous
 62
     7
100
AcDbCircle
 10
-443.4713439941406
 20
134.1794586181641
 30
0.0
 40
5.25
100
AcDbArc
 50
107.7219087617213
 51
287.7987999060863
  0
ARC
  5
2D2
330
22
100
AcDbEntity
  8
0
  6
Continuous
 62
     7
100
AcDbCircle
 10
-423.2307434082031
 20
134.1794586181641
 30
0.0
 40
5.25
100
AcDbArc
 50
252.2012000939152
 51
71.7219793548702
  0
ARC
  5
2D3
330
22
100
AcDbEntity
  8
0
  6
Continuous
 62
     7
100
AcDbCircle
 10
-415.4736938476562
 20
130.7040405273438
 30
0.0
 40
2.0
100
AcDbArc
 50
60.67608348102377
 51
155.8664108591419
  0
ARC
  5
2D4
330
22
100
AcDbEntity
  8
0
  6
Continuous
 62
     7
100
AcDbCircle
 10
-423.2307434082031
 20
134.1794586181641
 30
0.0
 40
6.5
100
AcDbArc
 50
272.6673345581538
 51
335.8659019491977
  0
ARC
  5
2D5
330
22
100
AcDbEntity
  8
0
  6
Continuous
 62
     7
100
AcDbCircle
 10
-443.6372680664063
 20
117.1901473999023
 30
0.0
 40
17.5
100
AcDbArc
 50
119.3240097488376
 51
152.9366520230429
  0
ARC
  5
2D6
330
22
100
AcDbEntity
  8
0
  6
Continuous
 62
     7
100
AcDbCircle
 10
-443.4713439941406
 20
134.1794586181641
 30
0.0
 40
2.75
100
AcDbArc
 50
107.5039642931552
 51
288.4188635399335
  0
LWPOLYLINE
  5
2D7
330
22
100
AcDbEntity
  8
0
  6
Continuous
 62
     7
100
AcDbPolyline
 90
       17
 70
     0
 43
0.0
 10
-290.9337768554688
 20
309.429443359375
 42
0.0491268497694673
 10
-291.3032961740088
 20
309.3285660814919
 42
0.0491268497694673
 10
-291.6586150723662
 20
309.0298109050593
 42
0.0491268497694673
 10
-291.986078844542
 20
308.5446588239634
 42
0.0491268497694673
 10
-292.2731032414155
 20
307.8917539606044
 42
0.0491268497694673
 10
-292.50865807638
 20
307.0961870827279
 42
0.0491268497694673
 10
-292.6836911092285
 20
306.1885313792917
 42
0.0491268497694673
 10
-292.7914759186682
 20
305.2036675499597
 42
0.0491268497694673
 10
-292.8278703949188
 20
304.179443359375
 42
0.0491268497694673
 10
-292.7914759186681
 20
303.1552191687903
 42
0.0491268497694673
 10
-292.6836911092285
 20
302.1703553394582
 42
0.0491268497694673
 10
-292.50865807638
 20
301.262699636022
 42
0.0491268497694673
 10
-292.2731032414155
 20
300.4671327581456
 42
0.0491268497694673
 10
-291.9860788445419
 20
299.8142278947867
 42
0.0491268497694673
 10
-291.658615072366
 20
299.3290758136907
 42
0.0491268497694673
 10
-291.3032961740086
 20
299.030320637258
 42
0.0491268497694673
 10
-290.9337768554687
 20
298.929443359375
 42
-1.0
  0
TEXT
  5
2EA
330
22
100
AcDbEntity
  8
0
  6
Continuous
 62
     7
100
AcDbText
 10
-234.0295038223267
 20
145.8001251220703
 30
0.0
 40
7.0
  1
ＤＬ－ＳＵＣ－４０
 41
0.8448610808647003
100
AcDbText
  0
TEXT
  5
2EB
330
22
100
AcDbEntity
  8
0
  6
Continuous
 62
     7
100
AcDbText
 10
-552.3399286270141
 20
333.4527282714844
 30
0.0
 40
7.0
  1
　全　開　時　　
 41
0.8454512837995997
100
AcDbText
  0
LINE
  5
2EC
330
22
100
AcDbEntity
  8
0
  6
Continuous
 62
     7
100
AcDbLine
 10
-553.3385953903198
 20
331.7027282714844
 30
0.0
 11
-553.3385953903198
 21
342.2027282714844
 31
0.0
  0
LINE
  5
2ED
330
22
100
AcDbEntity
  8
0
  6
Continuous
 62
     7
100
AcDbLine
 10
-497.4132566452026
 20
331.7027282714844
 30
0.0
 11
-497.4132566452026
 21
342.2027282714844
 31
0.0
  0
LINE
  5
2EE
330
22
100
AcDbEntity
  8
0
  6
Continuous
 62
     7
100
AcDbLine
 10
-553.3385953903198
 20
331.7027282714844
 30
0.0
 11
-497.4132566452026
 21
331.7027282714844
 31
0.0
  0
LINE
  5
2EF
330
22
100
AcDbEntity
  8
0
  6
Continuous
 62
     7
100
AcDbLine
 10
-553.3385953903198
 20
342.2027282714844
 30
0.0
 11
-497.4132566452026
 21
342.2027282714844
 31
0.0
  0
TEXT
  5
2F0
330
22
100
AcDbEntity
  8
0
  6
Continuous
 62
     7
100
AcDbText
 10
-552.3399286270141
 20
163.4527282714844
 30
0.0
 40
7.0
  1
　全　閉　時　　
 41
0.8454512837995997
100
AcDbText
  0
LINE
  5
2F1
330
22
100
AcDbEntity
  8
0
  6
Continuous
 62
     7
100
AcDbLine
 10
-553.3385953903198
 20
161.7027282714844
 30
0.0
 11
-553.3385953903198
 21
172.2027282714844
 31
0.0
  0
LINE
  5
2F2
330
22
100
AcDbEntity
  8
0
  6
Continuous
 62
     7
100
AcDbLine
 10
-497.4132566452026
 20
161.7027282714844
 30
0.0
 11
-497.4132566452026
 21
172.2027282714844
 31
0.0
  0
LINE
  5
2F3
330
22
100
AcDbEntity
  8
0
  6
Continuous
 62
     7
100
AcDbLine
 10
-553.3385953903198
 20
161.7027282714844
 30
0.0
 11
-497.4132566452026
 21
161.7027282714844
 31
0.0
  0
LINE
  5
2F4
330
22
100
AcDbEntity
  8
0
  6
Continuous
 62
     7
100
AcDbLine
 10
-553.3385953903198
 20
172.2027282714844
 30
0.0
 11
-497.4132566452026
 21
172.2027282714844
 31
0.0
  0
INSERT
  5
2F5
330
22
100
AcDbEntity
  8
0
  6
Continuous
 62
     7
100
AcDbBlockReference
  2
KOZU0001
 10
-130.3077239990234
 20
296.9765014648438
 30
0.0
  0
DIMENSION
  5
2F6
330
22
100
AcDbEntity
  8
0
  6
Continuous
 62
     7
100
AcDbDimension
  2
*D1
 10
-482.5789228270493
 20
214.7380858659944
 30
0.0
 11
-369.3659362792969
 21
347.7165222167969
 31
0.0
 70
     3
 71
     5
 42
-1.0
  3
DIMSTYLE1
100
AcDbDiametricDimension
 15
-382.7482866456069
 25
331.9978150129119
 35
0.0
 40
0.0
  0
DIMENSION
  5
2F7
330
22
100
AcDbEntity
  8
0
  6
Continuous
 62
     7
100
AcDbDimension
  2
*D2
 10
-476.4928161578698
 20
247.8930376173765
 30
0.0
 11
-347.5147705078125
 21
323.2468872070313
 31
0.0
 70
     3
 71
     5
 42
-1.0
  3
DIMSTYLE2
100
AcDbDiametricDimension
 15
-389.2855041546302
 25
298.8428632615297
 35
0.0
 40
0.0
  0
DIMENSION
  5
2F8
330
22
100
AcDbEntity
  8
0
  6
Continuous
 62
     7
100
AcDbDimension
  2
*D3
 10
-86.69379425048829
 20
301.3679504394531
 30
0.0
 11
-86.69379425048829
 21
273.3679504394531
 31
0.0
 71
     5
 42
-1.0
  3
DIMSTYLE3
100
AcDbAlignedDimension
 13
-121.4337692260742
 23
245.3679351806641
 33
0.0
 14
-121.4337692260742
 24
301.3679504394531
 34
0.0
 50
90.0
100
AcDbRotatedDimension
  0
DIMENSION
  5
2F9
330
22
100
AcDbEntity
  8
0
  6
Continuous
 62
     7
100
AcDbDimension
  2
*D4
 10
-120.9337692260742
 20
173.9212799072266
 30
0.0
 11
-149.9337768554688
 21
173.9212799072266
 31
0.0
 71
     5
 42
-1.0
  3
DIMSTYLE4
100
AcDbAlignedDimension
 13
-178.9337768554688
 23
247.3679351806641
 33
0.0
 14
-120.9337692260742
 24
246.3679351806641
 34
0.0
100
AcDbRotatedDimension
  0
DIMENSION
  5
2FA
330
22
100
AcDbEntity
  8
0
  6
Continuous
 62
     7
100
AcDbDimension
  2
*D5
 10
-131.4337768554687
 20
222.0244598388672
 30
0.0
 11
-138.4337768554688
 21
222.0244598388672
 31
0.0
 71
     5
 42
-1.0
  3
DIMSTYLE5
100
AcDbAlignedDimension
 13
-145.4337768554688
 23
240.3679351806641
 33
0.0
 14
-131.4337768554687
 24
242.9483032226563
 34
0.0
100
AcDbRotatedDimension
  0
DIMENSION
  5
2FB
330
22
100
AcDbEntity
  8
0
  6
Continuous
 62
     7
100
AcDbDimension
  2
*D6
 10
-123.8288650512695
 20
231.3679351806641
 30
0.0
 11
-123.8288650512695
 21
238.3679351806641
 31
0.0
 71
     5
 42
-1.0
  3
DIMSTYLE6
100
AcDbAlignedDimension
 13
-121.9337692260742
 23
245.3679351806641
 33
0.0
 14
-143.8732757568359
 24
231.3679351806641
 34
0.0
 50
90.0
100
AcDbRotatedDimension
  0
INSERT
  5
2FC
330
22
100
AcDbEntity
  8
0
  6
Continuous
 62
     7
100
AcDbBlockReference
  2
KOZU0002
 10
-140.3121185302734
 20
242.3341979980469
 30
0.0
  0
DIMENSION
  5
2FD
330
22
100
AcDbEntity
  8
0
  6
Continuous
 62
     7
100
AcDbDimension
  2
*D7
 10
-148.9337768554688
 20
389.2662963867188
 30
0.0
 11
-219.9337768554688
 21
389.2662963867188
 31
0.0
 71
     5
 42
-1.0
  3
DIMSTYLE7
100
AcDbAlignedDimension
 13
-290.9337768554688
 23
323.3679504394531
 33
0.0
 14
-148.9337768554688
 24
348.3679504394531
 34
0.0
100
AcDbRotatedDimension
  0
DIMENSION
  5
2FE
330
22
100
AcDbEntity
  8
0
  6
Continuous
 62
     7
100
AcDbDimension
  2
*D8
 10
-145.4337768554688
 20
389.2662963867188
 30
0.0
 11
-133.3388977050781
 21
389.2662963867188
 31
0.0
 71
     5
 42
-1.0
  3
DIMSTYLE8
100
AcDbAlignedDimension
 13
-148.9337768554688
 23
391.5522766113281
 33
0.0
 14
-145.4337768554688
 24
349.8679504394531
 34
0.0
100
AcDbRotatedDimension
  0
DIMENSION
  5
2FF
330
22
100
AcDbEntity
  8
0
  6
Continuous
 62
     7
100
AcDbDimension
  2
*D9
 10
-178.9337768554688
 20
377.5957946777344
 30
0.0
 11
-163.9337768554688
 21
377.5957946777344
 31
0.0
 71
     5
 42
-1.0
  3
DIMSTYLE9
100
AcDbAlignedDimension
 13
-148.9337768554688
 23
391.5522766113281
 33
0.0
 14
-178.9337768554688
 24
299.3679504394531
 34
0.0
100
AcDbRotatedDimension
  0
DIMENSION
  5
300
330
22
100
AcDbEntity
  8
0
  6
Continuous
 62
     7
100
AcDbDimension
  2
*D10
 10
-245.9337768554688
 20
377.5957946777344
 30
0.0
 11
-268.4337768554688
 21
377.5957946777344
 31
0.0
 71
     5
 42
-1.0
  3
DIMSTYLE10
100
AcDbAlignedDimension
 13
-290.9337768554688
 23
391.5522766113281
 33
0.0
 14
-245.9337768554688
 24
300.3679504394531
 34
0.0
100
AcDbRotatedDimension
  0
DIMENSION
  5
301
330
22
100
AcDbEntity
  8
0
  6
Continuous
 62
     7
100
AcDbDimension
  2
*D11
 10
-472.8962421833564
 20
261.312458576573
 30
0.0
 11
-343.2763671875
 21
300.15234375
 31
0.0
 70
     3
 71
     5
 42
-1.0
  3
DIMSTYLE11
100
AcDbDiametricDimension
 15
-392.4309672892999
 25
285.4234423023333
 35
0.0
 40
0.0
  0
DIMENSION
  5
302
330
22
100
AcDbEntity
  8
0
  6
Continuous
 62
     7
100
AcDbDimension
  2
*D12
 10
-158.9337768554688
 20
278.7644348144531
 30
0.0
 11
-208.9337768554688
 21
278.7644348144531
 31
0.0
 71
     5
 42
-1.0
  3
DIMSTYLE12
100
AcDbAlignedDimension
 13
-258.9337768554688
 23
273.3679504394531
 33
0.0
 14
-158.9337768554688
 24
273.3679504394531
 34
0.0
100
AcDbRotatedDimension
  0
DIMENSION
  5
303
330
22
100
AcDbEntity
  8
0
  6
Continuous
 62
     7
100
AcDbDimension
  2
*D13
 10
-208.9337768554688
 20
286.25390625
 30
0.0
 11
-183.9337768554688
 21
286.25390625
 31
0.0
 71
     5
 42
-1.0
  3
DIMSTYLE13
100
AcDbAlignedDimension
 13
-158.9337768554688
 23
295.8679504394531
 33
0.0
 14
-208.9337768554688
 24
295.8679504394531
 34
0.0
100
AcDbRotatedDimension
  0
ENDSEC
  0
SECTION
  2
OBJECTS
  0
DICTIONARY
  5
C
330
0
100
AcDbDictionary
281
     1
  3
ACAD_COLOR
350
1B
  3
ACAD_GROUP
350
D
  3
ACAD_LAYOUT
350
19
  3
ACAD_MATERIAL
350
1A
  3
ACAD_MLINESTYLE
350
16
  3
ACAD_PLOTSETTINGS
350
18
  3
ACAD_PLOTSTYLENAME
350
E
  3
ACAD_TABLESTYLE
350
1C
  3
AcDbVariableDictionary
350
30F
  0
DICTIONARY
  5
1B
102
{ACAD_REACTORS
330
C
102
}
330
C
100
AcDbDictionary
281
     1
  0
DICTIONARY
  5
D
102
{ACAD_REACTORS
330
C
102
}
330
C
100
AcDbDictionary
281
     1
  0
DICTIONARY
  5
19
102
{ACAD_REACTORS
330
C
102
}
330
C
100
AcDbDictionary
281
     1
  3
Model
350
25
  3
レイアウト1
350
21
  0
DICTIONARY
  5
1A
102
{ACAD_REACTORS
330
C
102
}
330
C
100
AcDbDictionary
281
     1
  0
DICTIONARY
  5
16
102
{ACAD_REACTORS
330
C
102
}
330
C
100
AcDbDictionary
281
     1
  3
Standard
350
17
  0
DICTIONARY
  5
18
102
{ACAD_REACTORS
330
C
102
}
330
C
100
AcDbDictionary
281
     1
  0
ACDBDICTIONARYWDFLT
  5
E
102
{ACAD_REACTORS
330
C
102
}
330
C
100
AcDbDictionary
281
     1
  3
Normal
350
F
100
AcDbDictionaryWithDefault
340
F
  0
DICTIONARY
  5
1C
102
{ACAD_REACTORS
330
C
102
}
330
C
100
AcDbDictionary
281
     1
  3
Standard
350
1D
  0
DICTIONARY
  5
30F
102
{ACAD_REACTORS
330
C
102
}
330
C
100
AcDbDictionary
281
     1
  3
CTABLESTYLE
350
310
  0
LAYOUT
  5
25
102
{ACAD_REACTORS
330
19
102
}
330
19
100
AcDbPlotSettings
  1

  2
PDF reDirect v2
  4
User66
  6

 40
3.174999952316284
 41
3.174999952316284
 42
3.17498779296875
 43
3.17498779296875
 44
420.0
 45
594.0
 46
0.0
 47
0.0
 48
0.0
 49
0.0
140
0.0
141
0.0
142
1.0
143
1.0
 70
 11952
 72
     1
 73
     1
 74
     2
  7
C:\Users\ck\AppData\Roaming\Autodesk\AutoCAD 2005\R16.1\jpn\Plot Styles\black.ctb
 75
    16
147
1.0
 76
     0
 77
     2
 78
   300
148
592.0
149
0.0
100
AcDbLayout
  1
Model
 70
     1
 71
     0
 10
0.0
 20
0.0
 11
12.0
 21
9.0
 12
0.0
 22
0.0
 32
0.0
 14
0.0
 24
0.0
 34
0.0
 15
0.0
 25
0.0
 35
0.0
146
0.0
 13
0.0
 23
0.0
 33
0.0
 16
1.0
 26
0.0
 36
0.0
 17
0.0
 27
1.0
 37
0.0
 76
     0
330
22
1001
ACAD_PSEXT
1000
PDF reDirect v2
1000
PDF reDirect Pro
1000
PDF_REDIRECT_PORT:
1000
PDF reDirect provided by EXP Systems
1070
     0
  0
LAYOUT
  5
21
102
{ACAD_REACTORS
330
19
102
}
330
19
100
AcDbPlotSettings
  1

  2
PDF reDirect v2
  4

  6

 40
0.0
 41
0.0
 42
0.0
 43
0.0
 44
0.0
 45
0.0
 46
0.0
 47
0.0
 48
0.0
 49
0.0
140
0.0
141
0.0
142
1.0
143
1.0
 70
   688
 72
     0
 73
     0
 74
     5
  7
C:\Users\ck\AppData\Roaming\Autodesk\AutoCAD 2005\R16.1\jpn\Plot Styles\black.ctb
 75
    16
147
1.0
 76
     0
 77
     2
 78
   300
148
0.0
149
0.0
100
AcDbLayout
  1
レイアウト1
 70
     1
 71
     1
 10
-592.0
 20
0.0
 11
0.0
 21
418.0
 12
0.0
 22
0.0
 32
0.0
 14
1.000000000000000E+20
 24
1.000000000000000E+20
 34
1.000000000000000E+20
 15
-1.000000000000000E+20
 25
-1.000000000000000E+20
 35
-1.000000000000000E+20
146
0.0
 13
0.0
 23
0.0
 33
0.0
 16
1.0
 26
0.0
 36
0.0
 17
0.0
 27
1.0
 37
0.0
 76
     0
330
1E
  0
MLINESTYLE
  5
17
102
{ACAD_REACTORS
330
16
102
}
330
16
100
AcDbMlineStyle
  2
STANDARD
 70
     0
  3

 62
   256
 51
90.0
 52
90.0
 71
     2
 49
0.5
 62
   256
  6
BYLAYER
 49
-0.5
 62
   256
  6
BYLAYER
  0
ACDBPLACEHOLDER
  5
F
102
{ACAD_REACTORS
330
E
102
}
330
E
  0
TABLESTYLE
  5
1D
102
{ACAD_REACTORS
330
1C
102
}
330
1C
100
AcDbTableStyle
  3
Standard
 70
     0
 71
     0
 40
0.06
 41
0.06
280
     0
281
     0
  7
STANDARD
140
0.18
170
     2
 62
     0
 63
     7
283
     0
274
    -2
284
     1
 64
     0
275
    -2
285
     1
 65
     0
276
    -2
286
     1
 66
     0
277
    -2
287
     1
 67
     0
278
    -2
288
     1
 68
     0
279
    -2
289
     1
 69
     0
  7
STANDARD
140
0.25
170
     5
 62
     0
 63
     7
283
     0
274
    -2
284
     1
 64
     0
275
    -2
285
     1
 65
     0
276
    -2
286
     1
 66
     0
277
    -2
287
     1
 67
     0
278
    -2
288
     1
 68
     0
279
    -2
289
     1
 69
     0
  7
STANDARD
140
0.18
170
     5
 62
     0
 63
     7
283
     0
274
    -2
284
     1
 64
     0
275
    -2
285
     1
 65
     0
276
    -2
286
     1
 66
     0
277
    -2
287
     1
 67
     0
278
    -2
288
     1
 68
     0
279
    -2
289
     1
 69
     0
  0
DICTIONARYVAR
  5
310
102
{ACAD_REACTORS
330
30F
102
}
330
30F
100
DictionaryVariables
280
     0
  1
STANDARD
  0
ENDSEC
  0
EOF
