  0
SECTION
  2
HEADER
  9
$ACADVER
  1
AC1018
  9
$ACADMAINTVER
 70
    39
  9
$DWGCODEPAGE
  3
ANSI_932
  9
$INSBASE
 10
0.0
 20
0.0
 30
0.0
  9
$EXTMIN
 10
-572.0373054750232
 20
20.90359637106713
 30
-0.0015258207003583
  9
$EXTMAX
 10
-279.5087721756531
 20
577.400941301604
 30
0.0000000349246037
  9
$LIMMIN
 10
-839.0
 20
0.0
  9
$LIMMAX
 10
0.0
 20
591.0
  9
$ORTHOMODE
 70
     0
  9
$REGENMODE
 70
     1
  9
$FILLMODE
 70
     1
  9
$QTEXTMODE
 70
     0
  9
$MIRRTEXT
 70
     0
  9
$LTSCALE
 40
1.0
  9
$ATTMODE
 70
     1
  9
$TEXTSIZE
 40
0.2
  9
$TRACEWID
 40
0.05
  9
$TEXTSTYLE
  7
STANDARD
  9
$CLAYER
  8
0
  9
$CELTYPE
  6
CONTINUOUS
  9
$CECOLOR
 62
   256
  9
$CELTSCALE
 40
1.0
  9
$DISPSILH
 70
     0
  9
$DIMSCALE
 40
1.0
  9
$DIMASZ
 40
1.0
  9
$DIMEXO
 40
2.54
  9
$DIMDLI
 40
0.38
  9
$DIMRND
 40
0.0
  9
$DIMDLE
 40
0.0
  9
$DIMEXE
 40
2.54
  9
$DIMTP
 40
0.0
  9
$DIMTM
 40
0.0
  9
$DIMTXT
 40
3.0
  9
$DIMCEN
 40
0.09
  9
$DIMTSZ
 40
0.0
  9
$DIMTOL
 70
     0
  9
$DIMLIM
 70
     0
  9
$DIMTIH
 70
     0
  9
$DIMTOH
 70
     0
  9
$DIMSE1
 70
     0
  9
$DIMSE2
 70
     0
  9
$DIMTAD
 70
     1
  9
$DIMZIN
 70
     0
  9
$DIMBLK
  1

  9
$DIMASO
 70
     1
  9
$DIMSHO
 70
     0
  9
$DIMPOST
  1

  9
$DIMAPOST
  1

  9
$DIMALT
 70
     0
  9
$DIMALTD
 70
     2
  9
$DIMALTF
 40
25.4
  9
$DIMLFAC
 40
1.0
  9
$DIMTOFL
 70
     0
  9
$DIMTVP
 40
1.0
  9
$DIMTIX
 70
     0
  9
$DIMSOXD
 70
     0
  9
$DIMSAH
 70
     1
  9
$DIMBLK1
  1

  9
$DIMBLK2
  1

  9
$DIMSTYLE
  2
DIMSTYLE1
  9
$DIMCLRD
 70
     0
  9
$DIMCLRE
 70
     0
  9
$DIMCLRT
 70
     0
  9
$DIMTFAC
 40
1.0
  9
$DIMGAP
 40
1.5
  9
$DIMJUST
 70
     0
  9
$DIMSD1
 70
     0
  9
$DIMSD2
 70
     0
  9
$DIMTOLJ
 70
     1
  9
$DIMTZIN
 70
     0
  9
$DIMALTZ
 70
     0
  9
$DIMALTTZ
 70
     0
  9
$DIMUPT
 70
     0
  9
$DIMDEC
 70
     4
  9
$DIMTDEC
 70
     4
  9
$DIMALTU
 70
     2
  9
$DIMALTTD
 70
     2
  9
$DIMTXSTY
  7
STANDARD
  9
$DIMAUNIT
 70
     0
  9
$DIMADEC
 70
     0
  9
$DIMALTRND
 40
0.0
  9
$DIMAZIN
 70
     0
  9
$DIMDSEP
 70
    46
  9
$DIMATFIT
 70
     3
  9
$DIMFRAC
 70
     0
  9
$DIMLDRBLK
  1

  9
$DIMLUNIT
 70
     2
  9
$DIMLWD
 70
    -2
  9
$DIMLWE
 70
    -2
  9
$DIMTMOVE
 70
     0
  9
$LUNITS
 70
     2
  9
$LUPREC
 70
     4
  9
$SKETCHINC
 40
0.1
  9
$FILLETRAD
 40
0.0
  9
$AUNITS
 70
     0
  9
$AUPREC
 70
     0
  9
$MENU
  1
.
  9
$ELEVATION
 40
0.0
  9
$PELEVATION
 40
0.0
  9
$THICKNESS
 40
0.0
  9
$LIMCHECK
 70
     0
  9
$CHAMFERA
 40
0.0
  9
$CHAMFERB
 40
0.0
  9
$CHAMFERC
 40
0.0
  9
$CHAMFERD
 40
0.0
  9
$SKPOLY
 70
     0
  9
$TDCREATE
 40
2457706.820303438
  9
$TDUCREATE
 40
2457706.445303437
  9
$TDUPDATE
 40
2457706.821111841
  9
$TDUUPDATE
 40
2457706.446111840
  9
$TDINDWG
 40
0.0008095602
  9
$TDUSRTIMER
 40
0.0008095602
  9
$USRTIMER
 70
     1
  9
$ANGBASE
 50
0.0
  9
$ANGDIR
 70
     0
  9
$PDMODE
 70
     0
  9
$PDSIZE
 40
0.0
  9
$PLINEWID
 40
0.0
  9
$SPLFRAME
 70
     0
  9
$SPLINETYPE
 70
     6
  9
$SPLINESEGS
 70
     8
  9
$HANDSEED
  5
5A0
  9
$SURFTAB1
 70
     6
  9
$SURFTAB2
 70
     6
  9
$SURFTYPE
 70
     6
  9
$SURFU
 70
     6
  9
$SURFV
 70
     6
  9
$UCSBASE
  2

  9
$UCSNAME
  2

  9
$UCSORG
 10
0.0
 20
0.0
 30
0.0
  9
$UCSXDIR
 10
1.0
 20
0.0
 30
0.0
  9
$UCSYDIR
 10
0.0
 20
1.0
 30
0.0
  9
$UCSORTHOREF
  2

  9
$UCSORTHOVIEW
 70
     0
  9
$UCSORGTOP
 10
0.0
 20
0.0
 30
0.0
  9
$UCSORGBOTTOM
 10
0.0
 20
0.0
 30
0.0
  9
$UCSORGLEFT
 10
0.0
 20
0.0
 30
0.0
  9
$UCSORGRIGHT
 10
0.0
 20
0.0
 30
0.0
  9
$UCSORGFRONT
 10
0.0
 20
0.0
 30
0.0
  9
$UCSORGBACK
 10
0.0
 20
0.0
 30
0.0
  9
$PUCSBASE
  2

  9
$PUCSNAME
  2

  9
$PUCSORG
 10
0.0
 20
0.0
 30
0.0
  9
$PUCSXDIR
 10
1.0
 20
0.0
 30
0.0
  9
$PUCSYDIR
 10
0.0
 20
1.0
 30
0.0
  9
$PUCSORTHOREF
  2

  9
$PUCSORTHOVIEW
 70
     0
  9
$PUCSORGTOP
 10
0.0
 20
0.0
 30
0.0
  9
$PUCSORGBOTTOM
 10
0.0
 20
0.0
 30
0.0
  9
$PUCSORGLEFT
 10
0.0
 20
0.0
 30
0.0
  9
$PUCSORGRIGHT
 10
0.0
 20
0.0
 30
0.0
  9
$PUCSORGFRONT
 10
0.0
 20
0.0
 30
0.0
  9
$PUCSORGBACK
 10
0.0
 20
0.0
 30
0.0
  9
$USERI1
 70
     0
  9
$USERI2
 70
     0
  9
$USERI3
 70
     0
  9
$USERI4
 70
     0
  9
$USERI5
 70
     0
  9
$USERR1
 40
0.0
  9
$USERR2
 40
0.0
  9
$USERR3
 40
0.0
  9
$USERR4
 40
0.0
  9
$USERR5
 40
0.0
  9
$WORLDVIEW
 70
     1
  9
$SHADEDGE
 70
     3
  9
$SHADEDIF
 70
    70
  9
$TILEMODE
 70
     1
  9
$MAXACTVP
 70
    64
  9
$PINSBASE
 10
0.0
 20
0.0
 30
0.0
  9
$PLIMCHECK
 70
     0
  9
$PEXTMIN
 10
1.000000000000000E+20
 20
1.000000000000000E+20
 30
1.000000000000000E+20
  9
$PEXTMAX
 10
-1.000000000000000E+20
 20
-1.000000000000000E+20
 30
-1.000000000000000E+20
  9
$PLIMMIN
 10
-839.0
 20
0.0
  9
$PLIMMAX
 10
0.0
 20
591.0
  9
$UNITMODE
 70
     0
  9
$VISRETAIN
 70
     1
  9
$PLINEGEN
 70
     0
  9
$PSLTSCALE
 70
     1
  9
$TREEDEPTH
 70
  3020
  9
$CMLSTYLE
  2
Standard
  9
$CMLJUST
 70
     0
  9
$CMLSCALE
 40
1.0
  9
$PROXYGRAPHICS
 70
     1
  9
$MEASUREMENT
 70
     0
  9
$CELWEIGHT
370
    -1
  9
$ENDCAPS
280
     0
  9
$JOINSTYLE
280
     0
  9
$LWDISPLAY
290
     0
  9
$INSUNITS
 70
     0
  9
$HYPERLINKBASE
  1

  9
$STYLESHEET
  1

  9
$XEDIT
290
     1
  9
$CEPSNTYPE
380
     0
  9
$PSTYLEMODE
290
     1
  9
$FINGERPRINTGUID
  2
{D023517A-7E5B-457F-B4A1-650AC7349420}
  9
$VERSIONGUID
  2
{46F79B37-7067-47E3-8BF2-A0AFC1EF8528}
  9
$EXTNAMES
290
     1
  9
$PSVPSCALE
 40
0.0
  9
$OLESTARTUP
290
     0
  9
$SORTENTS
280
   127
  9
$INDEXCTL
280
     0
  9
$HIDETEXT
280
     0
  9
$XCLIPFRAME
290
     0
  9
$HALOGAP
280
     0
  9
$OBSCOLOR
 70
   257
  9
$OBSLTYPE
280
     0
  9
$INTERSECTIONDISPLAY
280
     0
  9
$INTERSECTIONCOLOR
 70
   257
  9
$DIMASSOC
280
     1
  9
$PROJECTNAME
  1

  0
ENDSEC
  0
SECTION
  2
CLASSES
  0
CLASS
  1
ACDBDICTIONARYWDFLT
  2
AcDbDictionaryWithDefault
  3
ObjectDBX Classes
 90
        0
 91
        1
280
     0
281
     0
  0
CLASS
  1
TABLESTYLE
  2
AcDbTableStyle
  3
ObjectDBX Classes
 90
     2047
 91
        1
280
     0
281
     0
  0
CLASS
  1
DICTIONARYVAR
  2
AcDbDictionaryVar
  3
ObjectDBX Classes
 90
        0
 91
        1
280
     0
281
     0
  0
ENDSEC
  0
SECTION
  2
TABLES
  0
TABLE
  2
VPORT
  5
8
330
0
100
AcDbSymbolTable
 70
     2
  0
VPORT
  5
59F
330
8
100
AcDbSymbolTableRecord
100
AcDbViewportTableRecord
  2
*Active
 70
     0
 10
0.0
 20
0.0
 11
1.0
 21
1.0
 12
-419.5
 22
295.5
 13
0.0
 23
0.0
 14
1.0
 24
1.0
 15
0.0
 25
0.0
 16
0.0
 26
0.0
 36
1.0
 17
0.0
 27
0.0
 37
0.0
 40
595.6657894736842
 41
1.56258234519104
 42
50.0
 43
0.0
 44
0.0
 50
0.0
 51
0.0
 71
     0
 72
   100
 73
     1
 74
     1
 75
     0
 76
     0
 77
     0
 78
     0
281
     0
 65
     1
110
0.0
120
0.0
130
0.0
111
1.0
121
0.0
131
0.0
112
0.0
122
1.0
132
0.0
 79
     0
146
0.0
  0
ENDTAB
  0
TABLE
  2
LTYPE
  5
5
330
0
100
AcDbSymbolTable
 70
     6
  0
LTYPE
  5
13
330
5
100
AcDbSymbolTableRecord
100
AcDbLinetypeTableRecord
  2
ByBlock
 70
     0
  3

 72
    65
 73
     0
 40
0.0
  0
LTYPE
  5
14
330
5
100
AcDbSymbolTableRecord
100
AcDbLinetypeTableRecord
  2
ByLayer
 70
     0
  3

 72
    65
 73
     0
 40
0.0
  0
LTYPE
  5
15
330
5
100
AcDbSymbolTableRecord
100
AcDbLinetypeTableRecord
  2
CONTINUOUS
 70
     0
  3
Solid line
 72
    65
 73
     0
 40
0.0
  0
LTYPE
  5
26
330
5
100
AcDbSymbolTableRecord
100
AcDbLinetypeTableRecord
  2
DASHED
 70
     0
  3
__ __ __ __ __ __ __ __ __ __ __ __ __ __ __
 72
    65
 73
     2
 40
3.5
 49
2.0
 74
     0
 49
-1.5
 74
     0
  0
LTYPE
  5
27
330
5
100
AcDbSymbolTableRecord
100
AcDbLinetypeTableRecord
  2
CENTER
 70
     0
  3
____ _ ____ _ ____ _ ____ _ ____ _ ____ _ ____
 72
    65
 73
     4
 40
17.5
 49
13.0
 74
     0
 49
-1.5
 74
     0
 49
1.5
 74
     0
 49
-1.5
 74
     0
  0
LTYPE
  5
28
330
5
100
AcDbSymbolTableRecord
100
AcDbLinetypeTableRecord
  2
PHANTOM
 70
     0
  3
_____ _ _ _____ _ _ _____ _ _ _____ _ _ ____  
 72
    65
 73
     6
 40
15.5
 49
8.0
 74
     0
 49
-1.5
 74
     0
 49
1.5
 74
     0
 49
-1.5
 74
     0
 49
1.5
 74
     0
 49
-1.5
 74
     0
  0
LTYPE
  5
29
330
5
100
AcDbSymbolTableRecord
100
AcDbLinetypeTableRecord
  2
DOT
 70
     0
  3
. . . . . . . . . . . . . . . . . . . . . . . .
 72
    65
 73
     2
 40
0.25
 49
0.0
 74
     0
 49
-0.25
 74
     0
  0
LTYPE
  5
2A
330
5
100
AcDbSymbolTableRecord
100
AcDbLinetypeTableRecord
  2
HIDDEN
 70
     0
  3
__ __ __ __ __ __ __ __ __ __ __ __ __ __ __
 72
    65
 73
     2
 40
3.5
 49
2.0
 74
     0
 49
-1.5
 74
     0
  0
ENDTAB
  0
TABLE
  2
LAYER
  5
2
330
0
100
AcDbSymbolTable
 70
     2
  0
LAYER
  5
10
330
2
100
AcDbSymbolTableRecord
100
AcDbLayerTableRecord
  2
0
 70
     0
 62
     7
  6
CONTINUOUS
370
    -3
390
F
  0
LAYER
  5
2B
330
2
100
AcDbSymbolTableRecord
100
AcDbLayerTableRecord
  2
DEFPOINTS
 70
     0
 62
     7
  6
CONTINUOUS
290
     0
370
    -3
390
F
  0
ENDTAB
  0
TABLE
  2
STYLE
  5
3
330
0
100
AcDbSymbolTable
 70
     2
  0
STYLE
  5
11
330
3
100
AcDbSymbolTableRecord
100
AcDbTextStyleTableRecord
  2
STANDARD
 70
     0
 40
0.0
 41
1.0
 50
0.0
 71
     0
 42
0.2
  3

  4

1001
ACAD
1000
MS Gothic
1071
    32817
  0
ENDTAB
  0
TABLE
  2
VIEW
  5
6
330
0
100
AcDbSymbolTable
 70
     0
  0
ENDTAB
  0
TABLE
  2
UCS
  5
7
330
0
100
AcDbSymbolTable
 70
     0
  0
ENDTAB
  0
TABLE
  2
APPID
  5
9
330
0
100
AcDbSymbolTable
 70
     2
  0
APPID
  5
12
330
9
100
AcDbSymbolTableRecord
100
AcDbRegAppTableRecord
  2
ACAD
 70
     0
  0
APPID
  5
594
330
9
100
AcDbSymbolTableRecord
100
AcDbRegAppTableRecord
  2
ACAD_PSEXT
 70
     0
  0
ENDTAB
  0
TABLE
  2
DIMSTYLE
  5
A
330
0
100
AcDbSymbolTable
 70
    16
100
AcDbDimStyleTable
 71
     1
340
2C
  0
DIMSTYLE
105
2C
102
{ACAD_REACTORS
330
581
102
}
330
A
100
AcDbSymbolTableRecord
100
AcDbDimStyleTableRecord
  2
DIMSTYLE1
 70
     0
 41
1.0
 42
2.54
 44
2.54
 73
     0
 74
     0
 77
     1
140
3.0
145
1.0
147
1.5
172
     1
173
     1
279
     2
340
11
  0
DIMSTYLE
105
2D
102
{ACAD_REACTORS
330
582
102
}
330
A
100
AcDbSymbolTableRecord
100
AcDbDimStyleTableRecord
  2
DIMSTYLE2
 70
     0
 41
1.0
 42
2.54
 44
2.54
 73
     0
 74
     0
 77
     1
140
3.0
145
1.0
147
1.5
172
     1
173
     1
279
     2
340
11
  0
DIMSTYLE
105
2E
102
{ACAD_REACTORS
330
583
102
}
330
A
100
AcDbSymbolTableRecord
100
AcDbDimStyleTableRecord
  2
DIMSTYLE3
 70
     0
 41
1.0
 42
2.54
 44
2.54
 73
     0
 74
     0
 77
     1
140
3.0
145
1.0
147
1.5
172
     1
173
     1
279
     2
340
11
  0
DIMSTYLE
105
2F
102
{ACAD_REACTORS
330
584
102
}
330
A
100
AcDbSymbolTableRecord
100
AcDbDimStyleTableRecord
  2
DIMSTYLE4
 70
     0
 41
1.0
 42
2.54
 44
2.54
 73
     0
 74
     0
 77
     1
140
3.0
145
1.0
147
1.5
172
     1
173
     1
279
     2
340
11
  0
DIMSTYLE
105
30
102
{ACAD_REACTORS
330
585
102
}
330
A
100
AcDbSymbolTableRecord
100
AcDbDimStyleTableRecord
  2
DIMSTYLE5
 70
     0
 41
1.0
 42
2.54
 44
2.54
 73
     0
 74
     0
 77
     1
140
3.0
145
1.0
147
1.5
172
     1
173
     1
279
     2
340
11
  0
DIMSTYLE
105
31
102
{ACAD_REACTORS
330
586
102
}
330
A
100
AcDbSymbolTableRecord
100
AcDbDimStyleTableRecord
  2
DIMSTYLE6
 70
     0
 41
1.0
 42
2.54
 44
2.54
 73
     0
 74
     0
 77
     1
140
3.0
145
1.0
147
1.5
172
     1
173
     1
279
     2
340
11
  0
DIMSTYLE
105
32
102
{ACAD_REACTORS
330
587
102
}
330
A
100
AcDbSymbolTableRecord
100
AcDbDimStyleTableRecord
  2
DIMSTYLE7
 70
     0
 41
1.0
 42
2.54
 44
2.54
 73
     0
 74
     0
 77
     1
140
3.0
145
1.0
147
1.5
172
     1
173
     1
279
     2
340
11
  0
DIMSTYLE
105
33
102
{ACAD_REACTORS
330
588
102
}
330
A
100
AcDbSymbolTableRecord
100
AcDbDimStyleTableRecord
  2
DIMSTYLE8
 70
     0
 41
1.0
 42
2.54
 44
2.54
 73
     0
 74
     0
 77
     1
140
3.0
145
1.0
147
1.5
172
     1
173
     1
279
     2
340
11
  0
DIMSTYLE
105
34
102
{ACAD_REACTORS
330
589
102
}
330
A
100
AcDbSymbolTableRecord
100
AcDbDimStyleTableRecord
  2
DIMSTYLE9
 70
     0
 41
1.0
 42
2.54
 44
2.54
 73
     0
 74
     0
 77
     1
140
3.0
145
1.0
147
1.5
172
     1
173
     1
279
     2
340
11
  0
DIMSTYLE
105
35
102
{ACAD_REACTORS
330
58A
102
}
330
A
100
AcDbSymbolTableRecord
100
AcDbDimStyleTableRecord
  2
DIMSTYLE10
 70
     0
 41
1.0
 42
2.54
 44
2.54
 73
     0
 74
     0
 77
     1
140
3.0
145
1.0
147
1.5
172
     1
173
     1
279
     2
340
11
  0
DIMSTYLE
105
36
102
{ACAD_REACTORS
330
58B
102
}
330
A
100
AcDbSymbolTableRecord
100
AcDbDimStyleTableRecord
  2
DIMSTYLE11
 70
     0
 41
1.0
 42
2.54
 44
2.54
 73
     0
 74
     0
 77
     1
140
3.0
145
1.0
147
1.5
172
     1
173
     1
279
     2
340
11
  0
DIMSTYLE
105
37
102
{ACAD_REACTORS
330
58C
102
}
330
A
100
AcDbSymbolTableRecord
100
AcDbDimStyleTableRecord
  2
DIMSTYLE12
 70
     0
 41
1.0
 42
2.54
 44
2.54
 73
     0
 74
     0
 77
     1
140
3.0
145
1.0
147
1.5
172
     1
173
     1
279
     2
340
11
  0
DIMSTYLE
105
38
102
{ACAD_REACTORS
330
58F
102
}
330
A
100
AcDbSymbolTableRecord
100
AcDbDimStyleTableRecord
  2
DIMSTYLE13
 70
     0
 41
1.0
 42
2.54
 44
2.54
 73
     0
 74
     0
 77
     1
140
3.0
145
1.0
147
1.5
172
     1
173
     1
279
     2
340
11
  0
DIMSTYLE
105
39
102
{ACAD_REACTORS
330
590
102
}
330
A
100
AcDbSymbolTableRecord
100
AcDbDimStyleTableRecord
  2
DIMSTYLE14
 70
     0
 41
1.0
 42
2.54
 44
2.54
 73
     0
 74
     0
 77
     1
140
3.0
145
1.0
147
1.5
172
     1
173
     1
279
     2
340
11
  0
DIMSTYLE
105
3A
102
{ACAD_REACTORS
330
591
102
}
330
A
100
AcDbSymbolTableRecord
100
AcDbDimStyleTableRecord
  2
DIMSTYLE15
 70
     0
 41
1.0
 42
2.54
 44
2.54
 73
     0
 74
     0
 77
     1
140
3.0
145
1.0
147
1.5
172
     1
173
     1
279
     2
340
11
  0
ENDTAB
  0
TABLE
  2
BLOCK_RECORD
  5
1
330
0
100
AcDbSymbolTable
 70
    19
  0
BLOCK_RECORD
  5
22
330
1
100
AcDbSymbolTableRecord
100
AcDbBlockTableRecord
  2
*Model_Space
340
25
  0
BLOCK_RECORD
  5
1E
330
1
100
AcDbSymbolTableRecord
100
AcDbBlockTableRecord
  2
*Paper_Space
340
21
  0
BLOCK_RECORD
  5
3E
330
1
100
AcDbSymbolTableRecord
100
AcDbBlockTableRecord
  2
_OPEN30
340
0
102
{BLKREFS
331
48
331
4A
331
55
331
56
331
5F
331
60
331
6A
331
6B
331
76
331
77
331
82
331
83
331
8E
331
8F
331
9A
331
9B
331
A6
331
A7
331
B2
331
B3
331
BE
331
BF
331
C9
331
CA
331
D4
331
D5
331
E0
331
E1
331
EB
331
EC
102
}
  0
BLOCK_RECORD
  5
44
330
1
100
AcDbSymbolTableRecord
100
AcDbBlockTableRecord
  2
*D1
340
0
  0
BLOCK_RECORD
  5
52
330
1
100
AcDbSymbolTableRecord
100
AcDbBlockTableRecord
  2
*D2
340
0
  0
BLOCK_RECORD
  5
5C
330
1
100
AcDbSymbolTableRecord
100
AcDbBlockTableRecord
  2
*D3
340
0
  0
BLOCK_RECORD
  5
67
330
1
100
AcDbSymbolTableRecord
100
AcDbBlockTableRecord
  2
*D4
340
0
  0
BLOCK_RECORD
  5
73
330
1
100
AcDbSymbolTableRecord
100
AcDbBlockTableRecord
  2
*D5
340
0
  0
BLOCK_RECORD
  5
7F
330
1
100
AcDbSymbolTableRecord
100
AcDbBlockTableRecord
  2
*D6
340
0
  0
BLOCK_RECORD
  5
8B
330
1
100
AcDbSymbolTableRecord
100
AcDbBlockTableRecord
  2
*D7
340
0
  0
BLOCK_RECORD
  5
97
330
1
100
AcDbSymbolTableRecord
100
AcDbBlockTableRecord
  2
*D8
340
0
  0
BLOCK_RECORD
  5
A3
330
1
100
AcDbSymbolTableRecord
100
AcDbBlockTableRecord
  2
*D9
340
0
  0
BLOCK_RECORD
  5
AF
330
1
100
AcDbSymbolTableRecord
100
AcDbBlockTableRecord
  2
*D10
340
0
  0
BLOCK_RECORD
  5
BB
330
1
100
AcDbSymbolTableRecord
100
AcDbBlockTableRecord
  2
*D11
340
0
  0
BLOCK_RECORD
  5
C6
330
1
100
AcDbSymbolTableRecord
100
AcDbBlockTableRecord
  2
*D12
340
0
  0
BLOCK_RECORD
  5
D1
330
1
100
AcDbSymbolTableRecord
100
AcDbBlockTableRecord
  2
*D13
340
0
  0
BLOCK_RECORD
  5
DD
330
1
100
AcDbSymbolTableRecord
100
AcDbBlockTableRecord
  2
*D14
340
0
  0
BLOCK_RECORD
  5
E8
330
1
100
AcDbSymbolTableRecord
100
AcDbBlockTableRecord
  2
*D15
340
0
  0
BLOCK_RECORD
  5
F3
330
1
100
AcDbSymbolTableRecord
100
AcDbBlockTableRecord
  2
KOZU0001
340
0
102
{BLKREFS
331
58D
102
}
  0
BLOCK_RECORD
  5
FC
330
1
100
AcDbSymbolTableRecord
100
AcDbBlockTableRecord
  2
KOZU0002
340
0
102
{BLKREFS
331
58E
102
}
  0
ENDTAB
  0
ENDSEC
  0
SECTION
  2
BLOCKS
  0
BLOCK
  5
23
330
22
100
AcDbEntity
  8
0
100
AcDbBlockBegin
  2
*Model_Space
 70
     0
 10
0.0
 20
0.0
 30
0.0
  3
*Model_Space
  1

  0
ENDBLK
  5
24
330
22
100
AcDbEntity
  8
0
100
AcDbBlockEnd
  0
BLOCK
  5
1F
330
1E
100
AcDbEntity
 67
     1
  8
0
100
AcDbBlockBegin
  2
*Paper_Space
 70
     0
 10
0.0
 20
0.0
 30
0.0
  3
*Paper_Space
  1

  0
ENDBLK
  5
20
330
1E
100
AcDbEntity
 67
     1
  8
0
100
AcDbBlockEnd
  0
BLOCK
  5
3F
330
3E
100
AcDbEntity
  8
0
100
AcDbBlockBegin
  2
_OPEN30
 70
     0
 10
0.0
 20
0.0
 30
0.0
  3
_OPEN30
  1

  0
LINE
  5
40
330
3E
100
AcDbEntity
  8
0
  6
ByBlock
 62
     0
100
AcDbLine
 10
0.0
 20
0.0
 30
0.0
 11
-2.999999999999993
 21
-1.000000000000017
 31
0.0
  0
LINE
  5
41
330
3E
100
AcDbEntity
  8
0
  6
ByBlock
 62
     0
100
AcDbLine
 10
0.0
 20
0.0
 30
0.0
 11
-3.000000000000006
 21
0.9999999999999815
 31
0.0
  0
LINE
  5
42
330
3E
100
AcDbEntity
  8
0
  6
ByBlock
 62
     0
100
AcDbLine
 10
0.0
 20
0.0
 30
0.0
 11
-3.0
 21
0.0
 31
0.0
  0
ENDBLK
  5
43
330
3E
100
AcDbEntity
  8
0
100
AcDbBlockEnd
  0
BLOCK
  5
45
330
44
100
AcDbEntity
  8
0
100
AcDbBlockBegin
  2
*D1
 70
     1
 10
0.0
 20
0.0
 30
0.0
  3
*D1
  1

  0
LINE
  5
46
330
44
100
AcDbEntity
  8
0
  6
Continuous
 62
     7
100
AcDbLine
 10
-281.8045959472656
 20
83.0848388671875
 30
0.0
 11
-281.8045959472656
 21
64.93648529052734
 31
0.0
  0
LINE
  5
47
330
44
100
AcDbEntity
  8
0
  6
Continuous
 62
     7
100
AcDbLine
 10
-281.8045959472656
 20
86.5848388671875
 30
0.0
 11
-281.8045959472656
 21
83.0848388671875
 31
0.0
  0
INSERT
  5
48
330
44
100
AcDbEntity
  8
0
  6
Continuous
 62
     7
100
AcDbBlockReference
  2
_OPEN30
 10
-281.8045959472656
 20
86.5848388671875
 30
0.0
 50
270.0000000000002
  0
LINE
  5
49
330
44
100
AcDbEntity
  8
0
  6
Continuous
 62
     7
100
AcDbLine
 10
-281.8045959472656
 20
89.58483886718751
 30
0.0
 11
-281.8045959472656
 21
92.93483886718748
 31
0.0
  0
INSERT
  5
4A
330
44
100
AcDbEntity
  8
0
  6
Continuous
 62
     7
100
AcDbBlockReference
  2
_OPEN30
 10
-281.8045959472656
 20
83.0848388671875
 30
0.0
 50
90.00000000000049
  0
LINE
  5
4B
330
44
100
AcDbEntity
  8
0
  6
Continuous
 62
     7
100
AcDbLine
 10
-281.8045959472656
 20
80.0848388671875
 30
0.0
 11
-281.8045959472656
 21
76.73483886718752
 31
0.0
  0
LINE
  5
4C
330
44
100
AcDbEntity
  8
0
  6
Continuous
 62
     7
100
AcDbLine
 10
-355.8481225585937
 20
83.0848388671875
 30
0.0
 11
-279.5186157226563
 21
83.0848388671875
 31
0.0
  0
TEXT
  5
4D
330
44
100
AcDbEntity
  8
0
  6
Continuous
 62
     7
100
AcDbText
 10
-282.5545957693604
 20
64.93648478090664
 30
0.0
 40
3.0
  1
3.5
 50
90.00000250447815
 41
1.356666684150696
100
AcDbText
  0
POINT
  5
4E
330
44
100
AcDbEntity
  8
DEFPOINTS
  6
Continuous
 62
     7
100
AcDbPoint
 10
-300.1751098632813
 20
86.5848388671875
 30
0.0
  0
POINT
  5
4F
330
44
100
AcDbEntity
  8
DEFPOINTS
  6
Continuous
 62
     7
100
AcDbPoint
 10
-358.3881225585938
 20
83.0848388671875
 30
0.0
  0
POINT
  5
50
330
44
100
AcDbEntity
  8
DEFPOINTS
  6
Continuous
 62
     7
100
AcDbPoint
 10
-281.8045959472656
 20
83.0848388671875
 30
0.0
  0
ENDBLK
  5
51
330
44
100
AcDbEntity
  8
0
100
AcDbBlockEnd
  0
BLOCK
  5
53
330
52
100
AcDbEntity
  8
0
100
AcDbBlockBegin
  2
*D2
 70
     1
 10
0.0
 20
0.0
 30
0.0
  3
*D2
  1

  0
LINE
  5
54
330
52
100
AcDbEntity
  8
0
  6
Continuous
 62
     7
100
AcDbLine
 10
-435.2436828613281
 20
99.58483886718751
 30
0.0
 11
-435.2436828613281
 21
193.5848388671875
 31
0.0
  0
INSERT
  5
55
330
52
100
AcDbEntity
  8
0
  6
Continuous
 62
     7
100
AcDbBlockReference
  2
_OPEN30
 10
-435.2436828613281
 20
96.5848388671875
 30
0.0
 50
270.0000000000005
  0
INSERT
  5
56
330
52
100
AcDbEntity
  8
0
  6
Continuous
 62
     7
100
AcDbBlockReference
  2
_OPEN30
 10
-435.2436828613281
 20
196.5848388671875
 30
0.0
 50
90.00000000000019
  0
TEXT
  5
57
330
52
100
AcDbEntity
  8
0
  6
Continuous
 62
     7
100
AcDbText
 10
-435.9936826834228
 20
142.5148386627426
 30
0.0
 40
3.0
  1
100
 50
90.00000250447815
 41
1.320000017011488
100
AcDbText
  0
POINT
  5
58
330
52
100
AcDbEntity
  8
DEFPOINTS
  6
Continuous
 62
     7
100
AcDbPoint
 10
-440.8881225585938
 20
96.5848388671875
 30
0.0
  0
POINT
  5
59
330
52
100
AcDbEntity
  8
DEFPOINTS
  6
Continuous
 62
     7
100
AcDbPoint
 10
-433.4781188964844
 20
196.5848388671875
 30
0.0
  0
POINT
  5
5A
330
52
100
AcDbEntity
  8
DEFPOINTS
  6
Continuous
 62
     7
100
AcDbPoint
 10
-435.2436828613281
 20
196.5848388671875
 30
0.0
  0
ENDBLK
  5
5B
330
52
100
AcDbEntity
  8
0
100
AcDbBlockEnd
  0
BLOCK
  5
5D
330
5C
100
AcDbEntity
  8
0
100
AcDbBlockBegin
  2
*D3
 70
     1
 10
0.0
 20
0.0
 30
0.0
  3
*D3
  1

  0
LINE
  5
5E
330
5C
100
AcDbEntity
  8
0
  6
Continuous
 62
     7
100
AcDbLine
 10
-295.1925048828125
 20
89.58483886718751
 30
0.0
 11
-295.1925048828125
 21
113.5848388671875
 31
0.0
  0
INSERT
  5
5F
330
5C
100
AcDbEntity
  8
0
  6
Continuous
 62
     7
100
AcDbBlockReference
  2
_OPEN30
 10
-295.1925048828125
 20
86.5848388671875
 30
0.0
 50
270.0000000000005
  0
INSERT
  5
60
330
5C
100
AcDbEntity
  8
0
  6
Continuous
 62
     7
100
AcDbBlockReference
  2
_OPEN30
 10
-295.1925048828125
 20
116.5848388671875
 30
0.0
 50
90.00000000000019
  0
LINE
  5
61
330
5C
100
AcDbEntity
  8
0
  6
Continuous
 62
     7
100
AcDbLine
 10
-406.3481225585936
 20
116.5848388671875
 30
0.0
 11
-292.906494140625
 21
116.5848388671875
 31
0.0
  0
TEXT
  5
62
330
5C
100
AcDbEntity
  8
0
  6
Continuous
 62
     7
100
AcDbText
 10
-295.9425047704742
 20
99.01483872234722
 30
0.0
 40
3.0
  1
30
 50
90.00000250447815
 41
1.101428593908038
100
AcDbText
  0
POINT
  5
63
330
5C
100
AcDbEntity
  8
DEFPOINTS
  6
Continuous
 62
     7
100
AcDbPoint
 10
-279.5186157226563
 20
86.5848388671875
 30
0.0
  0
POINT
  5
64
330
5C
100
AcDbEntity
  8
DEFPOINTS
  6
Continuous
 62
     7
100
AcDbPoint
 10
-408.8881225585938
 20
116.5848388671875
 30
0.0
  0
POINT
  5
65
330
5C
100
AcDbEntity
  8
DEFPOINTS
  6
Continuous
 62
     7
100
AcDbPoint
 10
-295.1925048828125
 20
116.5848388671875
 30
0.0
  0
ENDBLK
  5
66
330
5C
100
AcDbEntity
  8
0
100
AcDbBlockEnd
  0
BLOCK
  5
68
330
67
100
AcDbEntity
  8
0
100
AcDbBlockBegin
  2
*D4
 70
     1
 10
0.0
 20
0.0
 30
0.0
  3
*D4
  1

  0
LINE
  5
69
330
67
100
AcDbEntity
  8
0
  6
Continuous
 62
     7
100
AcDbLine
 10
-281.8045959472656
 20
301.1767272949219
 30
0.0
 11
-281.8045959472656
 21
545.1767578124999
 31
0.0
  0
INSERT
  5
6A
330
67
100
AcDbEntity
  8
0
  6
Continuous
 62
     7
100
AcDbBlockReference
  2
_OPEN30
 10
-281.8045959472656
 20
298.1767272949219
 30
0.0
 50
270.0000000000005
  0
INSERT
  5
6B
330
67
100
AcDbEntity
  8
0
  6
Continuous
 62
     7
100
AcDbBlockReference
  2
_OPEN30
 10
-281.8045959472656
 20
548.1767578124999
 30
0.0
 50
90.00000000000019
  0
LINE
  5
6C
330
67
100
AcDbEntity
  8
0
  6
Continuous
 62
     7
100
AcDbLine
 10
-318.3481225585937
 20
298.1767272949219
 30
0.0
 11
-279.5186157226563
 21
298.1767272949219
 31
0.0
  0
LINE
  5
6D
330
67
100
AcDbEntity
  8
0
  6
Continuous
 62
     7
100
AcDbLine
 10
-318.3481225585937
 20
548.1767578124999
 30
0.0
 11
-279.5186157226563
 21
548.1767578124999
 31
0.0
  0
TEXT
  5
6E
330
67
100
AcDbEntity
  8
0
  6
Continuous
 62
     7
100
AcDbText
 10
-282.5545957693604
 20
419.106727090477
 30
0.0
 40
3.0
  1
250
 50
90.00000250447815
 41
1.061739144117935
100
AcDbText
  0
POINT
  5
6F
330
67
100
AcDbEntity
  8
DEFPOINTS
  6
Continuous
 62
     7
100
AcDbPoint
 10
-320.8881225585938
 20
298.1767272949219
 30
0.0
  0
POINT
  5
70
330
67
100
AcDbEntity
  8
DEFPOINTS
  6
Continuous
 62
     7
100
AcDbPoint
 10
-320.8881225585938
 20
548.1767578124999
 30
0.0
  0
POINT
  5
71
330
67
100
AcDbEntity
  8
DEFPOINTS
  6
Continuous
 62
     7
100
AcDbPoint
 10
-281.8045959472656
 20
548.1767578124999
 30
0.0
  0
ENDBLK
  5
72
330
67
100
AcDbEntity
  8
0
100
AcDbBlockEnd
  0
BLOCK
  5
74
330
73
100
AcDbEntity
  8
0
100
AcDbBlockBegin
  2
*D5
 70
     1
 10
0.0
 20
0.0
 30
0.0
  3
*D5
  1

  0
LINE
  5
75
330
73
100
AcDbEntity
  8
0
  6
Continuous
 62
     7
100
AcDbLine
 10
-295.1925048828125
 20
315.6767272949219
 30
0.0
 11
-295.1925048828125
 21
530.6767578125
 31
0.0
  0
INSERT
  5
76
330
73
100
AcDbEntity
  8
0
  6
Continuous
 62
     7
100
AcDbBlockReference
  2
_OPEN30
 10
-295.1925048828125
 20
312.6767272949219
 30
0.0
 50
270.0000000000005
  0
INSERT
  5
77
330
73
100
AcDbEntity
  8
0
  6
Continuous
 62
     7
100
AcDbBlockReference
  2
_OPEN30
 10
-295.1925048828125
 20
533.6767578125
 30
0.0
 50
90.00000000000019
  0
LINE
  5
78
330
73
100
AcDbEntity
  8
0
  6
Continuous
 62
     7
100
AcDbLine
 10
-328.8481225585937
 20
312.6767272949219
 30
0.0
 11
-292.906494140625
 21
312.6767272949219
 31
0.0
  0
LINE
  5
79
330
73
100
AcDbEntity
  8
0
  6
Continuous
 62
     7
100
AcDbLine
 10
-328.8481225585937
 20
533.6767578125
 30
0.0
 11
-292.906494140625
 21
533.6767578125
 31
0.0
  0
TEXT
  5
7A
330
73
100
AcDbEntity
  8
0
  6
Continuous
 62
     7
100
AcDbText
 10
-295.9425047049072
 20
419.106727090477
 30
0.0
 40
3.0
  1
221
 50
90.00000250447815
 41
1.110000014305114
100
AcDbText
  0
POINT
  5
7B
330
73
100
AcDbEntity
  8
DEFPOINTS
  6
Continuous
 62
     7
100
AcDbPoint
 10
-331.3881225585938
 20
312.6767272949219
 30
0.0
  0
POINT
  5
7C
330
73
100
AcDbEntity
  8
DEFPOINTS
  6
Continuous
 62
     7
100
AcDbPoint
 10
-331.3881225585938
 20
533.6767578125
 30
0.0
  0
POINT
  5
7D
330
73
100
AcDbEntity
  8
DEFPOINTS
  6
Continuous
 62
     7
100
AcDbPoint
 10
-295.1925048828125
 20
533.6767578125
 30
0.0
  0
ENDBLK
  5
7E
330
73
100
AcDbEntity
  8
0
100
AcDbBlockEnd
  0
BLOCK
  5
80
330
7F
100
AcDbEntity
  8
0
100
AcDbBlockBegin
  2
*D6
 70
     1
 10
0.0
 20
0.0
 30
0.0
  3
*D6
  1

  0
LINE
  5
81
330
7F
100
AcDbEntity
  8
0
  6
Continuous
 62
     7
100
AcDbLine
 10
-562.8881225585939
 20
573.2809448242187
 30
0.0
 11
-318.8881225585938
 21
573.2809448242187
 31
0.0
  0
INSERT
  5
82
330
7F
100
AcDbEntity
  8
0
  6
Continuous
 62
     7
100
AcDbBlockReference
  2
_OPEN30
 10
-565.8881225585937
 20
573.2809448242187
 30
0.0
 50
180.0000000000004
  0
INSERT
  5
83
330
7F
100
AcDbEntity
  8
0
  6
Continuous
 62
     7
100
AcDbBlockReference
  2
_OPEN30
 10
-315.8881225585938
 20
573.2809448242187
 30
0.0
  0
LINE
  5
84
330
7F
100
AcDbEntity
  8
0
  6
Continuous
 62
     7
100
AcDbLine
 10
-565.8881225585937
 20
545.7167578124999
 30
0.0
 11
-565.8881225585937
 21
575.5669555664062
 31
0.0
  0
LINE
  5
85
330
7F
100
AcDbEntity
  8
0
  6
Continuous
 62
     7
100
AcDbLine
 10
-315.8881225585938
 20
545.7167578124999
 30
0.0
 11
-315.8881225585938
 21
575.5669555664062
 31
0.0
  0
TEXT
  5
86
330
7F
100
AcDbEntity
  8
0
  6
Continuous
 62
     7
100
AcDbText
 10
-444.9581227302551
 20
574.0309448242187
 30
0.0
 40
3.0
  1
250
 41
1.061739144117935
100
AcDbText
  0
POINT
  5
87
330
7F
100
AcDbEntity
  8
DEFPOINTS
  6
Continuous
 62
     7
100
AcDbPoint
 10
-565.8881225585937
 20
543.1767578125
 30
0.0
  0
POINT
  5
88
330
7F
100
AcDbEntity
  8
DEFPOINTS
  6
Continuous
 62
     7
100
AcDbPoint
 10
-315.8881225585938
 20
543.1767578125
 30
0.0
  0
POINT
  5
89
330
7F
100
AcDbEntity
  8
DEFPOINTS
  6
Continuous
 62
     7
100
AcDbPoint
 10
-315.8881225585938
 20
573.2809448242187
 30
0.0
  0
ENDBLK
  5
8A
330
7F
100
AcDbEntity
  8
0
100
AcDbBlockEnd
  0
BLOCK
  5
8C
330
8B
100
AcDbEntity
  8
0
100
AcDbBlockBegin
  2
*D7
 70
     1
 10
0.0
 20
0.0
 30
0.0
  3
*D7
  1

  0
LINE
  5
8D
330
8B
100
AcDbEntity
  8
0
  6
Continuous
 62
     7
100
AcDbLine
 10
-548.3881225585938
 20
562.79296875
 30
0.0
 11
-333.3881225585938
 21
562.79296875
 31
0.0
  0
INSERT
  5
8E
330
8B
100
AcDbEntity
  8
0
  6
Continuous
 62
     7
100
AcDbBlockReference
  2
_OPEN30
 10
-551.3881225585938
 20
562.79296875
 30
0.0
 50
180.0000000000004
  0
INSERT
  5
8F
330
8B
100
AcDbEntity
  8
0
  6
Continuous
 62
     7
100
AcDbBlockReference
  2
_OPEN30
 10
-330.3881225585938
 20
562.79296875
 30
0.0
  0
LINE
  5
90
330
8B
100
AcDbEntity
  8
0
  6
Continuous
 62
     7
100
AcDbLine
 10
-551.3881225585938
 20
535.2167578124999
 30
0.0
 11
-551.3881225585938
 21
565.0789794921875
 31
0.0
  0
LINE
  5
91
330
8B
100
AcDbEntity
  8
0
  6
Continuous
 62
     7
100
AcDbLine
 10
-330.3881225585938
 20
535.2167578124999
 30
0.0
 11
-330.3881225585938
 21
565.0789794921875
 31
0.0
  0
TEXT
  5
92
330
8B
100
AcDbEntity
  8
0
  6
Continuous
 62
     7
100
AcDbText
 10
-444.9581227302551
 20
563.54296875
 30
0.0
 40
3.0
  1
221
 41
1.110000014305114
100
AcDbText
  0
POINT
  5
93
330
8B
100
AcDbEntity
  8
DEFPOINTS
  6
Continuous
 62
     7
100
AcDbPoint
 10
-551.3881225585938
 20
532.6767578124999
 30
0.0
  0
POINT
  5
94
330
8B
100
AcDbEntity
  8
DEFPOINTS
  6
Continuous
 62
     7
100
AcDbPoint
 10
-330.3881225585938
 20
532.6767578124999
 30
0.0
  0
POINT
  5
95
330
8B
100
AcDbEntity
  8
DEFPOINTS
  6
Continuous
 62
     7
100
AcDbPoint
 10
-330.3881225585938
 20
562.79296875
 30
0.0
  0
ENDBLK
  5
96
330
8B
100
AcDbEntity
  8
0
100
AcDbBlockEnd
  0
BLOCK
  5
98
330
97
100
AcDbEntity
  8
0
100
AcDbBlockBegin
  2
*D8
 70
     1
 10
0.0
 20
0.0
 30
0.0
  3
*D8
  1

  0
LINE
  5
99
330
97
100
AcDbEntity
  8
0
  6
Continuous
 62
     7
100
AcDbLine
 10
-520.8881225585939
 20
23.23068428039551
 30
0.0
 11
-360.8881225585938
 21
23.23068428039549
 31
0.0
  0
INSERT
  5
9A
330
97
100
AcDbEntity
  8
0
  6
Continuous
 62
     7
100
AcDbBlockReference
  2
_OPEN30
 10
-523.8881225585938
 20
23.23068428039551
 30
0.0
 50
180.0000000000004
  0
INSERT
  5
9B
330
97
100
AcDbEntity
  8
0
  6
Continuous
 62
     7
100
AcDbBlockReference
  2
_OPEN30
 10
-357.8881225585938
 20
23.23068428039551
 30
0.0
  0
LINE
  5
9C
330
97
100
AcDbEntity
  8
0
  6
Continuous
 62
     7
100
AcDbLine
 10
-523.8881225585938
 20
81.04483886718748
 30
0.0
 11
-523.8881225585938
 21
20.94468498229981
 31
0.0
  0
LINE
  5
9D
330
97
100
AcDbEntity
  8
0
  6
Continuous
 62
     7
100
AcDbLine
 10
-357.8881225585938
 20
81.04483886718748
 30
0.0
 11
-357.8881225585938
 21
20.94468498229981
 31
0.0
  0
TEXT
  5
9E
330
97
100
AcDbEntity
  8
0
  6
Continuous
 62
     7
100
AcDbText
 10
-446.4581227898598
 20
23.98068428039551
 30
0.0
 40
3.0
  1
%%C166
 41
1.053926216168795
100
AcDbText
  0
POINT
  5
9F
330
97
100
AcDbEntity
  8
DEFPOINTS
  6
Continuous
 62
     7
100
AcDbPoint
 10
-523.8881225585938
 20
83.58483886718749
 30
0.0
  0
POINT
  5
A0
330
97
100
AcDbEntity
  8
DEFPOINTS
  6
Continuous
 62
     7
100
AcDbPoint
 10
-357.8881225585938
 20
83.58483886718749
 30
0.0
  0
POINT
  5
A1
330
97
100
AcDbEntity
  8
DEFPOINTS
  6
Continuous
 62
     7
100
AcDbPoint
 10
-357.8881225585938
 20
23.23068428039551
 30
0.0
  0
ENDBLK
  5
A2
330
97
100
AcDbEntity
  8
0
100
AcDbBlockEnd
  0
BLOCK
  5
A4
330
A3
100
AcDbEntity
  8
0
100
AcDbBlockBegin
  2
*D9
 70
     1
 10
0.0
 20
0.0
 30
0.0
  3
*D9
  1

  0
LINE
  5
A5
330
A3
100
AcDbEntity
  8
0
  6
Continuous
 62
     7
100
AcDbLine
 10
-471.8881225585938
 20
32.28783416748047
 30
0.0
 11
-409.8881225585937
 21
32.28783416748045
 31
0.0
  0
INSERT
  5
A6
330
A3
100
AcDbEntity
  8
0
  6
Continuous
 62
     7
100
AcDbBlockReference
  2
_OPEN30
 10
-474.8881225585938
 20
32.28783416748047
 30
0.0
 50
180.0000000000004
  0
INSERT
  5
A7
330
A3
100
AcDbEntity
  8
0
  6
Continuous
 62
     7
100
AcDbBlockReference
  2
_OPEN30
 10
-406.8881225585938
 20
32.28783416748047
 30
0.0
  0
LINE
  5
A8
330
A3
100
AcDbEntity
  8
0
  6
Continuous
 62
     7
100
AcDbLine
 10
-474.8881225585938
 20
53.0448388671875
 30
0.0
 11
-474.8881225585938
 21
30.0018367767334
 31
0.0
  0
LINE
  5
A9
330
A3
100
AcDbEntity
  8
0
  6
Continuous
 62
     7
100
AcDbLine
 10
-406.8881225585938
 20
53.0448388671875
 30
0.0
 11
-406.8881225585938
 21
30.0018367767334
 31
0.0
  0
TEXT
  5
AA
330
A3
100
AcDbEntity
  8
0
  6
Continuous
 62
     7
100
AcDbText
 10
-444.9581227302551
 20
33.03783416748047
 30
0.0
 40
3.0
  1
%%C68
 41
0.9498249830693319
100
AcDbText
  0
POINT
  5
AB
330
A3
100
AcDbEntity
  8
DEFPOINTS
  6
Continuous
 62
     7
100
AcDbPoint
 10
-474.8881225585938
 20
55.5848388671875
 30
0.0
  0
POINT
  5
AC
330
A3
100
AcDbEntity
  8
DEFPOINTS
  6
Continuous
 62
     7
100
AcDbPoint
 10
-406.8881225585938
 20
55.5848388671875
 30
0.0
  0
POINT
  5
AD
330
A3
100
AcDbEntity
  8
DEFPOINTS
  6
Continuous
 62
     7
100
AcDbPoint
 10
-406.8881225585938
 20
32.28783416748047
 30
0.0
  0
ENDBLK
  5
AE
330
A3
100
AcDbEntity
  8
0
100
AcDbBlockEnd
  0
BLOCK
  5
B0
330
AF
100
AcDbEntity
  8
0
100
AcDbBlockBegin
  2
*D10
 70
     1
 10
0.0
 20
0.0
 30
0.0
  3
*D10
  1

  0
LINE
  5
B1
330
AF
100
AcDbEntity
  8
0
  6
Continuous
 62
     7
100
AcDbLine
 10
-549.6434326171875
 20
57.5848388671875
 30
0.0
 11
-549.6434326171875
 21
113.5848388671875
 31
0.0
  0
INSERT
  5
B2
330
AF
100
AcDbEntity
  8
0
  6
Continuous
 62
     7
100
AcDbBlockReference
  2
_OPEN30
 10
-549.6434326171875
 20
54.5848388671875
 30
0.0
 50
270.0000000000005
  0
INSERT
  5
B3
330
AF
100
AcDbEntity
  8
0
  6
Continuous
 62
     7
100
AcDbBlockReference
  2
_OPEN30
 10
-549.6434326171875
 20
116.5848388671875
 30
0.0
 50
90.00000000000019
  0
LINE
  5
B4
330
AF
100
AcDbEntity
  8
0
  6
Continuous
 62
     7
100
AcDbLine
 10
-476.4281225585938
 20
54.58483886718749
 30
0.0
 11
-551.9294433593749
 21
54.5848388671875
 31
0.0
  0
LINE
  5
B5
330
AF
100
AcDbEntity
  8
0
  6
Continuous
 62
     7
100
AcDbLine
 10
-475.4281225585938
 20
116.5848388671875
 30
0.0
 11
-551.9294433593749
 21
116.5848388671875
 31
0.0
  0
TEXT
  5
B6
330
AF
100
AcDbEntity
  8
0
  6
Continuous
 62
     7
100
AcDbText
 10
-550.3934325048492
 20
83.01483872234722
 30
0.0
 40
3.0
  1
62
 50
90.00000250447815
 41
1.028000020980834
100
AcDbText
  0
POINT
  5
B7
330
AF
100
AcDbEntity
  8
DEFPOINTS
  6
Continuous
 62
     7
100
AcDbPoint
 10
-473.8881225585938
 20
54.5848388671875
 30
0.0
  0
POINT
  5
B8
330
AF
100
AcDbEntity
  8
DEFPOINTS
  6
Continuous
 62
     7
100
AcDbPoint
 10
-472.8881225585937
 20
116.5848388671875
 30
0.0
  0
POINT
  5
B9
330
AF
100
AcDbEntity
  8
DEFPOINTS
  6
Continuous
 62
     7
100
AcDbPoint
 10
-549.6434326171875
 20
116.5848388671875
 30
0.0
  0
ENDBLK
  5
BA
330
AF
100
AcDbEntity
  8
0
100
AcDbBlockEnd
  0
BLOCK
  5
BC
330
BB
100
AcDbEntity
  8
0
100
AcDbBlockBegin
  2
*D11
 70
     1
 10
0.0
 20
0.0
 30
0.0
  3
*D11
  1

  0
LINE
  5
BD
330
BB
100
AcDbEntity
  8
0
  6
Continuous
 62
     7
100
AcDbLine
 10
-477.8881225585938
 20
59.81912994384764
 30
0.0
 11
-486.8881225585938
 21
59.81912994384765
 31
0.0
  0
INSERT
  5
BE
330
BB
100
AcDbEntity
  8
0
  6
Continuous
 62
     7
100
AcDbBlockReference
  2
_OPEN30
 10
-474.8881225585938
 20
59.81912994384765
 30
0.0
  0
INSERT
  5
BF
330
BB
100
AcDbEntity
  8
0
  6
Continuous
 62
     7
100
AcDbBlockReference
  2
_OPEN30
 10
-489.8881225585937
 20
59.81912994384765
 30
0.0
 50
180.0000000000004
  0
LINE
  5
C0
330
BB
100
AcDbEntity
  8
0
  6
Continuous
 62
     7
100
AcDbLine
 10
-489.8881225585937
 20
79.01752563476562
 30
0.0
 11
-489.8881225585937
 21
57.53313064575195
 31
0.0
  0
TEXT
  5
C1
330
BB
100
AcDbEntity
  8
0
  6
Continuous
 62
     7
100
AcDbText
 10
-484.9581226706504
 20
60.56912994384766
 30
0.0
 40
3.0
  1
15
 41
1.285000026226043
100
AcDbText
  0
POINT
  5
C2
330
BB
100
AcDbEntity
  8
DEFPOINTS
  6
Continuous
 62
     7
100
AcDbPoint
 10
-474.8881225585938
 20
55.5848388671875
 30
0.0
  0
POINT
  5
C3
330
BB
100
AcDbEntity
  8
DEFPOINTS
  6
Continuous
 62
     7
100
AcDbPoint
 10
-489.8881225585937
 20
81.55752563476562
 30
0.0
  0
POINT
  5
C4
330
BB
100
AcDbEntity
  8
DEFPOINTS
  6
Continuous
 62
     7
100
AcDbPoint
 10
-489.8881225585937
 20
59.81912994384765
 30
0.0
  0
ENDBLK
  5
C5
330
BB
100
AcDbEntity
  8
0
100
AcDbBlockEnd
  0
BLOCK
  5
C7
330
C6
100
AcDbEntity
  8
0
100
AcDbBlockBegin
  2
*D12
 70
     1
 10
0.0
 20
0.0
 30
0.0
  3
*D12
  1

  0
LINE
  5
C8
330
C6
100
AcDbEntity
  8
0
  6
Continuous
 62
     7
100
AcDbLine
 10
-500.2847290039063
 20
80.0848388671875
 30
0.0
 11
-500.2847290039063
 21
70.0848388671875
 31
0.0
  0
INSERT
  5
C9
330
C6
100
AcDbEntity
  8
0
  6
Continuous
 62
     7
100
AcDbBlockReference
  2
_OPEN30
 10
-500.2847290039063
 20
83.0848388671875
 30
0.0
 50
90.00000000000019
  0
INSERT
  5
CA
330
C6
100
AcDbEntity
  8
0
  6
Continuous
 62
     7
100
AcDbBlockReference
  2
_OPEN30
 10
-500.2847290039063
 20
67.0848388671875
 30
0.0
 50
270.0000000000005
  0
LINE
  5
CB
330
C6
100
AcDbEntity
  8
0
  6
Continuous
 62
     7
100
AcDbLine
 10
-479.5629797363281
 20
67.08483886718749
 30
0.0
 11
-502.5707397460938
 21
67.0848388671875
 31
0.0
  0
TEXT
  5
CC
330
C6
100
AcDbEntity
  8
0
  6
Continuous
 62
     7
100
AcDbText
 10
-501.034728891568
 20
72.51483872234722
 30
0.0
 40
3.0
  1
16
 50
90.00000250447815
 41
1.285000026226043
100
AcDbText
  0
POINT
  5
CD
330
C6
100
AcDbEntity
  8
DEFPOINTS
  6
Continuous
 62
     7
100
AcDbPoint
 10
-523.3881225585938
 20
83.0848388671875
 30
0.0
  0
POINT
  5
CE
330
C6
100
AcDbEntity
  8
DEFPOINTS
  6
Continuous
 62
     7
100
AcDbPoint
 10
-477.0229797363281
 20
67.0848388671875
 30
0.0
  0
POINT
  5
CF
330
C6
100
AcDbEntity
  8
DEFPOINTS
  6
Continuous
 62
     7
100
AcDbPoint
 10
-500.2847290039063
 20
67.0848388671875
 30
0.0
  0
ENDBLK
  5
D0
330
C6
100
AcDbEntity
  8
0
100
AcDbBlockEnd
  0
BLOCK
  5
D2
330
D1
100
AcDbEntity
  8
0
100
AcDbBlockBegin
  2
*D13
 70
     1
 10
0.0
 20
0.0
 30
0.0
  3
*D13
  1

  0
LINE
  5
D3
330
D1
100
AcDbEntity
  8
0
  6
Continuous
 62
     7
100
AcDbLine
 10
-281.8045959472656
 20
89.58483886718751
 30
0.0
 11
-281.8045959472656
 21
272.5848388671875
 31
0.0
  0
INSERT
  5
D4
330
D1
100
AcDbEntity
  8
0
  6
Continuous
 62
     7
100
AcDbBlockReference
  2
_OPEN30
 10
-281.8045959472656
 20
86.5848388671875
 30
0.0
 50
270.0000000000005
  0
INSERT
  5
D5
330
D1
100
AcDbEntity
  8
0
  6
Continuous
 62
     7
100
AcDbBlockReference
  2
_OPEN30
 10
-281.8045959472656
 20
275.5848388671875
 30
0.0
 50
90.00000000000019
  0
LINE
  5
D6
330
D1
100
AcDbEntity
  8
0
  6
Continuous
 62
     7
100
AcDbLine
 10
-357.3481225585937
 20
86.5848388671875
 30
0.0
 11
-279.5186157226563
 21
86.5848388671875
 31
0.0
  0
LINE
  5
D7
330
D1
100
AcDbEntity
  8
0
  6
Continuous
 62
     7
100
AcDbLine
 10
-314.3481225585937
 20
275.5848388671875
 30
0.0
 11
-279.5186157226563
 21
275.5848388671875
 31
0.0
  0
TEXT
  5
D8
330
D1
100
AcDbEntity
  8
0
  6
Continuous
 62
     7
100
AcDbText
 10
-282.5545951136894
 20
162.0148380666962
 30
0.0
 40
3.0
  1
１８９　（１８４～２０１）
 50
90.00000250447815
 41
0.8434321120058422
100
AcDbText
  0
POINT
  5
D9
330
D1
100
AcDbEntity
  8
DEFPOINTS
  6
Continuous
 62
     7
100
AcDbPoint
 10
-359.8881225585938
 20
86.5848388671875
 30
0.0
  0
POINT
  5
DA
330
D1
100
AcDbEntity
  8
DEFPOINTS
  6
Continuous
 62
     7
100
AcDbPoint
 10
-316.8881225585938
 20
275.5848388671875
 30
0.0
  0
POINT
  5
DB
330
D1
100
AcDbEntity
  8
DEFPOINTS
  6
Continuous
 62
     7
100
AcDbPoint
 10
-281.8045959472656
 20
275.5848388671875
 30
0.0
  0
ENDBLK
  5
DC
330
D1
100
AcDbEntity
  8
0
100
AcDbBlockEnd
  0
BLOCK
  5
DE
330
DD
100
AcDbEntity
  8
0
100
AcDbBlockBegin
  2
*D14
 70
     1
 10
0.0
 20
0.0
 30
0.0
  3
*D14
  1

  0
LINE
  5
DF
330
DD
100
AcDbEntity
  8
0
  6
Continuous
 62
     7
100
AcDbLine
 10
-295.1925048828125
 20
272.5848388671875
 30
0.0
 11
-295.1925048828125
 21
183.5848388671875
 31
0.0
  0
INSERT
  5
E0
330
DD
100
AcDbEntity
  8
0
  6
Continuous
 62
     7
100
AcDbBlockReference
  2
_OPEN30
 10
-295.1925048828125
 20
275.5848388671875
 30
0.0
 50
90.00000000000019
  0
INSERT
  5
E1
330
DD
100
AcDbEntity
  8
0
  6
Continuous
 62
     7
100
AcDbBlockReference
  2
_OPEN30
 10
-295.1925048828125
 20
180.5848388671875
 30
0.0
 50
270.0000000000005
  0
LINE
  5
E2
330
DD
100
AcDbEntity
  8
0
  6
Continuous
 62
     7
100
AcDbLine
 10
-405.8481225585937
 20
180.5848388671875
 30
0.0
 11
-292.906494140625
 21
180.5848388671875
 31
0.0
  0
TEXT
  5
E3
330
DD
100
AcDbEntity
  8
0
  6
Continuous
 62
     7
100
AcDbText
 10
-295.9425047704742
 20
225.5148387223472
 30
0.0
 40
3.0
  1
95
 50
90.00000250447815
 41
1.028000020980834
100
AcDbText
  0
POINT
  5
E4
330
DD
100
AcDbEntity
  8
DEFPOINTS
  6
Continuous
 62
     7
100
AcDbPoint
 10
-279.5186157226563
 20
275.5848388671875
 30
0.0
  0
POINT
  5
E5
330
DD
100
AcDbEntity
  8
DEFPOINTS
  6
Continuous
 62
     7
100
AcDbPoint
 10
-408.3881225585938
 20
180.5848388671875
 30
0.0
  0
POINT
  5
E6
330
DD
100
AcDbEntity
  8
DEFPOINTS
  6
Continuous
 62
     7
100
AcDbPoint
 10
-295.1925048828125
 20
180.5848388671875
 30
0.0
  0
ENDBLK
  5
E7
330
DD
100
AcDbEntity
  8
0
100
AcDbBlockEnd
  0
BLOCK
  5
E9
330
E8
100
AcDbEntity
  8
0
100
AcDbBlockBegin
  2
*D15
 70
     1
 10
0.0
 20
0.0
 30
0.0
  3
*D15
  1

  0
LINE
  5
EA
330
E8
100
AcDbEntity
  8
0
  6
Continuous
 62
     7
100
AcDbLine
 10
-425.1068115234375
 20
99.58483886718751
 30
0.0
 11
-425.1068115234375
 21
143.5848388671875
 31
0.0
  0
INSERT
  5
EB
330
E8
100
AcDbEntity
  8
0
  6
Continuous
 62
     7
100
AcDbBlockReference
  2
_OPEN30
 10
-425.1068115234375
 20
96.5848388671875
 30
0.0
 50
270.0000000000005
  0
INSERT
  5
EC
330
E8
100
AcDbEntity
  8
0
  6
Continuous
 62
     7
100
AcDbBlockReference
  2
_OPEN30
 10
-425.1068115234375
 20
146.5848388671875
 30
0.0
 50
90.00000000000019
  0
LINE
  5
ED
330
E8
100
AcDbEntity
  8
0
  6
Continuous
 62
     7
100
AcDbLine
 10
-415.1937170410157
 20
146.5848388671875
 30
0.0
 11
-427.392822265625
 21
146.5848388671875
 31
0.0
  0
TEXT
  5
EE
330
E8
100
AcDbEntity
  8
0
  6
Continuous
 62
     7
100
AcDbText
 10
-425.8568114110991
 20
119.0148387223472
 30
0.0
 40
3.0
  1
50
 50
90.00000250447815
 41
1.101428593908038
100
AcDbText
  0
POINT
  5
EF
330
E8
100
AcDbEntity
  8
DEFPOINTS
  6
Continuous
 62
     7
100
AcDbPoint
 10
-423.5543823242188
 20
96.5848388671875
 30
0.0
  0
POINT
  5
F0
330
E8
100
AcDbEntity
  8
DEFPOINTS
  6
Continuous
 62
     7
100
AcDbPoint
 10
-412.6537170410156
 20
146.5848388671875
 30
0.0
  0
POINT
  5
F1
330
E8
100
AcDbEntity
  8
DEFPOINTS
  6
Continuous
 62
     7
100
AcDbPoint
 10
-425.1068115234375
 20
146.5848388671875
 30
0.0
  0
ENDBLK
  5
F2
330
E8
100
AcDbEntity
  8
0
100
AcDbBlockEnd
  0
BLOCK
  5
F4
330
F3
100
AcDbEntity
  8
0
100
AcDbBlockBegin
  2
KOZU0001
 70
     0
 10
0.0
 20
0.0
 30
0.0
  3
KOZU0001
  1

  0
LINE
  5
F5
330
F3
100
AcDbEntity
  8
0
  6
Continuous
 62
     7
100
AcDbLine
 10
0.0
 20
0.0
 30
0.0
 11
-49.62261962890625
 21
-39.01054000854492
 31
0.0
  0
LINE
  5
F6
330
F3
100
AcDbEntity
  8
0
  6
Continuous
 62
     7
100
AcDbLine
 10
-49.62261962890625
 20
-39.01054000854492
 30
0.0
 11
-78.78033447265625
 21
-39.01054000854492
 31
0.0
  0
LINE
  5
F7
330
F3
100
AcDbEntity
  8
0
  6
Continuous
 62
     7
100
AcDbLine
 10
0.0
 20
0.0
 30
0.0
 11
-1.740431679447242
 21
-2.640245740300787
 31
0.0
  0
LINE
  5
F8
330
F3
100
AcDbEntity
  8
0
  6
Continuous
 62
     7
100
AcDbLine
 10
0.0
 20
0.0
 30
0.0
 11
-2.976492787738266
 21
-1.067937584572284
 31
0.0
  0
TEXT
  5
F9
330
F3
100
AcDbEntity
  8
0
  6
Continuous
 62
     7
100
AcDbText
 10
-77.06030356884003
 20
-38.26054000854492
 30
0.0
 40
3.0
  1
共廻り防止用羽根
 41
0.8454512278006642
100
AcDbText
  0
TEXT
  5
FA
330
F3
100
AcDbEntity
  8
0
  6
Continuous
 62
     7
100
AcDbText
 10
-77.06030356884003
 20
-43.52554000854492
 30
0.0
 40
3.0
  1
３ヶ所
 41
0.8550420278260688
100
AcDbText
  0
ENDBLK
  5
FB
330
F3
100
AcDbEntity
  8
0
100
AcDbBlockEnd
  0
BLOCK
  5
FD
330
FC
100
AcDbEntity
  8
0
100
AcDbBlockBegin
  2
KOZU0002
 70
     0
 10
0.0
 20
0.0
 30
0.0
  3
KOZU0002
  1

  0
LINE
  5
FE
330
FC
100
AcDbEntity
  8
0
  6
Continuous
 62
     7
100
AcDbLine
 10
0.0
 20
0.0
 30
0.0
 11
8.702667236328125
 21
-11.86277389526367
 31
0.0
  0
LINE
  5
FF
330
FC
100
AcDbEntity
  8
0
  6
Continuous
 62
     7
100
AcDbLine
 10
8.702667236328125
 20
-11.86277389526367
 30
0.0
 11
34.42376708984375
 21
-11.86277389526367
 31
0.0
  0
LINE
  5
100
330
FC
100
AcDbEntity
  8
0
  6
Continuous
 62
     7
100
AcDbLine
 10
0.0
 20
0.0
 30
0.0
 11
2.580826526843364
 21
-1.827384589609319
 31
0.0
  0
LINE
  5
101
330
FC
100
AcDbEntity
  8
0
  6
Continuous
 62
     7
100
AcDbLine
 10
0.0
 20
0.0
 30
0.0
 11
0.9682304677091007
 21
-3.010403587793473
 31
0.0
  0
TEXT
  5
102
330
FC
100
AcDbEntity
  8
0
  6
Continuous
 62
     7
100
AcDbText
 10
9.563674211502076
 20
-11.11277389526367
 30
0.0
 40
3.0
  1
配管接続口
 41
0.8487395020950888
100
AcDbText
  0
TEXT
  5
103
330
FC
100
AcDbEntity
  8
0
  6
Continuous
 62
     7
100
AcDbText
 10
9.563674211502076
 20
-16.37777389526367
 30
0.0
 40
3.0
  1
Ｒｃ２（５０Ａ）
 41
0.8454512278006642
100
AcDbText
  0
ENDBLK
  5
104
330
FC
100
AcDbEntity
  8
0
100
AcDbBlockEnd
  0
ENDSEC
  0
SECTION
  2
ENTITIES
  0
POINT
  5
105
330
22
100
AcDbEntity
  8
0
  6
Continuous
 62
     7
100
AcDbPoint
 10
-440.8881225585938
 20
83.0848388671875
 30
0.0
  0
POINT
  5
106
330
22
100
AcDbEntity
  8
0
  6
Continuous
 62
     7
100
AcDbPoint
 10
-440.8881225585938
 20
423.1767272949218
 30
0.0
  0
POINT
  5
107
330
22
100
AcDbEntity
  8
0
  6
Continuous
 62
     7
100
AcDbPoint
 10
-440.8881225585938
 20
83.0848388671875
 30
0.0
  0
POINT
  5
108
330
22
100
AcDbEntity
  8
0
  6
Continuous
 62
     7
100
AcDbPoint
 10
-440.8881225585938
 20
423.1767272949218
 30
0.0
  0
POINT
  5
109
330
22
100
AcDbEntity
  8
0
  6
Continuous
 62
     7
100
AcDbPoint
 10
-411.5166625976563
 20
68.29791259765625
 30
0.0
  0
POINT
  5
10A
330
22
100
AcDbEntity
  8
0
  6
Continuous
 62
     7
100
AcDbPoint
 10
-412.6537170410156
 20
146.5848388671875
 30
0.0
  0
LINE
  5
10B
330
22
100
AcDbEntity
  8
0
  6
Continuous
 62
     7
100
AcDbLine
 10
-324.8881225585938
 20
271.5848388671875
 30
0.0
 11
-316.8881225585938
 21
271.5848388671875
 31
0.0
  0
LINE
  5
10C
330
22
100
AcDbEntity
  8
0
  6
Continuous
 62
     7
100
AcDbLine
 10
-333.3881225585938
 20
275.5848388671875
 30
0.0
 11
-335.6381225585938
 21
273.3348388671875
 31
0.0
  0
LINE
  5
10D
330
22
100
AcDbEntity
  8
0
  6
Continuous
 62
     7
100
AcDbLine
 10
-342.3881225585938
 20
275.5848388671875
 30
0.0
 11
-340.1381225585938
 21
273.3348388671875
 31
0.0
  0
LINE
  5
10E
330
22
100
AcDbEntity
  8
0
  6
Continuous
 62
     7
100
AcDbLine
 10
-330.8881225585938
 20
275.5848388671875
 30
0.0
 11
-330.8881225585938
 21
269.0848388671875
 31
0.0
  0
LINE
  5
10F
330
22
100
AcDbEntity
  8
0
  6
CENTER
 62
     7
100
AcDbLine
 10
-337.8881225585938
 20
277.3112487792969
 30
0.0
 11
-337.8881225585938
 21
251.7419281005859
 31
0.0
  0
LINE
  5
110
330
22
100
AcDbEntity
  8
0
  6
Continuous
 62
     7
100
AcDbLine
 10
-325.8881225585938
 20
253.4715881347656
 30
0.0
 11
-325.8881225585938
 21
270.5848388671875
 31
0.0
  0
LINE
  5
111
330
22
100
AcDbEntity
  8
0
  6
Continuous
 62
     7
100
AcDbLine
 10
-339.6381225585938
 20
268.0848388671875
 30
0.0
 11
-339.6381225585938
 21
256.0848388671875
 31
0.0
  0
LINE
  5
112
330
22
100
AcDbEntity
  8
0
  6
Continuous
 62
     7
100
AcDbLine
 10
-339.8881225585938
 20
268.0848388671875
 30
0.0
 11
-339.8881225585938
 21
258.0848388671875
 31
0.0
  0
LINE
  5
113
330
22
100
AcDbEntity
  8
0
  6
Continuous
 62
     7
100
AcDbLine
 10
-336.1381225585938
 20
268.0848388671875
 30
0.0
 11
-336.1381225585938
 21
256.0848388671875
 31
0.0
  0
LINE
  5
114
330
22
100
AcDbEntity
  8
0
  6
Continuous
 62
     7
100
AcDbLine
 10
-335.8881225585938
 20
268.0848388671875
 30
0.0
 11
-335.8881225585938
 21
258.0848388671875
 31
0.0
  0
LINE
  5
115
330
22
100
AcDbEntity
  8
0
  6
Continuous
 62
     7
100
AcDbLine
 10
-342.8881225585938
 20
268.0848388671875
 30
0.0
 11
-342.8881225585938
 21
270.5848388671875
 31
0.0
  0
LINE
  5
116
330
22
100
AcDbEntity
  8
0
  6
Continuous
 62
     7
100
AcDbLine
 10
-340.1381225585938
 20
268.0848388671875
 30
0.0
 11
-340.1381225585938
 21
273.3348388671875
 31
0.0
  0
LINE
  5
117
330
22
100
AcDbEntity
  8
0
  6
Continuous
 62
     7
100
AcDbLine
 10
-335.6381225585938
 20
268.0848388671875
 30
0.0
 11
-335.6381225585938
 21
273.3348388671875
 31
0.0
  0
LINE
  5
118
330
22
100
AcDbEntity
  8
0
  6
Continuous
 62
     7
100
AcDbLine
 10
-340.1381225585938
 20
273.3348388671875
 30
0.0
 11
-339.8881225585938
 21
273.0848388671875
 31
0.0
  0
LINE
  5
119
330
22
100
AcDbEntity
  8
0
  6
Continuous
 62
     7
100
AcDbLine
 10
-335.6381225585938
 20
273.3348388671875
 30
0.0
 11
-335.8881225585938
 21
273.0848388671875
 31
0.0
  0
LINE
  5
11A
330
22
100
AcDbEntity
  8
0
  6
Continuous
 62
     7
100
AcDbLine
 10
-339.8881225585938
 20
273.0848388671875
 30
0.0
 11
-335.8881225585938
 21
273.0848388671875
 31
0.0
  0
LINE
  5
11B
330
22
100
AcDbEntity
  8
0
  6
Continuous
 62
     7
100
AcDbLine
 10
-339.8881225585938
 20
260.6953125
 30
0.0
 11
-335.8881225585938
 21
260.6953125
 31
0.0
  0
LINE
  5
11C
330
22
100
AcDbEntity
  8
0
  6
Continuous
 62
     7
100
AcDbLine
 10
-339.8881225585938
 20
273.0848388671875
 30
0.0
 11
-339.8881225585938
 21
260.6953125
 31
0.0
  0
LINE
  5
11D
330
22
100
AcDbEntity
  8
0
  6
Continuous
 62
     7
100
AcDbLine
 10
-335.8881225585938
 20
273.0848388671875
 30
0.0
 11
-335.8881225585938
 21
260.6953125
 31
0.0
  0
LINE
  5
11E
330
22
100
AcDbEntity
  8
0
  6
Continuous
 62
     7
100
AcDbLine
 10
-342.8881225585938
 20
268.0848388671875
 30
0.0
 11
-342.8881225585938
 21
248.2754364013672
 31
0.0
  0
LINE
  5
11F
330
22
100
AcDbEntity
  8
0
  6
Continuous
 62
     7
100
AcDbLine
 10
-339.8881225585938
 20
258.0848388671875
 30
0.0
 11
-335.8881225585938
 21
258.0848388671875
 31
0.0
  0
LINE
  5
120
330
22
100
AcDbEntity
  8
0
  6
Continuous
 62
     7
100
AcDbLine
 10
-339.6381225585938
 20
256.0848388671875
 30
0.0
 11
-337.8881225585938
 21
254.3348388671875
 31
0.0
  0
LINE
  5
121
330
22
100
AcDbEntity
  8
0
  6
Continuous
 62
     7
100
AcDbLine
 10
-337.8881225585938
 20
254.3348388671875
 30
0.0
 11
-336.1381225585938
 21
256.0848388671875
 31
0.0
  0
LINE
  5
122
330
22
100
AcDbEntity
  8
0
  6
Continuous
 62
     7
100
AcDbLine
 10
-474.3881225585938
 20
181.5848388671875
 30
0.0
 11
-473.3881225585938
 21
180.5848388671875
 31
0.0
  0
LINE
  5
123
330
22
100
AcDbEntity
  8
0
  6
Continuous
 62
     7
100
AcDbLine
 10
-474.3881225585938
 20
181.5848388671875
 30
0.0
 11
-467.9317016601562
 21
181.5848388671875
 31
0.0
  0
LINE
  5
124
330
22
100
AcDbEntity
  8
0
  6
Continuous
 62
     7
100
AcDbLine
 10
-467.2914733886718
 20
180.5848388671875
 30
0.0
 11
-467.2914733886718
 21
204.2784271240234
 31
0.0
  0
LINE
  5
125
330
22
100
AcDbEntity
  8
0
  6
Continuous
 62
     7
100
AcDbLine
 10
-463.2492370605469
 20
180.5848388671875
 30
0.0
 11
-463.2492370605469
 21
204.2784271240234
 31
0.0
  0
LINE
  5
126
330
22
100
AcDbEntity
  8
0
  6
Continuous
 62
     7
100
AcDbLine
 10
-472.9659423828125
 20
202.5403442382813
 30
0.0
 11
-468.049072265625
 21
202.5403442382813
 31
0.0
  0
LINE
  5
127
330
22
100
AcDbEntity
  8
0
  6
Continuous
 62
     7
100
AcDbLine
 10
-474.3881225585938
 20
181.5848388671875
 30
0.0
 11
-474.3881225585938
 21
201.7987365722656
 31
0.0
  0
LINE
  5
128
330
22
100
AcDbEntity
  8
0
  6
Continuous
 62
     7
100
AcDbLine
 10
-414.2047119140625
 20
202.4629669189453
 30
0.0
 11
-440.8881225585938
 21
202.4629669189453
 31
0.0
  0
LINE
  5
129
330
22
100
AcDbEntity
  8
0
  6
Continuous
 62
     7
100
AcDbLine
 10
-414.4876098632813
 20
204.3968200683594
 30
0.0
 11
-440.8881225585938
 21
204.3968200683594
 31
0.0
  0
LINE
  5
12A
330
22
100
AcDbEntity
  8
0
  6
Continuous
 62
     7
100
AcDbLine
 10
-440.8881225585938
 20
196.5848388671875
 30
0.0
 11
-413.0352478027344
 21
196.5848388671875
 31
0.0
  0
LINE
  5
12B
330
22
100
AcDbEntity
  8
0
  6
Continuous
 62
     7
100
AcDbLine
 10
-390.6381225585938
 20
85.5848388671875
 30
0.0
 11
-391.6381225585938
 21
86.5848388671875
 31
0.0
  0
LINE
  5
12C
330
22
100
AcDbEntity
  8
0
  6
Continuous
 62
     7
100
AcDbLine
 10
-390.6381225585938
 20
85.5848388671875
 30
0.0
 11
-389.6381225585938
 21
86.5848388671875
 31
0.0
  0
LINE
  5
12D
330
22
100
AcDbEntity
  8
0
  6
Continuous
 62
     7
100
AcDbLine
 10
-357.8881225585938
 20
83.58483886718749
 30
0.0
 11
-357.8881225585938
 21
84.58483886718751
 31
0.0
  0
LINE
  5
12E
330
22
100
AcDbEntity
  8
0
  6
Continuous
 62
     7
100
AcDbLine
 10
-374.6357116699219
 20
85.5848388671875
 30
0.0
 11
-375.6357116699219
 21
86.5848388671875
 31
0.0
  0
LINE
  5
12F
330
22
100
AcDbEntity
  8
0
  6
Continuous
 62
     7
100
AcDbLine
 10
-374.6357116699219
 20
85.5848388671875
 30
0.0
 11
-373.6357116699219
 21
86.5848388671875
 31
0.0
  0
LINE
  5
130
330
22
100
AcDbEntity
  8
0
  6
Continuous
 62
     7
100
AcDbLine
 10
-315.8881225585938
 20
274.5848388671875
 30
0.0
 11
-315.8881225585938
 21
272.5848388671875
 31
0.0
  0
LINE
  5
131
330
22
100
AcDbEntity
  8
0
  6
Continuous
 62
     7
100
AcDbLine
 10
-413.8881225585937
 20
203.8194732666016
 30
0.0
 11
-413.8881225585937
 21
202.9629669189453
 31
0.0
  0
LINE
  5
132
330
22
100
AcDbEntity
  8
0
  6
Continuous
 62
     7
100
AcDbLine
 10
-413.3881225585938
 20
202.4629669189453
 30
0.0
 11
-413.3152770996093
 21
202.4629669189453
 31
0.0
  0
LINE
  5
133
330
22
100
AcDbEntity
  8
0
  6
Continuous
 62
     7
100
AcDbLine
 10
-410.6174316406249
 20
176.3443298339844
 30
0.0
 11
-412.4602966308593
 21
178.1872100830078
 31
0.0
  0
LINE
  5
134
330
22
100
AcDbEntity
  8
0
  6
Continuous
 62
     7
100
AcDbLine
 10
-410.6174316406249
 20
176.3443298339844
 30
0.0
 11
-411.1923828124999
 21
194.7419738769531
 31
0.0
  0
LINE
  5
135
330
22
100
AcDbEntity
  8
0
  6
Continuous
 62
     7
100
AcDbLine
 10
-413.0352478027344
 20
196.5848388671875
 30
0.0
 11
-411.1923828124999
 21
194.7419738769531
 31
0.0
  0
LINE
  5
136
330
22
100
AcDbEntity
  8
0
  6
Continuous
 62
     7
100
AcDbLine
 10
-413.0352478027344
 20
196.5848388671875
 30
0.0
 11
-412.4602966308593
 21
178.1872100830078
 31
0.0
  0
LINE
  5
137
330
22
100
AcDbEntity
  8
0
  6
Continuous
 62
     7
100
AcDbLine
 10
-410.7499694824218
 20
180.5848388671875
 30
0.0
 11
-408.3881225585938
 21
180.5848388671875
 31
0.0
  0
LINE
  5
138
330
22
100
AcDbEntity
  8
0
  6
Continuous
 62
     7
100
AcDbLine
 10
-411.0881042480468
 20
180.5848388671875
 30
0.0
 11
-412.58642578125
 21
182.0831451416016
 31
0.0
  0
LINE
  5
139
330
22
100
AcDbEntity
  8
0
  6
Continuous
 62
     7
100
AcDbLine
 10
-411.0881042480468
 20
180.5848388671875
 30
0.0
 11
-411.8117370605468
 21
200.9594421386719
 31
0.0
  0
LINE
  5
13A
330
22
100
AcDbEntity
  8
0
  6
Continuous
 62
     7
100
AcDbLine
 10
-412.58642578125
 20
182.0831451416016
 30
0.0
 11
-413.3152770996093
 21
202.4629669189453
 31
0.0
  0
LINE
  5
13B
330
22
100
AcDbEntity
  8
0
  6
Continuous
 62
     7
100
AcDbLine
 10
-412.58642578125
 20
182.0831451416016
 30
0.0
 11
-413.0268859863281
 21
195.6399536132813
 31
0.0
  0
LINE
  5
13C
330
22
100
AcDbEntity
  8
0
  6
Continuous
 62
     7
100
AcDbLine
 10
-413.3152770996093
 20
202.4629669189453
 30
0.0
 11
-411.8117370605468
 21
200.9594421386719
 31
0.0
  0
LINE
  5
13D
330
22
100
AcDbEntity
  8
0
  6
Continuous
 62
     7
100
AcDbLine
 10
-407.3881225585938
 20
181.5848388671875
 30
0.0
 11
-408.3881225585938
 21
180.5848388671875
 31
0.0
  0
LINE
  5
13E
330
22
100
AcDbEntity
  8
0
  6
Continuous
 62
     7
100
AcDbLine
 10
-407.3881225585938
 20
181.5848388671875
 30
0.0
 11
-407.3881225585938
 21
200.64404296875
 31
0.0
  0
LINE
  5
13F
330
22
100
AcDbEntity
  8
0
  6
Continuous
 62
     7
100
AcDbLine
 10
-469.31591796875
 20
178.1872100830078
 30
0.0
 11
-440.8881225585938
 21
178.1872100830078
 31
0.0
  0
LINE
  5
140
330
22
100
AcDbEntity
  8
0
  6
Continuous
 62
     7
100
AcDbLine
 10
-475.0579833984375
 20
205.5805358886719
 30
0.0
 11
-440.8881225585938
 21
205.5805358886719
 31
0.0
  0
LINE
  5
141
330
22
100
AcDbEntity
  8
0
  6
Continuous
 62
     7
100
AcDbLine
 10
-473.3881225585938
 20
180.5848388671875
 30
0.0
 11
-440.8881225585938
 21
180.5848388671875
 31
0.0
  0
LINE
  5
142
330
22
100
AcDbEntity
  8
0
  6
Continuous
 62
     7
100
AcDbLine
 10
-462.49267578125
 20
181.5848388671875
 30
0.0
 11
-440.8881225585938
 21
181.5848388671875
 31
0.0
  0
LINE
  5
143
330
22
100
AcDbEntity
  8
0
  6
Continuous
 62
     7
100
AcDbLine
 10
-461.8914794921875
 20
202.5403442382813
 30
0.0
 11
-440.8881225585938
 21
202.5403442382813
 31
0.0
  0
LINE
  5
144
330
22
100
AcDbEntity
  8
0
  6
Continuous
 62
     7
100
AcDbLine
 10
-471.1587829589843
 20
176.3443298339844
 30
0.0
 11
-469.31591796875
 21
178.1872100830078
 31
0.0
  0
LINE
  5
145
330
22
100
AcDbEntity
  8
0
  6
Continuous
 62
     7
100
AcDbLine
 10
-469.2409973144531
 20
180.5848388671875
 30
0.0
 11
-469.31591796875
 21
178.1872100830078
 31
0.0
  0
LINE
  5
146
330
22
100
AcDbEntity
  8
0
  6
Continuous
 62
     7
100
AcDbLine
 10
-471.1587829589843
 20
176.3443298339844
 30
0.0
 11
-471.0262756347656
 21
180.5848388671875
 31
0.0
  0
LINE
  5
147
330
22
100
AcDbEntity
  8
0
  6
Continuous
 62
     7
100
AcDbLine
 10
-489.8881225585937
 20
83.0848388671875
 30
0.0
 11
-489.8881225585937
 21
81.55752563476562
 31
0.0
  0
LINE
  5
148
330
22
100
AcDbEntity
  8
0
  6
Continuous
 62
     7
100
AcDbLine
 10
-474.8881225585938
 20
82.08483886718751
 30
0.0
 11
-474.8881225585938
 21
55.5848388671875
 31
0.0
  0
LINE
  5
149
330
22
100
AcDbEntity
  8
0
  6
Continuous
 62
     7
100
AcDbLine
 10
-477.0229797363281
 20
67.0848388671875
 30
0.0
 11
-474.8881225585938
 21
67.0848388671875
 31
0.0
  0
LINE
  5
14A
330
22
100
AcDbEntity
  8
0
  6
Continuous
 62
     7
100
AcDbLine
 10
-469.1225280761718
 20
146.5848388671875
 30
0.0
 11
-469.1225280761718
 21
116.5848388671875
 31
0.0
  0
LINE
  5
14B
330
22
100
AcDbEntity
  8
0
  6
Continuous
 62
     7
100
AcDbLine
 10
-473.8881225585938
 20
54.5848388671875
 30
0.0
 11
-407.8881225585938
 21
54.5848388671875
 31
0.0
  0
LINE
  5
14C
330
22
100
AcDbEntity
  8
0
  6
Continuous
 62
     7
100
AcDbLine
 10
-440.8881225585938
 20
96.5848388671875
 30
0.0
 11
-412.6537170410156
 21
96.5848388671875
 31
0.0
  0
LINE
  5
14D
330
22
100
AcDbEntity
  8
0
  6
Continuous
 62
     7
100
AcDbLine
 10
-440.8881225585938
 20
87.8348388671875
 30
0.0
 11
-412.55810546875
 21
87.8348388671875
 31
0.0
  0
LINE
  5
14E
330
22
100
AcDbEntity
  8
0
  6
Continuous
 62
     7
100
AcDbLine
 10
-411.9452209472656
 20
82.01098632812501
 30
0.0
 11
-440.8881225585938
 21
82.01098632812501
 31
0.0
  0
LINE
  5
14F
330
22
100
AcDbEntity
  8
0
  6
Continuous
 62
     7
100
AcDbLine
 10
-411.0881042480468
 20
86.5848388671875
 30
0.0
 11
-440.8881225585938
 21
86.5848388671875
 31
0.0
  0
LINE
  5
150
330
22
100
AcDbEntity
  8
0
  6
Continuous
 62
     7
100
AcDbLine
 10
-412.6062927246094
 20
56.10300064086914
 30
0.0
 11
-440.8881225585938
 21
56.10300064086914
 31
0.0
  0
LINE
  5
151
330
22
100
AcDbEntity
  8
0
  6
Continuous
 62
     7
100
AcDbLine
 10
-413.3713684082031
 20
80.5848388671875
 30
0.0
 11
-440.8881225585938
 21
80.5848388671875
 31
0.0
  0
LINE
  5
152
330
22
100
AcDbEntity
  8
0
  6
Continuous
 62
     7
100
AcDbLine
 10
-565.8881225585937
 20
274.5848388671875
 30
0.0
 11
-565.8881225585937
 21
272.5848388671875
 31
0.0
  0
LINE
  5
153
330
22
100
AcDbEntity
  8
0
  6
Continuous
 62
     7
100
AcDbLine
 10
-553.8881225585938
 20
253.4715881347656
 30
0.0
 11
-553.8881225585938
 21
271.5848388671875
 31
0.0
  0
LINE
  5
154
330
22
100
AcDbEntity
  8
0
  6
Continuous
 62
     7
100
AcDbLine
 10
-412.55810546875
 20
115.1148376464844
 30
0.0
 11
-412.55810546875
 21
87.8348388671875
 31
0.0
  0
LINE
  5
155
330
22
100
AcDbEntity
  8
0
  6
Continuous
 62
     7
100
AcDbLine
 10
-411.0881042480468
 20
116.5848388671875
 30
0.0
 11
-411.0881042480468
 21
86.5848388671875
 31
0.0
  0
LINE
  5
156
330
22
100
AcDbEntity
  8
0
  6
Continuous
 62
     7
100
AcDbLine
 10
-412.6537170410156
 20
96.5848388671875
 30
0.0
 11
-412.6537170410156
 21
146.5848388671875
 31
0.0
  0
LINE
  5
157
330
22
100
AcDbEntity
  8
0
  6
Continuous
 62
     7
100
AcDbLine
 10
-413.3713684082031
 20
80.5848388671875
 30
0.0
 11
-411.9452209472656
 21
82.01098632812501
 31
0.0
  0
LINE
  5
158
330
22
100
AcDbEntity
  8
0
  6
Continuous
 62
     7
100
AcDbLine
 10
-412.55810546875
 20
87.8348388671875
 30
0.0
 11
-411.0881042480468
 21
86.5848388671875
 31
0.0
  0
LINE
  5
159
330
22
100
AcDbEntity
  8
0
  6
Continuous
 62
     7
100
AcDbLine
 10
-411.0881042480468
 20
54.5848388671875
 30
0.0
 11
-411.9452209472656
 21
82.01098632812501
 31
0.0
  0
LINE
  5
15A
330
22
100
AcDbEntity
  8
0
  6
Continuous
 62
     7
100
AcDbLine
 10
-406.8881225585938
 20
82.08483886718751
 30
0.0
 11
-406.8881225585938
 21
55.5848388671875
 31
0.0
  0
LINE
  5
15B
330
22
100
AcDbEntity
  8
0
  6
Continuous
 62
     7
100
AcDbLine
 10
-411.9452209472656
 20
82.01098632812501
 30
0.0
 11
-411.9452209472656
 21
86.5848388671875
 31
0.0
  0
LINE
  5
15C
330
22
100
AcDbEntity
  8
0
  6
Continuous
 62
     7
100
AcDbLine
 10
-412.6062927246094
 20
56.10300064086914
 30
0.0
 11
-413.3713684082031
 21
80.5848388671875
 31
0.0
  0
LINE
  5
15D
330
22
100
AcDbEntity
  8
0
  6
Continuous
 62
     7
100
AcDbLine
 10
-411.0881042480468
 20
54.5848388671875
 30
0.0
 11
-412.6062927246094
 21
56.10300064086914
 31
0.0
  0
LINE
  5
15E
330
22
100
AcDbEntity
  8
0
  6
Continuous
 62
     7
100
AcDbLine
 10
-411.0881042480468
 20
116.5848388671875
 30
0.0
 11
-408.8881225585938
 21
116.5848388671875
 31
0.0
  0
LINE
  5
15F
330
22
100
AcDbEntity
  8
0
  6
Continuous
 62
     7
100
AcDbLine
 10
-411.0881042480468
 20
116.5848388671875
 30
0.0
 11
-412.55810546875
 21
115.1148376464844
 31
0.0
  0
LINE
  5
160
330
22
100
AcDbEntity
  8
0
  6
Continuous
 62
     7
100
AcDbLine
 10
-472.8881225585937
 20
116.5848388671875
 30
0.0
 11
-440.8881225585938
 21
116.5848388671875
 31
0.0
  0
LINE
  5
161
330
22
100
AcDbEntity
  8
0
  6
Continuous
 62
     7
100
AcDbLine
 10
-440.8881225585938
 20
146.5848388671875
 30
0.0
 11
-469.1225280761718
 21
146.5848388671875
 31
0.0
  0
LINE
  5
162
330
22
100
AcDbEntity
  8
0
  6
Continuous
 62
     7
100
AcDbLine
 10
-473.8881225585938
 20
91.5848388671875
 30
0.0
 11
-473.8881225585938
 21
115.5848388671875
 31
0.0
  0
LINE
  5
163
330
22
100
AcDbEntity
  8
0
  6
Continuous
 62
     7
100
AcDbLine
 10
-564.8881225585937
 20
271.5848388671875
 30
0.0
 11
-440.8881225585938
 21
271.5848388671875
 31
0.0
  0
LINE
  5
164
330
22
100
AcDbEntity
  8
0
  6
Continuous
 62
     7
100
AcDbLine
 10
-550.8881225585938
 20
250.5848388671875
 30
0.0
 11
-440.8881225585938
 21
250.5848388671875
 31
0.0
  0
LINE
  5
165
330
22
100
AcDbEntity
  8
0
  6
Continuous
 62
     7
100
AcDbLine
 10
-551.3881225585938
 20
249.1414642333984
 30
0.0
 11
-476.8881225585937
 21
206.1288757324219
 31
0.0
  0
LINE
  5
166
330
22
100
AcDbEntity
  8
0
  6
Continuous
 62
     7
100
AcDbLine
 10
-523.8881225585938
 20
83.58483886718749
 30
0.0
 11
-523.8881225585938
 21
84.58483886718751
 31
0.0
  0
LINE
  5
167
330
22
100
AcDbEntity
  8
0
  6
Continuous
 62
     7
100
AcDbLine
 10
-412.6537170410156
 20
96.5848388671875
 30
0.0
 11
-410.7537231445313
 21
98.4848403930664
 31
0.0
  0
LINE
  5
168
330
22
100
AcDbEntity
  8
0
  6
Continuous
 62
     7
100
AcDbLine
 10
-407.8881225585938
 20
91.5848388671875
 30
0.0
 11
-407.8881225585938
 21
115.5848388671875
 31
0.0
  0
LINE
  5
169
330
22
100
AcDbEntity
  8
0
  6
Continuous
 62
     7
100
AcDbLine
 10
-440.8881225585938
 20
83.0848388671875
 30
0.0
 11
-523.3881225585938
 21
83.0848388671875
 31
0.0
  0
LINE
  5
16A
330
22
100
AcDbEntity
  8
0
  6
Continuous
 62
     7
100
AcDbLine
 10
-521.8881225585938
 20
86.5848388671875
 30
0.0
 11
-440.8881225585938
 21
86.5848388671875
 31
0.0
  0
LINE
  5
16B
330
22
100
AcDbEntity
  8
0
  6
Continuous
 62
     7
100
AcDbLine
 10
-414.1381225585938
 20
196.5848388671875
 30
0.0
 11
-414.1381225585938
 21
96.5848388671875
 31
0.0
  0
LINE
  5
16C
330
22
100
AcDbEntity
  8
0
  6
Continuous
 62
     7
100
AcDbLine
 10
-414.1381225585938
 20
196.2811126708984
 30
0.0
 11
-413.0554809570313
 21
195.1984710693359
 31
0.0
  0
LINE
  5
16D
330
22
100
AcDbEntity
  8
0
  6
Continuous
 62
     7
100
AcDbLine
 10
-414.1381225585938
 20
195.5740051269531
 30
0.0
 11
-413.0292358398437
 21
194.4651336669922
 31
0.0
  0
LINE
  5
16E
330
22
100
AcDbEntity
  8
0
  6
Continuous
 62
     7
100
AcDbLine
 10
-414.1381225585938
 20
193.4526824951172
 30
0.0
 11
-412.9505615234375
 21
192.26513671875
 31
0.0
  0
LINE
  5
16F
330
22
100
AcDbEntity
  8
0
  6
Continuous
 62
     7
100
AcDbLine
 10
-414.1381225585938
 20
192.7455749511719
 30
0.0
 11
-412.924346923828
 21
191.5317993164063
 31
0.0
  0
LINE
  5
170
330
22
100
AcDbEntity
  8
0
  6
Continuous
 62
     7
100
AcDbLine
 10
-414.1381225585938
 20
190.624267578125
 30
0.0
 11
-412.8456726074218
 21
189.3318023681641
 31
0.0
  0
LINE
  5
171
330
22
100
AcDbEntity
  8
0
  6
Continuous
 62
     7
100
AcDbLine
 10
-414.1381225585938
 20
189.9171600341797
 30
0.0
 11
-412.8194274902344
 21
188.5984649658203
 31
0.0
  0
LINE
  5
172
330
22
100
AcDbEntity
  8
0
  6
Continuous
 62
     7
100
AcDbLine
 10
-414.1381225585938
 20
187.7958374023438
 30
0.0
 11
-412.7407531738281
 21
186.3984680175781
 31
0.0
  0
LINE
  5
173
330
22
100
AcDbEntity
  8
0
  6
Continuous
 62
     7
100
AcDbLine
 10
-414.1381225585938
 20
187.0887298583984
 30
0.0
 11
-412.7145385742188
 21
185.6651306152344
 31
0.0
  0
LINE
  5
174
330
22
100
AcDbEntity
  8
0
  6
Continuous
 62
     7
100
AcDbLine
 10
-414.1381225585938
 20
184.9674072265625
 30
0.0
 11
-412.6358337402344
 21
183.4651336669922
 31
0.0
  0
LINE
  5
175
330
22
100
AcDbEntity
  8
0
  6
Continuous
 62
     7
100
AcDbLine
 10
-414.1381225585938
 20
184.2602996826172
 30
0.0
 11
-412.609619140625
 21
182.7317962646484
 31
0.0
  0
LINE
  5
176
330
22
100
AcDbEntity
  8
0
  6
Continuous
 62
     7
100
AcDbLine
 10
-414.1381225585938
 20
182.1389770507813
 30
0.0
 11
-412.5336608886718
 21
180.5345306396484
 31
0.0
  0
LINE
  5
177
330
22
100
AcDbEntity
  8
0
  6
Continuous
 62
     7
100
AcDbLine
 10
-414.1381225585938
 20
181.4318695068359
 30
0.0
 11
-412.5108642578124
 21
179.8046112060547
 31
0.0
  0
LINE
  5
178
330
22
100
AcDbEntity
  8
0
  6
Continuous
 62
     7
100
AcDbLine
 10
-414.1381225585938
 20
179.310546875
 30
0.0
 11
-410.6178588867187
 21
175.790283203125
 31
0.0
  0
LINE
  5
179
330
22
100
AcDbEntity
  8
0
  6
Continuous
 62
     7
100
AcDbLine
 10
-414.1381225585938
 20
178.6034393310547
 30
0.0
 11
-410.6183776855468
 21
175.0837097167969
 31
0.0
  0
LINE
  5
17A
330
22
100
AcDbEntity
  8
0
  6
Continuous
 62
     7
100
AcDbLine
 10
-414.1381225585938
 20
176.4821319580078
 30
0.0
 11
-410.6199645996094
 21
172.9639587402344
 31
0.0
  0
LINE
  5
17B
330
22
100
AcDbEntity
  8
0
  6
Continuous
 62
     7
100
AcDbLine
 10
-414.1381225585938
 20
175.7750244140625
 30
0.0
 11
-410.6204833984374
 21
172.2573852539063
 31
0.0
  0
LINE
  5
17C
330
22
100
AcDbEntity
  8
0
  6
Continuous
 62
     7
100
AcDbLine
 10
-414.1381225585938
 20
173.6537017822266
 30
0.0
 11
-410.6220703125
 21
170.1376495361328
 31
0.0
  0
LINE
  5
17D
330
22
100
AcDbEntity
  8
0
  6
Continuous
 62
     7
100
AcDbLine
 10
-414.1381225585938
 20
172.9465942382813
 30
0.0
 11
-410.6225891113281
 21
169.4310607910156
 31
0.0
  0
LINE
  5
17E
330
22
100
AcDbEntity
  8
0
  6
Continuous
 62
     7
100
AcDbLine
 10
-414.1381225585938
 20
170.8252716064453
 30
0.0
 11
-410.6241760253906
 21
167.3113250732422
 31
0.0
  0
LINE
  5
17F
330
22
100
AcDbEntity
  8
0
  6
Continuous
 62
     7
100
AcDbLine
 10
-414.1381225585938
 20
170.1181640625
 30
0.0
 11
-410.6246948242188
 21
166.6047515869141
 31
0.0
  0
LINE
  5
180
330
22
100
AcDbEntity
  8
0
  6
Continuous
 62
     7
100
AcDbLine
 10
-414.1381225585938
 20
167.9968414306641
 30
0.0
 11
-410.6262817382813
 21
164.4850006103516
 31
0.0
  0
LINE
  5
181
330
22
100
AcDbEntity
  8
0
  6
Continuous
 62
     7
100
AcDbLine
 10
-414.1381225585938
 20
167.2897338867188
 30
0.0
 11
-410.6268005371093
 21
163.7784271240234
 31
0.0
  0
LINE
  5
182
330
22
100
AcDbEntity
  8
0
  6
Continuous
 62
     7
100
AcDbLine
 10
-414.1381225585938
 20
165.1684112548828
 30
0.0
 11
-410.6283874511718
 21
161.65869140625
 31
0.0
  0
LINE
  5
183
330
22
100
AcDbEntity
  8
0
  6
Continuous
 62
     7
100
AcDbLine
 10
-414.1381225585938
 20
164.4613037109375
 30
0.0
 11
-410.62890625
 21
160.9521026611328
 31
0.0
  0
LINE
  5
184
330
22
100
AcDbEntity
  8
0
  6
Continuous
 62
     7
100
AcDbLine
 10
-414.1381225585938
 20
162.3399963378906
 30
0.0
 11
-410.6304931640624
 21
158.8323669433594
 31
0.0
  0
LINE
  5
185
330
22
100
AcDbEntity
  8
0
  6
Continuous
 62
     7
100
AcDbLine
 10
-414.1381225585938
 20
161.6328887939453
 30
0.0
 11
-410.6310119628906
 21
158.1257781982422
 31
0.0
  0
LINE
  5
186
330
22
100
AcDbEntity
  8
0
  6
Continuous
 62
     7
100
AcDbLine
 10
-414.1381225585938
 20
159.5115661621094
 30
0.0
 11
-410.6325988769531
 21
156.0060424804688
 31
0.0
  0
LINE
  5
187
330
22
100
AcDbEntity
  8
0
  6
Continuous
 62
     7
100
AcDbLine
 10
-414.1381225585938
 20
158.8044586181641
 30
0.0
 11
-410.6331176757812
 21
155.2994689941406
 31
0.0
  0
LINE
  5
188
330
22
100
AcDbEntity
  8
0
  6
Continuous
 62
     7
100
AcDbLine
 10
-414.1381225585938
 20
156.6831359863281
 30
0.0
 11
-410.6347045898438
 21
153.1797180175781
 31
0.0
  0
LINE
  5
189
330
22
100
AcDbEntity
  8
0
  6
Continuous
 62
     7
100
AcDbLine
 10
-414.1381225585938
 20
155.9760284423828
 30
0.0
 11
-410.6352233886719
 21
152.47314453125
 31
0.0
  0
LINE
  5
18A
330
22
100
AcDbEntity
  8
0
  6
Continuous
 62
     7
100
AcDbLine
 10
-414.1381225585938
 20
153.8547058105469
 30
0.0
 11
-410.6368103027343
 21
150.3534088134766
 31
0.0
  0
LINE
  5
18B
330
22
100
AcDbEntity
  8
0
  6
Continuous
 62
     7
100
AcDbLine
 10
-414.1381225585938
 20
153.1475982666016
 30
0.0
 11
-410.6373291015625
 21
149.6468200683594
 31
0.0
  0
LINE
  5
18C
330
22
100
AcDbEntity
  8
0
  6
Continuous
 62
     7
100
AcDbLine
 10
-414.1381225585938
 20
151.0262756347656
 30
0.0
 11
-411.1752014160156
 21
148.0633544921875
 31
0.0
  0
LINE
  5
18D
330
22
100
AcDbEntity
  8
0
  6
Continuous
 62
     7
100
AcDbLine
 10
-414.1381225585938
 20
150.3191680908203
 30
0.0
 11
-411.5287475585938
 21
147.7098083496094
 31
0.0
  0
LINE
  5
18E
330
22
100
AcDbEntity
  8
0
  6
Continuous
 62
     7
100
AcDbLine
 10
-414.1381225585938
 20
148.1978607177734
 30
0.0
 11
-412.5894165039063
 21
146.6491394042969
 31
0.0
  0
LINE
  5
18F
330
22
100
AcDbEntity
  8
0
  6
Continuous
 62
     7
100
AcDbLine
 10
-414.1381225585938
 20
147.4907531738281
 30
0.0
 11
-412.6537170410156
 21
146.00634765625
 31
0.0
  0
LINE
  5
190
330
22
100
AcDbEntity
  8
0
  6
Continuous
 62
     7
100
AcDbLine
 10
-414.1381225585938
 20
145.3694305419922
 30
0.0
 11
-412.6537170410156
 21
143.8850250244141
 31
0.0
  0
LINE
  5
191
330
22
100
AcDbEntity
  8
0
  6
Continuous
 62
     7
100
AcDbLine
 10
-414.1381225585938
 20
144.6623229980469
 30
0.0
 11
-412.6537170410156
 21
143.1779174804688
 31
0.0
  0
LINE
  5
192
330
22
100
AcDbEntity
  8
0
  6
Continuous
 62
     7
100
AcDbLine
 10
-414.1381225585938
 20
142.5410003662109
 30
0.0
 11
-412.6537170410156
 21
141.0565948486328
 31
0.0
  0
LINE
  5
193
330
22
100
AcDbEntity
  8
0
  6
Continuous
 62
     7
100
AcDbLine
 10
-414.1381225585938
 20
141.8338928222656
 30
0.0
 11
-412.6537170410156
 21
140.3494873046875
 31
0.0
  0
LINE
  5
194
330
22
100
AcDbEntity
  8
0
  6
Continuous
 62
     7
100
AcDbLine
 10
-414.1381225585938
 20
139.7125701904297
 30
0.0
 11
-412.6537170410156
 21
138.2281646728516
 31
0.0
  0
LINE
  5
195
330
22
100
AcDbEntity
  8
0
  6
Continuous
 62
     7
100
AcDbLine
 10
-414.1381225585938
 20
139.0054626464844
 30
0.0
 11
-412.6537170410156
 21
137.5210571289062
 31
0.0
  0
LINE
  5
196
330
22
100
AcDbEntity
  8
0
  6
Continuous
 62
     7
100
AcDbLine
 10
-414.1381225585938
 20
136.8841400146484
 30
0.0
 11
-412.6537170410156
 21
135.3997344970703
 31
0.0
  0
LINE
  5
197
330
22
100
AcDbEntity
  8
0
  6
Continuous
 62
     7
100
AcDbLine
 10
-414.1381225585938
 20
136.1770324707031
 30
0.0
 11
-412.6537170410156
 21
134.692626953125
 31
0.0
  0
LINE
  5
198
330
22
100
AcDbEntity
  8
0
  6
Continuous
 62
     7
100
AcDbLine
 10
-414.1381225585938
 20
134.0557250976563
 30
0.0
 11
-412.6537170410156
 21
132.5713043212891
 31
0.0
  0
LINE
  5
199
330
22
100
AcDbEntity
  8
0
  6
Continuous
 62
     7
100
AcDbLine
 10
-414.1381225585938
 20
133.3486175537109
 30
0.0
 11
-412.6537170410156
 21
131.8642120361328
 31
0.0
  0
LINE
  5
19A
330
22
100
AcDbEntity
  8
0
  6
Continuous
 62
     7
100
AcDbLine
 10
-414.1381225585938
 20
131.227294921875
 30
0.0
 11
-412.6537170410156
 21
129.7428894042969
 31
0.0
  0
LINE
  5
19B
330
22
100
AcDbEntity
  8
0
  6
Continuous
 62
     7
100
AcDbLine
 10
-414.1381225585938
 20
130.5201873779297
 30
0.0
 11
-412.6537170410156
 21
129.0357818603516
 31
0.0
  0
LINE
  5
19C
330
22
100
AcDbEntity
  8
0
  6
Continuous
 62
     7
100
AcDbLine
 10
-414.1381225585938
 20
128.3988647460938
 30
0.0
 11
-412.6537170410156
 21
126.9144592285156
 31
0.0
  0
LINE
  5
19D
330
22
100
AcDbEntity
  8
0
  6
Continuous
 62
     7
100
AcDbLine
 10
-414.1381225585938
 20
127.6917572021484
 30
0.0
 11
-412.6537170410156
 21
126.2073516845703
 31
0.0
  0
LINE
  5
19E
330
22
100
AcDbEntity
  8
0
  6
Continuous
 62
     7
100
AcDbLine
 10
-414.1381225585938
 20
125.5704345703125
 30
0.0
 11
-412.6537170410156
 21
124.0860290527344
 31
0.0
  0
LINE
  5
19F
330
22
100
AcDbEntity
  8
0
  6
Continuous
 62
     7
100
AcDbLine
 10
-414.1381225585938
 20
124.8633346557617
 30
0.0
 11
-412.6537170410156
 21
123.3789215087891
 31
0.0
  0
LINE
  5
1A0
330
22
100
AcDbEntity
  8
0
  6
Continuous
 62
     7
100
AcDbLine
 10
-414.1381225585938
 20
122.7420120239258
 30
0.0
 11
-412.6537170410156
 21
121.2576065063477
 31
0.0
  0
LINE
  5
1A1
330
22
100
AcDbEntity
  8
0
  6
Continuous
 62
     7
100
AcDbLine
 10
-414.1381225585938
 20
122.0349044799805
 30
0.0
 11
-412.6537170410156
 21
120.5504989624023
 31
0.0
  0
LINE
  5
1A2
330
22
100
AcDbEntity
  8
0
  6
Continuous
 62
     7
100
AcDbLine
 10
-414.1381225585938
 20
119.9135818481445
 30
0.0
 11
-412.6537170410156
 21
118.4291763305664
 31
0.0
  0
LINE
  5
1A3
330
22
100
AcDbEntity
  8
0
  6
Continuous
 62
     7
100
AcDbLine
 10
-414.1381225585938
 20
119.2064743041992
 30
0.0
 11
-412.6537170410156
 21
117.7220687866211
 31
0.0
  0
LINE
  5
1A4
330
22
100
AcDbEntity
  8
0
  6
Continuous
 62
     7
100
AcDbLine
 10
-414.1381225585938
 20
117.0851593017578
 30
0.0
 11
-412.6537170410156
 21
115.6007461547852
 31
0.0
  0
LINE
  5
1A5
330
22
100
AcDbEntity
  8
0
  6
Continuous
 62
     7
100
AcDbLine
 10
-414.1381225585938
 20
116.3780517578125
 30
0.0
 11
-412.6537170410156
 21
114.8936386108398
 31
0.0
  0
LINE
  5
1A6
330
22
100
AcDbEntity
  8
0
  6
Continuous
 62
     7
100
AcDbLine
 10
-414.1381225585938
 20
114.2567291259766
 30
0.0
 11
-412.6537170410156
 21
112.7723236083984
 31
0.0
  0
LINE
  5
1A7
330
22
100
AcDbEntity
  8
0
  6
Continuous
 62
     7
100
AcDbLine
 10
-414.1381225585938
 20
113.5496215820313
 30
0.0
 11
-412.6537170410156
 21
112.065216064453
 31
0.0
  0
LINE
  5
1A8
330
22
100
AcDbEntity
  8
0
  6
Continuous
 62
     7
100
AcDbLine
 10
-414.1381225585938
 20
111.4282989501953
 30
0.0
 11
-412.6537170410156
 21
109.9438934326172
 31
0.0
  0
LINE
  5
1A9
330
22
100
AcDbEntity
  8
0
  6
Continuous
 62
     7
100
AcDbLine
 10
-414.1381225585938
 20
110.7211990356445
 30
0.0
 11
-412.6537170410156
 21
109.2367858886719
 31
0.0
  0
LINE
  5
1AA
330
22
100
AcDbEntity
  8
0
  6
Continuous
 62
     7
100
AcDbLine
 10
-414.1381225585938
 20
108.5998764038086
 30
0.0
 11
-412.6537170410156
 21
107.1154708862305
 31
0.0
  0
LINE
  5
1AB
330
22
100
AcDbEntity
  8
0
  6
Continuous
 62
     7
100
AcDbLine
 10
-414.1381225585938
 20
107.8927688598633
 30
0.0
 11
-412.6537170410156
 21
106.4083633422852
 31
0.0
  0
LINE
  5
1AC
330
22
100
AcDbEntity
  8
0
  6
Continuous
 62
     7
100
AcDbLine
 10
-414.1381225585938
 20
105.7714462280273
 30
0.0
 11
-412.6537170410156
 21
104.2870407104492
 31
0.0
  0
LINE
  5
1AD
330
22
100
AcDbEntity
  8
0
  6
Continuous
 62
     7
100
AcDbLine
 10
-414.1381225585938
 20
105.064338684082
 30
0.0
 11
-412.6537170410156
 21
103.5799331665039
 31
0.0
  0
LINE
  5
1AE
330
22
100
AcDbEntity
  8
0
  6
Continuous
 62
     7
100
AcDbLine
 10
-414.1381225585938
 20
102.9430236816406
 30
0.0
 11
-412.6537170410156
 21
101.458610534668
 31
0.0
  0
LINE
  5
1AF
330
22
100
AcDbEntity
  8
0
  6
Continuous
 62
     7
100
AcDbLine
 10
-414.1381225585938
 20
102.2359161376953
 30
0.0
 11
-412.6537170410156
 21
100.7515029907227
 31
0.0
  0
LINE
  5
1B0
330
22
100
AcDbEntity
  8
0
  6
Continuous
 62
     7
100
AcDbLine
 10
-414.1381225585938
 20
100.1145935058594
 30
0.0
 11
-412.6537170410156
 21
98.63018798828123
 31
0.0
  0
LINE
  5
1B1
330
22
100
AcDbEntity
  8
0
  6
Continuous
 62
     7
100
AcDbLine
 10
-414.1381225585938
 20
99.40748596191406
 30
0.0
 11
-412.6537170410156
 21
97.92308044433594
 31
0.0
  0
LINE
  5
1B2
330
22
100
AcDbEntity
  8
0
  6
Continuous
 62
     7
100
AcDbLine
 10
-414.1381225585938
 20
97.28616333007813
 30
0.0
 11
-413.4367980957031
 21
96.5848388671875
 31
0.0
  0
LINE
  5
1B3
330
22
100
AcDbEntity
  8
0
  6
Continuous
 62
     7
100
AcDbLine
 10
-411.0881042480468
 20
98.15042877197265
 30
0.0
 11
-411.0881042480468
 21
148.1504364013671
 31
0.0
  0
LINE
  5
1B4
330
22
100
AcDbEntity
  8
0
  6
Continuous
 62
     7
100
AcDbLine
 10
-412.6537170410156
 20
146.5848388671875
 30
0.0
 11
-410.6381225585938
 21
148.6004333496094
 31
0.0
  0
LINE
  5
1B5
330
22
100
AcDbEntity
  8
0
  6
Continuous
 62
     7
100
AcDbLine
 10
-410.6381225585938
 20
148.6004333496094
 30
0.0
 11
-410.6174316406249
 21
176.3443298339844
 31
0.0
  0
LINE
  5
1B6
330
22
100
AcDbEntity
  8
0
  6
CENTER
 62
     7
100
AcDbLine
 10
-440.8881225585938
 20
51.02154159545897
 30
0.0
 11
-440.8881225585938
 21
284.3830261230469
 31
0.0
  0
LINE
  5
1B7
330
22
100
AcDbEntity
  8
0
  6
Continuous
 62
     7
100
AcDbLine
 10
-471.0225219726563
 20
116.5848388671875
 30
0.0
 11
-471.0225219726563
 21
148.4848327636719
 31
0.0
  0
LINE
  5
1B8
330
22
100
AcDbEntity
  8
0
  6
Continuous
 62
     7
100
AcDbLine
 10
-469.1225280761718
 20
146.5848388671875
 30
0.0
 11
-471.1381225585937
 21
148.6004333496094
 31
0.0
  0
LINE
  5
1B9
330
22
100
AcDbEntity
  8
0
  6
Continuous
 62
     7
100
AcDbLine
 10
-471.1381225585937
 20
148.6004333496094
 30
0.0
 11
-471.1381225585937
 21
177.0060729980469
 31
0.0
  0
LINE
  5
1BA
330
22
100
AcDbEntity
  8
0
  6
Continuous
 62
     7
100
AcDbLine
 10
-430.8462524414062
 20
96.5848388671875
 30
0.0
 11
-423.5543823242188
 21
96.5848388671875
 31
0.0
  0
LINE
  5
1BB
330
22
100
AcDbEntity
  8
0
  6
Continuous
 62
     7
100
AcDbLine
 10
-430.8462524414062
 20
196.5848388671875
 30
0.0
 11
-423.5543823242188
 21
196.5848388671875
 31
0.0
  0
LINE
  5
1BC
330
22
100
AcDbEntity
  8
0
  6
Continuous
 62
     7
100
AcDbLine
 10
-413.1739807128906
 20
202.3216552734375
 30
0.0
 11
-407.28857421875
 21
208.2070770263672
 31
0.0
  0
LINE
  5
1BD
330
22
100
AcDbEntity
  8
0
  6
Continuous
 62
     7
100
AcDbLine
 10
-411.7596740722656
 20
199.4933166503906
 30
0.0
 11
-397.2503662109375
 21
214.0026245117188
 31
0.0
  0
LINE
  5
1BE
330
22
100
AcDbEntity
  8
0
  6
Continuous
 62
     7
100
AcDbLine
 10
-342.8881225585938
 20
264.1222534179688
 30
0.0
 11
-339.8881225585938
 21
267.1222534179688
 31
0.0
  0
LINE
  5
1BF
330
22
100
AcDbEntity
  8
0
  6
Continuous
 62
     7
100
AcDbLine
 10
-398.140380859375
 20
208.8699798583984
 30
0.0
 11
-387.2121887207031
 21
219.7981872558594
 31
0.0
  0
LINE
  5
1C0
330
22
100
AcDbEntity
  8
0
  6
Continuous
 62
     7
100
AcDbLine
 10
-411.6141662597656
 20
195.3961944580078
 30
0.0
 11
-407.3881225585938
 21
199.6222381591797
 31
0.0
  0
LINE
  5
1C1
330
22
100
AcDbEntity
  8
0
  6
Continuous
 62
     7
100
AcDbLine
 10
-330.8881225585938
 20
271.8796081542969
 30
0.0
 11
-327.182861328125
 21
275.5848388671875
 31
0.0
  0
LINE
  5
1C2
330
22
100
AcDbEntity
  8
0
  6
Continuous
 62
     7
100
AcDbLine
 10
-335.8881225585938
 20
266.8796081542969
 30
0.0
 11
-334.682861328125
 21
268.0848388671875
 31
0.0
  0
LINE
  5
1C3
330
22
100
AcDbEntity
  8
0
  6
Continuous
 62
     7
100
AcDbLine
 10
-342.8881225585938
 20
259.8796081542969
 30
0.0
 11
-339.8881225585938
 21
262.8796081542969
 31
0.0
  0
LINE
  5
1C4
330
22
100
AcDbEntity
  8
0
  6
Continuous
 62
     7
100
AcDbLine
 10
-388.1021728515625
 20
214.66552734375
 30
0.0
 11
-377.1739807128906
 21
225.5937347412109
 31
0.0
  0
LINE
  5
1C5
330
22
100
AcDbEntity
  8
0
  6
Continuous
 62
     7
100
AcDbLine
 10
-411.096435546875
 20
191.6712799072266
 30
0.0
 11
-407.3881225585938
 21
195.3795928955078
 31
0.0
  0
LINE
  5
1C6
330
22
100
AcDbEntity
  8
0
  6
Continuous
 62
     7
100
AcDbLine
 10
-335.8881225585938
 20
262.636962890625
 30
0.0
 11
-322.9402465820313
 21
275.5848388671875
 31
0.0
  0
LINE
  5
1C7
330
22
100
AcDbEntity
  8
0
  6
Continuous
 62
     7
100
AcDbLine
 10
-342.8881225585938
 20
255.636962890625
 30
0.0
 11
-339.8881225585938
 21
258.636962890625
 31
0.0
  0
LINE
  5
1C8
330
22
100
AcDbEntity
  8
0
  6
Continuous
 62
     7
100
AcDbLine
 10
-378.0639953613281
 20
220.4610900878906
 30
0.0
 11
-367.1357727050781
 21
231.3892822265625
 31
0.0
  0
LINE
  5
1C9
330
22
100
AcDbEntity
  8
0
  6
Continuous
 62
     7
100
AcDbLine
 10
-410.9678649902344
 20
187.5572204589844
 30
0.0
 11
-407.3881225585938
 21
191.136962890625
 31
0.0
  0
LINE
  5
1CA
330
22
100
AcDbEntity
  8
0
  6
Continuous
 62
     7
100
AcDbLine
 10
-322.6976013183594
 20
271.5848388671875
 30
0.0
 11
-318.6976013183594
 21
275.5848388671875
 31
0.0
  0
LINE
  5
1CB
330
22
100
AcDbEntity
  8
0
  6
Continuous
 62
     7
100
AcDbLine
 10
-335.8881225585938
 20
258.3943176269531
 30
0.0
 11
-325.8881225585938
 21
268.3943176269531
 31
0.0
  0
LINE
  5
1CC
330
22
100
AcDbEntity
  8
0
  6
Continuous
 62
     7
100
AcDbLine
 10
-342.8881225585938
 20
251.3943176269531
 30
0.0
 11
-338.9178466796875
 21
255.3645782470703
 31
0.0
  0
LINE
  5
1CD
330
22
100
AcDbEntity
  8
0
  6
Continuous
 62
     7
100
AcDbLine
 10
-368.0257873535156
 20
226.2566375732422
 30
0.0
 11
-357.0975952148438
 21
237.1848449707031
 31
0.0
  0
LINE
  5
1CE
330
22
100
AcDbEntity
  8
0
  6
Continuous
 62
     7
100
AcDbLine
 10
-410.8392944335937
 20
183.4431457519531
 30
0.0
 11
-407.3881225585938
 21
186.8943176269531
 31
0.0
  0
LINE
  5
1CF
330
22
100
AcDbEntity
  8
0
  6
Continuous
 62
     7
100
AcDbLine
 10
-318.4549560546875
 20
271.5848388671875
 30
0.0
 11
-315.8881225585938
 21
274.1516723632813
 31
0.0
  0
LINE
  5
1D0
330
22
100
AcDbEntity
  8
0
  6
Continuous
 62
     7
100
AcDbLine
 10
-337.8881225585938
 20
252.1516723632813
 30
0.0
 11
-325.8881225585938
 21
264.1516723632813
 31
0.0
  0
LINE
  5
1D1
330
22
100
AcDbEntity
  8
0
  6
Continuous
 62
     7
100
AcDbLine
 10
-343.0856018066406
 20
246.9541931152344
 30
0.0
 11
-337.8881225585938
 21
252.1516723632813
 31
0.0
  0
LINE
  5
1D2
330
22
100
AcDbEntity
  8
0
  6
Continuous
 62
     7
100
AcDbLine
 10
-357.9876098632813
 20
232.0522003173828
 30
0.0
 11
-347.0593872070313
 21
242.9803924560547
 31
0.0
  0
LINE
  5
1D3
330
22
100
AcDbEntity
  8
0
  6
Continuous
 62
     7
100
AcDbLine
 10
-409.4549560546875
 20
180.5848388671875
 30
0.0
 11
-407.3881225585938
 21
182.6516723632813
 31
0.0
  0
LINE
  5
1D4
330
22
100
AcDbEntity
  8
0
  6
Continuous
 62
     7
100
AcDbLine
 10
-347.9494018554688
 20
237.8477478027344
 30
0.0
 11
-325.8881225585938
 21
259.9090270996094
 31
0.0
  0
LINE
  5
1D5
330
22
100
AcDbEntity
  8
0
  6
Continuous
 62
     7
100
AcDbLine
 10
-337.9111938476563
 20
243.643310546875
 30
0.0
 11
-325.8881225585938
 21
255.6663970947266
 31
0.0
  0
LINE
  5
1D6
330
22
100
AcDbEntity
  8
0
  6
Continuous
 62
     7
100
AcDbLine
 10
-327.5742797851563
 20
249.7375793457031
 30
0.0
 11
-327.3639831542969
 21
249.9479064941406
 31
0.0
  0
LINE
  5
1D7
330
22
100
AcDbEntity
  8
0
  6
Continuous
 62
     7
100
AcDbLine
 10
-413.8881225585937
 20
203.7288360595703
 30
0.0
 11
-412.3076782226562
 21
205.3092956542969
 31
0.0
  0
LINE
  5
1D8
330
22
100
AcDbEntity
  8
0
  6
Continuous
 62
     7
100
AcDbLine
 10
-412.1133117675781
 20
201.2610015869141
 30
0.0
 11
-402.2694702148438
 21
211.1048431396484
 31
0.0
  0
LINE
  5
1D9
330
22
100
AcDbEntity
  8
0
  6
Continuous
 62
     7
100
AcDbLine
 10
-342.8881225585938
 20
266.2435607910156
 30
0.0
 11
-341.0468444824219
 21
268.0848388671875
 31
0.0
  0
LINE
  5
1DA
330
22
100
AcDbEntity
  8
0
  6
Continuous
 62
     7
100
AcDbLine
 10
-403.1594848632813
 20
205.9721984863281
 30
0.0
 11
-392.2312622070313
 21
216.9004058837891
 31
0.0
  0
LINE
  5
1DB
330
22
100
AcDbEntity
  8
0
  6
Continuous
 62
     7
100
AcDbLine
 10
-411.6869201660156
 20
197.4447479248047
 30
0.0
 11
-407.1961975097655
 21
201.9354858398438
 31
0.0
  0
LINE
  5
1DC
330
22
100
AcDbEntity
  8
0
  6
Continuous
 62
     7
100
AcDbLine
 10
-330.8881225585938
 20
274.0009155273438
 30
0.0
 11
-329.30419921875
 21
275.5848388671875
 31
0.0
  0
LINE
  5
1DD
330
22
100
AcDbEntity
  8
0
  6
Continuous
 62
     7
100
AcDbLine
 10
-342.8881225585938
 20
262.0009155273438
 30
0.0
 11
-339.8881225585938
 21
265.0009155273438
 31
0.0
  0
LINE
  5
1DE
330
22
100
AcDbEntity
  8
0
  6
Continuous
 62
     7
100
AcDbLine
 10
-393.1212768554688
 20
211.7677612304688
 30
0.0
 11
-382.1930847167969
 21
222.6959533691406
 31
0.0
  0
LINE
  5
1DF
330
22
100
AcDbEntity
  8
0
  6
Continuous
 62
     7
100
AcDbLine
 10
-411.1607055664062
 20
193.7283172607422
 30
0.0
 11
-407.3881225585938
 21
197.5009155273438
 31
0.0
  0
LINE
  5
1E0
330
22
100
AcDbEntity
  8
0
  6
Continuous
 62
     7
100
AcDbLine
 10
-330.8881225585938
 20
269.7582702636719
 30
0.0
 11
-325.0615539550781
 21
275.5848388671875
 31
0.0
  0
LINE
  5
1E1
330
22
100
AcDbEntity
  8
0
  6
Continuous
 62
     7
100
AcDbLine
 10
-335.8881225585938
 20
264.7582702636719
 30
0.0
 11
-332.5615539550781
 21
268.0848388671875
 31
0.0
  0
LINE
  5
1E2
330
22
100
AcDbEntity
  8
0
  6
Continuous
 62
     7
100
AcDbLine
 10
-342.8881225585938
 20
257.7582702636719
 30
0.0
 11
-339.8881225585938
 21
260.7582702636719
 31
0.0
  0
LINE
  5
1E3
330
22
100
AcDbEntity
  8
0
  6
Continuous
 62
     7
100
AcDbLine
 10
-383.0830993652344
 20
217.5633087158203
 30
0.0
 11
-372.1548767089844
 21
228.4915161132814
 31
0.0
  0
LINE
  5
1E4
330
22
100
AcDbEntity
  8
0
  6
Continuous
 62
     7
100
AcDbLine
 10
-411.0321350097656
 20
189.6142578125
 30
0.0
 11
-407.3881225585938
 21
193.2582855224609
 31
0.0
  0
LINE
  5
1E5
330
22
100
AcDbEntity
  8
0
  6
Continuous
 62
     7
100
AcDbLine
 10
-324.8189086914063
 20
271.5848388671875
 30
0.0
 11
-320.8189086914063
 21
275.5848388671875
 31
0.0
  0
LINE
  5
1E6
330
22
100
AcDbEntity
  8
0
  6
Continuous
 62
     7
100
AcDbLine
 10
-335.8881225585938
 20
260.515625
 30
0.0
 11
-325.8881225585938
 21
270.515625
 31
0.0
  0
LINE
  5
1E7
330
22
100
AcDbEntity
  8
0
  6
Continuous
 62
     7
100
AcDbLine
 10
-342.8881225585938
 20
253.5156402587891
 30
0.0
 11
-339.6381225585938
 21
256.765625
 31
0.0
  0
LINE
  5
1E8
330
22
100
AcDbEntity
  8
0
  6
Continuous
 62
     7
100
AcDbLine
 10
-373.0448913574219
 20
223.3588714599609
 30
0.0
 11
-362.11669921875
 21
234.2870635986328
 31
0.0
  0
LINE
  5
1E9
330
22
100
AcDbEntity
  8
0
  6
Continuous
 62
     7
100
AcDbLine
 10
-410.903564453125
 20
185.5001831054688
 30
0.0
 11
-407.3881225585938
 21
189.0156402587891
 31
0.0
  0
LINE
  5
1EA
330
22
100
AcDbEntity
  8
0
  6
Continuous
 62
     7
100
AcDbLine
 10
-320.5762634277344
 20
271.5848388671875
 30
0.0
 11
-316.6676025390625
 21
275.4934997558594
 31
0.0
  0
LINE
  5
1EB
330
22
100
AcDbEntity
  8
0
  6
Continuous
 62
     7
100
AcDbLine
 10
-337.8881225585938
 20
254.2729949951172
 30
0.0
 11
-325.8881225585938
 21
266.2730102539063
 31
0.0
  0
LINE
  5
1EC
330
22
100
AcDbEntity
  8
0
  6
Continuous
 62
     7
100
AcDbLine
 10
-342.8881225585938
 20
249.2729949951172
 30
0.0
 11
-337.8881225585938
 21
254.2729949951172
 31
0.0
  0
LINE
  5
1ED
330
22
100
AcDbEntity
  8
0
  6
Continuous
 62
     7
100
AcDbLine
 10
-363.0066833496094
 20
229.1544189453125
 30
0.0
 11
-352.0784912109375
 21
240.0826263427734
 31
0.0
  0
LINE
  5
1EE
330
22
100
AcDbEntity
  8
0
  6
Continuous
 62
     7
100
AcDbLine
 10
-410.7749938964843
 20
181.3861083984375
 30
0.0
 11
-407.3881225585938
 21
184.7729949951172
 31
0.0
  0
LINE
  5
1EF
330
22
100
AcDbEntity
  8
0
  6
Continuous
 62
     7
100
AcDbLine
 10
-352.968505859375
 20
234.9499664306641
 30
0.0
 11
-325.8881225585938
 21
262.0303649902344
 31
0.0
  0
LINE
  5
1F0
330
22
100
AcDbEntity
  8
0
  6
Continuous
 62
     7
100
AcDbLine
 10
-342.9302978515625
 20
240.7455291748047
 30
0.0
 11
-325.8881225585938
 21
257.7877197265625
 31
0.0
  0
LINE
  5
1F1
330
22
100
AcDbEntity
  8
0
  6
Continuous
 62
     7
100
AcDbLine
 10
-332.8921203613281
 20
246.5410766601563
 30
0.0
 11
-325.8881225585938
 21
253.5450744628906
 31
0.0
  0
LINE
  5
1F2
330
22
100
AcDbEntity
  8
0
  6
Continuous
 62
     7
100
AcDbLine
 10
-411.0881042480468
 20
115.0177230834961
 30
0.0
 11
-409.5209960937499
 21
116.5848388671875
 31
0.0
  0
LINE
  5
1F3
330
22
100
AcDbEntity
  8
0
  6
Continuous
 62
     7
100
AcDbLine
 10
-411.0881042480468
 20
112.1892929077148
 30
0.0
 11
-407.8881225585938
 21
115.3892974853516
 31
0.0
  0
LINE
  5
1F4
330
22
100
AcDbEntity
  8
0
  6
Continuous
 62
     7
100
AcDbLine
 10
-411.0881042480468
 20
109.3608703613281
 30
0.0
 11
-407.8881225585938
 21
112.5608673095703
 31
0.0
  0
LINE
  5
1F5
330
22
100
AcDbEntity
  8
0
  6
Continuous
 62
     7
100
AcDbLine
 10
-411.0881042480468
 20
106.5324401855469
 30
0.0
 11
-407.8881225585938
 21
109.7324371337891
 31
0.0
  0
LINE
  5
1F6
330
22
100
AcDbEntity
  8
0
  6
Continuous
 62
     7
100
AcDbLine
 10
-411.0881042480468
 20
103.7040100097656
 30
0.0
 11
-407.8881225585938
 21
106.9040145874023
 31
0.0
  0
LINE
  5
1F7
330
22
100
AcDbEntity
  8
0
  6
Continuous
 62
     7
100
AcDbLine
 10
-411.0881042480468
 20
100.8755874633789
 30
0.0
 11
-407.8881225585938
 21
104.0755844116211
 31
0.0
  0
LINE
  5
1F8
330
22
100
AcDbEntity
  8
0
  6
Continuous
 62
     7
100
AcDbLine
 10
-411.0881042480468
 20
98.04715728759767
 30
0.0
 11
-407.8881225585938
 21
101.2471618652344
 31
0.0
  0
LINE
  5
1F9
330
22
100
AcDbEntity
  8
0
  6
Continuous
 62
     7
100
AcDbLine
 10
-411.0881042480468
 20
95.21873474121093
 30
0.0
 11
-407.8881225585938
 21
98.41873168945312
 31
0.0
  0
LINE
  5
1FA
330
22
100
AcDbEntity
  8
0
  6
Continuous
 62
     7
100
AcDbLine
 10
-411.0881042480468
 20
92.39030456542968
 30
0.0
 11
-407.8881225585938
 21
95.59030151367187
 31
0.0
  0
LINE
  5
1FB
330
22
100
AcDbEntity
  8
0
  6
Continuous
 62
     7
100
AcDbLine
 10
-411.0881042480468
 20
89.56187438964844
 30
0.0
 11
-407.8881225585938
 21
92.76187896728515
 31
0.0
  0
LINE
  5
1FC
330
22
100
AcDbEntity
  8
0
  6
Continuous
 62
     7
100
AcDbLine
 10
-411.0881042480468
 20
86.73345184326171
 30
0.0
 11
-407.6570739746093
 21
90.16448211669922
 31
0.0
  0
LINE
  5
1FD
330
22
100
AcDbEntity
  8
0
  6
Continuous
 62
     7
100
AcDbLine
 10
-411.0881042480468
 20
83.90502166748047
 30
0.0
 11
-406.6581115722656
 21
88.33501434326171
 31
0.0
  0
LINE
  5
1FE
330
22
100
AcDbEntity
  8
0
  6
Continuous
 62
     7
100
AcDbLine
 10
-411.8909301757812
 20
80.27377319335938
 30
0.0
 11
-405.0607299804688
 21
87.1039810180664
 31
0.0
  0
LINE
  5
1FF
330
22
100
AcDbEntity
  8
0
  6
Continuous
 62
     7
100
AcDbLine
 10
-406.4418640136718
 20
82.8944091796875
 30
0.0
 11
-402.7514343261718
 21
86.5848388671875
 31
0.0
  0
LINE
  5
200
330
22
100
AcDbEntity
  8
0
  6
Continuous
 62
     7
100
AcDbLine
 10
-411.8052062988281
 20
77.53106689453125
 30
0.0
 11
-406.6976928710937
 21
82.63859558105469
 31
0.0
  0
LINE
  5
201
330
22
100
AcDbEntity
  8
0
  6
Continuous
 62
     7
100
AcDbLine
 10
-403.4230041503906
 20
83.0848388671875
 30
0.0
 11
-399.9230041503906
 21
86.5848388671875
 31
0.0
  0
LINE
  5
202
330
22
100
AcDbEntity
  8
0
  6
Continuous
 62
     7
100
AcDbLine
 10
-411.7195129394531
 20
74.78835296630859
 30
0.0
 11
-406.8881225585938
 21
79.61974334716797
 31
0.0
  0
LINE
  5
203
330
22
100
AcDbEntity
  8
0
  6
Continuous
 62
     7
100
AcDbLine
 10
-400.5946044921874
 20
83.0848388671875
 30
0.0
 11
-397.0946044921875
 21
86.5848388671875
 31
0.0
  0
LINE
  5
204
330
22
100
AcDbEntity
  8
0
  6
Continuous
 62
     7
100
AcDbLine
 10
-411.6337890625
 20
72.04563903808594
 30
0.0
 11
-406.8881225585938
 21
76.79131317138672
 31
0.0
  0
LINE
  5
205
330
22
100
AcDbEntity
  8
0
  6
Continuous
 62
     7
100
AcDbLine
 10
-397.7661743164063
 20
83.0848388671875
 30
0.0
 11
-394.2661743164063
 21
86.5848388671875
 31
0.0
  0
LINE
  5
206
330
22
100
AcDbEntity
  8
0
  6
Continuous
 62
     7
100
AcDbLine
 10
-411.5480651855468
 20
69.30292510986328
 30
0.0
 11
-406.8881225585938
 21
73.962890625
 31
0.0
  0
LINE
  5
207
330
22
100
AcDbEntity
  8
0
  6
Continuous
 62
     7
100
AcDbLine
 10
-394.937744140625
 20
83.0848388671875
 30
0.0
 11
-391.5379333496094
 21
86.48464965820313
 31
0.0
  0
LINE
  5
208
330
22
100
AcDbEntity
  8
0
  6
Continuous
 62
     7
100
AcDbLine
 10
-411.4623718261718
 20
66.56021118164064
 30
0.0
 11
-406.8881225585938
 21
71.13446044921875
 31
0.0
  0
LINE
  5
209
330
22
100
AcDbEntity
  8
0
  6
Continuous
 62
     7
100
AcDbLine
 10
-392.1093139648438
 20
83.0848388671875
 30
0.0
 11
-388.6093139648438
 21
86.5848388671875
 31
0.0
  0
LINE
  5
20A
330
22
100
AcDbEntity
  8
0
  6
Continuous
 62
     7
100
AcDbLine
 10
-411.3766479492188
 20
63.81749725341797
 30
0.0
 11
-406.8881225585938
 21
68.3060302734375
 31
0.0
  0
LINE
  5
20B
330
22
100
AcDbEntity
  8
0
  6
Continuous
 62
     7
100
AcDbLine
 10
-389.2808837890625
 20
83.0848388671875
 30
0.0
 11
-385.7808837890625
 21
86.5848388671875
 31
0.0
  0
LINE
  5
20C
330
22
100
AcDbEntity
  8
0
  6
Continuous
 62
     7
100
AcDbLine
 10
-411.2909240722656
 20
61.07478713989258
 30
0.0
 11
-406.8881225585938
 21
65.47760772705078
 31
0.0
  0
LINE
  5
20D
330
22
100
AcDbEntity
  8
0
  6
Continuous
 62
     7
100
AcDbLine
 10
-386.4524536132813
 20
83.0848388671875
 30
0.0
 11
-382.9524536132813
 21
86.5848388671875
 31
0.0
  0
LINE
  5
20E
330
22
100
AcDbEntity
  8
0
  6
Continuous
 62
     7
100
AcDbLine
 10
-411.2052307128906
 20
58.33207321166992
 30
0.0
 11
-406.8881225585938
 21
62.64917755126953
 31
0.0
  0
LINE
  5
20F
330
22
100
AcDbEntity
  8
0
  6
Continuous
 62
     7
100
AcDbLine
 10
-383.6240234375
 20
83.0848388671875
 30
0.0
 11
-380.1240234375
 21
86.5848388671875
 31
0.0
  0
LINE
  5
210
330
22
100
AcDbEntity
  8
0
  6
Continuous
 62
     7
100
AcDbLine
 10
-411.1195068359375
 20
55.58935928344727
 30
0.0
 11
-406.8881225585938
 21
59.82075119018555
 31
0.0
  0
LINE
  5
211
330
22
100
AcDbEntity
  8
0
  6
Continuous
 62
     7
100
AcDbLine
 10
-380.7955932617188
 20
83.0848388671875
 30
0.0
 11
-377.2955932617188
 21
86.5848388671875
 31
0.0
  0
LINE
  5
212
330
22
100
AcDbEntity
  8
0
  6
Continuous
 62
     7
100
AcDbLine
 10
-409.2955932617187
 20
54.5848388671875
 30
0.0
 11
-406.8881225585938
 21
56.99232482910156
 31
0.0
  0
LINE
  5
213
330
22
100
AcDbEntity
  8
0
  6
Continuous
 62
     7
100
AcDbLine
 10
-377.9671630859375
 20
83.0848388671875
 30
0.0
 11
-375.0514526367188
 21
86.00057220458984
 31
0.0
  0
LINE
  5
214
330
22
100
AcDbEntity
  8
0
  6
Continuous
 62
     7
100
AcDbLine
 10
-375.1387329101563
 20
83.0848388671875
 30
0.0
 11
-371.6387329101563
 21
86.5848388671875
 31
0.0
  0
LINE
  5
215
330
22
100
AcDbEntity
  8
0
  6
Continuous
 62
     7
100
AcDbLine
 10
-372.3103332519531
 20
83.0848388671875
 30
0.0
 11
-368.8103332519531
 21
86.5848388671875
 31
0.0
  0
LINE
  5
216
330
22
100
AcDbEntity
  8
0
  6
Continuous
 62
     7
100
AcDbLine
 10
-369.4819030761719
 20
83.0848388671875
 30
0.0
 11
-365.9819030761719
 21
86.5848388671875
 31
0.0
  0
LINE
  5
217
330
22
100
AcDbEntity
  8
0
  6
Continuous
 62
     7
100
AcDbLine
 10
-366.6534729003906
 20
83.0848388671875
 30
0.0
 11
-363.1534729003906
 21
86.5848388671875
 31
0.0
  0
LINE
  5
218
330
22
100
AcDbEntity
  8
0
  6
Continuous
 62
     7
100
AcDbLine
 10
-363.8250427246094
 20
83.0848388671875
 30
0.0
 11
-360.3250427246094
 21
86.5848388671875
 31
0.0
  0
LINE
  5
219
330
22
100
AcDbEntity
  8
0
  6
Continuous
 62
     7
100
AcDbLine
 10
-360.9966125488281
 20
83.0848388671875
 30
0.0
 11
-358.3170776367188
 21
85.76436614990234
 31
0.0
  0
LINE
  5
21A
330
22
100
AcDbEntity
  8
0
  6
Continuous
 62
     7
100
AcDbLine
 10
-378.8881225585938
 20
86.5848388671875
 30
0.0
 11
-368.8662719726563
 21
86.5848388671875
 31
0.0
  0
LINE
  5
21B
330
22
100
AcDbEntity
  8
0
  6
Continuous
 62
     7
100
AcDbLine
 10
-402.8881225585938
 20
86.5848388671875
 30
0.0
 11
-359.8881225585938
 21
86.5848388671875
 31
0.0
  0
LINE
  5
21C
330
22
100
AcDbEntity
  8
0
  6
Continuous
 62
     7
100
AcDbLine
 10
-405.8881225585937
 20
83.0848388671875
 30
0.0
 11
-358.3881225585938
 21
83.0848388671875
 31
0.0
  0
LINE
  5
21D
330
22
100
AcDbEntity
  8
0
  6
Continuous
 62
     7
100
AcDbLine
 10
-328.3881225585938
 20
249.1414642333984
 30
0.0
 11
-404.8881225585938
 21
204.9741668701172
 31
0.0
  0
LINE
  5
21E
330
22
100
AcDbEntity
  8
0
  6
Continuous
 62
     7
100
AcDbLine
 10
-345.3881225585938
 20
243.9453125
 30
0.0
 11
-413.3881225585938
 21
204.6854858398438
 31
0.0
  0
LINE
  5
21F
330
22
100
AcDbEntity
  8
0
  6
Continuous
 62
     7
100
AcDbLine
 10
-440.8881225585938
 20
270.5848388671875
 30
0.0
 11
-342.8881225585938
 21
270.5848388671875
 31
0.0
  0
LINE
  5
220
330
22
100
AcDbEntity
  8
0
  6
Continuous
 62
     7
100
AcDbLine
 10
-440.8881225585938
 20
268.0848388671875
 30
0.0
 11
-331.8881225585938
 21
268.0848388671875
 31
0.0
  0
LINE
  5
221
330
22
100
AcDbEntity
  8
0
  6
Continuous
 62
     7
100
AcDbLine
 10
-332.6483459472656
 20
275.5848388671875
 30
0.0
 11
-330.8881225585938
 21
273.8246154785155
 31
0.0
  0
LINE
  5
222
330
22
100
AcDbEntity
  8
0
  6
Continuous
 62
     7
100
AcDbLine
 10
-335.1395568847656
 20
273.8334045410156
 30
0.0
 11
-330.8881225585938
 21
269.5819702148438
 31
0.0
  0
LINE
  5
223
330
22
100
AcDbEntity
  8
0
  6
Continuous
 62
     7
100
AcDbLine
 10
-335.6381225585938
 20
270.0893249511719
 30
0.0
 11
-333.6336364746094
 21
268.0848388671875
 31
0.0
  0
LINE
  5
224
330
22
100
AcDbEntity
  8
0
  6
Continuous
 62
     7
100
AcDbLine
 10
-345.3762512207031
 20
275.5848388671875
 30
0.0
 11
-340.1381225585938
 21
270.3466796875
 31
0.0
  0
LINE
  5
225
330
22
100
AcDbEntity
  8
0
  6
Continuous
 62
     7
100
AcDbLine
 10
-342.8881225585938
 20
268.8540344238281
 30
0.0
 11
-342.118896484375
 21
268.0848388671875
 31
0.0
  0
LINE
  5
226
330
22
100
AcDbEntity
  8
0
  6
Continuous
 62
     7
100
AcDbLine
 10
-349.618896484375
 20
275.5848388671875
 30
0.0
 11
-344.618896484375
 21
270.5848388671875
 31
0.0
  0
LINE
  5
227
330
22
100
AcDbEntity
  8
0
  6
Continuous
 62
     7
100
AcDbLine
 10
-353.8615417480469
 20
275.5848388671875
 30
0.0
 11
-348.8615417480469
 21
270.5848388671875
 31
0.0
  0
LINE
  5
228
330
22
100
AcDbEntity
  8
0
  6
Continuous
 62
     7
100
AcDbLine
 10
-358.1041870117188
 20
275.5848388671875
 30
0.0
 11
-353.1041870117188
 21
270.5848388671875
 31
0.0
  0
LINE
  5
229
330
22
100
AcDbEntity
  8
0
  6
Continuous
 62
     7
100
AcDbLine
 10
-362.3468322753906
 20
275.5848388671875
 30
0.0
 11
-357.3468322753906
 21
270.5848388671875
 31
0.0
  0
LINE
  5
22A
330
22
100
AcDbEntity
  8
0
  6
Continuous
 62
     7
100
AcDbLine
 10
-366.5894775390625
 20
275.5848388671875
 30
0.0
 11
-361.5894775390625
 21
270.5848388671875
 31
0.0
  0
LINE
  5
22B
330
22
100
AcDbEntity
  8
0
  6
Continuous
 62
     7
100
AcDbLine
 10
-370.8321228027344
 20
275.5848388671875
 30
0.0
 11
-365.8321228027344
 21
270.5848388671875
 31
0.0
  0
LINE
  5
22C
330
22
100
AcDbEntity
  8
0
  6
Continuous
 62
     7
100
AcDbLine
 10
-375.0747375488281
 20
275.5848388671875
 30
0.0
 11
-370.0747375488281
 21
270.5848388671875
 31
0.0
  0
LINE
  5
22D
330
22
100
AcDbEntity
  8
0
  6
Continuous
 62
     7
100
AcDbLine
 10
-379.3173828125
 20
275.5848388671875
 30
0.0
 11
-374.3173828125
 21
270.5848388671875
 31
0.0
  0
LINE
  5
22E
330
22
100
AcDbEntity
  8
0
  6
Continuous
 62
     7
100
AcDbLine
 10
-383.5600280761719
 20
275.5848388671875
 30
0.0
 11
-378.5600280761719
 21
270.5848388671875
 31
0.0
  0
LINE
  5
22F
330
22
100
AcDbEntity
  8
0
  6
Continuous
 62
     7
100
AcDbLine
 10
-387.8026733398438
 20
275.5848388671875
 30
0.0
 11
-382.8026733398438
 21
270.5848388671875
 31
0.0
  0
LINE
  5
230
330
22
100
AcDbEntity
  8
0
  6
Continuous
 62
     7
100
AcDbLine
 10
-392.0453186035156
 20
275.5848388671875
 30
0.0
 11
-387.0453186035156
 21
270.5848388671875
 31
0.0
  0
LINE
  5
231
330
22
100
AcDbEntity
  8
0
  6
Continuous
 62
     7
100
AcDbLine
 10
-396.2879638671875
 20
275.5848388671875
 30
0.0
 11
-391.2879638671875
 21
270.5848388671875
 31
0.0
  0
LINE
  5
232
330
22
100
AcDbEntity
  8
0
  6
Continuous
 62
     7
100
AcDbLine
 10
-400.5306091308593
 20
275.5848388671875
 30
0.0
 11
-395.5306091308594
 21
270.5848388671875
 31
0.0
  0
LINE
  5
233
330
22
100
AcDbEntity
  8
0
  6
Continuous
 62
     7
100
AcDbLine
 10
-404.7732238769531
 20
275.5848388671875
 30
0.0
 11
-399.7732238769531
 21
270.5848388671875
 31
0.0
  0
LINE
  5
234
330
22
100
AcDbEntity
  8
0
  6
Continuous
 62
     7
100
AcDbLine
 10
-409.015869140625
 20
275.5848388671875
 30
0.0
 11
-404.015869140625
 21
270.5848388671875
 31
0.0
  0
LINE
  5
235
330
22
100
AcDbEntity
  8
0
  6
Continuous
 62
     7
100
AcDbLine
 10
-413.2585144042968
 20
275.5848388671875
 30
0.0
 11
-408.2585144042968
 21
270.5848388671875
 31
0.0
  0
LINE
  5
236
330
22
100
AcDbEntity
  8
0
  6
Continuous
 62
     7
100
AcDbLine
 10
-417.5011596679688
 20
275.5848388671875
 30
0.0
 11
-412.5011596679688
 21
270.5848388671875
 31
0.0
  0
LINE
  5
237
330
22
100
AcDbEntity
  8
0
  6
Continuous
 62
     7
100
AcDbLine
 10
-421.7438049316406
 20
275.5848388671875
 30
0.0
 11
-416.7438049316406
 21
270.5848388671875
 31
0.0
  0
LINE
  5
238
330
22
100
AcDbEntity
  8
0
  6
Continuous
 62
     7
100
AcDbLine
 10
-425.9864501953124
 20
275.5848388671875
 30
0.0
 11
-420.9864501953124
 21
270.5848388671875
 31
0.0
  0
LINE
  5
239
330
22
100
AcDbEntity
  8
0
  6
Continuous
 62
     7
100
AcDbLine
 10
-430.2290649414063
 20
275.5848388671875
 30
0.0
 11
-425.2290649414063
 21
270.5848388671875
 31
0.0
  0
LINE
  5
23A
330
22
100
AcDbEntity
  8
0
  6
Continuous
 62
     7
100
AcDbLine
 10
-434.4717102050781
 20
275.5848388671875
 30
0.0
 11
-429.4717102050781
 21
270.5848388671875
 31
0.0
  0
LINE
  5
23B
330
22
100
AcDbEntity
  8
0
  6
Continuous
 62
     7
100
AcDbLine
 10
-438.71435546875
 20
275.5848388671875
 30
0.0
 11
-433.7143554687499
 21
270.5848388671875
 31
0.0
  0
LINE
  5
23C
330
22
100
AcDbEntity
  8
0
  6
Continuous
 62
     7
100
AcDbLine
 10
-440.8881225585938
 20
273.5159606933594
 30
0.0
 11
-437.9570007324218
 21
270.5848388671875
 31
0.0
  0
LINE
  5
23D
330
22
100
AcDbEntity
  8
0
  6
Continuous
 62
     7
100
AcDbLine
 10
-334.0788879394531
 20
274.8940734863281
 30
0.0
 11
-330.8881225585938
 21
271.7032775878906
 31
0.0
  0
LINE
  5
23E
330
22
100
AcDbEntity
  8
0
  6
Continuous
 62
     7
100
AcDbLine
 10
-335.6381225585938
 20
272.2106628417969
 30
0.0
 11
-331.5746459960938
 21
268.1471862792969
 31
0.0
  0
LINE
  5
23F
330
22
100
AcDbEntity
  8
0
  6
Continuous
 62
     7
100
AcDbLine
 10
-343.2549438476563
 20
275.5848388671875
 30
0.0
 11
-340.1381225585938
 21
272.468017578125
 31
0.0
  0
LINE
  5
240
330
22
100
AcDbEntity
  8
0
  6
Continuous
 62
     7
100
AcDbLine
 10
-347.4975891113281
 20
275.5848388671875
 30
0.0
 11
-340.1381225585938
 21
268.2253723144531
 31
0.0
  0
LINE
  5
241
330
22
100
AcDbEntity
  8
0
  6
Continuous
 62
     7
100
AcDbLine
 10
-351.740234375
 20
275.5848388671875
 30
0.0
 11
-346.740234375
 21
270.5848388671875
 31
0.0
  0
LINE
  5
242
330
22
100
AcDbEntity
  8
0
  6
Continuous
 62
     7
100
AcDbLine
 10
-355.9828796386719
 20
275.5848388671875
 30
0.0
 11
-350.9828796386719
 21
270.5848388671875
 31
0.0
  0
LINE
  5
243
330
22
100
AcDbEntity
  8
0
  6
Continuous
 62
     7
100
AcDbLine
 10
-360.2254943847656
 20
275.5848388671875
 30
0.0
 11
-355.2254943847656
 21
270.5848388671875
 31
0.0
  0
LINE
  5
244
330
22
100
AcDbEntity
  8
0
  6
Continuous
 62
     7
100
AcDbLine
 10
-364.4681396484375
 20
275.5848388671875
 30
0.0
 11
-359.4681396484375
 21
270.5848388671875
 31
0.0
  0
LINE
  5
245
330
22
100
AcDbEntity
  8
0
  6
Continuous
 62
     7
100
AcDbLine
 10
-368.7107849121094
 20
275.5848388671875
 30
0.0
 11
-363.7107849121094
 21
270.5848388671875
 31
0.0
  0
LINE
  5
246
330
22
100
AcDbEntity
  8
0
  6
Continuous
 62
     7
100
AcDbLine
 10
-372.9534301757813
 20
275.5848388671875
 30
0.0
 11
-367.9534301757813
 21
270.5848388671875
 31
0.0
  0
LINE
  5
247
330
22
100
AcDbEntity
  8
0
  6
Continuous
 62
     7
100
AcDbLine
 10
-377.1960754394531
 20
275.5848388671875
 30
0.0
 11
-372.1960754394531
 21
270.5848388671875
 31
0.0
  0
LINE
  5
248
330
22
100
AcDbEntity
  8
0
  6
Continuous
 62
     7
100
AcDbLine
 10
-381.438720703125
 20
275.5848388671875
 30
0.0
 11
-376.438720703125
 21
270.5848388671875
 31
0.0
  0
LINE
  5
249
330
22
100
AcDbEntity
  8
0
  6
Continuous
 62
     7
100
AcDbLine
 10
-385.6813659667969
 20
275.5848388671875
 30
0.0
 11
-380.6813659667969
 21
270.5848388671875
 31
0.0
  0
LINE
  5
24A
330
22
100
AcDbEntity
  8
0
  6
Continuous
 62
     7
100
AcDbLine
 10
-389.9239807128907
 20
275.5848388671875
 30
0.0
 11
-384.9239807128906
 21
270.5848388671875
 31
0.0
  0
LINE
  5
24B
330
22
100
AcDbEntity
  8
0
  6
Continuous
 62
     7
100
AcDbLine
 10
-394.1666259765625
 20
275.5848388671875
 30
0.0
 11
-389.1666259765625
 21
270.5848388671875
 31
0.0
  0
LINE
  5
24C
330
22
100
AcDbEntity
  8
0
  6
Continuous
 62
     7
100
AcDbLine
 10
-398.4092712402344
 20
275.5848388671875
 30
0.0
 11
-393.4092712402344
 21
270.5848388671875
 31
0.0
  0
LINE
  5
24D
330
22
100
AcDbEntity
  8
0
  6
Continuous
 62
     7
100
AcDbLine
 10
-402.6519165039062
 20
275.5848388671875
 30
0.0
 11
-397.6519165039063
 21
270.5848388671875
 31
0.0
  0
LINE
  5
24E
330
22
100
AcDbEntity
  8
0
  6
Continuous
 62
     7
100
AcDbLine
 10
-406.8945617675781
 20
275.5848388671875
 30
0.0
 11
-401.8945617675781
 21
270.5848388671875
 31
0.0
  0
LINE
  5
24F
330
22
100
AcDbEntity
  8
0
  6
Continuous
 62
     7
100
AcDbLine
 10
-411.13720703125
 20
275.5848388671875
 30
0.0
 11
-406.13720703125
 21
270.5848388671875
 31
0.0
  0
LINE
  5
250
330
22
100
AcDbEntity
  8
0
  6
Continuous
 62
     7
100
AcDbLine
 10
-415.3798522949219
 20
275.5848388671875
 30
0.0
 11
-410.3798522949218
 21
270.5848388671875
 31
0.0
  0
LINE
  5
251
330
22
100
AcDbEntity
  8
0
  6
Continuous
 62
     7
100
AcDbLine
 10
-419.6224670410156
 20
275.5848388671875
 30
0.0
 11
-414.6224670410155
 21
270.5848388671875
 31
0.0
  0
LINE
  5
252
330
22
100
AcDbEntity
  8
0
  6
Continuous
 62
     7
100
AcDbLine
 10
-423.8651123046874
 20
275.5848388671875
 30
0.0
 11
-418.8651123046875
 21
270.5848388671875
 31
0.0
  0
LINE
  5
253
330
22
100
AcDbEntity
  8
0
  6
Continuous
 62
     7
100
AcDbLine
 10
-428.1077575683593
 20
275.5848388671875
 30
0.0
 11
-423.1077575683594
 21
270.5848388671875
 31
0.0
  0
LINE
  5
254
330
22
100
AcDbEntity
  8
0
  6
Continuous
 62
     7
100
AcDbLine
 10
-432.3504028320312
 20
275.5848388671875
 30
0.0
 11
-427.3504028320313
 21
270.5848388671875
 31
0.0
  0
LINE
  5
255
330
22
100
AcDbEntity
  8
0
  6
Continuous
 62
     7
100
AcDbLine
 10
-436.5930480957031
 20
275.5848388671875
 30
0.0
 11
-431.5930480957031
 21
270.5848388671875
 31
0.0
  0
LINE
  5
256
330
22
100
AcDbEntity
  8
0
  6
Continuous
 62
     7
100
AcDbLine
 10
-440.835693359375
 20
275.5848388671875
 30
0.0
 11
-435.835693359375
 21
270.5848388671875
 31
0.0
  0
LINE
  5
257
330
22
100
AcDbEntity
  8
0
  6
Continuous
 62
     7
100
AcDbLine
 10
-440.8881225585938
 20
271.3946228027344
 30
0.0
 11
-440.0783081054687
 21
270.5848388671875
 31
0.0
  0
LINE
  5
258
330
22
100
AcDbEntity
  8
0
  6
Continuous
 62
     7
100
AcDbLine
 10
-564.8881225585937
 20
275.5848388671875
 30
0.0
 11
-316.8881225585938
 21
275.5848388671875
 31
0.0
  0
LINE
  5
259
330
22
100
AcDbEntity
  8
0
  6
Continuous
 62
     7
100
AcDbLine
 10
-348.2933959960938
 20
245.6207427978516
 30
0.0
 11
-440.8881225585938
 21
245.6207427978516
 31
0.0
  0
LINE
  5
25A
330
22
100
AcDbEntity
  8
0
  6
Continuous
 62
     7
100
AcDbLine
 10
-343.8881225585938
 20
516.6767578125
 30
0.0
 11
-343.8881225585938
 21
499.6767272949218
 31
0.0
  0
LINE
  5
25B
330
22
100
AcDbEntity
  8
0
  6
Continuous
 62
     7
100
AcDbLine
 10
-353.8881225585938
 20
522.6767578125
 30
0.0
 11
-353.8881225585938
 21
482.6767272949219
 31
0.0
  0
LINE
  5
25C
330
22
100
AcDbEntity
  8
0
  6
Continuous
 62
     7
100
AcDbLine
 10
-348.8881225585938
 20
522.6767578125
 30
0.0
 11
-348.8881225585938
 21
482.6767272949219
 31
0.0
  0
LINE
  5
25D
330
22
100
AcDbEntity
  8
0
  6
Continuous
 62
     7
100
AcDbLine
 10
-358.8881225585938
 20
522.6767578125
 30
0.0
 11
-358.8881225585938
 21
499.6767272949218
 31
0.0
  0
LINE
  5
25E
330
22
100
AcDbEntity
  8
0
  6
Continuous
 62
     7
100
AcDbLine
 10
-338.8881225585938
 20
516.6767578125
 30
0.0
 11
-338.8881225585938
 21
499.6767272949218
 31
0.0
  0
LINE
  5
25F
330
22
100
AcDbEntity
  8
0
  6
Continuous
 62
     7
100
AcDbLine
 10
-335.3838806152344
 20
528.6809692382814
 30
0.0
 11
-335.1119384765625
 21
528.4089965820313
 31
0.0
  0
LINE
  5
260
330
22
100
AcDbEntity
  8
0
  6
Continuous
 62
     7
100
AcDbLine
 10
-335.1119384765625
 20
528.4089965820313
 30
0.0
 11
-336.8068542480469
 21
526.1767578125
 31
0.0
  0
LINE
  5
261
330
22
100
AcDbEntity
  8
0
  6
Continuous
 62
     7
100
AcDbLine
 10
-335.3838806152344
 20
528.6809692382814
 30
0.0
 11
-335.6558532714844
 21
528.9529418945313
 31
0.0
  0
LINE
  5
262
330
22
100
AcDbEntity
  8
0
  6
Continuous
 62
     7
100
AcDbLine
 10
-340.1058044433594
 20
528.9379272460938
 30
0.0
 11
-337.8881225585938
 21
527.2579956054689
 31
0.0
  0
LINE
  5
263
330
22
100
AcDbEntity
  8
0
  6
Continuous
 62
     7
100
AcDbLine
 10
-340.6493225097656
 20
528.3944091796874
 30
0.0
 11
-338.9693603515625
 21
526.1767578125
 31
0.0
  0
LINE
  5
264
330
22
100
AcDbEntity
  8
0
  6
Continuous
 62
     7
100
AcDbLine
 10
-340.6493225097656
 20
528.3944091796874
 30
0.0
 11
-340.3775634765625
 21
528.6661987304689
 31
0.0
  0
LINE
  5
265
330
22
100
AcDbEntity
  8
0
  6
Continuous
 62
     7
100
AcDbLine
 10
-340.1058044433594
 20
528.9379272460938
 30
0.0
 11
-340.3775634765625
 21
528.6661987304689
 31
0.0
  0
LINE
  5
266
330
22
100
AcDbEntity
  8
0
  6
Continuous
 62
     7
100
AcDbLine
 10
-340.6493225097656
 20
528.3944091796874
 30
0.0
 11
-340.3775634765625
 21
528.6661987304689
 31
0.0
  0
LINE
  5
267
330
22
100
AcDbEntity
  8
0
  6
Continuous
 62
     7
100
AcDbLine
 10
-335.6704406738281
 20
523.41552734375
 30
0.0
 11
-337.8881225585938
 21
525.0955200195313
 31
0.0
  0
LINE
  5
268
330
22
100
AcDbEntity
  8
0
  6
Continuous
 62
     7
100
AcDbLine
 10
-335.1269226074219
 20
523.9590454101564
 30
0.0
 11
-336.8068542480469
 21
526.1767578125
 31
0.0
  0
LINE
  5
269
330
22
100
AcDbEntity
  8
0
  6
Continuous
 62
     7
100
AcDbLine
 10
-358.8881225585938
 20
488.6767272949218
 30
0.0
 11
-358.8881225585938
 21
465.6767272949219
 31
0.0
  0
LINE
  5
26A
330
22
100
AcDbEntity
  8
0
  6
Continuous
 62
     7
100
AcDbLine
 10
-338.8881225585938
 20
488.6767272949218
 30
0.0
 11
-338.8881225585938
 21
465.6767272949219
 31
0.0
  0
LINE
  5
26B
330
22
100
AcDbEntity
  8
0
  6
Continuous
 62
     7
100
AcDbLine
 10
-340.1058044433594
 20
528.9379272460938
 30
0.0
 11
-340.3775634765625
 21
528.6661987304689
 31
0.0
  0
LINE
  5
26C
330
22
100
AcDbEntity
  8
0
  6
Continuous
 62
     7
100
AcDbLine
 10
-340.664306640625
 20
523.9444580078124
 30
0.0
 11
-338.9693603515625
 21
526.1767578125
 31
0.0
  0
LINE
  5
26D
330
22
100
AcDbEntity
  8
0
  6
Continuous
 62
     7
100
AcDbLine
 10
-335.1269226074219
 20
523.9590454101564
 30
0.0
 11
-335.398681640625
 21
523.6873168945313
 31
0.0
  0
LINE
  5
26E
330
22
100
AcDbEntity
  8
0
  6
Continuous
 62
     7
100
AcDbLine
 10
-340.1058044433594
 20
528.9379272460938
 30
0.0
 11
-337.8881225585938
 21
527.2579956054689
 31
0.0
  0
LINE
  5
26F
330
22
100
AcDbEntity
  8
0
  6
Continuous
 62
     7
100
AcDbLine
 10
-335.3838806152344
 20
528.6809692382814
 30
0.0
 11
-335.6558532714844
 21
528.9529418945313
 31
0.0
  0
LINE
  5
270
330
22
100
AcDbEntity
  8
0
  6
Continuous
 62
     7
100
AcDbLine
 10
-335.6558532714844
 20
528.9529418945313
 30
0.0
 11
-337.8881225585938
 21
527.2579956054689
 31
0.0
  0
LINE
  5
271
330
22
100
AcDbEntity
  8
0
  6
Continuous
 62
     7
100
AcDbLine
 10
-335.1269226074219
 20
523.9590454101564
 30
0.0
 11
-336.8068542480469
 21
526.1767578125
 31
0.0
  0
LINE
  5
272
330
22
100
AcDbEntity
  8
0
  6
Continuous
 62
     7
100
AcDbLine
 10
-335.1269226074219
 20
523.9590454101564
 30
0.0
 11
-335.398681640625
 21
523.6873168945313
 31
0.0
  0
LINE
  5
273
330
22
100
AcDbEntity
  8
0
  6
Continuous
 62
     7
100
AcDbLine
 10
-335.6704406738281
 20
523.41552734375
 30
0.0
 11
-335.398681640625
 21
523.6873168945313
 31
0.0
  0
LINE
  5
274
330
22
100
AcDbEntity
  8
0
  6
Continuous
 62
     7
100
AcDbLine
 10
-340.392333984375
 20
523.6724853515625
 30
0.0
 11
-340.120361328125
 21
523.4005737304689
 31
0.0
  0
LINE
  5
275
330
22
100
AcDbEntity
  8
0
  6
Continuous
 62
     7
100
AcDbLine
 10
-340.392333984375
 20
523.6724853515625
 30
0.0
 11
-340.664306640625
 21
523.9444580078124
 31
0.0
  0
LINE
  5
276
330
22
100
AcDbEntity
  8
0
  6
Continuous
 62
     7
100
AcDbLine
 10
-340.392333984375
 20
523.6724853515625
 30
0.0
 11
-340.664306640625
 21
523.9444580078124
 31
0.0
  0
LINE
  5
277
330
22
100
AcDbEntity
  8
0
  6
Continuous
 62
     7
100
AcDbLine
 10
-340.392333984375
 20
523.6724853515625
 30
0.0
 11
-340.120361328125
 21
523.4005737304689
 31
0.0
  0
LINE
  5
278
330
22
100
AcDbEntity
  8
0
  6
Continuous
 62
     7
100
AcDbLine
 10
-340.664306640625
 20
523.9444580078124
 30
0.0
 11
-338.9693603515625
 21
526.1767578125
 31
0.0
  0
LINE
  5
279
330
22
100
AcDbEntity
  8
0
  6
Continuous
 62
     7
100
AcDbLine
 10
-340.6493225097656
 20
528.3944091796874
 30
0.0
 11
-338.9693603515625
 21
526.1767578125
 31
0.0
  0
LINE
  5
27A
330
22
100
AcDbEntity
  8
0
  6
Continuous
 62
     7
100
AcDbLine
 10
-335.6704406738281
 20
523.41552734375
 30
0.0
 11
-337.8881225585938
 21
525.0955200195313
 31
0.0
  0
LINE
  5
27B
330
22
100
AcDbEntity
  8
0
  6
Continuous
 62
     7
100
AcDbLine
 10
-340.120361328125
 20
523.4005737304689
 30
0.0
 11
-337.8881225585938
 21
525.0955200195313
 31
0.0
  0
LINE
  5
27C
330
22
100
AcDbEntity
  8
0
  6
Continuous
 62
     7
100
AcDbLine
 10
-335.6704406738281
 20
523.41552734375
 30
0.0
 11
-335.398681640625
 21
523.6873168945313
 31
0.0
  0
LINE
  5
27D
330
22
100
AcDbEntity
  8
0
  6
Continuous
 62
     7
100
AcDbLine
 10
-335.1119384765625
 20
528.4089965820313
 30
0.0
 11
-336.8068542480469
 21
526.1767578125
 31
0.0
  0
LINE
  5
27E
330
22
100
AcDbEntity
  8
0
  6
Continuous
 62
     7
100
AcDbLine
 10
-343.8881225585938
 20
488.6767272949218
 30
0.0
 11
-343.8881225585938
 21
465.6767272949219
 31
0.0
  0
LINE
  5
27F
330
22
100
AcDbEntity
  8
0
  6
Continuous
 62
     7
100
AcDbLine
 10
-383.8881225585938
 20
488.6767272949218
 30
0.0
 11
-383.8881225585938
 21
465.6767272949219
 31
0.0
  0
LINE
  5
280
330
22
100
AcDbEntity
  8
0
  6
Continuous
 62
     7
100
AcDbLine
 10
-388.8881225585938
 20
522.6767578125
 30
0.0
 11
-388.8881225585938
 21
482.6767272949219
 31
0.0
  0
LINE
  5
281
330
22
100
AcDbEntity
  8
0
  6
Continuous
 62
     7
100
AcDbLine
 10
-383.8881225585938
 20
522.6767578125
 30
0.0
 11
-383.8881225585938
 21
499.6767272949218
 31
0.0
  0
LINE
  5
282
330
22
100
AcDbEntity
  8
0
  6
Continuous
 62
     7
100
AcDbLine
 10
-378.8881225585938
 20
488.6767272949218
 30
0.0
 11
-378.8881225585938
 21
465.6767272949219
 31
0.0
  0
LINE
  5
283
330
22
100
AcDbEntity
  8
0
  6
Continuous
 62
     7
100
AcDbLine
 10
-373.8881225585938
 20
522.6767578125
 30
0.0
 11
-373.8881225585938
 21
482.6767272949219
 31
0.0
  0
LINE
  5
284
330
22
100
AcDbEntity
  8
0
  6
Continuous
 62
     7
100
AcDbLine
 10
-378.8881225585938
 20
522.6767578125
 30
0.0
 11
-378.8881225585938
 21
499.6767272949218
 31
0.0
  0
LINE
  5
285
330
22
100
AcDbEntity
  8
0
  6
DASHED
 62
     7
100
AcDbLine
 10
-342.8881225585938
 20
526.1767578125
 30
0.0
 11
-342.8881225585938
 21
527.6767578124999
 31
0.0
  0
LINE
  5
286
330
22
100
AcDbEntity
  8
0
  6
DASHED
 62
     7
100
AcDbLine
 10
-337.8881225585938
 20
521.1767578125
 30
0.0
 11
-336.3881225585938
 21
521.1767578125
 31
0.0
  0
LINE
  5
287
330
22
100
AcDbEntity
  8
0
  6
Continuous
 62
     7
100
AcDbLine
 10
-335.3838806152344
 20
528.6809692382814
 30
0.0
 11
-335.1119384765625
 21
528.4089965820313
 31
0.0
  0
LINE
  5
288
330
22
100
AcDbEntity
  8
0
  6
Continuous
 62
     7
100
AcDbLine
 10
-335.6558532714844
 20
528.9529418945313
 30
0.0
 11
-337.8881225585938
 21
527.2579956054689
 31
0.0
  0
LINE
  5
289
330
22
100
AcDbEntity
  8
0
  6
Continuous
 62
     7
100
AcDbLine
 10
-340.120361328125
 20
523.4005737304689
 30
0.0
 11
-337.8881225585938
 21
525.0955200195313
 31
0.0
  0
LINE
  5
28A
330
22
100
AcDbEntity
  8
0
  6
Continuous
 62
     7
100
AcDbLine
 10
-338.8881225585938
 20
329.6767272949219
 30
0.0
 11
-338.8881225585938
 21
346.6767272949219
 31
0.0
  0
LINE
  5
28B
330
22
100
AcDbEntity
  8
0
  6
Continuous
 62
     7
100
AcDbLine
 10
-343.8881225585938
 20
329.6767272949219
 30
0.0
 11
-343.8881225585938
 21
346.6767272949219
 31
0.0
  0
LINE
  5
28C
330
22
100
AcDbEntity
  8
0
  6
Continuous
 62
     7
100
AcDbLine
 10
-358.8881225585938
 20
323.6767272949219
 30
0.0
 11
-358.8881225585938
 21
346.6767272949219
 31
0.0
  0
LINE
  5
28D
330
22
100
AcDbEntity
  8
0
  6
Continuous
 62
     7
100
AcDbLine
 10
-353.8881225585938
 20
323.6767272949219
 30
0.0
 11
-353.8881225585938
 21
363.6767272949219
 31
0.0
  0
LINE
  5
28E
330
22
100
AcDbEntity
  8
0
  6
Continuous
 62
     7
100
AcDbLine
 10
-338.8881225585938
 20
357.6767272949219
 30
0.0
 11
-338.8881225585938
 21
380.6767272949219
 31
0.0
  0
LINE
  5
28F
330
22
100
AcDbEntity
  8
0
  6
Continuous
 62
     7
100
AcDbLine
 10
-343.8881225585938
 20
357.6767272949219
 30
0.0
 11
-343.8881225585938
 21
380.6767272949219
 31
0.0
  0
LINE
  5
290
330
22
100
AcDbEntity
  8
0
  6
Continuous
 62
     7
100
AcDbLine
 10
-348.8881225585938
 20
323.6767272949219
 30
0.0
 11
-348.8881225585938
 21
363.6767272949219
 31
0.0
  0
LINE
  5
291
330
22
100
AcDbEntity
  8
0
  6
Continuous
 62
     7
100
AcDbLine
 10
-358.8881225585938
 20
357.6767272949219
 30
0.0
 11
-358.8881225585938
 21
380.6767272949219
 31
0.0
  0
LINE
  5
292
330
22
100
AcDbEntity
  8
0
  6
Continuous
 62
     7
100
AcDbLine
 10
-368.8881225585938
 20
522.6767578125
 30
0.0
 11
-368.8881225585938
 21
482.6767272949219
 31
0.0
  0
LINE
  5
293
330
22
100
AcDbEntity
  8
0
  6
Continuous
 62
     7
100
AcDbLine
 10
-363.8881225585938
 20
522.6767578125
 30
0.0
 11
-363.8881225585938
 21
499.6767272949218
 31
0.0
  0
LINE
  5
294
330
22
100
AcDbEntity
  8
0
  6
Continuous
 62
     7
100
AcDbLine
 10
-363.8881225585938
 20
488.6767272949218
 30
0.0
 11
-363.8881225585938
 21
465.6767272949219
 31
0.0
  0
LINE
  5
295
330
22
100
AcDbEntity
  8
0
  6
Continuous
 62
     7
100
AcDbLine
 10
-335.1119384765625
 20
322.3834838867188
 30
0.0
 11
-336.8068542480469
 21
320.1512145996094
 31
0.0
  0
LINE
  5
296
330
22
100
AcDbEntity
  8
0
  6
Continuous
 62
     7
100
AcDbLine
 10
-335.3838806152344
 20
322.6554260253906
 30
0.0
 11
-335.6558532714844
 21
322.9273986816406
 31
0.0
  0
LINE
  5
297
330
22
100
AcDbEntity
  8
0
  6
Continuous
 62
     7
100
AcDbLine
 10
-340.1058044433594
 20
322.9124145507813
 30
0.0
 11
-337.8881225585938
 21
321.2324523925781
 31
0.0
  0
LINE
  5
298
330
22
100
AcDbEntity
  8
0
  6
Continuous
 62
     7
100
AcDbLine
 10
-340.6493225097656
 20
322.368896484375
 30
0.0
 11
-338.9693603515625
 21
320.1512145996094
 31
0.0
  0
LINE
  5
299
330
22
100
AcDbEntity
  8
0
  6
Continuous
 62
     7
100
AcDbLine
 10
-340.6493225097656
 20
322.368896484375
 30
0.0
 11
-340.3775634765625
 21
322.6406555175781
 31
0.0
  0
LINE
  5
29A
330
22
100
AcDbEntity
  8
0
  6
Continuous
 62
     7
100
AcDbLine
 10
-340.1058044433594
 20
322.9124145507813
 30
0.0
 11
-340.3775634765625
 21
322.6406555175781
 31
0.0
  0
LINE
  5
29B
330
22
100
AcDbEntity
  8
0
  6
Continuous
 62
     7
100
AcDbLine
 10
-340.6493225097656
 20
322.368896484375
 30
0.0
 11
-340.3775634765625
 21
322.6406555175781
 31
0.0
  0
LINE
  5
29C
330
22
100
AcDbEntity
  8
0
  6
Continuous
 62
     7
100
AcDbLine
 10
-335.6704406738281
 20
317.3900146484375
 30
0.0
 11
-337.8881225585938
 21
319.0699768066406
 31
0.0
  0
LINE
  5
29D
330
22
100
AcDbEntity
  8
0
  6
Continuous
 62
     7
100
AcDbLine
 10
-335.1269226074219
 20
317.9335327148438
 30
0.0
 11
-336.8068542480469
 21
320.1512145996094
 31
0.0
  0
LINE
  5
29E
330
22
100
AcDbEntity
  8
0
  6
Continuous
 62
     7
100
AcDbLine
 10
-335.3838806152344
 20
322.6554260253906
 30
0.0
 11
-335.1119384765625
 21
322.3834838867188
 31
0.0
  0
LINE
  5
29F
330
22
100
AcDbEntity
  8
0
  6
Continuous
 62
     7
100
AcDbLine
 10
-335.6558532714844
 20
322.9273986816406
 30
0.0
 11
-337.8881225585938
 21
321.2324523925781
 31
0.0
  0
LINE
  5
2A0
330
22
100
AcDbEntity
  8
0
  6
Continuous
 62
     7
100
AcDbLine
 10
-340.120361328125
 20
317.3750305175781
 30
0.0
 11
-337.8881225585938
 21
319.0699768066406
 31
0.0
  0
LINE
  5
2A1
330
22
100
AcDbEntity
  8
0
  6
Continuous
 62
     7
100
AcDbLine
 10
-340.1058044433594
 20
322.9124145507813
 30
0.0
 11
-340.3775634765625
 21
322.6406555175781
 31
0.0
  0
LINE
  5
2A2
330
22
100
AcDbEntity
  8
0
  6
Continuous
 62
     7
100
AcDbLine
 10
-340.664306640625
 20
317.9189453125
 30
0.0
 11
-338.9693603515625
 21
320.1512145996094
 31
0.0
  0
LINE
  5
2A3
330
22
100
AcDbEntity
  8
0
  6
Continuous
 62
     7
100
AcDbLine
 10
-335.1269226074219
 20
317.9335327148438
 30
0.0
 11
-335.398681640625
 21
317.6617736816406
 31
0.0
  0
LINE
  5
2A4
330
22
100
AcDbEntity
  8
0
  6
Continuous
 62
     7
100
AcDbLine
 10
-340.1058044433594
 20
322.9124145507813
 30
0.0
 11
-337.8881225585938
 21
321.2324523925781
 31
0.0
  0
LINE
  5
2A5
330
22
100
AcDbEntity
  8
0
  6
Continuous
 62
     7
100
AcDbLine
 10
-335.3838806152344
 20
322.6554260253906
 30
0.0
 11
-335.6558532714844
 21
322.9273986816406
 31
0.0
  0
LINE
  5
2A6
330
22
100
AcDbEntity
  8
0
  6
Continuous
 62
     7
100
AcDbLine
 10
-335.6558532714844
 20
322.9273986816406
 30
0.0
 11
-337.8881225585938
 21
321.2324523925781
 31
0.0
  0
LINE
  5
2A7
330
22
100
AcDbEntity
  8
0
  6
Continuous
 62
     7
100
AcDbLine
 10
-335.1269226074219
 20
317.9335327148438
 30
0.0
 11
-336.8068542480469
 21
320.1512145996094
 31
0.0
  0
LINE
  5
2A8
330
22
100
AcDbEntity
  8
0
  6
Continuous
 62
     7
100
AcDbLine
 10
-378.8881225585938
 20
323.6767272949219
 30
0.0
 11
-378.8881225585938
 21
346.6767272949219
 31
0.0
  0
LINE
  5
2A9
330
22
100
AcDbEntity
  8
0
  6
Continuous
 62
     7
100
AcDbLine
 10
-373.8881225585938
 20
323.6767272949219
 30
0.0
 11
-373.8881225585938
 21
363.6767272949219
 31
0.0
  0
LINE
  5
2AA
330
22
100
AcDbEntity
  8
0
  6
Continuous
 62
     7
100
AcDbLine
 10
-378.8881225585938
 20
357.6767272949219
 30
0.0
 11
-378.8881225585938
 21
380.6767272949219
 31
0.0
  0
LINE
  5
2AB
330
22
100
AcDbEntity
  8
0
  6
Continuous
 62
     7
100
AcDbLine
 10
-335.1269226074219
 20
317.9335327148438
 30
0.0
 11
-335.398681640625
 21
317.6617736816406
 31
0.0
  0
LINE
  5
2AC
330
22
100
AcDbEntity
  8
0
  6
Continuous
 62
     7
100
AcDbLine
 10
-335.6704406738281
 20
317.3900146484375
 30
0.0
 11
-335.398681640625
 21
317.6617736816406
 31
0.0
  0
LINE
  5
2AD
330
22
100
AcDbEntity
  8
0
  6
Continuous
 62
     7
100
AcDbLine
 10
-340.392333984375
 20
317.64697265625
 30
0.0
 11
-340.120361328125
 21
317.3750305175781
 31
0.0
  0
LINE
  5
2AE
330
22
100
AcDbEntity
  8
0
  6
Continuous
 62
     7
100
AcDbLine
 10
-340.392333984375
 20
317.64697265625
 30
0.0
 11
-340.664306640625
 21
317.9189453125
 31
0.0
  0
LINE
  5
2AF
330
22
100
AcDbEntity
  8
0
  6
Continuous
 62
     7
100
AcDbLine
 10
-340.392333984375
 20
317.64697265625
 30
0.0
 11
-340.664306640625
 21
317.9189453125
 31
0.0
  0
LINE
  5
2B0
330
22
100
AcDbEntity
  8
0
  6
Continuous
 62
     7
100
AcDbLine
 10
-340.392333984375
 20
317.64697265625
 30
0.0
 11
-340.120361328125
 21
317.3750305175781
 31
0.0
  0
LINE
  5
2B1
330
22
100
AcDbEntity
  8
0
  6
Continuous
 62
     7
100
AcDbLine
 10
-340.664306640625
 20
317.9189453125
 30
0.0
 11
-338.9693603515625
 21
320.1512145996094
 31
0.0
  0
LINE
  5
2B2
330
22
100
AcDbEntity
  8
0
  6
Continuous
 62
     7
100
AcDbLine
 10
-340.6493225097656
 20
322.368896484375
 30
0.0
 11
-338.9693603515625
 21
320.1512145996094
 31
0.0
  0
LINE
  5
2B3
330
22
100
AcDbEntity
  8
0
  6
Continuous
 62
     7
100
AcDbLine
 10
-335.6704406738281
 20
317.3900146484375
 30
0.0
 11
-337.8881225585938
 21
319.0699768066406
 31
0.0
  0
LINE
  5
2B4
330
22
100
AcDbEntity
  8
0
  6
Continuous
 62
     7
100
AcDbLine
 10
-340.120361328125
 20
317.3750305175781
 30
0.0
 11
-337.8881225585938
 21
319.0699768066406
 31
0.0
  0
LINE
  5
2B5
330
22
100
AcDbEntity
  8
0
  6
Continuous
 62
     7
100
AcDbLine
 10
-335.6704406738281
 20
317.3900146484375
 30
0.0
 11
-335.398681640625
 21
317.6617736816406
 31
0.0
  0
LINE
  5
2B6
330
22
100
AcDbEntity
  8
0
  6
Continuous
 62
     7
100
AcDbLine
 10
-335.1119384765625
 20
322.3834838867188
 30
0.0
 11
-336.8068542480469
 21
320.1512145996094
 31
0.0
  0
LINE
  5
2B7
330
22
100
AcDbEntity
  8
0
  6
DASHED
 62
     7
100
AcDbLine
 10
-342.8881225585938
 20
320.1767272949219
 30
0.0
 11
-342.8881225585938
 21
318.6767272949219
 31
0.0
  0
LINE
  5
2B8
330
22
100
AcDbEntity
  8
0
  6
DASHED
 62
     7
100
AcDbLine
 10
-337.8881225585938
 20
325.1767272949219
 30
0.0
 11
-336.3881225585938
 21
325.1767272949219
 31
0.0
  0
LINE
  5
2B9
330
22
100
AcDbEntity
  8
0
  6
Continuous
 62
     7
100
AcDbLine
 10
-335.3838806152344
 20
322.6554260253906
 30
0.0
 11
-335.1119384765625
 21
322.3834838867188
 31
0.0
  0
LINE
  5
2BA
330
22
100
AcDbEntity
  8
0
  6
Continuous
 62
     7
100
AcDbLine
 10
-363.8881225585938
 20
357.6767272949219
 30
0.0
 11
-363.8881225585938
 21
380.6767272949219
 31
0.0
  0
LINE
  5
2BB
330
22
100
AcDbEntity
  8
0
  6
Continuous
 62
     7
100
AcDbLine
 10
-368.8881225585938
 20
323.6767272949219
 30
0.0
 11
-368.8881225585938
 21
363.6767272949219
 31
0.0
  0
LINE
  5
2BC
330
22
100
AcDbEntity
  8
0
  6
Continuous
 62
     7
100
AcDbLine
 10
-368.8881225585938
 20
374.6767272949219
 30
0.0
 11
-368.8881225585938
 21
414.6767272949218
 31
0.0
  0
LINE
  5
2BD
330
22
100
AcDbEntity
  8
0
  6
Continuous
 62
     7
100
AcDbLine
 10
-388.8881225585938
 20
374.6767272949219
 30
0.0
 11
-388.8881225585938
 21
414.6767272949218
 31
0.0
  0
LINE
  5
2BE
330
22
100
AcDbEntity
  8
0
  6
Continuous
 62
     7
100
AcDbLine
 10
-383.8881225585938
 20
391.6767272949219
 30
0.0
 11
-383.8881225585938
 21
414.6767272949218
 31
0.0
  0
LINE
  5
2BF
330
22
100
AcDbEntity
  8
0
  6
Continuous
 62
     7
100
AcDbLine
 10
-373.8881225585938
 20
374.6767272949219
 30
0.0
 11
-373.8881225585938
 21
414.6767272949218
 31
0.0
  0
LINE
  5
2C0
330
22
100
AcDbEntity
  8
0
  6
Continuous
 62
     7
100
AcDbLine
 10
-378.8881225585938
 20
391.6767272949219
 30
0.0
 11
-378.8881225585938
 21
414.6767272949218
 31
0.0
  0
LINE
  5
2C1
330
22
100
AcDbEntity
  8
0
  6
Continuous
 62
     7
100
AcDbLine
 10
-383.8881225585938
 20
323.6767272949219
 30
0.0
 11
-383.8881225585938
 21
346.6767272949219
 31
0.0
  0
LINE
  5
2C2
330
22
100
AcDbEntity
  8
0
  6
Continuous
 62
     7
100
AcDbLine
 10
-388.8881225585938
 20
323.6767272949219
 30
0.0
 11
-388.8881225585938
 21
363.6767272949219
 31
0.0
  0
LINE
  5
2C3
330
22
100
AcDbEntity
  8
0
  6
Continuous
 62
     7
100
AcDbLine
 10
-383.8881225585938
 20
357.6767272949219
 30
0.0
 11
-383.8881225585938
 21
380.6767272949219
 31
0.0
  0
LINE
  5
2C4
330
22
100
AcDbEntity
  8
0
  6
Continuous
 62
     7
100
AcDbLine
 10
-348.8881225585938
 20
374.6767272949219
 30
0.0
 11
-348.8881225585938
 21
414.6767272949218
 31
0.0
  0
LINE
  5
2C5
330
22
100
AcDbEntity
  8
0
  6
Continuous
 62
     7
100
AcDbLine
 10
-343.8881225585938
 20
391.6767272949219
 30
0.0
 11
-343.8881225585938
 21
411.6767272949219
 31
0.0
  0
LINE
  5
2C6
330
22
100
AcDbEntity
  8
0
  6
Continuous
 62
     7
100
AcDbLine
 10
-358.8881225585938
 20
391.6767272949219
 30
0.0
 11
-358.8881225585938
 21
414.6767272949218
 31
0.0
  0
LINE
  5
2C7
330
22
100
AcDbEntity
  8
0
  6
Continuous
 62
     7
100
AcDbLine
 10
-353.8881225585938
 20
374.6767272949219
 30
0.0
 11
-353.8881225585938
 21
414.6767272949218
 31
0.0
  0
LINE
  5
2C8
330
22
100
AcDbEntity
  8
0
  6
Continuous
 62
     7
100
AcDbLine
 10
-338.8881225585938
 20
391.6767272949219
 30
0.0
 11
-338.8881225585938
 21
411.6767272949219
 31
0.0
  0
LINE
  5
2C9
330
22
100
AcDbEntity
  8
0
  6
DASHED
 62
     7
100
AcDbLine
 10
-334.3881225585938
 20
327.1767272949219
 30
0.0
 11
-334.3881225585938
 21
416.1767272949218
 31
0.0
  0
LINE
  5
2CA
330
22
100
AcDbEntity
  8
0
  6
Continuous
 62
     7
100
AcDbLine
 10
-335.1119384765625
 20
425.4089965820313
 30
0.0
 11
-336.8068542480469
 21
423.1767272949218
 31
0.0
  0
LINE
  5
2CB
330
22
100
AcDbEntity
  8
0
  6
Continuous
 62
     7
100
AcDbLine
 10
-340.6493225097656
 20
425.3944091796874
 30
0.0
 11
-338.9693603515625
 21
423.1767272949218
 31
0.0
  0
LINE
  5
2CC
330
22
100
AcDbEntity
  8
0
  6
Continuous
 62
     7
100
AcDbLine
 10
-335.6558532714844
 20
425.9529418945312
 30
0.0
 11
-337.8881225585938
 21
424.2579956054687
 31
0.0
  0
LINE
  5
2CD
330
22
100
AcDbEntity
  8
0
  6
Continuous
 62
     7
100
AcDbLine
 10
-335.3838806152344
 20
425.6809692382812
 30
0.0
 11
-335.6558532714844
 21
425.9529418945312
 31
0.0
  0
LINE
  5
2CE
330
22
100
AcDbEntity
  8
0
  6
Continuous
 62
     7
100
AcDbLine
 10
-340.1058044433594
 20
425.9379272460938
 30
0.0
 11
-340.3775634765625
 21
425.6661682128906
 31
0.0
  0
LINE
  5
2CF
330
22
100
AcDbEntity
  8
0
  6
Continuous
 62
     7
100
AcDbLine
 10
-335.3838806152344
 20
425.6809692382812
 30
0.0
 11
-335.1119384765625
 21
425.4089965820313
 31
0.0
  0
LINE
  5
2D0
330
22
100
AcDbEntity
  8
0
  6
Continuous
 62
     7
100
AcDbLine
 10
-340.6493225097656
 20
425.3944091796874
 30
0.0
 11
-340.3775634765625
 21
425.6661682128906
 31
0.0
  0
LINE
  5
2D1
330
22
100
AcDbEntity
  8
0
  6
Continuous
 62
     7
100
AcDbLine
 10
-340.1058044433594
 20
425.9379272460938
 30
0.0
 11
-340.3775634765625
 21
425.6661682128906
 31
0.0
  0
LINE
  5
2D2
330
22
100
AcDbEntity
  8
0
  6
Continuous
 62
     7
100
AcDbLine
 10
-340.6493225097656
 20
425.3944091796874
 30
0.0
 11
-340.3775634765625
 21
425.6661682128906
 31
0.0
  0
LINE
  5
2D3
330
22
100
AcDbEntity
  8
0
  6
Continuous
 62
     7
100
AcDbLine
 10
-335.3838806152344
 20
425.6809692382812
 30
0.0
 11
-335.6558532714844
 21
425.9529418945312
 31
0.0
  0
LINE
  5
2D4
330
22
100
AcDbEntity
  8
0
  6
Continuous
 62
     7
100
AcDbLine
 10
-335.3838806152344
 20
425.6809692382812
 30
0.0
 11
-335.1119384765625
 21
425.4089965820313
 31
0.0
  0
LINE
  5
2D5
330
22
100
AcDbEntity
  8
0
  6
DASHED
 62
     7
100
AcDbLine
 10
-337.8881225585938
 20
428.1767272949219
 30
0.0
 11
-336.3881225585938
 21
428.1767272949219
 31
0.0
  0
LINE
  5
2D6
330
22
100
AcDbEntity
  8
0
  6
Continuous
 62
     7
100
AcDbLine
 10
-363.8881225585938
 20
391.6767272949219
 30
0.0
 11
-363.8881225585938
 21
414.6767272949218
 31
0.0
  0
LINE
  5
2D7
330
22
100
AcDbEntity
  8
0
  6
Continuous
 62
     7
100
AcDbLine
 10
-363.8881225585938
 20
323.6767272949219
 30
0.0
 11
-363.8881225585938
 21
346.6767272949219
 31
0.0
  0
LINE
  5
2D8
330
22
100
AcDbEntity
  8
0
  6
Continuous
 62
     7
100
AcDbLine
 10
-340.392333984375
 20
420.6725158691406
 30
0.0
 11
-340.120361328125
 21
420.4005432128906
 31
0.0
  0
LINE
  5
2D9
330
22
100
AcDbEntity
  8
0
  6
Continuous
 62
     7
100
AcDbLine
 10
-340.392333984375
 20
420.6725158691406
 30
0.0
 11
-340.664306640625
 21
420.9444885253906
 31
0.0
  0
LINE
  5
2DA
330
22
100
AcDbEntity
  8
0
  6
Continuous
 62
     7
100
AcDbLine
 10
-340.392333984375
 20
420.6725158691406
 30
0.0
 11
-340.664306640625
 21
420.9444885253906
 31
0.0
  0
LINE
  5
2DB
330
22
100
AcDbEntity
  8
0
  6
Continuous
 62
     7
100
AcDbLine
 10
-340.392333984375
 20
420.6725158691406
 30
0.0
 11
-340.120361328125
 21
420.4005432128906
 31
0.0
  0
LINE
  5
2DC
330
22
100
AcDbEntity
  8
0
  6
Continuous
 62
     7
100
AcDbLine
 10
-335.6704406738281
 20
420.415557861328
 30
0.0
 11
-335.398681640625
 21
420.6873168945312
 31
0.0
  0
LINE
  5
2DD
330
22
100
AcDbEntity
  8
0
  6
Continuous
 62
     7
100
AcDbLine
 10
-335.1269226074219
 20
420.9590759277343
 30
0.0
 11
-335.398681640625
 21
420.6873168945312
 31
0.0
  0
LINE
  5
2DE
330
22
100
AcDbEntity
  8
0
  6
Continuous
 62
     7
100
AcDbLine
 10
-335.1269226074219
 20
420.9590759277343
 30
0.0
 11
-336.8068542480469
 21
423.1767272949218
 31
0.0
  0
LINE
  5
2DF
330
22
100
AcDbEntity
  8
0
  6
DASHED
 62
     7
100
AcDbLine
 10
-337.8881225585938
 20
418.1767272949218
 30
0.0
 11
-336.3881225585938
 21
418.1767272949218
 31
0.0
  0
LINE
  5
2E0
330
22
100
AcDbEntity
  8
0
  6
Continuous
 62
     7
100
AcDbLine
 10
-335.1269226074219
 20
420.9590759277343
 30
0.0
 11
-335.398681640625
 21
420.6873168945312
 31
0.0
  0
LINE
  5
2E1
330
22
100
AcDbEntity
  8
0
  6
Continuous
 62
     7
100
AcDbLine
 10
-340.664306640625
 20
420.9444885253906
 30
0.0
 11
-338.9693603515625
 21
423.1767272949218
 31
0.0
  0
LINE
  5
2E2
330
22
100
AcDbEntity
  8
0
  6
Continuous
 62
     7
100
AcDbLine
 10
-340.120361328125
 20
420.4005432128906
 30
0.0
 11
-337.8881225585938
 21
422.0954895019531
 31
0.0
  0
LINE
  5
2E3
330
22
100
AcDbEntity
  8
0
  6
Continuous
 62
     7
100
AcDbLine
 10
-335.1269226074219
 20
420.9590759277343
 30
0.0
 11
-336.8068542480469
 21
423.1767272949218
 31
0.0
  0
LINE
  5
2E4
330
22
100
AcDbEntity
  8
0
  6
Continuous
 62
     7
100
AcDbLine
 10
-335.6704406738281
 20
420.415557861328
 30
0.0
 11
-337.8881225585938
 21
422.0954895019531
 31
0.0
  0
LINE
  5
2E5
330
22
100
AcDbEntity
  8
0
  6
Continuous
 62
     7
100
AcDbLine
 10
-340.1058044433594
 20
425.9379272460938
 30
0.0
 11
-337.8881225585938
 21
424.2579956054687
 31
0.0
  0
LINE
  5
2E6
330
22
100
AcDbEntity
  8
0
  6
Continuous
 62
     7
100
AcDbLine
 10
-335.6558532714844
 20
425.9529418945312
 30
0.0
 11
-337.8881225585938
 21
424.2579956054687
 31
0.0
  0
LINE
  5
2E7
330
22
100
AcDbEntity
  8
0
  6
Continuous
 62
     7
100
AcDbLine
 10
-340.6493225097656
 20
425.3944091796874
 30
0.0
 11
-338.9693603515625
 21
423.1767272949218
 31
0.0
  0
LINE
  5
2E8
330
22
100
AcDbEntity
  8
0
  6
Continuous
 62
     7
100
AcDbLine
 10
-340.1058044433594
 20
425.9379272460938
 30
0.0
 11
-337.8881225585938
 21
424.2579956054687
 31
0.0
  0
LINE
  5
2E9
330
22
100
AcDbEntity
  8
0
  6
Continuous
 62
     7
100
AcDbLine
 10
-335.1119384765625
 20
425.4089965820313
 30
0.0
 11
-336.8068542480469
 21
423.1767272949218
 31
0.0
  0
LINE
  5
2EA
330
22
100
AcDbEntity
  8
0
  6
DASHED
 62
     7
100
AcDbLine
 10
-435.8881225585938
 20
526.1767578125
 30
0.0
 11
-435.8881225585938
 21
527.6767578124999
 31
0.0
  0
LINE
  5
2EB
330
22
100
AcDbEntity
  8
0
  6
Continuous
 62
     7
100
AcDbLine
 10
-438.3838806152343
 20
528.6809692382814
 30
0.0
 11
-438.6558532714843
 21
528.9529418945313
 31
0.0
  0
LINE
  5
2EC
330
22
100
AcDbEntity
  8
0
  6
Continuous
 62
     7
100
AcDbLine
 10
-443.1058044433593
 20
528.9379272460938
 30
0.0
 11
-440.8881225585938
 21
527.2579956054689
 31
0.0
  0
LINE
  5
2ED
330
22
100
AcDbEntity
  8
0
  6
Continuous
 62
     7
100
AcDbLine
 10
-438.1269226074218
 20
523.9590454101564
 30
0.0
 11
-438.398681640625
 21
523.6873168945313
 31
0.0
  0
LINE
  5
2EE
330
22
100
AcDbEntity
  8
0
  6
Continuous
 62
     7
100
AcDbLine
 10
-443.664306640625
 20
523.9444580078124
 30
0.0
 11
-441.9693603515624
 21
526.1767578125
 31
0.0
  0
LINE
  5
2EF
330
22
100
AcDbEntity
  8
0
  6
Continuous
 62
     7
100
AcDbLine
 10
-443.1058044433593
 20
528.9379272460938
 30
0.0
 11
-443.3775634765624
 21
528.6661987304689
 31
0.0
  0
LINE
  5
2F0
330
22
100
AcDbEntity
  8
0
  6
Continuous
 62
     7
100
AcDbLine
 10
-443.1203613281249
 20
523.4005737304689
 30
0.0
 11
-440.8881225585938
 21
525.0955200195313
 31
0.0
  0
LINE
  5
2F1
330
22
100
AcDbEntity
  8
0
  6
Continuous
 62
     7
100
AcDbLine
 10
-438.6558532714843
 20
528.9529418945313
 30
0.0
 11
-440.8881225585938
 21
527.2579956054689
 31
0.0
  0
LINE
  5
2F2
330
22
100
AcDbEntity
  8
0
  6
Continuous
 62
     7
100
AcDbLine
 10
-438.3838806152343
 20
528.6809692382814
 30
0.0
 11
-438.1119384765624
 21
528.4089965820313
 31
0.0
  0
LINE
  5
2F3
330
22
100
AcDbEntity
  8
0
  6
Continuous
 62
     7
100
AcDbLine
 10
-438.1269226074218
 20
523.9590454101564
 30
0.0
 11
-439.8068542480468
 21
526.1767578125
 31
0.0
  0
LINE
  5
2F4
330
22
100
AcDbEntity
  8
0
  6
Continuous
 62
     7
100
AcDbLine
 10
-438.6704406738281
 20
523.41552734375
 30
0.0
 11
-440.8881225585938
 21
525.0955200195313
 31
0.0
  0
LINE
  5
2F5
330
22
100
AcDbEntity
  8
0
  6
Continuous
 62
     7
100
AcDbLine
 10
-443.6493225097656
 20
528.3944091796874
 30
0.0
 11
-443.3775634765624
 21
528.6661987304689
 31
0.0
  0
LINE
  5
2F6
330
22
100
AcDbEntity
  8
0
  6
Continuous
 62
     7
100
AcDbLine
 10
-443.1058044433593
 20
528.9379272460938
 30
0.0
 11
-443.3775634765624
 21
528.6661987304689
 31
0.0
  0
LINE
  5
2F7
330
22
100
AcDbEntity
  8
0
  6
Continuous
 62
     7
100
AcDbLine
 10
-433.8881225585938
 20
516.6767578125
 30
0.0
 11
-433.8881225585938
 21
482.6767272949219
 31
0.0
  0
LINE
  5
2F8
330
22
100
AcDbEntity
  8
0
  6
Continuous
 62
     7
100
AcDbLine
 10
-428.8881225585938
 20
516.6767578125
 30
0.0
 11
-428.8881225585938
 21
482.6767272949219
 31
0.0
  0
LINE
  5
2F9
330
22
100
AcDbEntity
  8
0
  6
Continuous
 62
     7
100
AcDbLine
 10
-335.6704406738281
 20
420.415557861328
 30
0.0
 11
-335.398681640625
 21
420.6873168945312
 31
0.0
  0
LINE
  5
2FA
330
22
100
AcDbEntity
  8
0
  6
Continuous
 62
     7
100
AcDbLine
 10
-340.120361328125
 20
420.4005432128906
 30
0.0
 11
-337.8881225585938
 21
422.0954895019531
 31
0.0
  0
LINE
  5
2FB
330
22
100
AcDbEntity
  8
0
  6
Continuous
 62
     7
100
AcDbLine
 10
-335.6704406738281
 20
420.415557861328
 30
0.0
 11
-337.8881225585938
 21
422.0954895019531
 31
0.0
  0
LINE
  5
2FC
330
22
100
AcDbEntity
  8
0
  6
Continuous
 62
     7
100
AcDbLine
 10
-340.664306640625
 20
420.9444885253906
 30
0.0
 11
-338.9693603515625
 21
423.1767272949218
 31
0.0
  0
LINE
  5
2FD
330
22
100
AcDbEntity
  8
0
  6
Continuous
 62
     7
100
AcDbLine
 10
-472.8881225585937
 20
522.6767578125
 30
0.0
 11
-472.8881225585937
 21
482.6767272949219
 31
0.0
  0
LINE
  5
2FE
330
22
100
AcDbEntity
  8
0
  6
Continuous
 62
     7
100
AcDbLine
 10
-462.8881225585938
 20
522.6767578125
 30
0.0
 11
-462.8881225585938
 21
499.6767272949218
 31
0.0
  0
LINE
  5
2FF
330
22
100
AcDbEntity
  8
0
  6
Continuous
 62
     7
100
AcDbLine
 10
-467.8881225585937
 20
522.6767578125
 30
0.0
 11
-467.8881225585937
 21
482.6767272949219
 31
0.0
  0
LINE
  5
300
330
22
100
AcDbEntity
  8
0
  6
Continuous
 62
     7
100
AcDbLine
 10
-462.8881225585938
 20
488.6767272949218
 30
0.0
 11
-462.8881225585938
 21
465.6767272949219
 31
0.0
  0
LINE
  5
301
330
22
100
AcDbEntity
  8
0
  6
Continuous
 62
     7
100
AcDbLine
 10
-443.6493225097656
 20
528.3944091796874
 30
0.0
 11
-443.3775634765624
 21
528.6661987304689
 31
0.0
  0
LINE
  5
302
330
22
100
AcDbEntity
  8
0
  6
Continuous
 62
     7
100
AcDbLine
 10
-443.6493225097656
 20
528.3944091796874
 30
0.0
 11
-441.9693603515624
 21
526.1767578125
 31
0.0
  0
LINE
  5
303
330
22
100
AcDbEntity
  8
0
  6
Continuous
 62
     7
100
AcDbLine
 10
-443.1058044433593
 20
528.9379272460938
 30
0.0
 11
-440.8881225585938
 21
527.2579956054689
 31
0.0
  0
LINE
  5
304
330
22
100
AcDbEntity
  8
0
  6
Continuous
 62
     7
100
AcDbLine
 10
-438.3838806152343
 20
528.6809692382814
 30
0.0
 11
-438.6558532714843
 21
528.9529418945313
 31
0.0
  0
LINE
  5
305
330
22
100
AcDbEntity
  8
0
  6
Continuous
 62
     7
100
AcDbLine
 10
-438.1119384765624
 20
528.4089965820313
 30
0.0
 11
-439.8068542480468
 21
526.1767578125
 31
0.0
  0
LINE
  5
306
330
22
100
AcDbEntity
  8
0
  6
Continuous
 62
     7
100
AcDbLine
 10
-438.3838806152343
 20
528.6809692382814
 30
0.0
 11
-438.1119384765624
 21
528.4089965820313
 31
0.0
  0
LINE
  5
307
330
22
100
AcDbEntity
  8
0
  6
Continuous
 62
     7
100
AcDbLine
 10
-438.1119384765624
 20
528.4089965820313
 30
0.0
 11
-439.8068542480468
 21
526.1767578125
 31
0.0
  0
LINE
  5
308
330
22
100
AcDbEntity
  8
0
  6
Continuous
 62
     7
100
AcDbLine
 10
-438.6704406738281
 20
523.41552734375
 30
0.0
 11
-438.398681640625
 21
523.6873168945313
 31
0.0
  0
LINE
  5
309
330
22
100
AcDbEntity
  8
0
  6
Continuous
 62
     7
100
AcDbLine
 10
-443.1203613281249
 20
523.4005737304689
 30
0.0
 11
-440.8881225585938
 21
525.0955200195313
 31
0.0
  0
LINE
  5
30A
330
22
100
AcDbEntity
  8
0
  6
Continuous
 62
     7
100
AcDbLine
 10
-438.6704406738281
 20
523.41552734375
 30
0.0
 11
-440.8881225585938
 21
525.0955200195313
 31
0.0
  0
LINE
  5
30B
330
22
100
AcDbEntity
  8
0
  6
Continuous
 62
     7
100
AcDbLine
 10
-443.6493225097656
 20
528.3944091796874
 30
0.0
 11
-441.9693603515624
 21
526.1767578125
 31
0.0
  0
LINE
  5
30C
330
22
100
AcDbEntity
  8
0
  6
Continuous
 62
     7
100
AcDbLine
 10
-443.664306640625
 20
523.9444580078124
 30
0.0
 11
-441.9693603515624
 21
526.1767578125
 31
0.0
  0
LINE
  5
30D
330
22
100
AcDbEntity
  8
0
  6
Continuous
 62
     7
100
AcDbLine
 10
-443.392333984375
 20
523.6724853515625
 30
0.0
 11
-443.1203613281249
 21
523.4005737304689
 31
0.0
  0
LINE
  5
30E
330
22
100
AcDbEntity
  8
0
  6
Continuous
 62
     7
100
AcDbLine
 10
-443.392333984375
 20
523.6724853515625
 30
0.0
 11
-443.664306640625
 21
523.9444580078124
 31
0.0
  0
LINE
  5
30F
330
22
100
AcDbEntity
  8
0
  6
Continuous
 62
     7
100
AcDbLine
 10
-443.392333984375
 20
523.6724853515625
 30
0.0
 11
-443.664306640625
 21
523.9444580078124
 31
0.0
  0
LINE
  5
310
330
22
100
AcDbEntity
  8
0
  6
Continuous
 62
     7
100
AcDbLine
 10
-443.392333984375
 20
523.6724853515625
 30
0.0
 11
-443.1203613281249
 21
523.4005737304689
 31
0.0
  0
LINE
  5
311
330
22
100
AcDbEntity
  8
0
  6
Continuous
 62
     7
100
AcDbLine
 10
-438.6704406738281
 20
523.41552734375
 30
0.0
 11
-438.398681640625
 21
523.6873168945313
 31
0.0
  0
LINE
  5
312
330
22
100
AcDbEntity
  8
0
  6
Continuous
 62
     7
100
AcDbLine
 10
-438.1269226074218
 20
523.9590454101564
 30
0.0
 11
-438.398681640625
 21
523.6873168945313
 31
0.0
  0
LINE
  5
313
330
22
100
AcDbEntity
  8
0
  6
Continuous
 62
     7
100
AcDbLine
 10
-438.1269226074218
 20
523.9590454101564
 30
0.0
 11
-439.8068542480468
 21
526.1767578125
 31
0.0
  0
LINE
  5
314
330
22
100
AcDbEntity
  8
0
  6
Continuous
 62
     7
100
AcDbLine
 10
-438.6558532714843
 20
528.9529418945313
 30
0.0
 11
-440.8881225585938
 21
527.2579956054689
 31
0.0
  0
LINE
  5
315
330
22
100
AcDbEntity
  8
0
  6
Continuous
 62
     7
100
AcDbLine
 10
-497.8881225585937
 20
488.6767272949218
 30
0.0
 11
-497.8881225585937
 21
465.6767272949219
 31
0.0
  0
LINE
  5
316
330
22
100
AcDbEntity
  8
0
  6
Continuous
 62
     7
100
AcDbLine
 10
-497.8881225585937
 20
522.6767578125
 30
0.0
 11
-497.8881225585937
 21
499.6767272949218
 31
0.0
  0
LINE
  5
317
330
22
100
AcDbEntity
  8
0
  6
Continuous
 62
     7
100
AcDbLine
 10
-502.8881225585938
 20
488.6767272949218
 30
0.0
 11
-502.8881225585938
 21
465.6767272949219
 31
0.0
  0
LINE
  5
318
330
22
100
AcDbEntity
  8
0
  6
Continuous
 62
     7
100
AcDbLine
 10
-502.8881225585938
 20
522.6767578125
 30
0.0
 11
-502.8881225585938
 21
499.6767272949218
 31
0.0
  0
LINE
  5
319
330
22
100
AcDbEntity
  8
0
  6
Continuous
 62
     7
100
AcDbLine
 10
-492.8881225585937
 20
522.6767578125
 30
0.0
 11
-492.8881225585937
 21
482.6767272949219
 31
0.0
  0
LINE
  5
31A
330
22
100
AcDbEntity
  8
0
  6
Continuous
 62
     7
100
AcDbLine
 10
-477.8881225585938
 20
488.6767272949218
 30
0.0
 11
-477.8881225585938
 21
465.6767272949219
 31
0.0
  0
LINE
  5
31B
330
22
100
AcDbEntity
  8
0
  6
Continuous
 62
     7
100
AcDbLine
 10
-482.8881225585938
 20
488.6767272949218
 30
0.0
 11
-482.8881225585938
 21
465.6767272949219
 31
0.0
  0
LINE
  5
31C
330
22
100
AcDbEntity
  8
0
  6
Continuous
 62
     7
100
AcDbLine
 10
-482.8881225585938
 20
522.6767578125
 30
0.0
 11
-482.8881225585938
 21
499.6767272949218
 31
0.0
  0
LINE
  5
31D
330
22
100
AcDbEntity
  8
0
  6
Continuous
 62
     7
100
AcDbLine
 10
-477.8881225585938
 20
522.6767578125
 30
0.0
 11
-477.8881225585938
 21
499.6767272949218
 31
0.0
  0
LINE
  5
31E
330
22
100
AcDbEntity
  8
0
  6
Continuous
 62
     7
100
AcDbLine
 10
-487.8881225585938
 20
522.6767578125
 30
0.0
 11
-487.8881225585938
 21
482.6767272949219
 31
0.0
  0
LINE
  5
31F
330
22
100
AcDbEntity
  8
0
  6
DASHED
 62
     7
100
AcDbLine
 10
-445.8881225585938
 20
526.1767578125
 30
0.0
 11
-445.8881225585938
 21
527.6767578124999
 31
0.0
  0
LINE
  5
320
330
22
100
AcDbEntity
  8
0
  6
Continuous
 62
     7
100
AcDbLine
 10
-457.8881225585938
 20
522.6767578125
 30
0.0
 11
-457.8881225585938
 21
499.6767272949218
 31
0.0
  0
LINE
  5
321
330
22
100
AcDbEntity
  8
0
  6
Continuous
 62
     7
100
AcDbLine
 10
-452.8881225585938
 20
516.6767578125
 30
0.0
 11
-452.8881225585938
 21
482.6767272949219
 31
0.0
  0
LINE
  5
322
330
22
100
AcDbEntity
  8
0
  6
Continuous
 62
     7
100
AcDbLine
 10
-447.8881225585937
 20
516.6767578125
 30
0.0
 11
-447.8881225585937
 21
482.6767272949219
 31
0.0
  0
LINE
  5
323
330
22
100
AcDbEntity
  8
0
  6
Continuous
 62
     7
100
AcDbLine
 10
-457.8881225585938
 20
488.6767272949218
 30
0.0
 11
-457.8881225585938
 21
465.6767272949219
 31
0.0
  0
LINE
  5
324
330
22
100
AcDbEntity
  8
0
  6
Continuous
 62
     7
100
AcDbLine
 10
-541.3839111328124
 20
528.7064819335938
 30
0.0
 11
-541.6558837890625
 21
528.9784545898438
 31
0.0
  0
LINE
  5
325
330
22
100
AcDbEntity
  8
0
  6
Continuous
 62
     7
100
AcDbLine
 10
-537.8881225585939
 20
516.6767578125
 30
0.0
 11
-537.8881225585939
 21
499.6767272949218
 31
0.0
  0
LINE
  5
326
330
22
100
AcDbEntity
  8
0
  6
Continuous
 62
     7
100
AcDbLine
 10
-542.8881225585938
 20
488.6767272949218
 30
0.0
 11
-542.8881225585938
 21
465.6767272949219
 31
0.0
  0
LINE
  5
327
330
22
100
AcDbEntity
  8
0
  6
Continuous
 62
     7
100
AcDbLine
 10
-522.8881225585938
 20
488.6767272949218
 30
0.0
 11
-522.8881225585938
 21
465.6767272949219
 31
0.0
  0
LINE
  5
328
330
22
100
AcDbEntity
  8
0
  6
Continuous
 62
     7
100
AcDbLine
 10
-542.8881225585938
 20
516.6767578125
 30
0.0
 11
-542.8881225585938
 21
499.6767272949218
 31
0.0
  0
LINE
  5
329
330
22
100
AcDbEntity
  8
0
  6
Continuous
 62
     7
100
AcDbLine
 10
-527.8881225585938
 20
522.6767578125
 30
0.0
 11
-527.8881225585938
 21
482.6767272949219
 31
0.0
  0
LINE
  5
32A
330
22
100
AcDbEntity
  8
0
  6
Continuous
 62
     7
100
AcDbLine
 10
-413.8881225585937
 20
522.6767578125
 30
0.0
 11
-413.8881225585937
 21
482.6767272949219
 31
0.0
  0
LINE
  5
32B
330
22
100
AcDbEntity
  8
0
  6
Continuous
 62
     7
100
AcDbLine
 10
-418.8881225585937
 20
488.6767272949218
 30
0.0
 11
-418.8881225585937
 21
465.6767272949219
 31
0.0
  0
LINE
  5
32C
330
22
100
AcDbEntity
  8
0
  6
Continuous
 62
     7
100
AcDbLine
 10
-418.8881225585937
 20
522.6767578125
 30
0.0
 11
-418.8881225585937
 21
499.6767272949218
 31
0.0
  0
LINE
  5
32D
330
22
100
AcDbEntity
  8
0
  6
Continuous
 62
     7
100
AcDbLine
 10
-403.8881225585938
 20
488.6767272949218
 30
0.0
 11
-403.8881225585938
 21
465.6767272949219
 31
0.0
  0
LINE
  5
32E
330
22
100
AcDbEntity
  8
0
  6
Continuous
 62
     7
100
AcDbLine
 10
-403.8881225585938
 20
522.6767578125
 30
0.0
 11
-403.8881225585938
 21
499.6767272949218
 31
0.0
  0
LINE
  5
32F
330
22
100
AcDbEntity
  8
0
  6
Continuous
 62
     7
100
AcDbLine
 10
-408.8881225585938
 20
522.6767578125
 30
0.0
 11
-408.8881225585938
 21
482.6767272949219
 31
0.0
  0
LINE
  5
330
330
22
100
AcDbEntity
  8
0
  6
Continuous
 62
     7
100
AcDbLine
 10
-423.8881225585938
 20
488.6767272949218
 30
0.0
 11
-423.8881225585938
 21
465.6767272949219
 31
0.0
  0
LINE
  5
331
330
22
100
AcDbEntity
  8
0
  6
Continuous
 62
     7
100
AcDbLine
 10
-423.8881225585938
 20
522.6767578125
 30
0.0
 11
-423.8881225585938
 21
499.6767272949218
 31
0.0
  0
LINE
  5
332
330
22
100
AcDbEntity
  8
0
  6
Continuous
 62
     7
100
AcDbLine
 10
-522.8881225585938
 20
522.6767578125
 30
0.0
 11
-522.8881225585938
 21
499.6767272949218
 31
0.0
  0
LINE
  5
333
330
22
100
AcDbEntity
  8
0
  6
Continuous
 62
     7
100
AcDbLine
 10
-537.8881225585939
 20
488.6767272949218
 30
0.0
 11
-537.8881225585939
 21
465.6767272949219
 31
0.0
  0
LINE
  5
334
330
22
100
AcDbEntity
  8
0
  6
Continuous
 62
     7
100
AcDbLine
 10
-532.8881225585938
 20
522.6767578125
 30
0.0
 11
-532.8881225585938
 21
482.6767272949219
 31
0.0
  0
LINE
  5
335
330
22
100
AcDbEntity
  8
0
  6
DASHED
 62
     7
100
AcDbLine
 10
-538.8881225585938
 20
526.1767578125
 30
0.0
 11
-538.8881225585938
 21
527.6767578124999
 31
0.0
  0
LINE
  5
336
330
22
100
AcDbEntity
  8
0
  6
DASHED
 62
     7
100
AcDbLine
 10
-543.8881225585938
 20
521.1767578125
 30
0.0
 11
-545.3881225585938
 21
521.1767578125
 31
0.0
  0
LINE
  5
337
330
22
100
AcDbEntity
  8
0
  6
Continuous
 62
     7
100
AcDbLine
 10
-541.3839111328124
 20
528.7064819335938
 30
0.0
 11
-541.6558837890625
 21
528.9784545898438
 31
0.0
  0
LINE
  5
338
330
22
100
AcDbEntity
  8
0
  6
Continuous
 62
     7
100
AcDbLine
 10
-546.1057739257813
 20
528.9634399414063
 30
0.0
 11
-543.8881225585938
 21
527.2835083007813
 31
0.0
  0
LINE
  5
339
330
22
100
AcDbEntity
  8
0
  6
Continuous
 62
     7
100
AcDbLine
 10
-546.6492919921875
 20
528.419921875
 30
0.0
 11
-544.9693603515624
 21
526.2022705078124
 31
0.0
  0
LINE
  5
33A
330
22
100
AcDbEntity
  8
0
  6
Continuous
 62
     7
100
AcDbLine
 10
-546.6492919921875
 20
528.419921875
 30
0.0
 11
-546.3775634765625
 21
528.6917114257813
 31
0.0
  0
LINE
  5
33B
330
22
100
AcDbEntity
  8
0
  6
Continuous
 62
     7
100
AcDbLine
 10
-546.1057739257813
 20
528.9634399414063
 30
0.0
 11
-546.3775634765625
 21
528.6917114257813
 31
0.0
  0
LINE
  5
33C
330
22
100
AcDbEntity
  8
0
  6
Continuous
 62
     7
100
AcDbLine
 10
-546.6492919921875
 20
528.419921875
 30
0.0
 11
-546.3775634765625
 21
528.6917114257813
 31
0.0
  0
LINE
  5
33D
330
22
100
AcDbEntity
  8
0
  6
Continuous
 62
     7
100
AcDbLine
 10
-541.6704101562499
 20
523.4410400390625
 30
0.0
 11
-543.8881225585938
 21
525.1210327148438
 31
0.0
  0
LINE
  5
33E
330
22
100
AcDbEntity
  8
0
  6
Continuous
 62
     7
100
AcDbLine
 10
-541.1268920898439
 20
523.9846191406249
 30
0.0
 11
-542.8068847656249
 21
526.2022705078124
 31
0.0
  0
LINE
  5
33F
330
22
100
AcDbEntity
  8
0
  6
Continuous
 62
     7
100
AcDbLine
 10
-541.3839111328124
 20
528.7064819335938
 30
0.0
 11
-541.1119384765624
 21
528.4345092773438
 31
0.0
  0
LINE
  5
340
330
22
100
AcDbEntity
  8
0
  6
Continuous
 62
     7
100
AcDbLine
 10
-541.6558837890625
 20
528.9784545898438
 30
0.0
 11
-543.8881225585938
 21
527.2835083007813
 31
0.0
  0
LINE
  5
341
330
22
100
AcDbEntity
  8
0
  6
Continuous
 62
     7
100
AcDbLine
 10
-546.120361328125
 20
523.4260864257813
 30
0.0
 11
-543.8881225585938
 21
525.1210327148438
 31
0.0
  0
LINE
  5
342
330
22
100
AcDbEntity
  8
0
  6
Continuous
 62
     7
100
AcDbLine
 10
-546.1057739257813
 20
528.9634399414063
 30
0.0
 11
-546.3775634765625
 21
528.6917114257813
 31
0.0
  0
LINE
  5
343
330
22
100
AcDbEntity
  8
0
  6
Continuous
 62
     7
100
AcDbLine
 10
-546.6643066406249
 20
523.9700317382813
 30
0.0
 11
-544.9693603515624
 21
526.2022705078124
 31
0.0
  0
LINE
  5
344
330
22
100
AcDbEntity
  8
0
  6
Continuous
 62
     7
100
AcDbLine
 10
-541.1268920898439
 20
523.9846191406249
 30
0.0
 11
-541.3986816406249
 21
523.7128295898438
 31
0.0
  0
LINE
  5
345
330
22
100
AcDbEntity
  8
0
  6
Continuous
 62
     7
100
AcDbLine
 10
-546.1057739257813
 20
528.9634399414063
 30
0.0
 11
-543.8881225585938
 21
527.2835083007813
 31
0.0
  0
LINE
  5
346
330
22
100
AcDbEntity
  8
0
  6
Continuous
 62
     7
100
AcDbLine
 10
-517.8881225585938
 20
488.6767272949218
 30
0.0
 11
-517.8881225585938
 21
465.6767272949219
 31
0.0
  0
LINE
  5
347
330
22
100
AcDbEntity
  8
0
  6
Continuous
 62
     7
100
AcDbLine
 10
-512.8881225585939
 20
522.6767578125
 30
0.0
 11
-512.8881225585939
 21
482.6767272949219
 31
0.0
  0
LINE
  5
348
330
22
100
AcDbEntity
  8
0
  6
Continuous
 62
     7
100
AcDbLine
 10
-517.8881225585938
 20
522.6767578125
 30
0.0
 11
-517.8881225585938
 21
499.6767272949218
 31
0.0
  0
LINE
  5
349
330
22
100
AcDbEntity
  8
0
  6
Continuous
 62
     7
100
AcDbLine
 10
-541.6558837890625
 20
528.9784545898438
 30
0.0
 11
-543.8881225585938
 21
527.2835083007813
 31
0.0
  0
LINE
  5
34A
330
22
100
AcDbEntity
  8
0
  6
Continuous
 62
     7
100
AcDbLine
 10
-541.1268920898439
 20
523.9846191406249
 30
0.0
 11
-542.8068847656249
 21
526.2022705078124
 31
0.0
  0
LINE
  5
34B
330
22
100
AcDbEntity
  8
0
  6
Continuous
 62
     7
100
AcDbLine
 10
-541.1268920898439
 20
523.9846191406249
 30
0.0
 11
-541.3986816406249
 21
523.7128295898438
 31
0.0
  0
LINE
  5
34C
330
22
100
AcDbEntity
  8
0
  6
Continuous
 62
     7
100
AcDbLine
 10
-541.6704101562499
 20
523.4410400390625
 30
0.0
 11
-541.3986816406249
 21
523.7128295898438
 31
0.0
  0
LINE
  5
34D
330
22
100
AcDbEntity
  8
0
  6
Continuous
 62
     7
100
AcDbLine
 10
-546.3923339843749
 20
523.6980590820313
 30
0.0
 11
-546.120361328125
 21
523.4260864257813
 31
0.0
  0
LINE
  5
34E
330
22
100
AcDbEntity
  8
0
  6
Continuous
 62
     7
100
AcDbLine
 10
-546.3923339843749
 20
523.6980590820313
 30
0.0
 11
-546.6643066406249
 21
523.9700317382813
 31
0.0
  0
LINE
  5
34F
330
22
100
AcDbEntity
  8
0
  6
Continuous
 62
     7
100
AcDbLine
 10
-546.3923339843749
 20
523.6980590820313
 30
0.0
 11
-546.6643066406249
 21
523.9700317382813
 31
0.0
  0
LINE
  5
350
330
22
100
AcDbEntity
  8
0
  6
Continuous
 62
     7
100
AcDbLine
 10
-546.3923339843749
 20
523.6980590820313
 30
0.0
 11
-546.120361328125
 21
523.4260864257813
 31
0.0
  0
LINE
  5
351
330
22
100
AcDbEntity
  8
0
  6
Continuous
 62
     7
100
AcDbLine
 10
-546.6643066406249
 20
523.9700317382813
 30
0.0
 11
-544.9693603515624
 21
526.2022705078124
 31
0.0
  0
LINE
  5
352
330
22
100
AcDbEntity
  8
0
  6
Continuous
 62
     7
100
AcDbLine
 10
-546.6492919921875
 20
528.419921875
 30
0.0
 11
-544.9693603515624
 21
526.2022705078124
 31
0.0
  0
LINE
  5
353
330
22
100
AcDbEntity
  8
0
  6
Continuous
 62
     7
100
AcDbLine
 10
-541.6704101562499
 20
523.4410400390625
 30
0.0
 11
-543.8881225585938
 21
525.1210327148438
 31
0.0
  0
LINE
  5
354
330
22
100
AcDbEntity
  8
0
  6
Continuous
 62
     7
100
AcDbLine
 10
-546.120361328125
 20
523.4260864257813
 30
0.0
 11
-543.8881225585938
 21
525.1210327148438
 31
0.0
  0
LINE
  5
355
330
22
100
AcDbEntity
  8
0
  6
Continuous
 62
     7
100
AcDbLine
 10
-541.6704101562499
 20
523.4410400390625
 30
0.0
 11
-541.3986816406249
 21
523.7128295898438
 31
0.0
  0
LINE
  5
356
330
22
100
AcDbEntity
  8
0
  6
Continuous
 62
     7
100
AcDbLine
 10
-541.1119384765624
 20
528.4345092773438
 30
0.0
 11
-542.8068847656249
 21
526.2022705078124
 31
0.0
  0
LINE
  5
357
330
22
100
AcDbEntity
  8
0
  6
Continuous
 62
     7
100
AcDbLine
 10
-541.3839111328124
 20
528.7064819335938
 30
0.0
 11
-541.1119384765624
 21
528.4345092773438
 31
0.0
  0
LINE
  5
358
330
22
100
AcDbEntity
  8
0
  6
Continuous
 62
     7
100
AcDbLine
 10
-541.1119384765624
 20
528.4345092773438
 30
0.0
 11
-542.8068847656249
 21
526.2022705078124
 31
0.0
  0
LINE
  5
359
330
22
100
AcDbEntity
  8
0
  6
Continuous
 62
     7
100
AcDbLine
 10
-443.1058044433593
 20
322.9124145507813
 30
0.0
 11
-440.8881225585938
 21
321.2324523925781
 31
0.0
  0
LINE
  5
35A
330
22
100
AcDbEntity
  8
0
  6
Continuous
 62
     7
100
AcDbLine
 10
-438.3838806152343
 20
322.6554260253906
 30
0.0
 11
-438.6558532714843
 21
322.9273986816406
 31
0.0
  0
LINE
  5
35B
330
22
100
AcDbEntity
  8
0
  6
Continuous
 62
     7
100
AcDbLine
 10
-438.1119384765624
 20
322.3834838867188
 30
0.0
 11
-439.8068542480468
 21
320.1512145996094
 31
0.0
  0
LINE
  5
35C
330
22
100
AcDbEntity
  8
0
  6
Continuous
 62
     7
100
AcDbLine
 10
-438.3838806152343
 20
322.6554260253906
 30
0.0
 11
-438.1119384765624
 21
322.3834838867188
 31
0.0
  0
LINE
  5
35D
330
22
100
AcDbEntity
  8
0
  6
Continuous
 62
     7
100
AcDbLine
 10
-438.1119384765624
 20
322.3834838867188
 30
0.0
 11
-439.8068542480468
 21
320.1512145996094
 31
0.0
  0
LINE
  5
35E
330
22
100
AcDbEntity
  8
0
  6
Continuous
 62
     7
100
AcDbLine
 10
-438.6704406738281
 20
317.3900146484375
 30
0.0
 11
-438.398681640625
 21
317.6617736816406
 31
0.0
  0
LINE
  5
35F
330
22
100
AcDbEntity
  8
0
  6
Continuous
 62
     7
100
AcDbLine
 10
-443.1203613281249
 20
317.3750305175781
 30
0.0
 11
-440.8881225585938
 21
319.0699768066406
 31
0.0
  0
LINE
  5
360
330
22
100
AcDbEntity
  8
0
  6
Continuous
 62
     7
100
AcDbLine
 10
-438.6704406738281
 20
317.3900146484375
 30
0.0
 11
-440.8881225585938
 21
319.0699768066406
 31
0.0
  0
LINE
  5
361
330
22
100
AcDbEntity
  8
0
  6
Continuous
 62
     7
100
AcDbLine
 10
-443.6493225097656
 20
322.368896484375
 30
0.0
 11
-441.9693603515624
 21
320.1512145996094
 31
0.0
  0
LINE
  5
362
330
22
100
AcDbEntity
  8
0
  6
Continuous
 62
     7
100
AcDbLine
 10
-443.664306640625
 20
317.9189453125
 30
0.0
 11
-441.9693603515624
 21
320.1512145996094
 31
0.0
  0
LINE
  5
363
330
22
100
AcDbEntity
  8
0
  6
Continuous
 62
     7
100
AcDbLine
 10
-438.3838806152343
 20
322.6554260253906
 30
0.0
 11
-438.6558532714843
 21
322.9273986816406
 31
0.0
  0
LINE
  5
364
330
22
100
AcDbEntity
  8
0
  6
Continuous
 62
     7
100
AcDbLine
 10
-443.1058044433593
 20
322.9124145507813
 30
0.0
 11
-440.8881225585938
 21
321.2324523925781
 31
0.0
  0
LINE
  5
365
330
22
100
AcDbEntity
  8
0
  6
Continuous
 62
     7
100
AcDbLine
 10
-438.1269226074218
 20
317.9335327148438
 30
0.0
 11
-438.398681640625
 21
317.6617736816406
 31
0.0
  0
LINE
  5
366
330
22
100
AcDbEntity
  8
0
  6
Continuous
 62
     7
100
AcDbLine
 10
-433.8881225585938
 20
374.6767272949219
 30
0.0
 11
-433.8881225585938
 21
414.6767272949218
 31
0.0
  0
LINE
  5
367
330
22
100
AcDbEntity
  8
0
  6
Continuous
 62
     7
100
AcDbLine
 10
-433.8881225585938
 20
329.6767272949219
 30
0.0
 11
-433.8881225585938
 21
363.6767272949219
 31
0.0
  0
LINE
  5
368
330
22
100
AcDbEntity
  8
0
  6
Continuous
 62
     7
100
AcDbLine
 10
-428.8881225585938
 20
374.6767272949219
 30
0.0
 11
-428.8881225585938
 21
414.6767272949218
 31
0.0
  0
LINE
  5
369
330
22
100
AcDbEntity
  8
0
  6
Continuous
 62
     7
100
AcDbLine
 10
-428.8881225585938
 20
329.6767272949219
 30
0.0
 11
-428.8881225585938
 21
363.6767272949219
 31
0.0
  0
LINE
  5
36A
330
22
100
AcDbEntity
  8
0
  6
Continuous
 62
     7
100
AcDbLine
 10
-462.8881225585938
 20
323.6767272949219
 30
0.0
 11
-462.8881225585938
 21
346.6767272949219
 31
0.0
  0
LINE
  5
36B
330
22
100
AcDbEntity
  8
0
  6
Continuous
 62
     7
100
AcDbLine
 10
-467.8881225585937
 20
323.6767272949219
 30
0.0
 11
-467.8881225585937
 21
363.6767272949219
 31
0.0
  0
LINE
  5
36C
330
22
100
AcDbEntity
  8
0
  6
Continuous
 62
     7
100
AcDbLine
 10
-462.8881225585938
 20
357.6767272949219
 30
0.0
 11
-462.8881225585938
 21
380.6767272949219
 31
0.0
  0
LINE
  5
36D
330
22
100
AcDbEntity
  8
0
  6
Continuous
 62
     7
100
AcDbLine
 10
-443.392333984375
 20
317.64697265625
 30
0.0
 11
-443.1203613281249
 21
317.3750305175781
 31
0.0
  0
LINE
  5
36E
330
22
100
AcDbEntity
  8
0
  6
Continuous
 62
     7
100
AcDbLine
 10
-443.392333984375
 20
317.64697265625
 30
0.0
 11
-443.664306640625
 21
317.9189453125
 31
0.0
  0
LINE
  5
36F
330
22
100
AcDbEntity
  8
0
  6
Continuous
 62
     7
100
AcDbLine
 10
-443.392333984375
 20
317.64697265625
 30
0.0
 11
-443.664306640625
 21
317.9189453125
 31
0.0
  0
LINE
  5
370
330
22
100
AcDbEntity
  8
0
  6
Continuous
 62
     7
100
AcDbLine
 10
-443.392333984375
 20
317.64697265625
 30
0.0
 11
-443.1203613281249
 21
317.3750305175781
 31
0.0
  0
LINE
  5
371
330
22
100
AcDbEntity
  8
0
  6
Continuous
 62
     7
100
AcDbLine
 10
-438.6704406738281
 20
317.3900146484375
 30
0.0
 11
-438.398681640625
 21
317.6617736816406
 31
0.0
  0
LINE
  5
372
330
22
100
AcDbEntity
  8
0
  6
Continuous
 62
     7
100
AcDbLine
 10
-438.1269226074218
 20
317.9335327148438
 30
0.0
 11
-438.398681640625
 21
317.6617736816406
 31
0.0
  0
LINE
  5
373
330
22
100
AcDbEntity
  8
0
  6
Continuous
 62
     7
100
AcDbLine
 10
-438.1269226074218
 20
317.9335327148438
 30
0.0
 11
-439.8068542480468
 21
320.1512145996094
 31
0.0
  0
LINE
  5
374
330
22
100
AcDbEntity
  8
0
  6
Continuous
 62
     7
100
AcDbLine
 10
-438.6558532714843
 20
322.9273986816406
 30
0.0
 11
-440.8881225585938
 21
321.2324523925781
 31
0.0
  0
LINE
  5
375
330
22
100
AcDbEntity
  8
0
  6
DASHED
 62
     7
100
AcDbLine
 10
-435.8881225585938
 20
320.1767272949219
 30
0.0
 11
-435.8881225585938
 21
318.6767272949219
 31
0.0
  0
LINE
  5
376
330
22
100
AcDbEntity
  8
0
  6
Continuous
 62
     7
100
AcDbLine
 10
-443.664306640625
 20
317.9189453125
 30
0.0
 11
-441.9693603515624
 21
320.1512145996094
 31
0.0
  0
LINE
  5
377
330
22
100
AcDbEntity
  8
0
  6
Continuous
 62
     7
100
AcDbLine
 10
-443.1058044433593
 20
322.9124145507813
 30
0.0
 11
-443.3775634765624
 21
322.6406555175781
 31
0.0
  0
LINE
  5
378
330
22
100
AcDbEntity
  8
0
  6
Continuous
 62
     7
100
AcDbLine
 10
-443.1203613281249
 20
317.3750305175781
 30
0.0
 11
-440.8881225585938
 21
319.0699768066406
 31
0.0
  0
LINE
  5
379
330
22
100
AcDbEntity
  8
0
  6
Continuous
 62
     7
100
AcDbLine
 10
-438.6558532714843
 20
322.9273986816406
 30
0.0
 11
-440.8881225585938
 21
321.2324523925781
 31
0.0
  0
LINE
  5
37A
330
22
100
AcDbEntity
  8
0
  6
Continuous
 62
     7
100
AcDbLine
 10
-438.3838806152343
 20
322.6554260253906
 30
0.0
 11
-438.1119384765624
 21
322.3834838867188
 31
0.0
  0
LINE
  5
37B
330
22
100
AcDbEntity
  8
0
  6
Continuous
 62
     7
100
AcDbLine
 10
-438.1269226074218
 20
317.9335327148438
 30
0.0
 11
-439.8068542480468
 21
320.1512145996094
 31
0.0
  0
LINE
  5
37C
330
22
100
AcDbEntity
  8
0
  6
Continuous
 62
     7
100
AcDbLine
 10
-438.6704406738281
 20
317.3900146484375
 30
0.0
 11
-440.8881225585938
 21
319.0699768066406
 31
0.0
  0
LINE
  5
37D
330
22
100
AcDbEntity
  8
0
  6
Continuous
 62
     7
100
AcDbLine
 10
-443.6493225097656
 20
322.368896484375
 30
0.0
 11
-443.3775634765624
 21
322.6406555175781
 31
0.0
  0
LINE
  5
37E
330
22
100
AcDbEntity
  8
0
  6
Continuous
 62
     7
100
AcDbLine
 10
-443.1058044433593
 20
322.9124145507813
 30
0.0
 11
-443.3775634765624
 21
322.6406555175781
 31
0.0
  0
LINE
  5
37F
330
22
100
AcDbEntity
  8
0
  6
Continuous
 62
     7
100
AcDbLine
 10
-443.6493225097656
 20
322.368896484375
 30
0.0
 11
-443.3775634765624
 21
322.6406555175781
 31
0.0
  0
LINE
  5
380
330
22
100
AcDbEntity
  8
0
  6
Continuous
 62
     7
100
AcDbLine
 10
-443.6493225097656
 20
322.368896484375
 30
0.0
 11
-441.9693603515624
 21
320.1512145996094
 31
0.0
  0
LINE
  5
381
330
22
100
AcDbEntity
  8
0
  6
Continuous
 62
     7
100
AcDbLine
 10
-502.8881225585938
 20
357.6767272949219
 30
0.0
 11
-502.8881225585938
 21
380.6767272949219
 31
0.0
  0
LINE
  5
382
330
22
100
AcDbEntity
  8
0
  6
Continuous
 62
     7
100
AcDbLine
 10
-497.8881225585937
 20
323.6767272949219
 30
0.0
 11
-497.8881225585937
 21
346.6767272949219
 31
0.0
  0
LINE
  5
383
330
22
100
AcDbEntity
  8
0
  6
Continuous
 62
     7
100
AcDbLine
 10
-497.8881225585937
 20
357.6767272949219
 30
0.0
 11
-497.8881225585937
 21
380.6767272949219
 31
0.0
  0
LINE
  5
384
330
22
100
AcDbEntity
  8
0
  6
Continuous
 62
     7
100
AcDbLine
 10
-472.8881225585937
 20
323.6767272949219
 30
0.0
 11
-472.8881225585937
 21
363.6767272949219
 31
0.0
  0
LINE
  5
385
330
22
100
AcDbEntity
  8
0
  6
Continuous
 62
     7
100
AcDbLine
 10
-492.8881225585937
 20
323.6767272949219
 30
0.0
 11
-492.8881225585937
 21
363.6767272949219
 31
0.0
  0
LINE
  5
386
330
22
100
AcDbEntity
  8
0
  6
Continuous
 62
     7
100
AcDbLine
 10
-482.8881225585938
 20
323.6767272949219
 30
0.0
 11
-482.8881225585938
 21
346.6767272949219
 31
0.0
  0
LINE
  5
387
330
22
100
AcDbEntity
  8
0
  6
Continuous
 62
     7
100
AcDbLine
 10
-477.8881225585938
 20
323.6767272949219
 30
0.0
 11
-477.8881225585938
 21
346.6767272949219
 31
0.0
  0
LINE
  5
388
330
22
100
AcDbEntity
  8
0
  6
Continuous
 62
     7
100
AcDbLine
 10
-487.8881225585938
 20
323.6767272949219
 30
0.0
 11
-487.8881225585938
 21
363.6767272949219
 31
0.0
  0
LINE
  5
389
330
22
100
AcDbEntity
  8
0
  6
Continuous
 62
     7
100
AcDbLine
 10
-477.8881225585938
 20
357.6767272949219
 30
0.0
 11
-477.8881225585938
 21
380.6767272949219
 31
0.0
  0
LINE
  5
38A
330
22
100
AcDbEntity
  8
0
  6
Continuous
 62
     7
100
AcDbLine
 10
-482.8881225585938
 20
357.6767272949219
 30
0.0
 11
-482.8881225585938
 21
380.6767272949219
 31
0.0
  0
LINE
  5
38B
330
22
100
AcDbEntity
  8
0
  6
DASHED
 62
     7
100
AcDbLine
 10
-443.3881225585937
 20
324.9464416503906
 30
0.0
 11
-443.3881225585937
 21
418.6767272949218
 31
0.0
  0
LINE
  5
38C
330
22
100
AcDbEntity
  8
0
  6
DASHED
 62
     7
100
AcDbLine
 10
-438.3881225585938
 20
418.6767272949218
 30
0.0
 11
-438.3881225585938
 21
324.9464416503906
 31
0.0
  0
LINE
  5
38D
330
22
100
AcDbEntity
  8
0
  6
Continuous
 62
     7
100
AcDbLine
 10
-497.8881225585937
 20
391.6767272949219
 30
0.0
 11
-497.8881225585937
 21
414.6767272949218
 31
0.0
  0
LINE
  5
38E
330
22
100
AcDbEntity
  8
0
  6
Continuous
 62
     7
100
AcDbLine
 10
-502.8881225585938
 20
391.6767272949219
 30
0.0
 11
-502.8881225585938
 21
414.6767272949218
 31
0.0
  0
LINE
  5
38F
330
22
100
AcDbEntity
  8
0
  6
Continuous
 62
     7
100
AcDbLine
 10
-462.8881225585938
 20
391.6767272949219
 30
0.0
 11
-462.8881225585938
 21
414.6767272949218
 31
0.0
  0
LINE
  5
390
330
22
100
AcDbEntity
  8
0
  6
Continuous
 62
     7
100
AcDbLine
 10
-477.8881225585938
 20
391.6767272949219
 30
0.0
 11
-477.8881225585938
 21
414.6767272949218
 31
0.0
  0
LINE
  5
391
330
22
100
AcDbEntity
  8
0
  6
Continuous
 62
     7
100
AcDbLine
 10
-482.8881225585938
 20
391.6767272949219
 30
0.0
 11
-482.8881225585938
 21
414.6767272949218
 31
0.0
  0
LINE
  5
392
330
22
100
AcDbEntity
  8
0
  6
Continuous
 62
     7
100
AcDbLine
 10
-472.8881225585937
 20
374.6767272949219
 30
0.0
 11
-472.8881225585937
 21
414.6767272949218
 31
0.0
  0
LINE
  5
393
330
22
100
AcDbEntity
  8
0
  6
Continuous
 62
     7
100
AcDbLine
 10
-487.8881225585938
 20
374.6767272949219
 30
0.0
 11
-487.8881225585938
 21
414.6767272949218
 31
0.0
  0
LINE
  5
394
330
22
100
AcDbEntity
  8
0
  6
Continuous
 62
     7
100
AcDbLine
 10
-467.8881225585937
 20
374.6767272949219
 30
0.0
 11
-467.8881225585937
 21
414.6767272949218
 31
0.0
  0
LINE
  5
395
330
22
100
AcDbEntity
  8
0
  6
Continuous
 62
     7
100
AcDbLine
 10
-492.8881225585937
 20
374.6767272949219
 30
0.0
 11
-492.8881225585937
 21
414.6767272949218
 31
0.0
  0
LINE
  5
396
330
22
100
AcDbEntity
  8
0
  6
Continuous
 62
     7
100
AcDbLine
 10
-502.8881225585938
 20
323.6767272949219
 30
0.0
 11
-502.8881225585938
 21
346.6767272949219
 31
0.0
  0
LINE
  5
397
330
22
100
AcDbEntity
  8
0
  6
Continuous
 62
     7
100
AcDbLine
 10
-452.8881225585938
 20
374.6767272949219
 30
0.0
 11
-452.8881225585938
 21
414.6767272949218
 31
0.0
  0
LINE
  5
398
330
22
100
AcDbEntity
  8
0
  6
Continuous
 62
     7
100
AcDbLine
 10
-457.8881225585938
 20
391.6767272949219
 30
0.0
 11
-457.8881225585938
 21
414.6767272949218
 31
0.0
  0
LINE
  5
399
330
22
100
AcDbEntity
  8
0
  6
Continuous
 62
     7
100
AcDbLine
 10
-447.8881225585937
 20
374.6767272949219
 30
0.0
 11
-447.8881225585937
 21
414.6767272949218
 31
0.0
  0
LINE
  5
39A
330
22
100
AcDbEntity
  8
0
  6
DASHED
 62
     7
100
AcDbLine
 10
-445.8881225585938
 20
320.1767272949219
 30
0.0
 11
-445.8881225585938
 21
318.6767272949219
 31
0.0
  0
LINE
  5
39B
330
22
100
AcDbEntity
  8
0
  6
Continuous
 62
     7
100
AcDbLine
 10
-457.8881225585938
 20
323.6767272949219
 30
0.0
 11
-457.8881225585938
 21
346.6767272949219
 31
0.0
  0
LINE
  5
39C
330
22
100
AcDbEntity
  8
0
  6
Continuous
 62
     7
100
AcDbLine
 10
-447.8881225585937
 20
329.6767272949219
 30
0.0
 11
-447.8881225585937
 21
363.6767272949219
 31
0.0
  0
LINE
  5
39D
330
22
100
AcDbEntity
  8
0
  6
Continuous
 62
     7
100
AcDbLine
 10
-457.8881225585938
 20
357.6767272949219
 30
0.0
 11
-457.8881225585938
 21
380.6767272949219
 31
0.0
  0
LINE
  5
39E
330
22
100
AcDbEntity
  8
0
  6
Continuous
 62
     7
100
AcDbLine
 10
-452.8881225585938
 20
329.6767272949219
 30
0.0
 11
-452.8881225585938
 21
363.6767272949219
 31
0.0
  0
LINE
  5
39F
330
22
100
AcDbEntity
  8
0
  6
Continuous
 62
     7
100
AcDbLine
 10
-413.8881225585937
 20
374.6767272949219
 30
0.0
 11
-413.8881225585937
 21
414.6767272949218
 31
0.0
  0
LINE
  5
3A0
330
22
100
AcDbEntity
  8
0
  6
Continuous
 62
     7
100
AcDbLine
 10
-418.8881225585937
 20
391.6767272949219
 30
0.0
 11
-418.8881225585937
 21
414.6767272949218
 31
0.0
  0
LINE
  5
3A1
330
22
100
AcDbEntity
  8
0
  6
Continuous
 62
     7
100
AcDbLine
 10
-408.8881225585938
 20
374.6767272949219
 30
0.0
 11
-408.8881225585938
 21
414.6767272949218
 31
0.0
  0
LINE
  5
3A2
330
22
100
AcDbEntity
  8
0
  6
Continuous
 62
     7
100
AcDbLine
 10
-403.8881225585938
 20
391.6767272949219
 30
0.0
 11
-403.8881225585938
 21
414.6767272949218
 31
0.0
  0
LINE
  5
3A3
330
22
100
AcDbEntity
  8
0
  6
Continuous
 62
     7
100
AcDbLine
 10
-413.8881225585937
 20
323.6767272949219
 30
0.0
 11
-413.8881225585937
 21
363.6767272949219
 31
0.0
  0
LINE
  5
3A4
330
22
100
AcDbEntity
  8
0
  6
Continuous
 62
     7
100
AcDbLine
 10
-418.8881225585937
 20
323.6767272949219
 30
0.0
 11
-418.8881225585937
 21
346.6767272949219
 31
0.0
  0
LINE
  5
3A5
330
22
100
AcDbEntity
  8
0
  6
Continuous
 62
     7
100
AcDbLine
 10
-418.8881225585937
 20
357.6767272949219
 30
0.0
 11
-418.8881225585937
 21
380.6767272949219
 31
0.0
  0
LINE
  5
3A6
330
22
100
AcDbEntity
  8
0
  6
Continuous
 62
     7
100
AcDbLine
 10
-403.8881225585938
 20
357.6767272949219
 30
0.0
 11
-403.8881225585938
 21
380.6767272949219
 31
0.0
  0
LINE
  5
3A7
330
22
100
AcDbEntity
  8
0
  6
Continuous
 62
     7
100
AcDbLine
 10
-403.8881225585938
 20
323.6767272949219
 30
0.0
 11
-403.8881225585938
 21
346.6767272949219
 31
0.0
  0
LINE
  5
3A8
330
22
100
AcDbEntity
  8
0
  6
Continuous
 62
     7
100
AcDbLine
 10
-408.8881225585938
 20
323.6767272949219
 30
0.0
 11
-408.8881225585938
 21
363.6767272949219
 31
0.0
  0
LINE
  5
3A9
330
22
100
AcDbEntity
  8
0
  6
Continuous
 62
     7
100
AcDbLine
 10
-423.8881225585938
 20
391.6767272949219
 30
0.0
 11
-423.8881225585938
 21
414.6767272949218
 31
0.0
  0
LINE
  5
3AA
330
22
100
AcDbEntity
  8
0
  6
Continuous
 62
     7
100
AcDbLine
 10
-423.8881225585938
 20
323.6767272949219
 30
0.0
 11
-423.8881225585938
 21
346.6767272949219
 31
0.0
  0
LINE
  5
3AB
330
22
100
AcDbEntity
  8
0
  6
Continuous
 62
     7
100
AcDbLine
 10
-423.8881225585938
 20
357.6767272949219
 30
0.0
 11
-423.8881225585938
 21
380.6767272949219
 31
0.0
  0
LINE
  5
3AC
330
22
100
AcDbEntity
  8
0
  6
Continuous
 62
     7
100
AcDbLine
 10
-522.8881225585938
 20
357.6767272949219
 30
0.0
 11
-522.8881225585938
 21
380.6767272949219
 31
0.0
  0
LINE
  5
3AD
330
22
100
AcDbEntity
  8
0
  6
Continuous
 62
     7
100
AcDbLine
 10
-542.8881225585938
 20
357.6767272949219
 30
0.0
 11
-542.8881225585938
 21
380.6767272949219
 31
0.0
  0
LINE
  5
3AE
330
22
100
AcDbEntity
  8
0
  6
Continuous
 62
     7
100
AcDbLine
 10
-537.8881225585939
 20
357.6767272949219
 30
0.0
 11
-537.8881225585939
 21
380.6767272949219
 31
0.0
  0
LINE
  5
3AF
330
22
100
AcDbEntity
  8
0
  6
Continuous
 62
     7
100
AcDbLine
 10
-532.8881225585938
 20
323.6767272949219
 30
0.0
 11
-532.8881225585938
 21
363.6767272949219
 31
0.0
  0
LINE
  5
3B0
330
22
100
AcDbEntity
  8
0
  6
Continuous
 62
     7
100
AcDbLine
 10
-527.8881225585938
 20
323.6767272949219
 30
0.0
 11
-527.8881225585938
 21
363.6767272949219
 31
0.0
  0
LINE
  5
3B1
330
22
100
AcDbEntity
  8
0
  6
Continuous
 62
     7
100
AcDbLine
 10
-541.3839111328124
 20
322.6554260253906
 30
0.0
 11
-541.1119384765624
 21
322.3834838867188
 31
0.0
  0
LINE
  5
3B2
330
22
100
AcDbEntity
  8
0
  6
Continuous
 62
     7
100
AcDbLine
 10
-541.1119384765624
 20
322.3834838867188
 30
0.0
 11
-542.8068847656249
 21
320.1512145996094
 31
0.0
  0
LINE
  5
3B3
330
22
100
AcDbEntity
  8
0
  6
Continuous
 62
     7
100
AcDbLine
 10
-541.3839111328124
 20
322.6554260253906
 30
0.0
 11
-541.6558837890625
 21
322.9273986816406
 31
0.0
  0
LINE
  5
3B4
330
22
100
AcDbEntity
  8
0
  6
Continuous
 62
     7
100
AcDbLine
 10
-546.1057739257813
 20
322.9124145507813
 30
0.0
 11
-543.8881225585938
 21
321.2324523925781
 31
0.0
  0
LINE
  5
3B5
330
22
100
AcDbEntity
  8
0
  6
Continuous
 62
     7
100
AcDbLine
 10
-546.6492919921875
 20
322.368896484375
 30
0.0
 11
-544.9693603515624
 21
320.1512145996094
 31
0.0
  0
LINE
  5
3B6
330
22
100
AcDbEntity
  8
0
  6
Continuous
 62
     7
100
AcDbLine
 10
-546.6492919921875
 20
322.368896484375
 30
0.0
 11
-546.3775634765625
 21
322.6406555175781
 31
0.0
  0
LINE
  5
3B7
330
22
100
AcDbEntity
  8
0
  6
Continuous
 62
     7
100
AcDbLine
 10
-546.1057739257813
 20
322.9124145507813
 30
0.0
 11
-546.3775634765625
 21
322.6406555175781
 31
0.0
  0
LINE
  5
3B8
330
22
100
AcDbEntity
  8
0
  6
Continuous
 62
     7
100
AcDbLine
 10
-546.6492919921875
 20
322.368896484375
 30
0.0
 11
-546.3775634765625
 21
322.6406555175781
 31
0.0
  0
LINE
  5
3B9
330
22
100
AcDbEntity
  8
0
  6
Continuous
 62
     7
100
AcDbLine
 10
-541.6704101562499
 20
317.3900146484375
 30
0.0
 11
-543.8881225585938
 21
319.0699768066406
 31
0.0
  0
LINE
  5
3BA
330
22
100
AcDbEntity
  8
0
  6
Continuous
 62
     7
100
AcDbLine
 10
-541.1268920898439
 20
317.9335327148438
 30
0.0
 11
-542.8068847656249
 21
320.1512145996094
 31
0.0
  0
LINE
  5
3BB
330
22
100
AcDbEntity
  8
0
  6
Continuous
 62
     7
100
AcDbLine
 10
-522.8881225585938
 20
323.6767272949219
 30
0.0
 11
-522.8881225585938
 21
346.6767272949219
 31
0.0
  0
LINE
  5
3BC
330
22
100
AcDbEntity
  8
0
  6
Continuous
 62
     7
100
AcDbLine
 10
-546.6643066406249
 20
317.9189453125
 30
0.0
 11
-544.9693603515624
 21
320.1512145996094
 31
0.0
  0
LINE
  5
3BD
330
22
100
AcDbEntity
  8
0
  6
Continuous
 62
     7
100
AcDbLine
 10
-541.1268920898439
 20
317.9335327148438
 30
0.0
 11
-541.3986816406249
 21
317.6617736816406
 31
0.0
  0
LINE
  5
3BE
330
22
100
AcDbEntity
  8
0
  6
Continuous
 62
     7
100
AcDbLine
 10
-546.1057739257813
 20
322.9124145507813
 30
0.0
 11
-543.8881225585938
 21
321.2324523925781
 31
0.0
  0
LINE
  5
3BF
330
22
100
AcDbEntity
  8
0
  6
Continuous
 62
     7
100
AcDbLine
 10
-541.3839111328124
 20
322.6554260253906
 30
0.0
 11
-541.6558837890625
 21
322.9273986816406
 31
0.0
  0
LINE
  5
3C0
330
22
100
AcDbEntity
  8
0
  6
Continuous
 62
     7
100
AcDbLine
 10
-541.6558837890625
 20
322.9273986816406
 30
0.0
 11
-543.8881225585938
 21
321.2324523925781
 31
0.0
  0
LINE
  5
3C1
330
22
100
AcDbEntity
  8
0
  6
Continuous
 62
     7
100
AcDbLine
 10
-541.1268920898439
 20
317.9335327148438
 30
0.0
 11
-542.8068847656249
 21
320.1512145996094
 31
0.0
  0
LINE
  5
3C2
330
22
100
AcDbEntity
  8
0
  6
Continuous
 62
     7
100
AcDbLine
 10
-541.1268920898439
 20
317.9335327148438
 30
0.0
 11
-541.3986816406249
 21
317.6617736816406
 31
0.0
  0
LINE
  5
3C3
330
22
100
AcDbEntity
  8
0
  6
Continuous
 62
     7
100
AcDbLine
 10
-541.6704101562499
 20
317.3900146484375
 30
0.0
 11
-541.3986816406249
 21
317.6617736816406
 31
0.0
  0
LINE
  5
3C4
330
22
100
AcDbEntity
  8
0
  6
Continuous
 62
     7
100
AcDbLine
 10
-546.3923339843749
 20
317.64697265625
 30
0.0
 11
-546.120361328125
 21
317.3750305175781
 31
0.0
  0
LINE
  5
3C5
330
22
100
AcDbEntity
  8
0
  6
Continuous
 62
     7
100
AcDbLine
 10
-546.3923339843749
 20
317.64697265625
 30
0.0
 11
-546.6643066406249
 21
317.9189453125
 31
0.0
  0
LINE
  5
3C6
330
22
100
AcDbEntity
  8
0
  6
Continuous
 62
     7
100
AcDbLine
 10
-546.3923339843749
 20
317.64697265625
 30
0.0
 11
-546.6643066406249
 21
317.9189453125
 31
0.0
  0
LINE
  5
3C7
330
22
100
AcDbEntity
  8
0
  6
Continuous
 62
     7
100
AcDbLine
 10
-546.3923339843749
 20
317.64697265625
 30
0.0
 11
-546.120361328125
 21
317.3750305175781
 31
0.0
  0
LINE
  5
3C8
330
22
100
AcDbEntity
  8
0
  6
Continuous
 62
     7
100
AcDbLine
 10
-546.6643066406249
 20
317.9189453125
 30
0.0
 11
-544.9693603515624
 21
320.1512145996094
 31
0.0
  0
LINE
  5
3C9
330
22
100
AcDbEntity
  8
0
  6
Continuous
 62
     7
100
AcDbLine
 10
-546.6492919921875
 20
322.368896484375
 30
0.0
 11
-544.9693603515624
 21
320.1512145996094
 31
0.0
  0
LINE
  5
3CA
330
22
100
AcDbEntity
  8
0
  6
Continuous
 62
     7
100
AcDbLine
 10
-541.6704101562499
 20
317.3900146484375
 30
0.0
 11
-543.8881225585938
 21
319.0699768066406
 31
0.0
  0
LINE
  5
3CB
330
22
100
AcDbEntity
  8
0
  6
Continuous
 62
     7
100
AcDbLine
 10
-546.120361328125
 20
317.3750305175781
 30
0.0
 11
-543.8881225585938
 21
319.0699768066406
 31
0.0
  0
LINE
  5
3CC
330
22
100
AcDbEntity
  8
0
  6
Continuous
 62
     7
100
AcDbLine
 10
-541.6704101562499
 20
317.3900146484375
 30
0.0
 11
-541.3986816406249
 21
317.6617736816406
 31
0.0
  0
LINE
  5
3CD
330
22
100
AcDbEntity
  8
0
  6
Continuous
 62
     7
100
AcDbLine
 10
-541.1119384765624
 20
322.3834838867188
 30
0.0
 11
-542.8068847656249
 21
320.1512145996094
 31
0.0
  0
LINE
  5
3CE
330
22
100
AcDbEntity
  8
0
  6
DASHED
 62
     7
100
AcDbLine
 10
-538.8881225585938
 20
320.1767272949219
 30
0.0
 11
-538.8881225585938
 21
318.6767272949219
 31
0.0
  0
LINE
  5
3CF
330
22
100
AcDbEntity
  8
0
  6
Continuous
 62
     7
100
AcDbLine
 10
-542.8881225585938
 20
329.6767272949219
 30
0.0
 11
-542.8881225585938
 21
346.6767272949219
 31
0.0
  0
LINE
  5
3D0
330
22
100
AcDbEntity
  8
0
  6
Continuous
 62
     7
100
AcDbLine
 10
-537.8881225585939
 20
329.6767272949219
 30
0.0
 11
-537.8881225585939
 21
346.6767272949219
 31
0.0
  0
LINE
  5
3D1
330
22
100
AcDbEntity
  8
0
  6
Continuous
 62
     7
100
AcDbLine
 10
-522.8881225585938
 20
391.6767272949219
 30
0.0
 11
-522.8881225585938
 21
414.6767272949218
 31
0.0
  0
LINE
  5
3D2
330
22
100
AcDbEntity
  8
0
  6
Continuous
 62
     7
100
AcDbLine
 10
-527.8881225585938
 20
374.6767272949219
 30
0.0
 11
-527.8881225585938
 21
414.6767272949218
 31
0.0
  0
LINE
  5
3D3
330
22
100
AcDbEntity
  8
0
  6
Continuous
 62
     7
100
AcDbLine
 10
-532.8881225585938
 20
374.6767272949219
 30
0.0
 11
-532.8881225585938
 21
414.6767272949218
 31
0.0
  0
LINE
  5
3D4
330
22
100
AcDbEntity
  8
0
  6
Continuous
 62
     7
100
AcDbLine
 10
-542.8881225585938
 20
391.6767272949219
 30
0.0
 11
-542.8881225585938
 21
411.6767272949219
 31
0.0
  0
LINE
  5
3D5
330
22
100
AcDbEntity
  8
0
  6
Continuous
 62
     7
100
AcDbLine
 10
-537.8881225585939
 20
391.6767272949219
 30
0.0
 11
-537.8881225585939
 21
411.6767272949219
 31
0.0
  0
LINE
  5
3D6
330
22
100
AcDbEntity
  8
0
  6
Continuous
 62
     7
100
AcDbLine
 10
-517.8881225585938
 20
391.6767272949219
 30
0.0
 11
-517.8881225585938
 21
414.6767272949218
 31
0.0
  0
LINE
  5
3D7
330
22
100
AcDbEntity
  8
0
  6
Continuous
 62
     7
100
AcDbLine
 10
-512.8881225585939
 20
374.6767272949219
 30
0.0
 11
-512.8881225585939
 21
414.6767272949218
 31
0.0
  0
LINE
  5
3D8
330
22
100
AcDbEntity
  8
0
  6
DASHED
 62
     7
100
AcDbLine
 10
-543.8881225585938
 20
325.1767272949219
 30
0.0
 11
-545.3881225585938
 21
325.1767272949219
 31
0.0
  0
LINE
  5
3D9
330
22
100
AcDbEntity
  8
0
  6
Continuous
 62
     7
100
AcDbLine
 10
-517.8881225585938
 20
323.6767272949219
 30
0.0
 11
-517.8881225585938
 21
346.6767272949219
 31
0.0
  0
LINE
  5
3DA
330
22
100
AcDbEntity
  8
0
  6
Continuous
 62
     7
100
AcDbLine
 10
-512.8881225585939
 20
323.6767272949219
 30
0.0
 11
-512.8881225585939
 21
363.6767272949219
 31
0.0
  0
LINE
  5
3DB
330
22
100
AcDbEntity
  8
0
  6
Continuous
 62
     7
100
AcDbLine
 10
-517.8881225585938
 20
357.6767272949219
 30
0.0
 11
-517.8881225585938
 21
380.6767272949219
 31
0.0
  0
LINE
  5
3DC
330
22
100
AcDbEntity
  8
0
  6
Continuous
 62
     7
100
AcDbLine
 10
-541.3839111328124
 20
322.6554260253906
 30
0.0
 11
-541.1119384765624
 21
322.3834838867188
 31
0.0
  0
LINE
  5
3DD
330
22
100
AcDbEntity
  8
0
  6
Continuous
 62
     7
100
AcDbLine
 10
-541.6558837890625
 20
322.9273986816406
 30
0.0
 11
-543.8881225585938
 21
321.2324523925781
 31
0.0
  0
LINE
  5
3DE
330
22
100
AcDbEntity
  8
0
  6
Continuous
 62
     7
100
AcDbLine
 10
-546.120361328125
 20
317.3750305175781
 30
0.0
 11
-543.8881225585938
 21
319.0699768066406
 31
0.0
  0
LINE
  5
3DF
330
22
100
AcDbEntity
  8
0
  6
Continuous
 62
     7
100
AcDbLine
 10
-546.1057739257813
 20
322.9124145507813
 30
0.0
 11
-546.3775634765625
 21
322.6406555175781
 31
0.0
  0
LINE
  5
3E0
330
22
100
AcDbEntity
  8
0
  6
Continuous
 62
     7
100
AcDbLine
 10
-541.3755493164063
 20
425.9529418945312
 30
0.0
 11
-543.6077880859374
 21
424.2579956054687
 31
0.0
  0
LINE
  5
3E1
330
22
100
AcDbEntity
  8
0
  6
Continuous
 62
     7
100
AcDbLine
 10
-545.825439453125
 20
425.9379272460938
 30
0.0
 11
-543.6077880859374
 21
424.2579956054687
 31
0.0
  0
LINE
  5
3E2
330
22
100
AcDbEntity
  8
0
  6
Continuous
 62
     7
100
AcDbLine
 10
-541.3755493164063
 20
425.9529418945312
 30
0.0
 11
-543.6077880859374
 21
424.2579956054687
 31
0.0
  0
LINE
  5
3E3
330
22
100
AcDbEntity
  8
0
  6
Continuous
 62
     7
100
AcDbLine
 10
-546.3689575195314
 20
425.3944091796874
 30
0.0
 11
-544.6890258789063
 21
423.1767272949218
 31
0.0
  0
LINE
  5
3E4
330
22
100
AcDbEntity
  8
0
  6
Continuous
 62
     7
100
AcDbLine
 10
-540.8316040039063
 20
425.4089965820313
 30
0.0
 11
-542.5265502929688
 21
423.1767272949218
 31
0.0
  0
LINE
  5
3E5
330
22
100
AcDbEntity
  8
0
  6
Continuous
 62
     7
100
AcDbLine
 10
-540.8316040039063
 20
425.4089965820313
 30
0.0
 11
-542.5265502929688
 21
423.1767272949218
 31
0.0
  0
LINE
  5
3E6
330
22
100
AcDbEntity
  8
0
  6
Continuous
 62
     7
100
AcDbLine
 10
-545.825439453125
 20
425.9379272460938
 30
0.0
 11
-543.6077880859374
 21
424.2579956054687
 31
0.0
  0
LINE
  5
3E7
330
22
100
AcDbEntity
  8
0
  6
Continuous
 62
     7
100
AcDbLine
 10
-546.3689575195314
 20
425.3944091796874
 30
0.0
 11
-544.6890258789063
 21
423.1767272949218
 31
0.0
  0
LINE
  5
3E8
330
22
100
AcDbEntity
  8
0
  6
DASHED
 62
     7
100
AcDbLine
 10
-543.6077880859374
 20
428.1767272949219
 30
0.0
 11
-545.1077880859375
 21
428.1767272949219
 31
0.0
  0
LINE
  5
3E9
330
22
100
AcDbEntity
  8
0
  6
Continuous
 62
     7
100
AcDbLine
 10
-541.1035766601563
 20
425.6809692382812
 30
0.0
 11
-540.8316040039063
 21
425.4089965820313
 31
0.0
  0
LINE
  5
3EA
330
22
100
AcDbEntity
  8
0
  6
Continuous
 62
     7
100
AcDbLine
 10
-545.825439453125
 20
425.9379272460938
 30
0.0
 11
-546.0972290039063
 21
425.6661682128906
 31
0.0
  0
LINE
  5
3EB
330
22
100
AcDbEntity
  8
0
  6
Continuous
 62
     7
100
AcDbLine
 10
-541.1035766601563
 20
425.6809692382812
 30
0.0
 11
-541.3755493164063
 21
425.9529418945312
 31
0.0
  0
LINE
  5
3EC
330
22
100
AcDbEntity
  8
0
  6
Continuous
 62
     7
100
AcDbLine
 10
-541.1035766601563
 20
425.6809692382812
 30
0.0
 11
-540.8316040039063
 21
425.4089965820313
 31
0.0
  0
LINE
  5
3ED
330
22
100
AcDbEntity
  8
0
  6
Continuous
 62
     7
100
AcDbLine
 10
-541.1035766601563
 20
425.6809692382812
 30
0.0
 11
-541.3755493164063
 21
425.9529418945312
 31
0.0
  0
LINE
  5
3EE
330
22
100
AcDbEntity
  8
0
  6
Continuous
 62
     7
100
AcDbLine
 10
-546.3689575195314
 20
425.3944091796874
 30
0.0
 11
-546.0972290039063
 21
425.6661682128906
 31
0.0
  0
LINE
  5
3EF
330
22
100
AcDbEntity
  8
0
  6
Continuous
 62
     7
100
AcDbLine
 10
-545.825439453125
 20
425.9379272460938
 30
0.0
 11
-546.0972290039063
 21
425.6661682128906
 31
0.0
  0
LINE
  5
3F0
330
22
100
AcDbEntity
  8
0
  6
Continuous
 62
     7
100
AcDbLine
 10
-546.3689575195314
 20
425.3944091796874
 30
0.0
 11
-546.0972290039063
 21
425.6661682128906
 31
0.0
  0
LINE
  5
3F1
330
22
100
AcDbEntity
  8
0
  6
DASHED
 62
     7
100
AcDbLine
 10
-547.3881225585938
 20
416.1767272949218
 30
0.0
 11
-547.3881225585938
 21
327.1767272949219
 31
0.0
  0
LINE
  5
3F2
330
22
100
AcDbEntity
  8
0
  6
Continuous
 62
     7
100
AcDbLine
 10
-546.1119995117188
 20
420.6725158691406
 30
0.0
 11
-545.8400268554688
 21
420.4005432128906
 31
0.0
  0
LINE
  5
3F3
330
22
100
AcDbEntity
  8
0
  6
Continuous
 62
     7
100
AcDbLine
 10
-546.1119995117188
 20
420.6725158691406
 30
0.0
 11
-546.3839721679688
 21
420.9444885253906
 31
0.0
  0
LINE
  5
3F4
330
22
100
AcDbEntity
  8
0
  6
Continuous
 62
     7
100
AcDbLine
 10
-546.1119995117188
 20
420.6725158691406
 30
0.0
 11
-546.3839721679688
 21
420.9444885253906
 31
0.0
  0
LINE
  5
3F5
330
22
100
AcDbEntity
  8
0
  6
Continuous
 62
     7
100
AcDbLine
 10
-546.1119995117188
 20
420.6725158691406
 30
0.0
 11
-545.8400268554688
 21
420.4005432128906
 31
0.0
  0
LINE
  5
3F6
330
22
100
AcDbEntity
  8
0
  6
Continuous
 62
     7
100
AcDbLine
 10
-546.3839721679688
 20
420.9444885253906
 30
0.0
 11
-544.6890258789063
 21
423.1767272949218
 31
0.0
  0
LINE
  5
3F7
330
22
100
AcDbEntity
  8
0
  6
Continuous
 62
     7
100
AcDbLine
 10
-541.39013671875
 20
420.415557861328
 30
0.0
 11
-543.6077880859374
 21
422.0954895019531
 31
0.0
  0
LINE
  5
3F8
330
22
100
AcDbEntity
  8
0
  6
Continuous
 62
     7
100
AcDbLine
 10
-545.8400268554688
 20
420.4005432128906
 30
0.0
 11
-543.6077880859374
 21
422.0954895019531
 31
0.0
  0
LINE
  5
3F9
330
22
100
AcDbEntity
  8
0
  6
Continuous
 62
     7
100
AcDbLine
 10
-541.39013671875
 20
420.415557861328
 30
0.0
 11
-541.1183471679688
 21
420.6873168945312
 31
0.0
  0
LINE
  5
3FA
330
22
100
AcDbEntity
  8
0
  6
Continuous
 62
     7
100
AcDbLine
 10
-541.39013671875
 20
420.415557861328
 30
0.0
 11
-543.6077880859374
 21
422.0954895019531
 31
0.0
  0
LINE
  5
3FB
330
22
100
AcDbEntity
  8
0
  6
Continuous
 62
     7
100
AcDbLine
 10
-540.8466186523439
 20
420.9590759277343
 30
0.0
 11
-542.5265502929688
 21
423.1767272949218
 31
0.0
  0
LINE
  5
3FC
330
22
100
AcDbEntity
  8
0
  6
DASHED
 62
     7
100
AcDbLine
 10
-543.6077880859374
 20
418.1767272949218
 30
0.0
 11
-545.1077880859375
 21
418.1767272949218
 31
0.0
  0
LINE
  5
3FD
330
22
100
AcDbEntity
  8
0
  6
Continuous
 62
     7
100
AcDbLine
 10
-545.8400268554688
 20
420.4005432128906
 30
0.0
 11
-543.6077880859374
 21
422.0954895019531
 31
0.0
  0
LINE
  5
3FE
330
22
100
AcDbEntity
  8
0
  6
Continuous
 62
     7
100
AcDbLine
 10
-546.3839721679688
 20
420.9444885253906
 30
0.0
 11
-544.6890258789063
 21
423.1767272949218
 31
0.0
  0
LINE
  5
3FF
330
22
100
AcDbEntity
  8
0
  6
Continuous
 62
     7
100
AcDbLine
 10
-540.8466186523439
 20
420.9590759277343
 30
0.0
 11
-541.1183471679688
 21
420.6873168945312
 31
0.0
  0
LINE
  5
400
330
22
100
AcDbEntity
  8
0
  6
Continuous
 62
     7
100
AcDbLine
 10
-540.8466186523439
 20
420.9590759277343
 30
0.0
 11
-542.5265502929688
 21
423.1767272949218
 31
0.0
  0
LINE
  5
401
330
22
100
AcDbEntity
  8
0
  6
Continuous
 62
     7
100
AcDbLine
 10
-540.8466186523439
 20
420.9590759277343
 30
0.0
 11
-541.1183471679688
 21
420.6873168945312
 31
0.0
  0
LINE
  5
402
330
22
100
AcDbEntity
  8
0
  6
Continuous
 62
     7
100
AcDbLine
 10
-541.39013671875
 20
420.415557861328
 30
0.0
 11
-541.1183471679688
 21
420.6873168945312
 31
0.0
  0
LINE
  5
403
330
22
100
AcDbEntity
  8
0
  6
DASHED
 62
     7
100
AcDbLine
 10
-538.8380737304689
 20
420.6767272949218
 30
0.0
 11
-445.3881225585938
 21
420.6767272949218
 31
0.0
  0
LINE
  5
404
330
22
100
AcDbEntity
  8
0
  6
DASHED
 62
     7
100
AcDbLine
 10
-447.8881225585937
 20
316.6767272949219
 30
0.0
 11
-536.8881225585938
 21
316.6767272949219
 31
0.0
  0
LINE
  5
405
330
22
100
AcDbEntity
  8
0
  6
DASHED
 62
     7
100
AcDbLine
 10
-538.9379272460939
 20
425.6634826660156
 30
0.0
 11
-445.3881225585938
 21
425.6634826660156
 31
0.0
  0
LINE
  5
406
330
22
100
AcDbEntity
  8
0
  6
Continuous
 62
     7
100
AcDbLine
 10
-507.8881225585938
 20
374.6767272949219
 30
0.0
 11
-507.8881225585938
 21
414.6767272949218
 31
0.0
  0
LINE
  5
407
330
22
100
AcDbEntity
  8
0
  6
Continuous
 62
     7
100
AcDbLine
 10
-507.8881225585938
 20
323.6767272949219
 30
0.0
 11
-507.8881225585938
 21
363.6767272949219
 31
0.0
  0
LINE
  5
408
330
22
100
AcDbEntity
  8
0
  6
DASHED
 62
     7
100
AcDbLine
 10
-447.8881225585937
 20
529.6767578125
 30
0.0
 11
-536.8881225585938
 21
529.6767578125
 31
0.0
  0
LINE
  5
409
330
22
100
AcDbEntity
  8
0
  6
Continuous
 62
     7
100
AcDbLine
 10
-507.8881225585938
 20
522.6767578125
 30
0.0
 11
-507.8881225585938
 21
482.6767272949219
 31
0.0
  0
LINE
  5
40A
330
22
100
AcDbEntity
  8
0
  6
Continuous
 62
     7
100
AcDbLine
 10
-467.8881225585937
 20
471.6767272949218
 30
0.0
 11
-467.8881225585937
 21
431.6767272949219
 31
0.0
  0
LINE
  5
40B
330
22
100
AcDbEntity
  8
0
  6
Continuous
 62
     7
100
AcDbLine
 10
-487.8881225585938
 20
471.6767272949218
 30
0.0
 11
-487.8881225585938
 21
431.6767272949219
 31
0.0
  0
LINE
  5
40C
330
22
100
AcDbEntity
  8
0
  6
Continuous
 62
     7
100
AcDbLine
 10
-482.8881225585938
 20
454.6767272949218
 30
0.0
 11
-482.8881225585938
 21
431.6767272949219
 31
0.0
  0
LINE
  5
40D
330
22
100
AcDbEntity
  8
0
  6
Continuous
 62
     7
100
AcDbLine
 10
-477.8881225585938
 20
454.6767272949218
 30
0.0
 11
-477.8881225585938
 21
431.6767272949219
 31
0.0
  0
LINE
  5
40E
330
22
100
AcDbEntity
  8
0
  6
Continuous
 62
     7
100
AcDbLine
 10
-433.8881225585938
 20
471.6767272949218
 30
0.0
 11
-433.8881225585938
 21
431.6767272949219
 31
0.0
  0
LINE
  5
40F
330
22
100
AcDbEntity
  8
0
  6
Continuous
 62
     7
100
AcDbLine
 10
-428.8881225585938
 20
471.6767272949218
 30
0.0
 11
-428.8881225585938
 21
431.6767272949219
 31
0.0
  0
LINE
  5
410
330
22
100
AcDbEntity
  8
0
  6
Continuous
 62
     7
100
AcDbLine
 10
-330.3881225585938
 20
313.6767272949219
 30
0.0
 11
-330.3881225585938
 21
532.6767578124999
 31
0.0
  0
LINE
  5
411
330
22
100
AcDbEntity
  8
0
  6
Continuous
 62
     7
100
AcDbLine
 10
-331.3881225585938
 20
315.6767272949219
 30
0.0
 11
-331.3881225585938
 21
530.6767578125
 31
0.0
  0
LINE
  5
412
330
22
100
AcDbEntity
  8
0
  6
Continuous
 62
     7
100
AcDbLine
 10
-315.8881225585938
 20
303.1767272949219
 30
0.0
 11
-315.8881225585938
 21
543.1767578125
 31
0.0
  0
LINE
  5
413
330
22
100
AcDbEntity
  8
0
  6
DASHED
 62
     7
100
AcDbLine
 10
-334.3881225585938
 20
430.1767272949218
 30
0.0
 11
-334.3881225585938
 21
519.1767578124999
 31
0.0
  0
LINE
  5
414
330
22
100
AcDbEntity
  8
0
  6
Continuous
 62
     7
100
AcDbLine
 10
-363.8881225585938
 20
454.6767272949218
 30
0.0
 11
-363.8881225585938
 21
431.6767272949219
 31
0.0
  0
LINE
  5
415
330
22
100
AcDbEntity
  8
0
  6
Continuous
 62
     7
100
AcDbLine
 10
-368.8881225585938
 20
471.6767272949218
 30
0.0
 11
-368.8881225585938
 21
431.6767272949219
 31
0.0
  0
LINE
  5
416
330
22
100
AcDbEntity
  8
0
  6
Continuous
 62
     7
100
AcDbLine
 10
-388.8881225585938
 20
471.6767272949218
 30
0.0
 11
-388.8881225585938
 21
431.6767272949219
 31
0.0
  0
LINE
  5
417
330
22
100
AcDbEntity
  8
0
  6
Continuous
 62
     7
100
AcDbLine
 10
-383.8881225585938
 20
454.6767272949218
 30
0.0
 11
-383.8881225585938
 21
431.6767272949219
 31
0.0
  0
LINE
  5
418
330
22
100
AcDbEntity
  8
0
  6
Continuous
 62
     7
100
AcDbLine
 10
-373.8881225585938
 20
471.6767272949218
 30
0.0
 11
-373.8881225585938
 21
431.6767272949219
 31
0.0
  0
LINE
  5
419
330
22
100
AcDbEntity
  8
0
  6
Continuous
 62
     7
100
AcDbLine
 10
-378.8881225585938
 20
454.6767272949218
 30
0.0
 11
-378.8881225585938
 21
431.6767272949219
 31
0.0
  0
LINE
  5
41A
330
22
100
AcDbEntity
  8
0
  6
Continuous
 62
     7
100
AcDbLine
 10
-343.8881225585938
 20
454.6767272949218
 30
0.0
 11
-343.8881225585938
 21
434.6767272949218
 31
0.0
  0
LINE
  5
41B
330
22
100
AcDbEntity
  8
0
  6
Continuous
 62
     7
100
AcDbLine
 10
-353.8881225585938
 20
471.6767272949218
 30
0.0
 11
-353.8881225585938
 21
431.6767272949219
 31
0.0
  0
LINE
  5
41C
330
22
100
AcDbEntity
  8
0
  6
Continuous
 62
     7
100
AcDbLine
 10
-348.8881225585938
 20
471.6767272949218
 30
0.0
 11
-348.8881225585938
 21
431.6767272949219
 31
0.0
  0
LINE
  5
41D
330
22
100
AcDbEntity
  8
0
  6
Continuous
 62
     7
100
AcDbLine
 10
-338.8881225585938
 20
454.6767272949218
 30
0.0
 11
-338.8881225585938
 21
434.6767272949218
 31
0.0
  0
LINE
  5
41E
330
22
100
AcDbEntity
  8
0
  6
Continuous
 62
     7
100
AcDbLine
 10
-358.8881225585938
 20
454.6767272949218
 30
0.0
 11
-358.8881225585938
 21
431.6767272949219
 31
0.0
  0
LINE
  5
41F
330
22
100
AcDbEntity
  8
0
  6
Continuous
 62
     7
100
AcDbLine
 10
-423.8881225585938
 20
454.6767272949218
 30
0.0
 11
-423.8881225585938
 21
431.6767272949219
 31
0.0
  0
LINE
  5
420
330
22
100
AcDbEntity
  8
0
  6
Continuous
 62
     7
100
AcDbLine
 10
-452.8881225585938
 20
471.6767272949218
 30
0.0
 11
-452.8881225585938
 21
431.6767272949219
 31
0.0
  0
LINE
  5
421
330
22
100
AcDbEntity
  8
0
  6
Continuous
 62
     7
100
AcDbLine
 10
-457.8881225585938
 20
454.6767272949218
 30
0.0
 11
-457.8881225585938
 21
431.6767272949219
 31
0.0
  0
LINE
  5
422
330
22
100
AcDbEntity
  8
0
  6
Continuous
 62
     7
100
AcDbLine
 10
-447.8881225585937
 20
471.6767272949218
 30
0.0
 11
-447.8881225585937
 21
431.6767272949219
 31
0.0
  0
LINE
  5
423
330
22
100
AcDbEntity
  8
0
  6
Continuous
 62
     7
100
AcDbLine
 10
-551.3881225585938
 20
532.6767578124999
 30
0.0
 11
-551.3881225585938
 21
313.6767272949219
 31
0.0
  0
LINE
  5
424
330
22
100
AcDbEntity
  8
0
  6
Continuous
 62
     7
100
AcDbLine
 10
-550.3881225585939
 20
530.6767578125
 30
0.0
 11
-550.3881225585939
 21
315.6767272949219
 31
0.0
  0
LINE
  5
425
330
22
100
AcDbEntity
  8
0
  6
Continuous
 62
     7
100
AcDbLine
 10
-565.8881225585937
 20
543.1767578125
 30
0.0
 11
-565.8881225585937
 21
303.1767272949219
 31
0.0
  0
LINE
  5
426
330
22
100
AcDbEntity
  8
0
  6
DASHED
 62
     7
100
AcDbLine
 10
-547.3881225585938
 20
519.1767578124999
 30
0.0
 11
-547.3881225585938
 21
430.1767272949218
 31
0.0
  0
LINE
  5
427
330
22
100
AcDbEntity
  8
0
  6
DASHED
 62
     7
100
AcDbLine
 10
-443.3881225585937
 20
427.6634826660155
 30
0.0
 11
-443.3881225585937
 21
521.4070434570313
 31
0.0
  0
LINE
  5
428
330
22
100
AcDbEntity
  8
0
  6
DASHED
 62
     7
100
AcDbLine
 10
-438.3881225585938
 20
521.4070434570313
 30
0.0
 11
-438.3881225585938
 21
427.6634826660155
 31
0.0
  0
LINE
  5
429
330
22
100
AcDbEntity
  8
0
  6
Continuous
 62
     7
100
AcDbLine
 10
-497.8881225585937
 20
454.6767272949218
 30
0.0
 11
-497.8881225585937
 21
431.6767272949219
 31
0.0
  0
LINE
  5
42A
330
22
100
AcDbEntity
  8
0
  6
Continuous
 62
     7
100
AcDbLine
 10
-517.8881225585938
 20
454.6767272949218
 30
0.0
 11
-517.8881225585938
 21
431.6767272949219
 31
0.0
  0
LINE
  5
42B
330
22
100
AcDbEntity
  8
0
  6
Continuous
 62
     7
100
AcDbLine
 10
-512.8881225585939
 20
471.6767272949218
 30
0.0
 11
-512.8881225585939
 21
431.6767272949219
 31
0.0
  0
LINE
  5
42C
330
22
100
AcDbEntity
  8
0
  6
Continuous
 62
     7
100
AcDbLine
 10
-502.8881225585938
 20
454.6767272949218
 30
0.0
 11
-502.8881225585938
 21
431.6767272949219
 31
0.0
  0
LINE
  5
42D
330
22
100
AcDbEntity
  8
0
  6
Continuous
 62
     7
100
AcDbLine
 10
-532.8881225585938
 20
471.6767272949218
 30
0.0
 11
-532.8881225585938
 21
431.6767272949219
 31
0.0
  0
LINE
  5
42E
330
22
100
AcDbEntity
  8
0
  6
Continuous
 62
     7
100
AcDbLine
 10
-527.8881225585938
 20
471.6767272949218
 30
0.0
 11
-527.8881225585938
 21
431.6767272949219
 31
0.0
  0
LINE
  5
42F
330
22
100
AcDbEntity
  8
0
  6
Continuous
 62
     7
100
AcDbLine
 10
-537.8881225585939
 20
454.6767272949218
 30
0.0
 11
-537.8881225585939
 21
434.6767272949218
 31
0.0
  0
LINE
  5
430
330
22
100
AcDbEntity
  8
0
  6
Continuous
 62
     7
100
AcDbLine
 10
-522.8881225585938
 20
454.6767272949218
 30
0.0
 11
-522.8881225585938
 21
431.6767272949219
 31
0.0
  0
LINE
  5
431
330
22
100
AcDbEntity
  8
0
  6
Continuous
 62
     7
100
AcDbLine
 10
-542.8881225585938
 20
454.6767272949218
 30
0.0
 11
-542.8881225585938
 21
434.6767272949218
 31
0.0
  0
LINE
  5
432
330
22
100
AcDbEntity
  8
0
  6
Continuous
 62
     7
100
AcDbLine
 10
-492.8881225585937
 20
471.6767272949218
 30
0.0
 11
-492.8881225585937
 21
431.6767272949219
 31
0.0
  0
LINE
  5
433
330
22
100
AcDbEntity
  8
0
  6
Continuous
 62
     7
100
AcDbLine
 10
-507.8881225585938
 20
471.6767272949218
 30
0.0
 11
-507.8881225585938
 21
431.6767272949219
 31
0.0
  0
LINE
  5
434
330
22
100
AcDbEntity
  8
0
  6
Continuous
 62
     7
100
AcDbLine
 10
-472.8881225585937
 20
471.6767272949218
 30
0.0
 11
-472.8881225585937
 21
431.6767272949219
 31
0.0
  0
LINE
  5
435
330
22
100
AcDbEntity
  8
0
  6
Continuous
 62
     7
100
AcDbLine
 10
-462.8881225585938
 20
454.6767272949218
 30
0.0
 11
-462.8881225585938
 21
431.6767272949219
 31
0.0
  0
LINE
  5
436
330
22
100
AcDbEntity
  8
0
  6
Continuous
 62
     7
100
AcDbLine
 10
-331.3881225585938
 20
533.6767578125
 30
0.0
 11
-550.3881225585939
 21
533.6767578125
 31
0.0
  0
LINE
  5
437
330
22
100
AcDbEntity
  8
0
  6
Continuous
 62
     7
100
AcDbLine
 10
-320.8881225585938
 20
548.1767578124999
 30
0.0
 11
-560.8881225585938
 21
548.1767578124999
 31
0.0
  0
LINE
  5
438
330
22
100
AcDbEntity
  8
0
  6
Continuous
 62
     7
100
AcDbLine
 10
-550.3881225585939
 20
312.6767272949219
 30
0.0
 11
-331.3881225585938
 21
312.6767272949219
 31
0.0
  0
LINE
  5
439
330
22
100
AcDbEntity
  8
0
  6
Continuous
 62
     7
100
AcDbLine
 10
-560.8881225585938
 20
298.1767272949219
 30
0.0
 11
-320.8881225585938
 21
298.1767272949219
 31
0.0
  0
LINE
  5
43A
330
22
100
AcDbEntity
  8
0
  6
CENTER
 62
     7
100
AcDbLine
 10
-572.028076171875
 20
423.1767272949218
 30
0.0
 11
-307.6193542480469
 21
423.1767272949218
 31
0.0
  0
LINE
  5
43B
330
22
100
AcDbEntity
  8
0
  6
DASHED
 62
     7
100
AcDbLine
 10
-436.3881225585938
 20
425.6634826660156
 30
0.0
 11
-342.5579833984375
 21
425.6634826660156
 31
0.0
  0
LINE
  5
43C
330
22
100
AcDbEntity
  8
0
  6
DASHED
 62
     7
100
AcDbLine
 10
-436.3881225585938
 20
420.6767272949218
 30
0.0
 11
-342.6578063964844
 21
420.6767272949218
 31
0.0
  0
LINE
  5
43D
330
22
100
AcDbEntity
  8
0
  6
DASHED
 62
     7
100
AcDbLine
 10
-344.8881225585938
 20
316.6767272949219
 30
0.0
 11
-433.8881225585938
 21
316.6767272949219
 31
0.0
  0
LINE
  5
43E
330
22
100
AcDbEntity
  8
0
  6
DASHED
 62
     7
100
AcDbLine
 10
-344.8881225585938
 20
529.6767578125
 30
0.0
 11
-433.8881225585938
 21
529.6767578125
 31
0.0
  0
LINE
  5
43F
330
22
100
AcDbEntity
  8
0
  6
Continuous
 62
     7
100
AcDbLine
 10
-413.8881225585937
 20
471.6767272949218
 30
0.0
 11
-413.8881225585937
 21
431.6767272949219
 31
0.0
  0
LINE
  5
440
330
22
100
AcDbEntity
  8
0
  6
Continuous
 62
     7
100
AcDbLine
 10
-418.8881225585937
 20
454.6767272949218
 30
0.0
 11
-418.8881225585937
 21
431.6767272949219
 31
0.0
  0
LINE
  5
441
330
22
100
AcDbEntity
  8
0
  6
Continuous
 62
     7
100
AcDbLine
 10
-408.8881225585938
 20
471.6767272949218
 30
0.0
 11
-408.8881225585938
 21
431.6767272949219
 31
0.0
  0
LINE
  5
442
330
22
100
AcDbEntity
  8
0
  6
Continuous
 62
     7
100
AcDbLine
 10
-403.8881225585938
 20
454.6767272949218
 30
0.0
 11
-403.8881225585938
 21
431.6767272949219
 31
0.0
  0
LINE
  5
443
330
22
100
AcDbEntity
  8
0
  6
Continuous
 62
     7
100
AcDbLine
 10
-393.8881225585938
 20
323.6767272949219
 30
0.0
 11
-393.8881225585938
 21
363.6767272949219
 31
0.0
  0
LINE
  5
444
330
22
100
AcDbEntity
  8
0
  6
Continuous
 62
     7
100
AcDbLine
 10
-398.8881225585938
 20
323.6767272949219
 30
0.0
 11
-398.8881225585938
 21
346.6767272949219
 31
0.0
  0
LINE
  5
445
330
22
100
AcDbEntity
  8
0
  6
Continuous
 62
     7
100
AcDbLine
 10
-398.8881225585938
 20
357.6767272949219
 30
0.0
 11
-398.8881225585938
 21
380.6767272949219
 31
0.0
  0
LINE
  5
446
330
22
100
AcDbEntity
  8
0
  6
Continuous
 62
     7
100
AcDbLine
 10
-398.8881225585938
 20
488.6767272949218
 30
0.0
 11
-398.8881225585938
 21
465.6767272949219
 31
0.0
  0
LINE
  5
447
330
22
100
AcDbEntity
  8
0
  6
Continuous
 62
     7
100
AcDbLine
 10
-393.8881225585938
 20
522.6767578125
 30
0.0
 11
-393.8881225585938
 21
482.6767272949219
 31
0.0
  0
LINE
  5
448
330
22
100
AcDbEntity
  8
0
  6
Continuous
 62
     7
100
AcDbLine
 10
-398.8881225585938
 20
522.6767578125
 30
0.0
 11
-398.8881225585938
 21
499.6767272949218
 31
0.0
  0
LINE
  5
449
330
22
100
AcDbEntity
  8
0
  6
Continuous
 62
     7
100
AcDbLine
 10
-398.8881225585938
 20
454.6767272949218
 30
0.0
 11
-398.8881225585938
 21
431.6767272949219
 31
0.0
  0
LINE
  5
44A
330
22
100
AcDbEntity
  8
0
  6
Continuous
 62
     7
100
AcDbLine
 10
-393.8881225585938
 20
471.6767272949218
 30
0.0
 11
-393.8881225585938
 21
431.6767272949219
 31
0.0
  0
LINE
  5
44B
330
22
100
AcDbEntity
  8
0
  6
Continuous
 62
     7
100
AcDbLine
 10
-333.3881225585938
 20
532.6767578124999
 30
0.0
 11
-548.3881225585938
 21
532.6767578124999
 31
0.0
  0
LINE
  5
44C
330
22
100
AcDbEntity
  8
0
  6
Continuous
 62
     7
100
AcDbLine
 10
-333.3881225585938
 20
313.6767272949219
 30
0.0
 11
-548.3881225585938
 21
313.6767272949219
 31
0.0
  0
LINE
  5
44D
330
22
100
AcDbEntity
  8
0
  6
CENTER
 62
     7
100
AcDbLine
 10
-440.8881225585938
 20
556.2326049804688
 30
0.0
 11
-440.8881225585938
 21
289.7716064453125
 31
0.0
  0
LINE
  5
44E
330
22
100
AcDbEntity
  8
0
  6
Continuous
 62
     7
100
AcDbLine
 10
-393.8881225585938
 20
374.6767272949219
 30
0.0
 11
-393.8881225585938
 21
414.6767272949218
 31
0.0
  0
LINE
  5
44F
330
22
100
AcDbEntity
  8
0
  6
Continuous
 62
     7
100
AcDbLine
 10
-398.8881225585938
 20
391.6767272949219
 30
0.0
 11
-398.8881225585938
 21
414.6767272949218
 31
0.0
  0
ARC
  5
450
330
22
100
AcDbEntity
  8
0
  6
Continuous
 62
     7
100
AcDbCircle
 10
-330.8881225585938
 20
253.4715881347656
 30
0.0
 40
5.0
100
AcDbArc
 50
300.0000178622848
 51
0.0
  0
ARC
  5
451
330
22
100
AcDbEntity
  8
0
  6
Continuous
 62
     7
100
AcDbCircle
 10
-347.8881225585938
 20
248.2754364013672
 30
0.0
 40
5.0
100
AcDbArc
 50
300.0000178622848
 51
0.0
  0
ARC
  5
452
330
22
100
AcDbEntity
  8
0
  6
Continuous
 62
     7
100
AcDbCircle
 10
-316.8881225585938
 20
274.5848388671875
 30
0.0
 40
1.0
100
AcDbArc
 50
0.0
 51
90.00000000000019
  0
ARC
  5
453
330
22
100
AcDbEntity
  8
0
  6
Continuous
 62
     7
100
AcDbCircle
 10
-324.8881225585938
 20
270.5848388671875
 30
0.0
 40
1.0
100
AcDbArc
 50
90.00000000000019
 51
180.0000000000004
  0
ARC
  5
454
330
22
100
AcDbEntity
  8
0
  6
Continuous
 62
     7
100
AcDbCircle
 10
-331.8881225585938
 20
269.0848388671875
 30
0.0
 40
1.0
100
AcDbArc
 50
270.0000000000005
 51
0.0
  0
ARC
  5
455
330
22
100
AcDbEntity
  8
0
  6
Continuous
 62
     7
100
AcDbCircle
 10
-466.7243347167969
 20
200.4255218505859
 30
0.0
 40
5.188574314117431
100
AcDbArc
 50
47.95136791732514
 51
83.4795573142766
  0
ARC
  5
456
330
22
100
AcDbEntity
  8
0
  6
Continuous
 62
     7
100
AcDbCircle
 10
-465.4333190917968
 20
203.7927551269531
 30
0.0
 40
1.920596480369568
100
AcDbArc
 50
111.4330285193514
 51
165.3521042370452
  0
ARC
  5
457
330
22
100
AcDbEntity
  8
0
  6
Continuous
 62
     7
100
AcDbCircle
 10
-466.0304565429687
 20
177.3087158203125
 30
0.0
 40
4.297448635101318
100
AcDbArc
 50
49.67086702093642
 51
95.71059313749966
  0
ARC
  5
458
330
22
100
AcDbEntity
  8
0
  6
Continuous
 62
     7
100
AcDbCircle
 10
-466.0655212402343
 20
180.4104156494141
 30
0.0
 40
1.238294243812561
100
AcDbArc
 50
108.4820576881351
 51
171.9025474271813
  0
ARC
  5
459
330
22
100
AcDbEntity
  8
0
  6
Continuous
 62
     7
100
AcDbCircle
 10
-479.3881225585938
 20
201.7987365722656
 30
0.0
 40
5.0
100
AcDbArc
 50
0.0
 51
60.00006956400067
  0
ARC
  5
45A
330
22
100
AcDbEntity
  8
0
  6
Continuous
 62
     7
100
AcDbCircle
 10
-358.3881225585938
 20
83.58483886718749
 30
0.0
 40
0.5
100
AcDbArc
 50
270.0000000000005
 51
0.0
  0
ARC
  5
45B
330
22
100
AcDbEntity
  8
0
  6
Continuous
 62
     7
100
AcDbCircle
 10
-359.8881225585938
 20
84.58483886718751
 30
0.0
 40
2.0
100
AcDbArc
 50
0.0
 51
90.00000000000019
  0
ARC
  5
45C
330
22
100
AcDbEntity
  8
0
  6
Continuous
 62
     7
100
AcDbCircle
 10
-316.8881225585938
 20
272.5848388671875
 30
0.0
 40
1.0
100
AcDbArc
 50
270.0000000000005
 51
0.0
  0
ARC
  5
45D
330
22
100
AcDbEntity
  8
0
  6
Continuous
 62
     7
100
AcDbCircle
 10
-412.8881225585938
 20
203.8194732666016
 30
0.0
 40
1.0
100
AcDbArc
 50
120.0003675720442
 51
180.0000000000004
  0
ARC
  5
45E
330
22
100
AcDbEntity
  8
0
  6
Continuous
 62
     7
100
AcDbCircle
 10
-413.3881225585938
 20
202.9629669189453
 30
0.0
 40
0.5
100
AcDbArc
 50
180.0000000000004
 51
270.0000000000005
  0
ARC
  5
45F
330
22
100
AcDbEntity
  8
0
  6
Continuous
 62
     7
100
AcDbCircle
 10
-402.3881225585937
 20
200.64404296875
 30
0.0
 40
5.0
100
AcDbArc
 50
120.0000178622841
 51
180.0000000000004
  0
ARC
  5
460
330
22
100
AcDbEntity
  8
0
  6
Continuous
 62
     7
100
AcDbCircle
 10
-475.8881225585938
 20
82.08483886718751
 30
0.0
 40
1.0
100
AcDbArc
 50
0.0
 51
90.00000000000019
  0
ARC
  5
461
330
22
100
AcDbEntity
  8
0
  6
Continuous
 62
     7
100
AcDbCircle
 10
-487.8881225585938
 20
81.55752563476562
 30
0.0
 40
2.0
100
AcDbArc
 50
180.0000000000004
 51
250.1716586432256
  0
ARC
  5
462
330
22
100
AcDbEntity
  8
0
  6
Continuous
 62
     7
100
AcDbCircle
 10
-493.6546936035155
 20
65.56543731689453
 30
0.0
 40
15.0
100
AcDbArc
 50
11.94797794892698
 51
70.17120024299392
  0
ARC
  5
463
330
22
100
AcDbEntity
  8
0
  6
Continuous
 62
     7
100
AcDbCircle
 10
-477.0229797363281
 20
69.0848388671875
 30
0.0
 40
2.0
100
AcDbArc
 50
191.9480262139504
 51
270.0000000000005
  0
ARC
  5
464
330
22
100
AcDbEntity
  8
0
  6
Continuous
 62
     7
100
AcDbCircle
 10
-473.8881225585938
 20
55.5848388671875
 30
0.0
 40
1.0
100
AcDbArc
 50
180.0000000000004
 51
270.0000000000005
  0
ARC
  5
465
330
22
100
AcDbEntity
  8
0
  6
Continuous
 62
     7
100
AcDbCircle
 10
-472.8881225585937
 20
115.5848388671875
 30
0.0
 40
1.0
100
AcDbArc
 50
90.00000000000019
 51
180.0000000000004
  0
ARC
  5
466
330
22
100
AcDbEntity
  8
0
  6
Continuous
 62
     7
100
AcDbCircle
 10
-564.8881225585937
 20
272.5848388671875
 30
0.0
 40
1.0
100
AcDbArc
 50
180.0000000000004
 51
270.0000000000005
  0
ARC
  5
467
330
22
100
AcDbEntity
  8
0
  6
Continuous
 62
     7
100
AcDbCircle
 10
-548.8881225585938
 20
253.4715881347656
 30
0.0
 40
5.0
100
AcDbArc
 50
180.0000000000004
 51
239.9999821377166
  0
ARC
  5
468
330
22
100
AcDbEntity
  8
0
  6
Continuous
 62
     7
100
AcDbCircle
 10
-564.8881225585937
 20
274.5848388671875
 30
0.0
 40
1.0
100
AcDbArc
 50
90.00000000000019
 51
180.0000000000004
  0
ARC
  5
469
330
22
100
AcDbEntity
  8
0
  6
Continuous
 62
     7
100
AcDbCircle
 10
-402.8881225585938
 20
91.5848388671875
 30
0.0
 40
5.0
100
AcDbArc
 50
180.0000000000004
 51
270.0000000000005
  0
ARC
  5
46A
330
22
100
AcDbEntity
  8
0
  6
Continuous
 62
     7
100
AcDbCircle
 10
-405.8881225585937
 20
82.08483886718751
 30
0.0
 40
1.0
100
AcDbArc
 50
90.00000000000019
 51
180.0000000000004
  0
ARC
  5
46B
330
22
100
AcDbEntity
  8
0
  6
Continuous
 62
     7
100
AcDbCircle
 10
-407.8881225585938
 20
55.5848388671875
 30
0.0
 40
1.0
100
AcDbArc
 50
270.0000000000005
 51
0.0
  0
ARC
  5
46C
330
22
100
AcDbEntity
  8
0
  6
Continuous
 62
     7
100
AcDbCircle
 10
-408.8881225585938
 20
115.5848388671875
 30
0.0
 40
1.0
100
AcDbArc
 50
0.0
 51
90.00000000000019
  0
ARC
  5
46D
330
22
100
AcDbEntity
  8
0
  6
Continuous
 62
     7
100
AcDbCircle
 10
-478.8881225585938
 20
91.5848388671875
 30
0.0
 40
5.0
100
AcDbArc
 50
270.0000000000005
 51
0.0
  0
ARC
  5
46E
330
22
100
AcDbEntity
  8
0
  6
Continuous
 62
     7
100
AcDbCircle
 10
-523.3881225585938
 20
83.58483886718749
 30
0.0
 40
0.5
100
AcDbArc
 50
180.0000000000004
 51
270.0000000000005
  0
ARC
  5
46F
330
22
100
AcDbEntity
  8
0
  6
Continuous
 62
     7
100
AcDbCircle
 10
-521.8881225585938
 20
84.58483886718751
 30
0.0
 40
2.0
100
AcDbArc
 50
90.00000000000019
 51
180.0000000000004
  0
ARC
  5
470
330
22
100
AcDbEntity
  8
0
  6
Continuous
 62
     7
100
AcDbCircle
 10
-341.3881225585938
 20
454.6767272949218
 30
0.0
 40
2.5
100
AcDbArc
 50
0.0
 51
180.0000000000004
  0
ARC
  5
471
330
22
100
AcDbEntity
  8
0
  6
Continuous
 62
     7
100
AcDbCircle
 10
-341.3881225585938
 20
488.6767272949218
 30
0.0
 40
2.5
100
AcDbArc
 50
0.0
 51
180.0000000000004
  0
ARC
  5
472
330
22
100
AcDbEntity
  8
0
  6
Continuous
 62
     7
100
AcDbCircle
 10
-341.3881225585938
 20
516.6767578125
 30
0.0
 40
2.5
100
AcDbArc
 50
0.0
 51
180.0000000000004
  0
CIRCLE
  5
473
330
22
100
AcDbEntity
  8
0
  6
Continuous
 62
     7
100
AcDbCircle
 10
-337.8881225585938
 20
526.1767578125
 30
0.0
 40
4.75
  0
ARC
  5
474
330
22
100
AcDbEntity
  8
0
  6
Continuous
 62
     7
100
AcDbCircle
 10
-351.3881225585938
 20
522.6767578125
 30
0.0
 40
2.5
100
AcDbArc
 50
0.0
 51
180.0000000000004
  0
ARC
  5
475
330
22
100
AcDbEntity
  8
0
  6
Continuous
 62
     7
100
AcDbCircle
 10
-351.3881225585938
 20
482.6767272949219
 30
0.0
 40
2.5
100
AcDbArc
 50
180.0000000000004
 51
0.0
  0
ARC
  5
476
330
22
100
AcDbEntity
  8
0
  6
Continuous
 62
     7
100
AcDbCircle
 10
-351.3881225585938
 20
471.6767272949218
 30
0.0
 40
2.5
100
AcDbArc
 50
0.0
 51
180.0000000000004
  0
ARC
  5
477
330
22
100
AcDbEntity
  8
0
  6
Continuous
 62
     7
100
AcDbCircle
 10
-333.3881225585938
 20
530.6767578125
 30
0.0
 40
2.0
100
AcDbArc
 50
0.0
 51
90.00000000000019
  0
ARC
  5
478
330
22
100
AcDbEntity
  8
0
  6
Continuous
 62
     7
100
AcDbCircle
 10
-341.3881225585938
 20
499.6767272949218
 30
0.0
 40
2.5
100
AcDbArc
 50
180.0000000000004
 51
0.0
  0
ARC
  5
479
330
22
100
AcDbEntity
  8
0
  6
Continuous
 62
     7
100
AcDbCircle
 10
-341.3881225585938
 20
465.6767272949219
 30
0.0
 40
2.5
100
AcDbArc
 50
180.0000000000004
 51
0.0
  0
ARC
  5
47A
330
22
100
AcDbEntity
  8
0
  6
Continuous
 62
     7
100
AcDbCircle
 10
-371.3881225585938
 20
482.6767272949219
 30
0.0
 40
2.5
100
AcDbArc
 50
180.0000000000004
 51
0.0
  0
ARC
  5
47B
330
22
100
AcDbEntity
  8
0
  6
Continuous
 62
     7
100
AcDbCircle
 10
-381.3881225585938
 20
488.6767272949218
 30
0.0
 40
2.5
100
AcDbArc
 50
0.0
 51
180.0000000000004
  0
ARC
  5
47C
330
22
100
AcDbEntity
  8
0
  6
Continuous
 62
     7
100
AcDbCircle
 10
-381.3881225585938
 20
499.6767272949218
 30
0.0
 40
2.5
100
AcDbArc
 50
180.0000000000004
 51
0.0
  0
ARC
  5
47D
330
22
100
AcDbEntity
  8
0
  6
Continuous
 62
     7
100
AcDbCircle
 10
-381.3881225585938
 20
454.6767272949218
 30
0.0
 40
2.5
100
AcDbArc
 50
0.0
 51
180.0000000000004
  0
ARC
  5
47E
330
22
100
AcDbEntity
  8
0
  6
Continuous
 62
     7
100
AcDbCircle
 10
-381.3881225585938
 20
522.6767578125
 30
0.0
 40
2.5
100
AcDbArc
 50
0.0
 51
180.0000000000004
  0
ARC
  5
47F
330
22
100
AcDbEntity
  8
0
  6
Continuous
 62
     7
100
AcDbCircle
 10
-381.3881225585938
 20
465.6767272949219
 30
0.0
 40
2.5
100
AcDbArc
 50
180.0000000000004
 51
0.0
  0
ARC
  5
480
330
22
100
AcDbEntity
  8
0
  6
DASHED
 62
     7
100
AcDbCircle
 10
-344.8881225585938
 20
527.6767578124999
 30
0.0
 40
2.0
100
AcDbArc
 50
0.0
 51
90.00000000000019
  0
ARC
  5
481
330
22
100
AcDbEntity
  8
0
  6
DASHED
 62
     7
100
AcDbCircle
 10
-337.8881225585938
 20
526.1767578125
 30
0.0
 40
5.0
100
AcDbArc
 50
180.0000000000004
 51
270.0000000000005
  0
ARC
  5
482
330
22
100
AcDbEntity
  8
0
  6
DASHED
 62
     7
100
AcDbCircle
 10
-336.3881225585938
 20
519.1767578124999
 30
0.0
 40
2.0
100
AcDbArc
 50
0.0
 51
90.00000000000019
  0
ARC
  5
483
330
22
100
AcDbEntity
  8
0
  6
Continuous
 62
     7
100
AcDbCircle
 10
-331.3881225585938
 20
532.6767578124999
 30
0.0
 40
1.0
100
AcDbArc
 50
0.0
 51
90.00000000000019
  0
ARC
  5
484
330
22
100
AcDbEntity
  8
0
  6
Continuous
 62
     7
100
AcDbCircle
 10
-320.8881225585938
 20
543.1767578125
 30
0.0
 40
5.0
100
AcDbArc
 50
0.0
 51
90.00000000000019
  0
CIRCLE
  5
485
330
22
100
AcDbEntity
  8
0
  6
Continuous
 62
     7
100
AcDbCircle
 10
-337.8881225585938
 20
526.1767578125
 30
0.0
 40
4.75
  0
CIRCLE
  5
486
330
22
100
AcDbEntity
  8
0
  6
Continuous
 62
     7
100
AcDbCircle
 10
-337.8881225585938
 20
526.1767578125
 30
0.0
 40
4.5
  0
CIRCLE
  5
487
330
22
100
AcDbEntity
  8
0
  6
Continuous
 62
     7
100
AcDbCircle
 10
-337.8881225585938
 20
526.1767578125
 30
0.0
 40
4.5
  0
ARC
  5
488
330
22
100
AcDbEntity
  8
0
  6
Continuous
 62
     7
100
AcDbCircle
 10
-341.3881225585938
 20
391.6767272949219
 30
0.0
 40
2.5
100
AcDbArc
 50
180.0000000000004
 51
0.0
  0
ARC
  5
489
330
22
100
AcDbEntity
  8
0
  6
Continuous
 62
     7
100
AcDbCircle
 10
-341.3881225585938
 20
346.6767272949219
 30
0.0
 40
2.5
100
AcDbArc
 50
0.0
 51
180.0000000000004
  0
ARC
  5
48A
330
22
100
AcDbEntity
  8
0
  6
Continuous
 62
     7
100
AcDbCircle
 10
-351.3881225585938
 20
323.6767272949219
 30
0.0
 40
2.5
100
AcDbArc
 50
180.0000000000004
 51
0.0
  0
ARC
  5
48B
330
22
100
AcDbEntity
  8
0
  6
Continuous
 62
     7
100
AcDbCircle
 10
-341.3881225585938
 20
329.6767272949219
 30
0.0
 40
2.5
100
AcDbArc
 50
180.0000000000004
 51
0.0
  0
ARC
  5
48C
330
22
100
AcDbEntity
  8
0
  6
Continuous
 62
     7
100
AcDbCircle
 10
-333.3881225585938
 20
315.6767272949219
 30
0.0
 40
2.0
100
AcDbArc
 50
270.0000000000005
 51
0.0
  0
ARC
  5
48D
330
22
100
AcDbEntity
  8
0
  6
Continuous
 62
     7
100
AcDbCircle
 10
-351.3881225585938
 20
363.6767272949219
 30
0.0
 40
2.5
100
AcDbArc
 50
0.0
 51
180.0000000000004
  0
ARC
  5
48E
330
22
100
AcDbEntity
  8
0
  6
Continuous
 62
     7
100
AcDbCircle
 10
-341.3881225585938
 20
434.6767272949218
 30
0.0
 40
2.5
100
AcDbArc
 50
180.0000000000004
 51
0.0
  0
ARC
  5
48F
330
22
100
AcDbEntity
  8
0
  6
Continuous
 62
     7
100
AcDbCircle
 10
-361.3881225585938
 20
454.6767272949218
 30
0.0
 40
2.5
100
AcDbArc
 50
0.0
 51
180.0000000000004
  0
ARC
  5
490
330
22
100
AcDbEntity
  8
0
  6
Continuous
 62
     7
100
AcDbCircle
 10
-371.3881225585938
 20
471.6767272949218
 30
0.0
 40
2.5
100
AcDbArc
 50
0.0
 51
180.0000000000004
  0
ARC
  5
491
330
22
100
AcDbEntity
  8
0
  6
Continuous
 62
     7
100
AcDbCircle
 10
-361.3881225585938
 20
522.6767578125
 30
0.0
 40
2.5
100
AcDbArc
 50
0.0
 51
180.0000000000004
  0
ARC
  5
492
330
22
100
AcDbEntity
  8
0
  6
Continuous
 62
     7
100
AcDbCircle
 10
-371.3881225585938
 20
522.6767578125
 30
0.0
 40
2.5
100
AcDbArc
 50
0.0
 51
180.0000000000004
  0
ARC
  5
493
330
22
100
AcDbEntity
  8
0
  6
Continuous
 62
     7
100
AcDbCircle
 10
-361.3881225585938
 20
465.6767272949219
 30
0.0
 40
2.5
100
AcDbArc
 50
180.0000000000004
 51
0.0
  0
ARC
  5
494
330
22
100
AcDbEntity
  8
0
  6
Continuous
 62
     7
100
AcDbCircle
 10
-361.3881225585938
 20
499.6767272949218
 30
0.0
 40
2.5
100
AcDbArc
 50
180.0000000000004
 51
0.0
  0
ARC
  5
495
330
22
100
AcDbEntity
  8
0
  6
Continuous
 62
     7
100
AcDbCircle
 10
-361.3881225585938
 20
488.6767272949218
 30
0.0
 40
2.5
100
AcDbArc
 50
0.0
 51
180.0000000000004
  0
CIRCLE
  5
496
330
22
100
AcDbEntity
  8
0
  6
Continuous
 62
     7
100
AcDbCircle
 10
-337.8881225585938
 20
320.1512145996094
 30
0.0
 40
4.75
  0
CIRCLE
  5
497
330
22
100
AcDbEntity
  8
0
  6
Continuous
 62
     7
100
AcDbCircle
 10
-337.8881225585938
 20
320.1512145996094
 30
0.0
 40
4.75
  0
CIRCLE
  5
498
330
22
100
AcDbEntity
  8
0
  6
Continuous
 62
     7
100
AcDbCircle
 10
-337.8881225585938
 20
320.1512145996094
 30
0.0
 40
4.5
  0
CIRCLE
  5
499
330
22
100
AcDbEntity
  8
0
  6
Continuous
 62
     7
100
AcDbCircle
 10
-337.8881225585938
 20
320.1512145996094
 30
0.0
 40
4.5
  0
ARC
  5
49A
330
22
100
AcDbEntity
  8
0
  6
Continuous
 62
     7
100
AcDbCircle
 10
-351.3881225585938
 20
374.6767272949219
 30
0.0
 40
2.5
100
AcDbArc
 50
180.0000000000004
 51
0.0
  0
ARC
  5
49B
330
22
100
AcDbEntity
  8
0
  6
Continuous
 62
     7
100
AcDbCircle
 10
-341.3881225585938
 20
380.6767272949219
 30
0.0
 40
2.5
100
AcDbArc
 50
0.0
 51
180.0000000000004
  0
ARC
  5
49C
330
22
100
AcDbEntity
  8
0
  6
Continuous
 62
     7
100
AcDbCircle
 10
-381.3881225585938
 20
391.6767272949219
 30
0.0
 40
2.5
100
AcDbArc
 50
180.0000000000004
 51
0.0
  0
ARC
  5
49D
330
22
100
AcDbEntity
  8
0
  6
DASHED
 62
     7
100
AcDbCircle
 10
-344.8881225585938
 20
318.6767272949219
 30
0.0
 40
2.0
100
AcDbArc
 50
270.0000000000005
 51
0.0
  0
ARC
  5
49E
330
22
100
AcDbEntity
  8
0
  6
DASHED
 62
     7
100
AcDbCircle
 10
-337.8881225585938
 20
320.1767272949219
 30
0.0
 40
5.0
100
AcDbArc
 50
90.00000000000019
 51
180.0000000000004
  0
ARC
  5
49F
330
22
100
AcDbEntity
  8
0
  6
DASHED
 62
     7
100
AcDbCircle
 10
-336.3881225585938
 20
327.1767272949219
 30
0.0
 40
2.0
100
AcDbArc
 50
270.0000000000005
 51
0.0
  0
ARC
  5
4A0
330
22
100
AcDbEntity
  8
0
  6
Continuous
 62
     7
100
AcDbCircle
 10
-331.3881225585938
 20
313.6767272949219
 30
0.0
 40
1.0
100
AcDbArc
 50
270.0000000000005
 51
0.0
  0
ARC
  5
4A1
330
22
100
AcDbEntity
  8
0
  6
Continuous
 62
     7
100
AcDbCircle
 10
-320.8881225585938
 20
303.1767272949219
 30
0.0
 40
5.0
100
AcDbArc
 50
270.0000000000005
 51
0.0
  0
ARC
  5
4A2
330
22
100
AcDbEntity
  8
0
  6
Continuous
 62
     7
100
AcDbCircle
 10
-341.3881225585938
 20
357.6767272949219
 30
0.0
 40
2.5
100
AcDbArc
 50
180.0000000000004
 51
0.0
  0
ARC
  5
4A3
330
22
100
AcDbEntity
  8
0
  6
Continuous
 62
     7
100
AcDbCircle
 10
-371.3881225585938
 20
363.6767272949219
 30
0.0
 40
2.5
100
AcDbArc
 50
0.0
 51
180.0000000000004
  0
ARC
  5
4A4
330
22
100
AcDbEntity
  8
0
  6
Continuous
 62
     7
100
AcDbCircle
 10
-361.3881225585938
 20
357.6767272949219
 30
0.0
 40
2.5
100
AcDbArc
 50
180.0000000000004
 51
0.0
  0
ARC
  5
4A5
330
22
100
AcDbEntity
  8
0
  6
Continuous
 62
     7
100
AcDbCircle
 10
-381.3881225585938
 20
414.6767272949218
 30
0.0
 40
2.5
100
AcDbArc
 50
0.0
 51
180.0000000000004
  0
ARC
  5
4A6
330
22
100
AcDbEntity
  8
0
  6
Continuous
 62
     7
100
AcDbCircle
 10
-381.3881225585938
 20
380.6767272949219
 30
0.0
 40
2.5
100
AcDbArc
 50
0.0
 51
180.0000000000004
  0
ARC
  5
4A7
330
22
100
AcDbEntity
  8
0
  6
Continuous
 62
     7
100
AcDbCircle
 10
-381.3881225585938
 20
323.6767272949219
 30
0.0
 40
2.5
100
AcDbArc
 50
180.0000000000004
 51
0.0
  0
ARC
  5
4A8
330
22
100
AcDbEntity
  8
0
  6
Continuous
 62
     7
100
AcDbCircle
 10
-381.3881225585938
 20
346.6767272949219
 30
0.0
 40
2.5
100
AcDbArc
 50
0.0
 51
180.0000000000004
  0
ARC
  5
4A9
330
22
100
AcDbEntity
  8
0
  6
Continuous
 62
     7
100
AcDbCircle
 10
-381.3881225585938
 20
357.6767272949219
 30
0.0
 40
2.5
100
AcDbArc
 50
180.0000000000004
 51
0.0
  0
ARC
  5
4AA
330
22
100
AcDbEntity
  8
0
  6
Continuous
 62
     7
100
AcDbCircle
 10
-341.3881225585938
 20
411.6767272949219
 30
0.0
 40
2.5
100
AcDbArc
 50
0.0
 51
180.0000000000004
  0
ARC
  5
4AB
330
22
100
AcDbEntity
  8
0
  6
Continuous
 62
     7
100
AcDbCircle
 10
-351.3881225585938
 20
414.6767272949218
 30
0.0
 40
2.5
100
AcDbArc
 50
0.0
 51
180.0000000000004
  0
ARC
  5
4AC
330
22
100
AcDbEntity
  8
0
  6
DASHED
 62
     7
100
AcDbCircle
 10
-337.8881225585938
 20
423.1767272949218
 30
0.0
 40
5.0
100
AcDbArc
 50
90.00000000000019
 51
159.0622404249368
  0
ARC
  5
4AD
330
22
100
AcDbEntity
  8
0
  6
Continuous
 62
     7
100
AcDbCircle
 10
-351.3881225585938
 20
431.6767272949219
 30
0.0
 40
2.5
100
AcDbArc
 50
180.0000000000004
 51
0.0
  0
ARC
  5
4AE
330
22
100
AcDbEntity
  8
0
  6
DASHED
 62
     7
100
AcDbCircle
 10
-336.3881225585938
 20
430.1767272949218
 30
0.0
 40
2.0
100
AcDbArc
 50
270.0000000000005
 51
0.0
  0
ARC
  5
4AF
330
22
100
AcDbEntity
  8
0
  6
Continuous
 62
     7
100
AcDbCircle
 10
-371.3881225585938
 20
414.6767272949218
 30
0.0
 40
2.5
100
AcDbArc
 50
0.0
 51
180.0000000000004
  0
ARC
  5
4B0
330
22
100
AcDbEntity
  8
0
  6
Continuous
 62
     7
100
AcDbCircle
 10
-361.3881225585938
 20
414.6767272949218
 30
0.0
 40
2.5
100
AcDbArc
 50
0.0
 51
180.0000000000004
  0
ARC
  5
4B1
330
22
100
AcDbEntity
  8
0
  6
Continuous
 62
     7
100
AcDbCircle
 10
-361.3881225585938
 20
391.6767272949219
 30
0.0
 40
2.5
100
AcDbArc
 50
180.0000000000004
 51
0.0
  0
ARC
  5
4B2
330
22
100
AcDbEntity
  8
0
  6
Continuous
 62
     7
100
AcDbCircle
 10
-361.3881225585938
 20
380.6767272949219
 30
0.0
 40
2.5
100
AcDbArc
 50
0.0
 51
180.0000000000004
  0
ARC
  5
4B3
330
22
100
AcDbEntity
  8
0
  6
Continuous
 62
     7
100
AcDbCircle
 10
-371.3881225585938
 20
374.6767272949219
 30
0.0
 40
2.5
100
AcDbArc
 50
180.0000000000004
 51
0.0
  0
ARC
  5
4B4
330
22
100
AcDbEntity
  8
0
  6
Continuous
 62
     7
100
AcDbCircle
 10
-361.3881225585938
 20
346.6767272949219
 30
0.0
 40
2.5
100
AcDbArc
 50
0.0
 51
180.0000000000004
  0
ARC
  5
4B5
330
22
100
AcDbEntity
  8
0
  6
Continuous
 62
     7
100
AcDbCircle
 10
-371.3881225585938
 20
323.6767272949219
 30
0.0
 40
2.5
100
AcDbArc
 50
180.0000000000004
 51
0.0
  0
ARC
  5
4B6
330
22
100
AcDbEntity
  8
0
  6
Continuous
 62
     7
100
AcDbCircle
 10
-361.3881225585938
 20
323.6767272949219
 30
0.0
 40
2.5
100
AcDbArc
 50
180.0000000000004
 51
0.0
  0
ARC
  5
4B7
330
22
100
AcDbEntity
  8
0
  6
DASHED
 62
     7
100
AcDbCircle
 10
-337.8881225585938
 20
423.1767272949218
 30
0.0
 40
5.0
100
AcDbArc
 50
197.4576449584277
 51
270.0000000000005
  0
CIRCLE
  5
4B8
330
22
100
AcDbEntity
  8
0
  6
Continuous
 62
     7
100
AcDbCircle
 10
-337.8881225585938
 20
423.1767272949218
 30
0.0
 40
4.5
  0
CIRCLE
  5
4B9
330
22
100
AcDbEntity
  8
0
  6
Continuous
 62
     7
100
AcDbCircle
 10
-337.8881225585938
 20
423.1767272949218
 30
0.0
 40
4.5
  0
CIRCLE
  5
4BA
330
22
100
AcDbEntity
  8
0
  6
Continuous
 62
     7
100
AcDbCircle
 10
-337.8881225585938
 20
423.1767272949218
 30
0.0
 40
4.75
  0
CIRCLE
  5
4BB
330
22
100
AcDbEntity
  8
0
  6
Continuous
 62
     7
100
AcDbCircle
 10
-337.8881225585938
 20
423.1767272949218
 30
0.0
 40
4.75
  0
ARC
  5
4BC
330
22
100
AcDbEntity
  8
0
  6
DASHED
 62
     7
100
AcDbCircle
 10
-336.3881225585938
 20
416.1767272949218
 30
0.0
 40
2.0
100
AcDbArc
 50
0.0
 51
90.00000000000019
  0
ARC
  5
4BD
330
22
100
AcDbEntity
  8
0
  6
Continuous
 62
     7
100
AcDbCircle
 10
-381.3881225585938
 20
431.6767272949219
 30
0.0
 40
2.5
100
AcDbArc
 50
180.0000000000004
 51
0.0
  0
ARC
  5
4BE
330
22
100
AcDbEntity
  8
0
  6
DASHED
 62
     7
100
AcDbCircle
 10
-433.8881225585938
 20
527.6767578124999
 30
0.0
 40
2.0
100
AcDbArc
 50
90.00000000000019
 51
180.0000000000004
  0
ARC
  5
4BF
330
22
100
AcDbEntity
  8
0
  6
Continuous
 62
     7
100
AcDbCircle
 10
-431.3881225585937
 20
482.6767272949219
 30
0.0
 40
2.5
100
AcDbArc
 50
180.0000000000004
 51
0.0
  0
ARC
  5
4C0
330
22
100
AcDbEntity
  8
0
  6
Continuous
 62
     7
100
AcDbCircle
 10
-431.3881225585937
 20
471.6767272949218
 30
0.0
 40
2.5
100
AcDbArc
 50
0.0
 51
180.0000000000004
  0
ARC
  5
4C1
330
22
100
AcDbEntity
  8
0
  6
Continuous
 62
     7
100
AcDbCircle
 10
-431.3881225585937
 20
516.6767578125
 30
0.0
 40
2.5
100
AcDbArc
 50
0.0
 51
180.0000000000004
  0
ARC
  5
4C2
330
22
100
AcDbEntity
  8
0
  6
Continuous
 62
     7
100
AcDbCircle
 10
-371.3881225585938
 20
431.6767272949219
 30
0.0
 40
2.5
100
AcDbArc
 50
180.0000000000004
 51
0.0
  0
ARC
  5
4C3
330
22
100
AcDbEntity
  8
0
  6
Continuous
 62
     7
100
AcDbCircle
 10
-361.3881225585938
 20
431.6767272949219
 30
0.0
 40
2.5
100
AcDbArc
 50
180.0000000000004
 51
0.0
  0
ARC
  5
4C4
330
22
100
AcDbEntity
  8
0
  6
DASHED
 62
     7
100
AcDbCircle
 10
-440.8881225585938
 20
526.1767578125
 30
0.0
 40
5.0
100
AcDbArc
 50
287.4575400468457
 51
0.0
  0
ARC
  5
4C5
330
22
100
AcDbEntity
  8
0
  6
Continuous
 62
     7
100
AcDbCircle
 10
-500.3881225585938
 20
499.6767272949218
 30
0.0
 40
2.5
100
AcDbArc
 50
180.0000000000004
 51
0.0
  0
ARC
  5
4C6
330
22
100
AcDbEntity
  8
0
  6
Continuous
 62
     7
100
AcDbCircle
 10
-500.3881225585938
 20
488.6767272949218
 30
0.0
 40
2.5
100
AcDbArc
 50
0.0
 51
180.0000000000004
  0
ARC
  5
4C7
330
22
100
AcDbEntity
  8
0
  6
Continuous
 62
     7
100
AcDbCircle
 10
-500.3881225585938
 20
465.6767272949219
 30
0.0
 40
2.5
100
AcDbArc
 50
180.0000000000004
 51
0.0
  0
ARC
  5
4C8
330
22
100
AcDbEntity
  8
0
  6
Continuous
 62
     7
100
AcDbCircle
 10
-500.3881225585938
 20
454.6767272949218
 30
0.0
 40
2.5
100
AcDbArc
 50
0.0
 51
180.0000000000004
  0
ARC
  5
4C9
330
22
100
AcDbEntity
  8
0
  6
Continuous
 62
     7
100
AcDbCircle
 10
-490.3881225585938
 20
482.6767272949219
 30
0.0
 40
2.5
100
AcDbArc
 50
180.0000000000004
 51
0.0
  0
ARC
  5
4CA
330
22
100
AcDbEntity
  8
0
  6
Continuous
 62
     7
100
AcDbCircle
 10
-490.3881225585938
 20
471.6767272949218
 30
0.0
 40
2.5
100
AcDbArc
 50
0.0
 51
180.0000000000004
  0
ARC
  5
4CB
330
22
100
AcDbEntity
  8
0
  6
Continuous
 62
     7
100
AcDbCircle
 10
-490.3881225585938
 20
522.6767578125
 30
0.0
 40
2.5
100
AcDbArc
 50
0.0
 51
180.0000000000004
  0
ARC
  5
4CC
330
22
100
AcDbEntity
  8
0
  6
Continuous
 62
     7
100
AcDbCircle
 10
-480.3881225585937
 20
522.6767578125
 30
0.0
 40
2.5
100
AcDbArc
 50
0.0
 51
180.0000000000004
  0
ARC
  5
4CD
330
22
100
AcDbEntity
  8
0
  6
Continuous
 62
     7
100
AcDbCircle
 10
-480.3881225585937
 20
465.6767272949219
 30
0.0
 40
2.5
100
AcDbArc
 50
180.0000000000004
 51
0.0
  0
ARC
  5
4CE
330
22
100
AcDbEntity
  8
0
  6
Continuous
 62
     7
100
AcDbCircle
 10
-480.3881225585937
 20
499.6767272949218
 30
0.0
 40
2.5
100
AcDbArc
 50
180.0000000000004
 51
0.0
  0
ARC
  5
4CF
330
22
100
AcDbEntity
  8
0
  6
Continuous
 62
     7
100
AcDbCircle
 10
-480.3881225585937
 20
454.6767272949218
 30
0.0
 40
2.5
100
AcDbArc
 50
0.0
 51
180.0000000000004
  0
ARC
  5
4D0
330
22
100
AcDbEntity
  8
0
  6
Continuous
 62
     7
100
AcDbCircle
 10
-480.3881225585937
 20
488.6767272949218
 30
0.0
 40
2.5
100
AcDbArc
 50
0.0
 51
180.0000000000004
  0
ARC
  5
4D1
330
22
100
AcDbEntity
  8
0
  6
Continuous
 62
     7
100
AcDbCircle
 10
-470.3881225585938
 20
522.6767578125
 30
0.0
 40
2.5
100
AcDbArc
 50
0.0
 51
180.0000000000004
  0
ARC
  5
4D2
330
22
100
AcDbEntity
  8
0
  6
Continuous
 62
     7
100
AcDbCircle
 10
-470.3881225585938
 20
482.6767272949219
 30
0.0
 40
2.5
100
AcDbArc
 50
180.0000000000004
 51
0.0
  0
ARC
  5
4D3
330
22
100
AcDbEntity
  8
0
  6
Continuous
 62
     7
100
AcDbCircle
 10
-470.3881225585938
 20
471.6767272949218
 30
0.0
 40
2.5
100
AcDbArc
 50
0.0
 51
180.0000000000004
  0
ARC
  5
4D4
330
22
100
AcDbEntity
  8
0
  6
Continuous
 62
     7
100
AcDbCircle
 10
-421.3881225585938
 20
465.6767272949219
 30
0.0
 40
2.5
100
AcDbArc
 50
180.0000000000004
 51
0.0
  0
ARC
  5
4D5
330
22
100
AcDbEntity
  8
0
  6
Continuous
 62
     7
100
AcDbCircle
 10
-421.3881225585938
 20
522.6767578125
 30
0.0
 40
2.5
100
AcDbArc
 50
0.0
 51
180.0000000000004
  0
ARC
  5
4D6
330
22
100
AcDbEntity
  8
0
  6
Continuous
 62
     7
100
AcDbCircle
 10
-421.3881225585938
 20
499.6767272949218
 30
0.0
 40
2.5
100
AcDbArc
 50
180.0000000000004
 51
0.0
  0
ARC
  5
4D7
330
22
100
AcDbEntity
  8
0
  6
Continuous
 62
     7
100
AcDbCircle
 10
-421.3881225585938
 20
454.6767272949218
 30
0.0
 40
2.5
100
AcDbArc
 50
0.0
 51
180.0000000000004
  0
ARC
  5
4D8
330
22
100
AcDbEntity
  8
0
  6
Continuous
 62
     7
100
AcDbCircle
 10
-421.3881225585938
 20
488.6767272949218
 30
0.0
 40
2.5
100
AcDbArc
 50
0.0
 51
180.0000000000004
  0
ARC
  5
4D9
330
22
100
AcDbEntity
  8
0
  6
DASHED
 62
     7
100
AcDbCircle
 10
-447.8881225585937
 20
527.6767578124999
 30
0.0
 40
2.0
100
AcDbArc
 50
0.0
 51
90.00000000000019
  0
ARC
  5
4DA
330
22
100
AcDbEntity
  8
0
  6
DASHED
 62
     7
100
AcDbCircle
 10
-440.8881225585938
 20
526.1767578125
 30
0.0
 40
5.0
100
AcDbArc
 50
180.0000000000004
 51
252.5424599531556
  0
ARC
  5
4DB
330
22
100
AcDbEntity
  8
0
  6
Continuous
 62
     7
100
AcDbCircle
 10
-460.3881225585937
 20
499.6767272949218
 30
0.0
 40
2.5
100
AcDbArc
 50
180.0000000000004
 51
0.0
  0
ARC
  5
4DC
330
22
100
AcDbEntity
  8
0
  6
Continuous
 62
     7
100
AcDbCircle
 10
-450.3881225585938
 20
516.6767578125
 30
0.0
 40
2.5
100
AcDbArc
 50
0.0
 51
180.0000000000004
  0
ARC
  5
4DD
330
22
100
AcDbEntity
  8
0
  6
Continuous
 62
     7
100
AcDbCircle
 10
-450.3881225585938
 20
482.6767272949219
 30
0.0
 40
2.5
100
AcDbArc
 50
180.0000000000004
 51
0.0
  0
ARC
  5
4DE
330
22
100
AcDbEntity
  8
0
  6
Continuous
 62
     7
100
AcDbCircle
 10
-450.3881225585938
 20
471.6767272949218
 30
0.0
 40
2.5
100
AcDbArc
 50
0.0
 51
180.0000000000004
  0
CIRCLE
  5
4DF
330
22
100
AcDbEntity
  8
0
  6
Continuous
 62
     7
100
AcDbCircle
 10
-440.8881225585938
 20
526.1767578125
 30
0.0
 40
4.5
  0
CIRCLE
  5
4E0
330
22
100
AcDbEntity
  8
0
  6
Continuous
 62
     7
100
AcDbCircle
 10
-440.8881225585938
 20
526.1767578125
 30
0.0
 40
4.5
  0
CIRCLE
  5
4E1
330
22
100
AcDbEntity
  8
0
  6
Continuous
 62
     7
100
AcDbCircle
 10
-440.8881225585938
 20
526.1767578125
 30
0.0
 40
4.75
  0
CIRCLE
  5
4E2
330
22
100
AcDbEntity
  8
0
  6
Continuous
 62
     7
100
AcDbCircle
 10
-440.8881225585938
 20
526.1767578125
 30
0.0
 40
4.75
  0
ARC
  5
4E3
330
22
100
AcDbEntity
  8
0
  6
Continuous
 62
     7
100
AcDbCircle
 10
-460.3881225585937
 20
522.6767578125
 30
0.0
 40
2.5
100
AcDbArc
 50
0.0
 51
180.0000000000004
  0
ARC
  5
4E4
330
22
100
AcDbEntity
  8
0
  6
Continuous
 62
     7
100
AcDbCircle
 10
-460.3881225585937
 20
454.6767272949218
 30
0.0
 40
2.5
100
AcDbArc
 50
0.0
 51
180.0000000000004
  0
ARC
  5
4E5
330
22
100
AcDbEntity
  8
0
  6
Continuous
 62
     7
100
AcDbCircle
 10
-460.3881225585937
 20
488.6767272949218
 30
0.0
 40
2.5
100
AcDbArc
 50
0.0
 51
180.0000000000004
  0
ARC
  5
4E6
330
22
100
AcDbEntity
  8
0
  6
Continuous
 62
     7
100
AcDbCircle
 10
-460.3881225585937
 20
465.6767272949219
 30
0.0
 40
2.5
100
AcDbArc
 50
180.0000000000004
 51
0.0
  0
ARC
  5
4E7
330
22
100
AcDbEntity
  8
0
  6
Continuous
 62
     7
100
AcDbCircle
 10
-500.3881225585938
 20
522.6767578125
 30
0.0
 40
2.5
100
AcDbArc
 50
0.0
 51
180.0000000000004
  0
ARC
  5
4E8
330
22
100
AcDbEntity
  8
0
  6
Continuous
 62
     7
100
AcDbCircle
 10
-530.3881225585938
 20
522.6767578125
 30
0.0
 40
2.5
100
AcDbArc
 50
0.0
 51
180.0000000000004
  0
ARC
  5
4E9
330
22
100
AcDbEntity
  8
0
  6
Continuous
 62
     7
100
AcDbCircle
 10
-530.3881225585938
 20
471.6767272949218
 30
0.0
 40
2.5
100
AcDbArc
 50
0.0
 51
180.0000000000004
  0
ARC
  5
4EA
330
22
100
AcDbEntity
  8
0
  6
Continuous
 62
     7
100
AcDbCircle
 10
-530.3881225585938
 20
482.6767272949219
 30
0.0
 40
2.5
100
AcDbArc
 50
180.0000000000004
 51
0.0
  0
ARC
  5
4EB
330
22
100
AcDbEntity
  8
0
  6
Continuous
 62
     7
100
AcDbCircle
 10
-540.3881225585938
 20
465.6767272949219
 30
0.0
 40
2.5
100
AcDbArc
 50
180.0000000000004
 51
0.0
  0
ARC
  5
4EC
330
22
100
AcDbEntity
  8
0
  6
Continuous
 62
     7
100
AcDbCircle
 10
-540.3881225585938
 20
454.6767272949218
 30
0.0
 40
2.5
100
AcDbArc
 50
0.0
 51
180.0000000000004
  0
ARC
  5
4ED
330
22
100
AcDbEntity
  8
0
  6
Continuous
 62
     7
100
AcDbCircle
 10
-540.3881225585938
 20
488.6767272949218
 30
0.0
 40
2.5
100
AcDbArc
 50
0.0
 51
180.0000000000004
  0
ARC
  5
4EE
330
22
100
AcDbEntity
  8
0
  6
Continuous
 62
     7
100
AcDbCircle
 10
-540.3881225585938
 20
499.6767272949218
 30
0.0
 40
2.5
100
AcDbArc
 50
180.0000000000004
 51
0.0
  0
ARC
  5
4EF
330
22
100
AcDbEntity
  8
0
  6
Continuous
 62
     7
100
AcDbCircle
 10
-540.3881225585938
 20
516.6767578125
 30
0.0
 40
2.5
100
AcDbArc
 50
0.0
 51
180.0000000000004
  0
ARC
  5
4F0
330
22
100
AcDbEntity
  8
0
  6
Continuous
 62
     7
100
AcDbCircle
 10
-411.3881225585938
 20
522.6767578125
 30
0.0
 40
2.5
100
AcDbArc
 50
0.0
 51
180.0000000000004
  0
ARC
  5
4F1
330
22
100
AcDbEntity
  8
0
  6
Continuous
 62
     7
100
AcDbCircle
 10
-411.3881225585938
 20
471.6767272949218
 30
0.0
 40
2.5
100
AcDbArc
 50
0.0
 51
180.0000000000004
  0
ARC
  5
4F2
330
22
100
AcDbEntity
  8
0
  6
Continuous
 62
     7
100
AcDbCircle
 10
-411.3881225585938
 20
482.6767272949219
 30
0.0
 40
2.5
100
AcDbArc
 50
180.0000000000004
 51
0.0
  0
ARC
  5
4F3
330
22
100
AcDbEntity
  8
0
  6
Continuous
 62
     7
100
AcDbCircle
 10
-520.3881225585938
 20
465.6767272949219
 30
0.0
 40
2.5
100
AcDbArc
 50
180.0000000000004
 51
0.0
  0
ARC
  5
4F4
330
22
100
AcDbEntity
  8
0
  6
DASHED
 62
     7
100
AcDbCircle
 10
-536.8881225585938
 20
527.6767578124999
 30
0.0
 40
2.0
100
AcDbArc
 50
90.00000000000019
 51
180.0000000000004
  0
ARC
  5
4F5
330
22
100
AcDbEntity
  8
0
  6
DASHED
 62
     7
100
AcDbCircle
 10
-543.8881225585938
 20
526.1767578125
 30
0.0
 40
5.0
100
AcDbArc
 50
270.0000000000005
 51
0.0
  0
CIRCLE
  5
4F6
330
22
100
AcDbEntity
  8
0
  6
Continuous
 62
     7
100
AcDbCircle
 10
-543.8881225585938
 20
526.2022705078124
 30
0.0
 40
4.75
  0
CIRCLE
  5
4F7
330
22
100
AcDbEntity
  8
0
  6
Continuous
 62
     7
100
AcDbCircle
 10
-543.8881225585938
 20
526.2022705078124
 30
0.0
 40
4.5
  0
ARC
  5
4F8
330
22
100
AcDbEntity
  8
0
  6
Continuous
 62
     7
100
AcDbCircle
 10
-560.8881225585938
 20
543.1767578125
 30
0.0
 40
5.0
100
AcDbArc
 50
90.00000000000019
 51
180.0000000000004
  0
ARC
  5
4F9
330
22
100
AcDbEntity
  8
0
  6
DASHED
 62
     7
100
AcDbCircle
 10
-545.3881225585938
 20
519.1767578124999
 30
0.0
 40
2.0
100
AcDbArc
 50
90.00000000000019
 51
180.0000000000004
  0
ARC
  5
4FA
330
22
100
AcDbEntity
  8
0
  6
Continuous
 62
     7
100
AcDbCircle
 10
-520.3881225585938
 20
454.6767272949218
 30
0.0
 40
2.5
100
AcDbArc
 50
0.0
 51
180.0000000000004
  0
ARC
  5
4FB
330
22
100
AcDbEntity
  8
0
  6
Continuous
 62
     7
100
AcDbCircle
 10
-520.3881225585938
 20
488.6767272949218
 30
0.0
 40
2.5
100
AcDbArc
 50
0.0
 51
180.0000000000004
  0
ARC
  5
4FC
330
22
100
AcDbEntity
  8
0
  6
Continuous
 62
     7
100
AcDbCircle
 10
-520.3881225585938
 20
499.6767272949218
 30
0.0
 40
2.5
100
AcDbArc
 50
180.0000000000004
 51
0.0
  0
ARC
  5
4FD
330
22
100
AcDbEntity
  8
0
  6
Continuous
 62
     7
100
AcDbCircle
 10
-520.3881225585938
 20
522.6767578125
 30
0.0
 40
2.5
100
AcDbArc
 50
0.0
 51
180.0000000000004
  0
ARC
  5
4FE
330
22
100
AcDbEntity
  8
0
  6
DASHED
 62
     7
100
AcDbCircle
 10
-433.8881225585938
 20
318.6767272949219
 30
0.0
 40
2.0
100
AcDbArc
 50
180.0000000000004
 51
270.0000000000005
  0
ARC
  5
4FF
330
22
100
AcDbEntity
  8
0
  6
Continuous
 62
     7
100
AcDbCircle
 10
-431.3881225585937
 20
431.6767272949219
 30
0.0
 40
2.5
100
AcDbArc
 50
180.0000000000004
 51
0.0
  0
ARC
  5
500
330
22
100
AcDbEntity
  8
0
  6
Continuous
 62
     7
100
AcDbCircle
 10
-431.3881225585937
 20
414.6767272949218
 30
0.0
 40
2.5
100
AcDbArc
 50
0.0
 51
180.0000000000004
  0
ARC
  5
501
330
22
100
AcDbEntity
  8
0
  6
Continuous
 62
     7
100
AcDbCircle
 10
-431.3881225585937
 20
374.6767272949219
 30
0.0
 40
2.5
100
AcDbArc
 50
180.0000000000004
 51
0.0
  0
ARC
  5
502
330
22
100
AcDbEntity
  8
0
  6
Continuous
 62
     7
100
AcDbCircle
 10
-431.3881225585937
 20
329.6767272949219
 30
0.0
 40
2.5
100
AcDbArc
 50
180.0000000000004
 51
0.0
  0
ARC
  5
503
330
22
100
AcDbEntity
  8
0
  6
Continuous
 62
     7
100
AcDbCircle
 10
-431.3881225585937
 20
363.6767272949219
 30
0.0
 40
2.5
100
AcDbArc
 50
0.0
 51
180.0000000000004
  0
ARC
  5
504
330
22
100
AcDbEntity
  8
0
  6
Continuous
 62
     7
100
AcDbCircle
 10
-550.3881225585939
 20
532.6767578124999
 30
0.0
 40
1.0
100
AcDbArc
 50
90.00000000000019
 51
180.0000000000004
  0
ARC
  5
505
330
22
100
AcDbEntity
  8
0
  6
Continuous
 62
     7
100
AcDbCircle
 10
-548.3881225585938
 20
530.6767578125
 30
0.0
 40
2.0
100
AcDbArc
 50
90.00000000000019
 51
180.0000000000004
  0
ARC
  5
506
330
22
100
AcDbEntity
  8
0
  6
Continuous
 62
     7
100
AcDbCircle
 10
-470.3881225585938
 20
374.6767272949219
 30
0.0
 40
2.5
100
AcDbArc
 50
180.0000000000004
 51
0.0
  0
ARC
  5
507
330
22
100
AcDbEntity
  8
0
  6
DASHED
 62
     7
100
AcDbCircle
 10
-440.8881225585938
 20
320.1767272949219
 30
0.0
 40
5.0
100
AcDbArc
 50
0.0
 51
72.54245995315502
  0
ARC
  5
508
330
22
100
AcDbEntity
  8
0
  6
Continuous
 62
     7
100
AcDbCircle
 10
-500.3881225585938
 20
391.6767272949219
 30
0.0
 40
2.5
100
AcDbArc
 50
180.0000000000004
 51
0.0
  0
ARC
  5
509
330
22
100
AcDbEntity
  8
0
  6
Continuous
 62
     7
100
AcDbCircle
 10
-500.3881225585938
 20
380.6767272949219
 30
0.0
 40
2.5
100
AcDbArc
 50
0.0
 51
180.0000000000004
  0
ARC
  5
50A
330
22
100
AcDbEntity
  8
0
  6
Continuous
 62
     7
100
AcDbCircle
 10
-500.3881225585938
 20
323.6767272949219
 30
0.0
 40
2.5
100
AcDbArc
 50
180.0000000000004
 51
0.0
  0
ARC
  5
50B
330
22
100
AcDbEntity
  8
0
  6
Continuous
 62
     7
100
AcDbCircle
 10
-500.3881225585938
 20
346.6767272949219
 30
0.0
 40
2.5
100
AcDbArc
 50
0.0
 51
180.0000000000004
  0
ARC
  5
50C
330
22
100
AcDbEntity
  8
0
  6
Continuous
 62
     7
100
AcDbCircle
 10
-500.3881225585938
 20
357.6767272949219
 30
0.0
 40
2.5
100
AcDbArc
 50
180.0000000000004
 51
0.0
  0
ARC
  5
50D
330
22
100
AcDbEntity
  8
0
  6
Continuous
 62
     7
100
AcDbCircle
 10
-470.3881225585938
 20
323.6767272949219
 30
0.0
 40
2.5
100
AcDbArc
 50
180.0000000000004
 51
0.0
  0
ARC
  5
50E
330
22
100
AcDbEntity
  8
0
  6
Continuous
 62
     7
100
AcDbCircle
 10
-470.3881225585938
 20
363.6767272949219
 30
0.0
 40
2.5
100
AcDbArc
 50
0.0
 51
180.0000000000004
  0
ARC
  5
50F
330
22
100
AcDbEntity
  8
0
  6
Continuous
 62
     7
100
AcDbCircle
 10
-490.3881225585938
 20
374.6767272949219
 30
0.0
 40
2.5
100
AcDbArc
 50
180.0000000000004
 51
0.0
  0
ARC
  5
510
330
22
100
AcDbEntity
  8
0
  6
Continuous
 62
     7
100
AcDbCircle
 10
-490.3881225585938
 20
323.6767272949219
 30
0.0
 40
2.5
100
AcDbArc
 50
180.0000000000004
 51
0.0
  0
ARC
  5
511
330
22
100
AcDbEntity
  8
0
  6
Continuous
 62
     7
100
AcDbCircle
 10
-490.3881225585938
 20
363.6767272949219
 30
0.0
 40
2.5
100
AcDbArc
 50
0.0
 51
180.0000000000004
  0
ARC
  5
512
330
22
100
AcDbEntity
  8
0
  6
Continuous
 62
     7
100
AcDbCircle
 10
-480.3881225585937
 20
391.6767272949219
 30
0.0
 40
2.5
100
AcDbArc
 50
180.0000000000004
 51
0.0
  0
ARC
  5
513
330
22
100
AcDbEntity
  8
0
  6
Continuous
 62
     7
100
AcDbCircle
 10
-480.3881225585937
 20
380.6767272949219
 30
0.0
 40
2.5
100
AcDbArc
 50
0.0
 51
180.0000000000004
  0
ARC
  5
514
330
22
100
AcDbEntity
  8
0
  6
Continuous
 62
     7
100
AcDbCircle
 10
-480.3881225585937
 20
346.6767272949219
 30
0.0
 40
2.5
100
AcDbArc
 50
0.0
 51
180.0000000000004
  0
ARC
  5
515
330
22
100
AcDbEntity
  8
0
  6
Continuous
 62
     7
100
AcDbCircle
 10
-480.3881225585937
 20
323.6767272949219
 30
0.0
 40
2.5
100
AcDbArc
 50
180.0000000000004
 51
0.0
  0
ARC
  5
516
330
22
100
AcDbEntity
  8
0
  6
Continuous
 62
     7
100
AcDbCircle
 10
-480.3881225585937
 20
357.6767272949219
 30
0.0
 40
2.5
100
AcDbArc
 50
180.0000000000004
 51
0.0
  0
ARC
  5
517
330
22
100
AcDbEntity
  8
0
  6
DASHED
 62
     7
100
AcDbCircle
 10
-445.3881225585938
 20
427.6634826660155
 30
0.0
 40
2.0
100
AcDbArc
 50
270.0000000000005
 51
0.0
  0
ARC
  5
518
330
22
100
AcDbEntity
  8
0
  6
Continuous
 62
     7
100
AcDbCircle
 10
-460.3881225585937
 20
431.6767272949219
 30
0.0
 40
2.5
100
AcDbArc
 50
180.0000000000004
 51
0.0
  0
ARC
  5
519
330
22
100
AcDbEntity
  8
0
  6
Continuous
 62
     7
100
AcDbCircle
 10
-450.3881225585938
 20
431.6767272949219
 30
0.0
 40
2.5
100
AcDbArc
 50
180.0000000000004
 51
0.0
  0
ARC
  5
51A
330
22
100
AcDbEntity
  8
0
  6
Continuous
 62
     7
100
AcDbCircle
 10
-500.3881225585938
 20
431.6767272949219
 30
0.0
 40
2.5
100
AcDbArc
 50
180.0000000000004
 51
0.0
  0
ARC
  5
51B
330
22
100
AcDbEntity
  8
0
  6
Continuous
 62
     7
100
AcDbCircle
 10
-490.3881225585938
 20
431.6767272949219
 30
0.0
 40
2.5
100
AcDbArc
 50
180.0000000000004
 51
0.0
  0
ARC
  5
51C
330
22
100
AcDbEntity
  8
0
  6
Continuous
 62
     7
100
AcDbCircle
 10
-480.3881225585937
 20
431.6767272949219
 30
0.0
 40
2.5
100
AcDbArc
 50
180.0000000000004
 51
0.0
  0
ARC
  5
51D
330
22
100
AcDbEntity
  8
0
  6
Continuous
 62
     7
100
AcDbCircle
 10
-470.3881225585938
 20
431.6767272949219
 30
0.0
 40
2.5
100
AcDbArc
 50
180.0000000000004
 51
0.0
  0
ARC
  5
51E
330
22
100
AcDbEntity
  8
0
  6
DASHED
 62
     7
100
AcDbCircle
 10
-436.3881225585938
 20
418.6767272949218
 30
0.0
 40
2.0
100
AcDbArc
 50
90.00000000000019
 51
180.0000000000004
  0
ARC
  5
51F
330
22
100
AcDbEntity
  8
0
  6
DASHED
 62
     7
100
AcDbCircle
 10
-436.3881225585938
 20
427.6634826660155
 30
0.0
 40
2.0
100
AcDbArc
 50
180.0000000000004
 51
270.0000000000005
  0
ARC
  5
520
330
22
100
AcDbEntity
  8
0
  6
Continuous
 62
     7
100
AcDbCircle
 10
-500.3881225585938
 20
414.6767272949218
 30
0.0
 40
2.5
100
AcDbArc
 50
0.0
 51
180.0000000000004
  0
ARC
  5
521
330
22
100
AcDbEntity
  8
0
  6
Continuous
 62
     7
100
AcDbCircle
 10
-490.3881225585938
 20
414.6767272949218
 30
0.0
 40
2.5
100
AcDbArc
 50
0.0
 51
180.0000000000004
  0
ARC
  5
522
330
22
100
AcDbEntity
  8
0
  6
Continuous
 62
     7
100
AcDbCircle
 10
-480.3881225585937
 20
414.6767272949218
 30
0.0
 40
2.5
100
AcDbArc
 50
0.0
 51
180.0000000000004
  0
ARC
  5
523
330
22
100
AcDbEntity
  8
0
  6
Continuous
 62
     7
100
AcDbCircle
 10
-470.3881225585938
 20
414.6767272949218
 30
0.0
 40
2.5
100
AcDbArc
 50
0.0
 51
180.0000000000004
  0
ARC
  5
524
330
22
100
AcDbEntity
  8
0
  6
DASHED
 62
     7
100
AcDbCircle
 10
-445.3881225585938
 20
418.6767272949218
 30
0.0
 40
2.0
100
AcDbArc
 50
0.0
 51
90.00000000000019
  0
ARC
  5
525
330
22
100
AcDbEntity
  8
0
  6
Continuous
 62
     7
100
AcDbCircle
 10
-460.3881225585937
 20
414.6767272949218
 30
0.0
 40
2.5
100
AcDbArc
 50
0.0
 51
180.0000000000004
  0
ARC
  5
526
330
22
100
AcDbEntity
  8
0
  6
Continuous
 62
     7
100
AcDbCircle
 10
-450.3881225585938
 20
414.6767272949218
 30
0.0
 40
2.5
100
AcDbArc
 50
0.0
 51
180.0000000000004
  0
ARC
  5
527
330
22
100
AcDbEntity
  8
0
  6
DASHED
 62
     7
100
AcDbCircle
 10
-447.8881225585937
 20
318.6767272949219
 30
0.0
 40
2.0
100
AcDbArc
 50
270.0000000000005
 51
0.0
  0
ARC
  5
528
330
22
100
AcDbEntity
  8
0
  6
DASHED
 62
     7
100
AcDbCircle
 10
-440.8881225585938
 20
320.1767272949219
 30
0.0
 40
5.0
100
AcDbArc
 50
107.457540046845
 51
180.0000000000004
  0
CIRCLE
  5
529
330
22
100
AcDbEntity
  8
0
  6
Continuous
 62
     7
100
AcDbCircle
 10
-440.8881225585938
 20
320.1512145996094
 30
0.0
 40
4.5
  0
CIRCLE
  5
52A
330
22
100
AcDbEntity
  8
0
  6
Continuous
 62
     7
100
AcDbCircle
 10
-440.8881225585938
 20
320.1512145996094
 30
0.0
 40
4.5
  0
CIRCLE
  5
52B
330
22
100
AcDbEntity
  8
0
  6
Continuous
 62
     7
100
AcDbCircle
 10
-440.8881225585938
 20
320.1512145996094
 30
0.0
 40
4.75
  0
CIRCLE
  5
52C
330
22
100
AcDbEntity
  8
0
  6
Continuous
 62
     7
100
AcDbCircle
 10
-440.8881225585938
 20
320.1512145996094
 30
0.0
 40
4.75
  0
ARC
  5
52D
330
22
100
AcDbEntity
  8
0
  6
Continuous
 62
     7
100
AcDbCircle
 10
-460.3881225585937
 20
391.6767272949219
 30
0.0
 40
2.5
100
AcDbArc
 50
180.0000000000004
 51
0.0
  0
ARC
  5
52E
330
22
100
AcDbEntity
  8
0
  6
Continuous
 62
     7
100
AcDbCircle
 10
-460.3881225585937
 20
380.6767272949219
 30
0.0
 40
2.5
100
AcDbArc
 50
0.0
 51
180.0000000000004
  0
ARC
  5
52F
330
22
100
AcDbEntity
  8
0
  6
Continuous
 62
     7
100
AcDbCircle
 10
-460.3881225585937
 20
323.6767272949219
 30
0.0
 40
2.5
100
AcDbArc
 50
180.0000000000004
 51
0.0
  0
ARC
  5
530
330
22
100
AcDbEntity
  8
0
  6
Continuous
 62
     7
100
AcDbCircle
 10
-460.3881225585937
 20
346.6767272949219
 30
0.0
 40
2.5
100
AcDbArc
 50
0.0
 51
180.0000000000004
  0
ARC
  5
531
330
22
100
AcDbEntity
  8
0
  6
Continuous
 62
     7
100
AcDbCircle
 10
-450.3881225585938
 20
329.6767272949219
 30
0.0
 40
2.5
100
AcDbArc
 50
180.0000000000004
 51
0.0
  0
ARC
  5
532
330
22
100
AcDbEntity
  8
0
  6
Continuous
 62
     7
100
AcDbCircle
 10
-450.3881225585938
 20
374.6767272949219
 30
0.0
 40
2.5
100
AcDbArc
 50
180.0000000000004
 51
0.0
  0
ARC
  5
533
330
22
100
AcDbEntity
  8
0
  6
Continuous
 62
     7
100
AcDbCircle
 10
-460.3881225585937
 20
357.6767272949219
 30
0.0
 40
2.5
100
AcDbArc
 50
180.0000000000004
 51
0.0
  0
ARC
  5
534
330
22
100
AcDbEntity
  8
0
  6
Continuous
 62
     7
100
AcDbCircle
 10
-450.3881225585938
 20
363.6767272949219
 30
0.0
 40
2.5
100
AcDbArc
 50
0.0
 51
180.0000000000004
  0
ARC
  5
535
330
22
100
AcDbEntity
  8
0
  6
Continuous
 62
     7
100
AcDbCircle
 10
-411.3881225585938
 20
431.6767272949219
 30
0.0
 40
2.5
100
AcDbArc
 50
180.0000000000004
 51
0.0
  0
ARC
  5
536
330
22
100
AcDbEntity
  8
0
  6
Continuous
 62
     7
100
AcDbCircle
 10
-421.3881225585938
 20
431.6767272949219
 30
0.0
 40
2.5
100
AcDbArc
 50
180.0000000000004
 51
0.0
  0
ARC
  5
537
330
22
100
AcDbEntity
  8
0
  6
Continuous
 62
     7
100
AcDbCircle
 10
-411.3881225585938
 20
414.6767272949218
 30
0.0
 40
2.5
100
AcDbArc
 50
0.0
 51
180.0000000000004
  0
ARC
  5
538
330
22
100
AcDbEntity
  8
0
  6
Continuous
 62
     7
100
AcDbCircle
 10
-411.3881225585938
 20
374.6767272949219
 30
0.0
 40
2.5
100
AcDbArc
 50
180.0000000000004
 51
0.0
  0
ARC
  5
539
330
22
100
AcDbEntity
  8
0
  6
Continuous
 62
     7
100
AcDbCircle
 10
-411.3881225585938
 20
323.6767272949219
 30
0.0
 40
2.5
100
AcDbArc
 50
180.0000000000004
 51
0.0
  0
ARC
  5
53A
330
22
100
AcDbEntity
  8
0
  6
Continuous
 62
     7
100
AcDbCircle
 10
-411.3881225585938
 20
363.6767272949219
 30
0.0
 40
2.5
100
AcDbArc
 50
0.0
 51
180.0000000000004
  0
ARC
  5
53B
330
22
100
AcDbEntity
  8
0
  6
Continuous
 62
     7
100
AcDbCircle
 10
-421.3881225585938
 20
414.6767272949218
 30
0.0
 40
2.5
100
AcDbArc
 50
0.0
 51
180.0000000000004
  0
ARC
  5
53C
330
22
100
AcDbEntity
  8
0
  6
Continuous
 62
     7
100
AcDbCircle
 10
-421.3881225585938
 20
380.6767272949219
 30
0.0
 40
2.5
100
AcDbArc
 50
0.0
 51
180.0000000000004
  0
ARC
  5
53D
330
22
100
AcDbEntity
  8
0
  6
Continuous
 62
     7
100
AcDbCircle
 10
-421.3881225585938
 20
391.6767272949219
 30
0.0
 40
2.5
100
AcDbArc
 50
180.0000000000004
 51
0.0
  0
ARC
  5
53E
330
22
100
AcDbEntity
  8
0
  6
Continuous
 62
     7
100
AcDbCircle
 10
-421.3881225585938
 20
346.6767272949219
 30
0.0
 40
2.5
100
AcDbArc
 50
0.0
 51
180.0000000000004
  0
ARC
  5
53F
330
22
100
AcDbEntity
  8
0
  6
Continuous
 62
     7
100
AcDbCircle
 10
-421.3881225585938
 20
323.6767272949219
 30
0.0
 40
2.5
100
AcDbArc
 50
180.0000000000004
 51
0.0
  0
ARC
  5
540
330
22
100
AcDbEntity
  8
0
  6
Continuous
 62
     7
100
AcDbCircle
 10
-421.3881225585938
 20
357.6767272949219
 30
0.0
 40
2.5
100
AcDbArc
 50
180.0000000000004
 51
0.0
  0
ARC
  5
541
330
22
100
AcDbEntity
  8
0
  6
Continuous
 62
     7
100
AcDbCircle
 10
-530.3881225585938
 20
363.6767272949219
 30
0.0
 40
2.5
100
AcDbArc
 50
0.0
 51
180.0000000000004
  0
ARC
  5
542
330
22
100
AcDbEntity
  8
0
  6
Continuous
 62
     7
100
AcDbCircle
 10
-540.3881225585938
 20
357.6767272949219
 30
0.0
 40
2.5
100
AcDbArc
 50
180.0000000000004
 51
0.0
  0
CIRCLE
  5
543
330
22
100
AcDbEntity
  8
0
  6
Continuous
 62
     7
100
AcDbCircle
 10
-543.8881225585938
 20
320.1512145996094
 30
0.0
 40
4.75
  0
CIRCLE
  5
544
330
22
100
AcDbEntity
  8
0
  6
Continuous
 62
     7
100
AcDbCircle
 10
-543.8881225585938
 20
320.1512145996094
 30
0.0
 40
4.75
  0
CIRCLE
  5
545
330
22
100
AcDbEntity
  8
0
  6
Continuous
 62
     7
100
AcDbCircle
 10
-543.8881225585938
 20
320.1512145996094
 30
0.0
 40
4.5
  0
ARC
  5
546
330
22
100
AcDbEntity
  8
0
  6
Continuous
 62
     7
100
AcDbCircle
 10
-540.3881225585938
 20
391.6767272949219
 30
0.0
 40
2.5
100
AcDbArc
 50
180.0000000000004
 51
0.0
  0
ARC
  5
547
330
22
100
AcDbEntity
  8
0
  6
Continuous
 62
     7
100
AcDbCircle
 10
-530.3881225585938
 20
374.6767272949219
 30
0.0
 40
2.5
100
AcDbArc
 50
180.0000000000004
 51
0.0
  0
ARC
  5
548
330
22
100
AcDbEntity
  8
0
  6
Continuous
 62
     7
100
AcDbCircle
 10
-540.3881225585938
 20
380.6767272949219
 30
0.0
 40
2.5
100
AcDbArc
 50
0.0
 51
180.0000000000004
  0
ARC
  5
549
330
22
100
AcDbEntity
  8
0
  6
Continuous
 62
     7
100
AcDbCircle
 10
-540.3881225585938
 20
434.6767272949218
 30
0.0
 40
2.5
100
AcDbArc
 50
180.0000000000004
 51
0.0
  0
ARC
  5
54A
330
22
100
AcDbEntity
  8
0
  6
DASHED
 62
     7
100
AcDbCircle
 10
-536.8881225585938
 20
318.6767272949219
 30
0.0
 40
2.0
100
AcDbArc
 50
180.0000000000004
 51
270.0000000000005
  0
ARC
  5
54B
330
22
100
AcDbEntity
  8
0
  6
Continuous
 62
     7
100
AcDbCircle
 10
-530.3881225585938
 20
323.6767272949219
 30
0.0
 40
2.5
100
AcDbArc
 50
180.0000000000004
 51
0.0
  0
ARC
  5
54C
330
22
100
AcDbEntity
  8
0
  6
Continuous
 62
     7
100
AcDbCircle
 10
-540.3881225585938
 20
329.6767272949219
 30
0.0
 40
2.5
100
AcDbArc
 50
180.0000000000004
 51
0.0
  0
ARC
  5
54D
330
22
100
AcDbEntity
  8
0
  6
Continuous
 62
     7
100
AcDbCircle
 10
-540.3881225585938
 20
346.6767272949219
 30
0.0
 40
2.5
100
AcDbArc
 50
0.0
 51
180.0000000000004
  0
ARC
  5
54E
330
22
100
AcDbEntity
  8
0
  6
Continuous
 62
     7
100
AcDbCircle
 10
-530.3881225585938
 20
414.6767272949218
 30
0.0
 40
2.5
100
AcDbArc
 50
0.0
 51
180.0000000000004
  0
ARC
  5
54F
330
22
100
AcDbEntity
  8
0
  6
Continuous
 62
     7
100
AcDbCircle
 10
-520.3881225585938
 20
414.6767272949218
 30
0.0
 40
2.5
100
AcDbArc
 50
0.0
 51
180.0000000000004
  0
ARC
  5
550
330
22
100
AcDbEntity
  8
0
  6
DASHED
 62
     7
100
AcDbCircle
 10
-543.8881225585938
 20
320.1767272949219
 30
0.0
 40
5.0
100
AcDbArc
 50
0.0
 51
90.00000000000019
  0
ARC
  5
551
330
22
100
AcDbEntity
  8
0
  6
Continuous
 62
     7
100
AcDbCircle
 10
-520.3881225585938
 20
380.6767272949219
 30
0.0
 40
2.5
100
AcDbArc
 50
0.0
 51
180.0000000000004
  0
ARC
  5
552
330
22
100
AcDbEntity
  8
0
  6
Continuous
 62
     7
100
AcDbCircle
 10
-520.3881225585938
 20
391.6767272949219
 30
0.0
 40
2.5
100
AcDbArc
 50
180.0000000000004
 51
0.0
  0
ARC
  5
553
330
22
100
AcDbEntity
  8
0
  6
Continuous
 62
     7
100
AcDbCircle
 10
-520.3881225585938
 20
323.6767272949219
 30
0.0
 40
2.5
100
AcDbArc
 50
180.0000000000004
 51
0.0
  0
ARC
  5
554
330
22
100
AcDbEntity
  8
0
  6
Continuous
 62
     7
100
AcDbCircle
 10
-520.3881225585938
 20
346.6767272949219
 30
0.0
 40
2.5
100
AcDbArc
 50
0.0
 51
180.0000000000004
  0
ARC
  5
555
330
22
100
AcDbEntity
  8
0
  6
Continuous
 62
     7
100
AcDbCircle
 10
-520.3881225585938
 20
357.6767272949219
 30
0.0
 40
2.5
100
AcDbArc
 50
180.0000000000004
 51
0.0
  0
ARC
  5
556
330
22
100
AcDbEntity
  8
0
  6
DASHED
 62
     7
100
AcDbCircle
 10
-545.3881225585938
 20
327.1767272949219
 30
0.0
 40
2.0
100
AcDbArc
 50
180.0000000000004
 51
270.0000000000005
  0
CIRCLE
  5
557
330
22
100
AcDbEntity
  8
0
  6
Continuous
 62
     7
100
AcDbCircle
 10
-543.8881225585938
 20
320.1512145996094
 30
0.0
 40
4.5
  0
ARC
  5
558
330
22
100
AcDbEntity
  8
0
  6
DASHED
 62
     7
100
AcDbCircle
 10
-545.3881225585938
 20
430.1767272949218
 30
0.0
 40
2.0
100
AcDbArc
 50
180.0000000000004
 51
270.0000000000005
  0
ARC
  5
559
330
22
100
AcDbEntity
  8
0
  6
Continuous
 62
     7
100
AcDbCircle
 10
-530.3881225585938
 20
431.6767272949219
 30
0.0
 40
2.5
100
AcDbArc
 50
180.0000000000004
 51
0.0
  0
ARC
  5
55A
330
22
100
AcDbEntity
  8
0
  6
Continuous
 62
     7
100
AcDbCircle
 10
-520.3881225585938
 20
431.6767272949219
 30
0.0
 40
2.5
100
AcDbArc
 50
180.0000000000004
 51
0.0
  0
ARC
  5
55B
330
22
100
AcDbEntity
  8
0
  6
Continuous
 62
     7
100
AcDbCircle
 10
-550.3881225585939
 20
313.6767272949219
 30
0.0
 40
1.0
100
AcDbArc
 50
180.0000000000004
 51
270.0000000000005
  0
ARC
  5
55C
330
22
100
AcDbEntity
  8
0
  6
Continuous
 62
     7
100
AcDbCircle
 10
-548.3881225585938
 20
315.6767272949219
 30
0.0
 40
2.0
100
AcDbArc
 50
180.0000000000004
 51
270.0000000000005
  0
ARC
  5
55D
330
22
100
AcDbEntity
  8
0
  6
Continuous
 62
     7
100
AcDbCircle
 10
-560.8881225585938
 20
303.1767272949219
 30
0.0
 40
5.0
100
AcDbArc
 50
180.0000000000004
 51
270.0000000000005
  0
ARC
  5
55E
330
22
100
AcDbEntity
  8
0
  6
Continuous
 62
     7
100
AcDbCircle
 10
-540.3881225585938
 20
411.6767272949219
 30
0.0
 40
2.5
100
AcDbArc
 50
0.0
 51
180.0000000000004
  0
CIRCLE
  5
55F
330
22
100
AcDbEntity
  8
0
  6
Continuous
 62
     7
100
AcDbCircle
 10
-543.6077880859374
 20
423.1767272949218
 30
0.0
 40
4.5
  0
CIRCLE
  5
560
330
22
100
AcDbEntity
  8
0
  6
Continuous
 62
     7
100
AcDbCircle
 10
-543.6077880859374
 20
423.1767272949218
 30
0.0
 40
4.75
  0
ARC
  5
561
330
22
100
AcDbEntity
  8
0
  6
DASHED
 62
     7
100
AcDbCircle
 10
-545.3881225585938
 20
416.1767272949218
 30
0.0
 40
2.0
100
AcDbArc
 50
90.00000000000019
 51
180.0000000000004
  0
ARC
  5
562
330
22
100
AcDbEntity
  8
0
  6
DASHED
 62
     7
100
AcDbCircle
 10
-543.6077880859374
 20
423.1767272949218
 30
0.0
 40
5.0
100
AcDbArc
 50
270.0000000000005
 51
342.5424599531557
  0
ARC
  5
563
330
22
100
AcDbEntity
  8
0
  6
DASHED
 62
     7
100
AcDbCircle
 10
-543.6077880859374
 20
423.1767272949218
 30
0.0
 40
5.0
100
AcDbArc
 50
20.93775957506324
 51
90.00000000000019
  0
ARC
  5
564
330
22
100
AcDbEntity
  8
0
  6
Continuous
 62
     7
100
AcDbCircle
 10
-510.3881225585937
 20
431.6767272949219
 30
0.0
 40
2.5
100
AcDbArc
 50
180.0000000000004
 51
0.0
  0
ARC
  5
565
330
22
100
AcDbEntity
  8
0
  6
Continuous
 62
     7
100
AcDbCircle
 10
-510.3881225585937
 20
414.6767272949218
 30
0.0
 40
2.5
100
AcDbArc
 50
0.0
 51
180.0000000000004
  0
ARC
  5
566
330
22
100
AcDbEntity
  8
0
  6
Continuous
 62
     7
100
AcDbCircle
 10
-510.3881225585937
 20
374.6767272949219
 30
0.0
 40
2.5
100
AcDbArc
 50
180.0000000000004
 51
0.0
  0
ARC
  5
567
330
22
100
AcDbEntity
  8
0
  6
Continuous
 62
     7
100
AcDbCircle
 10
-510.3881225585937
 20
323.6767272949219
 30
0.0
 40
2.5
100
AcDbArc
 50
180.0000000000004
 51
0.0
  0
ARC
  5
568
330
22
100
AcDbEntity
  8
0
  6
Continuous
 62
     7
100
AcDbCircle
 10
-510.3881225585937
 20
363.6767272949219
 30
0.0
 40
2.5
100
AcDbArc
 50
0.0
 51
180.0000000000004
  0
ARC
  5
569
330
22
100
AcDbEntity
  8
0
  6
Continuous
 62
     7
100
AcDbCircle
 10
-510.3881225585937
 20
482.6767272949219
 30
0.0
 40
2.5
100
AcDbArc
 50
180.0000000000004
 51
0.0
  0
ARC
  5
56A
330
22
100
AcDbEntity
  8
0
  6
Continuous
 62
     7
100
AcDbCircle
 10
-510.3881225585937
 20
471.6767272949218
 30
0.0
 40
2.5
100
AcDbArc
 50
0.0
 51
180.0000000000004
  0
ARC
  5
56B
330
22
100
AcDbEntity
  8
0
  6
Continuous
 62
     7
100
AcDbCircle
 10
-510.3881225585937
 20
522.6767578125
 30
0.0
 40
2.5
100
AcDbArc
 50
0.0
 51
180.0000000000004
  0
ARC
  5
56C
330
22
100
AcDbEntity
  8
0
  6
Continuous
 62
     7
100
AcDbCircle
 10
-391.3881225585938
 20
363.6767272949219
 30
0.0
 40
2.5
100
AcDbArc
 50
0.0
 51
180.0000000000004
  0
ARC
  5
56D
330
22
100
AcDbEntity
  8
0
  6
Continuous
 62
     7
100
AcDbCircle
 10
-401.3881225585937
 20
391.6767272949219
 30
0.0
 40
2.5
100
AcDbArc
 50
180.0000000000004
 51
0.0
  0
ARC
  5
56E
330
22
100
AcDbEntity
  8
0
  6
Continuous
 62
     7
100
AcDbCircle
 10
-401.3881225585937
 20
380.6767272949219
 30
0.0
 40
2.5
100
AcDbArc
 50
0.0
 51
180.0000000000004
  0
ARC
  5
56F
330
22
100
AcDbEntity
  8
0
  6
Continuous
 62
     7
100
AcDbCircle
 10
-401.3881225585937
 20
346.6767272949219
 30
0.0
 40
2.5
100
AcDbArc
 50
0.0
 51
180.0000000000004
  0
ARC
  5
570
330
22
100
AcDbEntity
  8
0
  6
Continuous
 62
     7
100
AcDbCircle
 10
-401.3881225585937
 20
323.6767272949219
 30
0.0
 40
2.5
100
AcDbArc
 50
180.0000000000004
 51
0.0
  0
ARC
  5
571
330
22
100
AcDbEntity
  8
0
  6
Continuous
 62
     7
100
AcDbCircle
 10
-401.3881225585937
 20
357.6767272949219
 30
0.0
 40
2.5
100
AcDbArc
 50
180.0000000000004
 51
0.0
  0
ARC
  5
572
330
22
100
AcDbEntity
  8
0
  6
Continuous
 62
     7
100
AcDbCircle
 10
-391.3881225585938
 20
522.6767578125
 30
0.0
 40
2.5
100
AcDbArc
 50
0.0
 51
180.0000000000004
  0
ARC
  5
573
330
22
100
AcDbEntity
  8
0
  6
Continuous
 62
     7
100
AcDbCircle
 10
-391.3881225585938
 20
471.6767272949218
 30
0.0
 40
2.5
100
AcDbArc
 50
0.0
 51
180.0000000000004
  0
ARC
  5
574
330
22
100
AcDbEntity
  8
0
  6
Continuous
 62
     7
100
AcDbCircle
 10
-391.3881225585938
 20
482.6767272949219
 30
0.0
 40
2.5
100
AcDbArc
 50
180.0000000000004
 51
0.0
  0
ARC
  5
575
330
22
100
AcDbEntity
  8
0
  6
Continuous
 62
     7
100
AcDbCircle
 10
-401.3881225585937
 20
522.6767578125
 30
0.0
 40
2.5
100
AcDbArc
 50
0.0
 51
180.0000000000004
  0
ARC
  5
576
330
22
100
AcDbEntity
  8
0
  6
Continuous
 62
     7
100
AcDbCircle
 10
-401.3881225585937
 20
499.6767272949218
 30
0.0
 40
2.5
100
AcDbArc
 50
180.0000000000004
 51
0.0
  0
ARC
  5
577
330
22
100
AcDbEntity
  8
0
  6
Continuous
 62
     7
100
AcDbCircle
 10
-401.3881225585937
 20
454.6767272949218
 30
0.0
 40
2.5
100
AcDbArc
 50
0.0
 51
180.0000000000004
  0
ARC
  5
578
330
22
100
AcDbEntity
  8
0
  6
Continuous
 62
     7
100
AcDbCircle
 10
-401.3881225585937
 20
465.6767272949219
 30
0.0
 40
2.5
100
AcDbArc
 50
180.0000000000004
 51
0.0
  0
ARC
  5
579
330
22
100
AcDbEntity
  8
0
  6
Continuous
 62
     7
100
AcDbCircle
 10
-401.3881225585937
 20
488.6767272949218
 30
0.0
 40
2.5
100
AcDbArc
 50
0.0
 51
180.0000000000004
  0
ARC
  5
57A
330
22
100
AcDbEntity
  8
0
  6
Continuous
 62
     7
100
AcDbCircle
 10
-391.3881225585938
 20
431.6767272949219
 30
0.0
 40
2.5
100
AcDbArc
 50
180.0000000000004
 51
0.0
  0
ARC
  5
57B
330
22
100
AcDbEntity
  8
0
  6
Continuous
 62
     7
100
AcDbCircle
 10
-401.3881225585937
 20
431.6767272949219
 30
0.0
 40
2.5
100
AcDbArc
 50
180.0000000000004
 51
0.0
  0
ARC
  5
57C
330
22
100
AcDbEntity
  8
0
  6
Continuous
 62
     7
100
AcDbCircle
 10
-391.3881225585938
 20
414.6767272949218
 30
0.0
 40
2.5
100
AcDbArc
 50
0.0
 51
180.0000000000004
  0
ARC
  5
57D
330
22
100
AcDbEntity
  8
0
  6
Continuous
 62
     7
100
AcDbCircle
 10
-401.3881225585937
 20
414.6767272949218
 30
0.0
 40
2.5
100
AcDbArc
 50
0.0
 51
180.0000000000004
  0
ARC
  5
57E
330
22
100
AcDbEntity
  8
0
  6
Continuous
 62
     7
100
AcDbCircle
 10
-391.3881225585938
 20
374.6767272949219
 30
0.0
 40
2.5
100
AcDbArc
 50
180.0000000000004
 51
0.0
  0
ARC
  5
57F
330
22
100
AcDbEntity
  8
0
  6
Continuous
 62
     7
100
AcDbCircle
 10
-391.3881225585938
 20
323.6767272949219
 30
0.0
 40
2.5
100
AcDbArc
 50
180.0000000000004
 51
0.0
  0
TEXT
  5
580
330
22
100
AcDbEntity
  8
0
  6
Continuous
 62
     7
100
AcDbText
 10
-334.018853187561
 20
42.24224472045897
 30
0.0
 40
7.0
  1
DL-SK4-50
 41
1.018441630205992
100
AcDbText
  0
DIMENSION
  5
581
330
22
100
AcDbEntity
  8
0
  6
Continuous
 62
     7
100
AcDbDimension
  2
*D1
 10
-281.8045959472656
 20
83.0848388671875
 30
0.0
 11
-281.8045959472656
 21
69.00648498535156
 31
0.0
 71
     5
 42
-1.0
  3
DIMSTYLE1
100
AcDbAlignedDimension
 13
-300.1751098632813
 23
86.5848388671875
 33
0.0
 14
-358.3881225585938
 24
83.0848388671875
 34
0.0
 50
90.0
100
AcDbRotatedDimension
  0
DIMENSION
  5
582
330
22
100
AcDbEntity
  8
0
  6
Continuous
 62
     7
100
AcDbDimension
  2
*D2
 10
-435.2436828613281
 20
196.5848388671875
 30
0.0
 11
-435.2436828613281
 21
146.5848388671875
 31
0.0
 71
     5
 42
-1.0
  3
DIMSTYLE2
100
AcDbAlignedDimension
 13
-440.8881225585938
 23
96.5848388671875
 33
0.0
 14
-433.4781188964844
 24
196.5848388671875
 34
0.0
 50
90.0
100
AcDbRotatedDimension
  0
DIMENSION
  5
583
330
22
100
AcDbEntity
  8
0
  6
Continuous
 62
     7
100
AcDbDimension
  2
*D3
 10
-295.1925048828125
 20
116.5848388671875
 30
0.0
 11
-295.1925048828125
 21
101.5848388671875
 31
0.0
 71
     5
 42
-1.0
  3
DIMSTYLE3
100
AcDbAlignedDimension
 13
-279.5186157226563
 23
86.5848388671875
 33
0.0
 14
-408.8881225585938
 24
116.5848388671875
 34
0.0
 50
90.0
100
AcDbRotatedDimension
  0
DIMENSION
  5
584
330
22
100
AcDbEntity
  8
0
  6
Continuous
 62
     7
100
AcDbDimension
  2
*D4
 10
-281.8045959472656
 20
548.1767578124999
 30
0.0
 11
-281.8045959472656
 21
423.1767272949218
 31
0.0
 71
     5
 42
-1.0
  3
DIMSTYLE4
100
AcDbAlignedDimension
 13
-320.8881225585938
 23
298.1767272949219
 33
0.0
 14
-320.8881225585938
 24
548.1767578124999
 34
0.0
 50
90.0
100
AcDbRotatedDimension
  0
DIMENSION
  5
585
330
22
100
AcDbEntity
  8
0
  6
Continuous
 62
     7
100
AcDbDimension
  2
*D5
 10
-295.1925048828125
 20
533.6767578125
 30
0.0
 11
-295.1925048828125
 21
423.1767272949218
 31
0.0
 71
     5
 42
-1.0
  3
DIMSTYLE5
100
AcDbAlignedDimension
 13
-331.3881225585938
 23
312.6767272949219
 33
0.0
 14
-331.3881225585938
 24
533.6767578125
 34
0.0
 50
90.0
100
AcDbRotatedDimension
  0
DIMENSION
  5
586
330
22
100
AcDbEntity
  8
0
  6
Continuous
 62
     7
100
AcDbDimension
  2
*D6
 10
-315.8881225585938
 20
573.2809448242187
 30
0.0
 11
-440.8881225585938
 21
573.2809448242187
 31
0.0
 71
     5
 42
-1.0
  3
DIMSTYLE6
100
AcDbAlignedDimension
 13
-565.8881225585937
 23
543.1767578125
 33
0.0
 14
-315.8881225585938
 24
543.1767578125
 34
0.0
100
AcDbRotatedDimension
  0
DIMENSION
  5
587
330
22
100
AcDbEntity
  8
0
  6
Continuous
 62
     7
100
AcDbDimension
  2
*D7
 10
-330.3881225585938
 20
562.79296875
 30
0.0
 11
-440.8881225585938
 21
562.79296875
 31
0.0
 71
     5
 42
-1.0
  3
DIMSTYLE7
100
AcDbAlignedDimension
 13
-551.3881225585938
 23
532.6767578124999
 33
0.0
 14
-330.3881225585938
 24
532.6767578124999
 34
0.0
100
AcDbRotatedDimension
  0
DIMENSION
  5
588
330
22
100
AcDbEntity
  8
0
  6
Continuous
 62
     7
100
AcDbDimension
  2
*D8
 10
-357.8881225585938
 20
23.23068428039551
 30
0.0
 11
-440.8881225585938
 21
23.23068428039551
 31
0.0
 71
     5
 42
-1.0
  3
DIMSTYLE8
100
AcDbAlignedDimension
 13
-523.8881225585938
 23
83.58483886718749
 33
0.0
 14
-357.8881225585938
 24
83.58483886718749
 34
0.0
100
AcDbRotatedDimension
  0
DIMENSION
  5
589
330
22
100
AcDbEntity
  8
0
  6
Continuous
 62
     7
100
AcDbDimension
  2
*D9
 10
-406.8881225585938
 20
32.28783416748047
 30
0.0
 11
-440.8881225585938
 21
32.28783416748047
 31
0.0
 71
     5
 42
-1.0
  3
DIMSTYLE9
100
AcDbAlignedDimension
 13
-474.8881225585938
 23
55.5848388671875
 33
0.0
 14
-406.8881225585938
 24
55.5848388671875
 34
0.0
100
AcDbRotatedDimension
  0
DIMENSION
  5
58A
330
22
100
AcDbEntity
  8
0
  6
Continuous
 62
     7
100
AcDbDimension
  2
*D10
 10
-549.6434326171875
 20
116.5848388671875
 30
0.0
 11
-549.6434326171875
 21
85.5848388671875
 31
0.0
 71
     5
 42
-1.0
  3
DIMSTYLE10
100
AcDbAlignedDimension
 13
-473.8881225585938
 23
54.5848388671875
 33
0.0
 14
-472.8881225585937
 24
116.5848388671875
 34
0.0
 50
90.0
100
AcDbRotatedDimension
  0
DIMENSION
  5
58B
330
22
100
AcDbEntity
  8
0
  6
Continuous
 62
     7
100
AcDbDimension
  2
*D11
 10
-489.8881225585937
 20
59.81912994384765
 30
0.0
 11
-482.3881225585938
 21
59.81912994384765
 31
0.0
 71
     5
 42
-1.0
  3
DIMSTYLE11
100
AcDbAlignedDimension
 13
-474.8881225585938
 23
55.5848388671875
 33
0.0
 14
-489.8881225585937
 24
81.55752563476562
 34
0.0
100
AcDbRotatedDimension
  0
DIMENSION
  5
58C
330
22
100
AcDbEntity
  8
0
  6
Continuous
 62
     7
100
AcDbDimension
  2
*D12
 10
-500.2847290039063
 20
67.0848388671875
 30
0.0
 11
-500.2847290039063
 21
75.0848388671875
 31
0.0
 71
     5
 42
-1.0
  3
DIMSTYLE12
100
AcDbAlignedDimension
 13
-523.3881225585938
 23
83.0848388671875
 33
0.0
 14
-477.0229797363281
 24
67.0848388671875
 34
0.0
 50
90.0
100
AcDbRotatedDimension
  0
INSERT
  5
58D
330
22
100
AcDbEntity
  8
0
  6
Continuous
 62
     7
100
AcDbBlockReference
  2
KOZU0001
 10
-480.1853027343749
 20
77.92991638183593
 30
0.0
  0
INSERT
  5
58E
330
22
100
AcDbEntity
  8
0
  6
Continuous
 62
     7
100
AcDbBlockReference
  2
KOZU0002
 10
-411.5166625976563
 20
68.29791259765625
 30
0.0
  0
DIMENSION
  5
58F
330
22
100
AcDbEntity
  8
0
  6
Continuous
 62
     7
100
AcDbDimension
  2
*D13
 10
-281.8045959472656
 20
275.5848388671875
 30
0.0
 11
-281.8045959472656
 21
181.0848388671875
 31
0.0
 71
     5
 42
-1.0
  3
DIMSTYLE13
100
AcDbAlignedDimension
 13
-359.8881225585938
 23
86.5848388671875
 33
0.0
 14
-316.8881225585938
 24
275.5848388671875
 34
0.0
 50
90.0
100
AcDbRotatedDimension
  0
DIMENSION
  5
590
330
22
100
AcDbEntity
  8
0
  6
Continuous
 62
     7
100
AcDbDimension
  2
*D14
 10
-295.1925048828125
 20
180.5848388671875
 30
0.0
 11
-295.1925048828125
 21
228.0848388671875
 31
0.0
 71
     5
 42
-1.0
  3
DIMSTYLE14
100
AcDbAlignedDimension
 13
-279.5186157226563
 23
275.5848388671875
 33
0.0
 14
-408.3881225585938
 24
180.5848388671875
 34
0.0
 50
90.0
100
AcDbRotatedDimension
  0
DIMENSION
  5
591
330
22
100
AcDbEntity
  8
0
  6
Continuous
 62
     7
100
AcDbDimension
  2
*D15
 10
-425.1068115234375
 20
146.5848388671875
 30
0.0
 11
-425.1068115234375
 21
121.5848388671875
 31
0.0
 71
     5
 42
-1.0
  3
DIMSTYLE15
100
AcDbAlignedDimension
 13
-423.5543823242188
 23
96.5848388671875
 33
0.0
 14
-412.6537170410156
 24
146.5848388671875
 34
0.0
 50
90.0
100
AcDbRotatedDimension
  0
ENDSEC
  0
SECTION
  2
OBJECTS
  0
DICTIONARY
  5
C
330
0
100
AcDbDictionary
281
     1
  3
ACAD_COLOR
350
1B
  3
ACAD_GROUP
350
D
  3
ACAD_LAYOUT
350
19
  3
ACAD_MATERIAL
350
1A
  3
ACAD_MLINESTYLE
350
16
  3
ACAD_PLOTSETTINGS
350
18
  3
ACAD_PLOTSTYLENAME
350
E
  3
ACAD_TABLESTYLE
350
1C
  3
AcDbVariableDictionary
350
59D
  0
DICTIONARY
  5
1B
102
{ACAD_REACTORS
330
C
102
}
330
C
100
AcDbDictionary
281
     1
  0
DICTIONARY
  5
D
102
{ACAD_REACTORS
330
C
102
}
330
C
100
AcDbDictionary
281
     1
  0
DICTIONARY
  5
19
102
{ACAD_REACTORS
330
C
102
}
330
C
100
AcDbDictionary
281
     1
  3
Model
350
25
  3
レイアウト1
350
21
  0
DICTIONARY
  5
1A
102
{ACAD_REACTORS
330
C
102
}
330
C
100
AcDbDictionary
281
     1
  0
DICTIONARY
  5
16
102
{ACAD_REACTORS
330
C
102
}
330
C
100
AcDbDictionary
281
     1
  3
Standard
350
17
  0
DICTIONARY
  5
18
102
{ACAD_REACTORS
330
C
102
}
330
C
100
AcDbDictionary
281
     1
  0
ACDBDICTIONARYWDFLT
  5
E
102
{ACAD_REACTORS
330
C
102
}
330
C
100
AcDbDictionary
281
     1
  3
Normal
350
F
100
AcDbDictionaryWithDefault
340
F
  0
DICTIONARY
  5
1C
102
{ACAD_REACTORS
330
C
102
}
330
C
100
AcDbDictionary
281
     1
  3
Standard
350
1D
  0
DICTIONARY
  5
59D
102
{ACAD_REACTORS
330
C
102
}
330
C
100
AcDbDictionary
281
     1
  3
CTABLESTYLE
350
59E
  0
LAYOUT
  5
25
102
{ACAD_REACTORS
330
19
102
}
330
19
100
AcDbPlotSettings
  1

  2
PDF reDirect v2
  4
User120
  6

 40
3.174999952316284
 41
3.174999952316284
 42
3.17498779296875
 43
3.17498779296875
 44
594.0
 45
841.0
 46
0.0
 47
0.0
 48
0.0
 49
0.0
140
0.0
141
0.0
142
1.0
143
1.0
 70
 11952
 72
     1
 73
     1
 74
     2
  7
C:\Users\ck\AppData\Roaming\Autodesk\AutoCAD 2005\R16.1\jpn\Plot Styles\black.ctb
 75
    16
147
1.0
 76
     0
 77
     2
 78
   300
148
839.0
149
0.0
100
AcDbLayout
  1
Model
 70
     1
 71
     0
 10
0.0
 20
0.0
 11
12.0
 21
9.0
 12
0.0
 22
0.0
 32
0.0
 14
0.0
 24
0.0
 34
0.0
 15
0.0
 25
0.0
 35
0.0
146
0.0
 13
0.0
 23
0.0
 33
0.0
 16
1.0
 26
0.0
 36
0.0
 17
0.0
 27
1.0
 37
0.0
 76
     0
330
22
1001
ACAD_PSEXT
1000
PDF reDirect v2
1000
PDF reDirect Pro
1000
PDF_REDIRECT_PORT:
1000
PDF reDirect provided by EXP Systems
1070
     0
  0
LAYOUT
  5
21
102
{ACAD_REACTORS
330
19
102
}
330
19
100
AcDbPlotSettings
  1

  2
PDF reDirect v2
  4

  6

 40
0.0
 41
0.0
 42
0.0
 43
0.0
 44
0.0
 45
0.0
 46
0.0
 47
0.0
 48
0.0
 49
0.0
140
0.0
141
0.0
142
1.0
143
1.0
 70
   688
 72
     0
 73
     0
 74
     5
  7
C:\Users\ck\AppData\Roaming\Autodesk\AutoCAD 2005\R16.1\jpn\Plot Styles\black.ctb
 75
    16
147
1.0
 76
     0
 77
     2
 78
   300
148
0.0
149
0.0
100
AcDbLayout
  1
レイアウト1
 70
     1
 71
     1
 10
-839.0
 20
0.0
 11
0.0
 21
591.0
 12
0.0
 22
0.0
 32
0.0
 14
1.000000000000000E+20
 24
1.000000000000000E+20
 34
1.000000000000000E+20
 15
-1.000000000000000E+20
 25
-1.000000000000000E+20
 35
-1.000000000000000E+20
146
0.0
 13
0.0
 23
0.0
 33
0.0
 16
1.0
 26
0.0
 36
0.0
 17
0.0
 27
1.0
 37
0.0
 76
     0
330
1E
  0
MLINESTYLE
  5
17
102
{ACAD_REACTORS
330
16
102
}
330
16
100
AcDbMlineStyle
  2
STANDARD
 70
     0
  3

 62
   256
 51
90.0
 52
90.0
 71
     2
 49
0.5
 62
   256
  6
BYLAYER
 49
-0.5
 62
   256
  6
BYLAYER
  0
ACDBPLACEHOLDER
  5
F
102
{ACAD_REACTORS
330
E
102
}
330
E
  0
TABLESTYLE
  5
1D
102
{ACAD_REACTORS
330
1C
102
}
330
1C
100
AcDbTableStyle
  3
Standard
 70
     0
 71
     0
 40
0.06
 41
0.06
280
     0
281
     0
  7
STANDARD
140
0.18
170
     2
 62
     0
 63
     7
283
     0
274
    -2
284
     1
 64
     0
275
    -2
285
     1
 65
     0
276
    -2
286
     1
 66
     0
277
    -2
287
     1
 67
     0
278
    -2
288
     1
 68
     0
279
    -2
289
     1
 69
     0
  7
STANDARD
140
0.25
170
     5
 62
     0
 63
     7
283
     0
274
    -2
284
     1
 64
     0
275
    -2
285
     1
 65
     0
276
    -2
286
     1
 66
     0
277
    -2
287
     1
 67
     0
278
    -2
288
     1
 68
     0
279
    -2
289
     1
 69
     0
  7
STANDARD
140
0.18
170
     5
 62
     0
 63
     7
283
     0
274
    -2
284
     1
 64
     0
275
    -2
285
     1
 65
     0
276
    -2
286
     1
 66
     0
277
    -2
287
     1
 67
     0
278
    -2
288
     1
 68
     0
279
    -2
289
     1
 69
     0
  0
DICTIONARYVAR
  5
59E
102
{ACAD_REACTORS
330
59D
102
}
330
59D
100
DictionaryVariables
280
     0
  1
STANDARD
  0
ENDSEC
  0
EOF
